0
SECTION
2
HEADER
9
$ACADVER
1
AC1015
9
$ACADMAINTVER
70
20
9
$DWGCODEPAGE
3
ANSI_1252
9
$INSBASE
10
0.0
20
0.0
30
0.0
9
$EXTMIN
10
-150.000000000000
20
-105.000000000000
30
0.0
9
$EXTMAX
10
150.000000000000
20
105.000000000000
30
0.0
9
$LIMMIN
10
0.0
20
0.0
9
$LIMMAX
10
12.0
20
9.0
9
$ORTHOMODE
70
0
9
$REGENMODE
70
1
9
$FILLMODE
70
1
9
$QTEXTMODE
70
0
9
$MIRRTEXT
70
1
9
$LTSCALE
40
1.0
9
$ATTMODE
70
1
9
$TEXTSIZE
40
0.2
9
$TRACEWID
40
0.05
9
$TEXTSTYLE
7
Standard
9
$CLAYER
8
0
9
$CELTYPE
6
ByLayer
9
$CECOLOR
62
256
9
$CELTSCALE
40
1.0
9
$DISPSILH
70
0
9
$DIMSCALE
40
1.0
9
$DIMASZ
40
2.5
9
$DIMEXO
40
0.625
9
$DIMDLI
40
0.38
9
$DIMRND
40
0.0
9
$DIMDLE
40
0.0
9
$DIMEXE
40
1.25
9
$DIMTP
40
0.0
9
$DIMTM
40
0.000000001
9
$DIMTXT
40
2.5
9
$DIMCEN
40
0.09
9
$DIMTSZ
40
0.0
9
$DIMTOL
70
1
9
$DIMLIM
70
0
9
$DIMTIH
70
0
9
$DIMTOH
70
0
9
$DIMSE1
70
0
9
$DIMSE2
70
0
9
$DIMTAD
70
1
9
$DIMZIN
70
0
9
$DIMBLK
1
VDDIM_DEFAULT
9
$DIMASO
70
1
9
$DIMSHO
70
1
9
$DIMPOST
1

9
$DIMAPOST
1

9
$DIMALT
70
0
9
$DIMALTD
70
2
9
$DIMALTF
40
25.4
9
$DIMLFAC
40
1.00000000000000
9
$DIMTOFL
70
0
9
$DIMTVP
40
0.0
9
$DIMTIX
70
0
9
$DIMSOXD
70
0
9
$DIMSAH
70
0
9
$DIMBLK1
1

9
$DIMBLK2
1

9
$DIMSTYLE
2
BEM-ISBE
9
$DIMCLRD
70
0
9
$DIMCLRE
70
0
9
$DIMCLRT
70
0
9
$DIMTFAC
40
0.5
9
$DIMGAP
40
0.625
9
$DIMJUST
70
0
9
$DIMSD1
70
0
9
$DIMSD2
70
0
9
$DIMTOLJ
70
1
9
$DIMTZIN
70
0
9
$DIMALTZ
70
0
9
$DIMALTTZ
70
0
9
$DIMUPT
70
0
9
$DIMDEC
70
3
9
$DIMTDEC
70
3
9
$DIMALTU
70
2
9
$DIMALTTD
70
2
9
$DIMTXSTY
7
Standard
9
$DIMAUNIT
70
0
9
$DIMADEC
70
3
9
$DIMALTRND
40
0.0
9
$DIMAZIN
70
0
9
$DIMDSEP
70
46
9
$DIMATFIT
70
3
9
$DIMFRAC
70
0
9
$DIMLDRBLK
1

9
$DIMLUNIT
70
2
9
$DIMLWD
70
-2
9
$DIMLWE
70
-2
9
$DIMTMOVE
70
0
9
$LUNITS
70
2
9
$LUPREC
70
4
9
$SKETCHINC
40
0.1
9
$FILLETRAD
40
0.5
9
$AUNITS
70
0
9
$AUPREC
70
0
9
$MENU
1
.
9
$ELEVATION
40
0.0
9
$PELEVATION
40
0.0
9
$THICKNESS
40
0.0
9
$LIMCHECK
70
0
9
$CHAMFERA
40
0.5
9
$CHAMFERB
40
0.5
9
$CHAMFERC
40
1.0
9
$CHAMFERD
40
0.0
9
$SKPOLY
70
0
9
$TDCREATE
40
0.0
9
$TDUCREATE
40
0.0
9
$TDUPDATE
40
0.0
9
$TDUUPDATE
40
0.0
9
$TDINDWG
40
0.0
9
$TDUSRTIMER
40
0.0
9
$USRTIMER
70
1
9
$ANGBASE
50
0.0
9
$ANGDIR
70
0
9
$PDMODE
70
0
9
$PDSIZE
40
0.0
9
$PLINEWID
40
0.0
9
$SPLFRAME
70
0
9
$SPLINETYPE
70
6
9
$SPLINESEGS
70
8
9
$HANDSEED
5
10AB
9
$SURFTAB1
70
6
9
$SURFTAB2
70
6
9
$SURFTYPE
70
6
9
$SURFU
70
6
9
$SURFV
70
6
9
$UCSBASE
2

9
$UCSNAME
2

9
$UCSORG
10
0.0
20
0.0
30
0.0
9
$UCSXDIR
10
1.0
20
0.0
30
0.0
9
$UCSYDIR
10
0.0
20
1.0
30
0.0
9
$UCSORTHOREF
2

9
$UCSORTHOVIEW
70
0
9
$UCSORGTOP
10
0.0
20
0.0
30
0.0
9
$UCSORGBOTTOM
10
0.0
20
0.0
30
0.0
9
$UCSORGLEFT
10
0.0
20
0.0
30
0.0
9
$UCSORGRIGHT
10
0.0
20
0.0
30
0.0
9
$UCSORGFRONT
10
0.0
20
0.0
30
0.0
9
$UCSORGBACK
10
0.0
20
0.0
30
0.0
9
$PUCSBASE
2

9
$PUCSNAME
2

9
$PUCSORG
10
0.0
20
0.0
30
0.0
9
$PUCSXDIR
10
1.0
20
0.0
30
0.0
9
$PUCSYDIR
10
0.0
20
1.0
30
0.0
9
$PUCSORTHOREF
2

9
$PUCSORTHOVIEW
70
0
9
$PUCSORGTOP
10
0.0
20
0.0
30
0.0
9
$PUCSORGBOTTOM
10
0.0
20
0.0
30
0.0
9
$PUCSORGLEFT
10
0.0
20
0.0
30
0.0
9
$PUCSORGRIGHT
10
0.0
20
0.0
30
0.0
9
$PUCSORGFRONT
10
0.0
20
0.0
30
0.0
9
$PUCSORGBACK
10
0.0
20
0.0
30
0.0
9
$USERI1
70
0
9
$USERI2
70
0
9
$USERI3
70
0
9
$USERI4
70
0
9
$USERI5
70
0
9
$USERR1
40
0.0
9
$USERR2
40
0.0
9
$USERR3
40
0.0
9
$USERR4
40
0.0
9
$USERR5
40
0.0
9
$WORLDVIEW
70
1
9
$SHADEDGE
70
3
9
$SHADEDIF
70
70
9
$TILEMODE
70
1
9
$MAXACTVP
70
64
9
$PINSBASE
10
0.0
20
0.0
30
0.0
9
$PLIMCHECK
70
0
9
$PEXTMIN
10
1.000000000000000E+20
20
1.000000000000000E+20
30
1.000000000000000E+20
9
$PEXTMAX
10
-1.000000000000000E+20
20
-1.000000000000000E+20
30
-1.000000000000000E+20
9
$PLIMMIN
10
0.0
20
0.0
9
$PLIMMAX
10
12.0
20
9.0
9
$UNITMODE
70
0
9
$VISRETAIN
70
1
9
$PLINEGEN
70
0
9
$PSLTSCALE
70
1
9
$TREEDEPTH
70
3020
9
$CMLSTYLE
2
Standard
9
$CMLJUST
70
0
9
$CMLSCALE
40
1.0
9
$PROXYGRAPHICS
70
1
9
$MEASUREMENT
70
0
9
$CELWEIGHT
370
-1
9
$ENDCAPS
280
0
9
$JOINSTYLE
280
0
9
$LWDISPLAY
290
0
9
$INSUNITS
70
4
9
$HYPERLINKBASE
1

9
$STYLESHEET
1

9
$XEDIT
290
1
9
$CEPSNTYPE
380
0
9
$PSTYLEMODE
290
0
9
$FINGERPRINTGUID
2
{FAEB1C30-E019-11D5-929B-00C0DF256EC4}
9
$VERSIONGUID
2
{04C5C4E4-4947-4D90-8812-D401569E61F7}
9
$EXTNAMES
290
1
9
$PSVPSCALE
40
0.0
9
$OLESTARTUP
290
0
0
ENDSEC
0
SECTION
2
CLASSES
0
CLASS
1
ACDBDICTIONARYWDFLT
2
AcDbDictionaryWithDefault
3
ObjectDBX Classes
90
0
280
0
281
0
0
CLASS
1
ACDBPLACEHOLDER
2
AcDbPlaceHolder
3
ObjectDBX Classes
90
0
280
0
281
0
0
CLASS
1
LAYOUT
2
AcDbLayout
3
ObjectDBX Classes
90
0
280
0
281
0
0
CLASS
1
MATERIAL
2
AcDbMaterial
3
ObjectDBX Classes
90
1153
280
0
281
0
0
CLASS
1
VISUALSTYLE
2
AcDbVisualStyle
3
ObjectDBX Classes
90
4095
280
0
281
0
0
CLASS
1
TABLESTYLE
2
AcDbTableStyle
3
ObjectDBX Classes
90
4095
280
0
281
0
0
CLASS
1
SCALE
2
AcDbScale
3
ObjectDBX Classes
90
1153
280
0
281
0
0
CLASS
1
MLEADERSTYLE
2
AcDbMLeaderStyle
3
ACDB_MLEADERSTYLE_CLASS
90
4095
280
0
281
0
0
CLASS
1
DICTIONARYVAR
2
AcDbDictionaryVar
3
ObjectDBX Classes
90
0
280
0
281
0
0
CLASS
1
CELLSTYLEMAP
2
AcDbCellStyleMap
3
ObjectDBX Classes
90
1152
280
0
281
0
0
ENDSEC
0
SECTION
2
TABLES
0
TABLE
2
VPORT
5
24A
330
0
100
AcDbSymbolTable
70
1
0
VPORT
5
26B
330
24A
100
AcDbSymbolTableRecord
100
AcDbViewportTableRecord
2
*Active
70
0
10
0.0
20
0.0
11
1.0
21
1.0
12
0.000000000000000
22
0.000000000000000
13
0.0
23
0.0
14
10.0
24
10.0
15
10.0
25
10.0
16
0.0
26
0.0
36
1.0
17
0.0
27
0.0
37
0.0
40
210.000000000000
41
1.42857142857143
42
1.0
43
0.0
44
0.0
50
0.0
51
0.0000000000007958
71
0
72
100
73
1
74
3
75
0
76
0
77
0
78
1
281
0
65
1
110
0.0
120
0.0
130
0.0
111
1.0
121
0.0
131
0.0
112
0.0
122
1.0
132
0.0
79
0
146
0.0
0
ENDTAB
0
TABLE
2
LTYPE
5
247
330
0
100
AcDbSymbolTable
70
25
0
LTYPE
5
256
330
247
100
AcDbSymbolTableRecord
100
AcDbLinetypeTableRecord
2
ByBlock
70
0
3

72
65
73
0
40
0.0
0
LTYPE
5
257
330
247
100
AcDbSymbolTableRecord
100
AcDbLinetypeTableRecord
2
ByLayer
70
0
3

72
65
73
0
40
0.0
0
LTYPE
5
258
330
247
100
AcDbSymbolTableRecord
100
AcDbLinetypeTableRecord
2
Continuous
70
0
3
Solid line
72
65
73
0
40
0.0
0
LTYPE
5
273
330
247
100
AcDbSymbolTableRecord
100
AcDbLinetypeTableRecord
2
CENTER
70
0
3
Center ____ _ ____ _ ____ _ ____ _ ____ _ ____
72
65
73
4
40
2.0
49
1.25
74
0
49
-0.25
74
0
49
0.25
74
0
49
-0.25
74
0
0
LTYPE
5
274
330
247
100
AcDbSymbolTableRecord
100
AcDbLinetypeTableRecord
2
DASHDOT
70
0
3
Dashdot __ . __ . __ . __ . __ . __ . __ . __
72
65
73
4
40
1.0
49
0.5
74
0
49
-0.25
74
0
49
0.0
74
0
49
-0.25
74
0
0
LTYPE
5
275
330
247
100
AcDbSymbolTableRecord
100
AcDbLinetypeTableRecord
2
DASHED
70
0
3
Dashed __ __ __ __ __ __ __ __ __ __ __ __ __ _
72
65
73
2
40
0.75
49
0.5
74
0
49
-0.25
74
0
0
LTYPE
5
276
330
247
100
AcDbSymbolTableRecord
100
AcDbLinetypeTableRecord
2
HIDDEN
70
0
3
Hidden __ __ __ __ __ __ __ __ __ __ __ __ __ __
72
65
73
2
40
0.375
49
0.25
74
0
49
-0.125
74
0
0
LTYPE
5
277
330
247
100
AcDbSymbolTableRecord
100
AcDbLinetypeTableRecord
2
HIDDEN2
70
0
3
Hidden2 _ _ _ _ _ _ _ _ _ _ _ _ _ _ _ _ _
72
65
73
2
40
0.1875
49
0.125
74
0
49
-0.0625
74
0
0
LTYPE
5
278
330
247
100
AcDbSymbolTableRecord
100
AcDbLinetypeTableRecord
2
BORDER
70
0
3
Border __ __ . __ __ . __ __ . __ __ . __ __ .
72
65
73
6
40
1.75
49
0.5
74
0
49
-0.25
74
0
49
0.5
74
0
49
-0.25
74
0
49
0.0
74
0
49
-0.25
74
0
0
LTYPE
5
279
330
247
100
AcDbSymbolTableRecord
100
AcDbLinetypeTableRecord
2
BORDER2
70
0
3
Border2 __.__.__.__.__.__.__.__.__.__.__.
72
65
73
6
40
0.875
49
0.25
74
0
49
-0.125
74
0
49
0.25
74
0
49
-0.125
74
0
49
0.0
74
0
49
-0.125
74
0
0
LTYPE
5
27A
330
247
100
AcDbSymbolTableRecord
100
AcDbLinetypeTableRecord
2
BORDERX2
70
0
3
Borderx2  ____  ____  .  ____  ____  .  ___
72
65
73
6
40
3.5
49
1.0
74
0
49
-0.5
74
0
49
1.0
74
0
49
-0.5
74
0
49
0.0
74
0
49
-0.5
74
0
0
LTYPE
5
27B
330
247
100
AcDbSymbolTableRecord
100
AcDbLinetypeTableRecord
2
CENTER2
70
0
3
Center2  ___ _ ___ _ ___ _ ___ _ ___ _ ___
72
65
73
4
40
1.125
49
0.75
74
0
49
-0.125
74
0
49
0.125
74
0
49
-0.125
74
0
0
LTYPE
5
27C
330
247
100
AcDbSymbolTableRecord
100
AcDbLinetypeTableRecord
2
CENTERX2
70
0
3
Centerx2  ________  __  ________  __  _____
72
65
73
4
40
4.0
49
2.5
74
0
49
-0.5
74
0
49
0.5
74
0
49
-0.5
74
0
0
LTYPE
5
27D
330
247
100
AcDbSymbolTableRecord
100
AcDbLinetypeTableRecord
2
DASHDOT2
70
0
3
Dashdot2  _._._._._._._._._._._._._._._.
72
65
73
4
40
0.5
49
0.25
74
0
49
-0.125
74
0
49
0.0
74
0
49
-0.125
74
0
0
LTYPE
5
27E
330
247
100
AcDbSymbolTableRecord
100
AcDbLinetypeTableRecord
2
DASHDOTX2
70
0
3
Dashdotx2 ____  .  ____  .  ____  .  ___
72
65
73
4
40
2.0
49
1.0
74
0
49
-0.5
74
0
49
0.0
74
0
49
-0.5
74
0
0
LTYPE
5
27F
330
247
100
AcDbSymbolTableRecord
100
AcDbLinetypeTableRecord
2
DASHED2
70
0
3
Dashed2 _ _ _ _ _ _ _ _ _ _ _ _ _ _ _ _ _
72
65
73
2
40
0.375
49
0.25
74
0
49
-0.125
74
0
0
LTYPE
5
280
330
247
100
AcDbSymbolTableRecord
100
AcDbLinetypeTableRecord
2
DASHEDX2
70
0
3
Dashedx2 ____  ____  ____  ____  ____  ___
72
65
73
2
40
1.5
49
1.0
74
0
49
-0.5
74
0
0
LTYPE
5
281
330
247
100
AcDbSymbolTableRecord
100
AcDbLinetypeTableRecord
2
DIVIDE
70
0
3
Divide ____ . . ____ . . ____ . . ____ . . ____
72
65
73
6
40
1.25
49
0.5
74
0
49
-0.25
74
0
49
0.0
74
0
49
-0.25
74
0
49
0.0
74
0
49
-0.25
74
0
0
LTYPE
5
282
330
247
100
AcDbSymbolTableRecord
100
AcDbLinetypeTableRecord
2
DIVIDE2
70
0
3
Divide2 __..__..__..__..__..__..__..__.._
72
65
73
6
40
0.625
49
0.25
74
0
49
-0.125
74
0
49
0.0
74
0
49
-0.125
74
0
49
0.0
74
0
49
-0.125
74
0
0
LTYPE
5
283
330
247
100
AcDbSymbolTableRecord
100
AcDbLinetypeTableRecord
2
DIVIDEX2
70
0
3
Dividex2 ________  .  .  ________  .  .  _
72
65
73
6
40
2.5
49
1.0
74
0
49
-0.5
74
0
49
0.0
74
0
49
-0.5
74
0
49
0.0
74
0
49
-0.5
74
0
0
LTYPE
5
284
330
247
100
AcDbSymbolTableRecord
100
AcDbLinetypeTableRecord
2
DOT
70
0
3
Dot . . . . . . . . . . . . . . . . . . . . . . . .
72
65
73
2
40
0.25
49
0.0
74
0
49
-0.25
74
0
0
LTYPE
5
285
330
247
100
AcDbSymbolTableRecord
100
AcDbLinetypeTableRecord
2
DOT2
70
0
3
Dot2 ........................................
72
65
73
2
40
0.125
49
0.0
74
0
49
-0.125
74
0
0
LTYPE
5
286
330
247
100
AcDbSymbolTableRecord
100
AcDbLinetypeTableRecord
2
DOTX2
70
0
3
Dotx2 .  .  .  .  .  .  .  .  .  .  .  .  .  .
72
65
73
2
40
0.5
49
0.0
74
0
49
-0.5
74
0
0
LTYPE
5
287
330
247
100
AcDbSymbolTableRecord
100
AcDbLinetypeTableRecord
2
HIDDENX2
70
0
3
Hiddenx2 ____ ____ ____ ____ ____ ____ ____
72
65
73
2
40
0.75
49
0.5
74
0
49
-0.25
74
0
0
LTYPE
5
288
330
247
100
AcDbSymbolTableRecord
100
AcDbLinetypeTableRecord
2
PHANTOM
70
0
3
Phantom ______  __  __  ______  __  __  ______
72
65
73
6
40
2.5
49
1.25
74
0
49
-0.25
74
0
49
0.25
74
0
49
-0.25
74
0
49
0.25
74
0
49
-0.25
74
0
0
LTYPE
5
289
330
247
100
AcDbSymbolTableRecord
100
AcDbLinetypeTableRecord
2
PHANTOM2
70
0
3
Phantom2 ___ _ _ ___ _ _ ___ _ _ ___ _ _
72
65
73
6
40
1.25
49
0.625
74
0
49
-0.125
74
0
49
0.125
74
0
49
-0.125
74
0
49
0.125
74
0
49
-0.125
74
0
0
LTYPE
5
28A
330
247
100
AcDbSymbolTableRecord
100
AcDbLinetypeTableRecord
2
PHANTOMX2
70
0
3
Phantomx2 ____________    ____    ____   _
72
65
73
6
40
5.0
49
2.5
74
0
49
-0.5
74
0
49
0.5
74
0
49
-0.5
74
0
49
0.5
74
0
49
-0.5
74
0
0
ENDTAB
0
TABLE
2
LAYER
5
244
330
0
100
AcDbSymbolTable
70
6
0
LAYER
5
252
330
244
100
AcDbSymbolTableRecord
100
AcDbLayerTableRecord
2
0
70
0
62
7
6
Continuous
370
0
390
251
0
LAYER
5
23F
330
244
100
AcDbSymbolTableRecord
100
AcDbLayerTableRecord
2
Bemassung
70
0
 62
   7
6
Continuous
370
0
390
251
0
LAYER
5
240
330
244
100
AcDbSymbolTableRecord
100
AcDbLayerTableRecord
2
Rahmen
70
0
 62
   7
6
Continuous
370
0
390
251
0
LAYER
5
241
330
244
100
AcDbSymbolTableRecord
100
AcDbLayerTableRecord
2
Geo
70
0
 62
   7
6
Continuous
370
0
390
251
0
LAYER
5
33A
330
244
100
AcDbSymbolTableRecord
100
AcDbLayerTableRecord
2
Defpoints
70
0
62
7
6
Continuous
290
0
370
-3
390
251
0
LAYER
5
57E
330
244
100
AcDbSymbolTableRecord
100
AcDbLayerTableRecord
2
Text
70
0
 62
   7
6
Continuous
370
0
390
251
1001
AcAecLayerStandard
1000

1000

0
ENDTAB
0
TABLE
2
STYLE
5
245
330
0
100
AcDbSymbolTable
70
2
0
STYLE
5
253
330
245
100
AcDbSymbolTableRecord
100
AcDbTextStyleTableRecord
2
Standard
70
0
40
0.0
41
1.0
50
0.0
71
0
42
0.2
3
Arial
4

1001
ACAD
1000
Arial
1071
0
0
STYLE
5
132
330
245
100
AcDbSymbolTableRecord
100
AcDbTextStyleTableRecord
2
Beschriftung
70
0
40
0.0
41
1.0
50
0.0
71
0
42
0.2
3
Arial
4

1001
ACAD
1000
Arial
1071
0
1001
AcadAnnotative
1000
AnnotativeData
1070
1
1070
1
0
ENDTAB
0
TABLE
2
VIEW
5
248
330
0
100
AcDbSymbolTable
70
0
0
ENDTAB
0
TABLE
2
UCS
5
249
330
0
100
AcDbSymbolTable
70
0
0
ENDTAB
0
TABLE
2
APPID
5
24B
330
0
100
AcDbSymbolTable
70
13
0
APPID
5
254
330
24B
100
AcDbSymbolTableRecord
100
AcDbRegAppTableRecord
2
ACAD
70
0
0
APPID
5
26C
330
24B
100
AcDbSymbolTableRecord
100
AcDbRegAppTableRecord
2
VD_INVISIBLE_NOT_FOR_READ
70
0
0
APPID
5
26D
330
24B
100
AcDbSymbolTableRecord
100
AcDbRegAppTableRecord
2
VD_TEMPHATCH
70
0
0
APPID
5
26E
330
24B
100
AcDbSymbolTableRecord
100
AcDbRegAppTableRecord
2
VDEXTRAPARAM
70
0
0
APPID
5
26F
330
24B
100
AcDbSymbolTableRecord
100
AcDbRegAppTableRecord
2
PE_URL
70
0
0
APPID
5
270
330
24B
100
AcDbSymbolTableRecord
100
AcDbRegAppTableRecord
2
VD_UNKNOWN
70
0
0
APPID
5
28F
330
24B
100
AcDbSymbolTableRecord
100
AcDbRegAppTableRecord
2
AcadAnnotative
70
0
0
APPID
5
290
330
24B
100
AcDbSymbolTableRecord
100
AcDbRegAppTableRecord
2
ACAD_DSTYLE_DIMJAG
70
0
0
APPID
5
291
330
24B
100
AcDbSymbolTableRecord
100
AcDbRegAppTableRecord
2
ACAD_DSTYLE_DIMTALN
70
0
0
APPID
5
293
330
24B
100
AcDbSymbolTableRecord
100
AcDbRegAppTableRecord
2
ACAD_PSEXT
70
0
0
APPID
5
42A
330
24B
100
AcDbSymbolTableRecord
100
AcDbRegAppTableRecord
2
ACAD_MLEADERVER
70
0
0
APPID
5
532
330
24B
100
AcDbSymbolTableRecord
100
AcDbRegAppTableRecord
2
ACAD_EXEMPT_FROM_CAD_STANDARDS
70
0
0
APPID
5
57F
330
24B
100
AcDbSymbolTableRecord
100
AcDbRegAppTableRecord
2
AcAecLayerStandard
70
0
0
ENDTAB
0
TABLE
2
DIMSTYLE
5
24C
330
0
100
AcDbSymbolTable
70
3
100
AcDbDimStyleTable
71
2
340
27
340
269
0
DIMSTYLE
105
269
330
24C
100
AcDbSymbolTableRecord
100
AcDbDimStyleTableRecord
2
Standard
70
0
172
1
174
1
288
1
340
253
342
23C
0
DIMSTYLE
105
137
330
24C
100
AcDbSymbolTableRecord
100
AcDbDimStyleTableRecord
2
Beschriftung
70
0
41
2.5
42
0.625
44
1.25
73
0
74
0
77
1
140
2.5
147
0.625
172
1
174
1
271
2
288
1
340
253
342
23C
1001
AcadAnnotative
1000
AnnotativeData
1070
1
1070
1
1001
ACAD_DSTYLE_DIMJAG
1070
388
1040
1.5
1001
ACAD_DSTYLE_DIMTALN
1070
392
1070
0
0
DIMSTYLE
105
27
102
{ACAD_REACTORS
330
F10003
330
F10017
330
F1001C
330
F10021
330
F10008
330
F1000D
330
F10012
102
}
330
24C
100
AcDbSymbolTableRecord
100
AcDbDimStyleTableRecord
2
BEM-ISBE
70
0
41
2.5
42
0.625
44
1.25
48
0.000000001
71
1
73
0
74
0
77
1
140
2.5
144
1.00000000000000
146
0.5
147
0.625
171
 3
172
 1
179
 3
271
 3
272
 3
274
 3
340
253
342
23C
1001
ACAD_DSTYLE_DIMJAG
1070
388
1040
1.5
1001
ACAD_DSTYLE_DIMTALN
1070
392
1070
1
0
ENDTAB
0
TABLE
2
BLOCK_RECORD
5
243
330
0
100
AcDbSymbolTable
70
5
0
BLOCK_RECORD
5
261
330
243
100
AcDbSymbolTableRecord
100
AcDbBlockTableRecord
2
*Model_Space
340
FD0
0
BLOCK_RECORD
5
25D
330
243
100
AcDbSymbolTableRecord
100
AcDbBlockTableRecord
2
*Paper_Space
340
FD1
0
BLOCK_RECORD
5
265
330
243
100
AcDbSymbolTableRecord
100
AcDbBlockTableRecord
2
*Paper_Space0
340
0
0
BLOCK_RECORD
5
23C
330
243
100
AcDbSymbolTableRecord
100
AcDbBlockTableRecord
2
VDDIM_DEFAULT
340
0
102
{BLKREFS
102
}
0
BLOCK_RECORD
5
23E
330
243
100
AcDbSymbolTableRecord
100
AcDbBlockTableRecord
2
VDDIM_NONE
340
0
0
BLOCK_RECORD
5
F10002
330
243
100
AcDbSymbolTableRecord
100
AcDbBlockTableRecord
2
*D3
340
0
0
BLOCK_RECORD
5
F10016
330
243
100
AcDbSymbolTableRecord
100
AcDbBlockTableRecord
2
*D7
340
0
0
BLOCK_RECORD
5
F1001B
330
243
100
AcDbSymbolTableRecord
100
AcDbBlockTableRecord
2
*D8
340
0
0
BLOCK_RECORD
5
F10020
330
243
100
AcDbSymbolTableRecord
100
AcDbBlockTableRecord
2
*D9
340
0
0
BLOCK_RECORD
5
F10007
330
243
100
AcDbSymbolTableRecord
100
AcDbBlockTableRecord
2
*D4
340
0
0
BLOCK_RECORD
5
F1000C
330
243
100
AcDbSymbolTableRecord
100
AcDbBlockTableRecord
2
*D5
340
0
0
BLOCK_RECORD
5
F10011
330
243
100
AcDbSymbolTableRecord
100
AcDbBlockTableRecord
2
*D6
340
0
0
ENDTAB
0
ENDSEC
0
SECTION
2
BLOCKS
0
BLOCK
5
262
330
261
100
AcDbEntity
8
0
100
AcDbBlockBegin
2
*Model_Space
70
0
10
0.0
20
0.0
30
0.0
3
*Model_Space
1

0
ENDBLK
5
263
330
261
100
AcDbEntity
8
0
100
AcDbBlockEnd
0
BLOCK
5
25E
330
25D
100
AcDbEntity
67
1
8
0
100
AcDbBlockBegin
2
*Paper_Space
70
0
10
0.0
20
0.0
30
0.0
3
*Paper_Space
1

0
ENDBLK
5
25F
330
25D
100
AcDbEntity
67
1
8
0
100
AcDbBlockEnd
0
BLOCK
5
266
330
265
100
AcDbEntity
8
0
100
AcDbBlockBegin
2
*Paper_Space0
70
0
10
0.0
20
0.0
30
0.0
3
*Paper_Space0
1

0
VIEWPORT
5
296
102
{ACAD_XDICTIONARY
360
58E
102
}
330
265
100
AcDbEntity
8
0
60
1
100
AcDbViewport
10
0.0
20
0.0
30
0.0
40
10.0
41
10.0
69
0
12
0.0
22
0.0
13
0.0
23
0.0
14
1.0
24
1.0
15
0.0
25
0.0
16
0.0
26
0.0
36
1.0
17
0.0
27
0.0
37
0.0
42
0.0
43
0.0
44
0.0
45
10.0
50
0.0
51
0.0000000000007958
72
100
90
163872
1

281
0
71
0
74
0
110
0.0
120
0.0
130
0.0
111
1.0
121
0.0
131
0.0
112
0.0
122
1.0
132
0.0
79
0
146
0.0
1001
VD_INVISIBLE_NOT_FOR_READ
1000
VD_INVISIBLE_NOT_FOR_READ
0
VIEWPORT
5
297
102
{ACAD_XDICTIONARY
360
590
102
}
330
265
100
AcDbEntity
8
0
60
1
100
AcDbViewport
10
0.0
20
0.0
30
0.0
40
10.0
41
10.0
69
0
12
0.0
22
0.0
13
0.0
23
0.0
14
1.0
24
1.0
15
0.0
25
0.0
16
0.0
26
0.0
36
1.0
17
0.0
27
0.0
37
0.0
42
0.0
43
0.0
44
0.0
45
10.0
50
0.0
51
0.0000000000007958
72
100
90
163872
1

281
0
71
0
74
0
110
0.0
120
0.0
130
0.0
111
1.0
121
0.0
131
0.0
112
0.0
122
1.0
132
0.0
79
0
146
0.0
1001
VD_INVISIBLE_NOT_FOR_READ
1000
VD_INVISIBLE_NOT_FOR_READ
0
ENDBLK
5
267
330
265
100
AcDbEntity
8
0
100
AcDbBlockEnd
0
BLOCK
5
28B
330
23C
100
AcDbEntity
8
0
100
AcDbBlockBegin
2
VDDIM_DEFAULT
70
0
10
0.0
20
0.0
30
0.0
3
VDDIM_DEFAULT
1

0
LWPOLYLINE
5
23D
330
23C
100
AcDbEntity
8
0
6
Continuous
62
0
100
AcDbPolyline
90
4
70
0
43
0.0
10
0.0
20
0.0
10
-1.0
20
-0.1665
10
-1.0
20
0.1665
10
0.0
20
0.0
1001
VDEXTRAPARAM
1071
1
1071
0
1071
0
1040
1.0
1000

1000

1040
0.0
1040
0.0
0
HATCH
5
292
330
23C
100
AcDbEntity
8
0
6
Continuous
62
0
100
AcDbHatch
10
0.0
20
0.0
30
0.0
210
0.0
220
0.0
230
1.0
2
SOLID
70
1
71
0
91
1
92
2
72
0
73
1
93
3
10
0.0
20
0.0
10
-1.0
20
-0.1665
10
-1.0
20
0.1665
97
0
75
0
76
1
98
1
10
0.0
20
0.0
1001
VDEXTRAPARAM
1071
1
1071
0
1071
0
1040
1.0
1000

1000

1040
0.0
1040
0.0
1001
VD_TEMPHATCH
1000
VD_TEMPHATCH
0
ENDBLK
5
28C
330
23C
100
AcDbEntity
8
0
100
AcDbBlockEnd
0
BLOCK
5
28D
330
23E
100
AcDbEntity
8
0
100
AcDbBlockBegin
2
VDDIM_NONE
70
0
10
0.0
20
0.0
30
0.0
3
VDDIM_NONE
1

0
ENDBLK
5
28E
330
23E
100
AcDbEntity
8
0
100
AcDbBlockEnd
  0
BLOCK
  5
F10025
330
F10002
100
AcDbEntity
  8
0
100
AcDbBlockBegin
  2
*D3
 70
     1
 10
0.0
 20
0.0
 30
0.0
  3
*D3
  1

  0
LINE
  5
F10026
330
F10002
100
AcDbEntity
  8
Bemassung
 62
     0
370
    -2
100
AcDbLine
10
-29.3846487424111
20
-12.0858629661752
30
0.000000000000000
11
-29.3846487424111
21
37.9141370338248
31
0.000000000000000
  0
LINE
  5
F10027
330
F10002
100
AcDbEntity
  8
Bemassung
 62
     0
370
    -2
100
AcDbLine
10
-29.0846487424111
20
7.91413703382480
30
0.000000000000000
11
-29.0846487424111
21
17.9141370338248
31
0.000000000000000
  0
LINE
  5
F10028
330
F10002
100
AcDbEntity
  8
Bemassung
 62
     0
370
    -2
100
AcDbLine
10
-46.2619254119688
20
15.9141370338248
30
0.000000000000000
11
-29.0846487424111
21
15.9141370338248
31
0.000000000000000
  0
INSERT
  5
F10029
330
F10002
100
AcDbEntity
  8
Bemassung
 62
     0
370
    -2
100
AcDbBlockReference
  2
VDDIM_DEFAULT
10
-29.3846487424111
20
15.9141370338248
30
0.000000000000000
 41
2.50000000000000
 42
2.50000000000000
 43
2.50000000000000
  0
INSERT
  5
F1002A
330
F10002
100
AcDbEntity
  8
Bemassung
 62
     0
370
    -2
100
AcDbBlockReference
  2
VDDIM_DEFAULT
10
-29.0846487424111
20
15.9141370338248
30
0.000000000000000
 41
2.50000000000000
 42
2.50000000000000
 43
2.50000000000000
 50
180.000000000000
  0
MTEXT
  5
F1002B
330
F10002
100
AcDbEntity
  8
Bemassung
 62
     0
100
AcDbMText
10
-32.3135299219427
20
16.5808037004915
30
0.000000000000000
 40
2.50000000000000
 41
0.0
 71
     8
 72
     1
  1
0.3 x 45°
 11
1.00000000000000
 21
0.000000000000000
 31
0.0
 73
     1
 44
1.0
1001
ACAD
1000
MTEXTBEGIN
1070
73
1070
1
1070
44
1040
1.0
1070
74
1070
0
1000
MTEXTEND
  0
POINT
  5
F1002C
330
F10002
100
AcDbEntity
  8
Bemassung
 62
     0
100
AcDbPoint
10
-29.3846487424111
20
-12.0858629661752
30
0.000000000000000
  0
POINT
  5
F1002D
330
F10002
100
AcDbEntity
  8
Bemassung
 62
     0
100
AcDbPoint
10
-29.0846487424111
20
7.91413703382480
30
0.000000000000000
  0
ENDBLK
  5
F1002E
330
F10002
100
AcDbEntity
  8
0
100
AcDbBlockEnd
  0
BLOCK
  5
F1002F
330
F10016
100
AcDbEntity
  8
0
100
AcDbBlockBegin
  2
*D7
 70
     1
 10
0.0
 20
0.0
 30
0.0
  3
*D7
  1

  0
LINE
  5
F10030
330
F10016
100
AcDbEntity
  8
Bemassung
 62
     0
370
    -2
100
AcDbLine
10
-17.3846487424111
20
-1.83586296617520
30
0.000000000000000
11
-17.3846487424111
21
-12.0858629661752
31
0.000000000000000
  0
LINE
  5
F10031
330
F10016
100
AcDbEntity
  8
Bemassung
 62
     0
370
    -2
100
AcDbLine
10
-29.3846487424111
20
-12.0858629661752
30
0.000000000000000
11
-29.3846487424111
21
37.9141370338248
31
0.000000000000000
  0
LINE
  5
F10032
330
F10016
100
AcDbEntity
  8
Bemassung
 62
     0
370
    -2
100
AcDbLine
10
-17.3846487424111
20
-10.0858629661752
30
0.000000000000000
11
-29.3846487424111
21
-10.0858629661752
31
0.000000000000000
  0
INSERT
  5
F10033
330
F10016
100
AcDbEntity
  8
Bemassung
 62
     0
370
    -2
100
AcDbBlockReference
  2
VDDIM_DEFAULT
10
-17.3846487424111
20
-10.0858629661752
30
0.000000000000000
 41
2.50000000000000
 42
2.50000000000000
 43
2.50000000000000
  0
INSERT
  5
F10034
330
F10016
100
AcDbEntity
  8
Bemassung
 62
     0
370
    -2
100
AcDbBlockReference
  2
VDDIM_DEFAULT
10
-29.3846487424111
20
-10.0858629661752
30
0.000000000000000
 41
2.50000000000000
 42
2.50000000000000
 43
2.50000000000000
 50
180.000000000000
  0
MTEXT
  5
F10035
330
F10016
100
AcDbEntity
  8
Bemassung
 62
     0
100
AcDbMText
10
-23.3846487424111
20
-9.41919629950853
30
0.000000000000000
 40
2.50000000000000
 41
0.0
 71
     8
 72
     1
  1
12
 11
1.00000000000000
 21
0.000000000000000
 31
0.0
 73
     1
 44
1.0
1001
ACAD
1000
MTEXTBEGIN
1070
73
1070
1
1070
44
1040
1.0
1070
74
1070
0
1000
MTEXTEND
  0
POINT
  5
F10036
330
F10016
100
AcDbEntity
  8
Bemassung
 62
     0
100
AcDbPoint
10
-17.3846487424111
20
-1.83586296617520
30
0.000000000000000
  0
POINT
  5
F10037
330
F10016
100
AcDbEntity
  8
Bemassung
 62
     0
100
AcDbPoint
10
-29.3846487424111
20
-12.0858629661752
30
0.000000000000000
  0
ENDBLK
  5
F10038
330
F10016
100
AcDbEntity
  8
0
100
AcDbBlockEnd
  0
BLOCK
  5
F10039
330
F1001B
100
AcDbEntity
  8
0
100
AcDbBlockBegin
  2
*D8
 70
     1
 10
0.0
 20
0.0
 30
0.0
  3
*D8
  1

  0
LINE
  5
F1003A
330
F1001B
100
AcDbEntity
  8
Bemassung
 62
     0
370
    -2
100
AcDbLine
10
43.6153512575889
20
7.41413703382480
30
0.000000000000000
11
43.6153512575889
21
37.9141370338248
31
0.000000000000000
  0
LINE
  5
F1003B
330
F1001B
100
AcDbEntity
  8
Bemassung
 62
     0
370
    -2
100
AcDbLine
10
-29.3846487424111
20
-12.0858629661752
30
0.000000000000000
11
-29.3846487424111
21
37.9141370338248
31
0.000000000000000
  0
LINE
  5
F1003C
330
F1001B
100
AcDbEntity
  8
Bemassung
 62
     0
370
    -2
100
AcDbLine
10
43.6153512575889
20
35.9141370338248
30
0.000000000000000
11
-29.3846487424111
21
35.9141370338248
31
0.000000000000000
  0
INSERT
  5
F1003D
330
F1001B
100
AcDbEntity
  8
Bemassung
 62
     0
370
    -2
100
AcDbBlockReference
  2
VDDIM_DEFAULT
10
43.6153512575889
20
35.9141370338248
30
0.000000000000000
 41
2.50000000000000
 42
2.50000000000000
 43
2.50000000000000
  0
INSERT
  5
F1003E
330
F1001B
100
AcDbEntity
  8
Bemassung
 62
     0
370
    -2
100
AcDbBlockReference
  2
VDDIM_DEFAULT
10
-29.3846487424111
20
35.9141370338248
30
0.000000000000000
 41
2.50000000000000
 42
2.50000000000000
 43
2.50000000000000
 50
180.000000000000
  0
MTEXT
  5
F1003F
330
F1001B
100
AcDbEntity
  8
Bemassung
 62
     0
100
AcDbMText
10
7.11535125758891
20
36.5808037004915
30
0.000000000000000
 40
2.50000000000000
 41
0.0
 71
     8
 72
     1
  1
73
 11
1.00000000000000
 21
0.000000000000000
 31
0.0
 73
     1
 44
1.0
1001
ACAD
1000
MTEXTBEGIN
1070
73
1070
1
1070
44
1040
1.0
1070
74
1070
0
1000
MTEXTEND
  0
POINT
  5
F10040
330
F1001B
100
AcDbEntity
  8
Bemassung
 62
     0
100
AcDbPoint
10
43.6153512575889
20
7.41413703382480
30
0.000000000000000
  0
POINT
  5
F10041
330
F1001B
100
AcDbEntity
  8
Bemassung
 62
     0
100
AcDbPoint
10
-29.3846487424111
20
-12.0858629661752
30
0.000000000000000
  0
ENDBLK
  5
F10042
330
F1001B
100
AcDbEntity
  8
0
100
AcDbBlockEnd
  0
BLOCK
  5
F10043
330
F10020
100
AcDbEntity
  8
0
100
AcDbBlockBegin
  2
*D9
 70
     1
 10
0.0
 20
0.0
 30
0.0
  3
*D9
  1

  0
LINE
  5
F10044
330
F10020
100
AcDbEntity
  8
Bemassung
 62
     0
370
    -2
100
AcDbLine
10
-29.3846487424111
20
7.61413703382480
30
0.000000000000000
11
-29.3846487424111
21
23.3246145457090
31
0.000000000000000
  0
LINE
  5
F10045
330
F10020
100
AcDbEntity
  8
Bemassung
 62
     0
370
    -2
100
AcDbLine
10
-5.38464874241109
20
7.66413703382480
30
0.000000000000000
11
-5.38464874241109
21
23.3246145457090
31
0.000000000000000
  0
LINE
  5
F10046
330
F10020
100
AcDbEntity
  8
Bemassung
 62
     0
370
    -2
100
AcDbLine
10
-29.3846487424111
20
21.3246145457090
30
0.000000000000000
11
-5.38464874241109
21
21.3246145457090
31
0.000000000000000
  0
INSERT
  5
F10047
330
F10020
100
AcDbEntity
  8
Bemassung
 62
     0
370
    -2
100
AcDbBlockReference
  2
VDDIM_DEFAULT
10
-29.3846487424111
20
21.3246145457090
30
0.000000000000000
 41
2.50000000000000
 42
2.50000000000000
 43
2.50000000000000
 50
180.000000000000
  0
INSERT
  5
F10048
330
F10020
100
AcDbEntity
  8
Bemassung
 62
     0
370
    -2
100
AcDbBlockReference
  2
VDDIM_DEFAULT
10
-5.38464874241109
20
21.3246145457090
30
0.000000000000000
 41
2.50000000000000
 42
2.50000000000000
 43
2.50000000000000
  0
MTEXT
  5
F10049
330
F10020
100
AcDbEntity
  8
Bemassung
 62
     0
100
AcDbMText
10
-17.5607111882047
20
21.9912812123757
30
0.000000000000000
 40
2.50000000000000
 41
0.0
 71
     8
 72
     1
  1
24
 11
1.00000000000000
 21
0.000000000000000
 31
0.0
 73
     1
 44
1.0
1001
ACAD
1000
MTEXTBEGIN
1070
73
1070
1
1070
44
1040
1.0
1070
74
1070
0
1000
MTEXTEND
  0
POINT
  5
F1004A
330
F10020
100
AcDbEntity
  8
Bemassung
 62
     0
100
AcDbPoint
10
-29.3846487424111
20
7.61413703382480
30
0.000000000000000
  0
POINT
  5
F1004B
330
F10020
100
AcDbEntity
  8
Bemassung
 62
     0
100
AcDbPoint
10
-5.38464874241109
20
7.66413703382480
30
0.000000000000000
  0
ENDBLK
  5
F1004C
330
F10020
100
AcDbEntity
  8
0
100
AcDbBlockEnd
  0
BLOCK
  5
F1004D
330
F10007
100
AcDbEntity
  8
0
100
AcDbBlockBegin
  2
*D4
 70
     1
 10
0.0
 20
0.0
 30
0.0
  3
*D4
  1

  0
LINE
  5
F1004E
330
F10007
100
AcDbEntity
  8
Bemassung
 62
     0
370
    -2
100
AcDbLine
10
-29.0846487424111
20
-2.08586296617520
30
0.000000000000000
11
-41.3846487424111
21
-2.08586296617520
31
0.000000000000000
  0
LINE
  5
F1004F
330
F10007
100
AcDbEntity
  8
Bemassung
 62
     0
370
    -2
100
AcDbLine
10
-29.0846487424111
20
7.91413703382480
30
0.000000000000000
11
-41.3846487424111
21
7.91413703382480
31
0.000000000000000
  0
LINE
  5
F10050
330
F10007
100
AcDbEntity
  8
Bemassung
 62
     0
370
    -2
100
AcDbLine
10
-39.3846487424111
20
-2.08586296617520
30
0.000000000000000
11
-39.3846487424111
21
7.91413703382480
31
0.000000000000000
  0
INSERT
  5
F10051
330
F10007
100
AcDbEntity
  8
Bemassung
 62
     0
370
    -2
100
AcDbBlockReference
  2
VDDIM_DEFAULT
10
-39.3846487424111
20
-2.08586296617520
30
0.000000000000000
 41
2.50000000000000
 42
2.50000000000000
 43
2.50000000000000
 50
90.0000000000000
  0
INSERT
  5
F10052
330
F10007
100
AcDbEntity
  8
Bemassung
 62
     0
370
    -2
100
AcDbBlockReference
  2
VDDIM_DEFAULT
10
-39.3846487424111
20
7.91413703382480
30
0.000000000000000
 41
2.50000000000000
 42
2.50000000000000
 43
2.50000000000000
 50
270.000000000000
  0
MTEXT
  5
F10053
330
F10007
100
AcDbEntity
  8
Bemassung
 62
     0
100
AcDbMText
10
-40.0513154090778
20
2.91413703382480
30
0.000000000000000
 40
2.50000000000000
 41
0.0
 71
     8
 72
     1
  1
Ø10
 11
6.12323399573677e-17
 21
1.00000000000000
 31
0.0
 73
     1
 44
1.0
1001
ACAD
1000
MTEXTBEGIN
1070
73
1070
1
1070
44
1040
1.0
1070
74
1070
0
1000
MTEXTEND
  0
POINT
  5
F10054
330
F10007
100
AcDbEntity
  8
Bemassung
 62
     0
100
AcDbPoint
10
-29.0846487424111
20
-2.08586296617520
30
0.000000000000000
  0
POINT
  5
F10055
330
F10007
100
AcDbEntity
  8
Bemassung
 62
     0
100
AcDbPoint
10
-29.0846487424111
20
7.91413703382480
30
0.000000000000000
  0
ENDBLK
  5
F10056
330
F10007
100
AcDbEntity
  8
0
100
AcDbBlockEnd
  0
BLOCK
  5
F10057
330
F1000C
100
AcDbEntity
  8
0
100
AcDbBlockBegin
  2
*D5
 70
     1
 10
0.0
 20
0.0
 30
0.0
  3
*D5
  1

  0
LINE
  5
F10058
330
F1000C
100
AcDbEntity
  8
Bemassung
 62
     0
370
    -2
100
AcDbLine
10
-17.3846487424111
20
-1.83586296617520
30
0.000000000000000
11
-4.88464874241109
21
-1.83586296617520
31
0.000000000000000
  0
LINE
  5
F10059
330
F1000C
100
AcDbEntity
  8
Bemassung
 62
     0
370
    -2
100
AcDbLine
10
-17.3846487424111
20
7.66413703382480
30
0.000000000000000
11
-4.88464874241109
21
7.66413703382480
31
0.000000000000000
  0
LINE
  5
F1005A
330
F1000C
100
AcDbEntity
  8
Bemassung
 62
     0
370
    -2
100
AcDbLine
10
-6.88464874241109
20
-13.9332176929748
30
0.000000000000000
11
-6.88464874241109
21
7.66413703382480
31
0.000000000000000
  0
INSERT
  5
F1005B
330
F1000C
100
AcDbEntity
  8
Bemassung
 62
     0
370
    -2
100
AcDbBlockReference
  2
VDDIM_DEFAULT
10
-6.88464874241109
20
-1.83586296617520
30
0.000000000000000
 41
2.50000000000000
 42
2.50000000000000
 43
2.50000000000000
 50
90.0000000000000
  0
INSERT
  5
F1005C
330
F1000C
100
AcDbEntity
  8
Bemassung
 62
     0
370
    -2
100
AcDbBlockReference
  2
VDDIM_DEFAULT
10
-6.88464874241109
20
7.66413703382480
30
0.000000000000000
 41
2.50000000000000
 42
2.50000000000000
 43
2.50000000000000
 50
270.000000000000
  0
MTEXT
  5
F1005D
330
F1000C
100
AcDbEntity
  8
Bemassung
 62
     0
100
AcDbMText
10
-7.55131540907775
20
-6.13907198612315
30
0.000000000000000
 40
2.50000000000000
 41
0.0
 71
     8
 72
     1
  1
Ø9.5
 11
6.12323399573677e-17
 21
1.00000000000000
 31
0.0
 73
     1
 44
1.0
1001
ACAD
1000
MTEXTBEGIN
1070
73
1070
1
1070
44
1040
1.0
1070
74
1070
0
1000
MTEXTEND
  0
POINT
  5
F1005E
330
F1000C
100
AcDbEntity
  8
Bemassung
 62
     0
100
AcDbPoint
10
-17.3846487424111
20
-1.83586296617520
30
0.000000000000000
  0
POINT
  5
F1005F
330
F1000C
100
AcDbEntity
  8
Bemassung
 62
     0
100
AcDbPoint
10
-17.3846487424111
20
7.66413703382480
30
0.000000000000000
  0
ENDBLK
  5
F10060
330
F1000C
100
AcDbEntity
  8
0
100
AcDbBlockEnd
  0
BLOCK
  5
F10061
330
F10011
100
AcDbEntity
  8
0
100
AcDbBlockBegin
  2
*D6
 70
     1
 10
0.0
 20
0.0
 30
0.0
  3
*D6
  1

  0
LINE
  5
F10062
330
F10011
100
AcDbEntity
  8
Bemassung
 62
     0
370
    -2
100
AcDbLine
10
43.1153512575889
20
-2.08586296617520
30
0.000000000000000
11
52.6153512575889
21
-2.08586296617520
31
0.000000000000000
  0
LINE
  5
F10063
330
F10011
100
AcDbEntity
  8
Bemassung
 62
     0
370
    -2
100
AcDbLine
10
43.1153512575889
20
7.91413703382480
30
0.000000000000000
11
52.6153512575889
21
7.91413703382480
31
0.000000000000000
  0
LINE
  5
F10064
330
F10011
100
AcDbEntity
  8
Bemassung
 62
     0
370
    -2
100
AcDbLine
10
50.6153512575889
20
-2.08586296617520
30
0.000000000000000
11
50.6153512575889
21
7.91413703382480
31
0.000000000000000
  0
INSERT
  5
F10065
330
F10011
100
AcDbEntity
  8
Bemassung
 62
     0
370
    -2
100
AcDbBlockReference
  2
VDDIM_DEFAULT
10
50.6153512575889
20
-2.08586296617520
30
0.000000000000000
 41
2.50000000000000
 42
2.50000000000000
 43
2.50000000000000
 50
90.0000000000000
  0
INSERT
  5
F10066
330
F10011
100
AcDbEntity
  8
Bemassung
 62
     0
370
    -2
100
AcDbBlockReference
  2
VDDIM_DEFAULT
10
50.6153512575889
20
7.91413703382480
30
0.000000000000000
 41
2.50000000000000
 42
2.50000000000000
 43
2.50000000000000
 50
270.000000000000
  0
MTEXT
  5
F10067
330
F10011
100
AcDbEntity
  8
Bemassung
 62
     0
100
AcDbMText
10
49.9486845909222
20
2.54986990459662
30
0.000000000000000
 40
2.50000000000000
 41
0.0
 71
     8
 72
     1
  1
Ø10h6
 11
6.12323399573677e-17
 21
1.00000000000000
 31
0.0
 73
     1
 44
1.0
  0
POINT
  5
F10068
330
F10011
100
AcDbEntity
  8
Bemassung
 62
     0
100
AcDbPoint
10
43.1153512575889
20
-2.08586296617520
30
0.000000000000000
  0
POINT
  5
F10069
330
F10011
100
AcDbEntity
  8
Bemassung
 62
     0
100
AcDbPoint
10
43.1153512575889
20
7.91413703382480
30
0.000000000000000
  0
ENDBLK
  5
F1006A
330
F10011
100
AcDbEntity
  8
0
100
AcDbBlockEnd
0
ENDSEC
0
SECTION
2
ENTITIES
  0
DIMENSION
  5
F10003
330
261
100
AcDbEntity
  8
Bemassung
100
AcDbDimension
  2
*D3
10
-29.0846487424111
20
15.9141370338248
30
0.000000000000000
11
-32.3135299219427
21
16.5808037004915
31
0.000000000000000
 70
32
 1
0.3 x 45°
 71
     8
  3
BEM-ISBE
100
AcDbAlignedDimension
13
-29.3846487424111
23
-12.0858629661752
33
0.000000000000000
14
-29.0846487424111
24
7.91413703382480
34
0.000000000000000
100
AcDbRotatedDimension
1001
ACAD
1000
DSTYLE
1002
{
1070
284
1070
8
1070
78
1070
8
1070
144
1040
1.00000000000000
1070
147
1040
0.625
1070
 72
1070
 0
1070
 71
1070
 0
1002
}
  0
DIMENSION
  5
F10017
330
261
100
AcDbEntity
  8
Bemassung
100
AcDbDimension
  2
*D7
10
-29.3846487424111
20
-10.0858629661752
30
0.000000000000000
11
-23.3846487424111
21
-9.41919629950853
31
0.000000000000000
 70
32
 1
12
 71
     8
  3
BEM-ISBE
100
AcDbAlignedDimension
13
-17.3846487424111
23
-1.83586296617520
33
0.000000000000000
14
-29.3846487424111
24
-12.0858629661752
34
0.000000000000000
100
AcDbRotatedDimension
1001
ACAD
1000
DSTYLE
1002
{
1070
284
1070
8
1070
78
1070
8
1070
144
1040
1.00000000000000
1070
147
1040
0.625
1070
 72
1070
 0
1070
 71
1070
 0
1002
}
  0
DIMENSION
  5
F1001C
330
261
100
AcDbEntity
  8
Bemassung
100
AcDbDimension
  2
*D8
10
-29.3846487424111
20
35.9141370338248
30
0.000000000000000
11
7.11535125758891
21
36.5808037004915
31
0.000000000000000
 70
32
 1
73
 71
     8
  3
BEM-ISBE
100
AcDbAlignedDimension
13
43.6153512575889
23
7.41413703382480
33
0.000000000000000
14
-29.3846487424111
24
-12.0858629661752
34
0.000000000000000
100
AcDbRotatedDimension
1001
ACAD
1000
DSTYLE
1002
{
1070
284
1070
8
1070
78
1070
8
1070
144
1040
1.00000000000000
1070
147
1040
0.625
1070
 72
1070
 0
1070
 71
1070
 0
1002
}
  0
DIMENSION
  5
F10021
330
261
100
AcDbEntity
  8
Bemassung
100
AcDbDimension
  2
*D9
10
-5.38464874241109
20
21.3246145457090
30
0.000000000000000
11
-17.5607111882047
21
21.9912812123757
31
0.000000000000000
 70
32
 1
24
 71
     8
  3
BEM-ISBE
100
AcDbAlignedDimension
13
-29.3846487424111
23
7.61413703382480
33
0.000000000000000
14
-5.38464874241109
24
7.66413703382480
34
0.000000000000000
100
AcDbRotatedDimension
1001
ACAD
1000
DSTYLE
1002
{
1070
284
1070
8
1070
78
1070
8
1070
144
1040
1.00000000000000
1070
147
1040
0.625
1070
 72
1070
 0
1070
 71
1070
 0
1002
}
  0
DIMENSION
  5
F10008
330
261
100
AcDbEntity
  8
Bemassung
100
AcDbDimension
  2
*D4
10
-39.3846487424111
20
7.91413703382480
30
0.000000000000000
11
-40.0513154090778
21
2.91413703382480
31
0.000000000000000
 70
32
 1
Ø10
 71
     8
  3
BEM-ISBE
100
AcDbAlignedDimension
13
-29.0846487424111
23
-2.08586296617520
33
0.000000000000000
14
-29.0846487424111
24
7.91413703382480
34
0.000000000000000
50
90.0000000000000
100
AcDbRotatedDimension
1001
ACAD
1000
DSTYLE
1002
{
1070
284
1070
8
1070
78
1070
8
1070
144
1040
1.00000000000000
1070
147
1040
0.625
1070
 72
1070
 0
1070
 71
1070
 0
1002
}
  0
DIMENSION
  5
F1000D
330
261
100
AcDbEntity
  8
Bemassung
100
AcDbDimension
  2
*D5
10
-6.88464874241109
20
7.66413703382480
30
0.000000000000000
11
-7.55131540907775
21
-6.13907198612315
31
0.000000000000000
 70
32
 1
Ø9.5
 71
     8
  3
BEM-ISBE
100
AcDbAlignedDimension
13
-17.3846487424111
23
-1.83586296617520
33
0.000000000000000
14
-17.3846487424111
24
7.66413703382480
34
0.000000000000000
50
90.0000000000000
100
AcDbRotatedDimension
1001
ACAD
1000
DSTYLE
1002
{
1070
284
1070
8
1070
78
1070
8
1070
144
1040
1.00000000000000
1070
147
1040
0.625
1070
 72
1070
 0
1070
 71
1070
 0
1002
}
  0
DIMENSION
  5
F10012
330
261
100
AcDbEntity
  8
Bemassung
100
AcDbDimension
  2
*D6
10
50.6153512575889
20
7.91413703382480
30
0.000000000000000
11
49.9486845909222
21
2.54986990459662
31
0.000000000000000
 70
32
 1
Ø10h6
 71
     8
  3
BEM-ISBE
100
AcDbAlignedDimension
13
43.1153512575889
23
-2.08586296617520
33
0.000000000000000
14
43.1153512575889
24
7.91413703382480
34
0.000000000000000
50
90.0000000000000
100
AcDbRotatedDimension
1001
ACAD
1000
DSTYLE
1002
{
1070
284
1070
8
1070
78
1070
8
1070
144
1040
1.00000000000000
1070
147
1040
0.625
1070
 72
1070
 0
1070
 71
1070
 0
1002
}
  0
LINE
  5
F1006B
330
F1006C
100
AcDbEntity
8
Geo
100
AcDbLine
10
-29.3846487424111
20
2.91413703382480
30
0.000000000000000
11
-29.3846487424111
21
7.61413703382480
31
0.000000000000000
  0
LINE
  5
F1006D
330
F1006E
100
AcDbEntity
8
Geo
100
AcDbLine
10
-29.3846487424111
20
7.61413703382480
30
0.000000000000000
11
-29.0846487424111
21
7.91413703382480
31
0.000000000000000
  0
LINE
  5
F1006F
330
F10070
100
AcDbEntity
8
Geo
100
AcDbLine
10
-29.0846487424111
20
7.91413703382480
30
0.000000000000000
11
-17.3846487424111
21
7.91413703382480
31
0.000000000000000
  0
LINE
  5
F10071
330
F10072
100
AcDbEntity
8
Geo
100
AcDbLine
10
-17.3846487424111
20
7.91413703382480
30
0.000000000000000
11
-17.3846487424111
21
7.66413703382480
31
0.000000000000000
  0
LINE
  5
F10073
330
F10074
100
AcDbEntity
8
Geo
100
AcDbLine
10
-17.3846487424111
20
7.66413703382480
30
0.000000000000000
11
-5.38464874241109
21
7.66413703382480
31
0.000000000000000
  0
LINE
  5
F10075
330
F10076
100
AcDbEntity
8
Geo
100
AcDbLine
10
-5.38464874241109
20
7.66413703382480
30
0.000000000000000
11
-5.38464874241109
21
7.91413703382480
31
0.000000000000000
  0
LINE
  5
F10077
330
F10078
100
AcDbEntity
8
Geo
100
AcDbLine
10
-5.38464874241109
20
7.91413703382480
30
0.000000000000000
11
21.2653512575889
21
7.91413703382480
31
0.000000000000000
  0
LINE
  5
F10079
330
F1007A
100
AcDbEntity
8
Geo
100
AcDbLine
10
21.2653512575889
20
7.91413703382480
30
0.000000000000000
11
22.8653512575889
21
6.31413703382480
31
0.000000000000000
  0
LINE
  5
F1007B
330
F1007C
100
AcDbEntity
8
Geo
100
AcDbLine
10
22.8653512575889
20
6.31413703382480
30
0.000000000000000
11
28.3653512575889
21
6.31413703382480
31
0.000000000000000
  0
LINE
  5
F1007D
330
F1007E
100
AcDbEntity
8
Geo
100
AcDbLine
10
28.3653512575889
20
6.31413703382480
30
0.000000000000000
11
29.9653512575889
21
7.91413703382480
31
0.000000000000000
  0
LINE
  5
F1007F
330
F10080
100
AcDbEntity
8
Geo
100
AcDbLine
10
29.9653512575889
20
7.91413703382480
30
0.000000000000000
11
43.1153512575889
21
7.91413703382480
31
0.000000000000000
  0
LINE
  5
F10081
330
F10082
100
AcDbEntity
8
Geo
100
AcDbLine
10
43.1153512575889
20
7.91413703382480
30
0.000000000000000
11
43.6153512575889
21
7.41413703382480
31
0.000000000000000
  0
LINE
  5
F10083
330
F10084
100
AcDbEntity
8
Geo
100
AcDbLine
10
-29.3846487424111
20
7.61394767893387
30
0.000000000000000
11
-29.2846487424111
21
7.71253235756384
31
0.000000000000000
  0
LINE
  5
F10085
330
F10086
100
AcDbEntity
8
Geo
100
AcDbLine
10
-29.2846487424111
20
7.71253235756384
30
0.000000000000000
11
-29.1846487424111
21
7.80963528283992
31
0.000000000000000
  0
LINE
  5
F10087
330
F10088
100
AcDbEntity
8
Geo
100
AcDbLine
10
-29.1846487424111
20
7.80963528283992
30
0.000000000000000
11
-29.0846487424111
21
7.90513973350082
31
0.000000000000000
  0
LINE
  5
F10089
330
F1008A
100
AcDbEntity
8
Geo
100
AcDbLine
10
-29.0846487424111
20
7.90513973350082
30
0.000000000000000
11
-28.9846487424111
21
7.89814556533790
31
0.000000000000000
  0
LINE
  5
F1008B
330
F1008C
100
AcDbEntity
8
Geo
100
AcDbLine
10
-28.9846487424111
20
7.89814556533790
30
0.000000000000000
11
-28.8846487424111
21
7.88915786021493
31
0.000000000000000
  0
LINE
  5
F1008D
330
F1008E
100
AcDbEntity
8
Geo
100
AcDbLine
10
-28.8846487424111
20
7.88915786021493
30
0.000000000000000
11
-28.7846487424111
21
7.87818021309413
31
0.000000000000000
  0
LINE
  5
F1008F
330
F10090
100
AcDbEntity
8
Geo
100
AcDbLine
10
-28.7846487424111
20
7.87818021309413
30
0.000000000000000
11
-28.6846487424111
21
7.86521701488799
31
0.000000000000000
  0
LINE
  5
F10091
330
F10092
100
AcDbEntity
8
Geo
100
AcDbLine
10
-28.6846487424111
20
7.86521701488799
30
0.000000000000000
11
-28.5846487424111
21
7.85027345070294
31
0.000000000000000
  0
LINE
  5
F10093
330
F10094
100
AcDbEntity
8
Geo
100
AcDbLine
10
-28.5846487424111
20
7.85027345070294
30
0.000000000000000
11
-28.4846487424111
21
7.83335549776541
31
0.000000000000000
  0
LINE
  5
F10095
330
F10096
100
AcDbEntity
8
Geo
100
AcDbLine
10
-28.4846487424111
20
7.83335549776541
30
0.000000000000000
11
-28.3846487424111
21
7.81446992303101
31
0.000000000000000
  0
LINE
  5
F10097
330
F10098
100
AcDbEntity
8
Geo
100
AcDbLine
10
-28.3846487424111
20
7.81446992303101
30
0.000000000000000
11
-28.2846487424111
21
7.79362428047783
31
0.000000000000000
  0
LINE
  5
F10099
330
F1009A
100
AcDbEntity
8
Geo
100
AcDbLine
10
-28.2846487424111
20
7.79362428047783
30
0.000000000000000
11
-28.1846487424111
21
7.77082690808495
31
0.000000000000000
  0
LINE
  5
F1009B
330
F1009C
100
AcDbEntity
8
Geo
100
AcDbLine
10
-28.1846487424111
20
7.77082690808495
30
0.000000000000000
11
-28.0846487424111
21
7.74608692449737
31
0.000000000000000
  0
LINE
  5
F1009D
330
F1009E
100
AcDbEntity
8
Geo
100
AcDbLine
10
-28.0846487424111
20
7.74608692449737
30
0.000000000000000
11
-27.9846487424111
21
7.71941422537866
31
0.000000000000000
  0
LINE
  5
F1009F
330
F100A0
100
AcDbEntity
8
Geo
100
AcDbLine
10
-27.9846487424111
20
7.71941422537866
30
0.000000000000000
11
-27.8846487424111
21
7.69081947945283
31
0.000000000000000
  0
LINE
  5
F100A1
330
F100A2
100
AcDbEntity
8
Geo
100
AcDbLine
10
-27.8846487424111
20
7.69081947945283
30
0.000000000000000
11
-27.7846487424111
21
7.66031412423701
31
0.000000000000000
  0
LINE
  5
F100A3
330
F100A4
100
AcDbEntity
8
Geo
100
AcDbLine
10
-27.7846487424111
20
7.66031412423701
30
0.000000000000000
11
-27.6846487424111
21
7.62791036146653
31
0.000000000000000
  0
LINE
  5
F100A5
330
F100A6
100
AcDbEntity
8
Geo
100
AcDbLine
10
-27.6846487424111
20
7.62791036146653
30
0.000000000000000
11
-27.5846487424111
21
7.59362115221448
31
0.000000000000000
  0
LINE
  5
F100A7
330
F100A8
100
AcDbEntity
8
Geo
100
AcDbLine
10
-27.5846487424111
20
7.59362115221448
30
0.000000000000000
11
-27.4846487424111
21
7.55746021170735
31
0.000000000000000
  0
LINE
  5
F100A9
330
F100AA
100
AcDbEntity
8
Geo
100
AcDbLine
10
-27.4846487424111
20
7.55746021170735
30
0.000000000000000
11
-27.3846487424111
21
7.51944200383923
31
0.000000000000000
  0
LINE
  5
F100AB
330
F100AC
100
AcDbEntity
8
Geo
100
AcDbLine
10
-27.3846487424111
20
7.51944200383923
30
0.000000000000000
11
-27.2846487424111
21
7.47958173538634
31
0.000000000000000
  0
LINE
  5
F100AD
330
F100AE
100
AcDbEntity
8
Geo
100
AcDbLine
10
-27.2846487424111
20
7.47958173538634
30
0.000000000000000
11
-27.1846487424111
21
7.43789534992462
31
0.000000000000000
  0
LINE
  5
F100AF
330
F100B0
100
AcDbEntity
8
Geo
100
AcDbLine
10
-27.1846487424111
20
7.43789534992462
30
0.000000000000000
11
-27.0846487424111
21
7.39439952145243
31
0.000000000000000
  0
LINE
  5
F100B1
330
F100B2
100
AcDbEntity
8
Geo
100
AcDbLine
10
-27.0846487424111
20
7.39439952145243
30
0.000000000000000
11
-26.9846487424111
21
7.34911164772122
31
0.000000000000000
  0
LINE
  5
F100B3
330
F100B4
100
AcDbEntity
8
Geo
100
AcDbLine
10
-26.9846487424111
20
7.34911164772122
30
0.000000000000000
11
-26.8846487424111
21
7.30204984327667
31
0.000000000000000
  0
LINE
  5
F100B5
330
F100B6
100
AcDbEntity
8
Geo
100
AcDbLine
10
-26.8846487424111
20
7.30204984327667
30
0.000000000000000
11
-26.7846487424111
21
7.25323293221305
31
0.000000000000000
  0
LINE
  5
F100B7
330
F100B8
100
AcDbEntity
8
Geo
100
AcDbLine
10
-26.7846487424111
20
7.25323293221305
30
0.000000000000000
11
-26.6846487424111
21
7.20268044064392
31
0.000000000000000
  0
LINE
  5
F100B9
330
F100BA
100
AcDbEntity
8
Geo
100
AcDbLine
10
-26.6846487424111
20
7.20268044064392
30
0.000000000000000
11
-26.5846487424111
21
7.15041258889188
31
0.000000000000000
  0
LINE
  5
F100BB
330
F100BC
100
AcDbEntity
8
Geo
100
AcDbLine
10
-26.5846487424111
20
7.15041258889188
30
0.000000000000000
11
-26.4846487424111
21
7.09645028340074
31
0.000000000000000
  0
LINE
  5
F100BD
330
F100BE
100
AcDbEntity
8
Geo
100
AcDbLine
10
-26.4846487424111
20
7.09645028340074
30
0.000000000000000
11
-26.3846487424111
21
7.04081510837320
31
0.000000000000000
  0
LINE
  5
F100BF
330
F100C0
100
AcDbEntity
8
Geo
100
AcDbLine
10
-26.3846487424111
20
7.04081510837320
30
0.000000000000000
11
-26.2846487424111
21
6.98352931713747
31
0.000000000000000
  0
LINE
  5
F100C1
330
F100C2
100
AcDbEntity
8
Geo
100
AcDbLine
10
-26.2846487424111
20
6.98352931713747
30
0.000000000000000
11
-26.1846487424111
21
6.92461582324627
31
0.000000000000000
  0
LINE
  5
F100C3
330
F100C4
100
AcDbEntity
8
Geo
100
AcDbLine
10
-26.1846487424111
20
6.92461582324627
30
0.000000000000000
11
-26.0846487424111
21
6.86409819131163
31
0.000000000000000
  0
LINE
  5
F100C5
330
F100C6
100
AcDbEntity
8
Geo
100
AcDbLine
10
-26.0846487424111
20
6.86409819131163
30
0.000000000000000
11
-25.9846487424111
21
6.80200062757944
31
0.000000000000000
  0
LINE
  5
F100C7
330
F100C8
100
AcDbEntity
8
Geo
100
AcDbLine
10
-25.9846487424111
20
6.80200062757944
30
0.000000000000000
11
-25.8846487424111
21
6.73834797024725
31
0.000000000000000
  0
LINE
  5
F100C9
330
F100CA
100
AcDbEntity
8
Geo
100
AcDbLine
10
-25.8846487424111
20
6.73834797024725
30
0.000000000000000
11
-25.7846487424111
21
6.67316567952928
31
0.000000000000000
  0
LINE
  5
F100CB
330
F100CC
100
AcDbEntity
8
Geo
100
AcDbLine
10
-25.7846487424111
20
6.67316567952928
30
0.000000000000000
11
-25.6846487424111
21
6.60647982747274
31
0.000000000000000
  0
LINE
  5
F100CD
330
F100CE
100
AcDbEntity
8
Geo
100
AcDbLine
10
-25.6846487424111
20
6.60647982747274
30
0.000000000000000
11
-25.5846487424111
21
6.53831708752933
31
0.000000000000000
  0
LINE
  5
F100CF
330
F100D0
100
AcDbEntity
8
Geo
100
AcDbLine
10
-25.5846487424111
20
6.53831708752933
30
0.000000000000000
11
-25.4846487424111
21
6.46870472388619
31
0.000000000000000
  0
LINE
  5
F100D1
330
F100D2
100
AcDbEntity
8
Geo
100
AcDbLine
10
-25.4846487424111
20
6.46870472388619
30
0.000000000000000
11
-25.3846487424111
21
6.39767058056063
31
0.000000000000000
  0
LINE
  5
F100D3
330
F100D4
100
AcDbEntity
8
Geo
100
AcDbLine
10
-25.3846487424111
20
6.39767058056063
30
0.000000000000000
11
-25.2846487424111
21
6.32524307026287
31
0.000000000000000
  0
LINE
  5
F100D5
330
F100D6
100
AcDbEntity
8
Geo
100
AcDbLine
10
-25.2846487424111
20
6.32524307026287
30
0.000000000000000
11
-25.1846487424111
21
6.25145116303135
31
0.000000000000000
  0
LINE
  5
F100D7
330
F100D8
100
AcDbEntity
8
Geo
100
AcDbLine
10
-25.1846487424111
20
6.25145116303135
30
0.000000000000000
11
-25.0846487424111
21
6.17632437464506
31
0.000000000000000
  0
LINE
  5
F100D9
330
F100DA
100
AcDbEntity
8
Geo
100
AcDbLine
10
-25.0846487424111
20
6.17632437464506
30
0.000000000000000
11
-24.9846487424111
21
6.09989275481771
31
0.000000000000000
  0
LINE
  5
F100DB
330
F100DC
100
AcDbEntity
8
Geo
100
AcDbLine
10
-24.9846487424111
20
6.09989275481771
30
0.000000000000000
11
-24.8846487424111
21
6.02218687517813
31
0.000000000000000
  0
LINE
  5
F100DD
330
F100DE
100
AcDbEntity
8
Geo
100
AcDbLine
10
-24.8846487424111
20
6.02218687517813
30
0.000000000000000
11
-24.7846487424111
21
5.94323781704212
31
0.000000000000000
  0
LINE
  5
F100DF
330
F100E0
100
AcDbEntity
8
Geo
100
AcDbLine
10
-24.7846487424111
20
5.94323781704212
30
0.000000000000000
11
-24.6846487424111
21
5.86307715898030
31
0.000000000000000
  0
LINE
  5
F100E1
330
F100E2
100
AcDbEntity
8
Geo
100
AcDbLine
10
-24.6846487424111
20
5.86307715898030
30
0.000000000000000
11
-24.5846487424111
21
5.78173696418709
31
0.000000000000000
  0
LINE
  5
F100E3
330
F100E4
100
AcDbEntity
8
Geo
100
AcDbLine
10
-24.5846487424111
20
5.78173696418709
30
0.000000000000000
11
-24.4846487424111
21
5.69924976765589
31
0.000000000000000
  0
LINE
  5
F100E5
330
F100E6
100
AcDbEntity
8
Geo
100
AcDbLine
10
-24.4846487424111
20
5.69924976765589
30
0.000000000000000
11
-24.3846487424111
21
5.61564856316551
31
0.000000000000000
  0
LINE
  5
F100E7
330
F100E8
100
AcDbEntity
8
Geo
100
AcDbLine
10
-24.3846487424111
20
5.61564856316551
30
0.000000000000000
11
-24.2846487424111
21
5.53096679008306
31
0.000000000000000
  0
LINE
  5
F100E9
330
F100EA
100
AcDbEntity
8
Geo
100
AcDbLine
10
-24.2846487424111
20
5.53096679008306
30
0.000000000000000
11
-24.1846487424111
21
5.44523831998870
31
0.000000000000000
  0
LINE
  5
F100EB
330
F100EC
100
AcDbEntity
8
Geo
100
AcDbLine
10
-24.1846487424111
20
5.44523831998870
30
0.000000000000000
11
-24.0846487424111
21
5.35849744312745
31
0.000000000000000
  0
LINE
  5
F100ED
330
F100EE
100
AcDbEntity
8
Geo
100
AcDbLine
10
-24.0846487424111
20
5.35849744312745
30
0.000000000000000
11
-23.9846487424111
21
5.27077885469351
31
0.000000000000000
  0
LINE
  5
F100EF
330
F100F0
100
AcDbEntity
8
Geo
100
AcDbLine
10
-23.9846487424111
20
5.27077885469351
30
0.000000000000000
11
-23.8846487424111
21
5.18211764095270
31
0.000000000000000
  0
LINE
  5
F100F1
330
F100F2
100
AcDbEntity
8
Geo
100
AcDbLine
10
-23.8846487424111
20
5.18211764095270
30
0.000000000000000
11
-23.7846487424111
21
5.09254926520838
31
0.000000000000000
  0
LINE
  5
F100F3
330
F100F4
100
AcDbEntity
8
Geo
100
AcDbLine
10
-23.7846487424111
20
5.09254926520838
30
0.000000000000000
11
-23.6846487424111
21
5.00210955361661
31
0.000000000000000
  0
LINE
  5
F100F5
330
F100F6
100
AcDbEntity
8
Geo
100
AcDbLine
10
-23.6846487424111
20
5.00210955361661
30
0.000000000000000
11
-23.5846487424111
21
4.91083468085618
31
0.000000000000000
  0
LINE
  5
F100F7
330
F100F8
100
AcDbEntity
8
Geo
100
AcDbLine
10
-23.5846487424111
20
4.91083468085618
30
0.000000000000000
11
-23.4846487424111
21
4.81876115565923
31
0.000000000000000
  0
LINE
  5
F100F9
330
F100FA
100
AcDbEntity
8
Geo
100
AcDbLine
10
-23.4846487424111
20
4.81876115565923
30
0.000000000000000
11
-23.3846487424111
21
4.72592580620819
31
0.000000000000000
  0
LINE
  5
F100FB
330
F100FC
100
AcDbEntity
8
Geo
100
AcDbLine
10
-23.3846487424111
20
4.72592580620819
30
0.000000000000000
11
-23.2846487424111
21
4.63236576540505
31
0.000000000000000
  0
LINE
  5
F100FD
330
F100FE
100
AcDbEntity
8
Geo
100
AcDbLine
10
-23.2846487424111
20
4.63236576540505
30
0.000000000000000
11
-23.1846487424111
21
4.53811845601870
31
0.000000000000000
  0
LINE
  5
F100FF
330
F10100
100
AcDbEntity
8
Geo
100
AcDbLine
10
-23.1846487424111
20
4.53811845601870
30
0.000000000000000
11
-23.0846487424111
21
4.44322157571627
31
0.000000000000000
  0
LINE
  5
F10101
330
F10102
100
AcDbEntity
8
Geo
100
AcDbLine
10
-23.0846487424111
20
4.44322157571627
30
0.000000000000000
11
-22.9846487424111
21
4.34771308198460
31
0.000000000000000
  0
LINE
  5
F10103
330
F10104
100
AcDbEntity
8
Geo
100
AcDbLine
10
-22.9846487424111
20
4.34771308198460
30
0.000000000000000
11
-22.8846487424111
21
4.25163117694776
31
0.000000000000000
  0
LINE
  5
F10105
330
F10106
100
AcDbEntity
8
Geo
100
AcDbLine
10
-22.8846487424111
20
4.25163117694776
30
0.000000000000000
11
-22.7846487424111
21
4.15501429208669
31
0.000000000000000
  0
LINE
  5
F10107
330
F10108
100
AcDbEntity
8
Geo
100
AcDbLine
10
-22.7846487424111
20
4.15501429208669
30
0.000000000000000
11
-22.6846487424111
21
4.05790107286712
31
0.000000000000000
  0
LINE
  5
F10109
330
F1010A
100
AcDbEntity
8
Geo
100
AcDbLine
10
-22.6846487424111
20
4.05790107286712
30
0.000000000000000
11
-22.5846487424111
21
3.96033036328192
31
0.000000000000000
  0
LINE
  5
F1010B
330
F1010C
100
AcDbEntity
8
Geo
100
AcDbLine
10
-22.5846487424111
20
3.96033036328192
30
0.000000000000000
11
-22.4846487424111
21
3.86234119031400
31
0.000000000000000
  0
LINE
  5
F1010D
330
F1010E
100
AcDbEntity
8
Geo
100
AcDbLine
10
-22.4846487424111
20
3.86234119031400
30
0.000000000000000
11
-22.3846487424111
21
3.76397274832603
31
0.000000000000000
  0
LINE
  5
F1010F
330
F10110
100
AcDbEntity
8
Geo
100
AcDbLine
10
-29.3846487424111
20
2.87194817131964
30
0.000000000000000
11
-29.2846487424111
21
2.79003096177640
31
0.000000000000000
  0
LINE
  5
F10111
330
F10112
100
AcDbEntity
8
Geo
100
AcDbLine
10
-29.2846487424111
20
2.79003096177640
30
0.000000000000000
11
-29.1846487424111
21
2.70414442945531
31
0.000000000000000
  0
LINE
  5
F10113
330
F10114
100
AcDbEntity
8
Geo
100
AcDbLine
10
-29.1846487424111
20
2.70414442945531
30
0.000000000000000
11
-29.0846487424111
21
2.61431700142756
31
0.000000000000000
  0
LINE
  5
F10115
330
F10116
100
AcDbEntity
8
Geo
100
AcDbLine
10
-29.0846487424111
20
2.61431700142756
30
0.000000000000000
11
-28.9846487424111
21
2.51456356397892
31
0.000000000000000
  0
LINE
  5
F10117
330
F10118
100
AcDbEntity
8
Geo
100
AcDbLine
10
-28.9846487424111
20
2.51456356397892
30
0.000000000000000
11
-28.8846487424111
21
2.41496995059064
31
0.000000000000000
  0
LINE
  5
F10119
330
F1011A
100
AcDbEntity
8
Geo
100
AcDbLine
10
-28.8846487424111
20
2.41496995059064
30
0.000000000000000
11
-28.7846487424111
21
2.31557599738019
31
0.000000000000000
  0
LINE
  5
F1011B
330
F1011C
100
AcDbEntity
8
Geo
100
AcDbLine
10
-28.7846487424111
20
2.31557599738019
30
0.000000000000000
11
-28.6846487424111
21
2.21642146060360
31
0.000000000000000
  0
LINE
  5
F1011D
330
F1011E
100
AcDbEntity
8
Geo
100
AcDbLine
10
-28.6846487424111
20
2.21642146060360
30
0.000000000000000
11
-28.5846487424111
21
2.11754600075356
31
0.000000000000000
  0
LINE
  5
F1011F
330
F10120
100
AcDbEntity
8
Geo
100
AcDbLine
10
-28.5846487424111
20
2.11754600075356
30
0.000000000000000
11
-28.4846487424111
21
2.01898916669566
31
0.000000000000000
  0
LINE
  5
F10121
330
F10122
100
AcDbEntity
8
Geo
100
AcDbLine
10
-28.4846487424111
20
2.01898916669566
30
0.000000000000000
11
-28.3846487424111
21
1.92079037984948
31
0.000000000000000
  0
LINE
  5
F10123
330
F10124
100
AcDbEntity
8
Geo
100
AcDbLine
10
-28.3846487424111
20
1.92079037984948
30
0.000000000000000
11
-28.2846487424111
21
1.82298891842044
31
0.000000000000000
  0
LINE
  5
F10125
330
F10126
100
AcDbEntity
8
Geo
100
AcDbLine
10
-28.2846487424111
20
1.82298891842044
30
0.000000000000000
11
-28.1846487424111
21
1.72562390168911
31
0.000000000000000
  0
LINE
  5
F10127
330
F10128
100
AcDbEntity
8
Geo
100
AcDbLine
10
-28.1846487424111
20
1.72562390168911
30
0.000000000000000
11
-28.0846487424111
21
1.62873427436401
31
0.000000000000000
  0
LINE
  5
F10129
330
F1012A
100
AcDbEntity
8
Geo
100
AcDbLine
10
-28.0846487424111
20
1.62873427436401
30
0.000000000000000
11
-27.9846487424111
21
1.53235879100422
31
0.000000000000000
  0
LINE
  5
F1012B
330
F1012C
100
AcDbEntity
8
Geo
100
AcDbLine
10
-27.9846487424111
20
1.53235879100422
30
0.000000000000000
11
-27.8846487424111
21
1.43653600051809
31
0.000000000000000
  0
LINE
  5
F1012D
330
F1012E
100
AcDbEntity
8
Geo
100
AcDbLine
10
-27.8846487424111
20
1.43653600051809
30
0.000000000000000
11
-27.7846487424111
21
1.34130423074420
31
0.000000000000000
  0
LINE
  5
F1012F
330
F10130
100
AcDbEntity
8
Geo
100
AcDbLine
10
-27.7846487424111
20
1.34130423074420
30
0.000000000000000
11
-27.6846487424111
21
1.24670157312072
31
0.000000000000000
  0
LINE
  5
F10131
330
F10132
100
AcDbEntity
8
Geo
100
AcDbLine
10
-27.6846487424111
20
1.24670157312072
30
0.000000000000000
11
-27.5846487424111
21
1.15276586744934
31
0.000000000000000
  0
LINE
  5
F10133
330
F10134
100
AcDbEntity
8
Geo
100
AcDbLine
10
-27.5846487424111
20
1.15276586744934
30
0.000000000000000
11
-27.4846487424111
21
1.05953468675987
31
0.000000000000000
  0
LINE
  5
F10135
330
F10136
100
AcDbEntity
8
Geo
100
AcDbLine
10
-27.4846487424111
20
1.05953468675987
30
0.000000000000000
11
-27.3846487424111
21
0.967045322281537
31
0.000000000000000
  0
LINE
  5
F10137
330
F10138
100
AcDbEntity
8
Geo
100
AcDbLine
10
-27.3846487424111
20
0.967045322281537
30
0.000000000000000
11
-27.2846487424111
21
0.875334768526938
31
0.000000000000000
  0
LINE
  5
F10139
330
F1013A
100
AcDbEntity
8
Geo
100
AcDbLine
10
-27.2846487424111
20
0.875334768526938
30
0.000000000000000
11
-27.1846487424111
21
0.784439708494791
31
0.000000000000000
  0
LINE
  5
F1013B
330
F1013C
100
AcDbEntity
8
Geo
100
AcDbLine
10
-27.1846487424111
20
0.784439708494791
30
0.000000000000000
11
-27.0846487424111
21
0.694396498997191
31
0.000000000000000
  0
LINE
  5
F1013D
330
F1013E
100
AcDbEntity
8
Geo
100
AcDbLine
10
-27.0846487424111
20
0.694396498997191
30
0.000000000000000
11
-26.9846487424111
21
0.605241156117375
31
0.000000000000000
  0
LINE
  5
F1013F
330
F10140
100
AcDbEntity
8
Geo
100
AcDbLine
10
-26.9846487424111
20
0.605241156117375
30
0.000000000000000
11
-26.8846487424111
21
0.517009340803776
31
0.000000000000000
  0
LINE
  5
F10141
330
F10142
100
AcDbEntity
8
Geo
100
AcDbLine
10
-26.8846487424111
20
0.517009340803776
30
0.000000000000000
11
-26.7846487424111
21
0.429736344606107
31
0.000000000000000
  0
LINE
  5
F10143
330
F10144
100
AcDbEntity
8
Geo
100
AcDbLine
10
-26.7846487424111
20
0.429736344606107
30
0.000000000000000
11
-26.6846487424111
21
0.343457075559225
31
0.000000000000000
  0
LINE
  5
F10145
330
F10146
100
AcDbEntity
8
Geo
100
AcDbLine
10
-26.6846487424111
20
0.343457075559225
30
0.000000000000000
11
-26.5846487424111
21
0.258206044220374
31
0.000000000000000
  0
LINE
  5
F10147
330
F10148
100
AcDbEntity
8
Geo
100
AcDbLine
10
-26.5846487424111
20
0.258206044220374
30
0.000000000000000
11
-26.4846487424111
21
0.174017349865423
31
0.000000000000000
  0
LINE
  5
F10149
330
F1014A
100
AcDbEntity
8
Geo
100
AcDbLine
10
-26.4846487424111
20
0.174017349865423
30
0.000000000000000
11
-26.3846487424111
21
0.0909246668496144
31
0.000000000000000
  0
LINE
  5
F1014B
330
F1014C
100
AcDbEntity
8
Geo
100
AcDbLine
10
-26.3846487424111
20
0.0909246668496144
30
0.000000000000000
11
-26.2846487424111
21
0.00896123113826519
31
0.000000000000000
  0
LINE
  5
F1014D
330
F1014E
100
AcDbEntity
8
Geo
100
AcDbLine
10
-26.2846487424111
20
0.00896123113826519
30
0.000000000000000
11
-26.1846487424111
21
-0.0718401729871694
31
0.000000000000000
  0
LINE
  5
F1014F
330
F10150
100
AcDbEntity
8
Geo
100
AcDbLine
10
-26.1846487424111
20
-0.0718401729871694
30
0.000000000000000
11
-26.0846487424111
21
-0.151447226042378
31
0.000000000000000
  0
LINE
  5
F10151
330
F10152
100
AcDbEntity
8
Geo
100
AcDbLine
10
-26.0846487424111
20
-0.151447226042378
30
0.000000000000000
11
-25.9846487424111
21
-0.229828086267552
31
0.000000000000000
  0
LINE
  5
F10153
330
F10154
100
AcDbEntity
8
Geo
100
AcDbLine
10
-25.9846487424111
20
-0.229828086267552
30
0.000000000000000
11
-25.8846487424111
21
-0.306951402363664
31
0.000000000000000
  0
LINE
  5
F10155
330
F10156
100
AcDbEntity
8
Geo
100
AcDbLine
10
-25.8846487424111
20
-0.306951402363664
30
0.000000000000000
11
-25.7846487424111
21
-0.382786326032575
31
0.000000000000000
  0
LINE
  5
F10157
330
F10158
100
AcDbEntity
8
Geo
100
AcDbLine
10
-25.7846487424111
20
-0.382786326032575
30
0.000000000000000
11
-25.6846487424111
21
-0.457302524315934
31
0.000000000000000
  0
LINE
  5
F10159
330
F1015A
100
AcDbEntity
8
Geo
100
AcDbLine
10
-25.6846487424111
20
-0.457302524315934
30
0.000000000000000
11
-25.5846487424111
21
-0.530470191727965
31
0.000000000000000
  0
LINE
  5
F1015B
330
F1015C
100
AcDbEntity
8
Geo
100
AcDbLine
10
-25.5846487424111
20
-0.530470191727965
30
0.000000000000000
11
-25.4846487424111
21
-0.602260062177260
31
0.000000000000000
  0
LINE
  5
F1015D
330
F1015E
100
AcDbEntity
8
Geo
100
AcDbLine
10
-25.4846487424111
20
-0.602260062177260
30
0.000000000000000
11
-25.3846487424111
21
-0.672643420672822
31
0.000000000000000
  0
LINE
  5
F1015F
330
F10160
100
AcDbEntity
8
Geo
100
AcDbLine
10
-25.3846487424111
20
-0.672643420672822
30
0.000000000000000
11
-25.2846487424111
21
-0.741592114809686
31
0.000000000000000
  0
LINE
  5
F10161
330
F10162
100
AcDbEntity
8
Geo
100
AcDbLine
10
-25.2846487424111
20
-0.741592114809686
30
0.000000000000000
11
-25.1846487424111
21
-0.809078566029503
31
0.000000000000000
  0
LINE
  5
F10163
330
F10164
100
AcDbEntity
8
Geo
100
AcDbLine
10
-25.1846487424111
20
-0.809078566029503
30
0.000000000000000
11
-25.0846487424111
21
-0.875075780651592
31
0.000000000000000
  0
LINE
  5
F10165
330
F10166
100
AcDbEntity
8
Geo
100
AcDbLine
10
-25.0846487424111
20
-0.875075780651592
30
0.000000000000000
11
-24.9846487424111
21
-0.939557360670052
31
0.000000000000000
  0
LINE
  5
F10167
330
F10168
100
AcDbEntity
8
Geo
100
AcDbLine
10
-24.9846487424111
20
-0.939557360670052
30
0.000000000000000
11
-24.8846487424111
21
-1.00249751431262
31
0.000000000000000
  0
LINE
  5
F10169
330
F1016A
100
AcDbEntity
8
Geo
100
AcDbLine
10
-24.8846487424111
20
-1.00249751431262
30
0.000000000000000
11
-24.7846487424111
21
-1.06387106635704
31
0.000000000000000
  0
LINE
  5
F1016B
330
F1016C
100
AcDbEntity
8
Geo
100
AcDbLine
10
-24.7846487424111
20
-1.06387106635704
30
0.000000000000000
11
-24.6846487424111
21
-1.12365346820078
31
0.000000000000000
  0
LINE
  5
F1016D
330
F1016E
100
AcDbEntity
8
Geo
100
AcDbLine
10
-24.6846487424111
20
-1.12365346820078
30
0.000000000000000
11
-24.5846487424111
21
-1.18182080768019
31
0.000000000000000
  0
LINE
  5
F1016F
330
F10170
100
AcDbEntity
8
Geo
100
AcDbLine
10
-24.5846487424111
20
-1.18182080768019
30
0.000000000000000
11
-24.4846487424111
21
-1.23834981863506
31
0.000000000000000
  0
LINE
  5
F10171
330
F10172
100
AcDbEntity
8
Geo
100
AcDbLine
10
-24.4846487424111
20
-1.23834981863506
30
0.000000000000000
11
-24.3846487424111
21
-1.29321789021469
31
0.000000000000000
  0
LINE
  5
F10173
330
F10174
100
AcDbEntity
8
Geo
100
AcDbLine
10
-24.3846487424111
20
-1.29321789021469
30
0.000000000000000
11
-24.2846487424111
21
-1.34640307592202
31
0.000000000000000
  0
LINE
  5
F10175
330
F10176
100
AcDbEntity
8
Geo
100
AcDbLine
10
-24.2846487424111
20
-1.34640307592202
30
0.000000000000000
11
-24.1846487424111
21
-1.39788410239189
31
0.000000000000000
  0
LINE
  5
F10177
330
F10178
100
AcDbEntity
8
Geo
100
AcDbLine
10
-24.1846487424111
20
-1.39788410239189
30
0.000000000000000
11
-24.0846487424111
21
-1.44764037790013
31
0.000000000000000
  0
LINE
  5
F10179
330
F1017A
100
AcDbEntity
8
Geo
100
AcDbLine
10
-24.0846487424111
20
-1.44764037790013
30
0.000000000000000
11
-23.9846487424111
21
-1.49565200059994
31
0.000000000000000
  0
LINE
  5
F1017B
330
F1017C
100
AcDbEntity
8
Geo
100
AcDbLine
10
-23.9846487424111
20
-1.49565200059994
30
0.000000000000000
11
-23.8846487424111
21
-1.54189976648238
31
0.000000000000000
  0
LINE
  5
F1017D
330
F1017E
100
AcDbEntity
8
Geo
100
AcDbLine
10
-23.8846487424111
20
-1.54189976648238
30
0.000000000000000
11
-23.7846487424111
21
-1.58636517705773
31
0.000000000000000
  0
LINE
  5
F1017F
330
F10180
100
AcDbEntity
8
Geo
100
AcDbLine
10
-23.7846487424111
20
-1.58636517705773
30
0.000000000000000
11
-23.6846487424111
21
-1.62903044675462
31
0.000000000000000
  0
LINE
  5
F10181
330
F10182
100
AcDbEntity
8
Geo
100
AcDbLine
10
-23.6846487424111
20
-1.62903044675462
30
0.000000000000000
11
-23.5846487424111
21
-1.66987851003403
31
0.000000000000000
  0
LINE
  5
F10183
330
F10184
100
AcDbEntity
8
Geo
100
AcDbLine
10
-23.5846487424111
20
-1.66987851003403
30
0.000000000000000
11
-23.4846487424111
21
-1.70889302821530
31
0.000000000000000
  0
LINE
  5
F10185
330
F10186
100
AcDbEntity
8
Geo
100
AcDbLine
10
-23.4846487424111
20
-1.70889302821530
30
0.000000000000000
11
-23.3846487424111
21
-1.74605839601133
31
0.000000000000000
  0
LINE
  5
F10187
330
F10188
100
AcDbEntity
8
Geo
100
AcDbLine
10
-23.3846487424111
20
-1.74605839601133
30
0.000000000000000
11
-23.2846487424111
21
-1.78135974777054
31
0.000000000000000
  0
LINE
  5
F10189
330
F1018A
100
AcDbEntity
8
Geo
100
AcDbLine
10
-23.2846487424111
20
-1.78135974777054
30
0.000000000000000
11
-23.1846487424111
21
-1.81478296342289
31
0.000000000000000
  0
LINE
  5
F1018B
330
F1018C
100
AcDbEntity
8
Geo
100
AcDbLine
10
-23.1846487424111
20
-1.81478296342289
30
0.000000000000000
11
-23.0846487424111
21
-1.84631467412778
31
0.000000000000000
  0
LINE
  5
F1018D
330
F1018E
100
AcDbEntity
8
Geo
100
AcDbLine
10
-23.0846487424111
20
-1.84631467412778
30
0.000000000000000
11
-22.9846487424111
21
-1.87594226762132
31
0.000000000000000
  0
LINE
  5
F1018F
330
F10190
100
AcDbEntity
8
Geo
100
AcDbLine
10
-22.9846487424111
20
-1.87594226762132
30
0.000000000000000
11
-22.8846487424111
21
-1.90365389326116
31
0.000000000000000
  0
LINE
  5
F10191
330
F10192
100
AcDbEntity
8
Geo
100
AcDbLine
10
-22.8846487424111
20
-1.90365389326116
30
0.000000000000000
11
-22.7846487424111
21
-1.92943846676652
31
0.000000000000000
  0
LINE
  5
F10193
330
F10194
100
AcDbEntity
8
Geo
100
AcDbLine
10
-22.7846487424111
20
-1.92943846676652
30
0.000000000000000
11
-22.6846487424111
21
-1.95328567465179
31
0.000000000000000
  0
LINE
  5
F10195
330
F10196
100
AcDbEntity
8
Geo
100
AcDbLine
10
-22.6846487424111
20
-1.95328567465179
30
0.000000000000000
11
-22.5846487424111
21
-1.97518597835178
31
0.000000000000000
  0
LINE
  5
F10197
330
F10198
100
AcDbEntity
8
Geo
100
AcDbLine
10
-22.5846487424111
20
-1.97518597835178
30
0.000000000000000
11
-22.4846487424111
21
-1.99513061803700
31
0.000000000000000
  0
LINE
  5
F10199
330
F1019A
100
AcDbEntity
8
Geo
100
AcDbLine
10
-22.4846487424111
20
-1.99513061803700
30
0.000000000000000
11
-22.3846487424111
21
-2.01311161611750
31
0.000000000000000
  0
LINE
  5
F1019B
330
F1019C
100
AcDbEntity
8
Geo
100
AcDbLine
10
-23.1014640541460
20
7.91413703382480
30
0.000000000000000
11
-23.0846487424111
21
7.91410876046198
31
0.000000000000000
  0
LINE
  5
F1019D
330
F1019E
100
AcDbEntity
8
Geo
100
AcDbLine
10
-23.0846487424111
20
7.91410876046198
30
0.000000000000000
11
-22.9846487424111
21
7.91277252864592
31
0.000000000000000
  0
LINE
  5
F1019F
330
F101A0
100
AcDbEntity
8
Geo
100
AcDbLine
10
-22.9846487424111
20
7.91277252864592
30
0.000000000000000
11
-22.8846487424111
21
7.90943690927952
31
0.000000000000000
  0
LINE
  5
F101A1
330
F101A2
100
AcDbEntity
8
Geo
100
AcDbLine
10
-22.8846487424111
20
7.90943690927952
30
0.000000000000000
11
-22.7846487424111
21
7.90410323656605
31
0.000000000000000
  0
LINE
  5
F101A3
330
F101A4
100
AcDbEntity
8
Geo
100
AcDbLine
10
-22.7846487424111
20
7.90410323656605
30
0.000000000000000
11
-22.6846487424111
21
7.89677364390348
31
0.000000000000000
  0
LINE
  5
F101A5
330
F101A6
100
AcDbEntity
8
Geo
100
AcDbLine
10
-22.6846487424111
20
7.89677364390348
30
0.000000000000000
11
-22.5846487424111
21
7.88745106303114
31
0.000000000000000
  0
LINE
  5
F101A7
330
F101A8
100
AcDbEntity
8
Geo
100
AcDbLine
10
-22.5846487424111
20
7.88745106303114
30
0.000000000000000
11
-22.4846487424111
21
7.87613922285709
31
0.000000000000000
  0
LINE
  5
F101A9
330
F101AA
100
AcDbEntity
8
Geo
100
AcDbLine
10
-22.4846487424111
20
7.87613922285709
30
0.000000000000000
11
-22.3846487424111
21
7.86284264796658
31
0.000000000000000
  0
LINE
  5
F101AB
330
F101AC
100
AcDbEntity
8
Geo
100
AcDbLine
10
-29.3846487424111
20
7.32691180035075
30
0.000000000000000
11
-29.2846487424111
21
7.40917439142480
31
0.000000000000000
  0
LINE
  5
F101AD
330
F101AE
100
AcDbEntity
8
Geo
100
AcDbLine
10
-29.2846487424111
20
7.40917439142480
30
0.000000000000000
11
-29.1846487424111
21
7.48962855845029
31
0.000000000000000
  0
LINE
  5
F101AF
330
F101B0
100
AcDbEntity
8
Geo
100
AcDbLine
10
-29.1846487424111
20
7.48962855845029
30
0.000000000000000
11
-29.0846487424111
21
7.56821318893359
31
0.000000000000000
  0
LINE
  5
F101B1
330
F101B2
100
AcDbEntity
8
Geo
100
AcDbLine
10
-29.0846487424111
20
7.56821318893359
30
0.000000000000000
11
-28.9846487424111
21
7.53073583230723
31
0.000000000000000
  0
LINE
  5
F101B3
330
F101B4
100
AcDbEntity
8
Geo
100
AcDbLine
10
-28.9846487424111
20
7.53073583230723
30
0.000000000000000
11
-28.8846487424111
21
7.49141189771530
31
0.000000000000000
  0
LINE
  5
F101B5
330
F101B6
100
AcDbEntity
8
Geo
100
AcDbLine
10
-28.8846487424111
20
7.49141189771530
30
0.000000000000000
11
-28.7846487424111
21
7.45025711420734
31
0.000000000000000
  0
LINE
  5
F101B7
330
F101B8
100
AcDbEntity
8
Geo
100
AcDbLine
10
-28.7846487424111
20
7.45025711420734
30
0.000000000000000
11
-28.6846487424111
21
7.40728794314802
31
0.000000000000000
  0
LINE
  5
F101B9
330
F101BA
100
AcDbEntity
8
Geo
100
AcDbLine
10
-28.6846487424111
20
7.40728794314802
30
0.000000000000000
11
-28.5846487424111
21
7.36252157163285
31
0.000000000000000
  0
LINE
  5
F101BB
330
F101BC
100
AcDbEntity
8
Geo
100
AcDbLine
10
-28.5846487424111
20
7.36252157163285
30
0.000000000000000
11
-28.4846487424111
21
7.31597590561356
31
0.000000000000000
  0
LINE
  5
F101BD
330
F101BE
100
AcDbEntity
8
Geo
100
AcDbLine
10
-28.4846487424111
20
7.31597590561356
30
0.000000000000000
11
-28.3846487424111
21
7.26766956273595
31
0.000000000000000
  0
LINE
  5
F101BF
330
F101C0
100
AcDbEntity
8
Geo
100
AcDbLine
10
-28.3846487424111
20
7.26766956273595
30
0.000000000000000
11
-28.2846487424111
21
7.21762186489311
31
0.000000000000000
  0
LINE
  5
F101C1
330
F101C2
100
AcDbEntity
8
Geo
100
AcDbLine
10
-28.2846487424111
20
7.21762186489311
30
0.000000000000000
11
-28.1846487424111
21
7.16585283049688
31
0.000000000000000
  0
LINE
  5
F101C3
330
F101C4
100
AcDbEntity
8
Geo
100
AcDbLine
10
-28.1846487424111
20
7.16585283049688
30
0.000000000000000
11
-28.0846487424111
21
7.11238316647076
31
0.000000000000000
  0
LINE
  5
F101C5
330
F101C6
100
AcDbEntity
8
Geo
100
AcDbLine
10
-28.0846487424111
20
7.11238316647076
30
0.000000000000000
11
-27.9846487424111
21
7.05723425996745
31
0.000000000000000
  0
LINE
  5
F101C7
330
F101C8
100
AcDbEntity
8
Geo
100
AcDbLine
10
-27.9846487424111
20
7.05723425996745
30
0.000000000000000
11
-27.8846487424111
21
7.00042816981425
31
0.000000000000000
  0
LINE
  5
F101C9
330
F101CA
100
AcDbEntity
8
Geo
100
AcDbLine
10
-27.8846487424111
20
7.00042816981425
30
0.000000000000000
11
-27.7846487424111
21
6.94198761768980
31
0.000000000000000
  0
LINE
  5
F101CB
330
F101CC
100
AcDbEntity
8
Geo
100
AcDbLine
10
-27.7846487424111
20
6.94198761768980
30
0.000000000000000
11
-27.6846487424111
21
6.88193597903577
31
0.000000000000000
  0
LINE
  5
F101CD
330
F101CE
100
AcDbEntity
8
Geo
100
AcDbLine
10
-27.6846487424111
20
6.88193597903577
30
0.000000000000000
11
-27.5846487424111
21
6.82029727370694
31
0.000000000000000
  0
LINE
  5
F101CF
330
F101D0
100
AcDbEntity
8
Geo
100
AcDbLine
10
-27.5846487424111
20
6.82029727370694
30
0.000000000000000
11
-27.4846487424111
21
6.75709615636359
31
0.000000000000000
  0
LINE
  5
F101D1
330
F101D2
100
AcDbEntity
8
Geo
100
AcDbLine
10
-27.4846487424111
20
6.75709615636359
30
0.000000000000000
11
-27.3846487424111
21
6.69235790661000
31
0.000000000000000
  0
LINE
  5
F101D3
330
F101D4
100
AcDbEntity
8
Geo
100
AcDbLine
10
-27.3846487424111
20
6.69235790661000
30
0.000000000000000
11
-27.2846487424111
21
6.62610841888290
31
0.000000000000000
  0
LINE
  5
F101D5
330
F101D6
100
AcDbEntity
8
Geo
100
AcDbLine
10
-27.2846487424111
20
6.62610841888290
30
0.000000000000000
11
-27.1846487424111
21
6.55837419209407
31
0.000000000000000
  0
LINE
  5
F101D7
330
F101D8
100
AcDbEntity
8
Geo
100
AcDbLine
10
-27.1846487424111
20
6.55837419209407
30
0.000000000000000
11
-27.0846487424111
21
6.48918231903112
31
0.000000000000000
  0
LINE
  5
F101D9
330
F101DA
100
AcDbEntity
8
Geo
100
AcDbLine
10
-27.0846487424111
20
6.48918231903112
30
0.000000000000000
11
-26.9846487424111
21
6.41856047552071
31
0.000000000000000
  0
LINE
  5
F101DB
330
F101DC
100
AcDbEntity
8
Geo
100
AcDbLine
10
-26.9846487424111
20
6.41856047552071
30
0.000000000000000
11
-26.8846487424111
21
6.34653690935865
31
0.000000000000000
  0
LINE
  5
F101DD
330
F101DE
100
AcDbEntity
8
Geo
100
AcDbLine
10
-26.8846487424111
20
6.34653690935865
30
0.000000000000000
11
-26.7846487424111
21
6.27314042901110
31
0.000000000000000
  0
LINE
  5
F101DF
330
F101E0
100
AcDbEntity
8
Geo
100
AcDbLine
10
-26.7846487424111
20
6.27314042901110
30
0.000000000000000
11
-26.6846487424111
21
6.19840039209159
31
0.000000000000000
  0
LINE
  5
F101E1
330
F101E2
100
AcDbEntity
8
Geo
100
AcDbLine
10
-26.6846487424111
20
6.19840039209159
30
0.000000000000000
11
-26.5846487424111
21
6.12234669361837
31
0.000000000000000
  0
LINE
  5
F101E3
330
F101E4
100
AcDbEntity
8
Geo
100
AcDbLine
10
-26.5846487424111
20
6.12234669361837
30
0.000000000000000
11
-26.4846487424111
21
6.04500975405679
31
0.000000000000000
  0
LINE
  5
F101E5
330
F101E6
100
AcDbEntity
8
Geo
100
AcDbLine
10
-26.4846487424111
20
6.04500975405679
30
0.000000000000000
11
-26.3846487424111
21
5.96642050715153
31
0.000000000000000
  0
LINE
  5
F101E7
330
F101E8
100
AcDbEntity
8
Geo
100
AcDbLine
10
-26.3846487424111
20
5.96642050715153
30
0.000000000000000
11
-26.2846487424111
21
5.88661038755350
31
0.000000000000000
  0
LINE
  5
F101E9
330
F101EA
100
AcDbEntity
8
Geo
100
AcDbLine
10
-26.2846487424111
20
5.88661038755350
30
0.000000000000000
11
-26.1846487424111
21
5.80561131824644
31
0.000000000000000
  0
LINE
  5
F101EB
330
F101EC
100
AcDbEntity
8
Geo
100
AcDbLine
10
-26.1846487424111
20
5.80561131824644
30
0.000000000000000
11
-26.0846487424111
21
5.72345569777808
31
0.000000000000000
  0
LINE
  5
F101ED
330
F101EE
100
AcDbEntity
8
Geo
100
AcDbLine
10
-26.0846487424111
20
5.72345569777808
30
0.000000000000000
11
-25.9846487424111
21
5.64017638730123
31
0.000000000000000
  0
LINE
  5
F101EF
330
F101F0
100
AcDbEntity
8
Geo
100
AcDbLine
10
-25.9846487424111
20
5.64017638730123
30
0.000000000000000
11
-25.8846487424111
21
5.55580669742969
31
0.000000000000000
  0
LINE
  5
F101F1
330
F101F2
100
AcDbEntity
8
Geo
100
AcDbLine
10
-25.8846487424111
20
5.55580669742969
30
0.000000000000000
11
-25.7846487424111
21
5.47038037491450
31
0.000000000000000
  0
LINE
  5
F101F3
330
F101F4
100
AcDbEntity
8
Geo
100
AcDbLine
10
-25.7846487424111
20
5.47038037491450
30
0.000000000000000
11
-25.6846487424111
21
5.38393158914567
31
0.000000000000000
  0
LINE
  5
F101F5
330
F101F6
100
AcDbEntity
8
Geo
100
AcDbLine
10
-25.6846487424111
20
5.38393158914567
30
0.000000000000000
11
-25.5846487424111
21
5.29649491848486
31
0.000000000000000
  0
LINE
  5
F101F7
330
F101F8
100
AcDbEntity
8
Geo
100
AcDbLine
10
-25.5846487424111
20
5.29649491848486
30
0.000000000000000
11
-25.4846487424111
21
5.20810533643454
31
0.000000000000000
  0
LINE
  5
F101F9
330
F101FA
100
AcDbEntity
8
Geo
100
AcDbLine
10
-25.4846487424111
20
5.20810533643454
30
0.000000000000000
11
-25.3846487424111
21
5.11879819764900
31
0.000000000000000
  0
LINE
  5
F101FB
330
F101FC
100
AcDbEntity
8
Geo
100
AcDbLine
10
-25.3846487424111
20
5.11879819764900
30
0.000000000000000
11
-25.2846487424111
21
5.02860922379304
31
0.000000000000000
  0
LINE
  5
F101FD
330
F101FE
100
AcDbEntity
8
Geo
100
AcDbLine
10
-25.2846487424111
20
5.02860922379304
30
0.000000000000000
11
-25.1846487424111
21
4.93757448925366
31
0.000000000000000
  0
LINE
  5
F101FF
330
F10200
100
AcDbEntity
8
Geo
100
AcDbLine
10
-25.1846487424111
20
4.93757448925366
30
0.000000000000000
11
-25.0846487424111
21
4.84573040671093
31
0.000000000000000
  0
LINE
  5
F10201
330
F10202
100
AcDbEntity
8
Geo
100
AcDbLine
10
-25.0846487424111
20
4.84573040671093
30
0.000000000000000
11
-24.9846487424111
21
4.75311371257327
31
0.000000000000000
  0
LINE
  5
F10203
330
F10204
100
AcDbEntity
8
Geo
100
AcDbLine
10
-24.9846487424111
20
4.75311371257327
30
0.000000000000000
11
-24.8846487424111
21
4.65976145228348
31
0.000000000000000
  0
LINE
  5
F10205
330
F10206
100
AcDbEntity
8
Geo
100
AcDbLine
10
-24.8846487424111
20
4.65976145228348
30
0.000000000000000
11
-24.7846487424111
21
4.56571096550099
31
0.000000000000000
  0
LINE
  5
F10207
330
F10208
100
AcDbEntity
8
Geo
100
AcDbLine
10
-24.7846487424111
20
4.56571096550099
30
0.000000000000000
11
-24.6846487424111
21
4.47099987116651
31
0.000000000000000
  0
LINE
  5
F10209
330
F1020A
100
AcDbEntity
8
Geo
100
AcDbLine
10
-24.6846487424111
20
4.47099987116651
30
0.000000000000000
11
-24.5846487424111
21
4.37566605245500
31
0.000000000000000
  0
LINE
  5
F1020B
330
F1020C
100
AcDbEntity
8
Geo
100
AcDbLine
10
-24.5846487424111
20
4.37566605245500
30
0.000000000000000
11
-24.4846487424111
21
4.27974764162283
31
0.000000000000000
  0
LINE
  5
F1020D
330
F1020E
100
AcDbEntity
8
Geo
100
AcDbLine
10
-24.4846487424111
20
4.27974764162283
30
0.000000000000000
11
-24.3846487424111
21
4.18328300475543
31
0.000000000000000
  0
LINE
  5
F1020F
330
F10210
100
AcDbEntity
8
Geo
100
AcDbLine
10
-24.3846487424111
20
4.18328300475543
30
0.000000000000000
11
-24.2846487424111
21
4.08631072642139
31
0.000000000000000
  0
LINE
  5
F10211
330
F10212
100
AcDbEntity
8
Geo
100
AcDbLine
10
-24.2846487424111
20
4.08631072642139
30
0.000000000000000
11
-24.1846487424111
21
3.98886959423908
31
0.000000000000000
  0
LINE
  5
F10213
330
F10214
100
AcDbEntity
8
Geo
100
AcDbLine
10
-24.1846487424111
20
3.98886959423908
30
0.000000000000000
11
-24.0846487424111
21
3.89099858336218
31
0.000000000000000
  0
LINE
  5
F10215
330
F10216
100
AcDbEntity
8
Geo
100
AcDbLine
10
-24.0846487424111
20
3.89099858336218
30
0.000000000000000
11
-23.9846487424111
21
3.79273684089011
31
0.000000000000000
  0
LINE
  5
F10217
330
F10218
100
AcDbEntity
8
Geo
100
AcDbLine
10
-23.9846487424111
20
3.79273684089011
30
0.000000000000000
11
-23.8846487424111
21
3.69412367020973
31
0.000000000000000
  0
LINE
  5
F10219
330
F1021A
100
AcDbEntity
8
Geo
100
AcDbLine
10
-23.8846487424111
20
3.69412367020973
30
0.000000000000000
11
-23.7846487424111
21
3.59519851527448
31
0.000000000000000
  0
LINE
  5
F1021B
330
F1021C
100
AcDbEntity
8
Geo
100
AcDbLine
10
-23.7846487424111
20
3.59519851527448
30
0.000000000000000
11
-23.6846487424111
21
3.49600094482734
31
0.000000000000000
  0
LINE
  5
F1021D
330
F1021E
100
AcDbEntity
8
Geo
100
AcDbLine
10
-23.6846487424111
20
3.49600094482734
30
0.000000000000000
11
-23.5846487424111
21
3.39657063657388
31
0.000000000000000
  0
LINE
  5
F1021F
330
F10220
100
AcDbEntity
8
Geo
100
AcDbLine
10
-23.5846487424111
20
3.39657063657388
30
0.000000000000000
11
-23.4846487424111
21
3.29694736131169
31
0.000000000000000
  0
LINE
  5
F10221
330
F10222
100
AcDbEntity
8
Geo
100
AcDbLine
10
-23.4846487424111
20
3.29694736131169
30
0.000000000000000
11
-23.3846487424111
21
3.19717096702257
31
0.000000000000000
  0
LINE
  5
F10223
330
F10224
100
AcDbEntity
8
Geo
100
AcDbLine
10
-23.3846487424111
20
3.19717096702257
30
0.000000000000000
11
-23.2846487424111
21
3.09728136293391
31
0.000000000000000
  0
LINE
  5
F10225
330
F10226
100
AcDbEntity
8
Geo
100
AcDbLine
10
-23.2846487424111
20
3.09728136293391
30
0.000000000000000
11
-23.1846487424111
21
2.99731850355550
31
0.000000000000000
  0
LINE
  5
F10227
330
F10228
100
AcDbEntity
8
Geo
100
AcDbLine
10
-23.1846487424111
20
2.99731850355550
30
0.000000000000000
11
-23.0846487424111
21
2.89732237269826
31
0.000000000000000
  0
LINE
  5
F10229
330
F1022A
100
AcDbEntity
8
Geo
100
AcDbLine
10
-23.0846487424111
20
2.89732237269826
30
0.000000000000000
11
-22.9846487424111
21
2.79733296748129
31
0.000000000000000
  0
LINE
  5
F1022B
330
F1022C
100
AcDbEntity
8
Geo
100
AcDbLine
10
-22.9846487424111
20
2.79733296748129
30
0.000000000000000
11
-22.8846487424111
21
2.69739028233348
31
0.000000000000000
  0
LINE
  5
F1022D
330
F1022E
100
AcDbEntity
8
Geo
100
AcDbLine
10
-22.8846487424111
20
2.69739028233348
30
0.000000000000000
11
-22.7846487424111
21
2.59753429299636
31
0.000000000000000
  0
LINE
  5
F1022F
330
F10230
100
AcDbEntity
8
Geo
100
AcDbLine
10
-22.7846487424111
20
2.59753429299636
30
0.000000000000000
11
-22.6846487424111
21
2.49780494053425
31
0.000000000000000
  0
LINE
  5
F10231
330
F10232
100
AcDbEntity
8
Geo
100
AcDbLine
10
-22.6846487424111
20
2.49780494053425
30
0.000000000000000
11
-22.5846487424111
21
2.39824211535843
31
0.000000000000000
  0
LINE
  5
F10233
330
F10234
100
AcDbEntity
8
Geo
100
AcDbLine
10
-22.5846487424111
20
2.39824211535843
30
0.000000000000000
11
-22.4846487424111
21
2.29888564127150
31
0.000000000000000
  0
LINE
  5
F10235
330
F10236
100
AcDbEntity
8
Geo
100
AcDbLine
10
-22.4846487424111
20
2.29888564127150
30
0.000000000000000
11
-22.3846487424111
21
2.19977525953834
31
0.000000000000000
  0
LINE
  5
F10237
330
F10238
100
AcDbEntity
8
Geo
100
AcDbLine
10
-29.3846487424111
20
1.29629314150645
30
0.000000000000000
11
-29.2846487424111
21
1.23049836897408
31
0.000000000000000
  0
LINE
  5
F10239
330
F1023A
100
AcDbEntity
8
Geo
100
AcDbLine
10
-29.2846487424111
20
1.23049836897408
30
0.000000000000000
11
-29.1846487424111
21
1.16060422601076
31
0.000000000000000
  0
LINE
  5
F1023B
330
F1023C
100
AcDbEntity
8
Geo
100
AcDbLine
10
-29.1846487424111
20
1.16060422601076
30
0.000000000000000
11
-29.0846487424111
21
1.08668658512648
31
0.000000000000000
  0
LINE
  5
F1023D
330
F1023E
100
AcDbEntity
8
Geo
100
AcDbLine
10
-29.0846487424111
20
1.08668658512648
30
0.000000000000000
11
-28.9846487424111
21
0.993976745241970
31
0.000000000000000
  0
LINE
  5
F1023F
330
F10240
100
AcDbEntity
8
Geo
100
AcDbLine
10
-28.9846487424111
20
0.993976745241970
30
0.000000000000000
11
-28.8846487424111
21
0.902034943871097
31
0.000000000000000
  0
LINE
  5
F10241
330
F10242
100
AcDbEntity
8
Geo
100
AcDbLine
10
-28.8846487424111
20
0.902034943871097
30
0.000000000000000
11
-28.7846487424111
21
0.810897956508535
31
0.000000000000000
  0
LINE
  5
F10243
330
F10244
100
AcDbEntity
8
Geo
100
AcDbLine
10
-28.7846487424111
20
0.810897956508535
30
0.000000000000000
11
-28.6846487424111
21
0.720602236734086
31
0.000000000000000
  0
LINE
  5
F10245
330
F10246
100
AcDbEntity
8
Geo
100
AcDbLine
10
-28.6846487424111
20
0.720602236734086
30
0.000000000000000
11
-28.5846487424111
21
0.631183901631731
31
0.000000000000000
  0
LINE
  5
F10247
330
F10248
100
AcDbEntity
8
Geo
100
AcDbLine
10
-28.5846487424111
20
0.631183901631731
30
0.000000000000000
11
-28.4846487424111
21
0.542678717343286
31
0.000000000000000
  0
LINE
  5
F10249
330
F1024A
100
AcDbEntity
8
Geo
100
AcDbLine
10
-28.4846487424111
20
0.542678717343286
30
0.000000000000000
11
-28.3846487424111
21
0.455122084762410
31
0.000000000000000
  0
LINE
  5
F1024B
330
F1024C
100
AcDbEntity
8
Geo
100
AcDbLine
10
-28.3846487424111
20
0.455122084762410
30
0.000000000000000
11
-28.2846487424111
21
0.368549025374730
31
0.000000000000000
  0
LINE
  5
F1024D
330
F1024E
100
AcDbEntity
8
Geo
100
AcDbLine
10
-28.2846487424111
20
0.368549025374730
30
0.000000000000000
11
-28.1846487424111
21
0.282994167249710
31
0.000000000000000
  0
LINE
  5
F1024F
330
F10250
100
AcDbEntity
8
Geo
100
AcDbLine
10
-28.1846487424111
20
0.282994167249710
30
0.000000000000000
11
-28.0846487424111
21
0.198491731189882
31
0.000000000000000
  0
LINE
  5
F10251
330
F10252
100
AcDbEntity
8
Geo
100
AcDbLine
10
-28.0846487424111
20
0.198491731189882
30
0.000000000000000
11
-27.9846487424111
21
0.115075517042987
31
0.000000000000000
  0
LINE
  5
F10253
330
F10254
100
AcDbEntity
8
Geo
100
AcDbLine
10
-27.9846487424111
20
0.115075517042987
30
0.000000000000000
11
-27.8846487424111
21
0.0327788901824819
31
0.000000000000000
  0
LINE
  5
F10255
330
F10256
100
AcDbEntity
8
Geo
100
AcDbLine
10
-27.8846487424111
20
0.0327788901824819
30
0.000000000000000
11
-27.7846487424111
21
-0.0483652318381624
31
0.000000000000000
  0
LINE
  5
F10257
330
F10258
100
AcDbEntity
8
Geo
100
AcDbLine
10
-27.7846487424111
20
-0.0483652318381624
30
0.000000000000000
11
-27.6846487424111
21
-0.128324392452045
31
0.000000000000000
  0
LINE
  5
F10259
330
F1025A
100
AcDbEntity
8
Geo
100
AcDbLine
10
-27.6846487424111
20
-0.128324392452045
30
0.000000000000000
11
-27.5846487424111
21
-0.207066609061028
31
0.000000000000000
  0
LINE
  5
F1025B
330
F1025C
100
AcDbEntity
8
Geo
100
AcDbLine
10
-27.5846487424111
20
-0.207066609061028
30
0.000000000000000
11
-27.4846487424111
21
-0.284560385828351
31
0.000000000000000
  0
LINE
  5
F1025D
330
F1025E
100
AcDbEntity
8
Geo
100
AcDbLine
10
-27.4846487424111
20
-0.284560385828351
30
0.000000000000000
11
-27.3846487424111
21
-0.360774726276543
31
0.000000000000000
  0
LINE
  5
F1025F
330
F10260
100
AcDbEntity
8
Geo
100
AcDbLine
10
-27.3846487424111
20
-0.360774726276543
30
0.000000000000000
11
-27.2846487424111
21
-0.435679145685602
31
0.000000000000000
  0
LINE
  5
F10261
330
F10262
100
AcDbEntity
8
Geo
100
AcDbLine
10
-27.2846487424111
20
-0.435679145685602
30
0.000000000000000
11
-27.1846487424111
21
-0.509243683286476
31
0.000000000000000
  0
LINE
  5
F10263
330
F10264
100
AcDbEntity
8
Geo
100
AcDbLine
10
-27.1846487424111
20
-0.509243683286476
30
0.000000000000000
11
-27.0846487424111
21
-0.581438914244975
31
0.000000000000000
  0
LINE
  5
F10265
330
F10266
100
AcDbEntity
8
Geo
100
AcDbLine
10
-27.0846487424111
20
-0.581438914244975
30
0.000000000000000
11
-26.9846487424111
21
-0.652235961431304
31
0.000000000000000
  0
LINE
  5
F10267
330
F10268
100
AcDbEntity
8
Geo
100
AcDbLine
10
-26.9846487424111
20
-0.652235961431304
30
0.000000000000000
11
-26.8846487424111
21
-0.721606506970535
31
0.000000000000000
  0
LINE
  5
F10269
330
F1026A
100
AcDbEntity
8
Geo
100
AcDbLine
10
-26.8846487424111
20
-0.721606506970535
30
0.000000000000000
11
-26.7846487424111
21
-0.789522803569383
31
0.000000000000000
  0
LINE
  5
F1026B
330
F1026C
100
AcDbEntity
8
Geo
100
AcDbLine
10
-26.7846487424111
20
-0.789522803569383
30
0.000000000000000
11
-26.6846487424111
21
-0.855957685614746
31
0.000000000000000
  0
LINE
  5
F1026D
330
F1026E
100
AcDbEntity
8
Geo
100
AcDbLine
10
-26.6846487424111
20
-0.855957685614746
30
0.000000000000000
11
-26.5846487424111
21
-0.920884580039593
31
0.000000000000000
  0
LINE
  5
F1026F
330
F10270
100
AcDbEntity
8
Geo
100
AcDbLine
10
-26.5846487424111
20
-0.920884580039593
30
0.000000000000000
11
-26.4846487424111
21
-0.984277516951833
31
0.000000000000000
  0
LINE
  5
F10271
330
F10272
100
AcDbEntity
8
Geo
100
AcDbLine
10
-26.4846487424111
20
-0.984277516951833
30
0.000000000000000
11
-26.3846487424111
21
-1.04611114002193
31
0.000000000000000
  0
LINE
  5
F10273
330
F10274
100
AcDbEntity
8
Geo
100
AcDbLine
10
-26.3846487424111
20
-1.04611114002193
30
0.000000000000000
11
-26.2846487424111
21
-1.10636071662510
31
0.000000000000000
  0
LINE
  5
F10275
330
F10276
100
AcDbEntity
8
Geo
100
AcDbLine
10
-26.2846487424111
20
-1.10636071662510
30
0.000000000000000
11
-26.1846487424111
21
-1.16500214773400
31
0.000000000000000
  0
LINE
  5
F10277
330
F10278
100
AcDbEntity
8
Geo
100
AcDbLine
10
-26.1846487424111
20
-1.16500214773400
30
0.000000000000000
11
-26.0846487424111
21
-1.22201197755808
31
0.000000000000000
  0
LINE
  5
F10279
330
F1027A
100
AcDbEntity
8
Geo
100
AcDbLine
10
-26.0846487424111
20
-1.22201197755808
30
0.000000000000000
11
-25.9846487424111
21
-1.27736740292553
31
0.000000000000000
  0
LINE
  5
F1027B
330
F1027C
100
AcDbEntity
8
Geo
100
AcDbLine
10
-25.9846487424111
20
-1.27736740292553
30
0.000000000000000
11
-25.8846487424111
21
-1.33104628240425
31
0.000000000000000
  0
LINE
  5
F1027D
330
F1027E
100
AcDbEntity
8
Geo
100
AcDbLine
10
-25.8846487424111
20
-1.33104628240425
30
0.000000000000000
11
-25.7846487424111
21
-1.38302714515817
31
0.000000000000000
  0
LINE
  5
F1027F
330
F10280
100
AcDbEntity
8
Geo
100
AcDbLine
10
-25.7846487424111
20
-1.38302714515817
30
0.000000000000000
11
-25.6846487424111
21
-1.43328919953526
31
0.000000000000000
  0
LINE
  5
F10281
330
F10282
100
AcDbEntity
8
Geo
100
AcDbLine
10
-25.6846487424111
20
-1.43328919953526
30
0.000000000000000
11
-25.5846487424111
21
-1.48181234138392
31
0.000000000000000
  0
LINE
  5
F10283
330
F10284
100
AcDbEntity
8
Geo
100
AcDbLine
10
-25.5846487424111
20
-1.48181234138392
30
0.000000000000000
11
-25.4846487424111
21
-1.52857716209436
31
0.000000000000000
  0
LINE
  5
F10285
330
F10286
100
AcDbEntity
8
Geo
100
AcDbLine
10
-25.4846487424111
20
-1.52857716209436
30
0.000000000000000
11
-25.3846487424111
21
-1.57356495636184
31
0.000000000000000
  0
LINE
  5
F10287
330
F10288
100
AcDbEntity
8
Geo
100
AcDbLine
10
-25.3846487424111
20
-1.57356495636184
30
0.000000000000000
11
-25.2846487424111
21
-1.61675772966848
31
0.000000000000000
  0
LINE
  5
F10289
330
F1028A
100
AcDbEntity
8
Geo
100
AcDbLine
10
-25.2846487424111
20
-1.61675772966848
30
0.000000000000000
11
-25.1846487424111
21
-1.65813820548084
31
0.000000000000000
  0
LINE
  5
F1028B
330
F1028C
100
AcDbEntity
8
Geo
100
AcDbLine
10
-25.1846487424111
20
-1.65813820548084
30
0.000000000000000
11
-25.0846487424111
21
-1.69768983216033
31
0.000000000000000
  0
LINE
  5
F1028D
330
F1028E
100
AcDbEntity
8
Geo
100
AcDbLine
10
-25.0846487424111
20
-1.69768983216033
30
0.000000000000000
11
-24.9846487424111
21
-1.73539678958364
31
0.000000000000000
  0
LINE
  5
F1028F
330
F10290
100
AcDbEntity
8
Geo
100
AcDbLine
10
-24.9846487424111
20
-1.73539678958364
30
0.000000000000000
11
-24.8846487424111
21
-1.77124399547054
31
0.000000000000000
  0
LINE
  5
F10291
330
F10292
100
AcDbEntity
8
Geo
100
AcDbLine
10
-24.8846487424111
20
-1.77124399547054
30
0.000000000000000
11
-24.7846487424111
21
-1.80521711141664
31
0.000000000000000
  0
LINE
  5
F10293
330
F10294
100
AcDbEntity
8
Geo
100
AcDbLine
10
-24.7846487424111
20
-1.80521711141664
30
0.000000000000000
11
-24.6846487424111
21
-1.83730254862852
31
0.000000000000000
  0
LINE
  5
F10295
330
F10296
100
AcDbEntity
8
Geo
100
AcDbLine
10
-24.6846487424111
20
-1.83730254862852
30
0.000000000000000
11
-24.5846487424111
21
-1.86748747335911
31
0.000000000000000
  0
LINE
  5
F10297
330
F10298
100
AcDbEntity
8
Geo
100
AcDbLine
10
-24.5846487424111
20
-1.86748747335911
30
0.000000000000000
11
-24.4846487424111
21
-1.89575981204096
31
0.000000000000000
  0
LINE
  5
F10299
330
F1029A
100
AcDbEntity
8
Geo
100
AcDbLine
10
-24.4846487424111
20
-1.89575981204096
30
0.000000000000000
11
-24.3846487424111
21
-1.92210825611557
31
0.000000000000000
  0
LINE
  5
F1029B
330
F1029C
100
AcDbEntity
8
Geo
100
AcDbLine
10
-24.3846487424111
20
-1.92210825611557
30
0.000000000000000
11
-24.2846487424111
21
-1.94652226655662
31
0.000000000000000
  0
LINE
  5
F1029D
330
F1029E
100
AcDbEntity
8
Geo
100
AcDbLine
10
-24.2846487424111
20
-1.94652226655662
30
0.000000000000000
11
-24.1846487424111
21
-1.96899207808544
31
0.000000000000000
  0
LINE
  5
F1029F
330
F102A0
100
AcDbEntity
8
Geo
100
AcDbLine
10
-24.1846487424111
20
-1.96899207808544
30
0.000000000000000
11
-24.0846487424111
21
-1.98950870307702
31
0.000000000000000
  0
LINE
  5
F102A1
330
F102A2
100
AcDbEntity
8
Geo
100
AcDbLine
10
-24.0846487424111
20
-1.98950870307702
30
0.000000000000000
11
-23.9846487424111
21
-2.00806393515490
31
0.000000000000000
  0
LINE
  5
F102A3
330
F102A4
100
AcDbEntity
8
Geo
100
AcDbLine
10
-23.9846487424111
20
-2.00806393515490
30
0.000000000000000
11
-23.8846487424111
21
-2.02465035247367
31
0.000000000000000
  0
LINE
  5
F102A5
330
F102A6
100
AcDbEntity
8
Geo
100
AcDbLine
10
-23.8846487424111
20
-2.02465035247367
30
0.000000000000000
11
-23.7846487424111
21
-2.03926132068754
31
0.000000000000000
  0
LINE
  5
F102A7
330
F102A8
100
AcDbEntity
8
Geo
100
AcDbLine
10
-23.7846487424111
20
-2.03926132068754
30
0.000000000000000
11
-23.6846487424111
21
-2.05189099560403
31
0.000000000000000
  0
LINE
  5
F102A9
330
F102AA
100
AcDbEntity
8
Geo
100
AcDbLine
10
-23.6846487424111
20
-2.05189099560403
30
0.000000000000000
11
-23.5846487424111
21
-2.06253432552157
31
0.000000000000000
  0
LINE
  5
F102AB
330
F102AC
100
AcDbEntity
8
Geo
100
AcDbLine
10
-23.5846487424111
20
-2.06253432552157
30
0.000000000000000
11
-23.4846487424111
21
-2.07118705325012
31
0.000000000000000
  0
LINE
  5
F102AD
330
F102AE
100
AcDbEntity
8
Geo
100
AcDbLine
10
-23.4846487424111
20
-2.07118705325012
30
0.000000000000000
11
-23.3846487424111
21
-2.07784571781393
31
0.000000000000000
  0
LINE
  5
F102AF
330
F102B0
100
AcDbEntity
8
Geo
100
AcDbLine
10
-23.3846487424111
20
-2.07784571781393
30
0.000000000000000
11
-23.2846487424111
21
-2.08250765583597
31
0.000000000000000
  0
LINE
  5
F102B1
330
F102B2
100
AcDbEntity
8
Geo
100
AcDbLine
10
-23.2846487424111
20
-2.08250765583597
30
0.000000000000000
11
-23.1846487424111
21
-2.08517100260318
31
0.000000000000000
  0
LINE
  5
F102B3
330
F102B4
100
AcDbEntity
8
Geo
100
AcDbLine
10
-23.1846487424111
20
-2.08517100260318
30
0.000000000000000
11
-23.1014640541460
21
-2.08586296617520
31
0.000000000000000
  0
LINE
  5
F102B5
330
F102B6
100
AcDbEntity
8
Geo
100
AcDbLine
10
-22.3846487424111
20
3.76397274832603
30
0.000000000000000
11
-22.2846487424111
21
3.66526438338326
31
0.000000000000000
  0
LINE
  5
F102B7
330
F102B8
100
AcDbEntity
8
Geo
100
AcDbLine
10
-22.2846487424111
20
3.66526438338326
30
0.000000000000000
11
-22.1846487424111
21
3.56625557751556
31
0.000000000000000
  0
LINE
  5
F102B9
330
F102BA
100
AcDbEntity
8
Geo
100
AcDbLine
10
-22.1846487424111
20
3.56625557751556
30
0.000000000000000
11
-22.0846487424111
21
3.46698593292519
31
0.000000000000000
  0
LINE
  5
F102BB
330
F102BC
100
AcDbEntity
8
Geo
100
AcDbLine
10
-22.0846487424111
20
3.46698593292519
30
0.000000000000000
11
-21.9846487424111
21
3.36749515614655
31
0.000000000000000
  0
LINE
  5
F102BD
330
F102BE
100
AcDbEntity
8
Geo
100
AcDbLine
10
-21.9846487424111
20
3.36749515614655
30
0.000000000000000
11
-21.8846487424111
21
3.26782304216579
31
0.000000000000000
  0
LINE
  5
F102BF
330
F102C0
100
AcDbEntity
8
Geo
100
AcDbLine
10
-21.8846487424111
20
3.26782304216579
30
0.000000000000000
11
-21.7846487424111
21
3.16800945851455
31
0.000000000000000
  0
LINE
  5
F102C1
330
F102C2
100
AcDbEntity
8
Geo
100
AcDbLine
10
-21.7846487424111
20
3.16800945851455
30
0.000000000000000
11
-21.6846487424111
21
3.06809432937603
31
0.000000000000000
  0
LINE
  5
F102C3
330
F102C4
100
AcDbEntity
8
Geo
100
AcDbLine
10
-21.6846487424111
20
3.06809432937603
30
0.000000000000000
11
-21.5846487424111
21
2.96811761980587
31
0.000000000000000
  0
LINE
  5
F102C5
330
F102C6
100
AcDbEntity
8
Geo
100
AcDbLine
10
-21.5846487424111
20
2.96811761980587
30
0.000000000000000
11
-21.4846487424111
21
2.86811932031543
31
0.000000000000000
  0
LINE
  5
F102C7
330
F102C8
100
AcDbEntity
8
Geo
100
AcDbLine
10
-21.4846487424111
20
2.86811932031543
30
0.000000000000000
11
-21.3846487424111
21
2.76813943235113
31
0.000000000000000
  0
LINE
  5
F102C9
330
F102CA
100
AcDbEntity
8
Geo
100
AcDbLine
10
-21.3846487424111
20
2.76813943235113
30
0.000000000000000
11
-21.2846487424111
21
2.66821795571631
31
0.000000000000000
  0
LINE
  5
F102CB
330
F102CC
100
AcDbEntity
8
Geo
100
AcDbLine
10
-21.2846487424111
20
2.66821795571631
30
0.000000000000000
11
-21.1846487424111
21
2.56839487983133
31
0.000000000000000
  0
LINE
  5
F102CD
330
F102CE
100
AcDbEntity
8
Geo
100
AcDbLine
10
-21.1846487424111
20
2.56839487983133
30
0.000000000000000
11
-21.0846487424111
21
2.46871018205594
31
0.000000000000000
  0
LINE
  5
F102CF
330
F102D0
100
AcDbEntity
8
Geo
100
AcDbLine
10
-21.0846487424111
20
2.46871018205594
30
0.000000000000000
11
-20.9846487424111
21
2.36920383827330
31
0.000000000000000
  0
LINE
  5
F102D1
330
F102D2
100
AcDbEntity
8
Geo
100
AcDbLine
10
-20.9846487424111
20
2.36920383827330
30
0.000000000000000
11
-20.8846487424111
21
2.26991585375810
31
0.000000000000000
  0
LINE
  5
F102D3
330
F102D4
100
AcDbEntity
8
Geo
100
AcDbLine
10
-20.8846487424111
20
2.26991585375810
30
0.000000000000000
11
-20.7846487424111
21
2.17088632624746
31
0.000000000000000
  0
LINE
  5
F102D5
330
F102D6
100
AcDbEntity
8
Geo
100
AcDbLine
10
-20.7846487424111
20
2.17088632624746
30
0.000000000000000
11
-20.6846487424111
21
2.07215555835497
31
0.000000000000000
  0
LINE
  5
F102D7
330
F102D8
100
AcDbEntity
8
Geo
100
AcDbLine
10
-20.6846487424111
20
2.07215555835497
30
0.000000000000000
11
-20.5846487424111
21
1.97376424328436
31
0.000000000000000
  0
LINE
  5
F102D9
330
F102DA
100
AcDbEntity
8
Geo
100
AcDbLine
10
-20.5846487424111
20
1.97376424328436
30
0.000000000000000
11
-20.4846487424111
21
1.87575375649471
31
0.000000000000000
  0
LINE
  5
F102DB
330
F102DC
100
AcDbEntity
8
Geo
100
AcDbLine
10
-20.4846487424111
20
1.87575375649471
30
0.000000000000000
11
-20.3846487424111
21
1.77816659683135
31
0.000000000000000
  0
LINE
  5
F102DD
330
F102DE
100
AcDbEntity
8
Geo
100
AcDbLine
10
-20.3846487424111
20
1.77816659683135
30
0.000000000000000
11
-20.2846487424111
21
1.68104703395146
31
0.000000000000000
  0
LINE
  5
F102DF
330
F102E0
100
AcDbEntity
8
Geo
100
AcDbLine
10
-20.2846487424111
20
1.68104703395146
30
0.000000000000000
11
-20.1846487424111
21
1.58444203490934
31
0.000000000000000
  0
LINE
  5
F102E1
330
F102E2
100
AcDbEntity
8
Geo
100
AcDbLine
10
-20.1846487424111
20
1.58444203490934
30
0.000000000000000
11
-20.0846487424111
21
1.48840256177168
31
0.000000000000000
  0
LINE
  5
F102E3
330
F102E4
100
AcDbEntity
8
Geo
100
AcDbLine
10
-20.0846487424111
20
1.48840256177168
30
0.000000000000000
11
-19.9846487424111
21
1.39298535432243
31
0.000000000000000
  0
LINE
  5
F102E5
330
F102E6
100
AcDbEntity
8
Geo
100
AcDbLine
10
-19.9846487424111
20
1.39298535432243
30
0.000000000000000
11
-19.8846487424111
21
1.29825533747681
31
0.000000000000000
  0
LINE
  5
F102E7
330
F102E8
100
AcDbEntity
8
Geo
100
AcDbLine
10
-19.8846487424111
20
1.29825533747681
30
0.000000000000000
11
-19.7846487424111
21
1.20428882212813
31
0.000000000000000
  0
LINE
  5
F102E9
330
F102EA
100
AcDbEntity
8
Geo
100
AcDbLine
10
-19.7846487424111
20
1.20428882212813
30
0.000000000000000
11
-19.6846487424111
21
1.11117770100443
31
0.000000000000000
  0
LINE
  5
F102EB
330
F102EC
100
AcDbEntity
8
Geo
100
AcDbLine
10
-19.6846487424111
20
1.11117770100443
30
0.000000000000000
11
-19.5846487424111
21
1.01903487805230
31
0.000000000000000
  0
LINE
  5
F102ED
330
F102EE
100
AcDbEntity
8
Geo
100
AcDbLine
10
-19.5846487424111
20
1.01903487805230
30
0.000000000000000
11
-19.4846487424111
21
0.928001211552021
31
0.000000000000000
  0
LINE
  5
F102EF
330
F102F0
100
AcDbEntity
8
Geo
100
AcDbLine
10
-19.4846487424111
20
0.928001211552021
30
0.000000000000000
11
-19.3846487424111
21
0.838254298923605
31
0.000000000000000
  0
LINE
  5
F102F1
330
F102F2
100
AcDbEntity
8
Geo
100
AcDbLine
10
-19.3846487424111
20
0.838254298923605
30
0.000000000000000
11
-19.2846487424111
21
0.750019487578296
31
0.000000000000000
  0
LINE
  5
F102F3
330
F102F4
100
AcDbEntity
8
Geo
100
AcDbLine
10
-19.2846487424111
20
0.750019487578296
30
0.000000000000000
11
-19.1846487424111
21
0.663583565993402
31
0.000000000000000
  0
LINE
  5
F102F5
330
F102F6
100
AcDbEntity
8
Geo
100
AcDbLine
10
-19.1846487424111
20
0.663583565993402
30
0.000000000000000
11
-19.0846487424111
21
0.579311680990190
31
0.000000000000000
  0
LINE
  5
F102F7
330
F102F8
100
AcDbEntity
8
Geo
100
AcDbLine
10
-19.0846487424111
20
0.579311680990190
30
0.000000000000000
11
-18.9846487424111
21
0.497668155690787
31
0.000000000000000
  0
LINE
  5
F102F9
330
F102FA
100
AcDbEntity
8
Geo
100
AcDbLine
10
-18.9846487424111
20
0.497668155690787
30
0.000000000000000
11
-18.8846487424111
21
0.419242072297432
31
0.000000000000000
  0
LINE
  5
F102FB
330
F102FC
100
AcDbEntity
8
Geo
100
AcDbLine
10
-18.8846487424111
20
0.419242072297432
30
0.000000000000000
11
-18.7846487424111
21
0.344778774122192
31
0.000000000000000
  0
LINE
  5
F102FD
330
F102FE
100
AcDbEntity
8
Geo
100
AcDbLine
10
-18.7846487424111
20
0.344778774122192
30
0.000000000000000
11
-18.6846487424111
21
0.275218893801214
31
0.000000000000000
  0
LINE
  5
F102FF
330
F10300
100
AcDbEntity
8
Geo
100
AcDbLine
10
-18.6846487424111
20
0.275218893801214
30
0.000000000000000
11
-18.5846487424111
21
0.211747222421934
31
0.000000000000000
  0
LINE
  5
F10301
330
F10302
100
AcDbEntity
8
Geo
100
AcDbLine
10
-18.5846487424111
20
0.211747222421934
30
0.000000000000000
11
-18.4846487424111
21
0.155854832734825
31
0.000000000000000
  0
LINE
  5
F10303
330
F10304
100
AcDbEntity
8
Geo
100
AcDbLine
10
-18.4846487424111
20
0.155854832734825
30
0.000000000000000
11
-18.3846487424111
21
0.109419546352644
31
0.000000000000000
  0
LINE
  5
F10305
330
F10306
100
AcDbEntity
8
Geo
100
AcDbLine
10
-18.3846487424111
20
0.109419546352644
30
0.000000000000000
11
-18.2846487424111
21
0.0748123326577397
31
0.000000000000000
  0
LINE
  5
F10307
330
F10308
100
AcDbEntity
8
Geo
100
AcDbLine
10
-18.2846487424111
20
0.0748123326577397
30
0.000000000000000
11
-18.1846487424111
21
0.0550408252165537
31
0.000000000000000
  0
LINE
  5
F10309
330
F1030A
100
AcDbEntity
8
Geo
100
AcDbLine
10
-18.1846487424111
20
0.0550408252165537
30
0.000000000000000
11
-18.0846487424111
21
0.0539460832595253
31
0.000000000000000
  0
LINE
  5
F1030B
330
F1030C
100
AcDbEntity
8
Geo
100
AcDbLine
10
-18.0846487424111
20
0.0539460832595253
30
0.000000000000000
11
-17.9846487424111
21
0.0764750266555239
31
0.000000000000000
  0
LINE
  5
F1030D
330
F1030E
100
AcDbEntity
8
Geo
100
AcDbLine
10
-17.9846487424111
20
0.0764750266555239
30
0.000000000000000
11
-17.8846487424111
21
0.129057970426961
31
0.000000000000000
  0
LINE
  5
F1030F
330
F10310
100
AcDbEntity
8
Geo
100
AcDbLine
10
-17.8846487424111
20
0.129057970426961
30
0.000000000000000
11
-17.7846487424111
21
0.220126054132443
31
0.000000000000000
  0
LINE
  5
F10311
330
F10312
100
AcDbEntity
8
Geo
100
AcDbLine
10
-17.7846487424111
20
0.220126054132443
30
0.000000000000000
11
-17.6846487424111
21
0.360801049045691
31
0.000000000000000
  0
LINE
  5
F10313
330
F10314
100
AcDbEntity
8
Geo
100
AcDbLine
10
-17.6846487424111
20
0.360801049045691
30
0.000000000000000
11
-17.5846487424111
21
0.565766077505838
31
0.000000000000000
  0
LINE
  5
F10315
330
F10316
100
AcDbEntity
8
Geo
100
AcDbLine
10
-17.5846487424111
20
0.565766077505838
30
0.000000000000000
11
-17.4846487424111
21
0.854250273089995
31
0.000000000000000
  0
LINE
  5
F10317
330
F10318
100
AcDbEntity
8
Geo
100
AcDbLine
10
-17.4846487424111
20
0.854250273089995
30
0.000000000000000
11
-17.3846487424111
21
1.25087288116491
31
0.000000000000000
  0
LINE
  5
F10319
330
F1031A
100
AcDbEntity
8
Geo
100
AcDbLine
10
-17.3846487424111
20
1.25087288116491
30
0.000000000000000
11
-17.3846487424111
21
1.30092788436000
31
0.000000000000000
  0
LINE
  5
F1031B
330
F1031C
100
AcDbEntity
8
Geo
100
AcDbLine
10
-17.3846487424111
20
1.30092788436000
30
0.000000000000000
11
-17.3846487424111
21
1.30932645633361
31
0.000000000000000
  0
LINE
  5
F1031D
330
F1031E
100
AcDbEntity
8
Geo
100
AcDbLine
10
-17.3846487424111
20
1.30932645633361
30
0.000000000000000
11
-17.3846487424111
21
1.36989275986148
31
0.000000000000000
  0
LINE
  5
F1031F
330
F10320
100
AcDbEntity
8
Geo
100
AcDbLine
10
-17.3846487424111
20
1.36989275986148
30
0.000000000000000
11
-17.4846487424111
21
1.87504468305333
31
0.000000000000000
  0
LINE
  5
F10321
330
F10322
100
AcDbEntity
8
Geo
100
AcDbLine
10
-17.4846487424111
20
1.87504468305333
30
0.000000000000000
11
-17.5846487424111
21
2.35075771056433
31
0.000000000000000
  0
LINE
  5
F10323
330
F10324
100
AcDbEntity
8
Geo
100
AcDbLine
10
-17.5846487424111
20
2.35075771056433
30
0.000000000000000
11
-17.6846487424111
21
2.79391355587856
31
0.000000000000000
  0
LINE
  5
F10325
330
F10326
100
AcDbEntity
8
Geo
100
AcDbLine
10
-17.6846487424111
20
2.79391355587856
30
0.000000000000000
11
-17.7846487424111
21
3.20333638850332
31
0.000000000000000
  0
LINE
  5
F10327
330
F10328
100
AcDbEntity
8
Geo
100
AcDbLine
10
-17.7846487424111
20
3.20333638850332
30
0.000000000000000
11
-17.8846487424111
21
3.57923286590385
31
0.000000000000000
  0
LINE
  5
F10329
330
F1032A
100
AcDbEntity
8
Geo
100
AcDbLine
10
-17.8846487424111
20
3.57923286590385
30
0.000000000000000
11
-17.9846487424111
21
3.92275234233842
31
0.000000000000000
  0
LINE
  5
F1032B
330
F1032C
100
AcDbEntity
8
Geo
100
AcDbLine
10
-17.9846487424111
20
3.92275234233842
30
0.000000000000000
11
-18.0846487424111
21
4.23565044188897
31
0.000000000000000
  0
LINE
  5
F1032D
330
F1032E
100
AcDbEntity
8
Geo
100
AcDbLine
10
-18.0846487424111
20
4.23565044188897
30
0.000000000000000
11
-18.1846487424111
21
4.52003804301926
31
0.000000000000000
  0
LINE
  5
F1032F
330
F10330
100
AcDbEntity
8
Geo
100
AcDbLine
10
-18.1846487424111
20
4.52003804301926
30
0.000000000000000
11
-18.2846487424111
21
4.77819870174194
31
0.000000000000000
  0
LINE
  5
F10331
330
F10332
100
AcDbEntity
8
Geo
100
AcDbLine
10
-18.2846487424111
20
4.77819870174194
30
0.000000000000000
11
-18.3846487424111
21
5.01245954679850
31
0.000000000000000
  0
LINE
  5
F10333
330
F10334
100
AcDbEntity
8
Geo
100
AcDbLine
10
-18.3846487424111
20
5.01245954679850
30
0.000000000000000
11
-18.4846487424111
21
5.22510304437141
31
0.000000000000000
  0
LINE
  5
F10335
330
F10336
100
AcDbEntity
8
Geo
100
AcDbLine
10
-18.4846487424111
20
5.22510304437141
30
0.000000000000000
11
-18.5846487424111
21
5.41830937033689
31
0.000000000000000
  0
LINE
  5
F10337
330
F10338
100
AcDbEntity
8
Geo
100
AcDbLine
10
-18.5846487424111
20
5.41830937033689
30
0.000000000000000
11
-18.6846487424111
21
5.59412124927802
31
0.000000000000000
  0
LINE
  5
F10339
330
F1033A
100
AcDbEntity
8
Geo
100
AcDbLine
10
-18.6846487424111
20
5.59412124927802
30
0.000000000000000
11
-18.7846487424111
21
5.75442494011362
31
0.000000000000000
  0
LINE
  5
F1033B
330
F1033C
100
AcDbEntity
8
Geo
100
AcDbLine
10
-18.7846487424111
20
5.75442494011362
30
0.000000000000000
11
-18.8846487424111
21
5.90094255328987
31
0.000000000000000
  0
LINE
  5
F1033D
330
F1033E
100
AcDbEntity
8
Geo
100
AcDbLine
10
-18.8846487424111
20
5.90094255328987
30
0.000000000000000
11
-18.9846487424111
21
6.03523209440027
31
0.000000000000000
  0
LINE
  5
F1033F
330
F10340
100
AcDbEntity
8
Geo
100
AcDbLine
10
-18.9846487424111
20
6.03523209440027
30
0.000000000000000
11
-19.0846487424111
21
6.15869258041204
31
0.000000000000000
  0
LINE
  5
F10341
330
F10342
100
AcDbEntity
8
Geo
100
AcDbLine
10
-19.0846487424111
20
6.15869258041204
30
0.000000000000000
11
-19.1846487424111
21
6.27257230890531
31
0.000000000000000
  0
LINE
  5
F10343
330
F10344
100
AcDbEntity
8
Geo
100
AcDbLine
10
-19.1846487424111
20
6.27257230890531
30
0.000000000000000
11
-19.2846487424111
21
6.37797891820613
31
0.000000000000000
  0
LINE
  5
F10345
330
F10346
100
AcDbEntity
8
Geo
100
AcDbLine
10
-19.2846487424111
20
6.37797891820613
30
0.000000000000000
11
-19.3846487424111
21
6.47589029315587
31
0.000000000000000
  0
LINE
  5
F10347
330
F10348
100
AcDbEntity
8
Geo
100
AcDbLine
10
-19.3846487424111
20
6.47589029315587
30
0.000000000000000
11
-19.4846487424111
21
6.56716567832751
31
0.000000000000000
  0
LINE
  5
F10349
330
F1034A
100
AcDbEntity
8
Geo
100
AcDbLine
10
-19.4846487424111
20
6.56716567832751
30
0.000000000000000
11
-19.5846487424111
21
6.65255658318495
31
0.000000000000000
  0
LINE
  5
F1034B
330
F1034C
100
AcDbEntity
8
Geo
100
AcDbLine
10
-19.5846487424111
20
6.65255658318495
30
0.000000000000000
11
-19.6846487424111
21
6.73271722241800
31
0.000000000000000
  0
LINE
  5
F1034D
330
F1034E
100
AcDbEntity
8
Geo
100
AcDbLine
10
-19.6846487424111
20
6.73271722241800
30
0.000000000000000
11
-19.7846487424111
21
6.80821434560116
31
0.000000000000000
  0
LINE
  5
F1034F
330
F10350
100
AcDbEntity
8
Geo
100
AcDbLine
10
-19.7846487424111
20
6.80821434560116
30
0.000000000000000
11
-19.8846487424111
21
6.87953638594476
31
0.000000000000000
  0
LINE
  5
F10351
330
F10352
100
AcDbEntity
8
Geo
100
AcDbLine
10
-19.8846487424111
20
6.87953638594476
30
0.000000000000000
11
-19.9846487424111
21
6.94710190784058
31
0.000000000000000
  0
LINE
  5
F10353
330
F10354
100
AcDbEntity
8
Geo
100
AcDbLine
10
-19.9846487424111
20
6.94710190784058
30
0.000000000000000
11
-20.0846487424111
21
7.01126736443133
31
0.000000000000000
  0
LINE
  5
F10355
330
F10356
100
AcDbEntity
8
Geo
100
AcDbLine
10
-20.0846487424111
20
7.01126736443133
30
0.000000000000000
11
-20.1846487424111
21
7.07233419501383
31
0.000000000000000
  0
LINE
  5
F10357
330
F10358
100
AcDbEntity
8
Geo
100
AcDbLine
10
-20.1846487424111
20
7.07233419501383
30
0.000000000000000
11
-20.2846487424111
21
7.13055530176745
31
0.000000000000000
  0
LINE
  5
F10359
330
F1035A
100
AcDbEntity
8
Geo
100
AcDbLine
10
-20.2846487424111
20
7.13055530176745
30
0.000000000000000
11
-20.3846487424111
21
7.18614094905274
31
0.000000000000000
  0
LINE
  5
F1035B
330
F1035C
100
AcDbEntity
8
Geo
100
AcDbLine
10
-20.3846487424111
20
7.18614094905274
30
0.000000000000000
11
-20.4846487424111
21
7.23926412849929
31
0.000000000000000
  0
LINE
  5
F1035D
330
F1035E
100
AcDbEntity
8
Geo
100
AcDbLine
10
-20.4846487424111
20
7.23926412849929
30
0.000000000000000
11
-20.5846487424111
21
7.29006543083196
31
0.000000000000000
  0
LINE
  5
F1035F
330
F10360
100
AcDbEntity
8
Geo
100
AcDbLine
10
-20.5846487424111
20
7.29006543083196
30
0.000000000000000
11
-20.6846487424111
21
7.33865746194507
31
0.000000000000000
  0
LINE
  5
F10361
330
F10362
100
AcDbEntity
8
Geo
100
AcDbLine
10
-20.6846487424111
20
7.33865746194507
30
0.000000000000000
11
-20.7846487424111
21
7.38512883685794
31
0.000000000000000
  0
LINE
  5
F10363
330
F10364
100
AcDbEntity
8
Geo
100
AcDbLine
10
-20.7846487424111
20
7.38512883685794
30
0.000000000000000
11
-20.8846487424111
21
7.42954778135691
31
0.000000000000000
  0
LINE
  5
F10365
330
F10366
100
AcDbEntity
8
Geo
100
AcDbLine
10
-20.8846487424111
20
7.42954778135691
30
0.000000000000000
11
-20.9846487424111
21
7.47196536764882
31
0.000000000000000
  0
LINE
  5
F10367
330
F10368
100
AcDbEntity
8
Geo
100
AcDbLine
10
-20.9846487424111
20
7.47196536764882
30
0.000000000000000
11
-21.0846487424111
21
7.51241840738930
31
0.000000000000000
  0
LINE
  5
F10369
330
F1036A
100
AcDbEntity
8
Geo
100
AcDbLine
10
-21.0846487424111
20
7.51241840738930
30
0.000000000000000
11
-21.1846487424111
21
7.55093202308242
31
0.000000000000000
  0
LINE
  5
F1036B
330
F1036C
100
AcDbEntity
8
Geo
100
AcDbLine
10
-21.1846487424111
20
7.55093202308242
30
0.000000000000000
11
-21.2846487424111
21
7.58752191708871
31
0.000000000000000
  0
LINE
  5
F1036D
330
F1036E
100
AcDbEntity
8
Geo
100
AcDbLine
10
-21.2846487424111
20
7.58752191708871
30
0.000000000000000
11
-21.3846487424111
21
7.62219635629379
31
0.000000000000000
  0
LINE
  5
F1036F
330
F10370
100
AcDbEntity
8
Geo
100
AcDbLine
10
-21.3846487424111
20
7.62219635629379
30
0.000000000000000
11
-21.4846487424111
21
7.65495788982114
31
0.000000000000000
  0
LINE
  5
F10371
330
F10372
100
AcDbEntity
8
Geo
100
AcDbLine
10
-21.4846487424111
20
7.65495788982114
30
0.000000000000000
11
-21.5846487424111
21
7.68580481694441
31
0.000000000000000
  0
LINE
  5
F10373
330
F10374
100
AcDbEntity
8
Geo
100
AcDbLine
10
-21.5846487424111
20
7.68580481694441
30
0.000000000000000
11
-21.6846487424111
21
7.71473242248373
31
0.000000000000000
  0
LINE
  5
F10375
330
F10376
100
AcDbEntity
8
Geo
100
AcDbLine
10
-21.6846487424111
20
7.71473242248373
30
0.000000000000000
11
-21.7846487424111
21
7.74173399737427
31
0.000000000000000
  0
LINE
  5
F10377
330
F10378
100
AcDbEntity
8
Geo
100
AcDbLine
10
-21.7846487424111
20
7.74173399737427
30
0.000000000000000
11
-21.8846487424111
21
7.76680166269353
31
0.000000000000000
  0
LINE
  5
F10379
330
F1037A
100
AcDbEntity
8
Geo
100
AcDbLine
10
-21.8846487424111
20
7.76680166269353
30
0.000000000000000
11
-21.9846487424111
21
7.78992701615405
31
0.000000000000000
  0
LINE
  5
F1037B
330
F1037C
100
AcDbEntity
8
Geo
100
AcDbLine
10
-21.9846487424111
20
7.78992701615405
30
0.000000000000000
11
-22.0846487424111
21
7.81110162084831
31
0.000000000000000
  0
LINE
  5
F1037D
330
F1037E
100
AcDbEntity
8
Geo
100
AcDbLine
10
-22.0846487424111
20
7.81110162084831
30
0.000000000000000
11
-22.1846487424111
21
7.83031735681830
31
0.000000000000000
  0
LINE
  5
F1037F
330
F10380
100
AcDbEntity
8
Geo
100
AcDbLine
10
-22.1846487424111
20
7.83031735681830
30
0.000000000000000
11
-22.2846487424111
21
7.84756665677368
31
0.000000000000000
  0
LINE
  5
F10381
330
F10382
100
AcDbEntity
8
Geo
100
AcDbLine
10
-22.2846487424111
20
7.84756665677368
30
0.000000000000000
11
-22.3846487424111
21
7.86284264796658
31
0.000000000000000
  0
LINE
  5
F10383
330
F10384
100
AcDbEntity
8
Geo
100
AcDbLine
10
-22.3846487424111
20
-2.01311161611750
30
0.000000000000000
11
-22.2846487424111
21
-2.02912178043380
31
0.000000000000000
  0
LINE
  5
F10385
330
F10386
100
AcDbEntity
8
Geo
100
AcDbLine
10
-22.2846487424111
20
-2.02912178043380
30
0.000000000000000
11
-22.1846487424111
21
-2.04315470713363
31
0.000000000000000
  0
LINE
  5
F10387
330
F10388
100
AcDbEntity
8
Geo
100
AcDbLine
10
-22.1846487424111
20
-2.04315470713363
30
0.000000000000000
11
-22.0846487424111
21
-2.05520478323342
31
0.000000000000000
  0
LINE
  5
F10389
330
F1038A
100
AcDbEntity
8
Geo
100
AcDbLine
10
-22.0846487424111
20
-2.05520478323342
30
0.000000000000000
11
-21.9846487424111
21
-2.06526718886338
31
0.000000000000000
  0
LINE
  5
F1038B
330
F1038C
100
AcDbEntity
8
Geo
100
AcDbLine
10
-21.9846487424111
20
-2.06526718886338
30
0.000000000000000
11
-21.8846487424111
21
-2.07333789919530
31
0.000000000000000
  0
LINE
  5
F1038D
330
F1038E
100
AcDbEntity
8
Geo
100
AcDbLine
10
-21.8846487424111
20
-2.07333789919530
30
0.000000000000000
11
-21.7846487424111
21
-2.07941368605200
31
0.000000000000000
  0
LINE
  5
F1038F
330
F10390
100
AcDbEntity
8
Geo
100
AcDbLine
10
-21.7846487424111
20
-2.07941368605200
30
0.000000000000000
11
-21.6846487424111
21
-2.08349211919832
31
0.000000000000000
  0
LINE
  5
F10391
330
F10392
100
AcDbEntity
8
Geo
100
AcDbLine
10
-21.6846487424111
20
-2.08349211919832
30
0.000000000000000
11
-21.5846487424111
21
-2.08557156731758
31
0.000000000000000
  0
LINE
  5
F10393
330
F10394
100
AcDbEntity
8
Geo
100
AcDbLine
10
-21.5846487424111
20
-2.08557156731758
30
0.000000000000000
11
-21.5306672384694
21
-2.08586296617520
31
0.000000000000000
  0
LINE
  5
F10395
330
F10396
100
AcDbEntity
8
Geo
100
AcDbLine
10
-17.7140128785477
20
-2.08586296617520
30
0.000000000000000
11
-17.7846487424111
21
-2.07749233275016
31
0.000000000000000
  0
LINE
  5
F10397
330
F10398
100
AcDbEntity
8
Geo
100
AcDbLine
10
-17.7846487424111
20
-2.07749233275016
30
0.000000000000000
11
-17.8846487424111
21
-2.04143029334886
31
0.000000000000000
  0
LINE
  5
F10399
330
F1039A
100
AcDbEntity
8
Geo
100
AcDbLine
10
-17.8846487424111
20
-2.04143029334886
30
0.000000000000000
11
-17.9846487424111
21
-1.98307596536484
31
0.000000000000000
  0
LINE
  5
F1039B
330
F1039C
100
AcDbEntity
8
Geo
100
AcDbLine
10
-17.9846487424111
20
-1.98307596536484
30
0.000000000000000
11
-18.0846487424111
21
-1.90806187458894
31
0.000000000000000
  0
LINE
  5
F1039D
330
F1039E
100
AcDbEntity
8
Geo
100
AcDbLine
10
-18.0846487424111
20
-1.90806187458894
30
0.000000000000000
11
-18.1846487424111
21
-1.82095345619419
31
0.000000000000000
  0
LINE
  5
F1039F
330
F103A0
100
AcDbEntity
8
Geo
100
AcDbLine
10
-18.1846487424111
20
-1.82095345619419
30
0.000000000000000
11
-18.2846487424111
21
-1.72539678954604
31
0.000000000000000
  0
LINE
  5
F103A1
330
F103A2
100
AcDbEntity
8
Geo
100
AcDbLine
10
-18.2846487424111
20
-1.72539678954604
30
0.000000000000000
11
-18.3846487424111
21
-1.62425944858479
31
0.000000000000000
  0
LINE
  5
F103A3
330
F103A4
100
AcDbEntity
8
Geo
100
AcDbLine
10
-18.3846487424111
20
-1.62425944858479
30
0.000000000000000
11
-18.4846487424111
21
-1.51975923222590
31
0.000000000000000
  0
LINE
  5
F103A5
330
F103A6
100
AcDbEntity
8
Geo
100
AcDbLine
10
-18.4846487424111
20
-1.51975923222590
30
0.000000000000000
11
-18.5846487424111
21
-1.41357840379903
31
0.000000000000000
  0
LINE
  5
F103A7
330
F103A8
100
AcDbEntity
8
Geo
100
AcDbLine
10
-18.5846487424111
20
-1.41357840379903
30
0.000000000000000
11
-18.6846487424111
21
-1.30696289450213
31
0.000000000000000
  0
LINE
  5
F103A9
330
F103AA
100
AcDbEntity
8
Geo
100
AcDbLine
10
-18.6846487424111
20
-1.30696289450213
30
0.000000000000000
11
-18.7846487424111
21
-1.20080702525906
31
0.000000000000000
  0
LINE
  5
F103AB
330
F103AC
100
AcDbEntity
8
Geo
100
AcDbLine
10
-18.7846487424111
20
-1.20080702525906
30
0.000000000000000
11
-18.8846487424111
21
-1.09572490755088
31
0.000000000000000
  0
LINE
  5
F103AD
330
F103AE
100
AcDbEntity
8
Geo
100
AcDbLine
10
-18.8846487424111
20
-1.09572490755088
30
0.000000000000000
11
-18.9846487424111
21
-0.992109965899041
31
0.000000000000000
  0
LINE
  5
F103AF
330
F103B0
100
AcDbEntity
8
Geo
100
AcDbLine
10
-18.9846487424111
20
-0.992109965899041
30
0.000000000000000
11
-19.0846487424111
21
-0.890184102082374
31
0.000000000000000
  0
LINE
  5
F103B1
330
F103B2
100
AcDbEntity
8
Geo
100
AcDbLine
10
-19.0846487424111
20
-0.890184102082374
30
0.000000000000000
11
-19.1846487424111
21
-0.790037975957405
31
0.000000000000000
  0
LINE
  5
F103B3
330
F103B4
100
AcDbEntity
8
Geo
100
AcDbLine
10
-19.1846487424111
20
-0.790037975957405
30
0.000000000000000
11
-19.2846487424111
21
-0.691663764889078
31
0.000000000000000
  0
LINE
  5
F103B5
330
F103B6
100
AcDbEntity
8
Geo
100
AcDbLine
10
-19.2846487424111
20
-0.691663764889078
30
0.000000000000000
11
-19.3846487424111
21
-0.594981619005935
31
0.000000000000000
  0
LINE
  5
F103B7
330
F103B8
100
AcDbEntity
8
Geo
100
AcDbLine
10
-19.3846487424111
20
-0.594981619005935
30
0.000000000000000
11
-19.4846487424111
21
-0.499860875143916
31
0.000000000000000
  0
LINE
  5
F103B9
330
F103BA
100
AcDbEntity
8
Geo
100
AcDbLine
10
-19.4846487424111
20
-0.499860875143916
30
0.000000000000000
11
-19.5846487424111
21
-0.406136941762446
31
0.000000000000000
  0
LINE
  5
F103BB
330
F103BC
100
AcDbEntity
8
Geo
100
AcDbLine
10
-19.5846487424111
20
-0.406136941762446
30
0.000000000000000
11
-19.6846487424111
21
-0.313624627649543
31
0.000000000000000
  0
LINE
  5
F103BD
330
F103BE
100
AcDbEntity
8
Geo
100
AcDbLine
10
-19.6846487424111
20
-0.313624627649543
30
0.000000000000000
11
-19.7846487424111
21
-0.222128562375355
31
0.000000000000000
  0
LINE
  5
F103BF
330
F103C0
100
AcDbEntity
8
Geo
100
AcDbLine
10
-19.7846487424111
20
-0.222128562375355
30
0.000000000000000
11
-19.8846487424111
21
-0.131451247313462
31
0.000000000000000
  0
LINE
  5
F103C1
330
F103C2
100
AcDbEntity
8
Geo
100
AcDbLine
10
-19.8846487424111
20
-0.131451247313462
30
0.000000000000000
11
-19.9846487424111
21
-0.0413991823219408
31
0.000000000000000
  0
LINE
  5
F103C3
330
F103C4
100
AcDbEntity
8
Geo
100
AcDbLine
10
-19.9846487424111
20
-0.0413991823219408
30
0.000000000000000
11
-20.0846487424111
21
0.0482125662185671
31
0.000000000000000
  0
LINE
  5
F103C5
330
F103C6
100
AcDbEntity
8
Geo
100
AcDbLine
10
-20.0846487424111
20
0.0482125662185671
30
0.000000000000000
11
-20.1846487424111
21
0.137557056824397
31
0.000000000000000
  0
LINE
  5
F103C7
330
F103C8
100
AcDbEntity
8
Geo
100
AcDbLine
10
-20.1846487424111
20
0.137557056824397
30
0.000000000000000
11
-20.2846487424111
21
0.226793179800981
31
0.000000000000000
  0
LINE
  5
F103C9
330
F103CA
100
AcDbEntity
8
Geo
100
AcDbLine
10
-20.2846487424111
20
0.226793179800981
30
0.000000000000000
11
-20.3846487424111
21
0.316064181059273
31
0.000000000000000
  0
LINE
  5
F103CB
330
F103CC
100
AcDbEntity
8
Geo
100
AcDbLine
10
-20.3846487424111
20
0.316064181059273
30
0.000000000000000
11
-20.4846487424111
21
0.405496841427198
31
0.000000000000000
  0
LINE
  5
F103CD
330
F103CE
100
AcDbEntity
8
Geo
100
AcDbLine
10
-20.4846487424111
20
0.405496841427198
30
0.000000000000000
11
-20.5846487424111
21
0.495201180134916
31
0.000000000000000
  0
LINE
  5
F103CF
330
F103D0
100
AcDbEntity
8
Geo
100
AcDbLine
10
-20.5846487424111
20
0.495201180134916
30
0.000000000000000
11
-20.6846487424111
21
0.585270575406349
31
0.000000000000000
  0
LINE
  5
F103D1
330
F103D2
100
AcDbEntity
8
Geo
100
AcDbLine
10
-20.6846487424111
20
0.585270575406349
30
0.000000000000000
11
-20.7846487424111
21
0.675782214496422
31
0.000000000000000
  0
LINE
  5
F103D3
330
F103D4
100
AcDbEntity
8
Geo
100
AcDbLine
10
-20.7846487424111
20
0.675782214496422
30
0.000000000000000
11
-20.8846487424111
21
0.766797800943415
31
0.000000000000000
  0
LINE
  5
F103D5
330
F103D6
100
AcDbEntity
8
Geo
100
AcDbLine
10
-20.8846487424111
20
0.766797800943415
30
0.000000000000000
11
-20.9846487424111
21
0.858364459002626
31
0.000000000000000
  0
LINE
  5
F103D7
330
F103D8
100
AcDbEntity
8
Geo
100
AcDbLine
10
-20.9846487424111
20
0.858364459002626
30
0.000000000000000
11
-21.0846487424111
21
0.950515784823397
31
0.000000000000000
  0
LINE
  5
F103D9
330
F103DA
100
AcDbEntity
8
Geo
100
AcDbLine
10
-21.0846487424111
20
0.950515784823397
30
0.000000000000000
11
-21.1846487424111
21
1.04327300146020
31
0.000000000000000
  0
LINE
  5
F103DB
330
F103DC
100
AcDbEntity
8
Geo
100
AcDbLine
10
-21.1846487424111
20
1.04327300146020
30
0.000000000000000
11
-21.2846487424111
21
1.13664618071741
31
0.000000000000000
  0
LINE
  5
F103DD
330
F103DE
100
AcDbEntity
8
Geo
100
AcDbLine
10
-21.2846487424111
20
1.13664618071741
30
0.000000000000000
11
-21.3846487424111
21
1.23063549948843
31
0.000000000000000
  0
LINE
  5
F103DF
330
F103E0
100
AcDbEntity
8
Geo
100
AcDbLine
10
-21.3846487424111
20
1.23063549948843
30
0.000000000000000
11
-21.4846487424111
21
1.32523250196954
31
0.000000000000000
  0
LINE
  5
F103E1
330
F103E2
100
AcDbEntity
8
Geo
100
AcDbLine
10
-21.4846487424111
20
1.32523250196954
30
0.000000000000000
11
-21.5846487424111
21
1.42042134215573
31
0.000000000000000
  0
LINE
  5
F103E3
330
F103E4
100
AcDbEntity
8
Geo
100
AcDbLine
10
-21.5846487424111
20
1.42042134215573
30
0.000000000000000
11
-21.6846487424111
21
1.51617998355942
31
0.000000000000000
  0
LINE
  5
F103E5
330
F103E6
100
AcDbEntity
8
Geo
100
AcDbLine
10
-21.6846487424111
20
1.51617998355942
30
0.000000000000000
11
-21.7846487424111
21
1.61248133529006
31
0.000000000000000
  0
LINE
  5
F103E7
330
F103E8
100
AcDbEntity
8
Geo
100
AcDbLine
10
-21.7846487424111
20
1.61248133529006
30
0.000000000000000
11
-21.8846487424111
21
1.70929430561239
31
0.000000000000000
  0
LINE
  5
F103E9
330
F103EA
100
AcDbEntity
8
Geo
100
AcDbLine
10
-21.8846487424111
20
1.70929430561239
30
0.000000000000000
11
-21.9846487424111
21
1.80658475595358
31
0.000000000000000
  0
LINE
  5
F103EB
330
F103EC
100
AcDbEntity
8
Geo
100
AcDbLine
10
-21.9846487424111
20
1.80658475595358
30
0.000000000000000
11
-22.0846487424111
21
1.90431634011839
31
0.000000000000000
  0
LINE
  5
F103ED
330
F103EE
100
AcDbEntity
8
Geo
100
AcDbLine
10
-22.0846487424111
20
1.90431634011839
30
0.000000000000000
11
-22.1846487424111
21
2.00245121523841
31
0.000000000000000
  0
LINE
  5
F103EF
330
F103F0
100
AcDbEntity
8
Geo
100
AcDbLine
10
-22.1846487424111
20
2.00245121523841
30
0.000000000000000
11
-22.2846487424111
21
2.10095061275611
31
0.000000000000000
  0
LINE
  5
F103F1
330
F103F2
100
AcDbEntity
8
Geo
100
AcDbLine
10
-22.2846487424111
20
2.10095061275611
30
0.000000000000000
11
-22.3846487424111
21
2.19977525953834
31
0.000000000000000
  0
LINE
  5
F103F3
330
F103F4
100
AcDbEntity
8
Geo
100
AcDbLine
10
-21.5306672384694
20
7.91413703382480
30
0.000000000000000
11
-21.4846487424111
21
7.91392526634459
31
0.000000000000000
  0
LINE
  5
F103F5
330
F103F6
100
AcDbEntity
8
Geo
100
AcDbLine
10
-21.4846487424111
20
7.91392526634459
30
0.000000000000000
11
-21.3846487424111
21
7.91200504932540
31
0.000000000000000
  0
LINE
  5
F103F7
330
F103F8
100
AcDbEntity
8
Geo
100
AcDbLine
10
-21.3846487424111
20
7.91200504932540
30
0.000000000000000
11
-21.2846487424111
21
7.90808575272673
31
0.000000000000000
  0
LINE
  5
F103F9
330
F103FA
100
AcDbEntity
8
Geo
100
AcDbLine
10
-21.2846487424111
20
7.90808575272673
30
0.000000000000000
11
-21.1846487424111
21
7.90216894660884
31
0.000000000000000
  0
LINE
  5
F103FB
330
F103FC
100
AcDbEntity
8
Geo
100
AcDbLine
10
-21.1846487424111
20
7.90216894660884
30
0.000000000000000
11
-21.0846487424111
21
7.89425700423950
31
0.000000000000000
  0
LINE
  5
F103FD
330
F103FE
100
AcDbEntity
8
Geo
100
AcDbLine
10
-21.0846487424111
20
7.89425700423950
30
0.000000000000000
11
-20.9846487424111
21
7.88435310683270
31
0.000000000000000
  0
LINE
  5
F103FF
330
F10400
100
AcDbEntity
8
Geo
100
AcDbLine
10
-20.9846487424111
20
7.88435310683270
30
0.000000000000000
11
-20.8846487424111
21
7.87246125387672
31
0.000000000000000
  0
LINE
  5
F10401
330
F10402
100
AcDbEntity
8
Geo
100
AcDbLine
10
-20.8846487424111
20
7.87246125387672
30
0.000000000000000
11
-20.7846487424111
21
7.85858628381067
31
0.000000000000000
  0
LINE
  5
F10403
330
F10404
100
AcDbEntity
8
Geo
100
AcDbLine
10
-20.7846487424111
20
7.85858628381067
30
0.000000000000000
11
-20.6846487424111
21
7.84273391275146
31
0.000000000000000
  0
LINE
  5
F10405
330
F10406
100
AcDbEntity
8
Geo
100
AcDbLine
10
-20.6846487424111
20
7.84273391275146
30
0.000000000000000
11
-20.5846487424111
21
7.82491080328427
31
0.000000000000000
  0
LINE
  5
F10407
330
F10408
100
AcDbEntity
8
Geo
100
AcDbLine
10
-20.5846487424111
20
7.82491080328427
30
0.000000000000000
11
-20.4846487424111
21
7.80512468146420
31
0.000000000000000
  0
LINE
  5
F10409
330
F1040A
100
AcDbEntity
8
Geo
100
AcDbLine
10
-20.4846487424111
20
7.80512468146420
30
0.000000000000000
11
-20.3846487424111
21
7.78338452869266
31
0.000000000000000
  0
LINE
  5
F1040B
330
F1040C
100
AcDbEntity
8
Geo
100
AcDbLine
10
-20.3846487424111
20
7.78338452869266
30
0.000000000000000
11
-20.2846487424111
21
7.75970088669191
31
0.000000000000000
  0
LINE
  5
F1040D
330
F1040E
100
AcDbEntity
8
Geo
100
AcDbLine
10
-20.2846487424111
20
7.75970088669191
30
0.000000000000000
11
-20.1846487424111
21
7.73408632918665
31
0.000000000000000
  0
LINE
  5
F1040F
330
F10410
100
AcDbEntity
8
Geo
100
AcDbLine
10
-20.1846487424111
20
7.73408632918665
30
0.000000000000000
11
-20.0846487424111
21
7.70655617400854
31
0.000000000000000
  0
LINE
  5
F10411
330
F10412
100
AcDbEntity
8
Geo
100
AcDbLine
10
-20.0846487424111
20
7.70655617400854
30
0.000000000000000
11
-19.9846487424111
21
7.67712953517803
31
0.000000000000000
  0
LINE
  5
F10413
330
F10414
100
AcDbEntity
8
Geo
100
AcDbLine
10
-19.9846487424111
20
7.67712953517803
30
0.000000000000000
11
-19.8846487424111
21
7.64583084718673
31
0.000000000000000
  0
LINE
  5
F10415
330
F10416
100
AcDbEntity
8
Geo
100
AcDbLine
10
-19.8846487424111
20
7.64583084718673
30
0.000000000000000
11
-19.7846487424111
21
7.61269203434972
31
0.000000000000000
  0
LINE
  5
F10417
330
F10418
100
AcDbEntity
8
Geo
100
AcDbLine
10
-19.7846487424111
20
7.61269203434972
30
0.000000000000000
11
-19.6846487424111
21
7.57775554783256
31
0.000000000000000
  0
LINE
  5
F10419
330
F1041A
100
AcDbEntity
8
Geo
100
AcDbLine
10
-19.6846487424111
20
7.57775554783256
30
0.000000000000000
11
-19.5846487424111
21
7.54107855271030
31
0.000000000000000
  0
LINE
  5
F1041B
330
F1041C
100
AcDbEntity
8
Geo
100
AcDbLine
10
-19.5846487424111
20
7.54107855271030
30
0.000000000000000
11
-19.4846487424111
21
7.50273861769377
31
0.000000000000000
  0
LINE
  5
F1041D
330
F1041E
100
AcDbEntity
8
Geo
100
AcDbLine
10
-19.4846487424111
20
7.50273861769377
30
0.000000000000000
11
-19.3846487424111
21
7.46284134065099
31
0.000000000000000
  0
LINE
  5
F1041F
330
F10420
100
AcDbEntity
8
Geo
100
AcDbLine
10
-19.3846487424111
20
7.46284134065099
30
0.000000000000000
11
-19.2846487424111
21
7.42153043201272
31
0.000000000000000
  0
LINE
  5
F10421
330
F10422
100
AcDbEntity
8
Geo
100
AcDbLine
10
-19.2846487424111
20
7.42153043201272
30
0.000000000000000
11
-19.1846487424111
21
7.37900087143867
31
0.000000000000000
  0
LINE
  5
F10423
330
F10424
100
AcDbEntity
8
Geo
100
AcDbLine
10
-19.1846487424111
20
7.37900087143867
30
0.000000000000000
11
-19.0846487424111
21
7.33551584272149
31
0.000000000000000
  0
LINE
  5
F10425
330
F10426
100
AcDbEntity
8
Geo
100
AcDbLine
10
-19.0846487424111
20
7.33551584272149
30
0.000000000000000
11
-18.9846487424111
21
7.29142822370579
31
0.000000000000000
  0
LINE
  5
F10427
330
F10428
100
AcDbEntity
8
Geo
100
AcDbLine
10
-18.9846487424111
20
7.29142822370579
30
0.000000000000000
11
-18.8846487424111
21
7.24720743839306
31
0.000000000000000
  0
LINE
  5
F10429
330
F1042A
100
AcDbEntity
8
Geo
100
AcDbLine
10
-18.8846487424111
20
7.24720743839306
30
0.000000000000000
11
-18.7846487424111
21
7.20347242911601
31
0.000000000000000
  0
LINE
  5
F1042B
330
F1042C
100
AcDbEntity
8
Geo
100
AcDbLine
10
-18.7846487424111
20
7.20347242911601
30
0.000000000000000
11
-18.6846487424111
21
7.16103131673961
31
0.000000000000000
  0
LINE
  5
F1042D
330
F1042E
100
AcDbEntity
8
Geo
100
AcDbLine
10
-18.6846487424111
20
7.16103131673961
30
0.000000000000000
11
-18.5846487424111
21
7.12092788995563
31
0.000000000000000
  0
LINE
  5
F1042F
330
F10430
100
AcDbEntity
8
Geo
100
AcDbLine
10
-18.5846487424111
20
7.12092788995563
30
0.000000000000000
11
-18.4846487424111
21
7.08449424863869
31
0.000000000000000
  0
LINE
  5
F10431
330
F10432
100
AcDbEntity
8
Geo
100
AcDbLine
10
-18.4846487424111
20
7.08449424863869
30
0.000000000000000
11
-18.3846487424111
21
7.05340747865779
31
0.000000000000000
  0
LINE
  5
F10433
330
F10434
100
AcDbEntity
8
Geo
100
AcDbLine
10
-18.3846487424111
20
7.05340747865779
30
0.000000000000000
11
-18.2846487424111
21
7.02974576660572
31
0.000000000000000
  0
LINE
  5
F10435
330
F10436
100
AcDbEntity
8
Geo
100
AcDbLine
10
-18.2846487424111
20
7.02974576660572
30
0.000000000000000
11
-18.1846487424111
21
7.01603523708655
31
0.000000000000000
  0
LINE
  5
F10437
330
F10438
100
AcDbEntity
8
Geo
100
AcDbLine
10
-18.1846487424111
20
7.01603523708655
30
0.000000000000000
11
-18.0846487424111
21
7.01527196531688
31
0.000000000000000
  0
LINE
  5
F10439
330
F1043A
100
AcDbEntity
8
Geo
100
AcDbLine
10
-18.0846487424111
20
7.01527196531688
30
0.000000000000000
11
-17.9846487424111
21
7.03089234997708
31
0.000000000000000
  0
LINE
  5
F1043B
330
F1043C
100
AcDbEntity
8
Geo
100
AcDbLine
10
-17.9846487424111
20
7.03089234997708
30
0.000000000000000
11
-17.8846487424111
21
7.06664646916905
31
0.000000000000000
  0
LINE
  5
F1043D
330
F1043E
100
AcDbEntity
8
Geo
100
AcDbLine
10
-17.8846487424111
20
7.06664646916905
30
0.000000000000000
11
-17.7846487424111
21
7.12629857409092
31
0.000000000000000
  0
LINE
  5
F1043F
330
F10440
100
AcDbEntity
8
Geo
100
AcDbLine
10
-17.7846487424111
20
7.12629857409092
30
0.000000000000000
11
-17.6846487424111
21
7.21302937358304
31
0.000000000000000
  0
LINE
  5
F10441
330
F10442
100
AcDbEntity
8
Geo
100
AcDbLine
10
-17.6846487424111
20
7.21302937358304
30
0.000000000000000
11
-17.5846487424111
21
7.32833615161702
31
0.000000000000000
  0
LINE
  5
F10443
330
F10444
100
AcDbEntity
8
Geo
100
AcDbLine
10
-17.5846487424111
20
7.32833615161702
30
0.000000000000000
11
-17.4846487424111
21
7.47010746096208
31
0.000000000000000
  0
LINE
  5
F10445
330
F10446
100
AcDbEntity
8
Geo
100
AcDbLine
10
-17.4846487424111
20
7.47010746096208
30
0.000000000000000
11
-17.3846487424111
21
7.62938383102180
31
0.000000000000000
  0
LINE
  5
F10447
330
F10448
100
AcDbEntity
8
Geo
100
AcDbLine
10
-17.3846487424111
20
7.62938383102180
30
0.000000000000000
11
-17.3846487424111
21
7.38180490868782
31
0.000000000000000
  0
LINE
  5
F10449
330
F1044A
100
AcDbEntity
8
Geo
100
AcDbLine
10
-17.3846487424111
20
7.38180490868782
30
0.000000000000000
11
-17.3846487424111
21
7.38482859222742
31
0.000000000000000
  0
LINE
  5
F1044B
330
F1044C
100
AcDbEntity
8
Geo
100
AcDbLine
10
-17.3846487424111
20
7.38482859222742
30
0.000000000000000
11
-17.3846487424111
21
7.66969269245519
31
0.000000000000000
  0
LINE
  5
F1044D
330
F1044E
100
AcDbEntity
8
Geo
100
AcDbLine
10
-17.3846487424111
20
7.66969269245519
30
0.000000000000000
11
-17.4846487424111
21
7.80497408759875
31
0.000000000000000
  0
LINE
  5
F1044F
330
F10450
100
AcDbEntity
8
Geo
100
AcDbLine
10
-17.4846487424111
20
7.80497408759875
30
0.000000000000000
11
-17.5846487424111
21
7.88229602263772
31
0.000000000000000
  0
LINE
  5
F10451
330
F10452
100
AcDbEntity
8
Geo
100
AcDbLine
10
-17.5846487424111
20
7.88229602263772
30
0.000000000000000
11
-17.6846487424111
21
7.91269145639044
31
0.000000000000000
  0
LINE
  5
F10453
330
F10454
100
AcDbEntity
8
Geo
100
AcDbLine
10
-17.6846487424111
20
7.91269145639044
30
0.000000000000000
11
-17.7140128785477
21
7.91413703382480
31
0.000000000000000
  0
LINE
  5
F10455
330
F10456
100
AcDbEntity
8
Geo
100
AcDbLine
10
-29.3846487424111
20
2.38034349664934
30
0.000000000000000
11
-29.2846487424111
21
2.30003657390274
31
0.000000000000000
  0
LINE
  5
F10457
330
F10458
100
AcDbEntity
8
Geo
100
AcDbLine
10
-29.2846487424111
20
2.30003657390274
30
0.000000000000000
11
-29.1846487424111
21
2.21591383788230
31
0.000000000000000
  0
LINE
  5
F10459
330
F1045A
100
AcDbEntity
8
Geo
100
AcDbLine
10
-29.1846487424111
20
2.21591383788230
30
0.000000000000000
11
-29.0846487424111
21
2.12800550625836
31
0.000000000000000
  0
LINE
  5
F1045B
330
F1045C
100
AcDbEntity
8
Geo
100
AcDbLine
10
-29.0846487424111
20
2.12800550625836
30
0.000000000000000
11
-28.9846487424111
21
2.03067306017589
31
0.000000000000000
  0
LINE
  5
F1045D
330
F1045E
100
AcDbEntity
8
Geo
100
AcDbLine
10
-28.9846487424111
20
2.03067306017589
30
0.000000000000000
11
-28.8846487424111
21
1.93369398790352
31
0.000000000000000
  0
LINE
  5
F1045F
330
F10460
100
AcDbEntity
8
Geo
100
AcDbLine
10
-28.8846487424111
20
1.93369398790352
30
0.000000000000000
11
-28.7846487424111
21
1.83710707977711
31
0.000000000000000
  0
LINE
  5
F10461
330
F10462
100
AcDbEntity
8
Geo
100
AcDbLine
10
-28.7846487424111
20
1.83710707977711
30
0.000000000000000
11
-28.6846487424111
21
1.74095096927212
31
0.000000000000000
  0
LINE
  5
F10463
330
F10464
100
AcDbEntity
8
Geo
100
AcDbLine
10
-28.6846487424111
20
1.74095096927212
30
0.000000000000000
11
-28.5846487424111
21
1.64526411755067
31
0.000000000000000
  0
LINE
  5
F10465
330
F10466
100
AcDbEntity
8
Geo
100
AcDbLine
10
-28.5846487424111
20
1.64526411755067
30
0.000000000000000
11
-28.4846487424111
21
1.55008479807765
31
0.000000000000000
  0
LINE
  5
F10467
330
F10468
100
AcDbEntity
8
Geo
100
AcDbLine
10
-28.4846487424111
20
1.55008479807765
30
0.000000000000000
11
-28.3846487424111
21
1.45545108131182
31
0.000000000000000
  0
LINE
  5
F10469
330
F1046A
100
AcDbEntity
8
Geo
100
AcDbLine
10
-28.3846487424111
20
1.45545108131182
30
0.000000000000000
11
-28.2846487424111
21
1.36140081947810
31
0.000000000000000
  0
LINE
  5
F1046B
330
F1046C
100
AcDbEntity
8
Geo
100
AcDbLine
10
-28.2846487424111
20
1.36140081947810
30
0.000000000000000
11
-28.1846487424111
21
1.26797163142724
31
0.000000000000000
  0
LINE
  5
F1046D
330
F1046E
100
AcDbEntity
8
Geo
100
AcDbLine
10
-28.1846487424111
20
1.26797163142724
30
0.000000000000000
11
-28.0846487424111
21
1.17520088758877
31
0.000000000000000
  0
LINE
  5
F1046F
330
F10470
100
AcDbEntity
8
Geo
100
AcDbLine
10
-28.0846487424111
20
1.17520088758877
30
0.000000000000000
11
-27.9846487424111
21
1.08312569502328
31
0.000000000000000
  0
LINE
  5
F10471
330
F10472
100
AcDbEntity
8
Geo
100
AcDbLine
10
-27.9846487424111
20
1.08312569502328
30
0.000000000000000
11
-27.8846487424111
21
0.991782882580158
31
0.000000000000000
  0
LINE
  5
F10473
330
F10474
100
AcDbEntity
8
Geo
100
AcDbLine
10
-27.8846487424111
20
0.991782882580158
30
0.000000000000000
11
-27.7846487424111
21
0.901208986166484
31
0.000000000000000
  0
LINE
  5
F10475
330
F10476
100
AcDbEntity
8
Geo
100
AcDbLine
10
-27.7846487424111
20
0.901208986166484
30
0.000000000000000
11
-27.6846487424111
21
0.811440234133191
31
0.000000000000000
  0
LINE
  5
F10477
330
F10478
100
AcDbEntity
8
Geo
100
AcDbLine
10
-27.6846487424111
20
0.811440234133191
30
0.000000000000000
11
-27.5846487424111
21
0.722512532784192
31
0.000000000000000
  0
LINE
  5
F10479
330
F1047A
100
AcDbEntity
8
Geo
100
AcDbLine
10
-27.5846487424111
20
0.722512532784192
30
0.000000000000000
11
-27.4846487424111
21
0.634461452014337
31
0.000000000000000
  0
LINE
  5
F1047B
330
F1047C
100
AcDbEntity
8
Geo
100
AcDbLine
10
-27.4846487424111
20
0.634461452014337
30
0.000000000000000
11
-27.3846487424111
21
0.547322211081938
31
0.000000000000000
  0
LINE
  5
F1047D
330
F1047E
100
AcDbEntity
8
Geo
100
AcDbLine
10
-27.3846487424111
20
0.547322211081938
30
0.000000000000000
11
-27.2846487424111
21
0.461129664521525
31
0.000000000000000
  0
LINE
  5
F1047F
330
F10480
100
AcDbEntity
8
Geo
100
AcDbLine
10
-27.2846487424111
20
0.461129664521525
30
0.000000000000000
11
-27.1846487424111
21
0.375918288202506
31
0.000000000000000
  0
LINE
  5
F10481
330
F10482
100
AcDbEntity
8
Geo
100
AcDbLine
10
-27.1846487424111
20
0.375918288202506
30
0.000000000000000
11
-27.0846487424111
21
0.291722165539270
31
0.000000000000000
  0
LINE
  5
F10483
330
F10484
100
AcDbEntity
8
Geo
100
AcDbLine
10
-27.0846487424111
20
0.291722165539270
30
0.000000000000000
11
-26.9846487424111
21
0.208574973858282
31
0.000000000000000
  0
LINE
  5
F10485
330
F10486
100
AcDbEntity
8
Geo
100
AcDbLine
10
-26.9846487424111
20
0.208574973858282
30
0.000000000000000
11
-26.8846487424111
21
0.126509970927601
31
0.000000000000000
  0
LINE
  5
F10487
330
F10488
100
AcDbEntity
8
Geo
100
AcDbLine
10
-26.8846487424111
20
0.126509970927601
30
0.000000000000000
11
-26.7846487424111
21
0.0455599816542160
31
0.000000000000000
  0
LINE
  5
F10489
330
F1048A
100
AcDbEntity
8
Geo
100
AcDbLine
10
-26.7846487424111
20
0.0455599816542160
30
0.000000000000000
11
-26.6846487424111
21
-0.0342426150454882
31
0.000000000000000
  0
LINE
  5
F1048B
330
F1048C
100
AcDbEntity
8
Geo
100
AcDbLine
10
-26.6846487424111
20
-0.0342426150454882
30
0.000000000000000
11
-26.5846487424111
21
-0.112865899196847
31
0.000000000000000
  0
LINE
  5
F1048D
330
F1048E
100
AcDbEntity
8
Geo
100
AcDbLine
10
-26.5846487424111
20
-0.112865899196847
30
0.000000000000000
11
-26.4846487424111
21
-0.190278422534500
31
0.000000000000000
  0
LINE
  5
F1048F
330
F10490
100
AcDbEntity
8
Geo
100
AcDbLine
10
-26.4846487424111
20
-0.190278422534500
30
0.000000000000000
11
-26.3846487424111
21
-0.266449221081261
31
0.000000000000000
  0
LINE
  5
F10491
330
F10492
100
AcDbEntity
8
Geo
100
AcDbLine
10
-26.3846487424111
20
-0.266449221081261
30
0.000000000000000
11
-26.2846487424111
21
-0.341347827533314
31
0.000000000000000
  0
LINE
  5
F10493
330
F10494
100
AcDbEntity
8
Geo
100
AcDbLine
10
-26.2846487424111
20
-0.341347827533314
30
0.000000000000000
11
-26.1846487424111
21
-0.414944283446707
31
0.000000000000000
  0
LINE
  5
F10495
330
F10496
100
AcDbEntity
8
Geo
100
AcDbLine
10
-26.1846487424111
20
-0.414944283446707
30
0.000000000000000
11
-26.0846487424111
21
-0.487209151220350
31
0.000000000000000
  0
LINE
  5
F10497
330
F10498
100
AcDbEntity
8
Geo
100
AcDbLine
10
-26.0846487424111
20
-0.487209151220350
30
0.000000000000000
11
-25.9846487424111
21
-0.558113525870656
31
0.000000000000000
  0
LINE
  5
F10499
330
F1049A
100
AcDbEntity
8
Geo
100
AcDbLine
10
-25.9846487424111
20
-0.558113525870656
30
0.000000000000000
11
-25.8846487424111
21
-0.627629046593139
31
0.000000000000000
  0
LINE
  5
F1049B
330
F1049C
100
AcDbEntity
8
Geo
100
AcDbLine
10
-25.8846487424111
20
-0.627629046593139
30
0.000000000000000
11
-25.7846487424111
21
-0.695727908106371
31
0.000000000000000
  0
LINE
  5
F1049D
330
F1049E
100
AcDbEntity
8
Geo
100
AcDbLine
10
-25.7846487424111
20
-0.695727908106371
30
0.000000000000000
11
-25.6846487424111
21
-0.762382871773725
31
0.000000000000000
  0
LINE
  5
F1049F
330
F104A0
100
AcDbEntity
8
Geo
100
AcDbLine
10
-25.6846487424111
20
-0.762382871773725
30
0.000000000000000
11
-25.5846487424111
21
-0.827567276498448
31
0.000000000000000
  0
LINE
  5
F104A1
330
F104A2
100
AcDbEntity
8
Geo
100
AcDbLine
10
-25.5846487424111
20
-0.827567276498448
30
0.000000000000000
11
-25.4846487424111
21
-0.891255049387769
31
0.000000000000000
  0
LINE
  5
F104A3
330
F104A4
100
AcDbEntity
8
Geo
100
AcDbLine
10
-25.4846487424111
20
-0.891255049387769
30
0.000000000000000
11
-25.3846487424111
21
-0.953420716181689
31
0.000000000000000
  0
LINE
  5
F104A5
330
F104A6
100
AcDbEntity
8
Geo
100
AcDbLine
10
-25.3846487424111
20
-0.953420716181689
30
0.000000000000000
11
-25.2846487424111
21
-1.01403941144236
31
0.000000000000000
  0
LINE
  5
F104A7
330
F104A8
100
AcDbEntity
8
Geo
100
AcDbLine
10
-25.2846487424111
20
-1.01403941144236
30
0.000000000000000
11
-25.1846487424111
21
-1.07308688849990
31
0.000000000000000
  0
LINE
  5
F104A9
330
F104AA
100
AcDbEntity
8
Geo
100
AcDbLine
10
-25.1846487424111
20
-1.07308688849990
30
0.000000000000000
11
-25.0846487424111
21
-1.13053952915080
31
0.000000000000000
  0
LINE
  5
F104AB
330
F104AC
100
AcDbEntity
8
Geo
100
AcDbLine
10
-25.0846487424111
20
-1.13053952915080
30
0.000000000000000
11
-24.9846487424111
21
-1.18637435310480
31
0.000000000000000
  0
LINE
  5
F104AD
330
F104AE
100
AcDbEntity
8
Geo
100
AcDbLine
10
-24.9846487424111
20
-1.18637435310480
30
0.000000000000000
11
-24.8846487424111
21
-1.24056902717679
31
0.000000000000000
  0
LINE
  5
F104AF
330
F104B0
100
AcDbEntity
8
Geo
100
AcDbLine
10
-24.8846487424111
20
-1.24056902717679
30
0.000000000000000
11
-24.7846487424111
21
-1.29310187421972
31
0.000000000000000
  0
LINE
  5
F104B1
330
F104B2
100
AcDbEntity
8
Geo
100
AcDbLine
10
-24.7846487424111
20
-1.29310187421972
30
0.000000000000000
11
-24.6846487424111
21
-1.34395188179521
31
0.000000000000000
  0
LINE
  5
F104B3
330
F104B4
100
AcDbEntity
8
Geo
100
AcDbLine
10
-24.6846487424111
20
-1.34395188179521
30
0.000000000000000
11
-24.5846487424111
21
-1.39309871057821
31
0.000000000000000
  0
LINE
  5
F104B5
330
F104B6
100
AcDbEntity
8
Geo
100
AcDbLine
10
-24.5846487424111
20
-1.39309871057821
30
0.000000000000000
11
-24.4846487424111
21
-1.44052270249249
31
0.000000000000000
  0
LINE
  5
F104B7
330
F104B8
100
AcDbEntity
8
Geo
100
AcDbLine
10
-24.4846487424111
20
-1.44052270249249
30
0.000000000000000
11
-24.3846487424111
21
-1.48620488857360
31
0.000000000000000
  0
LINE
  5
F104B9
330
F104BA
100
AcDbEntity
8
Geo
100
AcDbLine
10
-24.3846487424111
20
-1.48620488857360
30
0.000000000000000
11
-24.2846487424111
21
-1.53012699655619
31
0.000000000000000
  0
LINE
  5
F104BB
330
F104BC
100
AcDbEntity
8
Geo
100
AcDbLine
10
-24.2846487424111
20
-1.53012699655619
30
0.000000000000000
11
-24.1846487424111
21
-1.57227145818270
31
0.000000000000000
  0
LINE
  5
F104BD
330
F104BE
100
AcDbEntity
8
Geo
100
AcDbLine
10
-24.1846487424111
20
-1.57227145818270
30
0.000000000000000
11
-24.0846487424111
21
-1.61262141623039
31
0.000000000000000
  0
LINE
  5
F104BF
330
F104C0
100
AcDbEntity
8
Geo
100
AcDbLine
10
-24.0846487424111
20
-1.61262141623039
30
0.000000000000000
11
-23.9846487424111
21
-1.65116073125402
31
0.000000000000000
  0
LINE
  5
F104C1
330
F104C2
100
AcDbEntity
8
Geo
100
AcDbLine
10
-23.9846487424111
20
-1.65116073125402
30
0.000000000000000
11
-23.8846487424111
21
-1.68787398804145
31
0.000000000000000
  0
LINE
  5
F104C3
330
F104C4
100
AcDbEntity
8
Geo
100
AcDbLine
10
-23.8846487424111
20
-1.68787398804145
30
0.000000000000000
11
-23.7846487424111
21
-1.72274650177947
31
0.000000000000000
  0
LINE
  5
F104C5
330
F104C6
100
AcDbEntity
8
Geo
100
AcDbLine
10
-23.7846487424111
20
-1.72274650177947
30
0.000000000000000
11
-23.6846487424111
21
-1.75576432392753
31
0.000000000000000
  0
LINE
  5
F104C7
330
F104C8
100
AcDbEntity
8
Geo
100
AcDbLine
10
-23.6846487424111
20
-1.75576432392753
30
0.000000000000000
11
-23.5846487424111
21
-1.78691424779701
31
0.000000000000000
  0
LINE
  5
F104C9
330
F104CA
100
AcDbEntity
8
Geo
100
AcDbLine
10
-23.5846487424111
20
-1.78691424779701
30
0.000000000000000
11
-23.4846487424111
21
-1.81618381383369
31
0.000000000000000
  0
LINE
  5
F104CB
330
F104CC
100
AcDbEntity
8
Geo
100
AcDbLine
10
-23.4846487424111
20
-1.81618381383369
30
0.000000000000000
11
-23.3846487424111
21
-1.84356131460141
31
0.000000000000000
  0
LINE
  5
F104CD
330
F104CE
100
AcDbEntity
8
Geo
100
AcDbLine
10
-23.3846487424111
20
-1.84356131460141
30
0.000000000000000
11
-23.2846487424111
21
-1.86903579946490
31
0.000000000000000
  0
LINE
  5
F104CF
330
F104D0
100
AcDbEntity
8
Geo
100
AcDbLine
10
-23.2846487424111
20
-1.86903579946490
30
0.000000000000000
11
-23.1846487424111
21
-1.89259707896985
31
0.000000000000000
  0
LINE
  5
F104D1
330
F104D2
100
AcDbEntity
8
Geo
100
AcDbLine
10
-23.1846487424111
20
-1.89259707896985
30
0.000000000000000
11
-23.0846487424111
21
-1.91423572891862
31
0.000000000000000
  0
LINE
  5
F104D3
330
F104D4
100
AcDbEntity
8
Geo
100
AcDbLine
10
-23.0846487424111
20
-1.91423572891862
30
0.000000000000000
11
-22.9846487424111
21
-1.93394309413974
31
0.000000000000000
  0
LINE
  5
F104D5
330
F104D6
100
AcDbEntity
8
Geo
100
AcDbLine
10
-22.9846487424111
20
-1.93394309413974
30
0.000000000000000
11
-22.8846487424111
21
-1.95171129194988
31
0.000000000000000
  0
LINE
  5
F104D7
330
F104D8
100
AcDbEntity
8
Geo
100
AcDbLine
10
-22.8846487424111
20
-1.95171129194988
30
0.000000000000000
11
-22.7846487424111
21
-1.96753321530682
31
0.000000000000000
  0
LINE
  5
F104D9
330
F104DA
100
AcDbEntity
8
Geo
100
AcDbLine
10
-22.7846487424111
20
-1.96753321530682
30
0.000000000000000
11
-22.6846487424111
21
-1.98140253565218
31
0.000000000000000
  0
LINE
  5
F104DB
330
F104DC
100
AcDbEntity
8
Geo
100
AcDbLine
10
-22.6846487424111
20
-1.98140253565218
30
0.000000000000000
11
-22.5846487424111
21
-1.99331370544274
31
0.000000000000000
  0
LINE
  5
F104DD
330
F104DE
100
AcDbEntity
8
Geo
100
AcDbLine
10
-22.5846487424111
20
-1.99331370544274
30
0.000000000000000
11
-22.4846487424111
21
-2.00326196036939
31
0.000000000000000
  0
LINE
  5
F104DF
330
F104E0
100
AcDbEntity
8
Geo
100
AcDbLine
10
-22.4846487424111
20
-2.00326196036939
30
0.000000000000000
11
-22.3846487424111
21
-2.01124332126281
31
0.000000000000000
  0
LINE
  5
F104E1
330
F104E2
100
AcDbEntity
8
Geo
100
AcDbLine
10
-29.3846487424111
20
7.52270709672232
30
0.000000000000000
11
-29.2846487424111
21
7.61300597989281
31
0.000000000000000
  0
LINE
  5
F104E3
330
F104E4
100
AcDbEntity
8
Geo
100
AcDbLine
10
-29.2846487424111
20
7.61300597989281
30
0.000000000000000
11
-29.1846487424111
21
7.70178868135304
31
0.000000000000000
  0
LINE
  5
F104E5
330
F104E6
100
AcDbEntity
8
Geo
100
AcDbLine
10
-29.1846487424111
20
7.70178868135304
30
0.000000000000000
11
-29.0846487424111
21
7.78894537190656
31
0.000000000000000
  0
LINE
  5
F104E7
330
F104E8
100
AcDbEntity
8
Geo
100
AcDbLine
10
-29.0846487424111
20
7.78894537190656
30
0.000000000000000
11
-28.9846487424111
21
7.77224886034031
31
0.000000000000000
  0
LINE
  5
F104E9
330
F104EA
100
AcDbEntity
8
Geo
100
AcDbLine
10
-28.9846487424111
20
7.77224886034031
30
0.000000000000000
11
-28.8846487424111
21
7.75360916881742
31
0.000000000000000
  0
LINE
  5
F104EB
330
F104EC
100
AcDbEntity
8
Geo
100
AcDbLine
10
-28.8846487424111
20
7.75360916881742
30
0.000000000000000
11
-28.7846487424111
21
7.73303375296596
31
0.000000000000000
  0
LINE
  5
F104ED
330
F104EE
100
AcDbEntity
8
Geo
100
AcDbLine
10
-28.7846487424111
20
7.73303375296596
30
0.000000000000000
11
-28.6846487424111
21
7.71053084267795
31
0.000000000000000
  0
LINE
  5
F104EF
330
F104F0
100
AcDbEntity
8
Geo
100
AcDbLine
10
-28.6846487424111
20
7.71053084267795
30
0.000000000000000
11
-28.5846487424111
21
7.68610943881746
31
0.000000000000000
  0
LINE
  5
F104F1
330
F104F2
100
AcDbEntity
8
Geo
100
AcDbLine
10
-28.5846487424111
20
7.68610943881746
30
0.000000000000000
11
-28.4846487424111
21
7.65977930962042
31
0.000000000000000
  0
LINE
  5
F104F3
330
F104F4
100
AcDbEntity
8
Geo
100
AcDbLine
10
-28.4846487424111
20
7.65977930962042
30
0.000000000000000
11
-28.3846487424111
21
7.63155098678745
31
0.000000000000000
  0
LINE
  5
F104F5
330
F104F6
100
AcDbEntity
8
Geo
100
AcDbLine
10
-28.3846487424111
20
7.63155098678745
30
0.000000000000000
11
-28.2846487424111
21
7.60143576127131
31
0.000000000000000
  0
LINE
  5
F104F7
330
F104F8
100
AcDbEntity
8
Geo
100
AcDbLine
10
-28.2846487424111
20
7.60143576127131
30
0.000000000000000
11
-28.1846487424111
21
7.56944567876068
31
0.000000000000000
  0
LINE
  5
F104F9
330
F104FA
100
AcDbEntity
8
Geo
100
AcDbLine
10
-28.1846487424111
20
7.56944567876068
30
0.000000000000000
11
-28.0846487424111
21
7.53559353486202
31
0.000000000000000
  0
LINE
  5
F104FB
330
F104FC
100
AcDbEntity
8
Geo
100
AcDbLine
10
-28.0846487424111
20
7.53559353486202
30
0.000000000000000
11
-27.9846487424111
21
7.49989286998155
31
0.000000000000000
  0
LINE
  5
F104FD
330
F104FE
100
AcDbEntity
8
Geo
100
AcDbLine
10
-27.9846487424111
20
7.49989286998155
30
0.000000000000000
11
-27.8846487424111
21
7.46235796390921
31
0.000000000000000
  0
LINE
  5
F104FF
330
F10500
100
AcDbEntity
8
Geo
100
AcDbLine
10
-27.8846487424111
20
7.46235796390921
30
0.000000000000000
11
-27.7846487424111
21
7.42300383010698
31
0.000000000000000
  0
LINE
  5
F10501
330
F10502
100
AcDbEntity
8
Geo
100
AcDbLine
10
-27.7846487424111
20
7.42300383010698
30
0.000000000000000
11
-27.6846487424111
21
7.38184620970365
31
0.000000000000000
  0
LINE
  5
F10503
330
F10504
100
AcDbEntity
8
Geo
100
AcDbLine
10
-27.6846487424111
20
7.38184620970365
30
0.000000000000000
11
-27.5846487424111
21
7.33890156519864
31
0.000000000000000
  0
LINE
  5
F10505
330
F10506
100
AcDbEntity
8
Geo
100
AcDbLine
10
-27.5846487424111
20
7.33890156519864
30
0.000000000000000
11
-27.4846487424111
21
7.29418707387715
31
0.000000000000000
  0
LINE
  5
F10507
330
F10508
100
AcDbEntity
8
Geo
100
AcDbLine
10
-27.4846487424111
20
7.29418707387715
30
0.000000000000000
11
-27.3846487424111
21
7.24772062093952
31
0.000000000000000
  0
LINE
  5
F10509
330
F1050A
100
AcDbEntity
8
Geo
100
AcDbLine
10
-27.3846487424111
20
7.24772062093952
30
0.000000000000000
11
-27.2846487424111
21
7.19952079234740
31
0.000000000000000
  0
LINE
  5
F1050B
330
F1050C
100
AcDbEntity
8
Geo
100
AcDbLine
10
-27.2846487424111
20
7.19952079234740
30
0.000000000000000
11
-27.1846487424111
21
7.14960686738955
31
0.000000000000000
  0
LINE
  5
F1050D
330
F1050E
100
AcDbEntity
8
Geo
100
AcDbLine
10
-27.1846487424111
20
7.14960686738955
30
0.000000000000000
11
-27.0846487424111
21
7.09799881097046
31
0.000000000000000
  0
LINE
  5
F1050F
330
F10510
100
AcDbEntity
8
Geo
100
AcDbLine
10
-27.0846487424111
20
7.09799881097046
30
0.000000000000000
11
-26.9846487424111
21
7.04471726562459
31
0.000000000000000
  0
LINE
  5
F10511
330
F10512
100
AcDbEntity
8
Geo
100
AcDbLine
10
-26.9846487424111
20
7.04471726562459
30
0.000000000000000
11
-26.8846487424111
21
6.98978354325966
31
0.000000000000000
  0
LINE
  5
F10513
330
F10514
100
AcDbEntity
8
Geo
100
AcDbLine
10
-26.8846487424111
20
6.98978354325966
30
0.000000000000000
11
-26.7846487424111
21
6.93321961663219
31
0.000000000000000
  0
LINE
  5
F10515
330
F10516
100
AcDbEntity
8
Geo
100
AcDbLine
10
-26.7846487424111
20
6.93321961663219
30
0.000000000000000
11
-26.6846487424111
21
6.87504811055866
31
0.000000000000000
  0
LINE
  5
F10517
330
F10518
100
AcDbEntity
8
Geo
100
AcDbLine
10
-26.6846487424111
20
6.87504811055866
30
0.000000000000000
11
-26.5846487424111
21
6.81529229286587
31
0.000000000000000
  0
LINE
  5
F10519
330
F1051A
100
AcDbEntity
8
Geo
100
AcDbLine
10
-26.5846487424111
20
6.81529229286587
30
0.000000000000000
11
-26.4846487424111
21
6.75397606508417
31
0.000000000000000
  0
LINE
  5
F1051B
330
F1051C
100
AcDbEntity
8
Geo
100
AcDbLine
10
-26.4846487424111
20
6.75397606508417
30
0.000000000000000
11
-26.3846487424111
21
6.69112395288714
31
0.000000000000000
  0
LINE
  5
F1051D
330
F1051E
100
AcDbEntity
8
Geo
100
AcDbLine
10
-26.3846487424111
20
6.69112395288714
30
0.000000000000000
11
-26.2846487424111
21
6.62676109628165
31
0.000000000000000
  0
LINE
  5
F1051F
330
F10520
100
AcDbEntity
8
Geo
100
AcDbLine
10
-26.2846487424111
20
6.62676109628165
30
0.000000000000000
11
-26.1846487424111
21
6.56091323955216
31
0.000000000000000
  0
LINE
  5
F10521
330
F10522
100
AcDbEntity
8
Geo
100
AcDbLine
10
-26.1846487424111
20
6.56091323955216
30
0.000000000000000
11
-26.0846487424111
21
6.49360672096342
31
0.000000000000000
  0
LINE
  5
F10523
330
F10524
100
AcDbEntity
8
Geo
100
AcDbLine
10
-26.0846487424111
20
6.49360672096342
30
0.000000000000000
11
-25.9846487424111
21
6.42486846222544
31
0.000000000000000
  0
LINE
  5
F10525
330
F10526
100
AcDbEntity
8
Geo
100
AcDbLine
10
-25.9846487424111
20
6.42486846222544
30
0.000000000000000
11
-25.8846487424111
21
6.35472595772524
31
0.000000000000000
  0
LINE
  5
F10527
330
F10528
100
AcDbEntity
8
Geo
100
AcDbLine
10
-25.8846487424111
20
6.35472595772524
30
0.000000000000000
11
-25.7846487424111
21
6.28320726352938
31
0.000000000000000
  0
LINE
  5
F10529
330
F1052A
100
AcDbEntity
8
Geo
100
AcDbLine
10
-25.7846487424111
20
6.28320726352938
30
0.000000000000000
11
-25.6846487424111
21
6.21034098616198
31
0.000000000000000
  0
LINE
  5
F1052B
330
F1052C
100
AcDbEntity
8
Geo
100
AcDbLine
10
-25.6846487424111
20
6.21034098616198
30
0.000000000000000
11
-25.5846487424111
21
6.13615627116245
31
0.000000000000000
  0
LINE
  5
F1052D
330
F1052E
100
AcDbEntity
8
Geo
100
AcDbLine
10
-25.5846487424111
20
6.13615627116245
30
0.000000000000000
11
-25.4846487424111
21
6.06068279142766
31
0.000000000000000
  0
LINE
  5
F1052F
330
F10530
100
AcDbEntity
8
Geo
100
AcDbLine
10
-25.4846487424111
20
6.06068279142766
30
0.000000000000000
11
-25.3846487424111
21
5.98395073534321
31
0.000000000000000
  0
LINE
  5
F10531
330
F10532
100
AcDbEntity
8
Geo
100
AcDbLine
10
-25.3846487424111
20
5.98395073534321
30
0.000000000000000
11
-25.2846487424111
21
5.90599079470846
31
0.000000000000000
  0
LINE
  5
F10533
330
F10534
100
AcDbEntity
8
Geo
100
AcDbLine
10
-25.2846487424111
20
5.90599079470846
30
0.000000000000000
11
-25.1846487424111
21
5.82683415246021
31
0.000000000000000
  0
LINE
  5
F10535
330
F10536
100
AcDbEntity
8
Geo
100
AcDbLine
10
-25.1846487424111
20
5.82683415246021
30
0.000000000000000
11
-25.0846487424111
21
5.74651247019995
31
0.000000000000000
  0
LINE
  5
F10537
330
F10538
100
AcDbEntity
8
Geo
100
AcDbLine
10
-25.0846487424111
20
5.74651247019995
30
0.000000000000000
11
-24.9846487424111
21
5.66505787552964
31
0.000000000000000
  0
LINE
  5
F10539
330
F1053A
100
AcDbEntity
8
Geo
100
AcDbLine
10
-24.9846487424111
20
5.66505787552964
30
0.000000000000000
11
-24.8846487424111
21
5.58250294920111
31
0.000000000000000
  0
LINE
  5
F1053B
330
F1053C
100
AcDbEntity
8
Geo
100
AcDbLine
10
-24.8846487424111
20
5.58250294920111
30
0.000000000000000
11
-24.7846487424111
21
5.49888071208416
31
0.000000000000000
  0
LINE
  5
F1053D
330
F1053E
100
AcDbEntity
8
Geo
100
AcDbLine
10
-24.7846487424111
20
5.49888071208416
30
0.000000000000000
11
-24.6846487424111
21
5.41422461195870
31
0.000000000000000
  0
LINE
  5
F1053F
330
F10540
100
AcDbEntity
8
Geo
100
AcDbLine
10
-24.6846487424111
20
5.41422461195870
30
0.000000000000000
11
-24.5846487424111
21
5.32856851013604
31
0.000000000000000
  0
LINE
  5
F10541
330
F10542
100
AcDbEntity
8
Geo
100
AcDbLine
10
-24.5846487424111
20
5.32856851013604
30
0.000000000000000
11
-24.4846487424111
21
5.24194666791485
31
0.000000000000000
  0
LINE
  5
F10543
330
F10544
100
AcDbEntity
8
Geo
100
AcDbLine
10
-24.4846487424111
20
5.24194666791485
30
0.000000000000000
11
-24.3846487424111
21
5.15439373287707
31
0.000000000000000
  0
LINE
  5
F10545
330
F10546
100
AcDbEntity
8
Geo
100
AcDbLine
10
-24.3846487424111
20
5.15439373287707
30
0.000000000000000
11
-24.2846487424111
21
5.06594472502936
31
0.000000000000000
  0
LINE
  5
F10547
330
F10548
100
AcDbEntity
8
Geo
100
AcDbLine
10
-24.2846487424111
20
5.06594472502936
30
0.000000000000000
11
-24.1846487424111
21
4.97663502279555
31
0.000000000000000
  0
LINE
  5
F10549
330
F1054A
100
AcDbEntity
8
Geo
100
AcDbLine
10
-24.1846487424111
20
4.97663502279555
30
0.000000000000000
11
-24.0846487424111
21
4.88650034886577
31
0.000000000000000
  0
LINE
  5
F1054B
330
F1054C
100
AcDbEntity
8
Geo
100
AcDbLine
10
-24.0846487424111
20
4.88650034886577
30
0.000000000000000
11
-23.9846487424111
21
4.79557675590779
31
0.000000000000000
  0
LINE
  5
F1054D
330
F1054E
100
AcDbEntity
8
Geo
100
AcDbLine
10
-23.9846487424111
20
4.79557675590779
30
0.000000000000000
11
-23.8846487424111
21
4.70390061214651
31
0.000000000000000
  0
LINE
  5
F1054F
330
F10550
100
AcDbEntity
8
Geo
100
AcDbLine
10
-23.8846487424111
20
4.70390061214651
30
0.000000000000000
11
-23.7846487424111
21
4.61150858681710
31
0.000000000000000
  0
LINE
  5
F10551
330
F10552
100
AcDbEntity
8
Geo
100
AcDbLine
10
-23.7846487424111
20
4.61150858681710
30
0.000000000000000
11
-23.6846487424111
21
4.51843763549780
31
0.000000000000000
  0
LINE
  5
F10553
330
F10554
100
AcDbEntity
8
Geo
100
AcDbLine
10
-23.6846487424111
20
4.51843763549780
30
0.000000000000000
11
-23.5846487424111
21
4.42472498532823
31
0.000000000000000
  0
LINE
  5
F10555
330
F10556
100
AcDbEntity
8
Geo
100
AcDbLine
10
-23.5846487424111
20
4.42472498532823
30
0.000000000000000
11
-23.4846487424111
21
4.33040812011896
31
0.000000000000000
  0
LINE
  5
F10557
330
F10558
100
AcDbEntity
8
Geo
100
AcDbLine
10
-23.4846487424111
20
4.33040812011896
30
0.000000000000000
11
-23.3846487424111
21
4.23552476535854
31
0.000000000000000
  0
LINE
  5
F10559
330
F1055A
100
AcDbEntity
8
Geo
100
AcDbLine
10
-23.3846487424111
20
4.23552476535854
30
0.000000000000000
11
-23.2846487424111
21
4.14011287312377
31
0.000000000000000
  0
LINE
  5
F1055B
330
F1055C
100
AcDbEntity
8
Geo
100
AcDbLine
10
-23.2846487424111
20
4.14011287312377
30
0.000000000000000
11
-23.1846487424111
21
4.04421060689941
31
0.000000000000000
  0
LINE
  5
F1055D
330
F1055E
100
AcDbEntity
8
Geo
100
AcDbLine
10
-23.1846487424111
20
4.04421060689941
30
0.000000000000000
11
-23.0846487424111
21
3.94785632631327
31
0.000000000000000
  0
LINE
  5
F1055F
330
F10560
100
AcDbEntity
8
Geo
100
AcDbLine
10
-23.0846487424111
20
3.94785632631327
30
0.000000000000000
11
-22.9846487424111
21
3.85108857179287
31
0.000000000000000
  0
LINE
  5
F10561
330
F10562
100
AcDbEntity
8
Geo
100
AcDbLine
10
-22.9846487424111
20
3.85108857179287
30
0.000000000000000
11
-22.8846487424111
21
3.75394604914980
31
0.000000000000000
  0
LINE
  5
F10563
330
F10564
100
AcDbEntity
8
Geo
100
AcDbLine
10
-22.8846487424111
20
3.75394604914980
30
0.000000000000000
11
-22.7846487424111
21
3.65646761409791
31
0.000000000000000
  0
LINE
  5
F10565
330
F10566
100
AcDbEntity
8
Geo
100
AcDbLine
10
-22.7846487424111
20
3.65646761409791
30
0.000000000000000
11
-22.6846487424111
21
3.55869225671151
31
0.000000000000000
  0
LINE
  5
F10567
330
F10568
100
AcDbEntity
8
Geo
100
AcDbLine
10
-22.6846487424111
20
3.55869225671151
30
0.000000000000000
11
-22.5846487424111
21
3.46065908582992
31
0.000000000000000
  0
LINE
  5
F10569
330
F1056A
100
AcDbEntity
8
Geo
100
AcDbLine
10
-22.5846487424111
20
3.46065908582992
30
0.000000000000000
11
-22.4846487424111
21
3.36240731341439
31
0.000000000000000
  0
LINE
  5
F1056B
330
F1056C
100
AcDbEntity
8
Geo
100
AcDbLine
10
-22.4846487424111
20
3.36240731341439
30
0.000000000000000
11
-22.3846487424111
21
3.26397623886388
31
0.000000000000000
  0
LINE
  5
F1056D
330
F1056E
100
AcDbEntity
8
Geo
100
AcDbLine
10
43.6153512575889
20
7.41413703382480
30
0.000000000000000
11
43.6153512575889
21
2.91413703382480
31
0.000000000000000
  0
LINE
  5
F1056F
330
F10570
100
AcDbEntity
8
Geo
100
AcDbLine
10
-29.3846487424111
20
2.91413703382480
30
0.000000000000000
11
-29.3846487424111
21
-1.78586296617520
31
0.000000000000000
  0
LINE
  5
F10571
330
F10572
100
AcDbEntity
8
Geo
100
AcDbLine
10
-29.3846487424111
20
-1.78586296617520
30
0.000000000000000
11
-29.0846487424111
21
-2.08586296617520
31
0.000000000000000
  0
LINE
  5
F10573
330
F10574
100
AcDbEntity
8
Geo
100
AcDbLine
10
-29.0846487424111
20
-2.08586296617520
30
0.000000000000000
11
-17.3846487424111
21
-2.08586296617520
31
0.000000000000000
  0
LINE
  5
F10575
330
F10576
100
AcDbEntity
8
Geo
100
AcDbLine
10
-17.3846487424111
20
-2.08586296617520
30
0.000000000000000
11
-17.3846487424111
21
-1.83586296617520
31
0.000000000000000
  0
LINE
  5
F10577
330
F10578
100
AcDbEntity
8
Geo
100
AcDbLine
10
-17.3846487424111
20
-1.83586296617520
30
0.000000000000000
11
-5.38464874241109
21
-1.83586296617520
31
0.000000000000000
  0
LINE
  5
F10579
330
F1057A
100
AcDbEntity
8
Geo
100
AcDbLine
10
-5.38464874241109
20
-1.83586296617520
30
0.000000000000000
11
-5.38464874241109
21
-2.08586296617520
31
0.000000000000000
  0
LINE
  5
F1057B
330
F1057C
100
AcDbEntity
8
Geo
100
AcDbLine
10
-5.38464874241109
20
-2.08586296617520
30
0.000000000000000
11
43.1153512575889
21
-2.08586296617520
31
0.000000000000000
  0
LINE
  5
F1057D
330
F1057E
100
AcDbEntity
8
Geo
100
AcDbLine
10
43.1153512575889
20
-2.08586296617520
30
0.000000000000000
11
43.6153512575889
21
-1.58586296617520
31
0.000000000000000
  0
LINE
  5
F1057F
330
F10580
100
AcDbEntity
8
Geo
100
AcDbLine
10
-29.3846487424111
20
7.61413703382480
30
0.000000000000000
11
-29.3846487424111
21
-1.78586296617520
31
0.000000000000000
  0
LINE
  5
F10581
330
F10582
100
AcDbEntity
8
Geo
100
AcDbLine
10
-29.0846487424111
20
7.91413703382480
30
0.000000000000000
11
-29.0846487424111
21
-2.08586296617520
31
0.000000000000000
  0
LINE
  5
F10583
330
F10584
100
AcDbEntity
8
Geo
100
AcDbLine
10
-29.0846487424111
20
7.91413703382480
30
0.000000000000000
11
-29.0846487424111
21
-2.08586296617520
31
0.000000000000000
  0
LINE
  5
F10585
330
F10586
100
AcDbEntity
8
Geo
100
AcDbLine
10
-17.3846487424111
20
7.91413703382480
30
0.000000000000000
11
-17.3846487424111
21
-2.08586296617520
31
0.000000000000000
  0
LINE
  5
F10587
330
F10588
100
AcDbEntity
8
Geo
100
AcDbLine
10
-17.3846487424111
20
7.66413703382480
30
0.000000000000000
11
-17.3846487424111
21
-1.83586296617520
31
0.000000000000000
  0
LINE
  5
F10589
330
F1058A
100
AcDbEntity
8
Geo
100
AcDbLine
10
-5.38464874241109
20
7.66413703382480
30
0.000000000000000
11
-5.38464874241109
21
-1.83586296617520
31
0.000000000000000
  0
LINE
  5
F1058B
330
F1058C
100
AcDbEntity
8
Geo
100
AcDbLine
10
-5.38464874241109
20
7.91413703382480
30
0.000000000000000
11
-5.38464874241109
21
-1.83586296617520
31
0.000000000000000
  0
LINE
  5
F1058D
330
F1058E
100
AcDbEntity
8
Geo
100
AcDbLine
10
43.1153512575889
20
7.91413703382480
30
0.000000000000000
11
43.1153512575889
21
-2.08586296617520
31
0.000000000000000
  0
LINE
  5
F1058F
330
F10590
100
AcDbEntity
8
Geo
100
AcDbLine
10
43.6153512575889
20
7.41413703382480
30
0.000000000000000
11
43.6153512575889
21
-1.58586296617520
31
0.000000000000000
  0
LINE
  5
F10591
330
F10592
100
AcDbEntity
8
Geo
 6
Dashdot
100
AcDbLine
10
-29.3846487424111
20
2.91413703382480
30
0.000000000000000
11
43.6153512575889
21
2.91413703382480
31
0.000000000000000
  0
LWPOLYLINE
  5
F10593
330
F10594
100
AcDbEntity
8
Rahmen
100
AcDbPolyline
90
   4
70
   1
43
   0.0
 10
-134.596704249783
 20
99.9002601908066
 10
143.339115351258
 20
99.9002601908066
 10
143.339115351258
 20
-100.082393755421
 10
-134.596704249783
 20
-100.082393755421
  0
TEXT
  5
F10595
330
F10596
 100
AcDbEntity
8
Text
100
AcDbText
10
-133.503902862099
20
-99.5823937554206
30
0.000000000000000
40
1.00000000000000
1
ISBESketcher - ©ISBE GmbH      lizensiert für: Schmid Werkzeuge
100
AcDbText
  0
LWPOLYLINE
  5
F10597
330
F10598
100
AcDbEntity
8
Rahmen
100
AcDbPolyline
90
   4
70
   1
43
   0.0
 10
103.451864700781
 20
-97.1682567215958
 10
143.339115351258
 20
-97.1682567215958
 10
143.339115351258
 20
-100.082393755421
 10
103.451864700781
 20
-100.082393755421
  0
TEXT
  5
F10599
330
F1059A
 100
AcDbEntity
8
Text
100
AcDbText
10
104.500000000000
20
-99.4570685169124
30
0.000000000000000
40
1.50000000000000
1
Ers. durch:
100
AcDbText
  0
TEXT
  5
F1059B
330
F1059C
 100
AcDbEntity
8
Text
100
AcDbText
10
0.000000000000000
20
0.500000000000000
30
0.000000000000000
40
1.50000000000000
1

100
AcDbText
  0
LWPOLYLINE
  5
F1059D
330
F1059E
100
AcDbEntity
8
Rahmen
100
AcDbPolyline
90
   4
70
   1
43
   0.0
 10
63.3824804856895
 20
-97.1682567215958
 10
103.451864700781
 20
-97.1682567215958
 10
103.451864700781
 20
-100.082393755421
 10
63.3824804856895
 20
-100.082393755421
  0
TEXT
  5
F1059F
330
F105A0
 100
AcDbEntity
8
Text
100
AcDbText
10
64.5000000000000
20
-99.4570685169124
30
0.000000000000000
40
1.50000000000000
1
Ers. für:
100
AcDbText
  0
TEXT
  5
F105A1
330
F105A2
 100
AcDbEntity
8
Text
100
AcDbText
10
0.000000000000000
20
0.500000000000000
30
0.000000000000000
40
1.50000000000000
1

100
AcDbText
  0
LWPOLYLINE
  5
F105A3
330
F105A4
100
AcDbEntity
8
Rahmen
100
AcDbPolyline
90
   4
70
   1
43
   0.0
 10
130.043365134432
 20
-94.0719861231570
 10
143.339115351258
 20
-94.0719861231570
 10
143.339115351258
 20
-97.1682567215958
 10
130.043365134432
 20
-97.1682567215958
  0
TEXT
  5
F105A5
330
F105A6
 100
AcDbEntity
8
Text
100
AcDbText
10
131.166666666667
20
-96.4570685169124
30
0.000000000000000
40
1.50000000000000
1
Blätter
100
AcDbText
  0
TEXT
  5
F105A7
330
F105A8
 100
AcDbEntity
8
Text
100
AcDbText
10
0.000000000000000
20
0.500000000000000
30
0.000000000000000
40
1.50000000000000
1

100
AcDbText
  0
LWPOLYLINE
  5
F105A9
330
F105AA
100
AcDbEntity
8
Rahmen
100
AcDbPolyline
90
   4
70
   1
43
   0.0
 10
130.043365134432
 20
-91.1578490893322
 10
143.339115351258
 20
-91.1578490893322
 10
143.339115351258
 20
-94.0719861231570
 10
130.043365134432
 20
-94.0719861231570
  0
TEXT
  5
F105AB
330
F105AC
 100
AcDbEntity
8
Text
100
AcDbText
10
131.166666666667
20
-93.4570685169124
30
0.000000000000000
40
1.50000000000000
1
Blatt
100
AcDbText
  0
TEXT
  5
F105AD
330
F105AE
 100
AcDbEntity
8
Text
100
AcDbText
10
0.000000000000000
20
0.500000000000000
30
0.000000000000000
40
1.50000000000000
1

100
AcDbText
  0
LWPOLYLINE
  5
F105AF
330
F105B0
100
AcDbEntity
8
Rahmen
100
AcDbPolyline
90
   4
70
   1
43
   0.0
 10
63.3824804856895
 20
-91.1578490893322
 10
130.043365134432
 20
-91.1578490893322
 10
130.043365134432
 20
-97.1682567215958
 10
63.3824804856895
 20
-97.1682567215958
  0
TEXT
  5
F105B1
330
F105B2
 100
AcDbEntity
8
Text
100
AcDbText
10
64.5000000000000
20
-93.4570685169124
30
0.000000000000000
40
1.50000000000000
1
Datum:
100
AcDbText
  0
TEXT
  5
F105B3
330
F105B4
 100
AcDbEntity
8
Text
100
AcDbText
10
90.9139924833767
20
-96.4570685169124
30
0.000000000000000
40
1.50000000000000
1
09.08.2021
100
AcDbText
  0
LWPOLYLINE
  5
F105B5
330
F105B6
100
AcDbEntity
8
Rahmen
100
AcDbPolyline
90
   4
70
   1
43
   0.0
 10
63.3824804856895
 20
-85.1474414570685
 10
143.339115351258
 20
-85.1474414570685
 10
143.339115351258
 20
-91.1578490893322
 10
63.3824804856895
 20
-91.1578490893322
  0
TEXT
  5
F105B7
330
F105B8
 100
AcDbEntity
8
Text
100
AcDbText
10
0.000000000000000
20
0.500000000000000
30
0.000000000000000
40
1.50000000000000
1

100
AcDbText
  0
TEXT
  5
F105B9
330
F105BA
 100
AcDbEntity
8
Text
100
AcDbText
10
67.6196877710321
20
-89.6254697889564
30
0.000000000000000
40
2.50000000000000
1
VHM-Hart-Schruppfräser 0700-100-b
100
AcDbText
  0
LWPOLYLINE
  5
F105BB
330
F105BC
100
AcDbEntity
8
Rahmen
100
AcDbPolyline
90
   4
70
   1
43
   0.0
 10
103.451864700781
 20
-79.1370338248049
 10
143.339115351258
 20
-79.1370338248049
 10
143.339115351258
 20
-85.1474414570685
 10
103.451864700781
 20
-85.1474414570685
  0
TEXT
  5
F105BD
330
F105BE
 100
AcDbEntity
8
Text
100
AcDbText
10
104.500000000000
20
-81.4570685169124
30
0.000000000000000
40
1.50000000000000
1
Zu bearb. Material:
100
AcDbText
  0
TEXT
  5
F105BF
330
F105C0
 100
AcDbEntity
8
Text
100
AcDbText
10
0.000000000000000
20
0.500000000000000
30
0.000000000000000
40
1.50000000000000
1

100
AcDbText
  0
LWPOLYLINE
  5
F105C1
330
F105C2
100
AcDbEntity
8
Rahmen
100
AcDbPolyline
90
   4
70
   1
43
   0.0
 10
63.3824804856895
 20
-79.1370338248049
 10
103.451864700781
 20
-79.1370338248049
 10
103.451864700781
 20
-85.1474414570685
 10
63.3824804856895
 20
-85.1474414570685
  0
TEXT
  5
F105C3
330
F105C4
 100
AcDbEntity
8
Text
100
AcDbText
10
64.5000000000000
20
-81.4570685169124
30
0.000000000000000
40
1.50000000000000
1
Werkstoff:
100
AcDbText
  0
TEXT
  5
F105C5
330
F105C6
 100
AcDbEntity
8
Text
100
AcDbText
10
80.7679965307892
20
-84.4570685169124
30
0.000000000000000
40
1.50000000000000
1
VHM
100
AcDbText
  0
LWPOLYLINE
  5
F105C7
330
F105C8
100
AcDbEntity
8
Rahmen
100
AcDbPolyline
90
   4
70
   1
43
   0.0
 10
103.451864700781
 20
-76.0407632263660
 10
143.339115351258
 20
-76.0407632263660
 10
143.339115351258
 20
-79.1370338248049
 10
103.451864700781
 20
-79.1370338248049
  0
TEXT
  5
F105C9
330
F105CA
 100
AcDbEntity
8
Text
100
AcDbText
10
0.000000000000000
20
0.500000000000000
30
0.000000000000000
40
1.50000000000000
1

100
AcDbText
  0
TEXT
  5
F105CB
330
F105CC
 100
AcDbEntity
8
Text
100
AcDbText
10
0.000000000000000
20
0.500000000000000
30
0.000000000000000
40
1.50000000000000
1

100
AcDbText
  0
LWPOLYLINE
  5
F105CD
330
F105CE
100
AcDbEntity
8
Rahmen
100
AcDbPolyline
90
   4
70
   1
43
   0.0
 10
63.3824804856895
 20
-76.0407632263660
 10
103.451864700781
 20
-76.0407632263660
 10
103.451864700781
 20
-79.1370338248049
 10
63.3824804856895
 20
-79.1370338248049
  0
TEXT
  5
F105CF
330
F105D0
 100
AcDbEntity
8
Text
100
AcDbText
10
64.5000000000000
20
-78.4570685169124
30
0.000000000000000
40
1.50000000000000
1
Maßstab:
100
AcDbText
  0
TEXT
  5
F105D1
330
F105D2
 100
AcDbEntity
8
Text
100
AcDbText
10
89.0411968777103
20
-78.4570685169124
30
0.000000000000000
40
1.50000000000000
1
1 : 1
100
AcDbText
0
VIEWPORT
5
294
102
{ACAD_XDICTIONARY
360
58A
102
}
330
25D
100
AcDbEntity
67
1
8
0
60
1
100
AcDbViewport
10
0.0
20
0.0
30
0.0
40
10.0
41
10.0
68
-1
69
1
12
0.0
22
0.0
13
0.0
23
0.0
14
1.0
24
1.0
15
0.0
25
0.0
16
0.0
26
0.0
36
1.0
17
0.0
27
0.0
37
0.0
42
0.0
43
0.0
44
0.0
45
10.0
50
0.0
51
0.0000000000007958
72
100
90
32800
1

281
0
71
0
74
0
110
0.0
120
0.0
130
0.0
111
1.0
121
0.0
131
0.0
112
0.0
122
1.0
132
0.0
79
0
146
0.0
1001
VD_INVISIBLE_NOT_FOR_READ
1000
VD_INVISIBLE_NOT_FOR_READ
0
VIEWPORT
5
295
102
{ACAD_XDICTIONARY
360
58C
102
}
330
25D
100
AcDbEntity
67
1
8
0
60
1
100
AcDbViewport
10
0.0
20
0.0
30
0.0
40
10.0
41
10.0
68
0
69
2
12
0.0
22
0.0
13
0.0
23
0.0
14
1.0
24
1.0
15
0.0
25
0.0
16
0.0
26
0.0
36
1.0
17
0.0
27
0.0
37
0.0
42
0.0
43
0.0
44
0.0
45
10.0
50
0.0
51
0.0000000000007958
72
100
90
163872
1

281
0
71
0
74
0
110
0.0
120
0.0
130
0.0
111
1.0
121
0.0
131
0.0
112
0.0
122
1.0
132
0.0
79
0
146
0.0
1001
VD_INVISIBLE_NOT_FOR_READ
1000
VD_INVISIBLE_NOT_FOR_READ
0
ENDSEC
0
SECTION
2
OBJECTS
0
DICTIONARY
5
13
330
0
100
AcDbDictionary
281
1
3
ACAD_COLOR
350
FA7
3
ACAD_GROUP
350
14
3
ACAD_LAYOUT
350
FCF
3
ACAD_MATERIAL
350
F7A
3
ACAD_MLEADERSTYLE
350
FCD
3
ACAD_MLINESTYLE
350
16
3
ACAD_PLOTSETTINGS
350
17
3
ACAD_PLOTSTYLENAME
350
18
3
ACAD_SCALELIST
350
FAB
3
ACAD_TABLESTYLE
350
FA8
3
ACAD_VISUALSTYLE
350
F93
3
ACDB_RECOMPOSE_DATA
350
107E
3
AcDbVariableDictionary
350
FF0
3
DWGPROPS
350
107F
0
DICTIONARY
5
F10005
330
F10004
100
AcDbDictionary
280
1
281
1
3
ACAD_MTEXT_2008_RT
360
F10006
0
DICTIONARY
5
F10019
330
F10018
100
AcDbDictionary
280
1
281
1
3
ACAD_MTEXT_2008_RT
360
F1001A
0
DICTIONARY
5
F1001E
330
F1001D
100
AcDbDictionary
280
1
281
1
3
ACAD_MTEXT_2008_RT
360
F1001F
0
DICTIONARY
5
F10023
330
F10022
100
AcDbDictionary
280
1
281
1
3
ACAD_MTEXT_2008_RT
360
F10024
0
DICTIONARY
5
F1000A
330
F10009
100
AcDbDictionary
280
1
281
1
3
ACAD_MTEXT_2008_RT
360
F1000B
0
DICTIONARY
5
F1000F
330
F1000E
100
AcDbDictionary
280
1
281
1
3
ACAD_MTEXT_2008_RT
360
F10010
0
DICTIONARY
5
F10014
330
F10013
100
AcDbDictionary
280
1
281
1
3
ACAD_MTEXT_2008_RT
360
F10015
0
DICTIONARY
5
FA7
102
{ACAD_REACTORS
330
13
102
}
330
13
100
AcDbDictionary
281
1
0
DICTIONARY
5
14
330
13
100
AcDbDictionary
281
1
0
DICTIONARY
5
FCF
102
{ACAD_REACTORS
330
13
102
}
330
13
100
AcDbDictionary
281
1
3
Layout1
350
FD1
3
Model
350
FD0
0
DICTIONARY
5
F7A
102
{ACAD_REACTORS
330
13
102
}
330
13
100
AcDbDictionary
281
1
3
ByBlock
350
F83
3
ByLayer
350
F7B
3
Global
350
F8B
0
DICTIONARY
5
FCD
102
{ACAD_REACTORS
330
13
102
}
330
13
100
AcDbDictionary
281
1
3
Standard
350
FCE
0
DICTIONARY
5
16
330
13
100
AcDbDictionary
281
1
3
Standard
350
FAA
0
DICTIONARY
5
17
102
{ACAD_REACTORS
330
13
102
}
330
13
100
AcDbDictionary
281
1
0
ACDBDICTIONARYWDFLT
5
18
102
{ACAD_REACTORS
330
13
102
}
330
13
100
AcDbDictionary
281
1
3
Normal
350
19
100
AcDbDictionaryWithDefault
340
19
0
DICTIONARY
5
FAB
102
{ACAD_REACTORS
330
13
102
}
330
13
100
AcDbDictionary
281
1
3
A0
350
FAC
3
A1
350
FAD
3
A2
350
FAE
3
A3
350
FAF
3
A4
350
FB0
3
A5
350
FB1
3
A6
350
FB2
3
A7
350
FB3
3
A8
350
FB4
3
A9
350
FB5
3
B0
350
FB6
3
B1
350
FB7
3
B2
350
FB8
3
B3
350
FB9
3
B4
350
FBA
3
B5
350
FBB
3
B6
350
FBC
3
B7
350
FBD
3
B8
350
FBE
3
B9
350
FBF
3
C0
350
FC0
3
C1
350
FC1
3
C2
350
FC2
3
C3
350
FC3
3
C4
350
FC4
3
C5
350
FC5
3
C6
350
FC6
3
C7
350
FC7
3
C8
350
FC8
3
C9
350
FC9
3
D0
350
FCA
3
D1
350
FCB
3
D2
350
FCC
0
DICTIONARY
5
FA8
102
{ACAD_REACTORS
330
13
102
}
330
13
100
AcDbDictionary
281
1
3
Standard
350
FA9
0
DICTIONARY
5
F93
102
{ACAD_REACTORS
330
13
102
}
330
13
100
AcDbDictionary
281
1
3
2dWireframe
350
F99
3
3D Hidden
350
F9B
3
3dWireframe
350
F9A
3
Basic
350
F98
3
Brighten
350
F9F
3
ColorChange
350
FA3
3
Conceptual
350
F9C
3
Dim
350
F9E
3
EdgeColorOff
350
FA6
3
Facepattern
350
FA2
3
Flat
350
F94
3
FlatWithEdges
350
F95
3
Gouraud
350
F96
3
GouraudWithEdges
350
F97
3
JitterOff
350
FA4
3
Linepattern
350
FA1
3
OverhangOff
350
FA5
3
Realistic
350
F9D
3
Thicken
350
FA0
0
XRECORD
5
107E
102
{ACAD_REACTORS
330
13
102
}
330
13
100
AcDbXrecord
280
1
90
1
330
FA9
330
F10004
330
F10018
330
F1001D
330
F10022
330
F10009
330
F1000E
330
F10013
0
DICTIONARY
5
FF0
102
{ACAD_REACTORS
330
13
102
}
330
13
100
AcDbDictionary
281
1
3
CANNOSCALE
350
FF3
3
CMLEADERSTYLE
350
FF2
3
CTABLESTYLE
350
FF1
3
DIMASSOC
350
FF6
3
INDEXCTL
350
FF5
3
SORTENTS
350
FF4
3
XCLIPFRAME
350
1078
0
XRECORD
5
107F
102
{ACAD_REACTORS
330
13
102
}
330
13
100
AcDbXrecord
280
1
1
DWGPROPS COOKIE
2

3

4

6

7

8

9

300
=
301
=
302
=
303
=
304
=
305
=
306
=
307
=
308
=
309
=
40
0.0
41
0.0
42
0.0
1

90
0
0
XRECORD
5
F10006
102
{ACAD_REACTORS
330
F10005
102
}
330
F10005
100
AcDbXrecord
280
1
40
48458.0
1
0.3 x 45°
0
XRECORD
5
F1001A
102
{ACAD_REACTORS
330
F10019
102
}
330
F10019
100
AcDbXrecord
280
1
40
48458.0
1
12
0
XRECORD
5
F1001F
102
{ACAD_REACTORS
330
F1001E
102
}
330
F1001E
100
AcDbXrecord
280
1
40
48458.0
1
73
0
XRECORD
5
F10024
102
{ACAD_REACTORS
330
F10023
102
}
330
F10023
100
AcDbXrecord
280
1
40
48458.0
1
24
0
XRECORD
5
F1000B
102
{ACAD_REACTORS
330
F1000A
102
}
330
F1000A
100
AcDbXrecord
280
1
40
48458.0
1
Ø10
0
XRECORD
5
F10010
102
{ACAD_REACTORS
330
F1000F
102
}
330
F1000F
100
AcDbXrecord
280
1
40
48458.0
1
Ø9.5
0
LAYOUT
5
FD1
102
{ACAD_XDICTIONARY
360
10A9
102
}
102
{ACAD_REACTORS
330
FCF
102
}
330
FCF
100
AcDbPlotSettings
1

2
Microsoft XPS Document Writer
4

6

40
0.0
41
0.0
42
0.0
43
0.0
44
0.0
45
0.0
46
0.0
47
0.0
48
0.0
49
0.0
140
0.0
141
0.0
142
1.0
143
1.0
70
688
72
0
73
0
74
5
7

75
16
147
1.0
148
0.0
149
0.0
100
AcDbLayout
1
Layout1
70
1
71
1
10
0.0
20
0.0
11
12.0
21
9.0
12
0.0
22
0.0
32
0.0
14
1.000000000000000E+20
24
1.000000000000000E+20
34
1.000000000000000E+20
15
-1.000000000000000E+20
25
-1.000000000000000E+20
35
-1.000000000000000E+20
146
0.0
13
0.0
23
0.0
33
0.0
16
1.0
26
0.0
36
0.0
17
0.0
27
1.0
37
0.0
76
0
330
25D
0
LAYOUT
5
FD0
102
{ACAD_XDICTIONARY
360
10A7
102
}
102
{ACAD_REACTORS
330
FCF
102
}
330
FCF
100
AcDbPlotSettings
1

2
Microsoft XPS Document Writer
4

6

40
0.0
41
0.0
42
0.0
43
0.0
44
0.0
45
0.0
46
0.0
47
0.0
48
0.0
49
0.0
140
0.0
141
0.0
142
1.0
143
1.0
70
1712
72
0
73
0
74
0
7

75
0
147
1.0
148
0.0
149
0.0
100
AcDbLayout
1
Model
70
1
71
0
10
0.0
20
0.0
11
12.0
21
9.0
12
0.0
22
0.0
32
0.0
14
0.0
24
0.0
34
0.0
15
0.0
25
0.0
35
0.0
146
0.0
13
0.0
23
0.0
33
0.0
16
1.0
26
0.0
36
0.0
17
0.0
27
1.0
37
0.0
76
0
330
261
331
26B
0
MATERIAL
5
F83
102
{ACAD_XDICTIONARY
360
F84
102
}
102
{ACAD_REACTORS
330
F7A
102
}
330
F7A
100
AcDbMaterial
1
ByBlock
72
0
43
0.0208333333333333
43
0.0
43
0.0
43
0.0
43
0.0
43
0.0208333333333333
43
0.0
43
0.0
43
0.0
43
0.0
43
1.0
43
0.0
43
0.0
43
0.0
43
0.0
43
1.0
77
0
47
0.0208333333333333
47
0.0
47
0.0
47
0.0
47
0.0
47
0.0208333333333333
47
0.0
47
0.0
47
0.0
47
0.0
47
1.0
47
0.0
47
0.0
47
0.0
47
0.0
47
1.0
171
0
49
0.0208333333333333
49
0.0
49
0.0
49
0.0
49
0.0
49
0.0208333333333333
49
0.0
49
0.0
49
0.0
49
0.0
49
1.0
49
0.0
49
0.0
49
0.0
49
0.0
49
1.0
175
0
142
0.0208333333333333
142
0.0
142
0.0
142
0.0
142
0.0
142
0.0208333333333333
142
0.0
142
0.0
142
0.0
142
0.0
142
1.0
142
0.0
142
0.0
142
0.0
142
0.0
142
1.0
179
0
144
0.0208333333333333
144
0.0
144
0.0
144
0.0
144
0.0
144
0.0208333333333333
144
0.0
144
0.0
144
0.0
144
0.0
144
1.0
144
0.0
144
0.0
144
0.0
144
0.0
144
1.0
147
0.0208333333333333
147
0.0
147
0.0
147
0.0
147
0.0
147
0.0208333333333333
147
0.0
147
0.0
147
0.0
147
0.0
147
1.0
147
0.0
147
0.0
147
0.0
147
0.0
147
1.0
0
MATERIAL
5
F7B
102
{ACAD_XDICTIONARY
360
F7C
102
}
102
{ACAD_REACTORS
330
F7A
102
}
330
F7A
100
AcDbMaterial
1
ByLayer
72
0
43
0.0208333333333333
43
0.0
43
0.0
43
0.0
43
0.0
43
0.0208333333333333
43
0.0
43
0.0
43
0.0
43
0.0
43
1.0
43
0.0
43
0.0
43
0.0
43
0.0
43
1.0
77
0
47
0.0208333333333333
47
0.0
47
0.0
47
0.0
47
0.0
47
0.0208333333333333
47
0.0
47
0.0
47
0.0
47
0.0
47
1.0
47
0.0
47
0.0
47
0.0
47
0.0
47
1.0
171
0
49
0.0208333333333333
49
0.0
49
0.0
49
0.0
49
0.0
49
0.0208333333333333
49
0.0
49
0.0
49
0.0
49
0.0
49
1.0
49
0.0
49
0.0
49
0.0
49
0.0
49
1.0
175
0
142
0.0208333333333333
142
0.0
142
0.0
142
0.0
142
0.0
142
0.0208333333333333
142
0.0
142
0.0
142
0.0
142
0.0
142
1.0
142
0.0
142
0.0
142
0.0
142
0.0
142
1.0
179
0
144
0.0208333333333333
144
0.0
144
0.0
144
0.0
144
0.0
144
0.0208333333333333
144
0.0
144
0.0
144
0.0
144
0.0
144
1.0
144
0.0
144
0.0
144
0.0
144
0.0
144
1.0
147
0.0208333333333333
147
0.0
147
0.0
147
0.0
147
0.0
147
0.0208333333333333
147
0.0
147
0.0
147
0.0
147
0.0
147
1.0
147
0.0
147
0.0
147
0.0
147
0.0
147
1.0
0
MATERIAL
5
F8B
102
{ACAD_XDICTIONARY
360
F8C
102
}
102
{ACAD_REACTORS
330
F7A
102
}
330
F7A
100
AcDbMaterial
1
Global
72
0
43
0.0208333333333333
43
0.0
43
0.0
43
0.0
43
0.0
43
0.0208333333333333
43
0.0
43
0.0
43
0.0
43
0.0
43
1.0
43
0.0
43
0.0
43
0.0
43
0.0
43
1.0
77
0
47
0.0208333333333333
47
0.0
47
0.0
47
0.0
47
0.0
47
0.0208333333333333
47
0.0
47
0.0
47
0.0
47
0.0
47
1.0
47
0.0
47
0.0
47
0.0
47
0.0
47
1.0
171
0
49
0.0208333333333333
49
0.0
49
0.0
49
0.0
49
0.0
49
0.0208333333333333
49
0.0
49
0.0
49
0.0
49
0.0
49
1.0
49
0.0
49
0.0
49
0.0
49
0.0
49
1.0
175
0
142
0.0208333333333333
142
0.0
142
0.0
142
0.0
142
0.0
142
0.0208333333333333
142
0.0
142
0.0
142
0.0
142
0.0
142
1.0
142
0.0
142
0.0
142
0.0
142
0.0
142
1.0
179
0
144
0.0208333333333333
144
0.0
144
0.0
144
0.0
144
0.0
144
0.0208333333333333
144
0.0
144
0.0
144
0.0
144
0.0
144
1.0
144
0.0
144
0.0
144
0.0
144
0.0
144
1.0
147
0.0208333333333333
147
0.0
147
0.0
147
0.0
147
0.0
147
0.0208333333333333
147
0.0
147
0.0
147
0.0
147
0.0
147
1.0
147
0.0
147
0.0
147
0.0
147
0.0
147
1.0
0
MLEADERSTYLE
5
FCE
102
{ACAD_REACTORS
330
FCD
102
}
330
FCD
100
AcDbMLeaderStyle
170
2
171
1
172
0
90
2
40
0.0
41
0.0
173
1
91
-1056964608
340
256
92
-2
290
1
42
0.09
291
1
43
0.36
3
Standard
44
0.18
300

342
253
174
1
178
6
175
1
176
0
93
-1056964608
45
0.18
292
0
297
0
46
0.18
94
-1056964608
47
1.0
49
1.0
140
1.0
293
1
141
0.0
294
1
177
0
142
1.0
295
0
296
0
143
0.125
1001
ACAD_MLEADERVER
1070
2
0
MLINESTYLE
5
FAA
102
{ACAD_REACTORS
330
16
102
}
330
16
100
AcDbMlineStyle
2
STANDARD
70
0
3

62
256
51
90.0
52
90.0
71
2
49
0.5
62
256
6
BYLAYER
49
-0.5
62
256
6
BYLAYER
0
ACDBPLACEHOLDER
5
19
102
{ACAD_REACTORS
330
18
102
}
330
18
0
SCALE
5
FAC
102
{ACAD_REACTORS
330
FAB
102
}
330
FAB
100
AcDbScale
70
0
300
1:1
140
1.0
141
1.0
290
1
0
SCALE
5
FAD
102
{ACAD_REACTORS
330
FAB
102
}
330
FAB
100
AcDbScale
70
0
300
1:2
140
1.0
141
2.0
290
0
0
SCALE
5
FAE
102
{ACAD_REACTORS
330
FAB
102
}
330
FAB
100
AcDbScale
70
0
300
1:4
140
1.0
141
4.0
290
0
0
SCALE
5
FAF
102
{ACAD_REACTORS
330
FAB
102
}
330
FAB
100
AcDbScale
70
0
300
1:5
140
1.0
141
5.0
290
0
0
SCALE
5
FB0
102
{ACAD_REACTORS
330
FAB
102
}
330
FAB
100
AcDbScale
70
0
300
1:8
140
1.0
141
8.0
290
0
0
SCALE
5
FB1
102
{ACAD_REACTORS
330
FAB
102
}
330
FAB
100
AcDbScale
70
0
300
1:10
140
1.0
141
10.0
290
0
0
SCALE
5
FB2
102
{ACAD_REACTORS
330
FAB
102
}
330
FAB
100
AcDbScale
70
0
300
1:16
140
1.0
141
16.0
290
0
0
SCALE
5
FB3
102
{ACAD_REACTORS
330
FAB
102
}
330
FAB
100
AcDbScale
70
0
300
1:20
140
1.0
141
20.0
290
0
0
SCALE
5
FB4
102
{ACAD_REACTORS
330
FAB
102
}
330
FAB
100
AcDbScale
70
0
300
1:30
140
1.0
141
30.0
290
0
0
SCALE
5
FB5
102
{ACAD_REACTORS
330
FAB
102
}
330
FAB
100
AcDbScale
70
0
300
1:40
140
1.0
141
40.0
290
0
0
SCALE
5
FB6
102
{ACAD_REACTORS
330
FAB
102
}
330
FAB
100
AcDbScale
70
0
300
1:50
140
1.0
141
50.0
290
0
0
SCALE
5
FB7
102
{ACAD_REACTORS
330
FAB
102
}
330
FAB
100
AcDbScale
70
0
300
1:100
140
1.0
141
100.0
290
0
0
SCALE
5
FB8
102
{ACAD_REACTORS
330
FAB
102
}
330
FAB
100
AcDbScale
70
0
300
2:1
140
2.0
141
1.0
290
0
0
SCALE
5
FB9
102
{ACAD_REACTORS
330
FAB
102
}
330
FAB
100
AcDbScale
70
0
300
4:1
140
4.0
141
1.0
290
0
0
SCALE
5
FBA
102
{ACAD_REACTORS
330
FAB
102
}
330
FAB
100
AcDbScale
70
0
300
8:1
140
8.0
141
1.0
290
0
0
SCALE
5
FBB
102
{ACAD_REACTORS
330
FAB
102
}
330
FAB
100
AcDbScale
70
0
300
10:1
140
10.0
141
1.0
290
0
0
SCALE
5
FBC
102
{ACAD_REACTORS
330
FAB
102
}
330
FAB
100
AcDbScale
70
0
300
100:1
140
100.0
141
1.0
290
0
0
SCALE
5
FBD
102
{ACAD_REACTORS
330
FAB
102
}
330
FAB
100
AcDbScale
70
0
300
1/128" = 1'-0"
140
0.0078125
141
12.0
290
0
0
SCALE
5
FBE
102
{ACAD_REACTORS
330
FAB
102
}
330
FAB
100
AcDbScale
70
0
300
1/64" = 1'-0"
140
0.015625
141
12.0
290
0
0
SCALE
5
FBF
102
{ACAD_REACTORS
330
FAB
102
}
330
FAB
100
AcDbScale
70
0
300
1/32" = 1'-0"
140
0.03125
141
12.0
290
0
0
SCALE
5
FC0
102
{ACAD_REACTORS
330
FAB
102
}
330
FAB
100
AcDbScale
70
0
300
1/16" = 1'-0"
140
0.0625
141
12.0
290
0
0
SCALE
5
FC1
102
{ACAD_REACTORS
330
FAB
102
}
330
FAB
100
AcDbScale
70
0
300
3/32" = 1'-0"
140
0.09375
141
12.0
290
0
0
SCALE
5
FC2
102
{ACAD_REACTORS
330
FAB
102
}
330
FAB
100
AcDbScale
70
0
300
1/8" = 1'-0"
140
0.125
141
12.0
290
0
0
SCALE
5
FC3
102
{ACAD_REACTORS
330
FAB
102
}
330
FAB
100
AcDbScale
70
0
300
3/16" = 1'-0"
140
0.1875
141
12.0
290
0
0
SCALE
5
FC4
102
{ACAD_REACTORS
330
FAB
102
}
330
FAB
100
AcDbScale
70
0
300
1/4" = 1'-0"
140
0.25
141
12.0
290
0
0
SCALE
5
FC5
102
{ACAD_REACTORS
330
FAB
102
}
330
FAB
100
AcDbScale
70
0
300
3/8" = 1'-0"
140
0.375
141
12.0
290
0
0
SCALE
5
FC6
102
{ACAD_REACTORS
330
FAB
102
}
330
FAB
100
AcDbScale
70
0
300
1/2" = 1'-0"
140
0.5
141
12.0
290
0
0
SCALE
5
FC7
102
{ACAD_REACTORS
330
FAB
102
}
330
FAB
100
AcDbScale
70
0
300
3/4" = 1'-0"
140
0.75
141
12.0
290
0
0
SCALE
5
FC8
102
{ACAD_REACTORS
330
FAB
102
}
330
FAB
100
AcDbScale
70
0
300
1" = 1'-0"
140
1.0
141
12.0
290
0
0
SCALE
5
FC9
102
{ACAD_REACTORS
330
FAB
102
}
330
FAB
100
AcDbScale
70
0
300
1-1/2" = 1'-0"
140
1.5
141
12.0
290
0
0
SCALE
5
FCA
102
{ACAD_REACTORS
330
FAB
102
}
330
FAB
100
AcDbScale
70
0
300
3" = 1'-0"
140
3.0
141
12.0
290
0
0
SCALE
5
FCB
102
{ACAD_REACTORS
330
FAB
102
}
330
FAB
100
AcDbScale
70
0
300
6" = 1'-0"
140
6.0
141
12.0
290
0
0
SCALE
5
FCC
102
{ACAD_REACTORS
330
FAB
102
}
330
FAB
100
AcDbScale
70
0
300
1'-0" = 1'-0"
140
12.0
141
12.0
290
0
0
TABLESTYLE
5
FA9
102
{ACAD_XDICTIONARY
360
FF8
102
}
102
{ACAD_REACTORS
330
FA8
102
}
330
FA8
100
AcDbTableStyle
3
Standard
70
0
71
0
40
0.06
41
0.06
280
0
281
0
7
Standard
140
0.18
170
2
62
0
63
7
283
0
274
-2
284
1
64
0
275
-2
285
1
65
0
276
-2
286
1
66
0
277
-2
287
1
67
0
278
-2
288
1
68
0
279
-2
289
1
69
0
7
Standard
140
0.25
170
5
62
0
63
7
283
0
274
-2
284
1
64
0
275
-2
285
1
65
0
276
-2
286
1
66
0
277
-2
287
1
67
0
278
-2
288
1
68
0
279
-2
289
1
69
0
7
Standard
140
0.18
170
5
62
0
63
7
283
0
274
-2
284
1
64
0
275
-2
285
1
65
0
276
-2
286
1
66
0
277
-2
287
1
67
0
278
-2
288
1
68
0
279
-2
289
1
69
0
0
VISUALSTYLE
5
F99
102
{ACAD_XDICTIONARY
360
108A
102
}
102
{ACAD_REACTORS
330
F93
102
}
330
F93
100
AcDbVisualStyle
2

70
4
71
0
72
2
73
0
90
0
40
-0.6
41
-30.0
62
5
63
7
74
1
91
4
64
7
65
257
75
1
175
1
42
1.0
92
0
66
257
43
1.0
76
1
77
6
78
2
67
7
79
5
170
0
171
0
290
0
174
0
93
1
44
0.0
173
0
291
0
45
0.0
1001
ACAD
1000
AcDbSavedByObjectVersion
1070
0
0
VISUALSTYLE
5
F9B
102
{ACAD_XDICTIONARY
360
108E
102
}
102
{ACAD_REACTORS
330
F93
102
}
330
F93
100
AcDbVisualStyle
2

70
6
71
1
72
2
73
2
90
0
40
-0.6
41
-30.0
62
5
63
7
74
2
91
2
64
7
65
257
75
2
175
1
42
179.0
92
0
66
257
43
1.0
76
1
77
6
78
2
67
7
79
3
170
0
171
0
290
0
174
0
93
1
44
0.0
173
0
291
0
45
0.0
1001
ACAD
1000
AcDbSavedByObjectVersion
1070
0
0
VISUALSTYLE
5
F9A
102
{ACAD_XDICTIONARY
360
108C
102
}
102
{ACAD_REACTORS
330
F93
102
}
330
F93
100
AcDbVisualStyle
2

70
5
71
0
72
2
73
0
90
0
40
-0.6
41
-30.0
62
5
63
7
74
1
91
4
64
7
65
257
75
1
175
1
42
1.0
92
0
66
257
43
1.0
76
1
77
6
78
2
67
7
79
5
170
0
171
0
290
0
174
0
93
1
44
0.0
173
0
291
0
45
0.0
1001
ACAD
1000
AcDbSavedByObjectVersion
1070
0
0
VISUALSTYLE
5
F98
102
{ACAD_XDICTIONARY
360
1088
102
}
102
{ACAD_REACTORS
330
F93
102
}
330
F93
100
AcDbVisualStyle
2

70
7
71
1
72
0
73
1
90
0
40
-0.6
41
-30.0
62
5
63
7
74
0
91
4
64
7
65
257
75
1
175
1
42
1.0
92
8
66
7
43
1.0
76
1
77
6
78
2
67
7
79
5
170
0
171
0
290
0
174
0
93
1
44
0.0
173
0
291
1
45
0.0
1001
ACAD
1000
AcDbSavedByObjectVersion
1070
0
0
VISUALSTYLE
5
F9F
102
{ACAD_XDICTIONARY
360
1096
102
}
102
{ACAD_REACTORS
330
F93
102
}
330
F93
100
AcDbVisualStyle
2

70
12
71
2
72
2
73
0
90
0
40
-0.6
41
-30.0
62
5
63
7
74
1
91
4
64
7
65
257
75
1
175
1
42
1.0
92
8
66
7
43
1.0
76
1
77
6
78
2
67
7
79
5
170
0
171
0
290
0
174
0
93
1
44
50.0
173
0
291
1
45
0.0
1001
ACAD
1000
AcDbSavedByObjectVersion
1070
0
0
VISUALSTYLE
5
FA3
102
{ACAD_XDICTIONARY
360
109E
102
}
102
{ACAD_REACTORS
330
F93
102
}
330
F93
100
AcDbVisualStyle
2

70
16
71
2
72
2
73
3
90
0
40
-0.6
41
-30.0
62
5
63
8
74
1
91
4
64
7
65
257
75
1
175
1
42
1.0
92
8
66
8
43
1.0
76
1
77
6
78
2
67
7
79
5
170
0
171
0
290
0
174
0
93
1
44
0.0
173
0
291
1
45
0.0
1001
ACAD
1000
AcDbSavedByObjectVersion
1070
0
0
VISUALSTYLE
5
F9C
102
{ACAD_XDICTIONARY
360
1090
102
}
102
{ACAD_REACTORS
330
F93
102
}
330
F93
100
AcDbVisualStyle
2

70
9
71
3
72
2
73
0
90
0
40
-0.6
41
-30.0
62
5
63
7
74
2
91
2
64
7
65
257
75
1
175
1
42
179.0
92
8
66
7
43
1.0
76
1
77
6
78
2
67
7
79
3
170
0
171
0
290
0
174
0
93
1
44
0.0
173
0
291
0
45
0.0
1001
ACAD
1000
AcDbSavedByObjectVersion
1070
0
0
VISUALSTYLE
5
F9E
102
{ACAD_XDICTIONARY
360
1094
102
}
102
{ACAD_REACTORS
330
F93
102
}
330
F93
100
AcDbVisualStyle
2

70
11
71
2
72
2
73
0
90
0
40
-0.6
41
-30.0
62
5
63
7
74
1
91
4
64
7
65
257
75
1
175
1
42
1.0
92
8
66
7
43
1.0
76
1
77
6
78
2
67
7
79
5
170
0
171
0
290
0
174
0
93
1
44
-50.0
173
0
291
1
45
0.0
1001
ACAD
1000
AcDbSavedByObjectVersion
1070
0
0
VISUALSTYLE
5
FA6
102
{ACAD_XDICTIONARY
360
10A4
102
}
102
{ACAD_REACTORS
330
F93
102
}
330
F93
100
AcDbVisualStyle
2

70
22
71
2
72
2
73
0
90
0
40
-0.6
41
-30.0
62
5
63
7
74
1
91
4
64
7
65
257
75
1
175
1
42
1.0
92
8
66
7
43
1.0
76
1
77
6
78
2
67
7
79
5
170
0
171
0
290
0
174
0
93
1
44
0.0
173
0
291
1
45
0.0
1001
ACAD
1000
AcDbSavedByObjectVersion
1070
0
0
VISUALSTYLE
5
FA2
102
{ACAD_XDICTIONARY
360
109C
102
}
102
{ACAD_REACTORS
330
F93
102
}
330
F93
100
AcDbVisualStyle
2

70
15
71
2
72
2
73
0
90
0
40
-0.6
41
-30.0
62
5
63
7
74
1
91
4
64
7
65
257
75
1
175
1
42
1.0
92
8
66
7
43
1.0
76
1
77
6
78
2
67
7
79
5
170
0
171
0
290
0
174
0
93
1
44
0.0
173
0
291
1
45
0.0
1001
ACAD
1000
AcDbSavedByObjectVersion
1070
0
0
VISUALSTYLE
5
F94
102
{ACAD_XDICTIONARY
360
1080
102
}
102
{ACAD_REACTORS
330
F93
102
}
330
F93
100
AcDbVisualStyle
2

70
0
71
2
72
1
73
1
90
2
40
-0.6
41
30.0
62
5
63
7
74
0
91
4
64
7
65
257
75
1
175
1
42
1.0
92
8
66
7
43
1.0
76
1
77
6
78
2
67
7
79
5
170
0
171
0
290
0
174
0
93
13
44
0.0
173
0
291
1
45
0.0
1001
ACAD
1000
AcDbSavedByObjectVersion
1070
0
0
VISUALSTYLE
5
F95
102
{ACAD_XDICTIONARY
360
1082
102
}
102
{ACAD_REACTORS
330
F93
102
}
330
F93
100
AcDbVisualStyle
2

70
1
71
2
72
1
73
1
90
2
40
-0.6
41
30.0
62
5
63
7
74
1
91
4
64
7
65
257
75
1
175
1
42
1.0
92
0
66
257
43
1.0
76
1
77
6
78
2
67
7
79
5
170
0
171
0
290
0
174
0
93
13
44
0.0
173
0
291
1
45
0.0
1001
ACAD
1000
AcDbSavedByObjectVersion
1070
0
0
VISUALSTYLE
5
F96
102
{ACAD_XDICTIONARY
360
1084
102
}
102
{ACAD_REACTORS
330
F93
102
}
330
F93
100
AcDbVisualStyle
2

70
2
71
2
72
2
73
1
90
2
40
-0.6
41
30.0
62
5
63
7
74
0
91
4
64
7
65
257
75
1
175
1
42
1.0
92
0
66
7
43
1.0
76
1
77
6
78
2
67
7
79
5
170
0
171
0
290
0
174
0
93
13
44
0.0
173
0
291
1
45
0.0
1001
ACAD
1000
AcDbSavedByObjectVersion
1070
0
0
VISUALSTYLE
5
F97
102
{ACAD_XDICTIONARY
360
1086
102
}
102
{ACAD_REACTORS
330
F93
102
}
330
F93
100
AcDbVisualStyle
2

70
3
71
2
72
2
73
1
90
2
40
-0.6
41
30.0
62
5
63
7
74
1
91
4
64
7
65
257
75
1
175
1
42
1.0
92
0
66
257
43
1.0
76
1
77
6
78
2
67
7
79
5
170
0
171
0
290
0
174
0
93
13
44
0.0
173
0
291
1
45
0.0
1001
ACAD
1000
AcDbSavedByObjectVersion
1070
0
0
VISUALSTYLE
5
FA4
102
{ACAD_XDICTIONARY
360
10A0
102
}
102
{ACAD_REACTORS
330
F93
102
}
330
F93
100
AcDbVisualStyle
2

70
20
71
2
72
2
73
0
90
0
40
-0.6
41
-30.0
62
5
63
7
74
1
91
4
64
7
65
257
75
1
175
1
42
1.0
92
10
66
7
43
1.0
76
1
77
6
78
2
67
7
79
5
170
0
171
0
290
0
174
0
93
1
44
0.0
173
0
291
1
45
0.0
1001
ACAD
1000
AcDbSavedByObjectVersion
1070
0
0
VISUALSTYLE
5
FA1
102
{ACAD_XDICTIONARY
360
109A
102
}
102
{ACAD_REACTORS
330
F93
102
}
330
F93
100
AcDbVisualStyle
2

70
14
71
2
72
2
73
0
90
0
40
-0.6
41
-30.0
62
5
63
7
74
1
91
4
64
7
65
257
75
7
175
7
42
1.0
92
8
66
7
43
1.0
76
1
77
6
78
2
67
7
79
5
170
0
171
0
290
0
174
0
93
1
44
0.0
173
0
291
1
45
0.0
1001
ACAD
1000
AcDbSavedByObjectVersion
1070
0
0
VISUALSTYLE
5
FA5
102
{ACAD_XDICTIONARY
360
10A2
102
}
102
{ACAD_REACTORS
330
F93
102
}
330
F93
100
AcDbVisualStyle
2

70
21
71
2
72
2
73
0
90
0
40
-0.6
41
-30.0
62
5
63
7
74
1
91
4
64
7
65
257
75
1
175
1
42
1.0
92
9
66
7
43
1.0
76
1
77
6
78
2
67
7
79
5
170
0
171
0
290
0
174
0
93
1
44
0.0
173
0
291
1
45
0.0
1001
ACAD
1000
AcDbSavedByObjectVersion
1070
0
0
VISUALSTYLE
5
F9D
102
{ACAD_XDICTIONARY
360
1092
102
}
102
{ACAD_REACTORS
330
F93
102
}
330
F93
100
AcDbVisualStyle
2

70
8
71
2
72
2
73
0
90
0
40
-0.6
41
-30.0
62
5
63
7
74
1
91
0
64
7
65
257
75
1
175
1
42
1.0
92
8
66
8
43
1.0
76
1
77
6
78
2
67
7
79
5
170
0
171
0
290
0
174
0
93
13
44
0.0
173
0
291
0
45
0.0
1001
ACAD
1000
AcDbSavedByObjectVersion
1070
0
0
VISUALSTYLE
5
FA0
102
{ACAD_XDICTIONARY
360
1098
102
}
102
{ACAD_REACTORS
330
F93
102
}
330
F93
100
AcDbVisualStyle
2

70
13
71
2
72
2
73
0
90
0
40
-0.6
41
-30.0
62
5
63
7
74
1
91
4
64
7
65
257
75
1
175
1
42
1.0
92
12
66
7
43
1.0
76
1
77
6
78
2
67
7
79
5
170
0
171
0
290
0
174
0
93
1
44
0.0
173
0
291
1
45
0.0
1001
ACAD
1000
AcDbSavedByObjectVersion
1070
0
0
DICTIONARYVAR
5
FF3
102
{ACAD_REACTORS
330
FF0
102
}
330
FF0
100
DictionaryVariables
280
0
1
1:1
0
DICTIONARYVAR
5
FF2
102
{ACAD_REACTORS
330
FF0
102
}
330
FF0
100
DictionaryVariables
280
0
1
STANDARD
0
DICTIONARYVAR
5
FF1
102
{ACAD_REACTORS
330
FF0
102
}
330
FF0
100
DictionaryVariables
280
0
1
STANDARD
0
DICTIONARYVAR
5
FF6
102
{ACAD_REACTORS
330
FF0
102
}
330
FF0
100
DictionaryVariables
280
0
1
1
0
DICTIONARYVAR
5
FF5
102
{ACAD_REACTORS
330
FF0
102
}
330
FF0
100
DictionaryVariables
280
0
1
0
0
DICTIONARYVAR
5
FF4
102
{ACAD_REACTORS
330
FF0
102
}
330
FF0
100
DictionaryVariables
280
0
1
127
0
DICTIONARYVAR
5
1078
102
{ACAD_REACTORS
330
FF0
102
}
330
FF0
100
DictionaryVariables
280
0
1
2
0
DICTIONARY
5
10A9
330
FD1
100
AcDbDictionary
280
1
281
1
3
ACAD_XREC_ROUNDTRIP
360
10AA
0
DICTIONARY
5
10A7
330
FD0
100
AcDbDictionary
280
1
281
1
3
ACAD_XREC_ROUNDTRIP
360
10A8
0
DICTIONARY
5
F84
330
F83
100
AcDbDictionary
280
1
281
1
3
ACAD_XREC_ROUNDTRIP
360
FFF
3
BUMPTILE
360
F86
3
DIFFUSETILE
360
F85
3
OPACITYTILE
360
F89
3
REFLECTIONTILE
360
F88
3
REFRACTIONTILE
360
F8A
3
SPECULARTILE
360
F87
0
DICTIONARY
5
F7C
330
F7B
100
AcDbDictionary
280
1
281
1
3
ACAD_XREC_ROUNDTRIP
360
FFE
3
BUMPTILE
360
F7E
3
DIFFUSETILE
360
F7D
3
OPACITYTILE
360
F81
3
REFLECTIONTILE
360
F80
3
REFRACTIONTILE
360
F82
3
SPECULARTILE
360
F7F
0
DICTIONARY
5
F8C
330
F8B
100
AcDbDictionary
280
1
281
1
3
ACAD_XREC_ROUNDTRIP
360
1000
3
BUMPTILE
360
F8E
3
DIFFUSETILE
360
F8D
3
OPACITYTILE
360
F91
3
REFLECTIONTILE
360
F90
3
REFRACTIONTILE
360
F92
3
SPECULARTILE
360
F8F
0
DICTIONARY
5
FF8
330
FA9
100
AcDbDictionary
280
1
281
1
3
ACAD_ROUNDTRIP_2008_TABLESTYLE_CELLSTYLEMAP
360
1079
3
ACAD_XREC_ROUNDTRIP
360
10A6
0
DICTIONARY
5
108A
330
F99
100
AcDbDictionary
280
1
281
1
3
ACAD_XREC_ROUNDTRIP
360
108B
0
DICTIONARY
5
108E
330
F9B
100
AcDbDictionary
280
1
281
1
3
ACAD_XREC_ROUNDTRIP
360
108F
0
DICTIONARY
5
108C
330
F9A
100
AcDbDictionary
280
1
281
1
3
ACAD_XREC_ROUNDTRIP
360
108D
0
DICTIONARY
5
1088
330
F98
100
AcDbDictionary
280
1
281
1
3
ACAD_XREC_ROUNDTRIP
360
1089
0
DICTIONARY
5
1096
330
F9F
100
AcDbDictionary
280
1
281
1
3
ACAD_XREC_ROUNDTRIP
360
1097
0
DICTIONARY
5
109E
330
FA3
100
AcDbDictionary
280
1
281
1
3
ACAD_XREC_ROUNDTRIP
360
109F
0
DICTIONARY
5
1090
330
F9C
100
AcDbDictionary
280
1
281
1
3
ACAD_XREC_ROUNDTRIP
360
1091
0
DICTIONARY
5
1094
330
F9E
100
AcDbDictionary
280
1
281
1
3
ACAD_XREC_ROUNDTRIP
360
1095
0
DICTIONARY
5
10A4
330
FA6
100
AcDbDictionary
280
1
281
1
3
ACAD_XREC_ROUNDTRIP
360
10A5
0
DICTIONARY
5
109C
330
FA2
100
AcDbDictionary
280
1
281
1
3
ACAD_XREC_ROUNDTRIP
360
109D
0
DICTIONARY
5
1080
330
F94
100
AcDbDictionary
280
1
281
1
3
ACAD_XREC_ROUNDTRIP
360
1081
0
DICTIONARY
5
1082
330
F95
100
AcDbDictionary
280
1
281
1
3
ACAD_XREC_ROUNDTRIP
360
1083
0
DICTIONARY
5
1084
330
F96
100
AcDbDictionary
280
1
281
1
3
ACAD_XREC_ROUNDTRIP
360
1085
0
DICTIONARY
5
1086
330
F97
100
AcDbDictionary
280
1
281
1
3
ACAD_XREC_ROUNDTRIP
360
1087
0
DICTIONARY
5
10A0
330
FA4
100
AcDbDictionary
280
1
281
1
3
ACAD_XREC_ROUNDTRIP
360
10A1
0
DICTIONARY
5
109A
330
FA1
100
AcDbDictionary
280
1
281
1
3
ACAD_XREC_ROUNDTRIP
360
109B
0
DICTIONARY
5
10A2
330
FA5
100
AcDbDictionary
280
1
281
1
3
ACAD_XREC_ROUNDTRIP
360
10A3
0
DICTIONARY
5
1092
330
F9D
100
AcDbDictionary
280
1
281
1
3
ACAD_XREC_ROUNDTRIP
360
1093
0
DICTIONARY
5
1098
330
FA0
100
AcDbDictionary
280
1
281
1
3
ACAD_XREC_ROUNDTRIP
360
1099
0
XRECORD
5
10AA
102
{ACAD_REACTORS
330
10A9
102
}
330
10A9
100
AcDbXrecord
280
1
102
SHADEPLOT
70
0
102
SHADEPLOTRESLEVEL
70
2
102
SHADEPLOTCUSTOMDPI
70
300
0
XRECORD
5
10A8
102
{ACAD_REACTORS
330
10A7
102
}
330
10A7
100
AcDbXrecord
280
1
102
SHADEPLOT
70
0
102
SHADEPLOTRESLEVEL
70
2
102
SHADEPLOTCUSTOMDPI
70
300
0
XRECORD
5
FFF
102
{ACAD_REACTORS
330
F84
102
}
330
F84
100
AcDbXrecord
280
1
102
MATERIAL
148
0.0
149
0.0
149
0.0
93
0
94
127
282
0
72
0
77
0
171
0
175
0
179
0
273
0
0
XRECORD
5
F86
102
{ACAD_REACTORS
330
F84
102
}
330
F84
100
AcDbXrecord
280
1
270
1
271
1
0
XRECORD
5
F85
102
{ACAD_REACTORS
330
F84
102
}
330
F84
100
AcDbXrecord
280
1
270
1
271
1
0
XRECORD
5
F89
102
{ACAD_REACTORS
330
F84
102
}
330
F84
100
AcDbXrecord
280
1
270
1
271
1
0
XRECORD
5
F88
102
{ACAD_REACTORS
330
F84
102
}
330
F84
100
AcDbXrecord
280
1
270
1
271
1
0
XRECORD
5
F8A
102
{ACAD_REACTORS
330
F84
102
}
330
F84
100
AcDbXrecord
280
1
270
1
271
1
0
XRECORD
5
F87
102
{ACAD_REACTORS
330
F84
102
}
330
F84
100
AcDbXrecord
280
1
270
1
271
1
0
XRECORD
5
FFE
102
{ACAD_REACTORS
330
F7C
102
}
330
F7C
100
AcDbXrecord
280
1
102
MATERIAL
148
0.0
149
0.0
149
0.0
93
0
94
127
282
0
72
0
77
0
171
0
175
0
179
0
273
0
0
XRECORD
5
F7E
102
{ACAD_REACTORS
330
F7C
102
}
330
F7C
100
AcDbXrecord
280
1
270
1
271
1
0
XRECORD
5
F7D
102
{ACAD_REACTORS
330
F7C
102
}
330
F7C
100
AcDbXrecord
280
1
270
1
271
1
0
XRECORD
5
F81
102
{ACAD_REACTORS
330
F7C
102
}
330
F7C
100
AcDbXrecord
280
1
270
1
271
1
0
XRECORD
5
F80
102
{ACAD_REACTORS
330
F7C
102
}
330
F7C
100
AcDbXrecord
280
1
270
1
271
1
0
XRECORD
5
F82
102
{ACAD_REACTORS
330
F7C
102
}
330
F7C
100
AcDbXrecord
280
1
270
1
271
1
0
XRECORD
5
F7F
102
{ACAD_REACTORS
330
F7C
102
}
330
F7C
100
AcDbXrecord
280
1
270
1
271
1
0
XRECORD
5
1000
102
{ACAD_REACTORS
330
F8C
102
}
330
F8C
100
AcDbXrecord
280
1
102
MATERIAL
148
0.0
149
0.0
149
0.0
93
0
94
127
282
0
72
0
77
0
171
0
175
0
179
0
273
0
0
XRECORD
5
F8E
102
{ACAD_REACTORS
330
F8C
102
}
330
F8C
100
AcDbXrecord
280
1
270
1
271
1
0
XRECORD
5
F8D
102
{ACAD_REACTORS
330
F8C
102
}
330
F8C
100
AcDbXrecord
280
1
270
1
271
1
0
XRECORD
5
F91
102
{ACAD_REACTORS
330
F8C
102
}
330
F8C
100
AcDbXrecord
280
1
270
1
271
1
0
XRECORD
5
F90
102
{ACAD_REACTORS
330
F8C
102
}
330
F8C
100
AcDbXrecord
280
1
270
1
271
1
0
XRECORD
5
F92
102
{ACAD_REACTORS
330
F8C
102
}
330
F8C
100
AcDbXrecord
280
1
270
1
271
1
0
XRECORD
5
F8F
102
{ACAD_REACTORS
330
F8C
102
}
330
F8C
100
AcDbXrecord
280
1
270
1
271
1
0
CELLSTYLEMAP
5
1079
102
{ACAD_REACTORS
330
FF8
102
}
330
FF8
100
AcDbCellStyleMap
90
3
300
CELLSTYLE
1
TABLEFORMAT_BEGIN
90
5
170
1
91
0
92
32768
62
257
93
1
300
CONTENTFORMAT
1
CONTENTFORMAT_BEGIN
90
0
91
0
92
512
93
0
300

40
0.0
140
1.0
94
5
62
0
340
253
144
0.25
309
CONTENTFORMAT_END
171
1
301
MARGIN
1
CELLMARGIN_BEGIN
40
0.06
40
0.06
40
0.06
40
0.06
40
0.18
40
0.18
309
CELLMARGIN_END
94
6
95
1
302
GRIDFORMAT
1
GRIDFORMAT_BEGIN
90
0
91
1
62
0
92
-2
340
0
93
0
40
0.045
309
GRIDFORMAT_END
95
2
302
GRIDFORMAT
1
GRIDFORMAT_BEGIN
90
0
91
1
62
0
92
-2
340
0
93
0
40
0.045
309
GRIDFORMAT_END
95
4
302
GRIDFORMAT
1
GRIDFORMAT_BEGIN
90
0
91
1
62
0
92
-2
340
0
93
0
40
0.045
309
GRIDFORMAT_END
95
8
302
GRIDFORMAT
1
GRIDFORMAT_BEGIN
90
0
91
1
62
0
92
-2
340
0
93
0
40
0.045
309
GRIDFORMAT_END
95
16
302
GRIDFORMAT
1
GRIDFORMAT_BEGIN
90
0
91
1
62
0
92
-2
340
0
93
0
40
0.045
309
GRIDFORMAT_END
95
32
302
GRIDFORMAT
1
GRIDFORMAT_BEGIN
90
0
91
1
62
0
92
-2
340
0
93
0
40
0.045
309
GRIDFORMAT_END
309
TABLEFORMAT_END
1
CELLSTYLE_BEGIN
90
1
91
1
300
_TITLE
309
CELLSTYLE_END
300
CELLSTYLE
1
TABLEFORMAT_BEGIN
90
5
170
1
91
0
92
0
62
257
93
1
300
CONTENTFORMAT
1
CONTENTFORMAT_BEGIN
90
0
91
0
92
512
93
0
300

40
0.0
140
1.0
94
5
62
0
340
253
144
0.18
309
CONTENTFORMAT_END
171
1
301
MARGIN
1
CELLMARGIN_BEGIN
40
0.06
40
0.06
40
0.06
40
0.06
40
0.18
40
0.18
309
CELLMARGIN_END
94
6
95
1
302
GRIDFORMAT
1
GRIDFORMAT_BEGIN
90
0
91
1
62
0
92
-2
340
0
93
0
40
0.045
309
GRIDFORMAT_END
95
2
302
GRIDFORMAT
1
GRIDFORMAT_BEGIN
90
0
91
1
62
0
92
-2
340
0
93
0
40
0.045
309
GRIDFORMAT_END
95
4
302
GRIDFORMAT
1
GRIDFORMAT_BEGIN
90
0
91
1
62
0
92
-2
340
0
93
0
40
0.045
309
GRIDFORMAT_END
95
8
302
GRIDFORMAT
1
GRIDFORMAT_BEGIN
90
0
91
1
62
0
92
-2
340
0
93
0
40
0.045
309
GRIDFORMAT_END
95
16
302
GRIDFORMAT
1
GRIDFORMAT_BEGIN
90
0
91
1
62
0
92
-2
340
0
93
0
40
0.045
309
GRIDFORMAT_END
95
32
302
GRIDFORMAT
1
GRIDFORMAT_BEGIN
90
0
91
1
62
0
92
-2
340
0
93
0
40
0.045
309
GRIDFORMAT_END
309
TABLEFORMAT_END
1
CELLSTYLE_BEGIN
90
2
91
1
300
_HEADER
309
CELLSTYLE_END
300
CELLSTYLE
1
TABLEFORMAT_BEGIN
90
5
170
1
91
0
92
0
62
257
93
1
300
CONTENTFORMAT
1
CONTENTFORMAT_BEGIN
90
0
91
0
92
512
93
0
300

40
0.0
140
1.0
94
2
62
0
340
253
144
0.18
309
CONTENTFORMAT_END
171
1
301
MARGIN
1
CELLMARGIN_BEGIN
40
0.06
40
0.06
40
0.06
40
0.06
40
0.18
40
0.18
309
CELLMARGIN_END
94
6
95
1
302
GRIDFORMAT
1
GRIDFORMAT_BEGIN
90
0
91
1
62
0
92
-2
340
0
93
0
40
0.045
309
GRIDFORMAT_END
95
2
302
GRIDFORMAT
1
GRIDFORMAT_BEGIN
90
0
91
1
62
0
92
-2
340
0
93
0
40
0.045
309
GRIDFORMAT_END
95
4
302
GRIDFORMAT
1
GRIDFORMAT_BEGIN
90
0
91
1
62
0
92
-2
340
0
93
0
40
0.045
309
GRIDFORMAT_END
95
8
302
GRIDFORMAT
1
GRIDFORMAT_BEGIN
90
0
91
1
62
0
92
-2
340
0
93
0
40
0.045
309
GRIDFORMAT_END
95
16
302
GRIDFORMAT
1
GRIDFORMAT_BEGIN
90
0
91
1
62
0
92
-2
340
0
93
0
40
0.045
309
GRIDFORMAT_END
95
32
302
GRIDFORMAT
1
GRIDFORMAT_BEGIN
90
0
91
1
62
0
92
-2
340
0
93
0
40
0.045
309
GRIDFORMAT_END
309
TABLEFORMAT_END
1
CELLSTYLE_BEGIN
90
3
91
2
300
_DATA
309
CELLSTYLE_END
0
XRECORD
5
10A6
102
{ACAD_REACTORS
330
FF8
102
}
330
FF8
100
AcDbXrecord
280
1
102
ACAD_ROUNDTRIP_PRE2007_TABLESTYLE
90
512
91
0
1

92
512
93
0
2

94
512
95
0
3

0
XRECORD
5
108B
102
{ACAD_REACTORS
330
108A
102
}
330
108A
100
AcDbXrecord
280
1
102
RTVSPropertyOp0
70
1
102
RTVSPropertyOp1
70
1
102
RTVSPropertyOp2
70
1
102
RTVSPropertyOp3
70
1
102
RTVSPropertyOp4
70
1
102
RTVSPropertyOp5
70
1
102
RTVSPropertyOp6
70
1
102
RTVSPropertyOp7
70
1
102
RTVSPropertyOp8
70
1
102
RTVSPropertyOp9
70
1
102
RTVSPropertyOp10
70
1
102
RTVSPropertyOp11
70
1
102
RTVSPropertyOp12
70
1
102
RTVSPropertyOp13
70
1
102
RTVSPropertyOp14
70
1
102
RTVSPropertyOp15
70
1
102
RTVSPropertyOp16
70
1
102
RTVSPropertyOp17
70
1
102
RTVSPropertyOp18
70
1
102
RTVSPropertyOp19
70
1
102
RTVSPropertyOp20
70
1
102
RTVSPropertyOp21
70
1
102
RTVSPropertyOp22
70
1
102
RTVSPropertyOp23
70
1
102
RTVSPropertyOp24
70
1
102
RTVSPropertyOp25
70
1
102
RTVSPropertyOp26
70
1
102
RTVSPropertyOp27
70
1
0
XRECORD
5
108F
102
{ACAD_REACTORS
330
108E
102
}
330
108E
100
AcDbXrecord
280
1
102
RTVSPropertyOp0
70
1
102
RTVSPropertyOp1
70
1
102
RTVSPropertyOp2
70
1
102
RTVSPropertyOp3
70
1
102
RTVSPropertyOp4
70
1
102
RTVSPropertyOp5
70
1
102
RTVSPropertyOp6
70
1
102
RTVSPropertyOp7
70
1
102
RTVSPropertyOp8
70
1
102
RTVSPropertyOp9
70
1
102
RTVSPropertyOp10
70
1
102
RTVSPropertyOp11
70
1
102
RTVSPropertyOp12
70
1
102
RTVSPropertyOp13
70
1
102
RTVSPropertyOp14
70
1
102
RTVSPropertyOp15
70
1
102
RTVSPropertyOp16
70
1
102
RTVSPropertyOp17
70
1
102
RTVSPropertyOp18
70
1
102
RTVSPropertyOp19
70
1
102
RTVSPropertyOp20
70
1
102
RTVSPropertyOp21
70
1
102
RTVSPropertyOp22
70
1
102
RTVSPropertyOp23
70
1
102
RTVSPropertyOp24
70
1
102
RTVSPropertyOp25
70
1
102
RTVSPropertyOp26
70
1
102
RTVSPropertyOp27
70
1
0
XRECORD
5
108D
102
{ACAD_REACTORS
330
108C
102
}
330
108C
100
AcDbXrecord
280
1
102
RTVSPropertyOp0
70
1
102
RTVSPropertyOp1
70
1
102
RTVSPropertyOp2
70
1
102
RTVSPropertyOp3
70
1
102
RTVSPropertyOp4
70
1
102
RTVSPropertyOp5
70
1
102
RTVSPropertyOp6
70
1
102
RTVSPropertyOp7
70
1
102
RTVSPropertyOp8
70
1
102
RTVSPropertyOp9
70
1
102
RTVSPropertyOp10
70
1
102
RTVSPropertyOp11
70
1
102
RTVSPropertyOp12
70
1
102
RTVSPropertyOp13
70
1
102
RTVSPropertyOp14
70
1
102
RTVSPropertyOp15
70
1
102
RTVSPropertyOp16
70
1
102
RTVSPropertyOp17
70
1
102
RTVSPropertyOp18
70
1
102
RTVSPropertyOp19
70
1
102
RTVSPropertyOp20
70
1
102
RTVSPropertyOp21
70
1
102
RTVSPropertyOp22
70
1
102
RTVSPropertyOp23
70
1
102
RTVSPropertyOp24
70
1
102
RTVSPropertyOp25
70
1
102
RTVSPropertyOp26
70
1
102
RTVSPropertyOp27
70
1
0
XRECORD
5
1089
102
{ACAD_REACTORS
330
1088
102
}
330
1088
100
AcDbXrecord
280
1
102
RTVSPropertyOp0
70
1
102
RTVSPropertyOp1
70
1
102
RTVSPropertyOp2
70
1
102
RTVSPropertyOp3
70
1
102
RTVSPropertyOp4
70
1
102
RTVSPropertyOp5
70
1
102
RTVSPropertyOp6
70
1
102
RTVSPropertyOp7
70
1
102
RTVSPropertyOp8
70
1
102
RTVSPropertyOp9
70
1
102
RTVSPropertyOp10
70
1
102
RTVSPropertyOp11
70
1
102
RTVSPropertyOp12
70
1
102
RTVSPropertyOp13
70
1
102
RTVSPropertyOp14
70
1
102
RTVSPropertyOp15
70
1
102
RTVSPropertyOp16
70
1
102
RTVSPropertyOp17
70
1
102
RTVSPropertyOp18
70
1
102
RTVSPropertyOp19
70
1
102
RTVSPropertyOp20
70
1
102
RTVSPropertyOp21
70
1
102
RTVSPropertyOp22
70
1
102
RTVSPropertyOp23
70
1
102
RTVSPropertyOp24
70
1
102
RTVSPropertyOp25
70
1
102
RTVSPropertyOp26
70
1
102
RTVSPropertyOp27
70
1
0
XRECORD
5
1097
102
{ACAD_REACTORS
330
1096
102
}
330
1096
100
AcDbXrecord
280
1
102
RTVSPropertyOp0
70
1
102
RTVSPropertyOp1
70
1
102
RTVSPropertyOp2
70
1
102
RTVSPropertyOp3
70
1
102
RTVSPropertyOp4
70
1
102
RTVSPropertyOp5
70
1
102
RTVSPropertyOp6
70
1
102
RTVSPropertyOp7
70
1
102
RTVSPropertyOp8
70
1
102
RTVSPropertyOp9
70
1
102
RTVSPropertyOp10
70
1
102
RTVSPropertyOp11
70
1
102
RTVSPropertyOp12
70
1
102
RTVSPropertyOp13
70
1
102
RTVSPropertyOp14
70
1
102
RTVSPropertyOp15
70
1
102
RTVSPropertyOp16
70
1
102
RTVSPropertyOp17
70
1
102
RTVSPropertyOp18
70
1
102
RTVSPropertyOp19
70
1
102
RTVSPropertyOp20
70
1
102
RTVSPropertyOp21
70
1
102
RTVSPropertyOp22
70
1
102
RTVSPropertyOp23
70
1
102
RTVSPropertyOp24
70
1
102
RTVSPropertyOp25
70
1
102
RTVSPropertyOp26
70
1
102
RTVSPropertyOp27
70
1
0
XRECORD
5
109F
102
{ACAD_REACTORS
330
109E
102
}
330
109E
100
AcDbXrecord
280
1
102
RTVSPropertyOp0
70
1
102
RTVSPropertyOp1
70
1
102
RTVSPropertyOp2
70
1
102
RTVSPropertyOp3
70
1
102
RTVSPropertyOp4
70
1
102
RTVSPropertyOp5
70
1
102
RTVSPropertyOp6
70
1
102
RTVSPropertyOp7
70
1
102
RTVSPropertyOp8
70
1
102
RTVSPropertyOp9
70
1
102
RTVSPropertyOp10
70
1
102
RTVSPropertyOp11
70
1
102
RTVSPropertyOp12
70
1
102
RTVSPropertyOp13
70
1
102
RTVSPropertyOp14
70
1
102
RTVSPropertyOp15
70
1
102
RTVSPropertyOp16
70
1
102
RTVSPropertyOp17
70
1
102
RTVSPropertyOp18
70
1
102
RTVSPropertyOp19
70
1
102
RTVSPropertyOp20
70
1
102
RTVSPropertyOp21
70
1
102
RTVSPropertyOp22
70
1
102
RTVSPropertyOp23
70
1
102
RTVSPropertyOp24
70
1
102
RTVSPropertyOp25
70
1
102
RTVSPropertyOp26
70
1
102
RTVSPropertyOp27
70
1
0
XRECORD
5
1091
102
{ACAD_REACTORS
330
1090
102
}
330
1090
100
AcDbXrecord
280
1
102
RTVSPropertyOp0
70
1
102
RTVSPropertyOp1
70
1
102
RTVSPropertyOp2
70
1
102
RTVSPropertyOp3
70
1
102
RTVSPropertyOp4
70
1
102
RTVSPropertyOp5
70
1
102
RTVSPropertyOp6
70
1
102
RTVSPropertyOp7
70
1
102
RTVSPropertyOp8
70
1
102
RTVSPropertyOp9
70
1
102
RTVSPropertyOp10
70
1
102
RTVSPropertyOp11
70
1
102
RTVSPropertyOp12
70
1
102
RTVSPropertyOp13
70
1
102
RTVSPropertyOp14
70
1
102
RTVSPropertyOp15
70
1
102
RTVSPropertyOp16
70
1
102
RTVSPropertyOp17
70
1
102
RTVSPropertyOp18
70
1
102
RTVSPropertyOp19
70
1
102
RTVSPropertyOp20
70
1
102
RTVSPropertyOp21
70
1
102
RTVSPropertyOp22
70
1
102
RTVSPropertyOp23
70
1
102
RTVSPropertyOp24
70
1
102
RTVSPropertyOp25
70
1
102
RTVSPropertyOp26
70
1
102
RTVSPropertyOp27
70
1
0
XRECORD
5
1095
102
{ACAD_REACTORS
330
1094
102
}
330
1094
100
AcDbXrecord
280
1
102
RTVSPropertyOp0
70
1
102
RTVSPropertyOp1
70
1
102
RTVSPropertyOp2
70
1
102
RTVSPropertyOp3
70
1
102
RTVSPropertyOp4
70
1
102
RTVSPropertyOp5
70
1
102
RTVSPropertyOp6
70
1
102
RTVSPropertyOp7
70
1
102
RTVSPropertyOp8
70
1
102
RTVSPropertyOp9
70
1
102
RTVSPropertyOp10
70
1
102
RTVSPropertyOp11
70
1
102
RTVSPropertyOp12
70
1
102
RTVSPropertyOp13
70
1
102
RTVSPropertyOp14
70
1
102
RTVSPropertyOp15
70
1
102
RTVSPropertyOp16
70
1
102
RTVSPropertyOp17
70
1
102
RTVSPropertyOp18
70
1
102
RTVSPropertyOp19
70
1
102
RTVSPropertyOp20
70
1
102
RTVSPropertyOp21
70
1
102
RTVSPropertyOp22
70
1
102
RTVSPropertyOp23
70
1
102
RTVSPropertyOp24
70
1
102
RTVSPropertyOp25
70
1
102
RTVSPropertyOp26
70
1
102
RTVSPropertyOp27
70
1
0
XRECORD
5
10A5
102
{ACAD_REACTORS
330
10A4
102
}
330
10A4
100
AcDbXrecord
280
1
102
RTVSPropertyOp0
70
0
102
RTVSPropertyOp1
70
0
102
RTVSPropertyOp2
70
0
102
RTVSPropertyOp3
70
0
102
RTVSPropertyOp4
70
0
102
RTVSPropertyOp5
70
0
102
RTVSPropertyOp6
70
0
102
RTVSPropertyOp7
70
0
102
RTVSPropertyOp8
70
0
102
RTVSPropertyOp9
70
0
102
RTVSPropertyOp10
70
0
102
RTVSPropertyOp11
70
0
102
RTVSPropertyOp12
70
0
102
RTVSPropertyOp13
70
0
102
RTVSPropertyOp14
70
2
102
RTVSPropertyOp15
70
0
102
RTVSPropertyOp16
70
0
102
RTVSPropertyOp17
70
0
102
RTVSPropertyOp18
70
0
102
RTVSPropertyOp19
70
0
102
RTVSPropertyOp20
70
0
102
RTVSPropertyOp21
70
0
102
RTVSPropertyOp22
70
0
102
RTVSPropertyOp23
70
0
102
RTVSPropertyOp24
70
0
102
RTVSPropertyOp25
70
0
102
RTVSPropertyOp26
70
0
102
RTVSPropertyOp27
70
0
0
XRECORD
5
109D
102
{ACAD_REACTORS
330
109C
102
}
330
109C
100
AcDbXrecord
280
1
102
RTVSPropertyOp0
70
1
102
RTVSPropertyOp1
70
1
102
RTVSPropertyOp2
70
1
102
RTVSPropertyOp3
70
1
102
RTVSPropertyOp4
70
1
102
RTVSPropertyOp5
70
1
102
RTVSPropertyOp6
70
1
102
RTVSPropertyOp7
70
1
102
RTVSPropertyOp8
70
1
102
RTVSPropertyOp9
70
1
102
RTVSPropertyOp10
70
1
102
RTVSPropertyOp11
70
1
102
RTVSPropertyOp12
70
1
102
RTVSPropertyOp13
70
1
102
RTVSPropertyOp14
70
1
102
RTVSPropertyOp15
70
1
102
RTVSPropertyOp16
70
1
102
RTVSPropertyOp17
70
1
102
RTVSPropertyOp18
70
1
102
RTVSPropertyOp19
70
1
102
RTVSPropertyOp20
70
1
102
RTVSPropertyOp21
70
1
102
RTVSPropertyOp22
70
1
102
RTVSPropertyOp23
70
1
102
RTVSPropertyOp24
70
1
102
RTVSPropertyOp25
70
1
102
RTVSPropertyOp26
70
1
102
RTVSPropertyOp27
70
1
0
XRECORD
5
1081
102
{ACAD_REACTORS
330
1080
102
}
330
1080
100
AcDbXrecord
280
1
102
RTVSPropertyOp0
70
1
102
RTVSPropertyOp1
70
1
102
RTVSPropertyOp2
70
1
102
RTVSPropertyOp3
70
1
102
RTVSPropertyOp4
70
1
102
RTVSPropertyOp5
70
1
102
RTVSPropertyOp6
70
1
102
RTVSPropertyOp7
70
1
102
RTVSPropertyOp8
70
1
102
RTVSPropertyOp9
70
1
102
RTVSPropertyOp10
70
1
102
RTVSPropertyOp11
70
1
102
RTVSPropertyOp12
70
1
102
RTVSPropertyOp13
70
1
102
RTVSPropertyOp14
70
1
102
RTVSPropertyOp15
70
1
102
RTVSPropertyOp16
70
1
102
RTVSPropertyOp17
70
1
102
RTVSPropertyOp18
70
1
102
RTVSPropertyOp19
70
1
102
RTVSPropertyOp20
70
1
102
RTVSPropertyOp21
70
1
102
RTVSPropertyOp22
70
1
102
RTVSPropertyOp23
70
1
102
RTVSPropertyOp24
70
1
102
RTVSPropertyOp25
70
1
102
RTVSPropertyOp26
70
1
102
RTVSPropertyOp27
70
1
0
XRECORD
5
1083
102
{ACAD_REACTORS
330
1082
102
}
330
1082
100
AcDbXrecord
280
1
102
RTVSPropertyOp0
70
1
102
RTVSPropertyOp1
70
1
102
RTVSPropertyOp2
70
1
102
RTVSPropertyOp3
70
1
102
RTVSPropertyOp4
70
1
102
RTVSPropertyOp5
70
1
102
RTVSPropertyOp6
70
1
102
RTVSPropertyOp7
70
1
102
RTVSPropertyOp8
70
1
102
RTVSPropertyOp9
70
1
102
RTVSPropertyOp10
70
1
102
RTVSPropertyOp11
70
1
102
RTVSPropertyOp12
70
1
102
RTVSPropertyOp13
70
1
102
RTVSPropertyOp14
70
1
102
RTVSPropertyOp15
70
1
102
RTVSPropertyOp16
70
1
102
RTVSPropertyOp17
70
1
102
RTVSPropertyOp18
70
1
102
RTVSPropertyOp19
70
1
102
RTVSPropertyOp20
70
1
102
RTVSPropertyOp21
70
1
102
RTVSPropertyOp22
70
1
102
RTVSPropertyOp23
70
1
102
RTVSPropertyOp24
70
1
102
RTVSPropertyOp25
70
1
102
RTVSPropertyOp26
70
1
102
RTVSPropertyOp27
70
1
0
XRECORD
5
1085
102
{ACAD_REACTORS
330
1084
102
}
330
1084
100
AcDbXrecord
280
1
102
RTVSPropertyOp0
70
1
102
RTVSPropertyOp1
70
1
102
RTVSPropertyOp2
70
1
102
RTVSPropertyOp3
70
1
102
RTVSPropertyOp4
70
1
102
RTVSPropertyOp5
70
1
102
RTVSPropertyOp6
70
1
102
RTVSPropertyOp7
70
1
102
RTVSPropertyOp8
70
1
102
RTVSPropertyOp9
70
1
102
RTVSPropertyOp10
70
1
102
RTVSPropertyOp11
70
1
102
RTVSPropertyOp12
70
1
102
RTVSPropertyOp13
70
1
102
RTVSPropertyOp14
70
1
102
RTVSPropertyOp15
70
1
102
RTVSPropertyOp16
70
1
102
RTVSPropertyOp17
70
1
102
RTVSPropertyOp18
70
1
102
RTVSPropertyOp19
70
1
102
RTVSPropertyOp20
70
1
102
RTVSPropertyOp21
70
1
102
RTVSPropertyOp22
70
1
102
RTVSPropertyOp23
70
1
102
RTVSPropertyOp24
70
1
102
RTVSPropertyOp25
70
1
102
RTVSPropertyOp26
70
1
102
RTVSPropertyOp27
70
1
0
XRECORD
5
1087
102
{ACAD_REACTORS
330
1086
102
}
330
1086
100
AcDbXrecord
280
1
102
RTVSPropertyOp0
70
1
102
RTVSPropertyOp1
70
1
102
RTVSPropertyOp2
70
1
102
RTVSPropertyOp3
70
1
102
RTVSPropertyOp4
70
1
102
RTVSPropertyOp5
70
1
102
RTVSPropertyOp6
70
1
102
RTVSPropertyOp7
70
1
102
RTVSPropertyOp8
70
1
102
RTVSPropertyOp9
70
1
102
RTVSPropertyOp10
70
1
102
RTVSPropertyOp11
70
1
102
RTVSPropertyOp12
70
1
102
RTVSPropertyOp13
70
1
102
RTVSPropertyOp14
70
1
102
RTVSPropertyOp15
70
1
102
RTVSPropertyOp16
70
1
102
RTVSPropertyOp17
70
1
102
RTVSPropertyOp18
70
1
102
RTVSPropertyOp19
70
1
102
RTVSPropertyOp20
70
1
102
RTVSPropertyOp21
70
1
102
RTVSPropertyOp22
70
1
102
RTVSPropertyOp23
70
1
102
RTVSPropertyOp24
70
1
102
RTVSPropertyOp25
70
1
102
RTVSPropertyOp26
70
1
102
RTVSPropertyOp27
70
1
0
XRECORD
5
10A1
102
{ACAD_REACTORS
330
10A0
102
}
330
10A0
100
AcDbXrecord
280
1
102
RTVSPropertyOp0
70
0
102
RTVSPropertyOp1
70
0
102
RTVSPropertyOp2
70
0
102
RTVSPropertyOp3
70
0
102
RTVSPropertyOp4
70
0
102
RTVSPropertyOp5
70
0
102
RTVSPropertyOp6
70
0
102
RTVSPropertyOp7
70
0
102
RTVSPropertyOp8
70
0
102
RTVSPropertyOp9
70
0
102
RTVSPropertyOp10
70
0
102
RTVSPropertyOp11
70
0
102
RTVSPropertyOp12
70
0
102
RTVSPropertyOp13
70
0
102
RTVSPropertyOp14
70
2
102
RTVSPropertyOp15
70
0
102
RTVSPropertyOp16
70
0
102
RTVSPropertyOp17
70
0
102
RTVSPropertyOp18
70
0
102
RTVSPropertyOp19
70
0
102
RTVSPropertyOp20
70
0
102
RTVSPropertyOp21
70
0
102
RTVSPropertyOp22
70
0
102
RTVSPropertyOp23
70
0
102
RTVSPropertyOp24
70
0
102
RTVSPropertyOp25
70
0
102
RTVSPropertyOp26
70
0
102
RTVSPropertyOp27
70
0
0
XRECORD
5
109B
102
{ACAD_REACTORS
330
109A
102
}
330
109A
100
AcDbXrecord
280
1
102
RTVSPropertyOp0
70
1
102
RTVSPropertyOp1
70
1
102
RTVSPropertyOp2
70
1
102
RTVSPropertyOp3
70
1
102
RTVSPropertyOp4
70
1
102
RTVSPropertyOp5
70
1
102
RTVSPropertyOp6
70
1
102
RTVSPropertyOp7
70
1
102
RTVSPropertyOp8
70
1
102
RTVSPropertyOp9
70
1
102
RTVSPropertyOp10
70
1
102
RTVSPropertyOp11
70
1
102
RTVSPropertyOp12
70
1
102
RTVSPropertyOp13
70
1
102
RTVSPropertyOp14
70
1
102
RTVSPropertyOp15
70
1
102
RTVSPropertyOp16
70
1
102
RTVSPropertyOp17
70
1
102
RTVSPropertyOp18
70
1
102
RTVSPropertyOp19
70
1
102
RTVSPropertyOp20
70
1
102
RTVSPropertyOp21
70
1
102
RTVSPropertyOp22
70
1
102
RTVSPropertyOp23
70
1
102
RTVSPropertyOp24
70
1
102
RTVSPropertyOp25
70
1
102
RTVSPropertyOp26
70
1
102
RTVSPropertyOp27
70
1
0
XRECORD
5
10A3
102
{ACAD_REACTORS
330
10A2
102
}
330
10A2
100
AcDbXrecord
280
1
102
RTVSPropertyOp0
70
0
102
RTVSPropertyOp1
70
0
102
RTVSPropertyOp2
70
0
102
RTVSPropertyOp3
70
0
102
RTVSPropertyOp4
70
0
102
RTVSPropertyOp5
70
0
102
RTVSPropertyOp6
70
0
102
RTVSPropertyOp7
70
0
102
RTVSPropertyOp8
70
0
102
RTVSPropertyOp9
70
0
102
RTVSPropertyOp10
70
0
102
RTVSPropertyOp11
70
0
102
RTVSPropertyOp12
70
0
102
RTVSPropertyOp13
70
0
102
RTVSPropertyOp14
70
2
102
RTVSPropertyOp15
70
0
102
RTVSPropertyOp16
70
0
102
RTVSPropertyOp17
70
0
102
RTVSPropertyOp18
70
0
102
RTVSPropertyOp19
70
0
102
RTVSPropertyOp20
70
0
102
RTVSPropertyOp21
70
0
102
RTVSPropertyOp22
70
0
102
RTVSPropertyOp23
70
0
102
RTVSPropertyOp24
70
0
102
RTVSPropertyOp25
70
0
102
RTVSPropertyOp26
70
0
102
RTVSPropertyOp27
70
0
0
XRECORD
5
1093
102
{ACAD_REACTORS
330
1092
102
}
330
1092
100
AcDbXrecord
280
1
102
RTVSPropertyOp0
70
1
102
RTVSPropertyOp1
70
1
102
RTVSPropertyOp2
70
1
102
RTVSPropertyOp3
70
1
102
RTVSPropertyOp4
70
1
102
RTVSPropertyOp5
70
1
102
RTVSPropertyOp6
70
1
102
RTVSPropertyOp7
70
1
102
RTVSPropertyOp8
70
1
102
RTVSPropertyOp9
70
1
102
RTVSPropertyOp10
70
1
102
RTVSPropertyOp11
70
1
102
RTVSPropertyOp12
70
1
102
RTVSPropertyOp13
70
1
102
RTVSPropertyOp14
70
1
102
RTVSPropertyOp15
70
1
102
RTVSPropertyOp16
70
1
102
RTVSPropertyOp17
70
1
102
RTVSPropertyOp18
70
1
102
RTVSPropertyOp19
70
1
102
RTVSPropertyOp20
70
1
102
RTVSPropertyOp21
70
1
102
RTVSPropertyOp22
70
1
102
RTVSPropertyOp23
70
1
102
RTVSPropertyOp24
70
1
102
RTVSPropertyOp25
70
1
102
RTVSPropertyOp26
70
1
102
RTVSPropertyOp27
70
1
0
XRECORD
5
1099
102
{ACAD_REACTORS
330
1098
102
}
330
1098
100
AcDbXrecord
280
1
102
RTVSPropertyOp0
70
1
102
RTVSPropertyOp1
70
1
102
RTVSPropertyOp2
70
1
102
RTVSPropertyOp3
70
1
102
RTVSPropertyOp4
70
1
102
RTVSPropertyOp5
70
1
102
RTVSPropertyOp6
70
1
102
RTVSPropertyOp7
70
1
102
RTVSPropertyOp8
70
1
102
RTVSPropertyOp9
70
1
102
RTVSPropertyOp10
70
1
102
RTVSPropertyOp11
70
1
102
RTVSPropertyOp12
70
1
102
RTVSPropertyOp13
70
1
102
RTVSPropertyOp14
70
1
102
RTVSPropertyOp15
70
1
102
RTVSPropertyOp16
70
1
102
RTVSPropertyOp17
70
1
102
RTVSPropertyOp18
70
1
102
RTVSPropertyOp19
70
1
102
RTVSPropertyOp20
70
1
102
RTVSPropertyOp21
70
1
102
RTVSPropertyOp22
70
1
102
RTVSPropertyOp23
70
1
102
RTVSPropertyOp24
70
1
102
RTVSPropertyOp25
70
1
102
RTVSPropertyOp26
70
1
102
RTVSPropertyOp27
70
1
0
ENDSEC
0
EOF
