0
SECTION
2
HEADER
9
$ACADVER
1
AC1015
9
$ACADMAINTVER
70
20
9
$DWGCODEPAGE
3
ANSI_1252
9
$INSBASE
10
0.0
20
0.0
30
0.0
9
$EXTMIN
10
-150.000000000000
20
-105.000000000000
30
0.0
9
$EXTMAX
10
150.000000000000
20
105.000000000000
30
0.0
9
$LIMMIN
10
0.0
20
0.0
9
$LIMMAX
10
12.0
20
9.0
9
$ORTHOMODE
70
0
9
$REGENMODE
70
1
9
$FILLMODE
70
1
9
$QTEXTMODE
70
0
9
$MIRRTEXT
70
1
9
$LTSCALE
40
1.0
9
$ATTMODE
70
1
9
$TEXTSIZE
40
0.2
9
$TRACEWID
40
0.05
9
$TEXTSTYLE
7
Standard
9
$CLAYER
8
0
9
$CELTYPE
6
ByLayer
9
$CECOLOR
62
256
9
$CELTSCALE
40
1.0
9
$DISPSILH
70
0
9
$DIMSCALE
40
1.0
9
$DIMASZ
40
2.5
9
$DIMEXO
40
0.625
9
$DIMDLI
40
0.38
9
$DIMRND
40
0.0
9
$DIMDLE
40
0.0
9
$DIMEXE
40
1.25
9
$DIMTP
40
0.0
9
$DIMTM
40
0.000000001
9
$DIMTXT
40
2.5
9
$DIMCEN
40
0.09
9
$DIMTSZ
40
0.0
9
$DIMTOL
70
1
9
$DIMLIM
70
0
9
$DIMTIH
70
0
9
$DIMTOH
70
0
9
$DIMSE1
70
0
9
$DIMSE2
70
0
9
$DIMTAD
70
1
9
$DIMZIN
70
0
9
$DIMBLK
1
VDDIM_DEFAULT
9
$DIMASO
70
1
9
$DIMSHO
70
1
9
$DIMPOST
1

9
$DIMAPOST
1

9
$DIMALT
70
0
9
$DIMALTD
70
2
9
$DIMALTF
40
25.4
9
$DIMLFAC
40
1.00000000000000
9
$DIMTOFL
70
0
9
$DIMTVP
40
0.0
9
$DIMTIX
70
0
9
$DIMSOXD
70
0
9
$DIMSAH
70
0
9
$DIMBLK1
1

9
$DIMBLK2
1

9
$DIMSTYLE
2
BEM-ISBE
9
$DIMCLRD
70
0
9
$DIMCLRE
70
0
9
$DIMCLRT
70
0
9
$DIMTFAC
40
0.5
9
$DIMGAP
40
0.625
9
$DIMJUST
70
0
9
$DIMSD1
70
0
9
$DIMSD2
70
0
9
$DIMTOLJ
70
1
9
$DIMTZIN
70
0
9
$DIMALTZ
70
0
9
$DIMALTTZ
70
0
9
$DIMUPT
70
0
9
$DIMDEC
70
3
9
$DIMTDEC
70
3
9
$DIMALTU
70
2
9
$DIMALTTD
70
2
9
$DIMTXSTY
7
Standard
9
$DIMAUNIT
70
0
9
$DIMADEC
70
3
9
$DIMALTRND
40
0.0
9
$DIMAZIN
70
0
9
$DIMDSEP
70
46
9
$DIMATFIT
70
3
9
$DIMFRAC
70
0
9
$DIMLDRBLK
1

9
$DIMLUNIT
70
2
9
$DIMLWD
70
-2
9
$DIMLWE
70
-2
9
$DIMTMOVE
70
0
9
$LUNITS
70
2
9
$LUPREC
70
4
9
$SKETCHINC
40
0.1
9
$FILLETRAD
40
0.5
9
$AUNITS
70
0
9
$AUPREC
70
0
9
$MENU
1
.
9
$ELEVATION
40
0.0
9
$PELEVATION
40
0.0
9
$THICKNESS
40
0.0
9
$LIMCHECK
70
0
9
$CHAMFERA
40
0.5
9
$CHAMFERB
40
0.5
9
$CHAMFERC
40
1.0
9
$CHAMFERD
40
0.0
9
$SKPOLY
70
0
9
$TDCREATE
40
0.0
9
$TDUCREATE
40
0.0
9
$TDUPDATE
40
0.0
9
$TDUUPDATE
40
0.0
9
$TDINDWG
40
0.0
9
$TDUSRTIMER
40
0.0
9
$USRTIMER
70
1
9
$ANGBASE
50
0.0
9
$ANGDIR
70
0
9
$PDMODE
70
0
9
$PDSIZE
40
0.0
9
$PLINEWID
40
0.0
9
$SPLFRAME
70
0
9
$SPLINETYPE
70
6
9
$SPLINESEGS
70
8
9
$HANDSEED
5
10AB
9
$SURFTAB1
70
6
9
$SURFTAB2
70
6
9
$SURFTYPE
70
6
9
$SURFU
70
6
9
$SURFV
70
6
9
$UCSBASE
2

9
$UCSNAME
2

9
$UCSORG
10
0.0
20
0.0
30
0.0
9
$UCSXDIR
10
1.0
20
0.0
30
0.0
9
$UCSYDIR
10
0.0
20
1.0
30
0.0
9
$UCSORTHOREF
2

9
$UCSORTHOVIEW
70
0
9
$UCSORGTOP
10
0.0
20
0.0
30
0.0
9
$UCSORGBOTTOM
10
0.0
20
0.0
30
0.0
9
$UCSORGLEFT
10
0.0
20
0.0
30
0.0
9
$UCSORGRIGHT
10
0.0
20
0.0
30
0.0
9
$UCSORGFRONT
10
0.0
20
0.0
30
0.0
9
$UCSORGBACK
10
0.0
20
0.0
30
0.0
9
$PUCSBASE
2

9
$PUCSNAME
2

9
$PUCSORG
10
0.0
20
0.0
30
0.0
9
$PUCSXDIR
10
1.0
20
0.0
30
0.0
9
$PUCSYDIR
10
0.0
20
1.0
30
0.0
9
$PUCSORTHOREF
2

9
$PUCSORTHOVIEW
70
0
9
$PUCSORGTOP
10
0.0
20
0.0
30
0.0
9
$PUCSORGBOTTOM
10
0.0
20
0.0
30
0.0
9
$PUCSORGLEFT
10
0.0
20
0.0
30
0.0
9
$PUCSORGRIGHT
10
0.0
20
0.0
30
0.0
9
$PUCSORGFRONT
10
0.0
20
0.0
30
0.0
9
$PUCSORGBACK
10
0.0
20
0.0
30
0.0
9
$USERI1
70
0
9
$USERI2
70
0
9
$USERI3
70
0
9
$USERI4
70
0
9
$USERI5
70
0
9
$USERR1
40
0.0
9
$USERR2
40
0.0
9
$USERR3
40
0.0
9
$USERR4
40
0.0
9
$USERR5
40
0.0
9
$WORLDVIEW
70
1
9
$SHADEDGE
70
3
9
$SHADEDIF
70
70
9
$TILEMODE
70
1
9
$MAXACTVP
70
64
9
$PINSBASE
10
0.0
20
0.0
30
0.0
9
$PLIMCHECK
70
0
9
$PEXTMIN
10
1.000000000000000E+20
20
1.000000000000000E+20
30
1.000000000000000E+20
9
$PEXTMAX
10
-1.000000000000000E+20
20
-1.000000000000000E+20
30
-1.000000000000000E+20
9
$PLIMMIN
10
0.0
20
0.0
9
$PLIMMAX
10
12.0
20
9.0
9
$UNITMODE
70
0
9
$VISRETAIN
70
1
9
$PLINEGEN
70
0
9
$PSLTSCALE
70
1
9
$TREEDEPTH
70
3020
9
$CMLSTYLE
2
Standard
9
$CMLJUST
70
0
9
$CMLSCALE
40
1.0
9
$PROXYGRAPHICS
70
1
9
$MEASUREMENT
70
0
9
$CELWEIGHT
370
-1
9
$ENDCAPS
280
0
9
$JOINSTYLE
280
0
9
$LWDISPLAY
290
0
9
$INSUNITS
70
4
9
$HYPERLINKBASE
1

9
$STYLESHEET
1

9
$XEDIT
290
1
9
$CEPSNTYPE
380
0
9
$PSTYLEMODE
290
0
9
$FINGERPRINTGUID
2
{FAEB1C30-E019-11D5-929B-00C0DF256EC4}
9
$VERSIONGUID
2
{04C5C4E4-4947-4D90-8812-D401569E61F7}
9
$EXTNAMES
290
1
9
$PSVPSCALE
40
0.0
9
$OLESTARTUP
290
0
0
ENDSEC
0
SECTION
2
CLASSES
0
CLASS
1
ACDBDICTIONARYWDFLT
2
AcDbDictionaryWithDefault
3
ObjectDBX Classes
90
0
280
0
281
0
0
CLASS
1
ACDBPLACEHOLDER
2
AcDbPlaceHolder
3
ObjectDBX Classes
90
0
280
0
281
0
0
CLASS
1
LAYOUT
2
AcDbLayout
3
ObjectDBX Classes
90
0
280
0
281
0
0
CLASS
1
MATERIAL
2
AcDbMaterial
3
ObjectDBX Classes
90
1153
280
0
281
0
0
CLASS
1
VISUALSTYLE
2
AcDbVisualStyle
3
ObjectDBX Classes
90
4095
280
0
281
0
0
CLASS
1
TABLESTYLE
2
AcDbTableStyle
3
ObjectDBX Classes
90
4095
280
0
281
0
0
CLASS
1
SCALE
2
AcDbScale
3
ObjectDBX Classes
90
1153
280
0
281
0
0
CLASS
1
MLEADERSTYLE
2
AcDbMLeaderStyle
3
ACDB_MLEADERSTYLE_CLASS
90
4095
280
0
281
0
0
CLASS
1
DICTIONARYVAR
2
AcDbDictionaryVar
3
ObjectDBX Classes
90
0
280
0
281
0
0
CLASS
1
CELLSTYLEMAP
2
AcDbCellStyleMap
3
ObjectDBX Classes
90
1152
280
0
281
0
0
ENDSEC
0
SECTION
2
TABLES
0
TABLE
2
VPORT
5
24A
330
0
100
AcDbSymbolTable
70
1
0
VPORT
5
26B
330
24A
100
AcDbSymbolTableRecord
100
AcDbViewportTableRecord
2
*Active
70
0
10
0.0
20
0.0
11
1.0
21
1.0
12
0.000000000000000
22
0.000000000000000
13
0.0
23
0.0
14
10.0
24
10.0
15
10.0
25
10.0
16
0.0
26
0.0
36
1.0
17
0.0
27
0.0
37
0.0
40
210.000000000000
41
1.42857142857143
42
1.0
43
0.0
44
0.0
50
0.0
51
0.0000000000007958
71
0
72
100
73
1
74
3
75
0
76
0
77
0
78
1
281
0
65
1
110
0.0
120
0.0
130
0.0
111
1.0
121
0.0
131
0.0
112
0.0
122
1.0
132
0.0
79
0
146
0.0
0
ENDTAB
0
TABLE
2
LTYPE
5
247
330
0
100
AcDbSymbolTable
70
25
0
LTYPE
5
256
330
247
100
AcDbSymbolTableRecord
100
AcDbLinetypeTableRecord
2
ByBlock
70
0
3

72
65
73
0
40
0.0
0
LTYPE
5
257
330
247
100
AcDbSymbolTableRecord
100
AcDbLinetypeTableRecord
2
ByLayer
70
0
3

72
65
73
0
40
0.0
0
LTYPE
5
258
330
247
100
AcDbSymbolTableRecord
100
AcDbLinetypeTableRecord
2
Continuous
70
0
3
Solid line
72
65
73
0
40
0.0
0
LTYPE
5
273
330
247
100
AcDbSymbolTableRecord
100
AcDbLinetypeTableRecord
2
CENTER
70
0
3
Center ____ _ ____ _ ____ _ ____ _ ____ _ ____
72
65
73
4
40
2.0
49
1.25
74
0
49
-0.25
74
0
49
0.25
74
0
49
-0.25
74
0
0
LTYPE
5
274
330
247
100
AcDbSymbolTableRecord
100
AcDbLinetypeTableRecord
2
DASHDOT
70
0
3
Dashdot __ . __ . __ . __ . __ . __ . __ . __
72
65
73
4
40
1.0
49
0.5
74
0
49
-0.25
74
0
49
0.0
74
0
49
-0.25
74
0
0
LTYPE
5
275
330
247
100
AcDbSymbolTableRecord
100
AcDbLinetypeTableRecord
2
DASHED
70
0
3
Dashed __ __ __ __ __ __ __ __ __ __ __ __ __ _
72
65
73
2
40
0.75
49
0.5
74
0
49
-0.25
74
0
0
LTYPE
5
276
330
247
100
AcDbSymbolTableRecord
100
AcDbLinetypeTableRecord
2
HIDDEN
70
0
3
Hidden __ __ __ __ __ __ __ __ __ __ __ __ __ __
72
65
73
2
40
0.375
49
0.25
74
0
49
-0.125
74
0
0
LTYPE
5
277
330
247
100
AcDbSymbolTableRecord
100
AcDbLinetypeTableRecord
2
HIDDEN2
70
0
3
Hidden2 _ _ _ _ _ _ _ _ _ _ _ _ _ _ _ _ _
72
65
73
2
40
0.1875
49
0.125
74
0
49
-0.0625
74
0
0
LTYPE
5
278
330
247
100
AcDbSymbolTableRecord
100
AcDbLinetypeTableRecord
2
BORDER
70
0
3
Border __ __ . __ __ . __ __ . __ __ . __ __ .
72
65
73
6
40
1.75
49
0.5
74
0
49
-0.25
74
0
49
0.5
74
0
49
-0.25
74
0
49
0.0
74
0
49
-0.25
74
0
0
LTYPE
5
279
330
247
100
AcDbSymbolTableRecord
100
AcDbLinetypeTableRecord
2
BORDER2
70
0
3
Border2 __.__.__.__.__.__.__.__.__.__.__.
72
65
73
6
40
0.875
49
0.25
74
0
49
-0.125
74
0
49
0.25
74
0
49
-0.125
74
0
49
0.0
74
0
49
-0.125
74
0
0
LTYPE
5
27A
330
247
100
AcDbSymbolTableRecord
100
AcDbLinetypeTableRecord
2
BORDERX2
70
0
3
Borderx2  ____  ____  .  ____  ____  .  ___
72
65
73
6
40
3.5
49
1.0
74
0
49
-0.5
74
0
49
1.0
74
0
49
-0.5
74
0
49
0.0
74
0
49
-0.5
74
0
0
LTYPE
5
27B
330
247
100
AcDbSymbolTableRecord
100
AcDbLinetypeTableRecord
2
CENTER2
70
0
3
Center2  ___ _ ___ _ ___ _ ___ _ ___ _ ___
72
65
73
4
40
1.125
49
0.75
74
0
49
-0.125
74
0
49
0.125
74
0
49
-0.125
74
0
0
LTYPE
5
27C
330
247
100
AcDbSymbolTableRecord
100
AcDbLinetypeTableRecord
2
CENTERX2
70
0
3
Centerx2  ________  __  ________  __  _____
72
65
73
4
40
4.0
49
2.5
74
0
49
-0.5
74
0
49
0.5
74
0
49
-0.5
74
0
0
LTYPE
5
27D
330
247
100
AcDbSymbolTableRecord
100
AcDbLinetypeTableRecord
2
DASHDOT2
70
0
3
Dashdot2  _._._._._._._._._._._._._._._.
72
65
73
4
40
0.5
49
0.25
74
0
49
-0.125
74
0
49
0.0
74
0
49
-0.125
74
0
0
LTYPE
5
27E
330
247
100
AcDbSymbolTableRecord
100
AcDbLinetypeTableRecord
2
DASHDOTX2
70
0
3
Dashdotx2 ____  .  ____  .  ____  .  ___
72
65
73
4
40
2.0
49
1.0
74
0
49
-0.5
74
0
49
0.0
74
0
49
-0.5
74
0
0
LTYPE
5
27F
330
247
100
AcDbSymbolTableRecord
100
AcDbLinetypeTableRecord
2
DASHED2
70
0
3
Dashed2 _ _ _ _ _ _ _ _ _ _ _ _ _ _ _ _ _
72
65
73
2
40
0.375
49
0.25
74
0
49
-0.125
74
0
0
LTYPE
5
280
330
247
100
AcDbSymbolTableRecord
100
AcDbLinetypeTableRecord
2
DASHEDX2
70
0
3
Dashedx2 ____  ____  ____  ____  ____  ___
72
65
73
2
40
1.5
49
1.0
74
0
49
-0.5
74
0
0
LTYPE
5
281
330
247
100
AcDbSymbolTableRecord
100
AcDbLinetypeTableRecord
2
DIVIDE
70
0
3
Divide ____ . . ____ . . ____ . . ____ . . ____
72
65
73
6
40
1.25
49
0.5
74
0
49
-0.25
74
0
49
0.0
74
0
49
-0.25
74
0
49
0.0
74
0
49
-0.25
74
0
0
LTYPE
5
282
330
247
100
AcDbSymbolTableRecord
100
AcDbLinetypeTableRecord
2
DIVIDE2
70
0
3
Divide2 __..__..__..__..__..__..__..__.._
72
65
73
6
40
0.625
49
0.25
74
0
49
-0.125
74
0
49
0.0
74
0
49
-0.125
74
0
49
0.0
74
0
49
-0.125
74
0
0
LTYPE
5
283
330
247
100
AcDbSymbolTableRecord
100
AcDbLinetypeTableRecord
2
DIVIDEX2
70
0
3
Dividex2 ________  .  .  ________  .  .  _
72
65
73
6
40
2.5
49
1.0
74
0
49
-0.5
74
0
49
0.0
74
0
49
-0.5
74
0
49
0.0
74
0
49
-0.5
74
0
0
LTYPE
5
284
330
247
100
AcDbSymbolTableRecord
100
AcDbLinetypeTableRecord
2
DOT
70
0
3
Dot . . . . . . . . . . . . . . . . . . . . . . . .
72
65
73
2
40
0.25
49
0.0
74
0
49
-0.25
74
0
0
LTYPE
5
285
330
247
100
AcDbSymbolTableRecord
100
AcDbLinetypeTableRecord
2
DOT2
70
0
3
Dot2 ........................................
72
65
73
2
40
0.125
49
0.0
74
0
49
-0.125
74
0
0
LTYPE
5
286
330
247
100
AcDbSymbolTableRecord
100
AcDbLinetypeTableRecord
2
DOTX2
70
0
3
Dotx2 .  .  .  .  .  .  .  .  .  .  .  .  .  .
72
65
73
2
40
0.5
49
0.0
74
0
49
-0.5
74
0
0
LTYPE
5
287
330
247
100
AcDbSymbolTableRecord
100
AcDbLinetypeTableRecord
2
HIDDENX2
70
0
3
Hiddenx2 ____ ____ ____ ____ ____ ____ ____
72
65
73
2
40
0.75
49
0.5
74
0
49
-0.25
74
0
0
LTYPE
5
288
330
247
100
AcDbSymbolTableRecord
100
AcDbLinetypeTableRecord
2
PHANTOM
70
0
3
Phantom ______  __  __  ______  __  __  ______
72
65
73
6
40
2.5
49
1.25
74
0
49
-0.25
74
0
49
0.25
74
0
49
-0.25
74
0
49
0.25
74
0
49
-0.25
74
0
0
LTYPE
5
289
330
247
100
AcDbSymbolTableRecord
100
AcDbLinetypeTableRecord
2
PHANTOM2
70
0
3
Phantom2 ___ _ _ ___ _ _ ___ _ _ ___ _ _
72
65
73
6
40
1.25
49
0.625
74
0
49
-0.125
74
0
49
0.125
74
0
49
-0.125
74
0
49
0.125
74
0
49
-0.125
74
0
0
LTYPE
5
28A
330
247
100
AcDbSymbolTableRecord
100
AcDbLinetypeTableRecord
2
PHANTOMX2
70
0
3
Phantomx2 ____________    ____    ____   _
72
65
73
6
40
5.0
49
2.5
74
0
49
-0.5
74
0
49
0.5
74
0
49
-0.5
74
0
49
0.5
74
0
49
-0.5
74
0
0
ENDTAB
0
TABLE
2
LAYER
5
244
330
0
100
AcDbSymbolTable
70
6
0
LAYER
5
252
330
244
100
AcDbSymbolTableRecord
100
AcDbLayerTableRecord
2
0
70
0
62
7
6
Continuous
370
0
390
251
0
LAYER
5
23F
330
244
100
AcDbSymbolTableRecord
100
AcDbLayerTableRecord
2
Bemassung
70
0
 62
   7
6
Continuous
370
0
390
251
0
LAYER
5
240
330
244
100
AcDbSymbolTableRecord
100
AcDbLayerTableRecord
2
Rahmen
70
0
 62
   7
6
Continuous
370
0
390
251
0
LAYER
5
241
330
244
100
AcDbSymbolTableRecord
100
AcDbLayerTableRecord
2
Geo
70
0
 62
   7
6
Continuous
370
0
390
251
0
LAYER
5
33A
330
244
100
AcDbSymbolTableRecord
100
AcDbLayerTableRecord
2
Defpoints
70
0
62
7
6
Continuous
290
0
370
-3
390
251
0
LAYER
5
57E
330
244
100
AcDbSymbolTableRecord
100
AcDbLayerTableRecord
2
Text
70
0
 62
   7
6
Continuous
370
0
390
251
1001
AcAecLayerStandard
1000

1000

0
ENDTAB
0
TABLE
2
STYLE
5
245
330
0
100
AcDbSymbolTable
70
2
0
STYLE
5
253
330
245
100
AcDbSymbolTableRecord
100
AcDbTextStyleTableRecord
2
Standard
70
0
40
0.0
41
1.0
50
0.0
71
0
42
0.2
3
Arial
4

1001
ACAD
1000
Arial
1071
0
0
STYLE
5
132
330
245
100
AcDbSymbolTableRecord
100
AcDbTextStyleTableRecord
2
Beschriftung
70
0
40
0.0
41
1.0
50
0.0
71
0
42
0.2
3
Arial
4

1001
ACAD
1000
Arial
1071
0
1001
AcadAnnotative
1000
AnnotativeData
1070
1
1070
1
0
ENDTAB
0
TABLE
2
VIEW
5
248
330
0
100
AcDbSymbolTable
70
0
0
ENDTAB
0
TABLE
2
UCS
5
249
330
0
100
AcDbSymbolTable
70
0
0
ENDTAB
0
TABLE
2
APPID
5
24B
330
0
100
AcDbSymbolTable
70
13
0
APPID
5
254
330
24B
100
AcDbSymbolTableRecord
100
AcDbRegAppTableRecord
2
ACAD
70
0
0
APPID
5
26C
330
24B
100
AcDbSymbolTableRecord
100
AcDbRegAppTableRecord
2
VD_INVISIBLE_NOT_FOR_READ
70
0
0
APPID
5
26D
330
24B
100
AcDbSymbolTableRecord
100
AcDbRegAppTableRecord
2
VD_TEMPHATCH
70
0
0
APPID
5
26E
330
24B
100
AcDbSymbolTableRecord
100
AcDbRegAppTableRecord
2
VDEXTRAPARAM
70
0
0
APPID
5
26F
330
24B
100
AcDbSymbolTableRecord
100
AcDbRegAppTableRecord
2
PE_URL
70
0
0
APPID
5
270
330
24B
100
AcDbSymbolTableRecord
100
AcDbRegAppTableRecord
2
VD_UNKNOWN
70
0
0
APPID
5
28F
330
24B
100
AcDbSymbolTableRecord
100
AcDbRegAppTableRecord
2
AcadAnnotative
70
0
0
APPID
5
290
330
24B
100
AcDbSymbolTableRecord
100
AcDbRegAppTableRecord
2
ACAD_DSTYLE_DIMJAG
70
0
0
APPID
5
291
330
24B
100
AcDbSymbolTableRecord
100
AcDbRegAppTableRecord
2
ACAD_DSTYLE_DIMTALN
70
0
0
APPID
5
293
330
24B
100
AcDbSymbolTableRecord
100
AcDbRegAppTableRecord
2
ACAD_PSEXT
70
0
0
APPID
5
42A
330
24B
100
AcDbSymbolTableRecord
100
AcDbRegAppTableRecord
2
ACAD_MLEADERVER
70
0
0
APPID
5
532
330
24B
100
AcDbSymbolTableRecord
100
AcDbRegAppTableRecord
2
ACAD_EXEMPT_FROM_CAD_STANDARDS
70
0
0
APPID
5
57F
330
24B
100
AcDbSymbolTableRecord
100
AcDbRegAppTableRecord
2
AcAecLayerStandard
70
0
0
ENDTAB
0
TABLE
2
DIMSTYLE
5
24C
330
0
100
AcDbSymbolTable
70
3
100
AcDbDimStyleTable
71
2
340
27
340
269
0
DIMSTYLE
105
269
330
24C
100
AcDbSymbolTableRecord
100
AcDbDimStyleTableRecord
2
Standard
70
0
172
1
174
1
288
1
340
253
342
23C
0
DIMSTYLE
105
137
330
24C
100
AcDbSymbolTableRecord
100
AcDbDimStyleTableRecord
2
Beschriftung
70
0
41
2.5
42
0.625
44
1.25
73
0
74
0
77
1
140
2.5
147
0.625
172
1
174
1
271
2
288
1
340
253
342
23C
1001
AcadAnnotative
1000
AnnotativeData
1070
1
1070
1
1001
ACAD_DSTYLE_DIMJAG
1070
388
1040
1.5
1001
ACAD_DSTYLE_DIMTALN
1070
392
1070
0
0
DIMSTYLE
105
27
102
{ACAD_REACTORS
330
F1000D
330
F10012
330
F10003
330
F10008
102
}
330
24C
100
AcDbSymbolTableRecord
100
AcDbDimStyleTableRecord
2
BEM-ISBE
70
0
41
2.5
42
0.625
44
1.25
48
0.000000001
71
1
73
0
74
0
77
1
140
2.5
144
1.00000000000000
146
0.5
147
0.625
171
 3
172
 1
179
 3
271
 3
272
 3
274
 3
340
253
342
23C
1001
ACAD_DSTYLE_DIMJAG
1070
388
1040
1.5
1001
ACAD_DSTYLE_DIMTALN
1070
392
1070
1
0
ENDTAB
0
TABLE
2
BLOCK_RECORD
5
243
330
0
100
AcDbSymbolTable
70
5
0
BLOCK_RECORD
5
261
330
243
100
AcDbSymbolTableRecord
100
AcDbBlockTableRecord
2
*Model_Space
340
FD0
0
BLOCK_RECORD
5
25D
330
243
100
AcDbSymbolTableRecord
100
AcDbBlockTableRecord
2
*Paper_Space
340
FD1
0
BLOCK_RECORD
5
265
330
243
100
AcDbSymbolTableRecord
100
AcDbBlockTableRecord
2
*Paper_Space0
340
0
0
BLOCK_RECORD
5
23C
330
243
100
AcDbSymbolTableRecord
100
AcDbBlockTableRecord
2
VDDIM_DEFAULT
340
0
102
{BLKREFS
102
}
0
BLOCK_RECORD
5
23E
330
243
100
AcDbSymbolTableRecord
100
AcDbBlockTableRecord
2
VDDIM_NONE
340
0
0
BLOCK_RECORD
5
F1000C
330
243
100
AcDbSymbolTableRecord
100
AcDbBlockTableRecord
2
*D5
340
0
0
BLOCK_RECORD
5
F10011
330
243
100
AcDbSymbolTableRecord
100
AcDbBlockTableRecord
2
*D6
340
0
0
BLOCK_RECORD
5
F10002
330
243
100
AcDbSymbolTableRecord
100
AcDbBlockTableRecord
2
*D3
340
0
0
BLOCK_RECORD
5
F10007
330
243
100
AcDbSymbolTableRecord
100
AcDbBlockTableRecord
2
*D4
340
0
0
ENDTAB
0
ENDSEC
0
SECTION
2
BLOCKS
0
BLOCK
5
262
330
261
100
AcDbEntity
8
0
100
AcDbBlockBegin
2
*Model_Space
70
0
10
0.0
20
0.0
30
0.0
3
*Model_Space
1

0
ENDBLK
5
263
330
261
100
AcDbEntity
8
0
100
AcDbBlockEnd
0
BLOCK
5
25E
330
25D
100
AcDbEntity
67
1
8
0
100
AcDbBlockBegin
2
*Paper_Space
70
0
10
0.0
20
0.0
30
0.0
3
*Paper_Space
1

0
ENDBLK
5
25F
330
25D
100
AcDbEntity
67
1
8
0
100
AcDbBlockEnd
0
BLOCK
5
266
330
265
100
AcDbEntity
8
0
100
AcDbBlockBegin
2
*Paper_Space0
70
0
10
0.0
20
0.0
30
0.0
3
*Paper_Space0
1

0
VIEWPORT
5
296
102
{ACAD_XDICTIONARY
360
58E
102
}
330
265
100
AcDbEntity
8
0
60
1
100
AcDbViewport
10
0.0
20
0.0
30
0.0
40
10.0
41
10.0
69
0
12
0.0
22
0.0
13
0.0
23
0.0
14
1.0
24
1.0
15
0.0
25
0.0
16
0.0
26
0.0
36
1.0
17
0.0
27
0.0
37
0.0
42
0.0
43
0.0
44
0.0
45
10.0
50
0.0
51
0.0000000000007958
72
100
90
163872
1

281
0
71
0
74
0
110
0.0
120
0.0
130
0.0
111
1.0
121
0.0
131
0.0
112
0.0
122
1.0
132
0.0
79
0
146
0.0
1001
VD_INVISIBLE_NOT_FOR_READ
1000
VD_INVISIBLE_NOT_FOR_READ
0
VIEWPORT
5
297
102
{ACAD_XDICTIONARY
360
590
102
}
330
265
100
AcDbEntity
8
0
60
1
100
AcDbViewport
10
0.0
20
0.0
30
0.0
40
10.0
41
10.0
69
0
12
0.0
22
0.0
13
0.0
23
0.0
14
1.0
24
1.0
15
0.0
25
0.0
16
0.0
26
0.0
36
1.0
17
0.0
27
0.0
37
0.0
42
0.0
43
0.0
44
0.0
45
10.0
50
0.0
51
0.0000000000007958
72
100
90
163872
1

281
0
71
0
74
0
110
0.0
120
0.0
130
0.0
111
1.0
121
0.0
131
0.0
112
0.0
122
1.0
132
0.0
79
0
146
0.0
1001
VD_INVISIBLE_NOT_FOR_READ
1000
VD_INVISIBLE_NOT_FOR_READ
0
ENDBLK
5
267
330
265
100
AcDbEntity
8
0
100
AcDbBlockEnd
0
BLOCK
5
28B
330
23C
100
AcDbEntity
8
0
100
AcDbBlockBegin
2
VDDIM_DEFAULT
70
0
10
0.0
20
0.0
30
0.0
3
VDDIM_DEFAULT
1

0
LWPOLYLINE
5
23D
330
23C
100
AcDbEntity
8
0
6
Continuous
62
0
100
AcDbPolyline
90
4
70
0
43
0.0
10
0.0
20
0.0
10
-1.0
20
-0.1665
10
-1.0
20
0.1665
10
0.0
20
0.0
1001
VDEXTRAPARAM
1071
1
1071
0
1071
0
1040
1.0
1000

1000

1040
0.0
1040
0.0
0
HATCH
5
292
330
23C
100
AcDbEntity
8
0
6
Continuous
62
0
100
AcDbHatch
10
0.0
20
0.0
30
0.0
210
0.0
220
0.0
230
1.0
2
SOLID
70
1
71
0
91
1
92
2
72
0
73
1
93
3
10
0.0
20
0.0
10
-1.0
20
-0.1665
10
-1.0
20
0.1665
97
0
75
0
76
1
98
1
10
0.0
20
0.0
1001
VDEXTRAPARAM
1071
1
1071
0
1071
0
1040
1.0
1000

1000

1040
0.0
1040
0.0
1001
VD_TEMPHATCH
1000
VD_TEMPHATCH
0
ENDBLK
5
28C
330
23C
100
AcDbEntity
8
0
100
AcDbBlockEnd
0
BLOCK
5
28D
330
23E
100
AcDbEntity
8
0
100
AcDbBlockBegin
2
VDDIM_NONE
70
0
10
0.0
20
0.0
30
0.0
3
VDDIM_NONE
1

0
ENDBLK
5
28E
330
23E
100
AcDbEntity
8
0
100
AcDbBlockEnd
  0
BLOCK
  5
F10016
330
F1000C
100
AcDbEntity
  8
0
100
AcDbBlockBegin
  2
*D5
 70
     1
 10
0.0
 20
0.0
 30
0.0
  3
*D5
  1

  0
LINE
  5
F10017
330
F1000C
100
AcDbEntity
  8
Bemassung
 62
     0
370
    -2
100
AcDbLine
10
-8.20945359930619
20
3.28881179531656
30
0.000000000000000
11
-8.20945359930619
21
-9.21118820468344
31
0.000000000000000
  0
LINE
  5
F10018
330
F1000C
100
AcDbEntity
  8
Bemassung
 62
     0
370
    -2
100
AcDbLine
10
-33.2094535993062
20
-9.21118820468344
30
0.000000000000000
11
-33.2094535993062
21
27.2888117953166
31
0.000000000000000
  0
LINE
  5
F10019
330
F1000C
100
AcDbEntity
  8
Bemassung
 62
     0
370
    -2
100
AcDbLine
10
-8.20945359930619
20
-7.21118820468344
30
0.000000000000000
11
-33.2094535993062
21
-7.21118820468344
31
0.000000000000000
  0
INSERT
  5
F1001A
330
F1000C
100
AcDbEntity
  8
Bemassung
 62
     0
370
    -2
100
AcDbBlockReference
  2
VDDIM_DEFAULT
10
-8.20945359930619
20
-7.21118820468344
30
0.000000000000000
 41
2.50000000000000
 42
2.50000000000000
 43
2.50000000000000
  0
INSERT
  5
F1001B
330
F1000C
100
AcDbEntity
  8
Bemassung
 62
     0
370
    -2
100
AcDbBlockReference
  2
VDDIM_DEFAULT
10
-33.2094535993062
20
-7.21118820468344
30
0.000000000000000
 41
2.50000000000000
 42
2.50000000000000
 43
2.50000000000000
 50
180.000000000000
  0
MTEXT
  5
F1001C
330
F1000C
100
AcDbEntity
  8
Bemassung
 62
     0
100
AcDbMText
10
-20.5810928013877
20
-6.54452153801677
30
0.000000000000000
 40
2.50000000000000
 41
0.0
 71
     8
 72
     1
  1
25
 11
1.00000000000000
 21
0.000000000000000
 31
0.0
 73
     1
 44
1.0
1001
ACAD
1000
MTEXTBEGIN
1070
73
1070
1
1070
44
1040
1.0
1070
74
1070
0
1000
MTEXTEND
  0
POINT
  5
F1001D
330
F1000C
100
AcDbEntity
  8
Bemassung
 62
     0
100
AcDbPoint
10
-8.20945359930619
20
3.28881179531656
30
0.000000000000000
  0
POINT
  5
F1001E
330
F1000C
100
AcDbEntity
  8
Bemassung
 62
     0
100
AcDbPoint
10
-33.2094535993062
20
-9.21118820468344
30
0.000000000000000
  0
ENDBLK
  5
F1001F
330
F1000C
100
AcDbEntity
  8
0
100
AcDbBlockEnd
  0
BLOCK
  5
F10020
330
F10011
100
AcDbEntity
  8
0
100
AcDbBlockBegin
  2
*D6
 70
     1
 10
0.0
 20
0.0
 30
0.0
  3
*D6
  1

  0
LINE
  5
F10021
330
F10011
100
AcDbEntity
  8
Bemassung
 62
     0
370
    -2
100
AcDbLine
10
38.7905464006938
20
14.7888117953166
30
0.000000000000000
11
38.7905464006938
21
27.2888117953166
31
0.000000000000000
  0
LINE
  5
F10022
330
F10011
100
AcDbEntity
  8
Bemassung
 62
     0
370
    -2
100
AcDbLine
10
-33.2094535993062
20
-9.21118820468344
30
0.000000000000000
11
-33.2094535993062
21
27.2888117953166
31
0.000000000000000
  0
LINE
  5
F10023
330
F10011
100
AcDbEntity
  8
Bemassung
 62
     0
370
    -2
100
AcDbLine
10
38.7905464006938
20
25.2888117953166
30
0.000000000000000
11
-33.2094535993062
21
25.2888117953166
31
0.000000000000000
  0
INSERT
  5
F10024
330
F10011
100
AcDbEntity
  8
Bemassung
 62
     0
370
    -2
100
AcDbBlockReference
  2
VDDIM_DEFAULT
10
38.7905464006938
20
25.2888117953166
30
0.000000000000000
 41
2.50000000000000
 42
2.50000000000000
 43
2.50000000000000
  0
INSERT
  5
F10025
330
F10011
100
AcDbEntity
  8
Bemassung
 62
     0
370
    -2
100
AcDbBlockReference
  2
VDDIM_DEFAULT
10
-33.2094535993062
20
25.2888117953166
30
0.000000000000000
 41
2.50000000000000
 42
2.50000000000000
 43
2.50000000000000
 50
180.000000000000
  0
MTEXT
  5
F10026
330
F10011
100
AcDbEntity
  8
Bemassung
 62
     0
100
AcDbMText
10
2.79054640069381
20
25.9554784619832
30
0.000000000000000
 40
2.50000000000000
 41
0.0
 71
     8
 72
     1
  1
72
 11
1.00000000000000
 21
0.000000000000000
 31
0.0
 73
     1
 44
1.0
1001
ACAD
1000
MTEXTBEGIN
1070
73
1070
1
1070
44
1040
1.0
1070
74
1070
0
1000
MTEXTEND
  0
POINT
  5
F10027
330
F10011
100
AcDbEntity
  8
Bemassung
 62
     0
100
AcDbPoint
10
38.7905464006938
20
14.7888117953166
30
0.000000000000000
  0
POINT
  5
F10028
330
F10011
100
AcDbEntity
  8
Bemassung
 62
     0
100
AcDbPoint
10
-33.2094535993062
20
-9.21118820468344
30
0.000000000000000
  0
ENDBLK
  5
F10029
330
F10011
100
AcDbEntity
  8
0
100
AcDbBlockEnd
  0
BLOCK
  5
F1002A
330
F10002
100
AcDbEntity
  8
0
100
AcDbBlockBegin
  2
*D3
 70
     1
 10
0.0
 20
0.0
 30
0.0
  3
*D3
  1

  0
LINE
  5
F1002B
330
F10002
100
AcDbEntity
  8
Bemassung
 62
     0
370
    -2
100
AcDbLine
10
-29.7453519841684
20
3.28881179531656
30
0.000000000000000
11
-45.2094535993062
21
3.28881179531656
31
0.000000000000000
  0
LINE
  5
F1002C
330
F10002
100
AcDbEntity
  8
Bemassung
 62
     0
370
    -2
100
AcDbLine
10
-29.7453519841684
20
15.2888117953166
30
0.000000000000000
11
-45.2094535993062
21
15.2888117953166
31
0.000000000000000
  0
LINE
  5
F1002D
330
F10002
100
AcDbEntity
  8
Bemassung
 62
     0
370
    -2
100
AcDbLine
10
-43.2094535993062
20
3.28881179531656
30
0.000000000000000
11
-43.2094535993062
21
15.2888117953166
31
0.000000000000000
  0
INSERT
  5
F1002E
330
F10002
100
AcDbEntity
  8
Bemassung
 62
     0
370
    -2
100
AcDbBlockReference
  2
VDDIM_DEFAULT
10
-43.2094535993062
20
3.28881179531656
30
0.000000000000000
 41
2.50000000000000
 42
2.50000000000000
 43
2.50000000000000
 50
90.0000000000000
  0
INSERT
  5
F1002F
330
F10002
100
AcDbEntity
  8
Bemassung
 62
     0
370
    -2
100
AcDbBlockReference
  2
VDDIM_DEFAULT
10
-43.2094535993062
20
15.2888117953166
30
0.000000000000000
 41
2.50000000000000
 42
2.50000000000000
 43
2.50000000000000
 50
270.000000000000
  0
MTEXT
  5
F10030
330
F10002
100
AcDbEntity
  8
Bemassung
 62
     0
100
AcDbMText
10
-43.8761202659729
20
9.28881179531656
30
0.000000000000000
 40
2.50000000000000
 41
0.0
 71
     8
 72
     1
  1
Ø12
 11
6.12323399573677e-17
 21
1.00000000000000
 31
0.0
 73
     1
 44
1.0
1001
ACAD
1000
MTEXTBEGIN
1070
73
1070
1
1070
44
1040
1.0
1070
74
1070
0
1000
MTEXTEND
  0
POINT
  5
F10031
330
F10002
100
AcDbEntity
  8
Bemassung
 62
     0
100
AcDbPoint
10
-29.7453519841684
20
3.28881179531656
30
0.000000000000000
  0
POINT
  5
F10032
330
F10002
100
AcDbEntity
  8
Bemassung
 62
     0
100
AcDbPoint
10
-29.7453519841684
20
15.2888117953166
30
0.000000000000000
  0
ENDBLK
  5
F10033
330
F10002
100
AcDbEntity
  8
0
100
AcDbBlockEnd
  0
BLOCK
  5
F10034
330
F10007
100
AcDbEntity
  8
0
100
AcDbBlockBegin
  2
*D4
 70
     1
 10
0.0
 20
0.0
 30
0.0
  3
*D4
  1

  0
LINE
  5
F10035
330
F10007
100
AcDbEntity
  8
Bemassung
 62
     0
370
    -2
100
AcDbLine
10
38.2905464006938
20
3.28881179531656
30
0.000000000000000
11
51.2905464006938
21
3.28881179531656
31
0.000000000000000
  0
LINE
  5
F10036
330
F10007
100
AcDbEntity
  8
Bemassung
 62
     0
370
    -2
100
AcDbLine
10
38.2905464006938
20
15.2888117953166
30
0.000000000000000
11
51.2905464006938
21
15.2888117953166
31
0.000000000000000
  0
LINE
  5
F10037
330
F10007
100
AcDbEntity
  8
Bemassung
 62
     0
370
    -2
100
AcDbLine
10
49.2905464006938
20
3.28881179531656
30
0.000000000000000
11
49.2905464006938
21
15.2888117953166
31
0.000000000000000
  0
INSERT
  5
F10038
330
F10007
100
AcDbEntity
  8
Bemassung
 62
     0
370
    -2
100
AcDbBlockReference
  2
VDDIM_DEFAULT
10
49.2905464006938
20
3.28881179531656
30
0.000000000000000
 41
2.50000000000000
 42
2.50000000000000
 43
2.50000000000000
 50
90.0000000000000
  0
INSERT
  5
F10039
330
F10007
100
AcDbEntity
  8
Bemassung
 62
     0
370
    -2
100
AcDbBlockReference
  2
VDDIM_DEFAULT
10
49.2905464006938
20
15.2888117953166
30
0.000000000000000
 41
2.50000000000000
 42
2.50000000000000
 43
2.50000000000000
 50
270.000000000000
  0
MTEXT
  5
F1003A
330
F10007
100
AcDbEntity
  8
Bemassung
 62
     0
100
AcDbMText
10
48.6238797340271
20
7.65134431916739
30
0.000000000000000
 40
2.50000000000000
 41
0.0
 71
     8
 72
     1
  1
Ø12h6
 11
6.12323399573677e-17
 21
1.00000000000000
 31
0.0
 73
     1
 44
1.0
  0
POINT
  5
F1003B
330
F10007
100
AcDbEntity
  8
Bemassung
 62
     0
100
AcDbPoint
10
38.2905464006938
20
3.28881179531656
30
0.000000000000000
  0
POINT
  5
F1003C
330
F10007
100
AcDbEntity
  8
Bemassung
 62
     0
100
AcDbPoint
10
38.2905464006938
20
15.2888117953166
30
0.000000000000000
  0
ENDBLK
  5
F1003D
330
F10007
100
AcDbEntity
  8
0
100
AcDbBlockEnd
0
ENDSEC
0
SECTION
2
ENTITIES
  0
DIMENSION
  5
F1000D
330
261
100
AcDbEntity
  8
Bemassung
100
AcDbDimension
  2
*D5
10
-33.2094535993062
20
-7.21118820468344
30
0.000000000000000
11
-20.5810928013877
21
-6.54452153801677
31
0.000000000000000
 70
32
 1
25
 71
     8
  3
BEM-ISBE
100
AcDbAlignedDimension
13
-8.20945359930619
23
3.28881179531656
33
0.000000000000000
14
-33.2094535993062
24
-9.21118820468344
34
0.000000000000000
100
AcDbRotatedDimension
1001
ACAD
1000
DSTYLE
1002
{
1070
284
1070
8
1070
78
1070
8
1070
144
1040
1.00000000000000
1070
147
1040
0.625
1070
 72
1070
 0
1070
 71
1070
 0
1002
}
  0
DIMENSION
  5
F10012
330
261
100
AcDbEntity
  8
Bemassung
100
AcDbDimension
  2
*D6
10
-33.2094535993062
20
25.2888117953166
30
0.000000000000000
11
2.79054640069381
21
25.9554784619832
31
0.000000000000000
 70
32
 1
72
 71
     8
  3
BEM-ISBE
100
AcDbAlignedDimension
13
38.7905464006938
23
14.7888117953166
33
0.000000000000000
14
-33.2094535993062
24
-9.21118820468344
34
0.000000000000000
100
AcDbRotatedDimension
1001
ACAD
1000
DSTYLE
1002
{
1070
284
1070
8
1070
78
1070
8
1070
144
1040
1.00000000000000
1070
147
1040
0.625
1070
 72
1070
 0
1070
 71
1070
 0
1002
}
  0
DIMENSION
  5
F10003
330
261
100
AcDbEntity
  8
Bemassung
100
AcDbDimension
  2
*D3
10
-43.2094535993062
20
15.2888117953166
30
0.000000000000000
11
-43.8761202659729
21
9.28881179531656
31
0.000000000000000
 70
32
 1
Ø12
 71
     8
  3
BEM-ISBE
100
AcDbAlignedDimension
13
-29.7453519841684
23
3.28881179531656
33
0.000000000000000
14
-29.7453519841684
24
15.2888117953166
34
0.000000000000000
50
90.0000000000000
100
AcDbRotatedDimension
1001
ACAD
1000
DSTYLE
1002
{
1070
284
1070
8
1070
78
1070
8
1070
144
1040
1.00000000000000
1070
147
1040
0.625
1070
 72
1070
 0
1070
 71
1070
 0
1002
}
  0
DIMENSION
  5
F10008
330
261
100
AcDbEntity
  8
Bemassung
100
AcDbDimension
  2
*D4
10
49.2905464006938
20
15.2888117953166
30
0.000000000000000
11
48.6238797340271
21
7.65134431916739
31
0.000000000000000
 70
32
 1
Ø12h6
 71
     8
  3
BEM-ISBE
100
AcDbAlignedDimension
13
38.2905464006938
23
3.28881179531656
33
0.000000000000000
14
38.2905464006938
24
15.2888117953166
34
0.000000000000000
50
90.0000000000000
100
AcDbRotatedDimension
1001
ACAD
1000
DSTYLE
1002
{
1070
284
1070
8
1070
78
1070
8
1070
144
1040
1.00000000000000
1070
147
1040
0.625
1070
 72
1070
 0
1070
 71
1070
 0
1002
}
  0
LINE
  5
F1003E
330
F1003F
100
AcDbEntity
8
Geo
100
AcDbLine
10
-33.2094535993062
20
9.28881179531656
30
0.000000000000000
11
-29.7453519841684
21
15.2888117953166
31
0.000000000000000
  0
LINE
  5
F10040
330
F10041
100
AcDbEntity
8
Geo
100
AcDbLine
10
-29.7453519841684
20
15.2888117953166
30
0.000000000000000
11
-8.20945359930619
21
15.2888117953166
31
0.000000000000000
  0
LINE
  5
F10042
330
F10043
100
AcDbEntity
8
Geo
100
AcDbLine
10
-8.20945359930619
20
15.2888117953166
30
0.000000000000000
11
38.2905464006938
21
15.2888117953166
31
0.000000000000000
  0
LINE
  5
F10044
330
F10045
100
AcDbEntity
8
Geo
100
AcDbLine
10
38.2905464006938
20
15.2888117953166
30
0.000000000000000
11
38.7905464006938
21
14.7888117953166
31
0.000000000000000
  0
LINE
  5
F10046
330
F10047
100
AcDbEntity
8
Geo
100
AcDbLine
10
-31.9424398470157
20
11.4833439881721
30
0.000000000000000
11
-31.9094535993062
21
11.5404068919419
31
0.000000000000000
  0
LINE
  5
F10048
330
F10049
100
AcDbEntity
8
Geo
100
AcDbLine
10
-31.9094535993062
20
11.5404068919419
30
0.000000000000000
11
-31.8094535993062
21
11.7125135800590
31
0.000000000000000
  0
LINE
  5
F1004A
330
F1004B
100
AcDbEntity
8
Geo
100
AcDbLine
10
-31.8094535993062
20
11.7125135800590
30
0.000000000000000
11
-31.7094535993062
21
11.8833287752525
31
0.000000000000000
  0
LINE
  5
F1004C
330
F1004D
100
AcDbEntity
8
Geo
100
AcDbLine
10
-31.7094535993062
20
11.8833287752525
30
0.000000000000000
11
-31.6094535993062
21
12.0528799097757
31
0.000000000000000
  0
LINE
  5
F1004E
330
F1004F
100
AcDbEntity
8
Geo
100
AcDbLine
10
-31.6094535993062
20
12.0528799097757
30
0.000000000000000
11
-31.5094535993062
21
12.2211765488606
31
0.000000000000000
  0
LINE
  5
F10050
330
F10051
100
AcDbEntity
8
Geo
100
AcDbLine
10
-31.5094535993062
20
12.2211765488606
30
0.000000000000000
11
-31.4094535993062
21
12.3882155653979
31
0.000000000000000
  0
LINE
  5
F10052
330
F10053
100
AcDbEntity
8
Geo
100
AcDbLine
10
-31.4094535993062
20
12.3882155653979
30
0.000000000000000
11
-31.3094535993062
21
12.5539846264820
31
0.000000000000000
  0
LINE
  5
F10054
330
F10055
100
AcDbEntity
8
Geo
100
AcDbLine
10
-31.3094535993062
20
12.5539846264820
30
0.000000000000000
11
-31.2094535993062
21
12.7184646040385
31
0.000000000000000
  0
LINE
  5
F10056
330
F10057
100
AcDbEntity
8
Geo
100
AcDbLine
10
-31.2094535993062
20
12.7184646040385
30
0.000000000000000
11
-31.1094535993062
21
12.8816312797890
31
0.000000000000000
  0
LINE
  5
F10058
330
F10059
100
AcDbEntity
8
Geo
100
AcDbLine
10
-31.1094535993062
20
12.8816312797890
30
0.000000000000000
11
-31.0094535993062
21
13.0434565756306
31
0.000000000000000
  0
LINE
  5
F1005A
330
F1005B
100
AcDbEntity
8
Geo
100
AcDbLine
10
-31.0094535993062
20
13.0434565756306
30
0.000000000000000
11
-30.9094535993062
21
13.2039094576815
31
0.000000000000000
  0
LINE
  5
F1005C
330
F1005D
100
AcDbEntity
8
Geo
100
AcDbLine
10
-30.9094535993062
20
13.2039094576815
30
0.000000000000000
11
-30.8094535993062
21
13.3629566114559
31
0.000000000000000
  0
LINE
  5
F1005E
330
F1005F
100
AcDbEntity
8
Geo
100
AcDbLine
10
-30.8094535993062
20
13.3629566114559
30
0.000000000000000
11
-30.7094535993062
21
13.5205629536549
31
0.000000000000000
  0
LINE
  5
F10060
330
F10061
100
AcDbEntity
8
Geo
100
AcDbLine
10
-30.7094535993062
20
13.5205629536549
30
0.000000000000000
11
-30.6094535993062
21
13.6766920254404
31
0.000000000000000
  0
LINE
  5
F10062
330
F10063
100
AcDbEntity
8
Geo
100
AcDbLine
10
-30.6094535993062
20
13.6766920254404
30
0.000000000000000
11
-30.5094535993062
21
13.8313062984823
31
0.000000000000000
  0
LINE
  5
F10064
330
F10065
100
AcDbEntity
8
Geo
100
AcDbLine
10
-30.5094535993062
20
13.8313062984823
30
0.000000000000000
11
-30.4094535993062
21
13.9843674159520
31
0.000000000000000
  0
LINE
  5
F10066
330
F10067
100
AcDbEntity
8
Geo
100
AcDbLine
10
-30.4094535993062
20
13.9843674159520
30
0.000000000000000
11
-30.3094535993062
21
14.1358363844071
31
0.000000000000000
  0
LINE
  5
F10068
330
F10069
100
AcDbEntity
8
Geo
100
AcDbLine
10
-30.3094535993062
20
14.1358363844071
30
0.000000000000000
11
-30.2094535993062
21
14.2856737281870
31
0.000000000000000
  0
LINE
  5
F1006A
330
F1006B
100
AcDbEntity
8
Geo
100
AcDbLine
10
-30.2094535993062
20
14.2856737281870
30
0.000000000000000
11
-30.1094535993062
21
14.4338396148937
31
0.000000000000000
  0
LINE
  5
F1006C
330
F1006D
100
AcDbEntity
8
Geo
100
AcDbLine
10
-30.1094535993062
20
14.4338396148937
30
0.000000000000000
11
-30.0094535993062
21
14.5802939583566
31
0.000000000000000
  0
LINE
  5
F1006E
330
F1006F
100
AcDbEntity
8
Geo
100
AcDbLine
10
-30.0094535993062
20
14.5802939583566
30
0.000000000000000
11
-29.9094535993062
21
14.7249965039060
31
0.000000000000000
  0
LINE
  5
F10070
330
F10071
100
AcDbEntity
8
Geo
100
AcDbLine
10
-29.9094535993062
20
14.7249965039060
30
0.000000000000000
11
-29.8094535993062
21
14.8679068996328
31
0.000000000000000
  0
LINE
  5
F10072
330
F10073
100
AcDbEntity
8
Geo
100
AcDbLine
10
-29.8094535993062
20
14.8679068996328
30
0.000000000000000
11
-29.7094535993062
21
14.9517382416857
31
0.000000000000000
  0
LINE
  5
F10074
330
F10075
100
AcDbEntity
8
Geo
100
AcDbLine
10
-29.7094535993062
20
14.9517382416857
30
0.000000000000000
11
-29.6094535993062
21
14.9323974261326
31
0.000000000000000
  0
LINE
  5
F10076
330
F10077
100
AcDbEntity
8
Geo
100
AcDbLine
10
-29.6094535993062
20
14.9323974261326
30
0.000000000000000
11
-29.5094535993062
21
14.9125340603865
31
0.000000000000000
  0
LINE
  5
F10078
330
F10079
100
AcDbEntity
8
Geo
100
AcDbLine
10
-29.5094535993062
20
14.9125340603865
30
0.000000000000000
11
-29.4094535993062
21
14.8921499836337
31
0.000000000000000
  0
LINE
  5
F1007A
330
F1007B
100
AcDbEntity
8
Geo
100
AcDbLine
10
-29.4094535993062
20
14.8921499836337
30
0.000000000000000
11
-29.3094535993062
21
14.8712470832741
31
0.000000000000000
  0
LINE
  5
F1007C
330
F1007D
100
AcDbEntity
8
Geo
100
AcDbLine
10
-29.3094535993062
20
14.8712470832741
30
0.000000000000000
11
-29.2094535993062
21
14.8498272947466
31
0.000000000000000
  0
LINE
  5
F1007E
330
F1007F
100
AcDbEntity
8
Geo
100
AcDbLine
10
-29.2094535993062
20
14.8498272947466
30
0.000000000000000
11
-29.1094535993062
21
14.8278926013496
31
0.000000000000000
  0
LINE
  5
F10080
330
F10081
100
AcDbEntity
8
Geo
100
AcDbLine
10
-29.1094535993062
20
14.8278926013496
30
0.000000000000000
11
-29.0094535993062
21
14.8054450340576
31
0.000000000000000
  0
LINE
  5
F10082
330
F10083
100
AcDbEntity
8
Geo
100
AcDbLine
10
-29.0094535993062
20
14.8054450340576
30
0.000000000000000
11
-28.9094535993062
21
14.7824866713330
31
0.000000000000000
  0
LINE
  5
F10084
330
F10085
100
AcDbEntity
8
Geo
100
AcDbLine
10
-28.9094535993062
20
14.7824866713330
30
0.000000000000000
11
-28.8094535993062
21
14.7590196389336
31
0.000000000000000
  0
LINE
  5
F10086
330
F10087
100
AcDbEntity
8
Geo
100
AcDbLine
10
-28.8094535993062
20
14.7590196389336
30
0.000000000000000
11
-28.7094535993062
21
14.7350461097162
31
0.000000000000000
  0
LINE
  5
F10088
330
F10089
100
AcDbEntity
8
Geo
100
AcDbLine
10
-28.7094535993062
20
14.7350461097162
30
0.000000000000000
11
-28.6094535993062
21
14.7105683034348
31
0.000000000000000
  0
LINE
  5
F1008A
330
F1008B
100
AcDbEntity
8
Geo
100
AcDbLine
10
-28.6094535993062
20
14.7105683034348
30
0.000000000000000
11
-28.5094535993062
21
14.6855884865355
31
0.000000000000000
  0
LINE
  5
F1008C
330
F1008D
100
AcDbEntity
8
Geo
100
AcDbLine
10
-28.5094535993062
20
14.6855884865355
30
0.000000000000000
11
-28.4094535993062
21
14.6601089719463
31
0.000000000000000
  0
LINE
  5
F1008E
330
F1008F
100
AcDbEntity
8
Geo
100
AcDbLine
10
-28.4094535993062
20
14.6601089719463
30
0.000000000000000
11
-28.3094535993062
21
14.6341321188636
31
0.000000000000000
  0
LINE
  5
F10090
330
F10091
100
AcDbEntity
8
Geo
100
AcDbLine
10
-28.3094535993062
20
14.6341321188636
30
0.000000000000000
11
-28.2094535993062
21
14.6076603325327
31
0.000000000000000
  0
LINE
  5
F10092
330
F10093
100
AcDbEntity
8
Geo
100
AcDbLine
10
-28.2094535993062
20
14.6076603325327
30
0.000000000000000
11
-28.1094535993062
21
14.5806960640263
31
0.000000000000000
  0
LINE
  5
F10094
330
F10095
100
AcDbEntity
8
Geo
100
AcDbLine
10
-28.1094535993062
20
14.5806960640263
30
0.000000000000000
11
-28.0094535993062
21
14.5532418100164
31
0.000000000000000
  0
LINE
  5
F10096
330
F10097
100
AcDbEntity
8
Geo
100
AcDbLine
10
-28.0094535993062
20
14.5532418100164
30
0.000000000000000
11
-27.9094535993062
21
14.5253001125442
31
0.000000000000000
  0
LINE
  5
F10098
330
F10099
100
AcDbEntity
8
Geo
100
AcDbLine
10
-27.9094535993062
20
14.5253001125442
30
0.000000000000000
11
-27.8094535993062
21
14.4968735587837
31
0.000000000000000
  0
LINE
  5
F1009A
330
F1009B
100
AcDbEntity
8
Geo
100
AcDbLine
10
-27.8094535993062
20
14.4968735587837
30
0.000000000000000
11
-27.7094535993062
21
14.4679647808031
31
0.000000000000000
  0
LINE
  5
F1009C
330
F1009D
100
AcDbEntity
8
Geo
100
AcDbLine
10
-27.7094535993062
20
14.4679647808031
30
0.000000000000000
11
-27.6094535993062
21
14.4385764553204
31
0.000000000000000
  0
LINE
  5
F1009E
330
F1009F
100
AcDbEntity
8
Geo
100
AcDbLine
10
-27.6094535993062
20
14.4385764553204
30
0.000000000000000
11
-27.5094535993062
21
14.4087113034557
31
0.000000000000000
  0
LINE
  5
F100A0
330
F100A1
100
AcDbEntity
8
Geo
100
AcDbLine
10
-27.5094535993062
20
14.4087113034557
30
0.000000000000000
11
-27.4094535993062
21
14.3783720904797
31
0.000000000000000
  0
LINE
  5
F100A2
330
F100A3
100
AcDbEntity
8
Geo
100
AcDbLine
10
-27.4094535993062
20
14.3783720904797
30
0.000000000000000
11
-27.3094535993062
21
14.3475616255570
31
0.000000000000000
  0
LINE
  5
F100A4
330
F100A5
100
AcDbEntity
8
Geo
100
AcDbLine
10
-27.3094535993062
20
14.3475616255570
30
0.000000000000000
11
-27.2094535993062
21
14.3162827614865
31
0.000000000000000
  0
LINE
  5
F100A6
330
F100A7
100
AcDbEntity
8
Geo
100
AcDbLine
10
-27.2094535993062
20
14.3162827614865
30
0.000000000000000
11
-27.1094535993062
21
14.2845383944369
31
0.000000000000000
  0
LINE
  5
F100A8
330
F100A9
100
AcDbEntity
8
Geo
100
AcDbLine
10
-27.1094535993062
20
14.2845383944369
30
0.000000000000000
11
-27.0094535993062
21
14.2523314636788
31
0.000000000000000
  0
LINE
  5
F100AA
330
F100AB
100
AcDbEntity
8
Geo
100
AcDbLine
10
-27.0094535993062
20
14.2523314636788
30
0.000000000000000
11
-26.9094535993062
21
14.2196649513124
31
0.000000000000000
  0
LINE
  5
F100AC
330
F100AD
100
AcDbEntity
8
Geo
100
AcDbLine
10
-26.9094535993062
20
14.2196649513124
30
0.000000000000000
11
-26.8094535993062
21
14.1865418819914
31
0.000000000000000
  0
LINE
  5
F100AE
330
F100AF
100
AcDbEntity
8
Geo
100
AcDbLine
10
-26.8094535993062
20
14.1865418819914
30
0.000000000000000
11
-26.7094535993062
21
14.1529653226430
31
0.000000000000000
  0
LINE
  5
F100B0
330
F100B1
100
AcDbEntity
8
Geo
100
AcDbLine
10
-26.7094535993062
20
14.1529653226430
30
0.000000000000000
11
-26.6094535993062
21
14.1189383821839
31
0.000000000000000
  0
LINE
  5
F100B2
330
F100B3
100
AcDbEntity
8
Geo
100
AcDbLine
10
-26.6094535993062
20
14.1189383821839
30
0.000000000000000
11
-26.5094535993062
21
14.0844642112325
31
0.000000000000000
  0
LINE
  5
F100B4
330
F100B5
100
AcDbEntity
8
Geo
100
AcDbLine
10
-26.5094535993062
20
14.0844642112325
30
0.000000000000000
11
-26.4094535993062
21
14.0495460018170
31
0.000000000000000
  0
LINE
  5
F100B6
330
F100B7
100
AcDbEntity
8
Geo
100
AcDbLine
10
-26.4094535993062
20
14.0495460018170
30
0.000000000000000
11
-26.3094535993062
21
14.0141869870799
31
0.000000000000000
  0
LINE
  5
F100B8
330
F100B9
100
AcDbEntity
8
Geo
100
AcDbLine
10
-26.3094535993062
20
14.0141869870799
30
0.000000000000000
11
-26.2094535993062
21
13.9783904409789
31
0.000000000000000
  0
LINE
  5
F100BA
330
F100BB
100
AcDbEntity
8
Geo
100
AcDbLine
10
-26.2094535993062
20
13.9783904409789
30
0.000000000000000
11
-26.1094535993062
21
13.9421596779833
31
0.000000000000000
  0
LINE
  5
F100BC
330
F100BD
100
AcDbEntity
8
Geo
100
AcDbLine
10
-26.1094535993062
20
13.9421596779833
30
0.000000000000000
11
-26.0094535993062
21
13.9054980527677
31
0.000000000000000
  0
LINE
  5
F100BE
330
F100BF
100
AcDbEntity
8
Geo
100
AcDbLine
10
-26.0094535993062
20
13.9054980527677
30
0.000000000000000
11
-25.9094535993062
21
13.8684089599006
31
0.000000000000000
  0
LINE
  5
F100C0
330
F100C1
100
AcDbEntity
8
Geo
100
AcDbLine
10
-25.9094535993062
20
13.8684089599006
30
0.000000000000000
11
-25.8094535993062
21
13.8308958335309
31
0.000000000000000
  0
LINE
  5
F100C2
330
F100C3
100
AcDbEntity
8
Geo
100
AcDbLine
10
-25.8094535993062
20
13.8308958335309
30
0.000000000000000
11
-25.7094535993062
21
13.7929621470695
31
0.000000000000000
  0
LINE
  5
F100C4
330
F100C5
100
AcDbEntity
8
Geo
100
AcDbLine
10
-25.7094535993062
20
13.7929621470695
30
0.000000000000000
11
-25.6094535993062
21
13.7546114128675
31
0.000000000000000
  0
LINE
  5
F100C6
330
F100C7
100
AcDbEntity
8
Geo
100
AcDbLine
10
-25.6094535993062
20
13.7546114128675
30
0.000000000000000
11
-25.5094535993062
21
13.7158471818915
31
0.000000000000000
  0
LINE
  5
F100C8
330
F100C9
100
AcDbEntity
8
Geo
100
AcDbLine
10
-25.5094535993062
20
13.7158471818915
30
0.000000000000000
11
-25.4094535993062
21
13.6766730433944
31
0.000000000000000
  0
LINE
  5
F100CA
330
F100CB
100
AcDbEntity
8
Geo
100
AcDbLine
10
-25.4094535993062
20
13.6766730433944
30
0.000000000000000
11
-25.3094535993062
21
13.6370926245834
31
0.000000000000000
  0
LINE
  5
F100CC
330
F100CD
100
AcDbEntity
8
Geo
100
AcDbLine
10
-25.3094535993062
20
13.6370926245834
30
0.000000000000000
11
-25.2094535993062
21
13.5971095902836
31
0.000000000000000
  0
LINE
  5
F100CE
330
F100CF
100
AcDbEntity
8
Geo
100
AcDbLine
10
-25.2094535993062
20
13.5971095902836
30
0.000000000000000
11
-25.1094535993062
21
13.5567276425994
31
0.000000000000000
  0
LINE
  5
F100D0
330
F100D1
100
AcDbEntity
8
Geo
100
AcDbLine
10
-25.1094535993062
20
13.5567276425994
30
0.000000000000000
11
-25.0094535993062
21
13.5159505205712
31
0.000000000000000
  0
LINE
  5
F100D2
330
F100D3
100
AcDbEntity
8
Geo
100
AcDbLine
10
-25.0094535993062
20
13.5159505205712
30
0.000000000000000
11
-24.9094535993062
21
13.4747819998291
31
0.000000000000000
  0
LINE
  5
F100D4
330
F100D5
100
AcDbEntity
8
Geo
100
AcDbLine
10
-24.9094535993062
20
13.4747819998291
30
0.000000000000000
11
-24.8094535993062
21
13.4332258922440
31
0.000000000000000
  0
LINE
  5
F100D6
330
F100D7
100
AcDbEntity
8
Geo
100
AcDbLine
10
-24.8094535993062
20
13.4332258922440
30
0.000000000000000
11
-24.7094535993062
21
13.3912860455739
31
0.000000000000000
  0
LINE
  5
F100D8
330
F100D9
100
AcDbEntity
8
Geo
100
AcDbLine
10
-24.7094535993062
20
13.3912860455739
30
0.000000000000000
11
-24.6094535993062
21
13.3489663431078
31
0.000000000000000
  0
LINE
  5
F100DA
330
F100DB
100
AcDbEntity
8
Geo
100
AcDbLine
10
-24.6094535993062
20
13.3489663431078
30
0.000000000000000
11
-24.5094535993062
21
13.3062707033066
31
0.000000000000000
  0
LINE
  5
F100DC
330
F100DD
100
AcDbEntity
8
Geo
100
AcDbLine
10
-24.5094535993062
20
13.3062707033066
30
0.000000000000000
11
-24.4094535993062
21
13.2632030794398
31
0.000000000000000
  0
LINE
  5
F100DE
330
F100DF
100
AcDbEntity
8
Geo
100
AcDbLine
10
-24.4094535993062
20
13.2632030794398
30
0.000000000000000
11
-24.3094535993062
21
13.2197674592195
31
0.000000000000000
  0
LINE
  5
F100E0
330
F100E1
100
AcDbEntity
8
Geo
100
AcDbLine
10
-24.3094535993062
20
13.2197674592195
30
0.000000000000000
11
-24.2094535993062
21
13.1759678644313
31
0.000000000000000
  0
LINE
  5
F100E2
330
F100E3
100
AcDbEntity
8
Geo
100
AcDbLine
10
-24.2094535993062
20
13.1759678644313
30
0.000000000000000
11
-24.1094535993062
21
13.1318083505621
31
0.000000000000000
  0
LINE
  5
F100E4
330
F100E5
100
AcDbEntity
8
Geo
100
AcDbLine
10
-24.1094535993062
20
13.1318083505621
30
0.000000000000000
11
-24.0094535993062
21
13.0872930064241
31
0.000000000000000
  0
LINE
  5
F100E6
330
F100E7
100
AcDbEntity
8
Geo
100
AcDbLine
10
-24.0094535993062
20
13.0872930064241
30
0.000000000000000
11
-23.9094535993062
21
13.0424259537766
31
0.000000000000000
  0
LINE
  5
F100E8
330
F100E9
100
AcDbEntity
8
Geo
100
AcDbLine
10
-23.9094535993062
20
13.0424259537766
30
0.000000000000000
11
-23.8094535993062
21
12.9972113469444
31
0.000000000000000
  0
LINE
  5
F100EA
330
F100EB
100
AcDbEntity
8
Geo
100
AcDbLine
10
-23.8094535993062
20
12.9972113469444
30
0.000000000000000
11
-23.7094535993062
21
12.9516533724328
31
0.000000000000000
  0
LINE
  5
F100EC
330
F100ED
100
AcDbEntity
8
Geo
100
AcDbLine
10
-23.7094535993062
20
12.9516533724328
30
0.000000000000000
11
-23.6094535993062
21
12.9057562485402
31
0.000000000000000
  0
LINE
  5
F100EE
330
F100EF
100
AcDbEntity
8
Geo
100
AcDbLine
10
-23.6094535993062
20
12.9057562485402
30
0.000000000000000
11
-23.5094535993062
21
12.8595242249676
31
0.000000000000000
  0
LINE
  5
F100F0
330
F100F1
100
AcDbEntity
8
Geo
100
AcDbLine
10
-23.5094535993062
20
12.8595242249676
30
0.000000000000000
11
-23.4094535993062
21
12.8129615824248
31
0.000000000000000
  0
LINE
  5
F100F2
330
F100F3
100
AcDbEntity
8
Geo
100
AcDbLine
10
-23.4094535993062
20
12.8129615824248
30
0.000000000000000
11
-23.3094535993062
21
12.7660726322343
31
0.000000000000000
  0
LINE
  5
F100F4
330
F100F5
100
AcDbEntity
8
Geo
100
AcDbLine
10
-23.3094535993062
20
12.7660726322343
30
0.000000000000000
11
-23.2094535993062
21
12.7188617159321
31
0.000000000000000
  0
LINE
  5
F100F6
330
F100F7
100
AcDbEntity
8
Geo
100
AcDbLine
10
-23.2094535993062
20
12.7188617159321
30
0.000000000000000
11
-23.1094535993062
21
12.6713332048656
31
0.000000000000000
  0
LINE
  5
F100F8
330
F100F9
100
AcDbEntity
8
Geo
100
AcDbLine
10
-23.1094535993062
20
12.6713332048656
30
0.000000000000000
11
-23.0094535993062
21
12.6234914997890
31
0.000000000000000
  0
LINE
  5
F100FA
330
F100FB
100
AcDbEntity
8
Geo
100
AcDbLine
10
-23.0094535993062
20
12.6234914997890
30
0.000000000000000
11
-22.9094535993062
21
12.5753410304555
31
0.000000000000000
  0
LINE
  5
F100FC
330
F100FD
100
AcDbEntity
8
Geo
100
AcDbLine
10
-22.9094535993062
20
12.5753410304555
30
0.000000000000000
11
-22.8094535993062
21
12.5268862552075
31
0.000000000000000
  0
LINE
  5
F100FE
330
F100FF
100
AcDbEntity
8
Geo
100
AcDbLine
10
-22.8094535993062
20
12.5268862552075
30
0.000000000000000
11
-22.7094535993062
21
12.4781316605637
31
0.000000000000000
  0
LINE
  5
F10100
330
F10101
100
AcDbEntity
8
Geo
100
AcDbLine
10
-22.7094535993062
20
12.4781316605637
30
0.000000000000000
11
-22.6094535993062
21
12.4290817608036
31
0.000000000000000
  0
LINE
  5
F10102
330
F10103
100
AcDbEntity
8
Geo
100
AcDbLine
10
-22.6094535993062
20
12.4290817608036
30
0.000000000000000
11
-22.5094535993062
21
12.3797410975495
31
0.000000000000000
  0
LINE
  5
F10104
330
F10105
100
AcDbEntity
8
Geo
100
AcDbLine
10
-22.5094535993062
20
12.3797410975495
30
0.000000000000000
11
-22.4094535993062
21
12.3301142393461
31
0.000000000000000
  0
LINE
  5
F10106
330
F10107
100
AcDbEntity
8
Geo
100
AcDbLine
10
-22.4094535993062
20
12.3301142393461
30
0.000000000000000
11
-22.3094535993062
21
12.2802057812374
31
0.000000000000000
  0
LINE
  5
F10108
330
F10109
100
AcDbEntity
8
Geo
100
AcDbLine
10
-22.3094535993062
20
12.2802057812374
30
0.000000000000000
11
-22.2094535993062
21
12.2300203443413
31
0.000000000000000
  0
LINE
  5
F1010A
330
F1010B
100
AcDbEntity
8
Geo
100
AcDbLine
10
-22.2094535993062
20
12.2300203443413
30
0.000000000000000
11
-22.1094535993062
21
12.1795625754216
31
0.000000000000000
  0
LINE
  5
F1010C
330
F1010D
100
AcDbEntity
8
Geo
100
AcDbLine
10
-22.1094535993062
20
12.1795625754216
30
0.000000000000000
11
-22.0094535993062
21
12.1288371464579
31
0.000000000000000
  0
LINE
  5
F1010E
330
F1010F
100
AcDbEntity
8
Geo
100
AcDbLine
10
-22.0094535993062
20
12.1288371464579
30
0.000000000000000
11
-21.9094535993062
21
12.0778487542130
31
0.000000000000000
  0
LINE
  5
F10110
330
F10111
100
AcDbEntity
8
Geo
100
AcDbLine
10
-21.9094535993062
20
12.0778487542130
30
0.000000000000000
11
-21.8094535993062
21
12.0266021197978
31
0.000000000000000
  0
LINE
  5
F10112
330
F10113
100
AcDbEntity
8
Geo
100
AcDbLine
10
-21.8094535993062
20
12.0266021197978
30
0.000000000000000
11
-21.7094535993062
21
11.9751019882345
31
0.000000000000000
  0
LINE
  5
F10114
330
F10115
100
AcDbEntity
8
Geo
100
AcDbLine
10
-21.7094535993062
20
11.9751019882345
30
0.000000000000000
11
-21.6094535993062
21
11.9233531280170
31
0.000000000000000
  0
LINE
  5
F10116
330
F10117
100
AcDbEntity
8
Geo
100
AcDbLine
10
-21.6094535993062
20
11.9233531280170
30
0.000000000000000
11
-21.5094535993062
21
11.8713603306695
31
0.000000000000000
  0
LINE
  5
F10118
330
F10119
100
AcDbEntity
8
Geo
100
AcDbLine
10
-21.5094535993062
20
11.8713603306695
30
0.000000000000000
11
-21.4094535993062
21
11.8191284103026
31
0.000000000000000
  0
LINE
  5
F1011A
330
F1011B
100
AcDbEntity
8
Geo
100
AcDbLine
10
-21.4094535993062
20
11.8191284103026
30
0.000000000000000
11
-21.3094535993062
21
11.7666622031681
31
0.000000000000000
  0
LINE
  5
F1011C
330
F1011D
100
AcDbEntity
8
Geo
100
AcDbLine
10
-21.3094535993062
20
11.7666622031681
30
0.000000000000000
11
-21.2094535993062
21
11.7139665672105
31
0.000000000000000
  0
LINE
  5
F1011E
330
F1011F
100
AcDbEntity
8
Geo
100
AcDbLine
10
-21.2094535993062
20
11.7139665672105
30
0.000000000000000
11
-21.1094535993062
21
11.6610463816179
31
0.000000000000000
  0
LINE
  5
F10120
330
F10121
100
AcDbEntity
8
Geo
100
AcDbLine
10
-21.1094535993062
20
11.6610463816179
30
0.000000000000000
11
-21.0094535993062
21
11.6079065463695
31
0.000000000000000
  0
LINE
  5
F10122
330
F10123
100
AcDbEntity
8
Geo
100
AcDbLine
10
-21.0094535993062
20
11.6079065463695
30
0.000000000000000
11
-20.9094535993062
21
11.5545519817824
31
0.000000000000000
  0
LINE
  5
F10124
330
F10125
100
AcDbEntity
8
Geo
100
AcDbLine
10
-20.9094535993062
20
11.5545519817824
30
0.000000000000000
11
-20.8094535993062
21
11.5009876280562
31
0.000000000000000
  0
LINE
  5
F10126
330
F10127
100
AcDbEntity
8
Geo
100
AcDbLine
10
-20.8094535993062
20
11.5009876280562
30
0.000000000000000
11
-20.7094535993062
21
11.4472184448148
31
0.000000000000000
  0
LINE
  5
F10128
330
F10129
100
AcDbEntity
8
Geo
100
AcDbLine
10
-20.7094535993062
20
11.4472184448148
30
0.000000000000000
11
-20.6094535993062
21
11.3932494106479
31
0.000000000000000
  0
LINE
  5
F1012A
330
F1012B
100
AcDbEntity
8
Geo
100
AcDbLine
10
-20.6094535993062
20
11.3932494106479
30
0.000000000000000
11
-20.5094535993062
21
11.3390855226497
31
0.000000000000000
  0
LINE
  5
F1012C
330
F1012D
100
AcDbEntity
8
Geo
100
AcDbLine
10
-20.5094535993062
20
11.3390855226497
30
0.000000000000000
11
-20.4094535993062
21
11.2847317959565
31
0.000000000000000
  0
LINE
  5
F1012E
330
F1012F
100
AcDbEntity
8
Geo
100
AcDbLine
10
-20.4094535993062
20
11.2847317959565
30
0.000000000000000
11
-20.3094535993062
21
11.2301932632817
31
0.000000000000000
  0
LINE
  5
F10130
330
F10131
100
AcDbEntity
8
Geo
100
AcDbLine
10
-20.3094535993062
20
11.2301932632817
30
0.000000000000000
11
-20.2094535993062
21
11.1754749744506
31
0.000000000000000
  0
LINE
  5
F10132
330
F10133
100
AcDbEntity
8
Geo
100
AcDbLine
10
-20.2094535993062
20
11.1754749744506
30
0.000000000000000
11
-20.1094535993062
21
11.1205819959324
31
0.000000000000000
  0
LINE
  5
F10134
330
F10135
100
AcDbEntity
8
Geo
100
AcDbLine
10
-20.1094535993062
20
11.1205819959324
30
0.000000000000000
11
-20.0094535993062
21
11.0655194103709
31
0.000000000000000
  0
LINE
  5
F10136
330
F10137
100
AcDbEntity
8
Geo
100
AcDbLine
10
-20.0094535993062
20
11.0655194103709
30
0.000000000000000
11
-19.9094535993062
21
11.0102923161145
31
0.000000000000000
  0
LINE
  5
F10138
330
F10139
100
AcDbEntity
8
Geo
100
AcDbLine
10
-19.9094535993062
20
11.0102923161145
30
0.000000000000000
11
-19.8094535993062
21
10.9549058267434
31
0.000000000000000
  0
LINE
  5
F1013A
330
F1013B
100
AcDbEntity
8
Geo
100
AcDbLine
10
-19.8094535993062
20
10.9549058267434
30
0.000000000000000
11
-19.7094535993062
21
10.8993650705968
31
0.000000000000000
  0
LINE
  5
F1013C
330
F1013D
100
AcDbEntity
8
Geo
100
AcDbLine
10
-19.7094535993062
20
10.8993650705968
30
0.000000000000000
11
-19.6094535993062
21
10.8436751902976
31
0.000000000000000
  0
LINE
  5
F1013E
330
F1013F
100
AcDbEntity
8
Geo
100
AcDbLine
10
-19.6094535993062
20
10.8436751902976
30
0.000000000000000
11
-19.5094535993062
21
10.7878413422764
31
0.000000000000000
  0
LINE
  5
F10140
330
F10141
100
AcDbEntity
8
Geo
100
AcDbLine
10
-19.5094535993062
20
10.7878413422764
30
0.000000000000000
11
-19.4094535993062
21
10.7318686962940
31
0.000000000000000
  0
LINE
  5
F10142
330
F10143
100
AcDbEntity
8
Geo
100
AcDbLine
10
-19.4094535993062
20
10.7318686962940
30
0.000000000000000
11
-19.3094535993062
21
10.6757624349629
31
0.000000000000000
  0
LINE
  5
F10144
330
F10145
100
AcDbEntity
8
Geo
100
AcDbLine
10
-19.3094535993062
20
10.6757624349629
30
0.000000000000000
11
-19.2094535993062
21
10.6195277532672
31
0.000000000000000
  0
LINE
  5
F10146
330
F10147
100
AcDbEntity
8
Geo
100
AcDbLine
10
-19.2094535993062
20
10.6195277532672
30
0.000000000000000
11
-19.1094535993062
21
10.5631698580816
31
0.000000000000000
  0
LINE
  5
F10148
330
F10149
100
AcDbEntity
8
Geo
100
AcDbLine
10
-19.1094535993062
20
10.5631698580816
30
0.000000000000000
11
-19.0094535993062
21
10.5066939676896
31
0.000000000000000
  0
LINE
  5
F1014A
330
F1014B
100
AcDbEntity
8
Geo
100
AcDbLine
10
-19.0094535993062
20
10.5066939676896
30
0.000000000000000
11
-18.9094535993062
21
10.4501053112999
31
0.000000000000000
  0
LINE
  5
F1014C
330
F1014D
100
AcDbEntity
8
Geo
100
AcDbLine
10
-18.9094535993062
20
10.4501053112999
30
0.000000000000000
11
-18.8094535993062
21
10.3934091285625
31
0.000000000000000
  0
LINE
  5
F1014E
330
F1014F
100
AcDbEntity
8
Geo
100
AcDbLine
10
-18.8094535993062
20
10.3934091285625
30
0.000000000000000
11
-18.7094535993062
21
10.3366106690834
31
0.000000000000000
  0
LINE
  5
F10150
330
F10151
100
AcDbEntity
8
Geo
100
AcDbLine
10
-18.7094535993062
20
10.3366106690834
30
0.000000000000000
11
-18.6094535993062
21
10.2797151919386
31
0.000000000000000
  0
LINE
  5
F10152
330
F10153
100
AcDbEntity
8
Geo
100
AcDbLine
10
-18.6094535993062
20
10.2797151919386
30
0.000000000000000
11
-18.5094535993062
21
10.2227279651873
31
0.000000000000000
  0
LINE
  5
F10154
330
F10155
100
AcDbEntity
8
Geo
100
AcDbLine
10
-18.5094535993062
20
10.2227279651873
30
0.000000000000000
11
-18.4094535993062
21
10.1656542653838
31
0.000000000000000
  0
LINE
  5
F10156
330
F10157
100
AcDbEntity
8
Geo
100
AcDbLine
10
-18.4094535993062
20
10.1656542653838
30
0.000000000000000
11
-18.3094535993062
21
10.1084993770892
31
0.000000000000000
  0
LINE
  5
F10158
330
F10159
100
AcDbEntity
8
Geo
100
AcDbLine
10
-18.3094535993062
20
10.1084993770892
30
0.000000000000000
11
-18.2094535993062
21
10.0512685923818
31
0.000000000000000
  0
LINE
  5
F1015A
330
F1015B
100
AcDbEntity
8
Geo
100
AcDbLine
10
-18.2094535993062
20
10.0512685923818
30
0.000000000000000
11
-18.1094535993062
21
9.99396721036766
31
0.000000000000000
  0
LINE
  5
F1015C
330
F1015D
100
AcDbEntity
8
Geo
100
AcDbLine
10
-18.1094535993062
20
9.99396721036766
30
0.000000000000000
11
-18.0094535993062
21
9.93660053668922
31
0.000000000000000
  0
LINE
  5
F1015E
330
F1015F
100
AcDbEntity
8
Geo
100
AcDbLine
10
-18.0094535993062
20
9.93660053668922
30
0.000000000000000
11
-17.9094535993062
21
9.87917388303457
31
0.000000000000000
  0
LINE
  5
F10160
330
F10161
100
AcDbEntity
8
Geo
100
AcDbLine
10
-17.9094535993062
20
9.87917388303457
30
0.000000000000000
11
-17.8094535993062
21
9.82169256664543
31
0.000000000000000
  0
LINE
  5
F10162
330
F10163
100
AcDbEntity
8
Geo
100
AcDbLine
10
-17.8094535993062
20
9.82169256664543
30
0.000000000000000
11
-17.7094535993062
21
9.76416190982485
31
0.000000000000000
  0
LINE
  5
F10164
330
F10165
100
AcDbEntity
8
Geo
100
AcDbLine
10
-17.7094535993062
20
9.76416190982485
30
0.000000000000000
11
-17.6094535993062
21
9.70658723944438
31
0.000000000000000
  0
LINE
  5
F10166
330
F10167
100
AcDbEntity
8
Geo
100
AcDbLine
10
-17.6094535993062
20
9.70658723944438
30
0.000000000000000
11
-17.5094535993062
21
9.64897388645091
31
0.000000000000000
  0
LINE
  5
F10168
330
F10169
100
AcDbEntity
8
Geo
100
AcDbLine
10
-17.5094535993062
20
9.64897388645091
30
0.000000000000000
11
-17.4094535993062
21
9.59132718537298
31
0.000000000000000
  0
LINE
  5
F1016A
330
F1016B
100
AcDbEntity
8
Geo
100
AcDbLine
10
-17.4094535993062
20
9.59132718537298
30
0.000000000000000
11
-17.3094535993062
21
9.53365247382691
31
0.000000000000000
  0
LINE
  5
F1016C
330
F1016D
100
AcDbEntity
8
Geo
100
AcDbLine
10
-17.3094535993062
20
9.53365247382691
30
0.000000000000000
11
-17.2094535993062
21
9.47595509202258
31
0.000000000000000
  0
LINE
  5
F1016E
330
F1016F
100
AcDbEntity
8
Geo
100
AcDbLine
10
-17.2094535993062
20
9.47595509202258
30
0.000000000000000
11
-17.1094535993062
21
9.41824038226892
31
0.000000000000000
  0
LINE
  5
F10170
330
F10171
100
AcDbEntity
8
Geo
100
AcDbLine
10
-17.1094535993062
20
9.41824038226892
30
0.000000000000000
11
-17.0094535993062
21
9.36051368847930
31
0.000000000000000
  0
LINE
  5
F10172
330
F10173
100
AcDbEntity
8
Geo
100
AcDbLine
10
-17.0094535993062
20
9.36051368847930
30
0.000000000000000
11
-16.9094535993062
21
9.30278035567674
31
0.000000000000000
  0
LINE
  5
F10174
330
F10175
100
AcDbEntity
8
Geo
100
AcDbLine
10
-16.9094535993062
20
9.30278035567674
30
0.000000000000000
11
-16.8094535993062
21
9.24504572949893
31
0.000000000000000
  0
LINE
  5
F10176
330
F10177
100
AcDbEntity
8
Geo
100
AcDbLine
10
-16.8094535993062
20
9.24504572949893
30
0.000000000000000
11
-16.7094535993062
21
9.18731515570336
31
0.000000000000000
  0
LINE
  5
F10178
330
F10179
100
AcDbEntity
8
Geo
100
AcDbLine
10
-16.7094535993062
20
9.18731515570336
30
0.000000000000000
11
-16.6094535993062
21
9.12959397967227
31
0.000000000000000
  0
LINE
  5
F1017A
330
F1017B
100
AcDbEntity
8
Geo
100
AcDbLine
10
-16.6094535993062
20
9.12959397967227
30
0.000000000000000
11
-16.5094535993062
21
9.07188754591777
31
0.000000000000000
  0
LINE
  5
F1017C
330
F1017D
100
AcDbEntity
8
Geo
100
AcDbLine
10
-16.5094535993062
20
9.07188754591777
30
0.000000000000000
11
-16.4094535993062
21
9.01420119758694
31
0.000000000000000
  0
LINE
  5
F1017E
330
F1017F
100
AcDbEntity
8
Geo
100
AcDbLine
10
-16.4094535993062
20
9.01420119758694
30
0.000000000000000
11
-16.3094535993062
21
8.95654027596711
31
0.000000000000000
  0
LINE
  5
F10180
330
F10181
100
AcDbEntity
8
Geo
100
AcDbLine
10
-16.3094535993062
20
8.95654027596711
30
0.000000000000000
11
-16.2094535993062
21
8.89891011999131
31
0.000000000000000
  0
LINE
  5
F10182
330
F10183
100
AcDbEntity
8
Geo
100
AcDbLine
10
-16.2094535993062
20
8.89891011999131
30
0.000000000000000
11
-16.1094535993062
21
8.84131606574392
31
0.000000000000000
  0
LINE
  5
F10184
330
F10185
100
AcDbEntity
8
Geo
100
AcDbLine
10
-16.1094535993062
20
8.84131606574392
30
0.000000000000000
11
-16.0094535993062
21
8.78376344596659
31
0.000000000000000
  0
LINE
  5
F10186
330
F10187
100
AcDbEntity
8
Geo
100
AcDbLine
10
-16.0094535993062
20
8.78376344596659
30
0.000000000000000
11
-15.9094535993062
21
8.72625758956449
31
0.000000000000000
  0
LINE
  5
F10188
330
F10189
100
AcDbEntity
8
Geo
100
AcDbLine
10
-15.9094535993062
20
8.72625758956449
30
0.000000000000000
11
-15.8094535993062
21
8.66880382111285
31
0.000000000000000
  0
LINE
  5
F1018A
330
F1018B
100
AcDbEntity
8
Geo
100
AcDbLine
10
-15.8094535993062
20
8.66880382111285
30
0.000000000000000
11
-15.7094535993062
21
8.61140746036401
31
0.000000000000000
  0
LINE
  5
F1018C
330
F1018D
100
AcDbEntity
8
Geo
100
AcDbLine
10
-15.7094535993062
20
8.61140746036401
30
0.000000000000000
11
-15.6094535993062
21
8.55407382175481
31
0.000000000000000
  0
LINE
  5
F1018E
330
F1018F
100
AcDbEntity
8
Geo
100
AcDbLine
10
-15.6094535993062
20
8.55407382175481
30
0.000000000000000
11
-15.5094535993062
21
8.49680821391453
31
0.000000000000000
  0
LINE
  5
F10190
330
F10191
100
AcDbEntity
8
Geo
100
AcDbLine
10
-15.5094535993062
20
8.49680821391453
30
0.000000000000000
11
-15.4094535993062
21
8.43961593917334
31
0.000000000000000
  0
LINE
  5
F10192
330
F10193
100
AcDbEntity
8
Geo
100
AcDbLine
10
-15.4094535993062
20
8.43961593917334
30
0.000000000000000
11
-15.3094535993062
21
8.38250229307139
31
0.000000000000000
  0
LINE
  5
F10194
330
F10195
100
AcDbEntity
8
Geo
100
AcDbLine
10
-15.3094535993062
20
8.38250229307139
30
0.000000000000000
11
-15.2094535993062
21
8.32547256386844
31
0.000000000000000
  0
LINE
  5
F10196
330
F10197
100
AcDbEntity
8
Geo
100
AcDbLine
10
-15.2094535993062
20
8.32547256386844
30
0.000000000000000
11
-15.1094535993062
21
8.26853203205421
31
0.000000000000000
  0
LINE
  5
F10198
330
F10199
100
AcDbEntity
8
Geo
100
AcDbLine
10
-15.1094535993062
20
8.26853203205421
30
0.000000000000000
11
-15.0094535993062
21
8.21168596985950
31
0.000000000000000
  0
LINE
  5
F1019A
330
F1019B
100
AcDbEntity
8
Geo
100
AcDbLine
10
-15.0094535993062
20
8.21168596985950
30
0.000000000000000
11
-14.9094535993062
21
8.15493964076797
31
0.000000000000000
  0
LINE
  5
F1019C
330
F1019D
100
AcDbEntity
8
Geo
100
AcDbLine
10
-14.9094535993062
20
8.15493964076797
30
0.000000000000000
11
-14.8094535993062
21
8.09829829902881
31
0.000000000000000
  0
LINE
  5
F1019E
330
F1019F
100
AcDbEntity
8
Geo
100
AcDbLine
10
-14.8094535993062
20
8.09829829902881
30
0.000000000000000
11
-14.7094535993062
21
8.04176718917022
31
0.000000000000000
  0
LINE
  5
F101A0
330
F101A1
100
AcDbEntity
8
Geo
100
AcDbLine
10
-14.7094535993062
20
8.04176718917022
30
0.000000000000000
11
-14.6094535993062
21
7.98535154551385
31
0.000000000000000
  0
LINE
  5
F101A2
330
F101A3
100
AcDbEntity
8
Geo
100
AcDbLine
10
-14.6094535993062
20
7.98535154551385
30
0.000000000000000
11
-14.5094535993062
21
7.92905659169009
31
0.000000000000000
  0
LINE
  5
F101A4
330
F101A5
100
AcDbEntity
8
Geo
100
AcDbLine
10
-14.5094535993062
20
7.92905659169009
30
0.000000000000000
11
-14.4094535993062
21
7.87288754015446
31
0.000000000000000
  0
LINE
  5
F101A6
330
F101A7
100
AcDbEntity
8
Geo
100
AcDbLine
10
-14.4094535993062
20
7.87288754015446
30
0.000000000000000
11
-14.3094535993062
21
7.81684959170493
31
0.000000000000000
  0
LINE
  5
F101A8
330
F101A9
100
AcDbEntity
8
Geo
100
AcDbLine
10
-14.3094535993062
20
7.81684959170493
30
0.000000000000000
11
-14.2094535993062
21
7.76094793500039
31
0.000000000000000
  0
LINE
  5
F101AA
330
F101AB
100
AcDbEntity
8
Geo
100
AcDbLine
10
-14.2094535993062
20
7.76094793500039
30
0.000000000000000
11
-14.1094535993062
21
7.70518774608022
31
0.000000000000000
  0
LINE
  5
F101AC
330
F101AD
100
AcDbEntity
8
Geo
100
AcDbLine
10
-14.1094535993062
20
7.70518774608022
30
0.000000000000000
11
-14.0094535993062
21
7.64957418788506
31
0.000000000000000
  0
LINE
  5
F101AE
330
F101AF
100
AcDbEntity
8
Geo
100
AcDbLine
10
-14.0094535993062
20
7.64957418788506
30
0.000000000000000
11
-13.9094535993062
21
7.59411240977869
31
0.000000000000000
  0
LINE
  5
F101B0
330
F101B1
100
AcDbEntity
8
Geo
100
AcDbLine
10
-13.9094535993062
20
7.59411240977869
30
0.000000000000000
11
-13.8094535993062
21
7.53880754707132
31
0.000000000000000
  0
LINE
  5
F101B2
330
F101B3
100
AcDbEntity
8
Geo
100
AcDbLine
10
-13.8094535993062
20
7.53880754707132
30
0.000000000000000
11
-13.7094535993062
21
7.48366472054406
31
0.000000000000000
  0
LINE
  5
F101B4
330
F101B5
100
AcDbEntity
8
Geo
100
AcDbLine
10
-13.7094535993062
20
7.48366472054406
30
0.000000000000000
11
-13.6094535993062
21
7.42868903597478
31
0.000000000000000
  0
LINE
  5
F101B6
330
F101B7
100
AcDbEntity
8
Geo
100
AcDbLine
10
-13.6094535993062
20
7.42868903597478
30
0.000000000000000
11
-13.5094535993062
21
7.37388558366537
31
0.000000000000000
  0
LINE
  5
F101B8
330
F101B9
100
AcDbEntity
8
Geo
100
AcDbLine
10
-13.5094535993062
20
7.37388558366537
30
0.000000000000000
11
-13.4094535993062
21
7.31925943797040
31
0.000000000000000
  0
LINE
  5
F101BA
330
F101BB
100
AcDbEntity
8
Geo
100
AcDbLine
10
-13.4094535993062
20
7.31925943797040
30
0.000000000000000
11
-13.3094535993062
21
7.26481565682732
31
0.000000000000000
  0
LINE
  5
F101BC
330
F101BD
100
AcDbEntity
8
Geo
100
AcDbLine
10
-32.5094535993062
20
8.25288679307580
30
0.000000000000000
11
-32.5094535993062
21
8.16385797151737
31
0.000000000000000
  0
LINE
  5
F101BE
330
F101BF
100
AcDbEntity
8
Geo
100
AcDbLine
10
-32.5094535993062
20
8.16385797151737
30
0.000000000000000
11
-32.4094535993062
21
7.92533720442328
31
0.000000000000000
  0
LINE
  5
F101C0
330
F101C1
100
AcDbEntity
8
Geo
100
AcDbLine
10
-32.4094535993062
20
7.92533720442328
30
0.000000000000000
11
-32.3094535993062
21
7.74033646504944
31
0.000000000000000
  0
LINE
  5
F101C2
330
F101C3
100
AcDbEntity
8
Geo
100
AcDbLine
10
-32.3094535993062
20
7.74033646504944
30
0.000000000000000
11
-32.2094535993062
21
7.56203004823719
31
0.000000000000000
  0
LINE
  5
F101C4
330
F101C5
100
AcDbEntity
8
Geo
100
AcDbLine
10
-32.2094535993062
20
7.56203004823719
30
0.000000000000000
11
-32.1094535993062
21
7.38555570803951
31
0.000000000000000
  0
LINE
  5
F101C6
330
F101C7
100
AcDbEntity
8
Geo
100
AcDbLine
10
-32.1094535993062
20
7.38555570803951
30
0.000000000000000
11
-32.0094535993062
21
7.21066809149756
31
0.000000000000000
  0
LINE
  5
F101C8
330
F101C9
100
AcDbEntity
8
Geo
100
AcDbLine
10
-32.0094535993062
20
7.21066809149756
30
0.000000000000000
11
-31.9424398470157
21
7.09427960246096
31
0.000000000000000
  0
LINE
  5
F101CA
330
F101CB
100
AcDbEntity
8
Geo
100
AcDbLine
10
-16.8852591751193
20
15.2888117953166
30
0.000000000000000
11
-16.8094535993062
21
15.2886521708168
31
0.000000000000000
  0
LINE
  5
F101CC
330
F101CD
100
AcDbEntity
8
Geo
100
AcDbLine
10
-16.8094535993062
20
15.2886521708168
30
0.000000000000000
11
-16.7094535993062
21
15.2879532699067
31
0.000000000000000
  0
LINE
  5
F101CE
330
F101CF
100
AcDbEntity
8
Geo
100
AcDbLine
10
-16.7094535993062
20
15.2879532699067
30
0.000000000000000
11
-16.6094535993062
21
15.2866988972202
31
0.000000000000000
  0
LINE
  5
F101D0
330
F101D1
100
AcDbEntity
8
Geo
100
AcDbLine
10
-16.6094535993062
20
15.2866988972202
30
0.000000000000000
11
-16.5094535993062
21
15.2848891689020
31
0.000000000000000
  0
LINE
  5
F101D2
330
F101D3
100
AcDbEntity
8
Geo
100
AcDbLine
10
-16.5094535993062
20
15.2848891689020
30
0.000000000000000
11
-16.4094535993062
21
15.2825242525182
31
0.000000000000000
  0
LINE
  5
F101D4
330
F101D5
100
AcDbEntity
8
Geo
100
AcDbLine
10
-16.4094535993062
20
15.2825242525182
30
0.000000000000000
11
-16.3094535993062
21
15.2796043670410
31
0.000000000000000
  0
LINE
  5
F101D6
330
F101D7
100
AcDbEntity
8
Geo
100
AcDbLine
10
-16.3094535993062
20
15.2796043670410
30
0.000000000000000
11
-16.2094535993062
21
15.2761297828280
31
0.000000000000000
  0
LINE
  5
F101D8
330
F101D9
100
AcDbEntity
8
Geo
100
AcDbLine
10
-16.2094535993062
20
15.2761297828280
30
0.000000000000000
11
-16.1094535993062
21
15.2721008215975
31
0.000000000000000
  0
LINE
  5
F101DA
330
F101DB
100
AcDbEntity
8
Geo
100
AcDbLine
10
-16.1094535993062
20
15.2721008215975
30
0.000000000000000
11
-16.0094535993062
21
15.2675178563986
31
0.000000000000000
  0
LINE
  5
F101DC
330
F101DD
100
AcDbEntity
8
Geo
100
AcDbLine
10
-16.0094535993062
20
15.2675178563986
30
0.000000000000000
11
-15.9094535993062
21
15.2623813115766
31
0.000000000000000
  0
LINE
  5
F101DE
330
F101DF
100
AcDbEntity
8
Geo
100
AcDbLine
10
-15.9094535993062
20
15.2623813115766
30
0.000000000000000
11
-15.8094535993062
21
15.2566916627338
31
0.000000000000000
  0
LINE
  5
F101E0
330
F101E1
100
AcDbEntity
8
Geo
100
AcDbLine
10
-15.8094535993062
20
15.2566916627338
30
0.000000000000000
11
-15.7094535993062
21
15.2504494366855
31
0.000000000000000
  0
LINE
  5
F101E2
330
F101E3
100
AcDbEntity
8
Geo
100
AcDbLine
10
-15.7094535993062
20
15.2504494366855
30
0.000000000000000
11
-15.6094535993062
21
15.2436552114113
31
0.000000000000000
  0
LINE
  5
F101E4
330
F101E5
100
AcDbEntity
8
Geo
100
AcDbLine
10
-15.6094535993062
20
15.2436552114113
30
0.000000000000000
11
-15.5094535993062
21
15.2363096160010
31
0.000000000000000
  0
LINE
  5
F101E6
330
F101E7
100
AcDbEntity
8
Geo
100
AcDbLine
10
-15.5094535993062
20
15.2363096160010
30
0.000000000000000
11
-15.4094535993062
21
15.2284133305973
31
0.000000000000000
  0
LINE
  5
F101E8
330
F101E9
100
AcDbEntity
8
Geo
100
AcDbLine
10
-15.4094535993062
20
15.2284133305973
30
0.000000000000000
11
-15.3094535993062
21
15.2199670863320
31
0.000000000000000
  0
LINE
  5
F101EA
330
F101EB
100
AcDbEntity
8
Geo
100
AcDbLine
10
-15.3094535993062
20
15.2199670863320
30
0.000000000000000
11
-15.2094535993062
21
15.2109716652587
31
0.000000000000000
  0
LINE
  5
F101EC
330
F101ED
100
AcDbEntity
8
Geo
100
AcDbLine
10
-15.2094535993062
20
15.2109716652587
30
0.000000000000000
11
-15.1094535993062
21
15.2014279002804
31
0.000000000000000
  0
LINE
  5
F101EE
330
F101EF
100
AcDbEntity
8
Geo
100
AcDbLine
10
-15.1094535993062
20
15.2014279002804
30
0.000000000000000
11
-15.0094535993062
21
15.1913366750721
31
0.000000000000000
  0
LINE
  5
F101F0
330
F101F1
100
AcDbEntity
8
Geo
100
AcDbLine
10
-15.0094535993062
20
15.1913366750721
30
0.000000000000000
11
-14.9094535993062
21
15.1806989239995
31
0.000000000000000
  0
LINE
  5
F101F2
330
F101F3
100
AcDbEntity
8
Geo
100
AcDbLine
10
-14.9094535993062
20
15.1806989239995
30
0.000000000000000
11
-14.8094535993062
21
15.1695156320317
31
0.000000000000000
  0
LINE
  5
F101F4
330
F101F5
100
AcDbEntity
8
Geo
100
AcDbLine
10
-14.8094535993062
20
15.1695156320317
30
0.000000000000000
11
-14.7094535993062
21
15.1577878346510
31
0.000000000000000
  0
LINE
  5
F101F6
330
F101F7
100
AcDbEntity
8
Geo
100
AcDbLine
10
-14.7094535993062
20
15.1577878346510
30
0.000000000000000
11
-14.6094535993062
21
15.1455166177559
31
0.000000000000000
  0
LINE
  5
F101F8
330
F101F9
100
AcDbEntity
8
Geo
100
AcDbLine
10
-14.6094535993062
20
15.1455166177559
30
0.000000000000000
11
-14.5094535993062
21
15.1327031175616
31
0.000000000000000
  0
LINE
  5
F101FA
330
F101FB
100
AcDbEntity
8
Geo
100
AcDbLine
10
-14.5094535993062
20
15.1327031175616
30
0.000000000000000
11
-14.4094535993062
21
15.1193485204941
31
0.000000000000000
  0
LINE
  5
F101FC
330
F101FD
100
AcDbEntity
8
Geo
100
AcDbLine
10
-14.4094535993062
20
15.1193485204941
30
0.000000000000000
11
-14.3094535993062
21
15.1054540630806
31
0.000000000000000
  0
LINE
  5
F101FE
330
F101FF
100
AcDbEntity
8
Geo
100
AcDbLine
10
-14.3094535993062
20
15.1054540630806
30
0.000000000000000
11
-14.2094535993062
21
15.0910210318350
31
0.000000000000000
  0
LINE
  5
F10200
330
F10201
100
AcDbEntity
8
Geo
100
AcDbLine
10
-14.2094535993062
20
15.0910210318350
30
0.000000000000000
11
-14.1094535993062
21
15.0760507631388
31
0.000000000000000
  0
LINE
  5
F10202
330
F10203
100
AcDbEntity
8
Geo
100
AcDbLine
10
-14.1094535993062
20
15.0760507631388
30
0.000000000000000
11
-14.0094535993062
21
15.0605446431173
31
0.000000000000000
  0
LINE
  5
F10204
330
F10205
100
AcDbEntity
8
Geo
100
AcDbLine
10
-14.0094535993062
20
15.0605446431173
30
0.000000000000000
11
-13.9094535993062
21
15.0445041075113
31
0.000000000000000
  0
LINE
  5
F10206
330
F10207
100
AcDbEntity
8
Geo
100
AcDbLine
10
-13.9094535993062
20
15.0445041075113
30
0.000000000000000
11
-13.8094535993062
21
15.0279306415441
31
0.000000000000000
  0
LINE
  5
F10208
330
F10209
100
AcDbEntity
8
Geo
100
AcDbLine
10
-13.8094535993062
20
15.0279306415441
30
0.000000000000000
11
-13.7094535993062
21
15.0108257797839
31
0.000000000000000
  0
LINE
  5
F1020A
330
F1020B
100
AcDbEntity
8
Geo
100
AcDbLine
10
-13.7094535993062
20
15.0108257797839
30
0.000000000000000
11
-13.6094535993062
21
14.9931911060022
31
0.000000000000000
  0
LINE
  5
F1020C
330
F1020D
100
AcDbEntity
8
Geo
100
AcDbLine
10
-13.6094535993062
20
14.9931911060022
30
0.000000000000000
11
-13.5094535993062
21
14.9750282530265
31
0.000000000000000
  0
LINE
  5
F1020E
330
F1020F
100
AcDbEntity
8
Geo
100
AcDbLine
10
-13.5094535993062
20
14.9750282530265
30
0.000000000000000
11
-13.4094535993062
21
14.9563389025894
31
0.000000000000000
  0
LINE
  5
F10210
330
F10211
100
AcDbEntity
8
Geo
100
AcDbLine
10
-13.4094535993062
20
14.9563389025894
30
0.000000000000000
11
-13.3094535993062
21
14.9371247851730
31
0.000000000000000
  0
LINE
  5
F10212
330
F10213
100
AcDbEntity
8
Geo
100
AcDbLine
10
-32.5094535993062
20
8.16385797151737
30
0.000000000000000
11
-32.5094535993062
21
8.25288679307580
31
0.000000000000000
  0
LINE
  5
F10214
330
F10215
100
AcDbEntity
8
Geo
100
AcDbLine
10
-32.5094535993062
20
8.25288679307580
30
0.000000000000000
11
-32.4094535993062
21
8.29353566315490
31
0.000000000000000
  0
LINE
  5
F10216
330
F10217
100
AcDbEntity
8
Geo
100
AcDbLine
10
-32.4094535993062
20
8.29353566315490
30
0.000000000000000
11
-32.3094535993062
21
8.30926225341498
31
0.000000000000000
  0
LINE
  5
F10218
330
F10219
100
AcDbEntity
8
Geo
100
AcDbLine
10
-32.3094535993062
20
8.30926225341498
30
0.000000000000000
11
-32.2094535993062
21
8.31773302126639
31
0.000000000000000
  0
LINE
  5
F1021A
330
F1021B
100
AcDbEntity
8
Geo
100
AcDbLine
10
-32.2094535993062
20
8.31773302126639
30
0.000000000000000
11
-32.1094535993062
21
8.32067823309313
31
0.000000000000000
  0
LINE
  5
F1021C
330
F1021D
100
AcDbEntity
8
Geo
100
AcDbLine
10
-32.1094535993062
20
8.32067823309313
30
0.000000000000000
11
-32.0094535993062
21
8.31890742412701
31
0.000000000000000
  0
LINE
  5
F1021E
330
F1021F
100
AcDbEntity
8
Geo
100
AcDbLine
10
-32.0094535993062
20
8.31890742412701
30
0.000000000000000
11
-31.9094535993062
21
8.31286891510559
31
0.000000000000000
  0
LINE
  5
F10220
330
F10221
100
AcDbEntity
8
Geo
100
AcDbLine
10
-31.9094535993062
20
8.31286891510559
30
0.000000000000000
11
-31.8094535993062
21
8.30283771400694
31
0.000000000000000
  0
LINE
  5
F10222
330
F10223
100
AcDbEntity
8
Geo
100
AcDbLine
10
-31.8094535993062
20
8.30283771400694
30
0.000000000000000
11
-31.7094535993062
21
8.28899479634428
31
0.000000000000000
  0
LINE
  5
F10224
330
F10225
100
AcDbEntity
8
Geo
100
AcDbLine
10
-31.7094535993062
20
8.28899479634428
30
0.000000000000000
11
-31.6094535993062
21
8.27146567695032
31
0.000000000000000
  0
LINE
  5
F10226
330
F10227
100
AcDbEntity
8
Geo
100
AcDbLine
10
-31.6094535993062
20
8.27146567695032
30
0.000000000000000
11
-31.5094535993062
21
8.25034112495339
31
0.000000000000000
  0
LINE
  5
F10228
330
F10229
100
AcDbEntity
8
Geo
100
AcDbLine
10
-31.5094535993062
20
8.25034112495339
30
0.000000000000000
11
-31.4094535993062
21
8.22568913197455
31
0.000000000000000
  0
LINE
  5
F1022A
330
F1022B
100
AcDbEntity
8
Geo
100
AcDbLine
10
-31.4094535993062
20
8.22568913197455
30
0.000000000000000
11
-31.3094535993062
21
8.19756222841851
31
0.000000000000000
  0
LINE
  5
F1022C
330
F1022D
100
AcDbEntity
8
Geo
100
AcDbLine
10
-31.3094535993062
20
8.19756222841851
30
0.000000000000000
11
-31.2094535993062
21
8.16600216215503
31
0.000000000000000
  0
LINE
  5
F1022E
330
F1022F
100
AcDbEntity
8
Geo
100
AcDbLine
10
-31.2094535993062
20
8.16600216215503
30
0.000000000000000
11
-31.1094535993062
21
8.13104300288524
31
0.000000000000000
  0
LINE
  5
F10230
330
F10231
100
AcDbEntity
8
Geo
100
AcDbLine
10
-31.1094535993062
20
8.13104300288524
30
0.000000000000000
11
-31.0094535993062
21
8.09271326633922
31
0.000000000000000
  0
LINE
  5
F10232
330
F10233
100
AcDbEntity
8
Geo
100
AcDbLine
10
-31.0094535993062
20
8.09271326633922
30
0.000000000000000
11
-30.9094535993062
21
8.05103740625778
31
0.000000000000000
  0
LINE
  5
F10234
330
F10235
100
AcDbEntity
8
Geo
100
AcDbLine
10
-30.9094535993062
20
8.05103740625778
30
0.000000000000000
11
-30.8094535993062
21
8.00603688613142
31
0.000000000000000
  0
LINE
  5
F10236
330
F10237
100
AcDbEntity
8
Geo
100
AcDbLine
10
-30.8094535993062
20
8.00603688613142
30
0.000000000000000
11
-30.7094535993062
21
7.95773096425139
31
0.000000000000000
  0
LINE
  5
F10238
330
F10239
100
AcDbEntity
8
Geo
100
AcDbLine
10
-30.7094535993062
20
7.95773096425139
30
0.000000000000000
11
-30.6094535993062
21
7.90613727870322
31
0.000000000000000
  0
LINE
  5
F1023A
330
F1023B
100
AcDbEntity
8
Geo
100
AcDbLine
10
-30.6094535993062
20
7.90613727870322
30
0.000000000000000
11
-30.5094535993062
21
7.85127228994180
31
0.000000000000000
  0
LINE
  5
F1023C
330
F1023D
100
AcDbEntity
8
Geo
100
AcDbLine
10
-30.5094535993062
20
7.85127228994180
30
0.000000000000000
11
-30.4094535993062
21
7.79315162016653
31
0.000000000000000
  0
LINE
  5
F1023E
330
F1023F
100
AcDbEntity
8
Geo
100
AcDbLine
10
-30.4094535993062
20
7.79315162016653
30
0.000000000000000
11
-30.3094535993062
21
7.73179031671806
31
0.000000000000000
  0
LINE
  5
F10240
330
F10241
100
AcDbEntity
8
Geo
100
AcDbLine
10
-30.3094535993062
20
7.73179031671806
30
0.000000000000000
11
-30.2094535993062
21
7.66720305873125
31
0.000000000000000
  0
LINE
  5
F10242
330
F10243
100
AcDbEntity
8
Geo
100
AcDbLine
10
-30.2094535993062
20
7.66720305873125
30
0.000000000000000
11
-30.1094535993062
21
7.59940432085512
31
0.000000000000000
  0
LINE
  5
F10244
330
F10245
100
AcDbEntity
8
Geo
100
AcDbLine
10
-30.1094535993062
20
7.59940432085512
30
0.000000000000000
11
-30.0094535993062
21
7.52840850410180
31
0.000000000000000
  0
LINE
  5
F10246
330
F10247
100
AcDbEntity
8
Geo
100
AcDbLine
10
-30.0094535993062
20
7.52840850410180
30
0.000000000000000
11
-29.9094535993062
21
7.45423004125309
31
0.000000000000000
  0
LINE
  5
F10248
330
F10249
100
AcDbEntity
8
Geo
100
AcDbLine
10
-29.9094535993062
20
7.45423004125309
30
0.000000000000000
11
-29.8094535993062
21
7.37688348237585
31
0.000000000000000
  0
LINE
  5
F1024A
330
F1024B
100
AcDbEntity
8
Geo
100
AcDbLine
10
-29.8094535993062
20
7.37688348237585
30
0.000000000000000
11
-29.7094535993062
21
7.30607024306799
31
0.000000000000000
  0
LINE
  5
F1024C
330
F1024D
100
AcDbEntity
8
Geo
100
AcDbLine
10
-29.7094535993062
20
7.30607024306799
30
0.000000000000000
11
-29.6094535993062
21
7.25167134172808
31
0.000000000000000
  0
LINE
  5
F1024E
330
F1024F
100
AcDbEntity
8
Geo
100
AcDbLine
10
-29.6094535993062
20
7.25167134172808
30
0.000000000000000
11
-29.5094535993062
21
7.19746106304881
31
0.000000000000000
  0
LINE
  5
F10250
330
F10251
100
AcDbEntity
8
Geo
100
AcDbLine
10
-29.5094535993062
20
7.19746106304881
30
0.000000000000000
11
-29.4094535993062
21
7.14344442646171
31
0.000000000000000
  0
LINE
  5
F10252
330
F10253
100
AcDbEntity
8
Geo
100
AcDbLine
10
-29.4094535993062
20
7.14344442646171
30
0.000000000000000
11
-29.3094535993062
21
7.08962643346860
31
0.000000000000000
  0
LINE
  5
F10254
330
F10255
100
AcDbEntity
8
Geo
100
AcDbLine
10
-29.3094535993062
20
7.08962643346860
30
0.000000000000000
11
-29.2094535993062
21
7.03601206717853
31
0.000000000000000
  0
LINE
  5
F10256
330
F10257
100
AcDbEntity
8
Geo
100
AcDbLine
10
-29.2094535993062
20
7.03601206717853
30
0.000000000000000
11
-29.1094535993062
21
6.98260629184638
31
0.000000000000000
  0
LINE
  5
F10258
330
F10259
100
AcDbEntity
8
Geo
100
AcDbLine
10
-29.1094535993062
20
6.98260629184638
30
0.000000000000000
11
-29.0094535993062
21
6.92941405241319
31
0.000000000000000
  0
LINE
  5
F1025A
330
F1025B
100
AcDbEntity
8
Geo
100
AcDbLine
10
-29.0094535993062
20
6.92941405241319
30
0.000000000000000
11
-28.9094535993062
21
6.87644027404830
31
0.000000000000000
  0
LINE
  5
F1025C
330
F1025D
100
AcDbEntity
8
Geo
100
AcDbLine
10
-28.9094535993062
20
6.87644027404830
30
0.000000000000000
11
-28.8094535993062
21
6.82368986169335
31
0.000000000000000
  0
LINE
  5
F1025E
330
F1025F
100
AcDbEntity
8
Geo
100
AcDbLine
10
-28.8094535993062
20
6.82368986169335
30
0.000000000000000
11
-28.7094535993062
21
6.77116769960810
31
0.000000000000000
  0
LINE
  5
F10260
330
F10261
100
AcDbEntity
8
Geo
100
AcDbLine
10
-28.7094535993062
20
6.77116769960810
30
0.000000000000000
11
-28.6094535993062
21
6.71887865091817
31
0.000000000000000
  0
LINE
  5
F10262
330
F10263
100
AcDbEntity
8
Geo
100
AcDbLine
10
-28.6094535993062
20
6.71887865091817
30
0.000000000000000
11
-28.5094535993062
21
6.66682755716479
31
0.000000000000000
  0
LINE
  5
F10264
330
F10265
100
AcDbEntity
8
Geo
100
AcDbLine
10
-28.5094535993062
20
6.66682755716479
30
0.000000000000000
11
-28.4094535993062
21
6.61501923785649
31
0.000000000000000
  0
LINE
  5
F10266
330
F10267
100
AcDbEntity
8
Geo
100
AcDbLine
10
-28.4094535993062
20
6.61501923785649
30
0.000000000000000
11
-28.3094535993062
21
6.56345849002285
31
0.000000000000000
  0
LINE
  5
F10268
330
F10269
100
AcDbEntity
8
Geo
100
AcDbLine
10
-28.3094535993062
20
6.56345849002285
30
0.000000000000000
11
-28.2094535993062
21
6.51215008777037
31
0.000000000000000
  0
LINE
  5
F1026A
330
F1026B
100
AcDbEntity
8
Geo
100
AcDbLine
10
-28.2094535993062
20
6.51215008777037
30
0.000000000000000
11
-28.1094535993062
21
6.46109878184036
31
0.000000000000000
  0
LINE
  5
F1026C
330
F1026D
100
AcDbEntity
8
Geo
100
AcDbLine
10
-28.1094535993062
20
6.46109878184036
30
0.000000000000000
11
-28.0094535993062
21
6.41030929916912
31
0.000000000000000
  0
LINE
  5
F1026E
330
F1026F
100
AcDbEntity
8
Geo
100
AcDbLine
10
-28.0094535993062
20
6.41030929916912
30
0.000000000000000
11
-27.9094535993062
21
6.35978634245025
31
0.000000000000000
  0
LINE
  5
F10270
330
F10271
100
AcDbEntity
8
Geo
100
AcDbLine
10
-27.9094535993062
20
6.35978634245025
30
0.000000000000000
11
-27.8094535993062
21
6.30953458969920
31
0.000000000000000
  0
LINE
  5
F10272
330
F10273
100
AcDbEntity
8
Geo
100
AcDbLine
10
-27.8094535993062
20
6.30953458969920
30
0.000000000000000
11
-27.7094535993062
21
6.25955869382014
31
0.000000000000000
  0
LINE
  5
F10274
330
F10275
100
AcDbEntity
8
Geo
100
AcDbLine
10
-27.7094535993062
20
6.25955869382014
30
0.000000000000000
11
-27.6094535993062
21
6.20986328217512
31
0.000000000000000
  0
LINE
  5
F10276
330
F10277
100
AcDbEntity
8
Geo
100
AcDbLine
10
-27.6094535993062
20
6.20986328217512
30
0.000000000000000
11
-27.5094535993062
21
6.16045295615564
31
0.000000000000000
  0
LINE
  5
F10278
330
F10279
100
AcDbEntity
8
Geo
100
AcDbLine
10
-27.5094535993062
20
6.16045295615564
30
0.000000000000000
11
-27.4094535993062
21
6.11133229075660
31
0.000000000000000
  0
LINE
  5
F1027A
330
F1027B
100
AcDbEntity
8
Geo
100
AcDbLine
10
-27.4094535993062
20
6.11133229075660
30
0.000000000000000
11
-27.3094535993062
21
6.06250583415266
31
0.000000000000000
  0
LINE
  5
F1027C
330
F1027D
100
AcDbEntity
8
Geo
100
AcDbLine
10
-27.3094535993062
20
6.06250583415266
30
0.000000000000000
11
-27.2094535993062
21
6.01397810727713
31
0.000000000000000
  0
LINE
  5
F1027E
330
F1027F
100
AcDbEntity
8
Geo
100
AcDbLine
10
-27.2094535993062
20
6.01397810727713
30
0.000000000000000
11
-27.1094535993062
21
5.96575360340339
31
0.000000000000000
  0
LINE
  5
F10280
330
F10281
100
AcDbEntity
8
Geo
100
AcDbLine
10
-27.1094535993062
20
5.96575360340339
30
0.000000000000000
11
-27.0094535993062
21
5.91783678772883
31
0.000000000000000
  0
LINE
  5
F10282
330
F10283
100
AcDbEntity
8
Geo
100
AcDbLine
10
-27.0094535993062
20
5.91783678772883
30
0.000000000000000
11
-26.9094535993062
21
5.87023209696141
31
0.000000000000000
  0
LINE
  5
F10284
330
F10285
100
AcDbEntity
8
Geo
100
AcDbLine
10
-26.9094535993062
20
5.87023209696141
30
0.000000000000000
11
-26.8094535993062
21
5.82294393890884
31
0.000000000000000
  0
LINE
  5
F10286
330
F10287
100
AcDbEntity
8
Geo
100
AcDbLine
10
-26.8094535993062
20
5.82294393890884
30
0.000000000000000
11
-26.7094535993062
21
5.77597669207051
31
0.000000000000000
  0
LINE
  5
F10288
330
F10289
100
AcDbEntity
8
Geo
100
AcDbLine
10
-26.7094535993062
20
5.77597669207051
30
0.000000000000000
11
-26.6094535993062
21
5.72933470523200
31
0.000000000000000
  0
LINE
  5
F1028A
330
F1028B
100
AcDbEntity
8
Geo
100
AcDbLine
10
-26.6094535993062
20
5.72933470523200
30
0.000000000000000
11
-26.5094535993062
21
5.68302229706248
31
0.000000000000000
  0
LINE
  5
F1028C
330
F1028D
100
AcDbEntity
8
Geo
100
AcDbLine
10
-26.5094535993062
20
5.68302229706248
30
0.000000000000000
11
-26.4094535993062
21
5.63704375571480
31
0.000000000000000
  0
LINE
  5
F1028E
330
F1028F
100
AcDbEntity
8
Geo
100
AcDbLine
10
-26.4094535993062
20
5.63704375571480
30
0.000000000000000
11
-26.3094535993062
21
5.59140333842846
31
0.000000000000000
  0
LINE
  5
F10290
330
F10291
100
AcDbEntity
8
Geo
100
AcDbLine
10
-26.3094535993062
20
5.59140333842846
30
0.000000000000000
11
-26.2094535993062
21
5.54610527113542
31
0.000000000000000
  0
LINE
  5
F10292
330
F10293
100
AcDbEntity
8
Geo
100
AcDbLine
10
-26.2094535993062
20
5.54610527113542
30
0.000000000000000
11
-26.1094535993062
21
5.50115374806880
31
0.000000000000000
  0
LINE
  5
F10294
330
F10295
100
AcDbEntity
8
Geo
100
AcDbLine
10
-26.1094535993062
20
5.50115374806880
30
0.000000000000000
11
-26.0094535993062
21
5.45655293137455
31
0.000000000000000
  0
LINE
  5
F10296
330
F10297
100
AcDbEntity
8
Geo
100
AcDbLine
10
-26.0094535993062
20
5.45655293137455
30
0.000000000000000
11
-25.9094535993062
21
5.41230695072605
31
0.000000000000000
  0
LINE
  5
F10298
330
F10299
100
AcDbEntity
8
Geo
100
AcDbLine
10
-25.9094535993062
20
5.41230695072605
30
0.000000000000000
11
-25.8094535993062
21
5.36841990294175
31
0.000000000000000
  0
LINE
  5
F1029A
330
F1029B
100
AcDbEntity
8
Geo
100
AcDbLine
10
-25.8094535993062
20
5.36841990294175
30
0.000000000000000
11
-25.7094535993062
21
5.32489585160584
31
0.000000000000000
  0
LINE
  5
F1029C
330
F1029D
100
AcDbEntity
8
Geo
100
AcDbLine
10
-25.7094535993062
20
5.32489585160584
30
0.000000000000000
11
-25.6094535993062
21
5.28173882669196
31
0.000000000000000
  0
LINE
  5
F1029E
330
F1029F
100
AcDbEntity
8
Geo
100
AcDbLine
10
-25.6094535993062
20
5.28173882669196
30
0.000000000000000
11
-25.5094535993062
21
5.23895282419012
31
0.000000000000000
  0
LINE
  5
F102A0
330
F102A1
100
AcDbEntity
8
Geo
100
AcDbLine
10
-25.5094535993062
20
5.23895282419012
30
0.000000000000000
11
-25.4094535993062
21
5.19654180573664
31
0.000000000000000
  0
LINE
  5
F102A2
330
F102A3
100
AcDbEntity
8
Geo
100
AcDbLine
10
-25.4094535993062
20
5.19654180573664
30
0.000000000000000
11
-25.3094535993062
21
5.15450969824737
31
0.000000000000000
  0
LINE
  5
F102A4
330
F102A5
100
AcDbEntity
8
Geo
100
AcDbLine
10
-25.3094535993062
20
5.15450969824737
30
0.000000000000000
11
-25.2094535993062
21
5.11286039355410
31
0.000000000000000
  0
LINE
  5
F102A6
330
F102A7
100
AcDbEntity
8
Geo
100
AcDbLine
10
-25.2094535993062
20
5.11286039355410
30
0.000000000000000
11
-25.1094535993062
21
5.07159774804416
31
0.000000000000000
  0
LINE
  5
F102A8
330
F102A9
100
AcDbEntity
8
Geo
100
AcDbLine
10
-25.1094535993062
20
5.07159774804416
30
0.000000000000000
11
-25.0094535993062
21
5.03072558230340
31
0.000000000000000
  0
LINE
  5
F102AA
330
F102AB
100
AcDbEntity
8
Geo
100
AcDbLine
10
-25.0094535993062
20
5.03072558230340
30
0.000000000000000
11
-24.9094535993062
21
4.99024768076240
31
0.000000000000000
  0
LINE
  5
F102AC
330
F102AD
100
AcDbEntity
8
Geo
100
AcDbLine
10
-24.9094535993062
20
4.99024768076240
30
0.000000000000000
11
-24.8094535993062
21
4.95016779134611
31
0.000000000000000
  0
LINE
  5
F102AE
330
F102AF
100
AcDbEntity
8
Geo
100
AcDbLine
10
-24.8094535993062
20
4.95016779134611
30
0.000000000000000
11
-24.7094535993062
21
4.91048962512675
31
0.000000000000000
  0
LINE
  5
F102B0
330
F102B1
100
AcDbEntity
8
Geo
100
AcDbLine
10
-24.7094535993062
20
4.91048962512675
30
0.000000000000000
11
-24.6094535993062
21
4.87121685598025
31
0.000000000000000
  0
LINE
  5
F102B2
330
F102B3
100
AcDbEntity
8
Geo
100
AcDbLine
10
-24.6094535993062
20
4.87121685598025
30
0.000000000000000
11
-24.5094535993062
21
4.83235312024607
31
0.000000000000000
  0
LINE
  5
F102B4
330
F102B5
100
AcDbEntity
8
Geo
100
AcDbLine
10
-24.5094535993062
20
4.83235312024607
30
0.000000000000000
11
-24.4094535993062
21
4.79390201639050
31
0.000000000000000
  0
LINE
  5
F102B6
330
F102B7
100
AcDbEntity
8
Geo
100
AcDbLine
10
-24.4094535993062
20
4.79390201639050
30
0.000000000000000
11
-24.3094535993062
21
4.75586710467346
31
0.000000000000000
  0
LINE
  5
F102B8
330
F102B9
100
AcDbEntity
8
Geo
100
AcDbLine
10
-24.3094535993062
20
4.75586710467346
30
0.000000000000000
11
-24.2094535993062
21
4.71825190681885
31
0.000000000000000
  0
LINE
  5
F102BA
330
F102BB
100
AcDbEntity
8
Geo
100
AcDbLine
10
-24.2094535993062
20
4.71825190681885
30
0.000000000000000
11
-24.1094535993062
21
4.68105990568849
31
0.000000000000000
  0
LINE
  5
F102BC
330
F102BD
100
AcDbEntity
8
Geo
100
AcDbLine
10
-24.1094535993062
20
4.68105990568849
30
0.000000000000000
11
-24.0094535993062
21
4.64429454495963
31
0.000000000000000
  0
LINE
  5
F102BE
330
F102BF
100
AcDbEntity
8
Geo
100
AcDbLine
10
-24.0094535993062
20
4.64429454495963
30
0.000000000000000
11
-23.9094535993062
21
4.60795922880606
31
0.000000000000000
  0
LINE
  5
F102C0
330
F102C1
100
AcDbEntity
8
Geo
100
AcDbLine
10
-23.9094535993062
20
4.60795922880606
30
0.000000000000000
11
-23.8094535993062
21
4.57205732158294
31
0.000000000000000
  0
LINE
  5
F102C2
330
F102C3
100
AcDbEntity
8
Geo
100
AcDbLine
10
-23.8094535993062
20
4.57205732158294
30
0.000000000000000
11
-23.7094535993062
21
4.53659214751530
31
0.000000000000000
  0
LINE
  5
F102C4
330
F102C5
100
AcDbEntity
8
Geo
100
AcDbLine
10
-23.7094535993062
20
4.53659214751530
30
0.000000000000000
11
-23.6094535993062
21
4.50156699039021
31
0.000000000000000
  0
LINE
  5
F102C6
330
F102C7
100
AcDbEntity
8
Geo
100
AcDbLine
10
-23.6094535993062
20
4.50156699039021
30
0.000000000000000
11
-23.5094535993062
21
4.46698509325275
31
0.000000000000000
  0
LINE
  5
F102C8
330
F102C9
100
AcDbEntity
8
Geo
100
AcDbLine
10
-23.5094535993062
20
4.46698509325275
30
0.000000000000000
11
-23.4094535993062
21
4.43284965810573
31
0.000000000000000
  0
LINE
  5
F102CA
330
F102CB
100
AcDbEntity
8
Geo
100
AcDbLine
10
-23.4094535993062
20
4.43284965810573
30
0.000000000000000
11
-23.3094535993062
21
4.39916384561320
31
0.000000000000000
  0
LINE
  5
F102CC
330
F102CD
100
AcDbEntity
8
Geo
100
AcDbLine
10
-23.3094535993062
20
4.39916384561320
30
0.000000000000000
11
-23.2094535993062
21
4.36593077480781
31
0.000000000000000
  0
LINE
  5
F102CE
330
F102CF
100
AcDbEntity
8
Geo
100
AcDbLine
10
-23.2094535993062
20
4.36593077480781
30
0.000000000000000
11
-23.1094535993062
21
4.33315352280199
31
0.000000000000000
  0
LINE
  5
F102D0
330
F102D1
100
AcDbEntity
8
Geo
100
AcDbLine
10
-23.1094535993062
20
4.33315352280199
30
0.000000000000000
11
-23.0094535993062
21
4.30083512450307
31
0.000000000000000
  0
LINE
  5
F102D2
330
F102D3
100
AcDbEntity
8
Geo
100
AcDbLine
10
-23.0094535993062
20
4.30083512450307
30
0.000000000000000
11
-22.9094535993062
21
4.26897857233225
31
0.000000000000000
  0
LINE
  5
F102D4
330
F102D5
100
AcDbEntity
8
Geo
100
AcDbLine
10
-22.9094535993062
20
4.26897857233225
30
0.000000000000000
11
-22.8094535993062
21
4.23758681594752
31
0.000000000000000
  0
LINE
  5
F102D6
330
F102D7
100
AcDbEntity
8
Geo
100
AcDbLine
10
-22.8094535993062
20
4.23758681594752
30
0.000000000000000
11
-22.7094535993062
21
4.20666276197057
31
0.000000000000000
  0
LINE
  5
F102D8
330
F102D9
100
AcDbEntity
8
Geo
100
AcDbLine
10
-22.7094535993062
20
4.20666276197057
30
0.000000000000000
11
-22.6094535993062
21
4.17620927371764
31
0.000000000000000
  0
LINE
  5
F102DA
330
F102DB
100
AcDbEntity
8
Geo
100
AcDbLine
10
-22.6094535993062
20
4.17620927371764
30
0.000000000000000
11
-22.5094535993062
21
4.14622917093439
31
0.000000000000000
  0
LINE
  5
F102DC
330
F102DD
100
AcDbEntity
8
Geo
100
AcDbLine
10
-22.5094535993062
20
4.14622917093439
30
0.000000000000000
11
-22.4094535993062
21
4.11672522953486
31
0.000000000000000
  0
LINE
  5
F102DE
330
F102DF
100
AcDbEntity
8
Geo
100
AcDbLine
10
-22.4094535993062
20
4.11672522953486
30
0.000000000000000
11
-22.3094535993062
21
4.08770018134438
31
0.000000000000000
  0
LINE
  5
F102E0
330
F102E1
100
AcDbEntity
8
Geo
100
AcDbLine
10
-22.3094535993062
20
4.08770018134438
30
0.000000000000000
11
-22.2094535993062
21
4.05915671384669
31
0.000000000000000
  0
LINE
  5
F102E2
330
F102E3
100
AcDbEntity
8
Geo
100
AcDbLine
10
-22.2094535993062
20
4.05915671384669
30
0.000000000000000
11
-22.1094535993062
21
4.03109746993504
31
0.000000000000000
  0
LINE
  5
F102E4
330
F102E5
100
AcDbEntity
8
Geo
100
AcDbLine
10
-22.1094535993062
20
4.03109746993504
30
0.000000000000000
11
-22.0094535993062
21
4.00352504766753
31
0.000000000000000
  0
LINE
  5
F102E6
330
F102E7
100
AcDbEntity
8
Geo
100
AcDbLine
10
-22.0094535993062
20
4.00352504766753
30
0.000000000000000
11
-21.9094535993062
21
3.97644200002653
31
0.000000000000000
  0
LINE
  5
F102E8
330
F102E9
100
AcDbEntity
8
Geo
100
AcDbLine
10
-21.9094535993062
20
3.97644200002653
30
0.000000000000000
11
-21.8094535993062
21
3.94985083468228
31
0.000000000000000
  0
LINE
  5
F102EA
330
F102EB
100
AcDbEntity
8
Geo
100
AcDbLine
10
-21.8094535993062
20
3.94985083468228
30
0.000000000000000
11
-21.7094535993062
21
3.92375401376073
31
0.000000000000000
  0
LINE
  5
F102EC
330
F102ED
100
AcDbEntity
8
Geo
100
AcDbLine
10
-21.7094535993062
20
3.92375401376073
30
0.000000000000000
11
-21.6094535993062
21
3.89815395361552
31
0.000000000000000
  0
LINE
  5
F102EE
330
F102EF
100
AcDbEntity
8
Geo
100
AcDbLine
10
-21.6094535993062
20
3.89815395361552
30
0.000000000000000
11
-21.5094535993062
21
3.87305302460432
31
0.000000000000000
  0
LINE
  5
F102F0
330
F102F1
100
AcDbEntity
8
Geo
100
AcDbLine
10
-21.5094535993062
20
3.87305302460432
30
0.000000000000000
11
-21.4094535993062
21
3.84845355086929
31
0.000000000000000
  0
LINE
  5
F102F2
330
F102F3
100
AcDbEntity
8
Geo
100
AcDbLine
10
-21.4094535993062
20
3.84845355086929
30
0.000000000000000
11
-21.3094535993062
21
3.82435781012189
31
0.000000000000000
  0
LINE
  5
F102F4
330
F102F5
100
AcDbEntity
8
Geo
100
AcDbLine
10
-21.3094535993062
20
3.82435781012189
30
0.000000000000000
11
-21.2094535993062
21
3.80076803343203
31
0.000000000000000
  0
LINE
  5
F102F6
330
F102F7
100
AcDbEntity
8
Geo
100
AcDbLine
10
-21.2094535993062
20
3.80076803343203
30
0.000000000000000
11
-21.1094535993062
21
3.77768640502142
31
0.000000000000000
  0
LINE
  5
F102F8
330
F102F9
100
AcDbEntity
8
Geo
100
AcDbLine
10
-21.1094535993062
20
3.77768640502142
30
0.000000000000000
11
-21.0094535993062
21
3.75511506206140
31
0.000000000000000
  0
LINE
  5
F102FA
330
F102FB
100
AcDbEntity
8
Geo
100
AcDbLine
10
-21.0094535993062
20
3.75511506206140
30
0.000000000000000
11
-20.9094535993062
21
3.73305609447500
31
0.000000000000000
  0
LINE
  5
F102FC
330
F102FD
100
AcDbEntity
8
Geo
100
AcDbLine
10
-20.9094535993062
20
3.73305609447500
30
0.000000000000000
11
-20.8094535993062
21
3.71151154474346
31
0.000000000000000
  0
LINE
  5
F102FE
330
F102FF
100
AcDbEntity
8
Geo
100
AcDbLine
10
-20.8094535993062
20
3.71151154474346
30
0.000000000000000
11
-20.7094535993062
21
3.69048340771711
31
0.000000000000000
  0
LINE
  5
F10300
330
F10301
100
AcDbEntity
8
Geo
100
AcDbLine
10
-20.7094535993062
20
3.69048340771711
30
0.000000000000000
11
-20.6094535993062
21
3.66997363043064
31
0.000000000000000
  0
LINE
  5
F10302
330
F10303
100
AcDbEntity
8
Geo
100
AcDbLine
10
-20.6094535993062
20
3.66997363043064
30
0.000000000000000
11
-20.5094535993062
21
3.64998411192285
31
0.000000000000000
  0
LINE
  5
F10304
330
F10305
100
AcDbEntity
8
Geo
100
AcDbLine
10
-20.5094535993062
20
3.64998411192285
30
0.000000000000000
11
-20.4094535993062
21
3.63051670306081
31
0.000000000000000
  0
LINE
  5
F10306
330
F10307
100
AcDbEntity
8
Geo
100
AcDbLine
10
-20.4094535993062
20
3.63051670306081
30
0.000000000000000
11
-20.3094535993062
21
3.61157320636846
31
0.000000000000000
  0
LINE
  5
F10308
330
F10309
100
AcDbEntity
8
Geo
100
AcDbLine
10
-20.3094535993062
20
3.61157320636846
30
0.000000000000000
11
-20.2094535993062
21
3.59315537585974
31
0.000000000000000
  0
LINE
  5
F1030A
330
F1030B
100
AcDbEntity
8
Geo
100
AcDbLine
10
-20.2094535993062
20
3.59315537585974
30
0.000000000000000
11
-20.1094535993062
21
3.57526491687618
31
0.000000000000000
  0
LINE
  5
F1030C
330
F1030D
100
AcDbEntity
8
Geo
100
AcDbLine
10
-20.1094535993062
20
3.57526491687618
30
0.000000000000000
11
-20.0094535993062
21
3.55790348592897
31
0.000000000000000
  0
LINE
  5
F1030E
330
F1030F
100
AcDbEntity
8
Geo
100
AcDbLine
10
-20.0094535993062
20
3.55790348592897
30
0.000000000000000
11
-19.9094535993062
21
3.54107269054560
31
0.000000000000000
  0
LINE
  5
F10310
330
F10311
100
AcDbEntity
8
Geo
100
AcDbLine
10
-19.9094535993062
20
3.54107269054560
30
0.000000000000000
11
-19.8094535993062
21
3.52477408912103
31
0.000000000000000
  0
LINE
  5
F10312
330
F10313
100
AcDbEntity
8
Geo
100
AcDbLine
10
-19.8094535993062
20
3.52477408912103
30
0.000000000000000
11
-19.7094535993062
21
3.50900919077339
31
0.000000000000000
  0
LINE
  5
F10314
330
F10315
100
AcDbEntity
8
Geo
100
AcDbLine
10
-19.7094535993062
20
3.50900919077339
30
0.000000000000000
11
-19.6094535993062
21
3.49377945520421
31
0.000000000000000
  0
LINE
  5
F10316
330
F10317
100
AcDbEntity
8
Geo
100
AcDbLine
10
-19.6094535993062
20
3.49377945520421
30
0.000000000000000
11
-19.5094535993062
21
3.47908629256332
31
0.000000000000000
  0
LINE
  5
F10318
330
F10319
100
AcDbEntity
8
Geo
100
AcDbLine
10
-19.5094535993062
20
3.47908629256332
30
0.000000000000000
11
-19.4094535993062
21
3.46493106331824
31
0.000000000000000
  0
LINE
  5
F1031A
330
F1031B
100
AcDbEntity
8
Geo
100
AcDbLine
10
-19.4094535993062
20
3.46493106331824
30
0.000000000000000
11
-19.3094535993062
21
3.45131507812823
31
0.000000000000000
  0
LINE
  5
F1031C
330
F1031D
100
AcDbEntity
8
Geo
100
AcDbLine
10
-19.3094535993062
20
3.45131507812823
30
0.000000000000000
11
-19.2094535993062
21
3.43823959772293
31
0.000000000000000
  0
LINE
  5
F1031E
330
F1031F
100
AcDbEntity
8
Geo
100
AcDbLine
10
-19.2094535993062
20
3.43823959772293
30
0.000000000000000
11
-19.1094535993062
21
3.42570583278564
31
0.000000000000000
  0
LINE
  5
F10320
330
F10321
100
AcDbEntity
8
Geo
100
AcDbLine
10
-19.1094535993062
20
3.42570583278564
30
0.000000000000000
11
-19.0094535993062
21
3.41371494384119
31
0.000000000000000
  0
LINE
  5
F10322
330
F10323
100
AcDbEntity
8
Geo
100
AcDbLine
10
-19.0094535993062
20
3.41371494384119
30
0.000000000000000
11
-18.9094535993062
21
3.40226804114850
31
0.000000000000000
  0
LINE
  5
F10324
330
F10325
100
AcDbEntity
8
Geo
100
AcDbLine
10
-18.9094535993062
20
3.40226804114850
30
0.000000000000000
11
-18.8094535993062
21
3.39136618459780
31
0.000000000000000
  0
LINE
  5
F10326
330
F10327
100
AcDbEntity
8
Geo
100
AcDbLine
10
-18.8094535993062
20
3.39136618459780
30
0.000000000000000
11
-18.7094535993062
21
3.38101038361246
31
0.000000000000000
  0
LINE
  5
F10328
330
F10329
100
AcDbEntity
8
Geo
100
AcDbLine
10
-18.7094535993062
20
3.38101038361246
30
0.000000000000000
11
-18.6094535993062
21
3.37120159705554
31
0.000000000000000
  0
LINE
  5
F1032A
330
F1032B
100
AcDbEntity
8
Geo
100
AcDbLine
10
-18.6094535993062
20
3.37120159705554
30
0.000000000000000
11
-18.5094535993062
21
3.36194073314102
31
0.000000000000000
  0
LINE
  5
F1032C
330
F1032D
100
AcDbEntity
8
Geo
100
AcDbLine
10
-18.5094535993062
20
3.36194073314102
30
0.000000000000000
11
-18.4094535993062
21
3.35322864934966
31
0.000000000000000
  0
LINE
  5
F1032E
330
F1032F
100
AcDbEntity
8
Geo
100
AcDbLine
10
-18.4094535993062
20
3.35322864934966
30
0.000000000000000
11
-18.3094535993062
21
3.34506615234968
31
0.000000000000000
  0
LINE
  5
F10330
330
F10331
100
AcDbEntity
8
Geo
100
AcDbLine
10
-18.3094535993062
20
3.34506615234968
30
0.000000000000000
11
-18.2094535993062
21
3.33745399792201
31
0.000000000000000
  0
LINE
  5
F10332
330
F10333
100
AcDbEntity
8
Geo
100
AcDbLine
10
-18.2094535993062
20
3.33745399792201
30
0.000000000000000
11
-18.1094535993062
21
3.33039289089031
31
0.000000000000000
  0
LINE
  5
F10334
330
F10335
100
AcDbEntity
8
Geo
100
AcDbLine
10
-18.1094535993062
20
3.33039289089031
30
0.000000000000000
11
-18.0094535993062
21
3.32388348505576
31
0.000000000000000
  0
LINE
  5
F10336
330
F10337
100
AcDbEntity
8
Geo
100
AcDbLine
10
-18.0094535993062
20
3.32388348505576
30
0.000000000000000
11
-17.9094535993062
21
3.31792638313645
31
0.000000000000000
  0
LINE
  5
F10338
330
F10339
100
AcDbEntity
8
Geo
100
AcDbLine
10
-17.9094535993062
20
3.31792638313645
30
0.000000000000000
11
-17.8094535993062
21
3.31252213671166
31
0.000000000000000
  0
LINE
  5
F1033A
330
F1033B
100
AcDbEntity
8
Geo
100
AcDbLine
10
-17.8094535993062
20
3.31252213671166
30
0.000000000000000
11
-17.7094535993062
21
3.30767124617069
31
0.000000000000000
  0
LINE
  5
F1033C
330
F1033D
100
AcDbEntity
8
Geo
100
AcDbLine
10
-17.7094535993062
20
3.30767124617069
30
0.000000000000000
11
-17.6094535993062
21
3.30337416066663
31
0.000000000000000
  0
LINE
  5
F1033E
330
F1033F
100
AcDbEntity
8
Geo
100
AcDbLine
10
-17.6094535993062
20
3.30337416066663
30
0.000000000000000
11
-17.5094535993062
21
3.29963127807468
31
0.000000000000000
  0
LINE
  5
F10340
330
F10341
100
AcDbEntity
8
Geo
100
AcDbLine
10
-17.5094535993062
20
3.29963127807468
30
0.000000000000000
11
-17.4094535993062
21
3.29644294495538
31
0.000000000000000
  0
LINE
  5
F10342
330
F10343
100
AcDbEntity
8
Geo
100
AcDbLine
10
-17.4094535993062
20
3.29644294495538
30
0.000000000000000
11
-17.3094535993062
21
3.29380945652247
31
0.000000000000000
  0
LINE
  5
F10344
330
F10345
100
AcDbEntity
8
Geo
100
AcDbLine
10
-17.3094535993062
20
3.29380945652247
30
0.000000000000000
11
-17.2094535993062
21
3.29173105661561
31
0.000000000000000
  0
LINE
  5
F10346
330
F10347
100
AcDbEntity
8
Geo
100
AcDbLine
10
-17.2094535993062
20
3.29173105661561
30
0.000000000000000
11
-17.1094535993062
21
3.29020793767773
31
0.000000000000000
  0
LINE
  5
F10348
330
F10349
100
AcDbEntity
8
Geo
100
AcDbLine
10
-17.1094535993062
20
3.29020793767773
30
0.000000000000000
11
-17.0094535993062
21
3.28924024073728
31
0.000000000000000
  0
LINE
  5
F1034A
330
F1034B
100
AcDbEntity
8
Geo
100
AcDbLine
10
-17.0094535993062
20
3.28924024073728
30
0.000000000000000
11
-16.9094535993062
21
3.28882805539514
31
0.000000000000000
  0
LINE
  5
F1034C
330
F1034D
100
AcDbEntity
8
Geo
100
AcDbLine
10
-16.9094535993062
20
3.28882805539514
30
0.000000000000000
11
-16.8852591751193
21
3.28881179531656
31
0.000000000000000
  0
LINE
  5
F1034E
330
F1034F
100
AcDbEntity
8
Geo
100
AcDbLine
10
-13.3094535993062
20
7.26481565682732
30
0.000000000000000
11
-13.1094535993062
21
7.15649533505232
31
0.000000000000000
  0
LINE
  5
F10350
330
F10351
100
AcDbEntity
8
Geo
100
AcDbLine
10
-13.1094535993062
20
7.15649533505232
30
0.000000000000000
11
-13.0094535993062
21
7.10262882400244
31
0.000000000000000
  0
LINE
  5
F10352
330
F10353
100
AcDbEntity
8
Geo
100
AcDbLine
10
-13.0094535993062
20
7.10262882400244
30
0.000000000000000
11
-12.9094535993062
21
7.04896473573986
31
0.000000000000000
  0
LINE
  5
F10354
330
F10355
100
AcDbEntity
8
Geo
100
AcDbLine
10
-12.9094535993062
20
7.04896473573986
30
0.000000000000000
11
-12.8094535993062
21
6.99550803912350
31
0.000000000000000
  0
LINE
  5
F10356
330
F10357
100
AcDbEntity
8
Geo
100
AcDbLine
10
-12.8094535993062
20
6.99550803912350
30
0.000000000000000
11
-12.7094535993062
21
6.94226368381201
31
0.000000000000000
  0
LINE
  5
F10358
330
F10359
100
AcDbEntity
8
Geo
100
AcDbLine
10
-12.7094535993062
20
6.94226368381201
30
0.000000000000000
11
-12.6094535993062
21
6.88923659982083
31
0.000000000000000
  0
LINE
  5
F1035A
330
F1035B
100
AcDbEntity
8
Geo
100
AcDbLine
10
-12.6094535993062
20
6.88923659982083
30
0.000000000000000
11
-12.5094535993062
21
6.83643169713725
31
0.000000000000000
  0
LINE
  5
F1035C
330
F1035D
100
AcDbEntity
8
Geo
100
AcDbLine
10
-12.5094535993062
20
6.83643169713725
30
0.000000000000000
11
-12.4094535993062
21
6.78385386552270
31
0.000000000000000
  0
LINE
  5
F1035E
330
F1035F
100
AcDbEntity
8
Geo
100
AcDbLine
10
-12.4094535993062
20
6.78385386552270
30
0.000000000000000
11
-12.3094535993062
21
6.73150797482412
31
0.000000000000000
  0
LINE
  5
F10360
330
F10361
100
AcDbEntity
8
Geo
100
AcDbLine
10
-12.3094535993062
20
6.73150797482412
30
0.000000000000000
11
-12.2094535993062
21
6.67939887649379
31
0.000000000000000
  0
LINE
  5
F10362
330
F10363
100
AcDbEntity
8
Geo
100
AcDbLine
10
-12.2094535993062
20
6.67939887649379
30
0.000000000000000
11
-12.1094535993062
21
6.62753140768844
31
0.000000000000000
  0
LINE
  5
F10364
330
F10365
100
AcDbEntity
8
Geo
100
AcDbLine
10
-12.1094535993062
20
6.62753140768844
30
0.000000000000000
11
-12.0094535993062
21
6.57591040042775
31
0.000000000000000
  0
LINE
  5
F10366
330
F10367
100
AcDbEntity
8
Geo
100
AcDbLine
10
-12.0094535993062
20
6.57591040042775
30
0.000000000000000
11
-11.9094535993062
21
6.52454070002083
31
0.000000000000000
  0
LINE
  5
F10368
330
F10369
100
AcDbEntity
8
Geo
100
AcDbLine
10
-11.9094535993062
20
6.52454070002083
30
0.000000000000000
11
-11.8094535993062
21
6.47342719953861
31
0.000000000000000
  0
LINE
  5
F1036A
330
F1036B
100
AcDbEntity
8
Geo
100
AcDbLine
10
-11.8094535993062
20
6.47342719953861
30
0.000000000000000
11
-11.7094535993062
21
6.42257490078422
31
0.000000000000000
  0
LINE
  5
F1036C
330
F1036D
100
AcDbEntity
8
Geo
100
AcDbLine
10
-11.7094535993062
20
6.42257490078422
30
0.000000000000000
11
-11.6094535993061
21
6.37198901729950
31
0.000000000000000
  0
LINE
  5
F1036E
330
F1036F
100
AcDbEntity
8
Geo
100
AcDbLine
10
-11.6094535993061
20
6.37198901729950
30
0.000000000000000
11
-11.5094535993061
21
6.32167514179361
31
0.000000000000000
  0
LINE
  5
F10370
330
F10371
100
AcDbEntity
8
Geo
100
AcDbLine
10
-11.5094535993061
20
6.32167514179361
30
0.000000000000000
11
-11.4094535993061
21
6.27163950938244
31
0.000000000000000
  0
LINE
  5
F10372
330
F10373
100
AcDbEntity
8
Geo
100
AcDbLine
10
-11.4094535993061
20
6.27163950938244
30
0.000000000000000
11
-11.3094535993061
21
6.22188939962004
31
0.000000000000000
  0
LINE
  5
F10374
330
F10375
100
AcDbEntity
8
Geo
100
AcDbLine
10
-11.3094535993061
20
6.22188939962004
30
0.000000000000000
11
-11.2094535993061
21
6.17243373495988
31
0.000000000000000
  0
LINE
  5
F10376
330
F10377
100
AcDbEntity
8
Geo
100
AcDbLine
10
-11.2094535993061
20
6.17243373495988
30
0.000000000000000
11
-11.1094535993061
21
6.12328395151823
31
0.000000000000000
  0
LINE
  5
F10378
330
F10379
100
AcDbEntity
8
Geo
100
AcDbLine
10
-11.1094535993061
20
6.12328395151823
30
0.000000000000000
11
-11.0094535993061
21
6.07445524037858
31
0.000000000000000
  0
LINE
  5
F1037A
330
F1037B
100
AcDbEntity
8
Geo
100
AcDbLine
10
-11.0094535993061
20
6.07445524037858
30
0.000000000000000
11
-10.9094535993061
21
6.02596828477331
31
0.000000000000000
  0
LINE
  5
F1037C
330
F1037D
100
AcDbEntity
8
Geo
100
AcDbLine
10
-10.9094535993061
20
6.02596828477331
30
0.000000000000000
11
-10.8094535993061
21
5.97785165096762
31
0.000000000000000
  0
LINE
  5
F1037E
330
F1037F
100
AcDbEntity
8
Geo
100
AcDbLine
10
-10.8094535993061
20
5.97785165096762
30
0.000000000000000
11
-10.7094535993061
21
5.93014502930667
31
0.000000000000000
  0
LINE
  5
F10380
330
F10381
100
AcDbEntity
8
Geo
100
AcDbLine
10
-10.7094535993061
20
5.93014502930667
30
0.000000000000000
11
-10.6094535993061
21
5.88290356759215
31
0.000000000000000
  0
LINE
  5
F10382
330
F10383
100
AcDbEntity
8
Geo
100
AcDbLine
10
-10.6094535993061
20
5.88290356759215
30
0.000000000000000
11
-10.5094535993061
21
5.83620359294744
31
0.000000000000000
  0
LINE
  5
F10384
330
F10385
100
AcDbEntity
8
Geo
100
AcDbLine
10
-10.5094535993061
20
5.83620359294744
30
0.000000000000000
11
-10.4094535993061
21
5.79015008236698
31
0.000000000000000
  0
LINE
  5
F10386
330
F10387
100
AcDbEntity
8
Geo
100
AcDbLine
10
-10.4094535993061
20
5.79015008236698
30
0.000000000000000
11
-10.3094535993061
21
5.74488631892775
31
0.000000000000000
  0
LINE
  5
F10388
330
F10389
100
AcDbEntity
8
Geo
100
AcDbLine
10
-10.3094535993061
20
5.74488631892775
30
0.000000000000000
11
-10.2094535993061
21
5.70060626451665
31
0.000000000000000
  0
LINE
  5
F1038A
330
F1038B
100
AcDbEntity
8
Geo
100
AcDbLine
10
-10.2094535993061
20
5.70060626451665
30
0.000000000000000
11
-10.1094535993061
21
5.65757029802782
31
0.000000000000000
  0
LINE
  5
F1038C
330
F1038D
100
AcDbEntity
8
Geo
100
AcDbLine
10
-10.1094535993061
20
5.65757029802782
30
0.000000000000000
11
-10.0094535993061
21
5.61612512203808
31
0.000000000000000
  0
LINE
  5
F1038E
330
F1038F
100
AcDbEntity
8
Geo
100
AcDbLine
10
-10.0094535993061
20
5.61612512203808
30
0.000000000000000
11
-9.90945359930613
21
5.57672885012158
31
0.000000000000000
  0
LINE
  5
F10390
330
F10391
100
AcDbEntity
8
Geo
100
AcDbLine
10
-9.90945359930613
20
5.57672885012158
30
0.000000000000000
11
-9.80945359930612
21
5.53998258200876
31
0.000000000000000
  0
LINE
  5
F10392
330
F10393
100
AcDbEntity
8
Geo
100
AcDbLine
10
-9.80945359930612
20
5.53998258200876
30
0.000000000000000
11
-9.70945359930612
21
5.50667020332066
31
0.000000000000000
  0
LINE
  5
F10394
330
F10395
100
AcDbEntity
8
Geo
100
AcDbLine
10
-9.70945359930612
20
5.50667020332066
30
0.000000000000000
11
-9.60945359930612
21
5.47780878552939
31
0.000000000000000
  0
LINE
  5
F10396
330
F10397
100
AcDbEntity
8
Geo
100
AcDbLine
10
-9.60945359930612
20
5.47780878552939
30
0.000000000000000
11
-9.50945359930612
21
5.45471292240658
31
0.000000000000000
  0
LINE
  5
F10398
330
F10399
100
AcDbEntity
8
Geo
100
AcDbLine
10
-9.50945359930612
20
5.45471292240658
30
0.000000000000000
11
-9.40945359930612
21
5.43907778400762
31
0.000000000000000
  0
LINE
  5
F1039A
330
F1039B
100
AcDbEntity
8
Geo
100
AcDbLine
10
-9.40945359930612
20
5.43907778400762
30
0.000000000000000
11
-9.30945359930612
21
5.43308782227824
31
0.000000000000000
  0
LINE
  5
F1039C
330
F1039D
100
AcDbEntity
8
Geo
100
AcDbLine
10
-9.30945359930612
20
5.43308782227824
30
0.000000000000000
11
-9.20945359930612
21
5.43956121086255
31
0.000000000000000
  0
LINE
  5
F1039E
330
F1039F
100
AcDbEntity
8
Geo
100
AcDbLine
10
-9.20945359930612
20
5.43956121086255
30
0.000000000000000
11
-9.10945359930611
21
5.46214456776442
31
0.000000000000000
  0
LINE
  5
F103A0
330
F103A1
100
AcDbEntity
8
Geo
100
AcDbLine
10
-9.10945359930611
20
5.46214456776442
30
0.000000000000000
11
-9.00945359930611
21
5.50557854851132
31
0.000000000000000
  0
LINE
  5
F103A2
330
F103A3
100
AcDbEntity
8
Geo
100
AcDbLine
10
-9.00945359930611
20
5.50557854851132
30
0.000000000000000
11
-8.90945359930611
21
5.57606242994029
31
0.000000000000000
  0
LINE
  5
F103A4
330
F103A5
100
AcDbEntity
8
Geo
100
AcDbLine
10
-8.90945359930611
20
5.57606242994029
30
0.000000000000000
11
-8.80945359930611
21
5.68175379015956
31
0.000000000000000
  0
LINE
  5
F103A6
330
F103A7
100
AcDbEntity
8
Geo
100
AcDbLine
10
-8.80945359930611
20
5.68175379015956
30
0.000000000000000
11
-8.70945359930611
21
5.83344445483303
31
0.000000000000000
  0
LINE
  5
F103A8
330
F103A9
100
AcDbEntity
8
Geo
100
AcDbLine
10
-8.70945359930611
20
5.83344445483303
30
0.000000000000000
11
-8.60945359930611
21
6.04544743828531
31
0.000000000000000
  0
LINE
  5
F103AA
330
F103AB
100
AcDbEntity
8
Geo
100
AcDbLine
10
-8.60945359930611
20
6.04544743828531
30
0.000000000000000
11
-8.50945359930611
21
6.33669205783559
31
0.000000000000000
  0
LINE
  5
F103AC
330
F103AD
100
AcDbEntity
8
Geo
100
AcDbLine
10
-8.50945359930611
20
6.33669205783559
30
0.000000000000000
11
-8.40945359930610
21
6.73191395646368
31
0.000000000000000
  0
LINE
  5
F103AE
330
F103AF
100
AcDbEntity
8
Geo
100
AcDbLine
10
-8.40945359930610
20
6.73191395646368
30
0.000000000000000
11
-8.30945359930610
21
7.26255950423950
31
0.000000000000000
  0
LINE
  5
F103B0
330
F103B1
100
AcDbEntity
8
Geo
100
AcDbLine
10
-8.30945359930610
20
7.26255950423950
30
0.000000000000000
11
-8.20945359930619
21
7.96644286179023
31
0.000000000000000
  0
LINE
  5
F103B2
330
F103B3
100
AcDbEntity
8
Geo
100
AcDbLine
10
-8.20945359930619
20
7.96644286179023
30
0.000000000000000
11
-8.20945359930619
21
8.15092572259691
31
0.000000000000000
  0
LINE
  5
F103B4
330
F103B5
100
AcDbEntity
8
Geo
100
AcDbLine
10
-8.20945359930619
20
8.15092572259691
30
0.000000000000000
11
-8.30945359930610
21
8.83694229156931
31
0.000000000000000
  0
LINE
  5
F103B6
330
F103B7
100
AcDbEntity
8
Geo
100
AcDbLine
10
-8.30945359930610
20
8.83694229156931
30
0.000000000000000
11
-8.40945359930610
21
9.46743680913330
31
0.000000000000000
  0
LINE
  5
F103B8
330
F103B9
100
AcDbEntity
8
Geo
100
AcDbLine
10
-8.40945359930610
20
9.46743680913330
30
0.000000000000000
11
-8.50945359930611
21
10.0397387341059
31
0.000000000000000
  0
LINE
  5
F103BA
330
F103BB
100
AcDbEntity
8
Geo
100
AcDbLine
10
-8.50945359930611
20
10.0397387341059
30
0.000000000000000
11
-8.60945359930611
21
10.5542672159567
31
0.000000000000000
  0
LINE
  5
F103BC
330
F103BD
100
AcDbEntity
8
Geo
100
AcDbLine
10
-8.60945359930611
20
10.5542672159567
30
0.000000000000000
11
-8.70945359930611
21
11.0134667457245
31
0.000000000000000
  0
LINE
  5
F103BE
330
F103BF
100
AcDbEntity
8
Geo
100
AcDbLine
10
-8.70945359930611
20
11.0134667457245
30
0.000000000000000
11
-8.80945359930611
21
11.4210092804210
31
0.000000000000000
  0
LINE
  5
F103C0
330
F103C1
100
AcDbEntity
8
Geo
100
AcDbLine
10
-8.80945359930611
20
11.4210092804210
30
0.000000000000000
11
-8.90945359930611
21
11.7812164928971
31
0.000000000000000
  0
LINE
  5
F103C2
330
F103C3
100
AcDbEntity
8
Geo
100
AcDbLine
10
-8.90945359930611
20
11.7812164928971
30
0.000000000000000
11
-9.00945359930611
21
12.0986561619885
31
0.000000000000000
  0
LINE
  5
F103C4
330
F103C5
100
AcDbEntity
8
Geo
100
AcDbLine
10
-9.00945359930611
20
12.0986561619885
30
0.000000000000000
11
-9.10945359930611
21
12.3778716343305
31
0.000000000000000
  0
LINE
  5
F103C6
330
F103C7
100
AcDbEntity
8
Geo
100
AcDbLine
10
-9.10945359930611
20
12.3778716343305
30
0.000000000000000
11
-9.20945359930612
21
12.6232099561490
31
0.000000000000000
  0
LINE
  5
F103C8
330
F103C9
100
AcDbEntity
8
Geo
100
AcDbLine
10
-9.20945359930612
20
12.6232099561490
30
0.000000000000000
11
-9.30945359930612
21
12.8387211124069
31
0.000000000000000
  0
LINE
  5
F103CA
330
F103CB
100
AcDbEntity
8
Geo
100
AcDbLine
10
-9.30945359930612
20
12.8387211124069
30
0.000000000000000
11
-9.40945359930612
21
13.0281070271233
31
0.000000000000000
  0
LINE
  5
F103CC
330
F103CD
100
AcDbEntity
8
Geo
100
AcDbLine
10
-9.40945359930612
20
13.0281070271233
30
0.000000000000000
11
-9.50945359930612
21
13.1947042494390
31
0.000000000000000
  0
LINE
  5
F103CE
330
F103CF
100
AcDbEntity
8
Geo
100
AcDbLine
10
-9.50945359930612
20
13.1947042494390
30
0.000000000000000
11
-9.60945359930612
21
13.3414885167551
31
0.000000000000000
  0
LINE
  5
F103D0
330
F103D1
100
AcDbEntity
8
Geo
100
AcDbLine
10
-9.60945359930612
20
13.3414885167551
30
0.000000000000000
11
-9.70945359930612
21
13.4710927250953
31
0.000000000000000
  0
LINE
  5
F103D2
330
F103D3
100
AcDbEntity
8
Geo
100
AcDbLine
10
-9.70945359930612
20
13.4710927250953
30
0.000000000000000
11
-9.80945359930612
21
13.5858323804566
31
0.000000000000000
  0
LINE
  5
F103D4
330
F103D5
100
AcDbEntity
8
Geo
100
AcDbLine
10
-9.80945359930612
20
13.5858323804566
30
0.000000000000000
11
-9.90945359930613
21
13.6877344992434
31
0.000000000000000
  0
LINE
  5
F103D6
330
F103D7
100
AcDbEntity
8
Geo
100
AcDbLine
10
-9.90945359930613
20
13.6877344992434
30
0.000000000000000
11
-10.0094535993061
21
13.7785673079235
31
0.000000000000000
  0
LINE
  5
F103D8
330
F103D9
100
AcDbEntity
8
Geo
100
AcDbLine
10
-10.0094535993061
20
13.7785673079235
30
0.000000000000000
11
-10.1094535993061
21
13.8598690802690
31
0.000000000000000
  0
LINE
  5
F103DA
330
F103DB
100
AcDbEntity
8
Geo
100
AcDbLine
10
-10.1094535993061
20
13.8598690802690
30
0.000000000000000
11
-10.2094535993061
21
13.9329751423680
31
0.000000000000000
  0
LINE
  5
F103DC
330
F103DD
100
AcDbEntity
8
Geo
100
AcDbLine
10
-10.2094535993061
20
13.9329751423680
30
0.000000000000000
11
-10.3094535993061
21
13.9990425483639
31
0.000000000000000
  0
LINE
  5
F103DE
330
F103DF
100
AcDbEntity
8
Geo
100
AcDbLine
10
-10.3094535993061
20
13.9990425483639
30
0.000000000000000
11
-10.4094535993061
21
14.0590722434543
31
0.000000000000000
  0
LINE
  5
F103E0
330
F103E1
100
AcDbEntity
8
Geo
100
AcDbLine
10
-10.4094535993061
20
14.0590722434543
30
0.000000000000000
11
-10.5094535993061
21
14.1139287304902
31
0.000000000000000
  0
LINE
  5
F103E2
330
F103E3
100
AcDbEntity
8
Geo
100
AcDbLine
10
-10.5094535993061
20
14.1139287304902
30
0.000000000000000
11
-10.6094535993061
21
14.1643573764428
31
0.000000000000000
  0
LINE
  5
F103E4
330
F103E5
100
AcDbEntity
8
Geo
100
AcDbLine
10
-10.6094535993061
20
14.1643573764428
30
0.000000000000000
11
-10.7094535993061
21
14.2109995599896
31
0.000000000000000
  0
LINE
  5
F103E6
330
F103E7
100
AcDbEntity
8
Geo
100
AcDbLine
10
-10.7094535993061
20
14.2109995599896
30
0.000000000000000
11
-10.8094535993061
21
14.2544058896068
31
0.000000000000000
  0
LINE
  5
F103E8
330
F103E9
100
AcDbEntity
8
Geo
100
AcDbLine
10
-10.8094535993061
20
14.2544058896068
30
0.000000000000000
11
-10.9094535993061
21
14.2950477258068
31
0.000000000000000
  0
LINE
  5
F103EA
330
F103EB
100
AcDbEntity
8
Geo
100
AcDbLine
10
-10.9094535993061
20
14.2950477258068
30
0.000000000000000
11
-11.0094535993061
21
14.3333272306802
31
0.000000000000000
  0
LINE
  5
F103EC
330
F103ED
100
AcDbEntity
8
Geo
100
AcDbLine
10
-11.0094535993061
20
14.3333272306802
30
0.000000000000000
11
-11.1094535993061
21
14.3695861490509
31
0.000000000000000
  0
LINE
  5
F103EE
330
F103EF
100
AcDbEntity
8
Geo
100
AcDbLine
10
-11.1094535993061
20
14.3695861490509
30
0.000000000000000
11
-11.2094535993061
21
14.4041135026464
31
0.000000000000000
  0
LINE
  5
F103F0
330
F103F1
100
AcDbEntity
8
Geo
100
AcDbLine
10
-11.2094535993061
20
14.4041135026464
30
0.000000000000000
11
-11.3094535993061
21
14.4371523546011
31
0.000000000000000
  0
LINE
  5
F103F2
330
F103F3
100
AcDbEntity
8
Geo
100
AcDbLine
10
-11.3094535993061
20
14.4371523546011
30
0.000000000000000
11
-11.4094535993061
21
14.4689057781610
31
0.000000000000000
  0
LINE
  5
F103F4
330
F103F5
100
AcDbEntity
8
Geo
100
AcDbLine
10
-11.4094535993061
20
14.4689057781610
30
0.000000000000000
11
-11.5094535993061
21
14.4995421417459
31
0.000000000000000
  0
LINE
  5
F103F6
330
F103F7
100
AcDbEntity
8
Geo
100
AcDbLine
10
-11.5094535993061
20
14.4995421417459
30
0.000000000000000
11
-11.6094535993061
21
14.5291998031351
31
0.000000000000000
  0
LINE
  5
F103F8
330
F103F9
100
AcDbEntity
8
Geo
100
AcDbLine
10
-11.6094535993061
20
14.5291998031351
30
0.000000000000000
11
-11.7094535993062
21
14.5579912887218
31
0.000000000000000
  0
LINE
  5
F103FA
330
F103FB
100
AcDbEntity
8
Geo
100
AcDbLine
10
-11.7094535993062
20
14.5579912887218
30
0.000000000000000
11
-11.8094535993062
21
14.5860070195530
31
0.000000000000000
  0
LINE
  5
F103FC
330
F103FD
100
AcDbEntity
8
Geo
100
AcDbLine
10
-11.8094535993062
20
14.5860070195530
30
0.000000000000000
11
-11.9094535993062
21
14.6133186341032
31
0.000000000000000
  0
LINE
  5
F103FE
330
F103FF
100
AcDbEntity
8
Geo
100
AcDbLine
10
-11.9094535993062
20
14.6133186341032
30
0.000000000000000
11
-12.0094535993062
21
14.6399819482239
31
0.000000000000000
  0
LINE
  5
F10400
330
F10401
100
AcDbEntity
8
Geo
100
AcDbLine
10
-12.0094535993062
20
14.6399819482239
30
0.000000000000000
11
-12.1094535993062
21
14.6660395851999
31
0.000000000000000
  0
LINE
  5
F10402
330
F10403
100
AcDbEntity
8
Geo
100
AcDbLine
10
-12.1094535993062
20
14.6660395851999
30
0.000000000000000
11
-12.2094535993062
21
14.6915233030666
31
0.000000000000000
  0
LINE
  5
F10404
330
F10405
100
AcDbEntity
8
Geo
100
AcDbLine
10
-12.2094535993062
20
14.6915233030666
30
0.000000000000000
11
-12.3094535993062
21
14.7164560420215
31
0.000000000000000
  0
LINE
  5
F10406
330
F10407
100
AcDbEntity
8
Geo
100
AcDbLine
10
-12.3094535993062
20
14.7164560420215
30
0.000000000000000
11
-12.4094535993062
21
14.7408537116438
31
0.000000000000000
  0
LINE
  5
F10408
330
F10409
100
AcDbEntity
8
Geo
100
AcDbLine
10
-12.4094535993062
20
14.7408537116438
30
0.000000000000000
11
-12.5094535993062
21
14.7647267354845
31
0.000000000000000
  0
LINE
  5
F1040A
330
F1040B
100
AcDbEntity
8
Geo
100
AcDbLine
10
-12.5094535993062
20
14.7647267354845
30
0.000000000000000
11
-12.6094535993062
21
14.7880813691899
31
0.000000000000000
  0
LINE
  5
F1040C
330
F1040D
100
AcDbEntity
8
Geo
100
AcDbLine
10
-12.6094535993062
20
14.7880813691899
30
0.000000000000000
11
-12.7094535993062
21
14.8109208074944
31
0.000000000000000
  0
LINE
  5
F1040E
330
F1040F
100
AcDbEntity
8
Geo
100
AcDbLine
10
-12.7094535993062
20
14.8109208074944
30
0.000000000000000
11
-12.8094535993062
21
14.8332460950127
31
0.000000000000000
  0
LINE
  5
F10410
330
F10411
100
AcDbEntity
8
Geo
100
AcDbLine
10
-12.8094535993062
20
14.8332460950127
30
0.000000000000000
11
-12.9094535993062
21
14.8550568556358
31
0.000000000000000
  0
LINE
  5
F10412
330
F10413
100
AcDbEntity
8
Geo
100
AcDbLine
10
-12.9094535993062
20
14.8550568556358
30
0.000000000000000
11
-13.0094535993062
21
14.8763518554142
31
0.000000000000000
  0
LINE
  5
F10414
330
F10415
100
AcDbEntity
8
Geo
100
AcDbLine
10
-13.0094535993062
20
14.8763518554142
30
0.000000000000000
11
-13.1094535993062
21
14.8971294139851
31
0.000000000000000
  0
LINE
  5
F10416
330
F10417
100
AcDbEntity
8
Geo
100
AcDbLine
10
-13.1094535993062
20
14.8971294139851
30
0.000000000000000
11
-13.3094535993062
21
14.9371247851730
31
0.000000000000000
  0
LINE
  5
F10418
330
F10419
100
AcDbEntity
8
Geo
100
AcDbLine
10
-33.2094535993062
20
9.28881179531656
30
0.000000000000000
11
-33.2094535993062
21
9.28881179531656
31
0.000000000000000
  0
LINE
  5
F1041A
330
F1041B
100
AcDbEntity
8
Geo
100
AcDbLine
10
-33.2094535993062
20
9.28881179531656
30
0.000000000000000
11
-33.2094535993062
21
9.28881179531656
31
0.000000000000000
  0
LINE
  5
F1041C
330
F1041D
100
AcDbEntity
8
Geo
100
AcDbLine
10
-33.2094535993062
20
9.28881179531656
30
0.000000000000000
11
-33.2094535993062
21
9.28881179531656
31
0.000000000000000
  0
LINE
  5
F1041E
330
F1041F
100
AcDbEntity
8
Geo
100
AcDbLine
10
-33.2094535993062
20
9.28881179531656
30
0.000000000000000
11
-33.2094535993062
21
9.28881179531656
31
0.000000000000000
  0
LINE
  5
F10420
330
F10421
100
AcDbEntity
8
Geo
100
AcDbLine
10
-33.2094535993062
20
9.28881179531656
30
0.000000000000000
11
-33.2094535993062
21
9.28881179531656
31
0.000000000000000
  0
LINE
  5
F10422
330
F10423
100
AcDbEntity
8
Geo
100
AcDbLine
10
-33.2094535993062
20
9.28881179531656
30
0.000000000000000
11
-33.2094535993062
21
9.28881179531656
31
0.000000000000000
  0
LINE
  5
F10424
330
F10425
100
AcDbEntity
8
Geo
100
AcDbLine
10
-33.2094535993062
20
9.28881179531656
30
0.000000000000000
11
-33.2094535993062
21
9.28881179531656
31
0.000000000000000
  0
LINE
  5
F10426
330
F10427
100
AcDbEntity
8
Geo
100
AcDbLine
10
-33.2094535993062
20
9.28881179531656
30
0.000000000000000
11
-33.2094535993062
21
9.28881179531656
31
0.000000000000000
  0
LINE
  5
F10428
330
F10429
100
AcDbEntity
8
Geo
100
AcDbLine
10
-33.2094535993062
20
9.28881179531656
30
0.000000000000000
11
-33.2094535993062
21
9.28881179531656
31
0.000000000000000
  0
LINE
  5
F1042A
330
F1042B
100
AcDbEntity
8
Geo
100
AcDbLine
10
-33.2094535993062
20
9.28881179531656
30
0.000000000000000
11
-33.2094535993062
21
9.28881179531656
31
0.000000000000000
  0
LINE
  5
F1042C
330
F1042D
100
AcDbEntity
8
Geo
100
AcDbLine
10
-33.2094535993062
20
9.28881179531656
30
0.000000000000000
11
-33.2094535993062
21
9.28881179531656
31
0.000000000000000
  0
LINE
  5
F1042E
330
F1042F
100
AcDbEntity
8
Geo
100
AcDbLine
10
-33.2094535993062
20
9.28881179531656
30
0.000000000000000
11
-33.2094535993062
21
9.28881179531656
31
0.000000000000000
  0
LINE
  5
F10430
330
F10431
100
AcDbEntity
8
Geo
100
AcDbLine
10
-33.2094535993062
20
9.28881179531656
30
0.000000000000000
11
-33.2094535993062
21
9.28881179531656
31
0.000000000000000
  0
LINE
  5
F10432
330
F10433
100
AcDbEntity
8
Geo
100
AcDbLine
10
-33.2094535993062
20
9.28881179531656
30
0.000000000000000
11
-33.2094535993062
21
9.28881179531656
31
0.000000000000000
  0
LINE
  5
F10434
330
F10435
100
AcDbEntity
8
Geo
100
AcDbLine
10
-33.2094535993062
20
9.28881179531656
30
0.000000000000000
11
-33.2094535993062
21
9.28881179531656
31
0.000000000000000
  0
LINE
  5
F10436
330
F10437
100
AcDbEntity
8
Geo
100
AcDbLine
10
-33.2094535993062
20
9.28881179531656
30
0.000000000000000
11
-33.2094535993062
21
9.28881179531656
31
0.000000000000000
  0
LINE
  5
F10438
330
F10439
100
AcDbEntity
8
Geo
100
AcDbLine
10
-33.2094535993062
20
9.28881179531656
30
0.000000000000000
11
-33.2094535993062
21
9.28881179531656
31
0.000000000000000
  0
LINE
  5
F1043A
330
F1043B
100
AcDbEntity
8
Geo
100
AcDbLine
10
-33.2094535993062
20
9.28881179531656
30
0.000000000000000
11
-33.2094535993062
21
9.28881179531656
31
0.000000000000000
  0
LINE
  5
F1043C
330
F1043D
100
AcDbEntity
8
Geo
100
AcDbLine
10
-33.2094535993062
20
9.28881179531656
30
0.000000000000000
11
-33.2094535993062
21
9.28881179531656
31
0.000000000000000
  0
LINE
  5
F1043E
330
F1043F
100
AcDbEntity
8
Geo
100
AcDbLine
10
-33.2094535993062
20
9.28881179531656
30
0.000000000000000
11
-33.2094535993062
21
9.28881179531656
31
0.000000000000000
  0
LINE
  5
F10440
330
F10441
100
AcDbEntity
8
Geo
100
AcDbLine
10
-33.2094535993062
20
9.28881179531656
30
0.000000000000000
11
-33.2094535993062
21
9.28881179531656
31
0.000000000000000
  0
LINE
  5
F10442
330
F10443
100
AcDbEntity
8
Geo
100
AcDbLine
10
-33.2094535993062
20
9.28881179531656
30
0.000000000000000
11
-33.2094535993062
21
9.28881179531656
31
0.000000000000000
  0
LINE
  5
F10444
330
F10445
100
AcDbEntity
8
Geo
100
AcDbLine
10
-33.2094535993062
20
9.28881179531656
30
0.000000000000000
11
-33.2094535993062
21
9.28881179531656
31
0.000000000000000
  0
LINE
  5
F10446
330
F10447
100
AcDbEntity
8
Geo
100
AcDbLine
10
-33.2094535993062
20
9.28881179531656
30
0.000000000000000
11
-33.2094535993062
21
9.28881179531656
31
0.000000000000000
  0
LINE
  5
F10448
330
F10449
100
AcDbEntity
8
Geo
100
AcDbLine
10
-33.2094535993062
20
9.28881179531656
30
0.000000000000000
11
-33.2094535993062
21
9.28881179531656
31
0.000000000000000
  0
LINE
  5
F1044A
330
F1044B
100
AcDbEntity
8
Geo
100
AcDbLine
10
-33.2094535993062
20
9.28881179531656
30
0.000000000000000
11
-33.2094535993062
21
9.28881179531656
31
0.000000000000000
  0
LINE
  5
F1044C
330
F1044D
100
AcDbEntity
8
Geo
100
AcDbLine
10
-33.2094535993062
20
9.28881179531656
30
0.000000000000000
11
-33.2094535993062
21
9.28881179531656
31
0.000000000000000
  0
LINE
  5
F1044E
330
F1044F
100
AcDbEntity
8
Geo
100
AcDbLine
10
-33.2094535993062
20
9.28881179531656
30
0.000000000000000
11
-33.2094535993062
21
9.28881179531656
31
0.000000000000000
  0
LINE
  5
F10450
330
F10451
100
AcDbEntity
8
Geo
100
AcDbLine
10
-33.2094535993062
20
9.28881179531656
30
0.000000000000000
11
-33.2094535993062
21
9.28881179531656
31
0.000000000000000
  0
LINE
  5
F10452
330
F10453
100
AcDbEntity
8
Geo
100
AcDbLine
10
-33.2094535993062
20
9.28881179531656
30
0.000000000000000
11
-33.2094535993062
21
9.28881179531656
31
0.000000000000000
  0
LINE
  5
F10454
330
F10455
100
AcDbEntity
8
Geo
100
AcDbLine
10
-33.2094535993062
20
9.28881179531656
30
0.000000000000000
11
-33.2094535993062
21
9.28881179531656
31
0.000000000000000
  0
LINE
  5
F10456
330
F10457
100
AcDbEntity
8
Geo
100
AcDbLine
10
-33.2094535993062
20
9.28881179531656
30
0.000000000000000
11
-33.2094535993062
21
9.28881179531656
31
0.000000000000000
  0
LINE
  5
F10458
330
F10459
100
AcDbEntity
8
Geo
100
AcDbLine
10
-33.2094535993062
20
9.28881179531656
30
0.000000000000000
11
-33.2094535993062
21
9.28881179531656
31
0.000000000000000
  0
LINE
  5
F1045A
330
F1045B
100
AcDbEntity
8
Geo
100
AcDbLine
10
-33.2094535993062
20
9.28881179531656
30
0.000000000000000
11
-33.2094535993062
21
9.28881179531656
31
0.000000000000000
  0
LINE
  5
F1045C
330
F1045D
100
AcDbEntity
8
Geo
100
AcDbLine
10
-33.2094535993062
20
9.28881179531656
30
0.000000000000000
11
-33.2094535993062
21
9.28881179531656
31
0.000000000000000
  0
LINE
  5
F1045E
330
F1045F
100
AcDbEntity
8
Geo
100
AcDbLine
10
-33.2094535993062
20
9.28881179531656
30
0.000000000000000
11
-33.2094535993062
21
9.28881179531656
31
0.000000000000000
  0
LINE
  5
F10460
330
F10461
100
AcDbEntity
8
Geo
100
AcDbLine
10
-33.2094535993062
20
9.28881179531656
30
0.000000000000000
11
-33.2094535993062
21
9.28881179531656
31
0.000000000000000
  0
LINE
  5
F10462
330
F10463
100
AcDbEntity
8
Geo
100
AcDbLine
10
-33.2094535993062
20
9.28881179531656
30
0.000000000000000
11
-33.2094535993062
21
9.28881179531656
31
0.000000000000000
  0
LINE
  5
F10464
330
F10465
100
AcDbEntity
8
Geo
100
AcDbLine
10
-33.2094535993062
20
9.28881179531656
30
0.000000000000000
11
-33.2094535993062
21
9.28881179531656
31
0.000000000000000
  0
LINE
  5
F10466
330
F10467
100
AcDbEntity
8
Geo
100
AcDbLine
10
-33.2094535993062
20
9.28881179531656
30
0.000000000000000
11
-33.2094535993062
21
9.28881179531656
31
0.000000000000000
  0
LINE
  5
F10468
330
F10469
100
AcDbEntity
8
Geo
100
AcDbLine
10
-33.2094535993062
20
9.28881179531656
30
0.000000000000000
11
-33.2094535993062
21
9.28881179531656
31
0.000000000000000
  0
LINE
  5
F1046A
330
F1046B
100
AcDbEntity
8
Geo
100
AcDbLine
10
-33.2094535993062
20
9.28881179531656
30
0.000000000000000
11
-33.2094535993062
21
9.28881179531656
31
0.000000000000000
  0
LINE
  5
F1046C
330
F1046D
100
AcDbEntity
8
Geo
100
AcDbLine
10
-33.2094535993062
20
9.28881179531656
30
0.000000000000000
11
-33.2094535993062
21
9.28881179531656
31
0.000000000000000
  0
LINE
  5
F1046E
330
F1046F
100
AcDbEntity
8
Geo
100
AcDbLine
10
-33.2094535993062
20
9.28881179531656
30
0.000000000000000
11
-33.2094535993062
21
9.28881179531656
31
0.000000000000000
  0
LINE
  5
F10470
330
F10471
100
AcDbEntity
8
Geo
100
AcDbLine
10
-33.2094535993062
20
9.28881179531656
30
0.000000000000000
11
-33.2094535993062
21
9.28881179531656
31
0.000000000000000
  0
LINE
  5
F10472
330
F10473
100
AcDbEntity
8
Geo
100
AcDbLine
10
-33.2094535993062
20
9.28881179531656
30
0.000000000000000
11
-33.2094535993062
21
9.28881179531656
31
0.000000000000000
  0
LINE
  5
F10474
330
F10475
100
AcDbEntity
8
Geo
100
AcDbLine
10
-33.2094535993062
20
9.28881179531656
30
0.000000000000000
11
-33.2094535993062
21
9.28881179531656
31
0.000000000000000
  0
LINE
  5
F10476
330
F10477
100
AcDbEntity
8
Geo
100
AcDbLine
10
-33.2094535993062
20
9.28881179531656
30
0.000000000000000
11
-33.2094535993062
21
9.28881179531656
31
0.000000000000000
  0
LINE
  5
F10478
330
F10479
100
AcDbEntity
8
Geo
100
AcDbLine
10
-33.2094535993062
20
9.28881179531656
30
0.000000000000000
11
-33.2094535993062
21
9.28881179531656
31
0.000000000000000
  0
LINE
  5
F1047A
330
F1047B
100
AcDbEntity
8
Geo
100
AcDbLine
10
-33.2094535993062
20
9.28881179531656
30
0.000000000000000
11
-33.2094535993062
21
9.28881179531656
31
0.000000000000000
  0
LINE
  5
F1047C
330
F1047D
100
AcDbEntity
8
Geo
100
AcDbLine
10
-33.2094535993062
20
9.28881179531656
30
0.000000000000000
11
-33.2094535993062
21
9.28881179531656
31
0.000000000000000
  0
LINE
  5
F1047E
330
F1047F
100
AcDbEntity
8
Geo
100
AcDbLine
10
-33.2094535993062
20
9.28881179531656
30
0.000000000000000
11
-33.2094535993062
21
9.28881179531656
31
0.000000000000000
  0
LINE
  5
F10480
330
F10481
100
AcDbEntity
8
Geo
100
AcDbLine
10
-33.2094535993062
20
9.28881179531656
30
0.000000000000000
11
-33.2094535993062
21
9.28881179531656
31
0.000000000000000
  0
LINE
  5
F10482
330
F10483
100
AcDbEntity
8
Geo
100
AcDbLine
10
-33.2094535993062
20
9.28881179531656
30
0.000000000000000
11
-33.2094535993062
21
9.28881179531656
31
0.000000000000000
  0
LINE
  5
F10484
330
F10485
100
AcDbEntity
8
Geo
100
AcDbLine
10
-33.2094535993062
20
9.28881179531656
30
0.000000000000000
11
-33.2094535993062
21
9.28881179531656
31
0.000000000000000
  0
LINE
  5
F10486
330
F10487
100
AcDbEntity
8
Geo
100
AcDbLine
10
-33.2094535993062
20
9.28881179531656
30
0.000000000000000
11
-33.2094535993062
21
9.28881179531656
31
0.000000000000000
  0
LINE
  5
F10488
330
F10489
100
AcDbEntity
8
Geo
100
AcDbLine
10
-33.2094535993062
20
9.28881179531656
30
0.000000000000000
11
-33.2094535993062
21
9.28881179531656
31
0.000000000000000
  0
LINE
  5
F1048A
330
F1048B
100
AcDbEntity
8
Geo
100
AcDbLine
10
-33.2094535993062
20
9.28881179531656
30
0.000000000000000
11
-33.2094535993062
21
9.28881179531656
31
0.000000000000000
  0
LINE
  5
F1048C
330
F1048D
100
AcDbEntity
8
Geo
100
AcDbLine
10
-33.2094535993062
20
9.28881179531656
30
0.000000000000000
11
-33.2094535993062
21
9.28881179531656
31
0.000000000000000
  0
LINE
  5
F1048E
330
F1048F
100
AcDbEntity
8
Geo
100
AcDbLine
10
-33.2094535993062
20
9.28881179531656
30
0.000000000000000
11
-33.2094535993062
21
9.28881179531656
31
0.000000000000000
  0
LINE
  5
F10490
330
F10491
100
AcDbEntity
8
Geo
100
AcDbLine
10
-33.2094535993062
20
9.28881179531656
30
0.000000000000000
11
-33.2094535993062
21
9.28881179531656
31
0.000000000000000
  0
LINE
  5
F10492
330
F10493
100
AcDbEntity
8
Geo
100
AcDbLine
10
-33.2094535993062
20
9.28881179531656
30
0.000000000000000
11
-33.2094535993062
21
9.28881179531656
31
0.000000000000000
  0
LINE
  5
F10494
330
F10495
100
AcDbEntity
8
Geo
100
AcDbLine
10
-33.2094535993062
20
9.28881179531656
30
0.000000000000000
11
-33.2094535993062
21
9.28881179531656
31
0.000000000000000
  0
LINE
  5
F10496
330
F10497
100
AcDbEntity
8
Geo
100
AcDbLine
10
-33.2094535993062
20
9.28881179531656
30
0.000000000000000
11
-33.2094535993062
21
9.28881179531656
31
0.000000000000000
  0
LINE
  5
F10498
330
F10499
100
AcDbEntity
8
Geo
100
AcDbLine
10
-33.2094535993062
20
9.28881179531656
30
0.000000000000000
11
-33.2094535993062
21
9.28881179531656
31
0.000000000000000
  0
LINE
  5
F1049A
330
F1049B
100
AcDbEntity
8
Geo
100
AcDbLine
10
-33.2094535993062
20
9.28881179531656
30
0.000000000000000
11
-33.2094535993062
21
9.28881179531656
31
0.000000000000000
  0
LINE
  5
F1049C
330
F1049D
100
AcDbEntity
8
Geo
100
AcDbLine
10
-33.2094535993062
20
9.28881179531656
30
0.000000000000000
11
-33.2094535993062
21
9.28881179531656
31
0.000000000000000
  0
LINE
  5
F1049E
330
F1049F
100
AcDbEntity
8
Geo
100
AcDbLine
10
-33.2094535993062
20
9.28881179531656
30
0.000000000000000
11
-33.2094535993062
21
9.28881179531656
31
0.000000000000000
  0
LINE
  5
F104A0
330
F104A1
100
AcDbEntity
8
Geo
100
AcDbLine
10
-33.2094535993062
20
9.28881179531656
30
0.000000000000000
11
-33.2094535993062
21
9.28881179531656
31
0.000000000000000
  0
LINE
  5
F104A2
330
F104A3
100
AcDbEntity
8
Geo
100
AcDbLine
10
-33.2094535993062
20
9.28881179531656
30
0.000000000000000
11
-33.2094535993062
21
9.28881179531656
31
0.000000000000000
  0
LINE
  5
F104A4
330
F104A5
100
AcDbEntity
8
Geo
100
AcDbLine
10
-33.2094535993062
20
9.28881179531656
30
0.000000000000000
11
-33.2094535993062
21
9.28881179531656
31
0.000000000000000
  0
LINE
  5
F104A6
330
F104A7
100
AcDbEntity
8
Geo
100
AcDbLine
10
-33.2094535993062
20
9.28881179531656
30
0.000000000000000
11
-33.2094535993062
21
9.28881179531656
31
0.000000000000000
  0
LINE
  5
F104A8
330
F104A9
100
AcDbEntity
8
Geo
100
AcDbLine
10
-33.2094535993062
20
9.28881179531656
30
0.000000000000000
11
-33.2094535993062
21
9.28881179531656
31
0.000000000000000
  0
LINE
  5
F104AA
330
F104AB
100
AcDbEntity
8
Geo
100
AcDbLine
10
-33.2094535993062
20
9.28881179531656
30
0.000000000000000
11
-33.2094535993062
21
9.28881179531656
31
0.000000000000000
  0
LINE
  5
F104AC
330
F104AD
100
AcDbEntity
8
Geo
100
AcDbLine
10
-33.2094535993062
20
9.28881179531656
30
0.000000000000000
11
-33.2094535993062
21
9.28881179531656
31
0.000000000000000
  0
LINE
  5
F104AE
330
F104AF
100
AcDbEntity
8
Geo
100
AcDbLine
10
-33.2094535993062
20
9.28881179531656
30
0.000000000000000
11
-33.2094535993062
21
9.28881179531656
31
0.000000000000000
  0
LINE
  5
F104B0
330
F104B1
100
AcDbEntity
8
Geo
100
AcDbLine
10
-33.2094535993062
20
9.28881179531656
30
0.000000000000000
11
-33.2094535993062
21
9.28881179531656
31
0.000000000000000
  0
LINE
  5
F104B2
330
F104B3
100
AcDbEntity
8
Geo
100
AcDbLine
10
-33.2094535993062
20
9.28881179531656
30
0.000000000000000
11
-33.2094535993062
21
9.28881179531656
31
0.000000000000000
  0
LINE
  5
F104B4
330
F104B5
100
AcDbEntity
8
Geo
100
AcDbLine
10
-33.2094535993062
20
9.28881179531656
30
0.000000000000000
11
-33.2094535993062
21
9.28881179531656
31
0.000000000000000
  0
LINE
  5
F104B6
330
F104B7
100
AcDbEntity
8
Geo
100
AcDbLine
10
-33.2094535993062
20
9.28881179531656
30
0.000000000000000
11
-33.2094535993062
21
9.28881179531656
31
0.000000000000000
  0
LINE
  5
F104B8
330
F104B9
100
AcDbEntity
8
Geo
100
AcDbLine
10
-33.2094535993062
20
9.28881179531656
30
0.000000000000000
11
-33.2094535993062
21
9.28881179531656
31
0.000000000000000
  0
LINE
  5
F104BA
330
F104BB
100
AcDbEntity
8
Geo
100
AcDbLine
10
-33.2094535993062
20
9.28881179531656
30
0.000000000000000
11
-33.2094535993062
21
9.28881179531656
31
0.000000000000000
  0
LINE
  5
F104BC
330
F104BD
100
AcDbEntity
8
Geo
100
AcDbLine
10
-33.2094535993062
20
9.28881179531656
30
0.000000000000000
11
-33.2094535993062
21
9.28881179531656
31
0.000000000000000
  0
LINE
  5
F104BE
330
F104BF
100
AcDbEntity
8
Geo
100
AcDbLine
10
-33.2094535993062
20
9.28881179531656
30
0.000000000000000
11
-33.2094535993062
21
9.28881179531656
31
0.000000000000000
  0
LINE
  5
F104C0
330
F104C1
100
AcDbEntity
8
Geo
100
AcDbLine
10
-33.2094535993062
20
9.28881179531656
30
0.000000000000000
11
-33.2094535993062
21
9.28881179531656
31
0.000000000000000
  0
LINE
  5
F104C2
330
F104C3
100
AcDbEntity
8
Geo
100
AcDbLine
10
-33.2094535993062
20
9.28881179531656
30
0.000000000000000
11
-33.2094535993062
21
9.28881179531656
31
0.000000000000000
  0
LINE
  5
F104C4
330
F104C5
100
AcDbEntity
8
Geo
100
AcDbLine
10
-33.2094535993062
20
9.28881179531656
30
0.000000000000000
11
-33.2094535993062
21
9.28881179531656
31
0.000000000000000
  0
LINE
  5
F104C6
330
F104C7
100
AcDbEntity
8
Geo
100
AcDbLine
10
-33.2094535993062
20
9.28881179531656
30
0.000000000000000
11
-33.2094535993062
21
9.28881179531656
31
0.000000000000000
  0
LINE
  5
F104C8
330
F104C9
100
AcDbEntity
8
Geo
100
AcDbLine
10
-33.2094535993062
20
9.28881179531656
30
0.000000000000000
11
-33.2094535993062
21
9.28881179531656
31
0.000000000000000
  0
LINE
  5
F104CA
330
F104CB
100
AcDbEntity
8
Geo
100
AcDbLine
10
-33.2094535993062
20
9.28881179531656
30
0.000000000000000
11
-33.2094535993062
21
9.28881179531656
31
0.000000000000000
  0
LINE
  5
F104CC
330
F104CD
100
AcDbEntity
8
Geo
100
AcDbLine
10
-33.2094535993062
20
9.28881179531656
30
0.000000000000000
11
-33.2094535993062
21
9.28881179531656
31
0.000000000000000
  0
LINE
  5
F104CE
330
F104CF
100
AcDbEntity
8
Geo
100
AcDbLine
10
-33.2094535993062
20
9.28881179531656
30
0.000000000000000
11
-33.2094535993062
21
9.28881179531656
31
0.000000000000000
  0
LINE
  5
F104D0
330
F104D1
100
AcDbEntity
8
Geo
100
AcDbLine
10
-33.2094535993062
20
9.28881179531656
30
0.000000000000000
11
-33.2094535993062
21
9.28881179531656
31
0.000000000000000
  0
LINE
  5
F104D2
330
F104D3
100
AcDbEntity
8
Geo
100
AcDbLine
10
-33.2094535993062
20
9.28881179531656
30
0.000000000000000
11
-33.2094535993062
21
9.28881179531656
31
0.000000000000000
  0
LINE
  5
F104D4
330
F104D5
100
AcDbEntity
8
Geo
100
AcDbLine
10
-33.2094535993062
20
9.28881179531656
30
0.000000000000000
11
-33.2094535993062
21
9.28881179531656
31
0.000000000000000
  0
LINE
  5
F104D6
330
F104D7
100
AcDbEntity
8
Geo
100
AcDbLine
10
-33.2094535993062
20
9.28881179531656
30
0.000000000000000
11
-33.2094535993062
21
9.28881179531656
31
0.000000000000000
  0
LINE
  5
F104D8
330
F104D9
100
AcDbEntity
8
Geo
100
AcDbLine
10
-33.2094535993062
20
9.28881179531656
30
0.000000000000000
11
-33.2094535993062
21
9.28881179531656
31
0.000000000000000
  0
LINE
  5
F104DA
330
F104DB
100
AcDbEntity
8
Geo
100
AcDbLine
10
-33.2094535993062
20
9.28881179531656
30
0.000000000000000
11
-33.2094535993062
21
9.28881179531656
31
0.000000000000000
  0
LINE
  5
F104DC
330
F104DD
100
AcDbEntity
8
Geo
100
AcDbLine
10
-33.2094535993062
20
9.28881179531656
30
0.000000000000000
11
-33.2094535993062
21
9.28881179531656
31
0.000000000000000
  0
LINE
  5
F104DE
330
F104DF
100
AcDbEntity
8
Geo
100
AcDbLine
10
-33.2094535993062
20
9.28881179531656
30
0.000000000000000
11
-33.2094535993062
21
9.28881179531656
31
0.000000000000000
  0
LINE
  5
F104E0
330
F104E1
100
AcDbEntity
8
Geo
100
AcDbLine
10
-33.2094535993062
20
9.28881179531656
30
0.000000000000000
11
-33.2094535993062
21
9.28881179531656
31
0.000000000000000
  0
LINE
  5
F104E2
330
F104E3
100
AcDbEntity
8
Geo
100
AcDbLine
10
-33.2094535993062
20
9.28881179531656
30
0.000000000000000
11
-33.2094535993062
21
9.28881179531656
31
0.000000000000000
  0
LINE
  5
F104E4
330
F104E5
100
AcDbEntity
8
Geo
100
AcDbLine
10
-33.2094535993062
20
9.28881179531656
30
0.000000000000000
11
-33.2094535993062
21
9.28881179531656
31
0.000000000000000
  0
LINE
  5
F104E6
330
F104E7
100
AcDbEntity
8
Geo
100
AcDbLine
10
-33.2094535993062
20
9.28881179531656
30
0.000000000000000
11
-33.2094535993062
21
9.28881179531656
31
0.000000000000000
  0
LINE
  5
F104E8
330
F104E9
100
AcDbEntity
8
Geo
100
AcDbLine
10
-33.2094535993062
20
9.28881179531656
30
0.000000000000000
11
-33.2094535993062
21
9.28881179531656
31
0.000000000000000
  0
LINE
  5
F104EA
330
F104EB
100
AcDbEntity
8
Geo
100
AcDbLine
10
-33.2094535993062
20
9.28881179531656
30
0.000000000000000
11
-33.2094535993062
21
9.28881179531656
31
0.000000000000000
  0
LINE
  5
F104EC
330
F104ED
100
AcDbEntity
8
Geo
100
AcDbLine
10
-33.2094535993062
20
9.28881179531656
30
0.000000000000000
11
-33.2094535993062
21
9.28881179531656
31
0.000000000000000
  0
LINE
  5
F104EE
330
F104EF
100
AcDbEntity
8
Geo
100
AcDbLine
10
-33.2094535993062
20
9.28881179531656
30
0.000000000000000
11
-33.2094535993062
21
9.28881179531656
31
0.000000000000000
  0
LINE
  5
F104F0
330
F104F1
100
AcDbEntity
8
Geo
100
AcDbLine
10
-33.2094535993062
20
9.28881179531656
30
0.000000000000000
11
-33.2094535993062
21
9.28881179531656
31
0.000000000000000
  0
LINE
  5
F104F2
330
F104F3
100
AcDbEntity
8
Geo
100
AcDbLine
10
-33.2094535993062
20
9.28881179531656
30
0.000000000000000
11
-33.2094535993062
21
9.28881179531656
31
0.000000000000000
  0
LINE
  5
F104F4
330
F104F5
100
AcDbEntity
8
Geo
100
AcDbLine
10
-33.2094535993062
20
9.28881179531656
30
0.000000000000000
11
-33.2094535993062
21
9.28881179531656
31
0.000000000000000
  0
LINE
  5
F104F6
330
F104F7
100
AcDbEntity
8
Geo
100
AcDbLine
10
-33.2094535993062
20
9.28881179531656
30
0.000000000000000
11
-33.2094535993062
21
9.28881179531656
31
0.000000000000000
  0
LINE
  5
F104F8
330
F104F9
100
AcDbEntity
8
Geo
100
AcDbLine
10
-33.2094535993062
20
9.28881179531656
30
0.000000000000000
11
-33.2094535993062
21
9.28881179531656
31
0.000000000000000
  0
LINE
  5
F104FA
330
F104FB
100
AcDbEntity
8
Geo
100
AcDbLine
10
-33.2094535993062
20
9.28881179531656
30
0.000000000000000
11
-33.2094535993062
21
9.28881179531656
31
0.000000000000000
  0
LINE
  5
F104FC
330
F104FD
100
AcDbEntity
8
Geo
100
AcDbLine
10
-33.2094535993062
20
9.28881179531656
30
0.000000000000000
11
-33.2094535993062
21
9.28881179531656
31
0.000000000000000
  0
LINE
  5
F104FE
330
F104FF
100
AcDbEntity
8
Geo
100
AcDbLine
10
-33.2094535993062
20
9.28881179531656
30
0.000000000000000
11
-33.2094535993062
21
9.28881179531656
31
0.000000000000000
  0
LINE
  5
F10500
330
F10501
100
AcDbEntity
8
Geo
100
AcDbLine
10
-33.2094535993062
20
9.28881179531656
30
0.000000000000000
11
-33.2094535993062
21
9.28881179531656
31
0.000000000000000
  0
LINE
  5
F10502
330
F10503
100
AcDbEntity
8
Geo
100
AcDbLine
10
-33.2094535993062
20
9.28881179531656
30
0.000000000000000
11
-33.2094535993062
21
9.28881179531656
31
0.000000000000000
  0
LINE
  5
F10504
330
F10505
100
AcDbEntity
8
Geo
100
AcDbLine
10
-33.2094535993062
20
9.28881179531656
30
0.000000000000000
11
-33.2094535993062
21
9.28881179531656
31
0.000000000000000
  0
LINE
  5
F10506
330
F10507
100
AcDbEntity
8
Geo
100
AcDbLine
10
-33.2094535993062
20
9.28881179531656
30
0.000000000000000
11
-33.2094535993062
21
9.28881179531656
31
0.000000000000000
  0
LINE
  5
F10508
330
F10509
100
AcDbEntity
8
Geo
100
AcDbLine
10
-33.2094535993062
20
9.28881179531656
30
0.000000000000000
11
-33.2094535993062
21
9.28881179531656
31
0.000000000000000
  0
LINE
  5
F1050A
330
F1050B
100
AcDbEntity
8
Geo
100
AcDbLine
10
-33.2094535993062
20
9.28881179531656
30
0.000000000000000
11
-33.2094535993062
21
9.28881179531656
31
0.000000000000000
  0
LINE
  5
F1050C
330
F1050D
100
AcDbEntity
8
Geo
100
AcDbLine
10
-33.2094535993062
20
9.28881179531656
30
0.000000000000000
11
-33.2094535993062
21
9.28881179531656
31
0.000000000000000
  0
LINE
  5
F1050E
330
F1050F
100
AcDbEntity
8
Geo
100
AcDbLine
10
-33.2094535993062
20
9.28881179531656
30
0.000000000000000
11
-33.2094535993062
21
9.28881179531656
31
0.000000000000000
  0
LINE
  5
F10510
330
F10511
100
AcDbEntity
8
Geo
100
AcDbLine
10
-33.2094535993062
20
9.28881179531656
30
0.000000000000000
11
-33.2094535993062
21
9.28881179531656
31
0.000000000000000
  0
LINE
  5
F10512
330
F10513
100
AcDbEntity
8
Geo
100
AcDbLine
10
-33.2094535993062
20
9.28881179531656
30
0.000000000000000
11
-33.2094535993062
21
9.28881179531656
31
0.000000000000000
  0
LINE
  5
F10514
330
F10515
100
AcDbEntity
8
Geo
100
AcDbLine
10
-33.2094535993062
20
9.28881179531656
30
0.000000000000000
11
-33.2094535993062
21
9.28881179531656
31
0.000000000000000
  0
LINE
  5
F10516
330
F10517
100
AcDbEntity
8
Geo
100
AcDbLine
10
-33.2094535993062
20
9.28881179531656
30
0.000000000000000
11
-33.2094535993062
21
9.28881179531656
31
0.000000000000000
  0
LINE
  5
F10518
330
F10519
100
AcDbEntity
8
Geo
100
AcDbLine
10
-33.2094535993062
20
9.28881179531656
30
0.000000000000000
11
-33.2094535993062
21
9.28881179531656
31
0.000000000000000
  0
LINE
  5
F1051A
330
F1051B
100
AcDbEntity
8
Geo
100
AcDbLine
10
-33.2094535993062
20
9.28881179531656
30
0.000000000000000
11
-33.2094535993062
21
9.28881179531656
31
0.000000000000000
  0
LINE
  5
F1051C
330
F1051D
100
AcDbEntity
8
Geo
100
AcDbLine
10
-33.2094535993062
20
9.28881179531656
30
0.000000000000000
11
-33.2094535993062
21
9.28881179531656
31
0.000000000000000
  0
LINE
  5
F1051E
330
F1051F
100
AcDbEntity
8
Geo
100
AcDbLine
10
-33.2094535993062
20
9.28881179531656
30
0.000000000000000
11
-33.2094535993062
21
9.28881179531656
31
0.000000000000000
  0
LINE
  5
F10520
330
F10521
100
AcDbEntity
8
Geo
100
AcDbLine
10
-33.2094535993062
20
9.28881179531656
30
0.000000000000000
11
-33.2094535993062
21
9.28881179531656
31
0.000000000000000
  0
LINE
  5
F10522
330
F10523
100
AcDbEntity
8
Geo
100
AcDbLine
10
-33.2094535993062
20
9.28881179531656
30
0.000000000000000
11
-33.2094535993062
21
9.28881179531656
31
0.000000000000000
  0
LINE
  5
F10524
330
F10525
100
AcDbEntity
8
Geo
100
AcDbLine
10
-33.2094535993062
20
9.28881179531656
30
0.000000000000000
11
-33.2094535993062
21
9.28881179531656
31
0.000000000000000
  0
LINE
  5
F10526
330
F10527
100
AcDbEntity
8
Geo
100
AcDbLine
10
-33.2094535993062
20
9.28881179531656
30
0.000000000000000
11
-33.2094535993062
21
9.28881179531656
31
0.000000000000000
  0
LINE
  5
F10528
330
F10529
100
AcDbEntity
8
Geo
100
AcDbLine
10
-33.2094535993062
20
9.28881179531656
30
0.000000000000000
11
-33.2094535993062
21
9.28881179531656
31
0.000000000000000
  0
LINE
  5
F1052A
330
F1052B
100
AcDbEntity
8
Geo
100
AcDbLine
10
-33.2094535993062
20
9.28881179531656
30
0.000000000000000
11
-33.2094535993062
21
9.28881179531656
31
0.000000000000000
  0
LINE
  5
F1052C
330
F1052D
100
AcDbEntity
8
Geo
100
AcDbLine
10
-33.2094535993062
20
9.28881179531656
30
0.000000000000000
11
-33.2094535993062
21
9.28881179531656
31
0.000000000000000
  0
LINE
  5
F1052E
330
F1052F
100
AcDbEntity
8
Geo
100
AcDbLine
10
-33.2094535993062
20
9.28881179531656
30
0.000000000000000
11
-33.2094535993062
21
9.28881179531656
31
0.000000000000000
  0
LINE
  5
F10530
330
F10531
100
AcDbEntity
8
Geo
100
AcDbLine
10
-33.2094535993062
20
9.28881179531656
30
0.000000000000000
11
-33.2094535993062
21
9.28881179531656
31
0.000000000000000
  0
LINE
  5
F10532
330
F10533
100
AcDbEntity
8
Geo
100
AcDbLine
10
-33.2094535993062
20
9.28881179531656
30
0.000000000000000
11
-33.2094535993062
21
9.28881179531656
31
0.000000000000000
  0
LINE
  5
F10534
330
F10535
100
AcDbEntity
8
Geo
100
AcDbLine
10
-33.2094535993062
20
9.28881179531656
30
0.000000000000000
11
-33.2094535993062
21
9.28881179531656
31
0.000000000000000
  0
LINE
  5
F10536
330
F10537
100
AcDbEntity
8
Geo
100
AcDbLine
10
-33.2094535993062
20
9.28881179531656
30
0.000000000000000
11
-33.2094535993062
21
9.28881179531656
31
0.000000000000000
  0
LINE
  5
F10538
330
F10539
100
AcDbEntity
8
Geo
100
AcDbLine
10
-33.2094535993062
20
9.28881179531656
30
0.000000000000000
11
-33.2094535993062
21
9.28881179531656
31
0.000000000000000
  0
LINE
  5
F1053A
330
F1053B
100
AcDbEntity
8
Geo
100
AcDbLine
10
-33.2094535993062
20
9.28881179531656
30
0.000000000000000
11
-33.2094535993062
21
9.28881179531656
31
0.000000000000000
  0
LINE
  5
F1053C
330
F1053D
100
AcDbEntity
8
Geo
100
AcDbLine
10
-33.2094535993062
20
9.28881179531656
30
0.000000000000000
11
-33.2094535993062
21
9.28881179531656
31
0.000000000000000
  0
LINE
  5
F1053E
330
F1053F
100
AcDbEntity
8
Geo
100
AcDbLine
10
-33.2094535993062
20
9.28881179531656
30
0.000000000000000
11
-33.2094535993062
21
9.28881179531656
31
0.000000000000000
  0
LINE
  5
F10540
330
F10541
100
AcDbEntity
8
Geo
100
AcDbLine
10
-33.2094535993062
20
9.28881179531656
30
0.000000000000000
11
-33.2094535993062
21
9.28881179531656
31
0.000000000000000
  0
LINE
  5
F10542
330
F10543
100
AcDbEntity
8
Geo
100
AcDbLine
10
-33.2094535993062
20
9.28881179531656
30
0.000000000000000
11
-33.2094535993062
21
9.28881179531656
31
0.000000000000000
  0
LINE
  5
F10544
330
F10545
100
AcDbEntity
8
Geo
100
AcDbLine
10
-33.2094535993062
20
9.28881179531656
30
0.000000000000000
11
-33.2094535993062
21
9.28881179531656
31
0.000000000000000
  0
LINE
  5
F10546
330
F10547
100
AcDbEntity
8
Geo
100
AcDbLine
10
-33.2094535993062
20
9.28881179531656
30
0.000000000000000
11
-33.2094535993062
21
9.28881179531656
31
0.000000000000000
  0
LINE
  5
F10548
330
F10549
100
AcDbEntity
8
Geo
100
AcDbLine
10
-33.2094535993062
20
9.28881179531656
30
0.000000000000000
11
-33.2094535993062
21
9.28881179531656
31
0.000000000000000
  0
LINE
  5
F1054A
330
F1054B
100
AcDbEntity
8
Geo
100
AcDbLine
10
-33.2094535993062
20
9.28881179531656
30
0.000000000000000
11
-33.2094535993062
21
9.28881179531656
31
0.000000000000000
  0
LINE
  5
F1054C
330
F1054D
100
AcDbEntity
8
Geo
100
AcDbLine
10
-33.2094535993062
20
9.28881179531656
30
0.000000000000000
11
-33.2094535993062
21
9.28881179531656
31
0.000000000000000
  0
LINE
  5
F1054E
330
F1054F
100
AcDbEntity
8
Geo
100
AcDbLine
10
-33.2094535993062
20
9.28881179531656
30
0.000000000000000
11
-33.2094535993062
21
9.28881179531656
31
0.000000000000000
  0
LINE
  5
F10550
330
F10551
100
AcDbEntity
8
Geo
100
AcDbLine
10
-33.2094535993062
20
9.28881179531656
30
0.000000000000000
11
-33.2094535993062
21
9.28881179531656
31
0.000000000000000
  0
LINE
  5
F10552
330
F10553
100
AcDbEntity
8
Geo
100
AcDbLine
10
-33.2094535993062
20
9.28881179531656
30
0.000000000000000
11
-33.2094535993062
21
9.28881179531656
31
0.000000000000000
  0
LINE
  5
F10554
330
F10555
100
AcDbEntity
8
Geo
100
AcDbLine
10
-33.2094535993062
20
9.28881179531656
30
0.000000000000000
11
-33.2094535993062
21
9.28881179531656
31
0.000000000000000
  0
LINE
  5
F10556
330
F10557
100
AcDbEntity
8
Geo
100
AcDbLine
10
-33.2094535993062
20
9.28881179531656
30
0.000000000000000
11
-33.2094535993062
21
9.28881179531656
31
0.000000000000000
  0
LINE
  5
F10558
330
F10559
100
AcDbEntity
8
Geo
100
AcDbLine
10
-33.2094535993062
20
9.28881179531656
30
0.000000000000000
11
-33.2094535993062
21
9.28881179531656
31
0.000000000000000
  0
LINE
  5
F1055A
330
F1055B
100
AcDbEntity
8
Geo
100
AcDbLine
10
-33.2094535993062
20
9.28881179531656
30
0.000000000000000
11
-33.2094535993062
21
9.28881179531656
31
0.000000000000000
  0
LINE
  5
F1055C
330
F1055D
100
AcDbEntity
8
Geo
100
AcDbLine
10
-33.2094535993062
20
9.28881179531656
30
0.000000000000000
11
-33.2094535993062
21
9.28881179531656
31
0.000000000000000
  0
LINE
  5
F1055E
330
F1055F
100
AcDbEntity
8
Geo
100
AcDbLine
10
-33.2094535993062
20
9.28881179531656
30
0.000000000000000
11
-33.2094535993062
21
9.28881179531656
31
0.000000000000000
  0
LINE
  5
F10560
330
F10561
100
AcDbEntity
8
Geo
100
AcDbLine
10
-29.7094535993062
20
14.6968175276741
30
0.000000000000000
11
-29.6094535993062
21
14.6715611123666
31
0.000000000000000
  0
LINE
  5
F10562
330
F10563
100
AcDbEntity
8
Geo
100
AcDbLine
10
-29.6094535993062
20
14.6715611123666
30
0.000000000000000
11
-29.5094535993062
21
14.6458062981903
31
0.000000000000000
  0
LINE
  5
F10564
330
F10565
100
AcDbEntity
8
Geo
100
AcDbLine
10
-29.5094535993062
20
14.6458062981903
30
0.000000000000000
11
-29.4094535993062
21
14.6195554698317
31
0.000000000000000
  0
LINE
  5
F10566
330
F10567
100
AcDbEntity
8
Geo
100
AcDbLine
10
-29.4094535993062
20
14.6195554698317
30
0.000000000000000
11
-29.3094535993062
21
14.5928110579044
31
0.000000000000000
  0
LINE
  5
F10568
330
F10569
100
AcDbEntity
8
Geo
100
AcDbLine
10
-29.3094535993062
20
14.5928110579044
30
0.000000000000000
11
-29.2094535993062
21
14.5655755387237
31
0.000000000000000
  0
LINE
  5
F1056A
330
F1056B
100
AcDbEntity
8
Geo
100
AcDbLine
10
-29.2094535993062
20
14.5655755387237
30
0.000000000000000
11
-29.1094535993062
21
14.5378514340774
31
0.000000000000000
  0
LINE
  5
F1056C
330
F1056D
100
AcDbEntity
8
Geo
100
AcDbLine
10
-29.1094535993062
20
14.5378514340774
30
0.000000000000000
11
-29.0094535993062
21
14.5096413109925
31
0.000000000000000
  0
LINE
  5
F1056E
330
F1056F
100
AcDbEntity
8
Geo
100
AcDbLine
10
-29.0094535993062
20
14.5096413109925
30
0.000000000000000
11
-28.9094535993062
21
14.4809477814973
31
0.000000000000000
  0
LINE
  5
F10570
330
F10571
100
AcDbEntity
8
Geo
100
AcDbLine
10
-28.9094535993062
20
14.4809477814973
30
0.000000000000000
11
-28.8094535993062
21
14.4517735023796
31
0.000000000000000
  0
LINE
  5
F10572
330
F10573
100
AcDbEntity
8
Geo
100
AcDbLine
10
-28.8094535993062
20
14.4517735023796
30
0.000000000000000
11
-28.7094535993062
21
14.4221211749406
31
0.000000000000000
  0
LINE
  5
F10574
330
F10575
100
AcDbEntity
8
Geo
100
AcDbLine
10
-28.7094535993062
20
14.4221211749406
30
0.000000000000000
11
-28.6094535993062
21
14.3919935447450
31
0.000000000000000
  0
LINE
  5
F10576
330
F10577
100
AcDbEntity
8
Geo
100
AcDbLine
10
-28.6094535993062
20
14.3919935447450
30
0.000000000000000
11
-28.5094535993062
21
14.3613934013667
31
0.000000000000000
  0
LINE
  5
F10578
330
F10579
100
AcDbEntity
8
Geo
100
AcDbLine
10
-28.5094535993062
20
14.3613934013667
30
0.000000000000000
11
-28.4094535993062
21
14.3303235781305
31
0.000000000000000
  0
LINE
  5
F1057A
330
F1057B
100
AcDbEntity
8
Geo
100
AcDbLine
10
-28.4094535993062
20
14.3303235781305
30
0.000000000000000
11
-28.3094535993062
21
14.2987869518496
31
0.000000000000000
  0
LINE
  5
F1057C
330
F1057D
100
AcDbEntity
8
Geo
100
AcDbLine
10
-28.3094535993062
20
14.2987869518496
30
0.000000000000000
11
-28.2094535993062
21
14.2667864425595
31
0.000000000000000
  0
LINE
  5
F1057E
330
F1057F
100
AcDbEntity
8
Geo
100
AcDbLine
10
-28.2094535993062
20
14.2667864425595
30
0.000000000000000
11
-28.1094535993062
21
14.2343250132475
31
0.000000000000000
  0
LINE
  5
F10580
330
F10581
100
AcDbEntity
8
Geo
100
AcDbLine
10
-28.1094535993062
20
14.2343250132475
30
0.000000000000000
11
-28.0094535993062
21
14.2014056695782
31
0.000000000000000
  0
LINE
  5
F10582
330
F10583
100
AcDbEntity
8
Geo
100
AcDbLine
10
-28.0094535993062
20
14.2014056695782
30
0.000000000000000
11
-27.9094535993062
21
14.1680314596155
31
0.000000000000000
  0
LINE
  5
F10584
330
F10585
100
AcDbEntity
8
Geo
100
AcDbLine
10
-27.9094535993062
20
14.1680314596155
30
0.000000000000000
11
-27.8094535993062
21
14.1342054735403
31
0.000000000000000
  0
LINE
  5
F10586
330
F10587
100
AcDbEntity
8
Geo
100
AcDbLine
10
-27.8094535993062
20
14.1342054735403
30
0.000000000000000
11
-27.7094535993062
21
14.0999308433640
31
0.000000000000000
  0
LINE
  5
F10588
330
F10589
100
AcDbEntity
8
Geo
100
AcDbLine
10
-27.7094535993062
20
14.0999308433640
30
0.000000000000000
11
-27.6094535993062
21
14.0652107426390
31
0.000000000000000
  0
LINE
  5
F1058A
330
F1058B
100
AcDbEntity
8
Geo
100
AcDbLine
10
-27.6094535993062
20
14.0652107426390
30
0.000000000000000
11
-27.5094535993062
21
14.0300483861648
31
0.000000000000000
  0
LINE
  5
F1058C
330
F1058D
100
AcDbEntity
8
Geo
100
AcDbLine
10
-27.5094535993062
20
14.0300483861648
30
0.000000000000000
11
-27.4094535993062
21
13.9944470296899
31
0.000000000000000
  0
LINE
  5
F1058E
330
F1058F
100
AcDbEntity
8
Geo
100
AcDbLine
10
-27.4094535993062
20
13.9944470296899
30
0.000000000000000
11
-27.3094535993062
21
13.9584099696107
31
0.000000000000000
  0
LINE
  5
F10590
330
F10591
100
AcDbEntity
8
Geo
100
AcDbLine
10
-27.3094535993062
20
13.9584099696107
30
0.000000000000000
11
-27.2094535993062
21
13.9219405426664
31
0.000000000000000
  0
LINE
  5
F10592
330
F10593
100
AcDbEntity
8
Geo
100
AcDbLine
10
-27.2094535993062
20
13.9219405426664
30
0.000000000000000
11
-27.1094535993062
21
13.8850421256297
31
0.000000000000000
  0
LINE
  5
F10594
330
F10595
100
AcDbEntity
8
Geo
100
AcDbLine
10
-27.1094535993062
20
13.8850421256297
30
0.000000000000000
11
-27.0094535993062
21
13.8477181349944
31
0.000000000000000
  0
LINE
  5
F10596
330
F10597
100
AcDbEntity
8
Geo
100
AcDbLine
10
-27.0094535993062
20
13.8477181349944
30
0.000000000000000
11
-26.9094535993062
21
13.8099720266587
31
0.000000000000000
  0
LINE
  5
F10598
330
F10599
100
AcDbEntity
8
Geo
100
AcDbLine
10
-26.9094535993062
20
13.8099720266587
30
0.000000000000000
11
-26.8094535993062
21
13.7718072956058
31
0.000000000000000
  0
LINE
  5
F1059A
330
F1059B
100
AcDbEntity
8
Geo
100
AcDbLine
10
-26.8094535993062
20
13.7718072956058
30
0.000000000000000
11
-26.7094535993062
21
13.7332274755799
31
0.000000000000000
  0
LINE
  5
F1059C
330
F1059D
100
AcDbEntity
8
Geo
100
AcDbLine
10
-26.7094535993062
20
13.7332274755799
30
0.000000000000000
11
-26.6094535993062
21
13.6942361387588
31
0.000000000000000
  0
LINE
  5
F1059E
330
F1059F
100
AcDbEntity
8
Geo
100
AcDbLine
10
-26.6094535993062
20
13.6942361387588
30
0.000000000000000
11
-26.5094535993062
21
13.6548368954238
31
0.000000000000000
  0
LINE
  5
F105A0
330
F105A1
100
AcDbEntity
8
Geo
100
AcDbLine
10
-26.5094535993062
20
13.6548368954238
30
0.000000000000000
11
-26.4094535993062
21
13.6150333936247
31
0.000000000000000
  0
LINE
  5
F105A2
330
F105A3
100
AcDbEntity
8
Geo
100
AcDbLine
10
-26.4094535993062
20
13.6150333936247
30
0.000000000000000
11
-26.3094535993062
21
13.5748293188425
31
0.000000000000000
  0
LINE
  5
F105A4
330
F105A5
100
AcDbEntity
8
Geo
100
AcDbLine
10
-26.3094535993062
20
13.5748293188425
30
0.000000000000000
11
-26.2094535993062
21
13.5342283936481
31
0.000000000000000
  0
LINE
  5
F105A6
330
F105A7
100
AcDbEntity
8
Geo
100
AcDbLine
10
-26.2094535993062
20
13.5342283936481
30
0.000000000000000
11
-26.1094535993062
21
13.4932343773573
31
0.000000000000000
  0
LINE
  5
F105A8
330
F105A9
100
AcDbEntity
8
Geo
100
AcDbLine
10
-26.1094535993062
20
13.4932343773573
30
0.000000000000000
11
-26.0094535993062
21
13.4518510656832
31
0.000000000000000
  0
LINE
  5
F105AA
330
F105AB
100
AcDbEntity
8
Geo
100
AcDbLine
10
-26.0094535993062
20
13.4518510656832
30
0.000000000000000
11
-25.9094535993062
21
13.4100822903841
31
0.000000000000000
  0
LINE
  5
F105AC
330
F105AD
100
AcDbEntity
8
Geo
100
AcDbLine
10
-25.9094535993062
20
13.4100822903841
30
0.000000000000000
11
-25.8094535993062
21
13.3679319189097
31
0.000000000000000
  0
LINE
  5
F105AE
330
F105AF
100
AcDbEntity
8
Geo
100
AcDbLine
10
-25.8094535993062
20
13.3679319189097
30
0.000000000000000
11
-25.7094535993062
21
13.3254038540417
31
0.000000000000000
  0
LINE
  5
F105B0
330
F105B1
100
AcDbEntity
8
Geo
100
AcDbLine
10
-25.7094535993062
20
13.3254038540417
30
0.000000000000000
11
-25.6094535993062
21
13.2825020335338
31
0.000000000000000
  0
LINE
  5
F105B2
330
F105B3
100
AcDbEntity
8
Geo
100
AcDbLine
10
-25.6094535993062
20
13.2825020335338
30
0.000000000000000
11
-25.5094535993062
21
13.2392304297460
31
0.000000000000000
  0
LINE
  5
F105B4
330
F105B5
100
AcDbEntity
8
Geo
100
AcDbLine
10
-25.5094535993062
20
13.2392304297460
30
0.000000000000000
11
-25.4094535993062
21
13.1955930492773
31
0.000000000000000
  0
LINE
  5
F105B6
330
F105B7
100
AcDbEntity
8
Geo
100
AcDbLine
10
-25.4094535993062
20
13.1955930492773
30
0.000000000000000
11
-25.3094535993062
21
13.1515939325948
31
0.000000000000000
  0
LINE
  5
F105B8
330
F105B9
100
AcDbEntity
8
Geo
100
AcDbLine
10
-25.3094535993062
20
13.1515939325948
30
0.000000000000000
11
-25.2094535993062
21
13.1072371536594
31
0.000000000000000
  0
LINE
  5
F105BA
330
F105BB
100
AcDbEntity
8
Geo
100
AcDbLine
10
-25.2094535993062
20
13.1072371536594
30
0.000000000000000
11
-25.1094535993062
21
13.0625268195485
31
0.000000000000000
  0
LINE
  5
F105BC
330
F105BD
100
AcDbEntity
8
Geo
100
AcDbLine
10
-25.1094535993062
20
13.0625268195485
30
0.000000000000000
11
-25.0094535993062
21
13.0174670700759
31
0.000000000000000
  0
LINE
  5
F105BE
330
F105BF
100
AcDbEntity
8
Geo
100
AcDbLine
10
-25.0094535993062
20
13.0174670700759
30
0.000000000000000
11
-24.9094535993062
21
12.9720620774085
31
0.000000000000000
  0
LINE
  5
F105C0
330
F105C1
100
AcDbEntity
8
Geo
100
AcDbLine
10
-24.9094535993062
20
12.9720620774085
30
0.000000000000000
11
-24.8094535993062
21
12.9263160456797
31
0.000000000000000
  0
LINE
  5
F105C2
330
F105C3
100
AcDbEntity
8
Geo
100
AcDbLine
10
-24.8094535993062
20
12.9263160456797
30
0.000000000000000
11
-24.7094535993062
21
12.8802332106007
31
0.000000000000000
  0
LINE
  5
F105C4
330
F105C5
100
AcDbEntity
8
Geo
100
AcDbLine
10
-24.7094535993062
20
12.8802332106007
30
0.000000000000000
11
-24.6094535993062
21
12.8338178390676
31
0.000000000000000
  0
LINE
  5
F105C6
330
F105C7
100
AcDbEntity
8
Geo
100
AcDbLine
10
-24.6094535993062
20
12.8338178390676
30
0.000000000000000
11
-24.5094535993062
21
12.7870742287669
31
0.000000000000000
  0
LINE
  5
F105C8
330
F105C9
100
AcDbEntity
8
Geo
100
AcDbLine
10
-24.5094535993062
20
12.7870742287669
30
0.000000000000000
11
-24.4094535993062
21
12.7400067077772
31
0.000000000000000
  0
LINE
  5
F105CA
330
F105CB
100
AcDbEntity
8
Geo
100
AcDbLine
10
-24.4094535993062
20
12.7400067077772
30
0.000000000000000
11
-24.3094535993062
21
12.6926196341687
31
0.000000000000000
  0
LINE
  5
F105CC
330
F105CD
100
AcDbEntity
8
Geo
100
AcDbLine
10
-24.3094535993062
20
12.6926196341687
30
0.000000000000000
11
-24.2094535993062
21
12.6449173955996
31
0.000000000000000
  0
LINE
  5
F105CE
330
F105CF
100
AcDbEntity
8
Geo
100
AcDbLine
10
-24.2094535993062
20
12.6449173955996
30
0.000000000000000
11
-24.1094535993062
21
12.5969044089097
31
0.000000000000000
  0
LINE
  5
F105D0
330
F105D1
100
AcDbEntity
8
Geo
100
AcDbLine
10
-24.1094535993062
20
12.5969044089097
30
0.000000000000000
11
-24.0094535993062
21
12.5485851197116
31
0.000000000000000
  0
LINE
  5
F105D2
330
F105D3
100
AcDbEntity
8
Geo
100
AcDbLine
10
-24.0094535993062
20
12.5485851197116
30
0.000000000000000
11
-23.9094535993062
21
12.4999640019791
31
0.000000000000000
  0
LINE
  5
F105D4
330
F105D5
100
AcDbEntity
8
Geo
100
AcDbLine
10
-23.9094535993062
20
12.4999640019791
30
0.000000000000000
11
-23.8094535993062
21
12.4510455576327
31
0.000000000000000
  0
LINE
  5
F105D6
330
F105D7
100
AcDbEntity
8
Geo
100
AcDbLine
10
-23.8094535993062
20
12.4510455576327
30
0.000000000000000
11
-23.7094535993062
21
12.4018343161232
31
0.000000000000000
  0
LINE
  5
F105D8
330
F105D9
100
AcDbEntity
8
Geo
100
AcDbLine
10
-23.7094535993062
20
12.4018343161232
30
0.000000000000000
11
-23.6094535993062
21
12.3523348340117
31
0.000000000000000
  0
LINE
  5
F105DA
330
F105DB
100
AcDbEntity
8
Geo
100
AcDbLine
10
-23.6094535993062
20
12.3523348340117
30
0.000000000000000
11
-23.5094535993062
21
12.3025516945484
31
0.000000000000000
  0
LINE
  5
F105DC
330
F105DD
100
AcDbEntity
8
Geo
100
AcDbLine
10
-23.5094535993062
20
12.3025516945484
30
0.000000000000000
11
-23.4094535993062
21
12.2524895072475
31
0.000000000000000
  0
LINE
  5
F105DE
330
F105DF
100
AcDbEntity
8
Geo
100
AcDbLine
10
-23.4094535993062
20
12.2524895072475
30
0.000000000000000
11
-23.3094535993062
21
12.2021529074611
31
0.000000000000000
  0
LINE
  5
F105E0
330
F105E1
100
AcDbEntity
8
Geo
100
AcDbLine
10
-23.3094535993062
20
12.2021529074611
30
0.000000000000000
11
-23.2094535993062
21
12.1515465559494
31
0.000000000000000
  0
LINE
  5
F105E2
330
F105E3
100
AcDbEntity
8
Geo
100
AcDbLine
10
-23.2094535993062
20
12.1515465559494
30
0.000000000000000
11
-23.1094535993062
21
12.1006751384496
31
0.000000000000000
  0
LINE
  5
F105E4
330
F105E5
100
AcDbEntity
8
Geo
100
AcDbLine
10
-23.1094535993062
20
12.1006751384496
30
0.000000000000000
11
-23.0094535993062
21
12.0495433652418
31
0.000000000000000
  0
LINE
  5
F105E6
330
F105E7
100
AcDbEntity
8
Geo
100
AcDbLine
10
-23.0094535993062
20
12.0495433652418
30
0.000000000000000
11
-22.9094535993062
21
11.9981559707129
31
0.000000000000000
  0
LINE
  5
F105E8
330
F105E9
100
AcDbEntity
8
Geo
100
AcDbLine
10
-22.9094535993062
20
11.9981559707129
30
0.000000000000000
11
-22.8094535993062
21
11.9465177129182
31
0.000000000000000
  0
LINE
  5
F105EA
330
F105EB
100
AcDbEntity
8
Geo
100
AcDbLine
10
-22.8094535993062
20
11.9465177129182
30
0.000000000000000
11
-22.7094535993062
21
11.8946333731410
31
0.000000000000000
  0
LINE
  5
F105EC
330
F105ED
100
AcDbEntity
8
Geo
100
AcDbLine
10
-22.7094535993062
20
11.8946333731410
30
0.000000000000000
11
-22.6094535993062
21
11.8425077554499
31
0.000000000000000
  0
LINE
  5
F105EE
330
F105EF
100
AcDbEntity
8
Geo
100
AcDbLine
10
-22.6094535993062
20
11.8425077554499
30
0.000000000000000
11
-22.5094535993062
21
11.7901456862536
31
0.000000000000000
  0
LINE
  5
F105F0
330
F105F1
100
AcDbEntity
8
Geo
100
AcDbLine
10
-22.5094535993062
20
11.7901456862536
30
0.000000000000000
11
-22.4094535993062
21
11.7375520138544
31
0.000000000000000
  0
LINE
  5
F105F2
330
F105F3
100
AcDbEntity
8
Geo
100
AcDbLine
10
-22.4094535993062
20
11.7375520138544
30
0.000000000000000
11
-22.3094535993062
21
11.6847316079993
31
0.000000000000000
  0
LINE
  5
F105F4
330
F105F5
100
AcDbEntity
8
Geo
100
AcDbLine
10
-22.3094535993062
20
11.6847316079993
30
0.000000000000000
11
-22.2094535993062
21
11.6316893594289
31
0.000000000000000
  0
LINE
  5
F105F6
330
F105F7
100
AcDbEntity
8
Geo
100
AcDbLine
10
-22.2094535993062
20
11.6316893594289
30
0.000000000000000
11
-22.1094535993062
21
11.5784301794246
31
0.000000000000000
  0
LINE
  5
F105F8
330
F105F9
100
AcDbEntity
8
Geo
100
AcDbLine
10
-22.1094535993062
20
11.5784301794246
30
0.000000000000000
11
-22.0094535993062
21
11.5249589993538
31
0.000000000000000
  0
LINE
  5
F105FA
330
F105FB
100
AcDbEntity
8
Geo
100
AcDbLine
10
-22.0094535993062
20
11.5249589993538
30
0.000000000000000
11
-21.9094535993062
21
11.4712807702136
31
0.000000000000000
  0
LINE
  5
F105FC
330
F105FD
100
AcDbEntity
8
Geo
100
AcDbLine
10
-21.9094535993062
20
11.4712807702136
30
0.000000000000000
11
-21.8094535993062
21
11.4174004621720
31
0.000000000000000
  0
LINE
  5
F105FE
330
F105FF
100
AcDbEntity
8
Geo
100
AcDbLine
10
-21.8094535993062
20
11.4174004621720
30
0.000000000000000
11
-21.7094535993062
21
11.3633230641080
31
0.000000000000000
  0
LINE
  5
F10600
330
F10601
100
AcDbEntity
8
Geo
100
AcDbLine
10
-21.7094535993062
20
11.3633230641080
30
0.000000000000000
11
-21.6094535993062
21
11.3090535831493
31
0.000000000000000
  0
LINE
  5
F10602
330
F10603
100
AcDbEntity
8
Geo
100
AcDbLine
10
-21.6094535993062
20
11.3090535831493
30
0.000000000000000
11
-21.5094535993062
21
11.2545970442092
31
0.000000000000000
  0
LINE
  5
F10604
330
F10605
100
AcDbEntity
8
Geo
100
AcDbLine
10
-21.5094535993062
20
11.2545970442092
30
0.000000000000000
11
-21.4094535993062
21
11.1999584895209
31
0.000000000000000
  0
LINE
  5
F10606
330
F10607
100
AcDbEntity
8
Geo
100
AcDbLine
10
-21.4094535993062
20
11.1999584895209
30
0.000000000000000
11
-21.3094535993062
21
11.1451429781707
31
0.000000000000000
  0
LINE
  5
F10608
330
F10609
100
AcDbEntity
8
Geo
100
AcDbLine
10
-21.3094535993062
20
11.1451429781707
30
0.000000000000000
11
-21.2094535993062
21
11.0901555856299
31
0.000000000000000
  0
LINE
  5
F1060A
330
F1060B
100
AcDbEntity
8
Geo
100
AcDbLine
10
-21.2094535993062
20
11.0901555856299
30
0.000000000000000
11
-21.1094535993062
21
11.0350014032843
31
0.000000000000000
  0
LINE
  5
F1060C
330
F1060D
100
AcDbEntity
8
Geo
100
AcDbLine
10
-21.1094535993062
20
11.0350014032843
30
0.000000000000000
11
-21.0094535993062
21
10.9796855379634
31
0.000000000000000
  0
LINE
  5
F1060E
330
F1060F
100
AcDbEntity
8
Geo
100
AcDbLine
10
-21.0094535993062
20
10.9796855379634
30
0.000000000000000
11
-20.9094535993062
21
10.9242131114669
31
0.000000000000000
  0
LINE
  5
F10610
330
F10611
100
AcDbEntity
8
Geo
100
AcDbLine
10
-20.9094535993062
20
10.9242131114669
30
0.000000000000000
11
-20.8094535993062
21
10.8685892600910
31
0.000000000000000
  0
LINE
  5
F10612
330
F10613
100
AcDbEntity
8
Geo
100
AcDbLine
10
-20.8094535993062
20
10.8685892600910
30
0.000000000000000
11
-20.7094535993062
21
10.8128191341526
31
0.000000000000000
  0
LINE
  5
F10614
330
F10615
100
AcDbEntity
8
Geo
100
AcDbLine
10
-20.7094535993062
20
10.8128191341526
30
0.000000000000000
11
-20.6094535993062
21
10.7569078975123
31
0.000000000000000
  0
LINE
  5
F10616
330
F10617
100
AcDbEntity
8
Geo
100
AcDbLine
10
-20.6094535993062
20
10.7569078975123
30
0.000000000000000
11
-20.5094535993062
21
10.7008607270967
31
0.000000000000000
  0
LINE
  5
F10618
330
F10619
100
AcDbEntity
8
Geo
100
AcDbLine
10
-20.5094535993062
20
10.7008607270967
30
0.000000000000000
11
-20.4094535993062
21
10.6446828124185
31
0.000000000000000
  0
LINE
  5
F1061A
330
F1061B
100
AcDbEntity
8
Geo
100
AcDbLine
10
-20.4094535993062
20
10.6446828124185
30
0.000000000000000
11
-20.3094535993062
21
10.5883793550962
31
0.000000000000000
  0
LINE
  5
F1061C
330
F1061D
100
AcDbEntity
8
Geo
100
AcDbLine
10
-20.3094535993062
20
10.5883793550962
30
0.000000000000000
11
-20.2094535993062
21
10.5319555683729
31
0.000000000000000
  0
LINE
  5
F1061E
330
F1061F
100
AcDbEntity
8
Geo
100
AcDbLine
10
-20.2094535993062
20
10.5319555683729
30
0.000000000000000
11
-20.1094535993062
21
10.4754166766327
31
0.000000000000000
  0
LINE
  5
F10620
330
F10621
100
AcDbEntity
8
Geo
100
AcDbLine
10
-20.1094535993062
20
10.4754166766327
30
0.000000000000000
11
-20.0094535993062
21
10.4187679149180
31
0.000000000000000
  0
LINE
  5
F10622
330
F10623
100
AcDbEntity
8
Geo
100
AcDbLine
10
-20.0094535993062
20
10.4187679149180
30
0.000000000000000
11
-19.9094535993062
21
10.3620145284440
31
0.000000000000000
  0
LINE
  5
F10624
330
F10625
100
AcDbEntity
8
Geo
100
AcDbLine
10
-19.9094535993062
20
10.3620145284440
30
0.000000000000000
11
-19.8094535993062
21
10.3051617721132
31
0.000000000000000
  0
LINE
  5
F10626
330
F10627
100
AcDbEntity
8
Geo
100
AcDbLine
10
-19.8094535993062
20
10.3051617721132
30
0.000000000000000
11
-19.7094535993062
21
10.2482149100293
31
0.000000000000000
  0
LINE
  5
F10628
330
F10629
100
AcDbEntity
8
Geo
100
AcDbLine
10
-19.7094535993062
20
10.2482149100293
30
0.000000000000000
11
-19.6094535993062
21
10.1911792150091
31
0.000000000000000
  0
LINE
  5
F1062A
330
F1062B
100
AcDbEntity
8
Geo
100
AcDbLine
10
-19.6094535993062
20
10.1911792150091
30
0.000000000000000
11
-19.5094535993062
21
10.1340599680947
31
0.000000000000000
  0
LINE
  5
F1062C
330
F1062D
100
AcDbEntity
8
Geo
100
AcDbLine
10
-19.5094535993062
20
10.1340599680947
30
0.000000000000000
11
-19.4094535993062
21
10.0768624580644
31
0.000000000000000
  0
LINE
  5
F1062E
330
F1062F
100
AcDbEntity
8
Geo
100
AcDbLine
10
-19.4094535993062
20
10.0768624580644
30
0.000000000000000
11
-19.3094535993062
21
10.0195919809433
31
0.000000000000000
  0
LINE
  5
F10630
330
F10631
100
AcDbEntity
8
Geo
100
AcDbLine
10
-19.3094535993062
20
10.0195919809433
30
0.000000000000000
11
-19.2094535993062
21
9.96225383951223
31
0.000000000000000
  0
LINE
  5
F10632
330
F10633
100
AcDbEntity
8
Geo
100
AcDbLine
10
-19.2094535993062
20
9.96225383951223
30
0.000000000000000
11
-19.1094535993062
21
9.90485334281748
31
0.000000000000000
  0
LINE
  5
F10634
330
F10635
100
AcDbEntity
8
Geo
100
AcDbLine
10
-19.1094535993062
20
9.90485334281748
30
0.000000000000000
11
-19.0094535993062
21
9.84739580567883
31
0.000000000000000
  0
LINE
  5
F10636
330
F10637
100
AcDbEntity
8
Geo
100
AcDbLine
10
-19.0094535993062
20
9.84739580567883
30
0.000000000000000
11
-18.9094535993062
21
9.78988654819756
31
0.000000000000000
  0
LINE
  5
F10638
330
F10639
100
AcDbEntity
8
Geo
100
AcDbLine
10
-18.9094535993062
20
9.78988654819756
30
0.000000000000000
11
-18.8094535993062
21
9.73233089526383
31
0.000000000000000
  0
LINE
  5
F1063A
330
F1063B
100
AcDbEntity
8
Geo
100
AcDbLine
10
-18.8094535993062
20
9.73233089526383
30
0.000000000000000
11
-18.7094535993062
21
9.67473417606364
31
0.000000000000000
  0
LINE
  5
F1063C
330
F1063D
100
AcDbEntity
8
Geo
100
AcDbLine
10
-18.7094535993062
20
9.67473417606364
30
0.000000000000000
11
-18.6094535993062
21
9.61710172358540
31
0.000000000000000
  0
LINE
  5
F1063E
330
F1063F
100
AcDbEntity
8
Geo
100
AcDbLine
10
-18.6094535993062
20
9.61710172358540
30
0.000000000000000
11
-18.5094535993062
21
9.55943887412613
31
0.000000000000000
  0
LINE
  5
F10640
330
F10641
100
AcDbEntity
8
Geo
100
AcDbLine
10
-18.5094535993062
20
9.55943887412613
30
0.000000000000000
11
-18.4094535993062
21
9.50175096679735
31
0.000000000000000
  0
LINE
  5
F10642
330
F10643
100
AcDbEntity
8
Geo
100
AcDbLine
10
-18.4094535993062
20
9.50175096679735
30
0.000000000000000
11
-18.3094535993062
21
9.44404334303075
31
0.000000000000000
  0
LINE
  5
F10644
330
F10645
100
AcDbEntity
8
Geo
100
AcDbLine
10
-18.3094535993062
20
9.44404334303075
30
0.000000000000000
11
-18.2094535993062
21
9.38632134608361
31
0.000000000000000
  0
LINE
  5
F10646
330
F10647
100
AcDbEntity
8
Geo
100
AcDbLine
10
-18.2094535993062
20
9.38632134608361
30
0.000000000000000
11
-18.1094535993062
21
9.32859032054402
31
0.000000000000000
  0
LINE
  5
F10648
330
F10649
100
AcDbEntity
8
Geo
100
AcDbLine
10
-18.1094535993062
20
9.32859032054402
30
0.000000000000000
11
-18.0094535993062
21
9.27085561183607
31
0.000000000000000
  0
LINE
  5
F1064A
330
F1064B
100
AcDbEntity
8
Geo
100
AcDbLine
10
-18.0094535993062
20
9.27085561183607
30
0.000000000000000
11
-17.9094535993062
21
9.21312256572487
31
0.000000000000000
  0
LINE
  5
F1064C
330
F1064D
100
AcDbEntity
8
Geo
100
AcDbLine
10
-17.9094535993062
20
9.21312256572487
30
0.000000000000000
11
-17.8094535993062
21
9.15539652782160
31
0.000000000000000
  0
LINE
  5
F1064E
330
F1064F
100
AcDbEntity
8
Geo
100
AcDbLine
10
-17.8094535993062
20
9.15539652782160
30
0.000000000000000
11
-17.7094535993062
21
9.09768284308851
31
0.000000000000000
  0
LINE
  5
F10650
330
F10651
100
AcDbEntity
8
Geo
100
AcDbLine
10
-17.7094535993062
20
9.09768284308851
30
0.000000000000000
11
-17.6094535993062
21
9.03998685534408
31
0.000000000000000
  0
LINE
  5
F10652
330
F10653
100
AcDbEntity
8
Geo
100
AcDbLine
10
-17.6094535993062
20
9.03998685534408
30
0.000000000000000
11
-17.5094535993062
21
8.98231390676818
31
0.000000000000000
  0
LINE
  5
F10654
330
F10655
100
AcDbEntity
8
Geo
100
AcDbLine
10
-17.5094535993062
20
8.98231390676818
30
0.000000000000000
11
-17.4094535993062
21
8.92466933740742
31
0.000000000000000
  0
LINE
  5
F10656
330
F10657
100
AcDbEntity
8
Geo
100
AcDbLine
10
-17.4094535993062
20
8.92466933740742
30
0.000000000000000
11
-17.3094535993062
21
8.86705848468075
31
0.000000000000000
  0
LINE
  5
F10658
330
F10659
100
AcDbEntity
8
Geo
100
AcDbLine
10
-17.3094535993062
20
8.86705848468075
30
0.000000000000000
11
-17.2094535993062
21
8.80948668288523
31
0.000000000000000
  0
LINE
  5
F1065A
330
F1065B
100
AcDbEntity
8
Geo
100
AcDbLine
10
-17.2094535993062
20
8.80948668288523
30
0.000000000000000
11
-17.1094535993062
21
8.75195926270211
31
0.000000000000000
  0
LINE
  5
F1065C
330
F1065D
100
AcDbEntity
8
Geo
100
AcDbLine
10
-17.1094535993062
20
8.75195926270211
30
0.000000000000000
11
-17.0094535993062
21
8.69448155070327
31
0.000000000000000
  0
LINE
  5
F1065E
330
F1065F
100
AcDbEntity
8
Geo
100
AcDbLine
10
-17.0094535993062
20
8.69448155070327
30
0.000000000000000
11
-16.9094535993062
21
8.63705886885802
31
0.000000000000000
  0
LINE
  5
F10660
330
F10661
100
AcDbEntity
8
Geo
100
AcDbLine
10
-16.9094535993062
20
8.63705886885802
30
0.000000000000000
11
-16.8094535993062
21
8.57969653404031
31
0.000000000000000
  0
LINE
  5
F10662
330
F10663
100
AcDbEntity
8
Geo
100
AcDbLine
10
-16.8094535993062
20
8.57969653404031
30
0.000000000000000
11
-16.7094535993062
21
8.52239985753647
31
0.000000000000000
  0
LINE
  5
F10664
330
F10665
100
AcDbEntity
8
Geo
100
AcDbLine
10
-16.7094535993062
20
8.52239985753647
30
0.000000000000000
11
-16.6094535993062
21
8.46517414455339
31
0.000000000000000
  0
LINE
  5
F10666
330
F10667
100
AcDbEntity
8
Geo
100
AcDbLine
10
-16.6094535993062
20
8.46517414455339
30
0.000000000000000
11
-16.5094535993062
21
8.40802469372730
31
0.000000000000000
  0
LINE
  5
F10668
330
F10669
100
AcDbEntity
8
Geo
100
AcDbLine
10
-16.5094535993062
20
8.40802469372730
30
0.000000000000000
11
-16.4094535993062
21
8.35095679663319
31
0.000000000000000
  0
LINE
  5
F1066A
330
F1066B
100
AcDbEntity
8
Geo
100
AcDbLine
10
-16.4094535993062
20
8.35095679663319
30
0.000000000000000
11
-16.3094535993062
21
8.29397573729483
31
0.000000000000000
  0
LINE
  5
F1066C
330
F1066D
100
AcDbEntity
8
Geo
100
AcDbLine
10
-16.3094535993062
20
8.29397573729483
30
0.000000000000000
11
-16.2094535993062
21
8.23708679169554
31
0.000000000000000
  0
LINE
  5
F1066E
330
F1066F
100
AcDbEntity
8
Geo
100
AcDbLine
10
-16.2094535993062
20
8.23708679169554
30
0.000000000000000
11
-16.1094535993062
21
8.18029522728962
31
0.000000000000000
  0
LINE
  5
F10670
330
F10671
100
AcDbEntity
8
Geo
100
AcDbLine
10
-16.1094535993062
20
8.18029522728962
30
0.000000000000000
11
-16.0094535993062
21
8.12360630251470
31
0.000000000000000
  0
LINE
  5
F10672
330
F10673
100
AcDbEntity
8
Geo
100
AcDbLine
10
-16.0094535993062
20
8.12360630251470
30
0.000000000000000
11
-15.9094535993062
21
8.06702526630478
31
0.000000000000000
  0
LINE
  5
F10674
330
F10675
100
AcDbEntity
8
Geo
100
AcDbLine
10
-15.9094535993062
20
8.06702526630478
30
0.000000000000000
11
-15.8094535993062
21
8.01055735760427
31
0.000000000000000
  0
LINE
  5
F10676
330
F10677
100
AcDbEntity
8
Geo
100
AcDbLine
10
-15.8094535993062
20
8.01055735760427
30
0.000000000000000
11
-15.7094535993062
21
7.95420780488290
31
0.000000000000000
  0
LINE
  5
F10678
330
F10679
100
AcDbEntity
8
Geo
100
AcDbLine
10
-15.7094535993062
20
7.95420780488290
30
0.000000000000000
11
-15.6094535993062
21
7.89798182565158
31
0.000000000000000
  0
LINE
  5
F1067A
330
F1067B
100
AcDbEntity
8
Geo
100
AcDbLine
10
-15.6094535993062
20
7.89798182565158
30
0.000000000000000
11
-15.5094535993062
21
7.84188462597934
31
0.000000000000000
  0
LINE
  5
F1067C
330
F1067D
100
AcDbEntity
8
Geo
100
AcDbLine
10
-15.5094535993062
20
7.84188462597934
30
0.000000000000000
11
-15.4094535993062
21
7.78592140001124
31
0.000000000000000
  0
LINE
  5
F1067E
330
F1067F
100
AcDbEntity
8
Geo
100
AcDbLine
10
-15.4094535993062
20
7.78592140001124
30
0.000000000000000
11
-15.3094535993062
21
7.73009732948750
31
0.000000000000000
  0
LINE
  5
F10680
330
F10681
100
AcDbEntity
8
Geo
100
AcDbLine
10
-15.3094535993062
20
7.73009732948750
30
0.000000000000000
11
-15.2094535993062
21
7.67441758326364
31
0.000000000000000
  0
LINE
  5
F10682
330
F10683
100
AcDbEntity
8
Geo
100
AcDbLine
10
-15.2094535993062
20
7.67441758326364
30
0.000000000000000
11
-15.1094535993062
21
7.61888731683194
31
0.000000000000000
  0
LINE
  5
F10684
330
F10685
100
AcDbEntity
8
Geo
100
AcDbLine
10
-15.1094535993062
20
7.61888731683194
30
0.000000000000000
11
-15.0094535993062
21
7.56351167184406
31
0.000000000000000
  0
LINE
  5
F10686
330
F10687
100
AcDbEntity
8
Geo
100
AcDbLine
10
-15.0094535993062
20
7.56351167184406
30
0.000000000000000
11
-14.9094535993062
21
7.50829577563498
31
0.000000000000000
  0
LINE
  5
F10688
330
F10689
100
AcDbEntity
8
Geo
100
AcDbLine
10
-14.9094535993062
20
7.50829577563498
30
0.000000000000000
11
-14.8094535993062
21
7.45324474074824
31
0.000000000000000
  0
LINE
  5
F1068A
330
F1068B
100
AcDbEntity
8
Geo
100
AcDbLine
10
-14.8094535993062
20
7.45324474074824
30
0.000000000000000
11
-14.7094535993062
21
7.39836366446253
31
0.000000000000000
  0
LINE
  5
F1068C
330
F1068D
100
AcDbEntity
8
Geo
100
AcDbLine
10
-14.7094535993062
20
7.39836366446253
30
0.000000000000000
11
-14.6094535993062
21
7.34365762831981
31
0.000000000000000
  0
LINE
  5
F1068E
330
F1068F
100
AcDbEntity
8
Geo
100
AcDbLine
10
-14.6094535993062
20
7.34365762831981
30
0.000000000000000
11
-14.5094535993062
21
7.28913169765468
31
0.000000000000000
  0
LINE
  5
F10690
330
F10691
100
AcDbEntity
8
Geo
100
AcDbLine
10
-14.5094535993062
20
7.28913169765468
30
0.000000000000000
11
-14.4094535993062
21
7.23479092112549
31
0.000000000000000
  0
LINE
  5
F10692
330
F10693
100
AcDbEntity
8
Geo
100
AcDbLine
10
-14.4094535993062
20
7.23479092112549
30
0.000000000000000
11
-14.3094535993062
21
7.18064033024679
31
0.000000000000000
  0
LINE
  5
F10694
330
F10695
100
AcDbEntity
8
Geo
100
AcDbLine
10
-14.3094535993062
20
7.18064033024679
30
0.000000000000000
11
-14.2094535993062
21
7.12668493892350
31
0.000000000000000
  0
LINE
  5
F10696
330
F10697
100
AcDbEntity
8
Geo
100
AcDbLine
10
-14.2094535993062
20
7.12668493892350
30
0.000000000000000
11
-14.1094535993062
21
7.07292974298663
31
0.000000000000000
  0
LINE
  5
F10698
330
F10699
100
AcDbEntity
8
Geo
100
AcDbLine
10
-14.1094535993062
20
7.07292974298663
30
0.000000000000000
11
-14.0094535993062
21
7.01937971973073
31
0.000000000000000
  0
LINE
  5
F1069A
330
F1069B
100
AcDbEntity
8
Geo
100
AcDbLine
10
-14.0094535993062
20
7.01937971973073
30
0.000000000000000
11
-13.9094535993062
21
6.96603982745304
31
0.000000000000000
  0
LINE
  5
F1069C
330
F1069D
100
AcDbEntity
8
Geo
100
AcDbLine
10
-13.9094535993062
20
6.96603982745304
30
0.000000000000000
11
-13.8094535993062
21
6.91291500499435
31
0.000000000000000
  0
LINE
  5
F1069E
330
F1069F
100
AcDbEntity
8
Geo
100
AcDbLine
10
-13.8094535993062
20
6.91291500499435
30
0.000000000000000
11
-13.7094535993062
21
6.86001017128176
31
0.000000000000000
  0
LINE
  5
F106A0
330
F106A1
100
AcDbEntity
8
Geo
100
AcDbLine
10
-13.7094535993062
20
6.86001017128176
30
0.000000000000000
11
-13.6094535993062
21
6.80733022487319
31
0.000000000000000
  0
LINE
  5
F106A2
330
F106A3
100
AcDbEntity
8
Geo
100
AcDbLine
10
-13.6094535993062
20
6.80733022487319
30
0.000000000000000
11
-13.5094535993062
21
6.75488004350380
31
0.000000000000000
  0
LINE
  5
F106A4
330
F106A5
100
AcDbEntity
8
Geo
100
AcDbLine
10
-13.5094535993062
20
6.75488004350380
30
0.000000000000000
11
-13.4094535993062
21
6.70266448363441
31
0.000000000000000
  0
LINE
  5
F106A6
330
F106A7
100
AcDbEntity
8
Geo
100
AcDbLine
10
-13.4094535993062
20
6.70266448363441
30
0.000000000000000
11
-13.3094535993062
21
6.65068838000177
31
0.000000000000000
  0
LINE
  5
F106A8
330
F106A9
100
AcDbEntity
8
Geo
100
AcDbLine
10
-33.2094535993062
20
9.28881179531656
30
0.000000000000000
11
-33.2094535993062
21
9.28881179531656
31
0.000000000000000
  0
LINE
  5
F106AA
330
F106AB
100
AcDbEntity
8
Geo
100
AcDbLine
10
-33.2094535993062
20
9.28881179531656
30
0.000000000000000
11
-33.2094535993062
21
9.28881179531656
31
0.000000000000000
  0
LINE
  5
F106AC
330
F106AD
100
AcDbEntity
8
Geo
100
AcDbLine
10
-33.2094535993062
20
9.28881179531656
30
0.000000000000000
11
-33.2094535993062
21
9.28881179531656
31
0.000000000000000
  0
LINE
  5
F106AE
330
F106AF
100
AcDbEntity
8
Geo
100
AcDbLine
10
-33.2094535993062
20
9.28881179531656
30
0.000000000000000
11
-33.2094535993062
21
9.28881179531656
31
0.000000000000000
  0
LINE
  5
F106B0
330
F106B1
100
AcDbEntity
8
Geo
100
AcDbLine
10
-33.2094535993062
20
9.28881179531656
30
0.000000000000000
11
-33.2094535993062
21
9.28881179531656
31
0.000000000000000
  0
LINE
  5
F106B2
330
F106B3
100
AcDbEntity
8
Geo
100
AcDbLine
10
-33.2094535993062
20
9.28881179531656
30
0.000000000000000
11
-33.2094535993062
21
9.28881179531656
31
0.000000000000000
  0
LINE
  5
F106B4
330
F106B5
100
AcDbEntity
8
Geo
100
AcDbLine
10
-33.2094535993062
20
9.28881179531656
30
0.000000000000000
11
-33.2094535993062
21
9.28881179531656
31
0.000000000000000
  0
LINE
  5
F106B6
330
F106B7
100
AcDbEntity
8
Geo
100
AcDbLine
10
-33.2094535993062
20
9.28881179531656
30
0.000000000000000
11
-33.2094535993062
21
9.28881179531656
31
0.000000000000000
  0
LINE
  5
F106B8
330
F106B9
100
AcDbEntity
8
Geo
100
AcDbLine
10
-33.2094535993062
20
9.28881179531656
30
0.000000000000000
11
-33.2094535993062
21
9.28881179531656
31
0.000000000000000
  0
LINE
  5
F106BA
330
F106BB
100
AcDbEntity
8
Geo
100
AcDbLine
10
-33.2094535993062
20
9.28881179531656
30
0.000000000000000
11
-33.2094535993062
21
9.28881179531656
31
0.000000000000000
  0
LINE
  5
F106BC
330
F106BD
100
AcDbEntity
8
Geo
100
AcDbLine
10
-33.2094535993062
20
9.28881179531656
30
0.000000000000000
11
-33.2094535993062
21
9.28881179531656
31
0.000000000000000
  0
LINE
  5
F106BE
330
F106BF
100
AcDbEntity
8
Geo
100
AcDbLine
10
-33.2094535993062
20
9.28881179531656
30
0.000000000000000
11
-33.2094535993062
21
9.28881179531656
31
0.000000000000000
  0
LINE
  5
F106C0
330
F106C1
100
AcDbEntity
8
Geo
100
AcDbLine
10
-33.2094535993062
20
9.28881179531656
30
0.000000000000000
11
-33.2094535993062
21
9.28881179531656
31
0.000000000000000
  0
LINE
  5
F106C2
330
F106C3
100
AcDbEntity
8
Geo
100
AcDbLine
10
-33.2094535993062
20
9.28881179531656
30
0.000000000000000
11
-33.2094535993062
21
9.28881179531656
31
0.000000000000000
  0
LINE
  5
F106C4
330
F106C5
100
AcDbEntity
8
Geo
100
AcDbLine
10
-33.2094535993062
20
9.28881179531656
30
0.000000000000000
11
-33.2094535993062
21
9.28881179531656
31
0.000000000000000
  0
LINE
  5
F106C6
330
F106C7
100
AcDbEntity
8
Geo
100
AcDbLine
10
-33.2094535993062
20
9.28881179531656
30
0.000000000000000
11
-33.2094535993062
21
9.28881179531656
31
0.000000000000000
  0
LINE
  5
F106C8
330
F106C9
100
AcDbEntity
8
Geo
100
AcDbLine
10
-33.2094535993062
20
9.28881179531656
30
0.000000000000000
11
-33.2094535993062
21
9.28881179531656
31
0.000000000000000
  0
LINE
  5
F106CA
330
F106CB
100
AcDbEntity
8
Geo
100
AcDbLine
10
-33.2094535993062
20
9.28881179531656
30
0.000000000000000
11
-33.2094535993062
21
9.28881179531656
31
0.000000000000000
  0
LINE
  5
F106CC
330
F106CD
100
AcDbEntity
8
Geo
100
AcDbLine
10
-33.2094535993062
20
9.28881179531656
30
0.000000000000000
11
-33.2094535993062
21
9.28881179531656
31
0.000000000000000
  0
LINE
  5
F106CE
330
F106CF
100
AcDbEntity
8
Geo
100
AcDbLine
10
-33.2094535993062
20
9.28881179531656
30
0.000000000000000
11
-33.2094535993062
21
9.28881179531656
31
0.000000000000000
  0
LINE
  5
F106D0
330
F106D1
100
AcDbEntity
8
Geo
100
AcDbLine
10
-33.2094535993062
20
9.28881179531656
30
0.000000000000000
11
-33.2094535993062
21
9.28881179531656
31
0.000000000000000
  0
LINE
  5
F106D2
330
F106D3
100
AcDbEntity
8
Geo
100
AcDbLine
10
-33.2094535993062
20
9.28881179531656
30
0.000000000000000
11
-33.2094535993062
21
9.28881179531656
31
0.000000000000000
  0
LINE
  5
F106D4
330
F106D5
100
AcDbEntity
8
Geo
100
AcDbLine
10
-33.2094535993062
20
9.28881179531656
30
0.000000000000000
11
-33.2094535993062
21
9.28881179531656
31
0.000000000000000
  0
LINE
  5
F106D6
330
F106D7
100
AcDbEntity
8
Geo
100
AcDbLine
10
-33.2094535993062
20
9.28881179531656
30
0.000000000000000
11
-33.2094535993062
21
9.28881179531656
31
0.000000000000000
  0
LINE
  5
F106D8
330
F106D9
100
AcDbEntity
8
Geo
100
AcDbLine
10
-33.2094535993062
20
9.28881179531656
30
0.000000000000000
11
-33.2094535993062
21
9.28881179531656
31
0.000000000000000
  0
LINE
  5
F106DA
330
F106DB
100
AcDbEntity
8
Geo
100
AcDbLine
10
-33.2094535993062
20
9.28881179531656
30
0.000000000000000
11
-33.2094535993062
21
9.28881179531656
31
0.000000000000000
  0
LINE
  5
F106DC
330
F106DD
100
AcDbEntity
8
Geo
100
AcDbLine
10
-33.2094535993062
20
9.28881179531656
30
0.000000000000000
11
-33.2094535993062
21
9.28881179531656
31
0.000000000000000
  0
LINE
  5
F106DE
330
F106DF
100
AcDbEntity
8
Geo
100
AcDbLine
10
-33.2094535993062
20
9.28881179531656
30
0.000000000000000
11
-33.2094535993062
21
9.28881179531656
31
0.000000000000000
  0
LINE
  5
F106E0
330
F106E1
100
AcDbEntity
8
Geo
100
AcDbLine
10
-33.2094535993062
20
9.28881179531656
30
0.000000000000000
11
-33.2094535993062
21
9.28881179531656
31
0.000000000000000
  0
LINE
  5
F106E2
330
F106E3
100
AcDbEntity
8
Geo
100
AcDbLine
10
-33.2094535993062
20
9.28881179531656
30
0.000000000000000
11
-33.2094535993062
21
9.28881179531656
31
0.000000000000000
  0
LINE
  5
F106E4
330
F106E5
100
AcDbEntity
8
Geo
100
AcDbLine
10
-33.2094535993062
20
9.28881179531656
30
0.000000000000000
11
-33.2094535993062
21
9.28881179531656
31
0.000000000000000
  0
LINE
  5
F106E6
330
F106E7
100
AcDbEntity
8
Geo
100
AcDbLine
10
-33.2094535993062
20
9.28881179531656
30
0.000000000000000
11
-33.2094535993062
21
9.28881179531656
31
0.000000000000000
  0
LINE
  5
F106E8
330
F106E9
100
AcDbEntity
8
Geo
100
AcDbLine
10
-33.2094535993062
20
9.28881179531656
30
0.000000000000000
11
-33.2094535993062
21
9.28881179531656
31
0.000000000000000
  0
LINE
  5
F106EA
330
F106EB
100
AcDbEntity
8
Geo
100
AcDbLine
10
-33.2094535993062
20
9.28881179531656
30
0.000000000000000
11
-33.2094535993062
21
9.28881179531656
31
0.000000000000000
  0
LINE
  5
F106EC
330
F106ED
100
AcDbEntity
8
Geo
100
AcDbLine
10
-33.2094535993062
20
9.28881179531656
30
0.000000000000000
11
-33.2094535993062
21
9.28881179531656
31
0.000000000000000
  0
LINE
  5
F106EE
330
F106EF
100
AcDbEntity
8
Geo
100
AcDbLine
10
-33.2094535993062
20
9.28881179531656
30
0.000000000000000
11
-33.2094535993062
21
9.28881179531656
31
0.000000000000000
  0
LINE
  5
F106F0
330
F106F1
100
AcDbEntity
8
Geo
100
AcDbLine
10
-33.2094535993062
20
9.28881179531656
30
0.000000000000000
11
-33.2094535993062
21
9.28881179531656
31
0.000000000000000
  0
LINE
  5
F106F2
330
F106F3
100
AcDbEntity
8
Geo
100
AcDbLine
10
-33.2094535993062
20
9.28881179531656
30
0.000000000000000
11
-33.2094535993062
21
9.28881179531656
31
0.000000000000000
  0
LINE
  5
F106F4
330
F106F5
100
AcDbEntity
8
Geo
100
AcDbLine
10
-33.2094535993062
20
9.28881179531656
30
0.000000000000000
11
-33.2094535993062
21
9.28881179531656
31
0.000000000000000
  0
LINE
  5
F106F6
330
F106F7
100
AcDbEntity
8
Geo
100
AcDbLine
10
-33.2094535993062
20
9.28881179531656
30
0.000000000000000
11
-33.2094535993062
21
9.28881179531656
31
0.000000000000000
  0
LINE
  5
F106F8
330
F106F9
100
AcDbEntity
8
Geo
100
AcDbLine
10
-33.2094535993062
20
9.28881179531656
30
0.000000000000000
11
-33.2094535993062
21
9.28881179531656
31
0.000000000000000
  0
LINE
  5
F106FA
330
F106FB
100
AcDbEntity
8
Geo
100
AcDbLine
10
-33.2094535993062
20
9.28881179531656
30
0.000000000000000
11
-33.2094535993062
21
9.28881179531656
31
0.000000000000000
  0
LINE
  5
F106FC
330
F106FD
100
AcDbEntity
8
Geo
100
AcDbLine
10
-33.2094535993062
20
9.28881179531656
30
0.000000000000000
11
-33.2094535993062
21
9.28881179531656
31
0.000000000000000
  0
LINE
  5
F106FE
330
F106FF
100
AcDbEntity
8
Geo
100
AcDbLine
10
-33.2094535993062
20
9.28881179531656
30
0.000000000000000
11
-33.2094535993062
21
9.28881179531656
31
0.000000000000000
  0
LINE
  5
F10700
330
F10701
100
AcDbEntity
8
Geo
100
AcDbLine
10
-33.2094535993062
20
9.28881179531656
30
0.000000000000000
11
-33.2094535993062
21
9.28881179531656
31
0.000000000000000
  0
LINE
  5
F10702
330
F10703
100
AcDbEntity
8
Geo
100
AcDbLine
10
-33.2094535993062
20
9.28881179531656
30
0.000000000000000
11
-33.2094535993062
21
9.28881179531656
31
0.000000000000000
  0
LINE
  5
F10704
330
F10705
100
AcDbEntity
8
Geo
100
AcDbLine
10
-33.2094535993062
20
9.28881179531656
30
0.000000000000000
11
-33.2094535993062
21
9.28881179531656
31
0.000000000000000
  0
LINE
  5
F10706
330
F10707
100
AcDbEntity
8
Geo
100
AcDbLine
10
-33.2094535993062
20
9.28881179531656
30
0.000000000000000
11
-33.2094535993062
21
9.28881179531656
31
0.000000000000000
  0
LINE
  5
F10708
330
F10709
100
AcDbEntity
8
Geo
100
AcDbLine
10
-33.2094535993062
20
9.28881179531656
30
0.000000000000000
11
-33.2094535993062
21
9.28881179531656
31
0.000000000000000
  0
LINE
  5
F1070A
330
F1070B
100
AcDbEntity
8
Geo
100
AcDbLine
10
-33.2094535993062
20
9.28881179531656
30
0.000000000000000
11
-33.2094535993062
21
9.28881179531656
31
0.000000000000000
  0
LINE
  5
F1070C
330
F1070D
100
AcDbEntity
8
Geo
100
AcDbLine
10
-33.2094535993062
20
9.28881179531656
30
0.000000000000000
11
-33.2094535993062
21
9.28881179531656
31
0.000000000000000
  0
LINE
  5
F1070E
330
F1070F
100
AcDbEntity
8
Geo
100
AcDbLine
10
-33.2094535993062
20
9.28881179531656
30
0.000000000000000
11
-33.2094535993062
21
9.28881179531656
31
0.000000000000000
  0
LINE
  5
F10710
330
F10711
100
AcDbEntity
8
Geo
100
AcDbLine
10
-33.2094535993062
20
9.28881179531656
30
0.000000000000000
11
-33.2094535993062
21
9.28881179531656
31
0.000000000000000
  0
LINE
  5
F10712
330
F10713
100
AcDbEntity
8
Geo
100
AcDbLine
10
-33.2094535993062
20
9.28881179531656
30
0.000000000000000
11
-33.2094535993062
21
9.28881179531656
31
0.000000000000000
  0
LINE
  5
F10714
330
F10715
100
AcDbEntity
8
Geo
100
AcDbLine
10
-33.2094535993062
20
9.28881179531656
30
0.000000000000000
11
-33.2094535993062
21
9.28881179531656
31
0.000000000000000
  0
LINE
  5
F10716
330
F10717
100
AcDbEntity
8
Geo
100
AcDbLine
10
-33.2094535993062
20
9.28881179531656
30
0.000000000000000
11
-33.2094535993062
21
9.28881179531656
31
0.000000000000000
  0
LINE
  5
F10718
330
F10719
100
AcDbEntity
8
Geo
100
AcDbLine
10
-33.2094535993062
20
9.28881179531656
30
0.000000000000000
11
-33.2094535993062
21
9.28881179531656
31
0.000000000000000
  0
LINE
  5
F1071A
330
F1071B
100
AcDbEntity
8
Geo
100
AcDbLine
10
-33.2094535993062
20
9.28881179531656
30
0.000000000000000
11
-33.2094535993062
21
9.28881179531656
31
0.000000000000000
  0
LINE
  5
F1071C
330
F1071D
100
AcDbEntity
8
Geo
100
AcDbLine
10
-33.2094535993062
20
9.28881179531656
30
0.000000000000000
11
-33.2094535993062
21
9.28881179531656
31
0.000000000000000
  0
LINE
  5
F1071E
330
F1071F
100
AcDbEntity
8
Geo
100
AcDbLine
10
-33.2094535993062
20
9.28881179531656
30
0.000000000000000
11
-33.2094535993062
21
9.28881179531656
31
0.000000000000000
  0
LINE
  5
F10720
330
F10721
100
AcDbEntity
8
Geo
100
AcDbLine
10
-33.2094535993062
20
9.28881179531656
30
0.000000000000000
11
-33.2094535993062
21
9.28881179531656
31
0.000000000000000
  0
LINE
  5
F10722
330
F10723
100
AcDbEntity
8
Geo
100
AcDbLine
10
-33.2094535993062
20
9.28881179531656
30
0.000000000000000
11
-33.2094535993062
21
9.28881179531656
31
0.000000000000000
  0
LINE
  5
F10724
330
F10725
100
AcDbEntity
8
Geo
100
AcDbLine
10
-33.2094535993062
20
9.28881179531656
30
0.000000000000000
11
-33.2094535993062
21
9.28881179531656
31
0.000000000000000
  0
LINE
  5
F10726
330
F10727
100
AcDbEntity
8
Geo
100
AcDbLine
10
-33.2094535993062
20
9.28881179531656
30
0.000000000000000
11
-33.2094535993062
21
9.28881179531656
31
0.000000000000000
  0
LINE
  5
F10728
330
F10729
100
AcDbEntity
8
Geo
100
AcDbLine
10
-33.2094535993062
20
9.28881179531656
30
0.000000000000000
11
-33.2094535993062
21
9.28881179531656
31
0.000000000000000
  0
LINE
  5
F1072A
330
F1072B
100
AcDbEntity
8
Geo
100
AcDbLine
10
-33.2094535993062
20
9.28881179531656
30
0.000000000000000
11
-33.2094535993062
21
9.28881179531656
31
0.000000000000000
  0
LINE
  5
F1072C
330
F1072D
100
AcDbEntity
8
Geo
100
AcDbLine
10
-33.2094535993062
20
9.28881179531656
30
0.000000000000000
11
-33.2094535993062
21
9.28881179531656
31
0.000000000000000
  0
LINE
  5
F1072E
330
F1072F
100
AcDbEntity
8
Geo
100
AcDbLine
10
-33.2094535993062
20
9.28881179531656
30
0.000000000000000
11
-33.2094535993062
21
9.28881179531656
31
0.000000000000000
  0
LINE
  5
F10730
330
F10731
100
AcDbEntity
8
Geo
100
AcDbLine
10
-33.2094535993062
20
9.28881179531656
30
0.000000000000000
11
-33.2094535993062
21
9.28881179531656
31
0.000000000000000
  0
LINE
  5
F10732
330
F10733
100
AcDbEntity
8
Geo
100
AcDbLine
10
-33.2094535993062
20
9.28881179531656
30
0.000000000000000
11
-33.2094535993062
21
9.28881179531656
31
0.000000000000000
  0
LINE
  5
F10734
330
F10735
100
AcDbEntity
8
Geo
100
AcDbLine
10
-33.2094535993062
20
9.28881179531656
30
0.000000000000000
11
-33.2094535993062
21
9.28881179531656
31
0.000000000000000
  0
LINE
  5
F10736
330
F10737
100
AcDbEntity
8
Geo
100
AcDbLine
10
-33.2094535993062
20
9.28881179531656
30
0.000000000000000
11
-33.2094535993062
21
9.28881179531656
31
0.000000000000000
  0
LINE
  5
F10738
330
F10739
100
AcDbEntity
8
Geo
100
AcDbLine
10
-33.2094535993062
20
9.28881179531656
30
0.000000000000000
11
-33.2094535993062
21
9.28881179531656
31
0.000000000000000
  0
LINE
  5
F1073A
330
F1073B
100
AcDbEntity
8
Geo
100
AcDbLine
10
-33.2094535993062
20
9.28881179531656
30
0.000000000000000
11
-33.2094535993062
21
9.28881179531656
31
0.000000000000000
  0
LINE
  5
F1073C
330
F1073D
100
AcDbEntity
8
Geo
100
AcDbLine
10
-33.2094535993062
20
9.28881179531656
30
0.000000000000000
11
-33.2094535993062
21
9.28881179531656
31
0.000000000000000
  0
LINE
  5
F1073E
330
F1073F
100
AcDbEntity
8
Geo
100
AcDbLine
10
-33.2094535993062
20
9.28881179531656
30
0.000000000000000
11
-33.2094535993062
21
9.28881179531656
31
0.000000000000000
  0
LINE
  5
F10740
330
F10741
100
AcDbEntity
8
Geo
100
AcDbLine
10
-33.2094535993062
20
9.28881179531656
30
0.000000000000000
11
-33.2094535993062
21
9.28881179531656
31
0.000000000000000
  0
LINE
  5
F10742
330
F10743
100
AcDbEntity
8
Geo
100
AcDbLine
10
-33.2094535993062
20
9.28881179531656
30
0.000000000000000
11
-33.2094535993062
21
9.28881179531656
31
0.000000000000000
  0
LINE
  5
F10744
330
F10745
100
AcDbEntity
8
Geo
100
AcDbLine
10
-33.2094535993062
20
9.28881179531656
30
0.000000000000000
11
-33.2094535993062
21
9.28881179531656
31
0.000000000000000
  0
LINE
  5
F10746
330
F10747
100
AcDbEntity
8
Geo
100
AcDbLine
10
-33.2094535993062
20
9.28881179531656
30
0.000000000000000
11
-33.2094535993062
21
9.28881179531656
31
0.000000000000000
  0
LINE
  5
F10748
330
F10749
100
AcDbEntity
8
Geo
100
AcDbLine
10
-33.2094535993062
20
9.28881179531656
30
0.000000000000000
11
-33.2094535993062
21
9.28881179531656
31
0.000000000000000
  0
LINE
  5
F1074A
330
F1074B
100
AcDbEntity
8
Geo
100
AcDbLine
10
-33.2094535993062
20
9.28881179531656
30
0.000000000000000
11
-33.2094535993062
21
9.28881179531656
31
0.000000000000000
  0
LINE
  5
F1074C
330
F1074D
100
AcDbEntity
8
Geo
100
AcDbLine
10
-33.2094535993062
20
9.28881179531656
30
0.000000000000000
11
-33.2094535993062
21
9.28881179531656
31
0.000000000000000
  0
LINE
  5
F1074E
330
F1074F
100
AcDbEntity
8
Geo
100
AcDbLine
10
-33.2094535993062
20
9.28881179531656
30
0.000000000000000
11
-33.2094535993062
21
9.28881179531656
31
0.000000000000000
  0
LINE
  5
F10750
330
F10751
100
AcDbEntity
8
Geo
100
AcDbLine
10
-33.2094535993062
20
9.28881179531656
30
0.000000000000000
11
-33.2094535993062
21
9.28881179531656
31
0.000000000000000
  0
LINE
  5
F10752
330
F10753
100
AcDbEntity
8
Geo
100
AcDbLine
10
-33.2094535993062
20
9.28881179531656
30
0.000000000000000
11
-33.2094535993062
21
9.28881179531656
31
0.000000000000000
  0
LINE
  5
F10754
330
F10755
100
AcDbEntity
8
Geo
100
AcDbLine
10
-33.2094535993062
20
9.28881179531656
30
0.000000000000000
11
-33.2094535993062
21
9.28881179531656
31
0.000000000000000
  0
LINE
  5
F10756
330
F10757
100
AcDbEntity
8
Geo
100
AcDbLine
10
-33.2094535993062
20
9.28881179531656
30
0.000000000000000
11
-33.2094535993062
21
9.28881179531656
31
0.000000000000000
  0
LINE
  5
F10758
330
F10759
100
AcDbEntity
8
Geo
100
AcDbLine
10
-33.2094535993062
20
9.28881179531656
30
0.000000000000000
11
-33.2094535993062
21
9.28881179531656
31
0.000000000000000
  0
LINE
  5
F1075A
330
F1075B
100
AcDbEntity
8
Geo
100
AcDbLine
10
-33.2094535993062
20
9.28881179531656
30
0.000000000000000
11
-33.2094535993062
21
9.28881179531656
31
0.000000000000000
  0
LINE
  5
F1075C
330
F1075D
100
AcDbEntity
8
Geo
100
AcDbLine
10
-33.2094535993062
20
9.28881179531656
30
0.000000000000000
11
-33.2094535993062
21
9.28881179531656
31
0.000000000000000
  0
LINE
  5
F1075E
330
F1075F
100
AcDbEntity
8
Geo
100
AcDbLine
10
-33.2094535993062
20
9.28881179531656
30
0.000000000000000
11
-33.2094535993062
21
9.28881179531656
31
0.000000000000000
  0
LINE
  5
F10760
330
F10761
100
AcDbEntity
8
Geo
100
AcDbLine
10
-33.2094535993062
20
9.28881179531656
30
0.000000000000000
11
-33.2094535993062
21
9.28881179531656
31
0.000000000000000
  0
LINE
  5
F10762
330
F10763
100
AcDbEntity
8
Geo
100
AcDbLine
10
-33.2094535993062
20
9.28881179531656
30
0.000000000000000
11
-33.2094535993062
21
9.28881179531656
31
0.000000000000000
  0
LINE
  5
F10764
330
F10765
100
AcDbEntity
8
Geo
100
AcDbLine
10
-33.2094535993062
20
9.28881179531656
30
0.000000000000000
11
-33.2094535993062
21
9.28881179531656
31
0.000000000000000
  0
LINE
  5
F10766
330
F10767
100
AcDbEntity
8
Geo
100
AcDbLine
10
-33.2094535993062
20
9.28881179531656
30
0.000000000000000
11
-33.2094535993062
21
9.28881179531656
31
0.000000000000000
  0
LINE
  5
F10768
330
F10769
100
AcDbEntity
8
Geo
100
AcDbLine
10
-33.2094535993062
20
9.28881179531656
30
0.000000000000000
11
-33.2094535993062
21
9.28881179531656
31
0.000000000000000
  0
LINE
  5
F1076A
330
F1076B
100
AcDbEntity
8
Geo
100
AcDbLine
10
-33.2094535993062
20
9.28881179531656
30
0.000000000000000
11
-33.2094535993062
21
9.28881179531656
31
0.000000000000000
  0
LINE
  5
F1076C
330
F1076D
100
AcDbEntity
8
Geo
100
AcDbLine
10
-33.2094535993062
20
9.28881179531656
30
0.000000000000000
11
-33.2094535993062
21
9.28881179531656
31
0.000000000000000
  0
LINE
  5
F1076E
330
F1076F
100
AcDbEntity
8
Geo
100
AcDbLine
10
-33.2094535993062
20
9.28881179531656
30
0.000000000000000
11
-33.2094535993062
21
9.28881179531656
31
0.000000000000000
  0
LINE
  5
F10770
330
F10771
100
AcDbEntity
8
Geo
100
AcDbLine
10
-33.2094535993062
20
9.28881179531656
30
0.000000000000000
11
-33.2094535993062
21
9.28881179531656
31
0.000000000000000
  0
LINE
  5
F10772
330
F10773
100
AcDbEntity
8
Geo
100
AcDbLine
10
-33.2094535993062
20
9.28881179531656
30
0.000000000000000
11
-33.2094535993062
21
9.28881179531656
31
0.000000000000000
  0
LINE
  5
F10774
330
F10775
100
AcDbEntity
8
Geo
100
AcDbLine
10
-33.2094535993062
20
9.28881179531656
30
0.000000000000000
11
-33.2094535993062
21
9.28881179531656
31
0.000000000000000
  0
LINE
  5
F10776
330
F10777
100
AcDbEntity
8
Geo
100
AcDbLine
10
-33.2094535993062
20
9.28881179531656
30
0.000000000000000
11
-33.2094535993062
21
9.28881179531656
31
0.000000000000000
  0
LINE
  5
F10778
330
F10779
100
AcDbEntity
8
Geo
100
AcDbLine
10
-33.2094535993062
20
9.28881179531656
30
0.000000000000000
11
-33.2094535993062
21
9.28881179531656
31
0.000000000000000
  0
LINE
  5
F1077A
330
F1077B
100
AcDbEntity
8
Geo
100
AcDbLine
10
-33.2094535993062
20
9.28881179531656
30
0.000000000000000
11
-33.2094535993062
21
9.28881179531656
31
0.000000000000000
  0
LINE
  5
F1077C
330
F1077D
100
AcDbEntity
8
Geo
100
AcDbLine
10
-33.2094535993062
20
9.28881179531656
30
0.000000000000000
11
-33.2094535993062
21
9.28881179531656
31
0.000000000000000
  0
LINE
  5
F1077E
330
F1077F
100
AcDbEntity
8
Geo
100
AcDbLine
10
-33.2094535993062
20
9.28881179531656
30
0.000000000000000
11
-33.2094535993062
21
9.28881179531656
31
0.000000000000000
  0
LINE
  5
F10780
330
F10781
100
AcDbEntity
8
Geo
100
AcDbLine
10
-33.2094535993062
20
9.28881179531656
30
0.000000000000000
11
-33.2094535993062
21
9.28881179531656
31
0.000000000000000
  0
LINE
  5
F10782
330
F10783
100
AcDbEntity
8
Geo
100
AcDbLine
10
-33.2094535993062
20
9.28881179531656
30
0.000000000000000
11
-33.2094535993062
21
9.28881179531656
31
0.000000000000000
  0
LINE
  5
F10784
330
F10785
100
AcDbEntity
8
Geo
100
AcDbLine
10
-33.2094535993062
20
9.28881179531656
30
0.000000000000000
11
-33.2094535993062
21
9.28881179531656
31
0.000000000000000
  0
LINE
  5
F10786
330
F10787
100
AcDbEntity
8
Geo
100
AcDbLine
10
-33.2094535993062
20
9.28881179531656
30
0.000000000000000
11
-33.2094535993062
21
9.28881179531656
31
0.000000000000000
  0
LINE
  5
F10788
330
F10789
100
AcDbEntity
8
Geo
100
AcDbLine
10
-33.2094535993062
20
9.28881179531656
30
0.000000000000000
11
-33.2094535993062
21
9.28881179531656
31
0.000000000000000
  0
LINE
  5
F1078A
330
F1078B
100
AcDbEntity
8
Geo
100
AcDbLine
10
-33.2094535993062
20
9.28881179531656
30
0.000000000000000
11
-33.2094535993062
21
9.28881179531656
31
0.000000000000000
  0
LINE
  5
F1078C
330
F1078D
100
AcDbEntity
8
Geo
100
AcDbLine
10
-33.2094535993062
20
9.28881179531656
30
0.000000000000000
11
-33.2094535993062
21
9.28881179531656
31
0.000000000000000
  0
LINE
  5
F1078E
330
F1078F
100
AcDbEntity
8
Geo
100
AcDbLine
10
-33.2094535993062
20
9.28881179531656
30
0.000000000000000
11
-33.2094535993062
21
9.28881179531656
31
0.000000000000000
  0
LINE
  5
F10790
330
F10791
100
AcDbEntity
8
Geo
100
AcDbLine
10
-33.2094535993062
20
9.28881179531656
30
0.000000000000000
11
-33.2094535993062
21
9.28881179531656
31
0.000000000000000
  0
LINE
  5
F10792
330
F10793
100
AcDbEntity
8
Geo
100
AcDbLine
10
-33.2094535993062
20
9.28881179531656
30
0.000000000000000
11
-33.2094535993062
21
9.28881179531656
31
0.000000000000000
  0
LINE
  5
F10794
330
F10795
100
AcDbEntity
8
Geo
100
AcDbLine
10
-33.2094535993062
20
9.28881179531656
30
0.000000000000000
11
-33.2094535993062
21
9.28881179531656
31
0.000000000000000
  0
LINE
  5
F10796
330
F10797
100
AcDbEntity
8
Geo
100
AcDbLine
10
-33.2094535993062
20
9.28881179531656
30
0.000000000000000
11
-33.2094535993062
21
9.28881179531656
31
0.000000000000000
  0
LINE
  5
F10798
330
F10799
100
AcDbEntity
8
Geo
100
AcDbLine
10
-33.2094535993062
20
9.28881179531656
30
0.000000000000000
11
-33.2094535993062
21
9.28881179531656
31
0.000000000000000
  0
LINE
  5
F1079A
330
F1079B
100
AcDbEntity
8
Geo
100
AcDbLine
10
-33.2094535993062
20
9.28881179531656
30
0.000000000000000
11
-33.2094535993062
21
9.28881179531656
31
0.000000000000000
  0
LINE
  5
F1079C
330
F1079D
100
AcDbEntity
8
Geo
100
AcDbLine
10
-33.2094535993062
20
9.28881179531656
30
0.000000000000000
11
-33.2094535993062
21
9.28881179531656
31
0.000000000000000
  0
LINE
  5
F1079E
330
F1079F
100
AcDbEntity
8
Geo
100
AcDbLine
10
-33.2094535993062
20
9.28881179531656
30
0.000000000000000
11
-33.2094535993062
21
9.28881179531656
31
0.000000000000000
  0
LINE
  5
F107A0
330
F107A1
100
AcDbEntity
8
Geo
100
AcDbLine
10
-33.2094535993062
20
9.28881179531656
30
0.000000000000000
11
-33.2094535993062
21
9.28881179531656
31
0.000000000000000
  0
LINE
  5
F107A2
330
F107A3
100
AcDbEntity
8
Geo
100
AcDbLine
10
-33.2094535993062
20
9.28881179531656
30
0.000000000000000
11
-33.2094535993062
21
9.28881179531656
31
0.000000000000000
  0
LINE
  5
F107A4
330
F107A5
100
AcDbEntity
8
Geo
100
AcDbLine
10
-33.2094535993062
20
9.28881179531656
30
0.000000000000000
11
-33.2094535993062
21
9.28881179531656
31
0.000000000000000
  0
LINE
  5
F107A6
330
F107A7
100
AcDbEntity
8
Geo
100
AcDbLine
10
-33.2094535993062
20
9.28881179531656
30
0.000000000000000
11
-33.2094535993062
21
9.28881179531656
31
0.000000000000000
  0
LINE
  5
F107A8
330
F107A9
100
AcDbEntity
8
Geo
100
AcDbLine
10
-33.2094535993062
20
9.28881179531656
30
0.000000000000000
11
-33.2094535993062
21
9.28881179531656
31
0.000000000000000
  0
LINE
  5
F107AA
330
F107AB
100
AcDbEntity
8
Geo
100
AcDbLine
10
-33.2094535993062
20
9.28881179531656
30
0.000000000000000
11
-33.2094535993062
21
9.28881179531656
31
0.000000000000000
  0
LINE
  5
F107AC
330
F107AD
100
AcDbEntity
8
Geo
100
AcDbLine
10
-33.2094535993062
20
9.28881179531656
30
0.000000000000000
11
-33.2094535993062
21
9.28881179531656
31
0.000000000000000
  0
LINE
  5
F107AE
330
F107AF
100
AcDbEntity
8
Geo
100
AcDbLine
10
-33.2094535993062
20
9.28881179531656
30
0.000000000000000
11
-33.2094535993062
21
9.28881179531656
31
0.000000000000000
  0
LINE
  5
F107B0
330
F107B1
100
AcDbEntity
8
Geo
100
AcDbLine
10
-33.2094535993062
20
9.28881179531656
30
0.000000000000000
11
-33.2094535993062
21
9.28881179531656
31
0.000000000000000
  0
LINE
  5
F107B2
330
F107B3
100
AcDbEntity
8
Geo
100
AcDbLine
10
-33.2094535993062
20
9.28881179531656
30
0.000000000000000
11
-33.2094535993062
21
9.28881179531656
31
0.000000000000000
  0
LINE
  5
F107B4
330
F107B5
100
AcDbEntity
8
Geo
100
AcDbLine
10
-33.2094535993062
20
9.28881179531656
30
0.000000000000000
11
-33.2094535993062
21
9.28881179531656
31
0.000000000000000
  0
LINE
  5
F107B6
330
F107B7
100
AcDbEntity
8
Geo
100
AcDbLine
10
-33.2094535993062
20
9.28881179531656
30
0.000000000000000
11
-33.2094535993062
21
9.28881179531656
31
0.000000000000000
  0
LINE
  5
F107B8
330
F107B9
100
AcDbEntity
8
Geo
100
AcDbLine
10
-33.2094535993062
20
9.28881179531656
30
0.000000000000000
11
-33.2094535993062
21
9.28881179531656
31
0.000000000000000
  0
LINE
  5
F107BA
330
F107BB
100
AcDbEntity
8
Geo
100
AcDbLine
10
-33.2094535993062
20
9.28881179531656
30
0.000000000000000
11
-33.2094535993062
21
9.28881179531656
31
0.000000000000000
  0
LINE
  5
F107BC
330
F107BD
100
AcDbEntity
8
Geo
100
AcDbLine
10
-33.2094535993062
20
9.28881179531656
30
0.000000000000000
11
-33.2094535993062
21
9.28881179531656
31
0.000000000000000
  0
LINE
  5
F107BE
330
F107BF
100
AcDbEntity
8
Geo
100
AcDbLine
10
-33.2094535993062
20
9.28881179531656
30
0.000000000000000
11
-33.2094535993062
21
9.28881179531656
31
0.000000000000000
  0
LINE
  5
F107C0
330
F107C1
100
AcDbEntity
8
Geo
100
AcDbLine
10
-33.2094535993062
20
9.28881179531656
30
0.000000000000000
11
-33.2094535993062
21
9.28881179531656
31
0.000000000000000
  0
LINE
  5
F107C2
330
F107C3
100
AcDbEntity
8
Geo
100
AcDbLine
10
-33.2094535993062
20
9.28881179531656
30
0.000000000000000
11
-33.2094535993062
21
9.28881179531656
31
0.000000000000000
  0
LINE
  5
F107C4
330
F107C5
100
AcDbEntity
8
Geo
100
AcDbLine
10
-33.2094535993062
20
9.28881179531656
30
0.000000000000000
11
-33.2094535993062
21
9.28881179531656
31
0.000000000000000
  0
LINE
  5
F107C6
330
F107C7
100
AcDbEntity
8
Geo
100
AcDbLine
10
-33.2094535993062
20
9.28881179531656
30
0.000000000000000
11
-33.2094535993062
21
9.28881179531656
31
0.000000000000000
  0
LINE
  5
F107C8
330
F107C9
100
AcDbEntity
8
Geo
100
AcDbLine
10
-33.2094535993062
20
9.28881179531656
30
0.000000000000000
11
-33.2094535993062
21
9.28881179531656
31
0.000000000000000
  0
LINE
  5
F107CA
330
F107CB
100
AcDbEntity
8
Geo
100
AcDbLine
10
-33.2094535993062
20
9.28881179531656
30
0.000000000000000
11
-33.2094535993062
21
9.28881179531656
31
0.000000000000000
  0
LINE
  5
F107CC
330
F107CD
100
AcDbEntity
8
Geo
100
AcDbLine
10
-33.2094535993062
20
9.28881179531656
30
0.000000000000000
11
-33.2094535993062
21
9.28881179531656
31
0.000000000000000
  0
LINE
  5
F107CE
330
F107CF
100
AcDbEntity
8
Geo
100
AcDbLine
10
-33.2094535993062
20
9.28881179531656
30
0.000000000000000
11
-33.2094535993062
21
9.28881179531656
31
0.000000000000000
  0
LINE
  5
F107D0
330
F107D1
100
AcDbEntity
8
Geo
100
AcDbLine
10
-33.2094535993062
20
9.28881179531656
30
0.000000000000000
11
-33.2094535993062
21
9.28881179531656
31
0.000000000000000
  0
LINE
  5
F107D2
330
F107D3
100
AcDbEntity
8
Geo
100
AcDbLine
10
-33.2094535993062
20
9.28881179531656
30
0.000000000000000
11
-33.2094535993062
21
9.28881179531656
31
0.000000000000000
  0
LINE
  5
F107D4
330
F107D5
100
AcDbEntity
8
Geo
100
AcDbLine
10
-33.2094535993062
20
9.28881179531656
30
0.000000000000000
11
-33.2094535993062
21
9.28881179531656
31
0.000000000000000
  0
LINE
  5
F107D6
330
F107D7
100
AcDbEntity
8
Geo
100
AcDbLine
10
-33.2094535993062
20
9.28881179531656
30
0.000000000000000
11
-33.2094535993062
21
9.28881179531656
31
0.000000000000000
  0
LINE
  5
F107D8
330
F107D9
100
AcDbEntity
8
Geo
100
AcDbLine
10
-33.2094535993062
20
9.28881179531656
30
0.000000000000000
11
-33.2094535993062
21
9.28881179531656
31
0.000000000000000
  0
LINE
  5
F107DA
330
F107DB
100
AcDbEntity
8
Geo
100
AcDbLine
10
-33.2094535993062
20
9.28881179531656
30
0.000000000000000
11
-33.2094535993062
21
9.28881179531656
31
0.000000000000000
  0
LINE
  5
F107DC
330
F107DD
100
AcDbEntity
8
Geo
100
AcDbLine
10
-33.2094535993062
20
9.28881179531656
30
0.000000000000000
11
-33.2094535993062
21
9.28881179531656
31
0.000000000000000
  0
LINE
  5
F107DE
330
F107DF
100
AcDbEntity
8
Geo
100
AcDbLine
10
-33.2094535993062
20
9.28881179531656
30
0.000000000000000
11
-33.2094535993062
21
9.28881179531656
31
0.000000000000000
  0
LINE
  5
F107E0
330
F107E1
100
AcDbEntity
8
Geo
100
AcDbLine
10
-33.2094535993062
20
9.28881179531656
30
0.000000000000000
11
-33.2094535993062
21
9.28881179531656
31
0.000000000000000
  0
LINE
  5
F107E2
330
F107E3
100
AcDbEntity
8
Geo
100
AcDbLine
10
-33.2094535993062
20
9.28881179531656
30
0.000000000000000
11
-33.2094535993062
21
9.28881179531656
31
0.000000000000000
  0
LINE
  5
F107E4
330
F107E5
100
AcDbEntity
8
Geo
100
AcDbLine
10
-33.2094535993062
20
9.28881179531656
30
0.000000000000000
11
-33.2094535993062
21
9.28881179531656
31
0.000000000000000
  0
LINE
  5
F107E6
330
F107E7
100
AcDbEntity
8
Geo
100
AcDbLine
10
-33.2094535993062
20
9.28881179531656
30
0.000000000000000
11
-33.2094535993062
21
9.28881179531656
31
0.000000000000000
  0
LINE
  5
F107E8
330
F107E9
100
AcDbEntity
8
Geo
100
AcDbLine
10
-33.2094535993062
20
9.28881179531656
30
0.000000000000000
11
-33.2094535993062
21
9.28881179531656
31
0.000000000000000
  0
LINE
  5
F107EA
330
F107EB
100
AcDbEntity
8
Geo
100
AcDbLine
10
-33.2094535993062
20
9.28881179531656
30
0.000000000000000
11
-33.2094535993062
21
9.28881179531656
31
0.000000000000000
  0
LINE
  5
F107EC
330
F107ED
100
AcDbEntity
8
Geo
100
AcDbLine
10
-33.2094535993062
20
9.28881179531656
30
0.000000000000000
11
-33.2094535993062
21
9.28881179531656
31
0.000000000000000
  0
LINE
  5
F107EE
330
F107EF
100
AcDbEntity
8
Geo
100
AcDbLine
10
-33.2094535993062
20
9.28881179531656
30
0.000000000000000
11
-33.2094535993062
21
9.28881179531656
31
0.000000000000000
  0
LINE
  5
F107F0
330
F107F1
100
AcDbEntity
8
Geo
100
AcDbLine
10
38.7905464006938
20
14.7888117953166
30
0.000000000000000
11
38.7905464006938
21
9.28881179531656
31
0.000000000000000
  0
LINE
  5
F107F2
330
F107F3
100
AcDbEntity
8
Geo
100
AcDbLine
10
-33.2094535993062
20
9.28881179531656
30
0.000000000000000
11
-29.7453519841684
21
3.28881179531656
31
0.000000000000000
  0
LINE
  5
F107F4
330
F107F5
100
AcDbEntity
8
Geo
100
AcDbLine
10
-29.7453519841684
20
3.28881179531656
30
0.000000000000000
11
-8.20945359930619
21
3.28881179531656
31
0.000000000000000
  0
LINE
  5
F107F6
330
F107F7
100
AcDbEntity
8
Geo
100
AcDbLine
10
-8.20945359930619
20
3.28881179531656
30
0.000000000000000
11
38.2905464006938
21
3.28881179531656
31
0.000000000000000
  0
LINE
  5
F107F8
330
F107F9
100
AcDbEntity
8
Geo
100
AcDbLine
10
38.2905464006938
20
3.28881179531656
30
0.000000000000000
11
38.7905464006938
21
3.78881179531656
31
0.000000000000000
  0
LINE
  5
F107FA
330
F107FB
100
AcDbEntity
8
Geo
100
AcDbLine
10
-29.7453519841684
20
15.2888117953166
30
0.000000000000000
11
-29.7453519841684
21
3.28881179531656
31
0.000000000000000
  0
LINE
  5
F107FC
330
F107FD
100
AcDbEntity
8
Geo
100
AcDbLine
10
-8.20945359930619
20
15.2888117953166
30
0.000000000000000
11
-8.20945359930619
21
3.28881179531656
31
0.000000000000000
  0
LINE
  5
F107FE
330
F107FF
100
AcDbEntity
8
Geo
100
AcDbLine
10
-8.20945359930619
20
15.2888117953166
30
0.000000000000000
11
-8.20945359930619
21
3.28881179531656
31
0.000000000000000
  0
LINE
  5
F10800
330
F10801
100
AcDbEntity
8
Geo
100
AcDbLine
10
38.2905464006938
20
15.2888117953166
30
0.000000000000000
11
38.2905464006938
21
3.28881179531656
31
0.000000000000000
  0
LINE
  5
F10802
330
F10803
100
AcDbEntity
8
Geo
100
AcDbLine
10
38.7905464006938
20
14.7888117953166
30
0.000000000000000
11
38.7905464006938
21
3.78881179531656
31
0.000000000000000
  0
LINE
  5
F10804
330
F10805
100
AcDbEntity
8
Geo
 6
Dashdot
100
AcDbLine
10
-33.2094535993062
20
9.28881179531656
30
0.000000000000000
11
38.7905464006938
21
9.28881179531656
31
0.000000000000000
  0
LWPOLYLINE
  5
F10806
330
F10807
100
AcDbEntity
8
Rahmen
100
AcDbPolyline
90
   4
70
   1
43
   0.0
 10
-134.596704249783
 20
99.9002601908066
 10
143.339115351258
 20
99.9002601908066
 10
143.339115351258
 20
-100.082393755421
 10
-134.596704249783
 20
-100.082393755421
  0
TEXT
  5
F10808
330
F10809
 100
AcDbEntity
8
Text
100
AcDbText
10
-133.503902862099
20
-99.5823937554206
30
0.000000000000000
40
1.00000000000000
1
ISBESketcher - ©ISBE GmbH      lizensiert für: Schmid Werkzeuge
100
AcDbText
  0
LWPOLYLINE
  5
F1080A
330
F1080B
100
AcDbEntity
8
Rahmen
100
AcDbPolyline
90
   4
70
   1
43
   0.0
 10
103.451864700781
 20
-97.1682567215958
 10
143.339115351258
 20
-97.1682567215958
 10
143.339115351258
 20
-100.082393755421
 10
103.451864700781
 20
-100.082393755421
  0
TEXT
  5
F1080C
330
F1080D
 100
AcDbEntity
8
Text
100
AcDbText
10
104.500000000000
20
-99.4570685169124
30
0.000000000000000
40
1.50000000000000
1
Ers. durch:
100
AcDbText
  0
TEXT
  5
F1080E
330
F1080F
 100
AcDbEntity
8
Text
100
AcDbText
10
0.000000000000000
20
0.500000000000000
30
0.000000000000000
40
1.50000000000000
1

100
AcDbText
  0
LWPOLYLINE
  5
F10810
330
F10811
100
AcDbEntity
8
Rahmen
100
AcDbPolyline
90
   4
70
   1
43
   0.0
 10
63.3824804856895
 20
-97.1682567215958
 10
103.451864700781
 20
-97.1682567215958
 10
103.451864700781
 20
-100.082393755421
 10
63.3824804856895
 20
-100.082393755421
  0
TEXT
  5
F10812
330
F10813
 100
AcDbEntity
8
Text
100
AcDbText
10
64.5000000000000
20
-99.4570685169124
30
0.000000000000000
40
1.50000000000000
1
Ers. für:
100
AcDbText
  0
TEXT
  5
F10814
330
F10815
 100
AcDbEntity
8
Text
100
AcDbText
10
0.000000000000000
20
0.500000000000000
30
0.000000000000000
40
1.50000000000000
1

100
AcDbText
  0
LWPOLYLINE
  5
F10816
330
F10817
100
AcDbEntity
8
Rahmen
100
AcDbPolyline
90
   4
70
   1
43
   0.0
 10
130.043365134432
 20
-94.0719861231570
 10
143.339115351258
 20
-94.0719861231570
 10
143.339115351258
 20
-97.1682567215958
 10
130.043365134432
 20
-97.1682567215958
  0
TEXT
  5
F10818
330
F10819
 100
AcDbEntity
8
Text
100
AcDbText
10
131.166666666667
20
-96.4570685169124
30
0.000000000000000
40
1.50000000000000
1
Blätter
100
AcDbText
  0
TEXT
  5
F1081A
330
F1081B
 100
AcDbEntity
8
Text
100
AcDbText
10
0.000000000000000
20
0.500000000000000
30
0.000000000000000
40
1.50000000000000
1

100
AcDbText
  0
LWPOLYLINE
  5
F1081C
330
F1081D
100
AcDbEntity
8
Rahmen
100
AcDbPolyline
90
   4
70
   1
43
   0.0
 10
130.043365134432
 20
-91.1578490893322
 10
143.339115351258
 20
-91.1578490893322
 10
143.339115351258
 20
-94.0719861231570
 10
130.043365134432
 20
-94.0719861231570
  0
TEXT
  5
F1081E
330
F1081F
 100
AcDbEntity
8
Text
100
AcDbText
10
131.166666666667
20
-93.4570685169124
30
0.000000000000000
40
1.50000000000000
1
Blatt
100
AcDbText
  0
TEXT
  5
F10820
330
F10821
 100
AcDbEntity
8
Text
100
AcDbText
10
0.000000000000000
20
0.500000000000000
30
0.000000000000000
40
1.50000000000000
1

100
AcDbText
  0
LWPOLYLINE
  5
F10822
330
F10823
100
AcDbEntity
8
Rahmen
100
AcDbPolyline
90
   4
70
   1
43
   0.0
 10
63.3824804856895
 20
-91.1578490893322
 10
130.043365134432
 20
-91.1578490893322
 10
130.043365134432
 20
-97.1682567215958
 10
63.3824804856895
 20
-97.1682567215958
  0
TEXT
  5
F10824
330
F10825
 100
AcDbEntity
8
Text
100
AcDbText
10
64.5000000000000
20
-93.4570685169124
30
0.000000000000000
40
1.50000000000000
1
Datum:
100
AcDbText
  0
TEXT
  5
F10826
330
F10827
 100
AcDbEntity
8
Text
100
AcDbText
10
90.9139924833767
20
-96.4570685169124
30
0.000000000000000
40
1.50000000000000
1
30.09.2021
100
AcDbText
  0
LWPOLYLINE
  5
F10828
330
F10829
100
AcDbEntity
8
Rahmen
100
AcDbPolyline
90
   4
70
   1
43
   0.0
 10
63.3824804856895
 20
-85.1474414570685
 10
143.339115351258
 20
-85.1474414570685
 10
143.339115351258
 20
-91.1578490893322
 10
63.3824804856895
 20
-91.1578490893322
  0
TEXT
  5
F1082A
330
F1082B
 100
AcDbEntity
8
Text
100
AcDbText
10
0.000000000000000
20
0.500000000000000
30
0.000000000000000
40
1.50000000000000
1

100
AcDbText
  0
TEXT
  5
F1082C
330
F1082D
 100
AcDbEntity
8
Text
100
AcDbText
10
74.7228967909801
20
-89.6254697889564
30
0.000000000000000
40
2.50000000000000
1
VHM-NC-Anbohrer 0412-12-b
100
AcDbText
  0
LWPOLYLINE
  5
F1082E
330
F1082F
100
AcDbEntity
8
Rahmen
100
AcDbPolyline
90
   4
70
   1
43
   0.0
 10
103.451864700781
 20
-79.1370338248049
 10
143.339115351258
 20
-79.1370338248049
 10
143.339115351258
 20
-85.1474414570685
 10
103.451864700781
 20
-85.1474414570685
  0
TEXT
  5
F10830
330
F10831
 100
AcDbEntity
8
Text
100
AcDbText
10
104.500000000000
20
-81.4570685169124
30
0.000000000000000
40
1.50000000000000
1
Zu bearb. Material:
100
AcDbText
  0
TEXT
  5
F10832
330
F10833
 100
AcDbEntity
8
Text
100
AcDbText
10
0.000000000000000
20
0.500000000000000
30
0.000000000000000
40
1.50000000000000
1

100
AcDbText
  0
LWPOLYLINE
  5
F10834
330
F10835
100
AcDbEntity
8
Rahmen
100
AcDbPolyline
90
   4
70
   1
43
   0.0
 10
63.3824804856895
 20
-79.1370338248049
 10
103.451864700781
 20
-79.1370338248049
 10
103.451864700781
 20
-85.1474414570685
 10
63.3824804856895
 20
-85.1474414570685
  0
TEXT
  5
F10836
330
F10837
 100
AcDbEntity
8
Text
100
AcDbText
10
64.5000000000000
20
-81.4570685169124
30
0.000000000000000
40
1.50000000000000
1
Werkstoff:
100
AcDbText
  0
TEXT
  5
F10838
330
F10839
 100
AcDbEntity
8
Text
100
AcDbText
10
80.7679965307892
20
-84.4570685169124
30
0.000000000000000
40
1.50000000000000
1
VHM
100
AcDbText
  0
LWPOLYLINE
  5
F1083A
330
F1083B
100
AcDbEntity
8
Rahmen
100
AcDbPolyline
90
   4
70
   1
43
   0.0
 10
103.451864700781
 20
-76.0407632263660
 10
143.339115351258
 20
-76.0407632263660
 10
143.339115351258
 20
-79.1370338248049
 10
103.451864700781
 20
-79.1370338248049
  0
TEXT
  5
F1083C
330
F1083D
 100
AcDbEntity
8
Text
100
AcDbText
10
0.000000000000000
20
0.500000000000000
30
0.000000000000000
40
1.50000000000000
1

100
AcDbText
  0
TEXT
  5
F1083E
330
F1083F
 100
AcDbEntity
8
Text
100
AcDbText
10
0.000000000000000
20
0.500000000000000
30
0.000000000000000
40
1.50000000000000
1

100
AcDbText
  0
LWPOLYLINE
  5
F10840
330
F10841
100
AcDbEntity
8
Rahmen
100
AcDbPolyline
90
   4
70
   1
43
   0.0
 10
63.3824804856895
 20
-76.0407632263660
 10
103.451864700781
 20
-76.0407632263660
 10
103.451864700781
 20
-79.1370338248049
 10
63.3824804856895
 20
-79.1370338248049
  0
TEXT
  5
F10842
330
F10843
 100
AcDbEntity
8
Text
100
AcDbText
10
64.5000000000000
20
-78.4570685169124
30
0.000000000000000
40
1.50000000000000
1
Maßstab:
100
AcDbText
  0
TEXT
  5
F10844
330
F10845
 100
AcDbEntity
8
Text
100
AcDbText
10
89.0411968777103
20
-78.4570685169124
30
0.000000000000000
40
1.50000000000000
1
1 : 1
100
AcDbText
0
VIEWPORT
5
294
102
{ACAD_XDICTIONARY
360
58A
102
}
330
25D
100
AcDbEntity
67
1
8
0
60
1
100
AcDbViewport
10
0.0
20
0.0
30
0.0
40
10.0
41
10.0
68
-1
69
1
12
0.0
22
0.0
13
0.0
23
0.0
14
1.0
24
1.0
15
0.0
25
0.0
16
0.0
26
0.0
36
1.0
17
0.0
27
0.0
37
0.0
42
0.0
43
0.0
44
0.0
45
10.0
50
0.0
51
0.0000000000007958
72
100
90
32800
1

281
0
71
0
74
0
110
0.0
120
0.0
130
0.0
111
1.0
121
0.0
131
0.0
112
0.0
122
1.0
132
0.0
79
0
146
0.0
1001
VD_INVISIBLE_NOT_FOR_READ
1000
VD_INVISIBLE_NOT_FOR_READ
0
VIEWPORT
5
295
102
{ACAD_XDICTIONARY
360
58C
102
}
330
25D
100
AcDbEntity
67
1
8
0
60
1
100
AcDbViewport
10
0.0
20
0.0
30
0.0
40
10.0
41
10.0
68
0
69
2
12
0.0
22
0.0
13
0.0
23
0.0
14
1.0
24
1.0
15
0.0
25
0.0
16
0.0
26
0.0
36
1.0
17
0.0
27
0.0
37
0.0
42
0.0
43
0.0
44
0.0
45
10.0
50
0.0
51
0.0000000000007958
72
100
90
163872
1

281
0
71
0
74
0
110
0.0
120
0.0
130
0.0
111
1.0
121
0.0
131
0.0
112
0.0
122
1.0
132
0.0
79
0
146
0.0
1001
VD_INVISIBLE_NOT_FOR_READ
1000
VD_INVISIBLE_NOT_FOR_READ
0
ENDSEC
0
SECTION
2
OBJECTS
0
DICTIONARY
5
13
330
0
100
AcDbDictionary
281
1
3
ACAD_COLOR
350
FA7
3
ACAD_GROUP
350
14
3
ACAD_LAYOUT
350
FCF
3
ACAD_MATERIAL
350
F7A
3
ACAD_MLEADERSTYLE
350
FCD
3
ACAD_MLINESTYLE
350
16
3
ACAD_PLOTSETTINGS
350
17
3
ACAD_PLOTSTYLENAME
350
18
3
ACAD_SCALELIST
350
FAB
3
ACAD_TABLESTYLE
350
FA8
3
ACAD_VISUALSTYLE
350
F93
3
ACDB_RECOMPOSE_DATA
350
107E
3
AcDbVariableDictionary
350
FF0
3
DWGPROPS
350
107F
0
DICTIONARY
5
F1000F
330
F1000E
100
AcDbDictionary
280
1
281
1
3
ACAD_MTEXT_2008_RT
360
F10010
0
DICTIONARY
5
F10014
330
F10013
100
AcDbDictionary
280
1
281
1
3
ACAD_MTEXT_2008_RT
360
F10015
0
DICTIONARY
5
F10005
330
F10004
100
AcDbDictionary
280
1
281
1
3
ACAD_MTEXT_2008_RT
360
F10006
0
DICTIONARY
5
F1000A
330
F10009
100
AcDbDictionary
280
1
281
1
3
ACAD_MTEXT_2008_RT
360
F1000B
0
DICTIONARY
5
FA7
102
{ACAD_REACTORS
330
13
102
}
330
13
100
AcDbDictionary
281
1
0
DICTIONARY
5
14
330
13
100
AcDbDictionary
281
1
0
DICTIONARY
5
FCF
102
{ACAD_REACTORS
330
13
102
}
330
13
100
AcDbDictionary
281
1
3
Layout1
350
FD1
3
Model
350
FD0
0
DICTIONARY
5
F7A
102
{ACAD_REACTORS
330
13
102
}
330
13
100
AcDbDictionary
281
1
3
ByBlock
350
F83
3
ByLayer
350
F7B
3
Global
350
F8B
0
DICTIONARY
5
FCD
102
{ACAD_REACTORS
330
13
102
}
330
13
100
AcDbDictionary
281
1
3
Standard
350
FCE
0
DICTIONARY
5
16
330
13
100
AcDbDictionary
281
1
3
Standard
350
FAA
0
DICTIONARY
5
17
102
{ACAD_REACTORS
330
13
102
}
330
13
100
AcDbDictionary
281
1
0
ACDBDICTIONARYWDFLT
5
18
102
{ACAD_REACTORS
330
13
102
}
330
13
100
AcDbDictionary
281
1
3
Normal
350
19
100
AcDbDictionaryWithDefault
340
19
0
DICTIONARY
5
FAB
102
{ACAD_REACTORS
330
13
102
}
330
13
100
AcDbDictionary
281
1
3
A0
350
FAC
3
A1
350
FAD
3
A2
350
FAE
3
A3
350
FAF
3
A4
350
FB0
3
A5
350
FB1
3
A6
350
FB2
3
A7
350
FB3
3
A8
350
FB4
3
A9
350
FB5
3
B0
350
FB6
3
B1
350
FB7
3
B2
350
FB8
3
B3
350
FB9
3
B4
350
FBA
3
B5
350
FBB
3
B6
350
FBC
3
B7
350
FBD
3
B8
350
FBE
3
B9
350
FBF
3
C0
350
FC0
3
C1
350
FC1
3
C2
350
FC2
3
C3
350
FC3
3
C4
350
FC4
3
C5
350
FC5
3
C6
350
FC6
3
C7
350
FC7
3
C8
350
FC8
3
C9
350
FC9
3
D0
350
FCA
3
D1
350
FCB
3
D2
350
FCC
0
DICTIONARY
5
FA8
102
{ACAD_REACTORS
330
13
102
}
330
13
100
AcDbDictionary
281
1
3
Standard
350
FA9
0
DICTIONARY
5
F93
102
{ACAD_REACTORS
330
13
102
}
330
13
100
AcDbDictionary
281
1
3
2dWireframe
350
F99
3
3D Hidden
350
F9B
3
3dWireframe
350
F9A
3
Basic
350
F98
3
Brighten
350
F9F
3
ColorChange
350
FA3
3
Conceptual
350
F9C
3
Dim
350
F9E
3
EdgeColorOff
350
FA6
3
Facepattern
350
FA2
3
Flat
350
F94
3
FlatWithEdges
350
F95
3
Gouraud
350
F96
3
GouraudWithEdges
350
F97
3
JitterOff
350
FA4
3
Linepattern
350
FA1
3
OverhangOff
350
FA5
3
Realistic
350
F9D
3
Thicken
350
FA0
0
XRECORD
5
107E
102
{ACAD_REACTORS
330
13
102
}
330
13
100
AcDbXrecord
280
1
90
1
330
FA9
330
F1000E
330
F10013
330
F10004
330
F10009
0
DICTIONARY
5
FF0
102
{ACAD_REACTORS
330
13
102
}
330
13
100
AcDbDictionary
281
1
3
CANNOSCALE
350
FF3
3
CMLEADERSTYLE
350
FF2
3
CTABLESTYLE
350
FF1
3
DIMASSOC
350
FF6
3
INDEXCTL
350
FF5
3
SORTENTS
350
FF4
3
XCLIPFRAME
350
1078
0
XRECORD
5
107F
102
{ACAD_REACTORS
330
13
102
}
330
13
100
AcDbXrecord
280
1
1
DWGPROPS COOKIE
2

3

4

6

7

8

9

300
=
301
=
302
=
303
=
304
=
305
=
306
=
307
=
308
=
309
=
40
0.0
41
0.0
42
0.0
1

90
0
0
XRECORD
5
F10010
102
{ACAD_REACTORS
330
F1000F
102
}
330
F1000F
100
AcDbXrecord
280
1
40
48458.0
1
25
0
XRECORD
5
F10015
102
{ACAD_REACTORS
330
F10014
102
}
330
F10014
100
AcDbXrecord
280
1
40
48458.0
1
72
0
XRECORD
5
F10006
102
{ACAD_REACTORS
330
F10005
102
}
330
F10005
100
AcDbXrecord
280
1
40
48458.0
1
Ø12
0
LAYOUT
5
FD1
102
{ACAD_XDICTIONARY
360
10A9
102
}
102
{ACAD_REACTORS
330
FCF
102
}
330
FCF
100
AcDbPlotSettings
1

2
Microsoft XPS Document Writer
4

6

40
0.0
41
0.0
42
0.0
43
0.0
44
0.0
45
0.0
46
0.0
47
0.0
48
0.0
49
0.0
140
0.0
141
0.0
142
1.0
143
1.0
70
688
72
0
73
0
74
5
7

75
16
147
1.0
148
0.0
149
0.0
100
AcDbLayout
1
Layout1
70
1
71
1
10
0.0
20
0.0
11
12.0
21
9.0
12
0.0
22
0.0
32
0.0
14
1.000000000000000E+20
24
1.000000000000000E+20
34
1.000000000000000E+20
15
-1.000000000000000E+20
25
-1.000000000000000E+20
35
-1.000000000000000E+20
146
0.0
13
0.0
23
0.0
33
0.0
16
1.0
26
0.0
36
0.0
17
0.0
27
1.0
37
0.0
76
0
330
25D
0
LAYOUT
5
FD0
102
{ACAD_XDICTIONARY
360
10A7
102
}
102
{ACAD_REACTORS
330
FCF
102
}
330
FCF
100
AcDbPlotSettings
1

2
Microsoft XPS Document Writer
4

6

40
0.0
41
0.0
42
0.0
43
0.0
44
0.0
45
0.0
46
0.0
47
0.0
48
0.0
49
0.0
140
0.0
141
0.0
142
1.0
143
1.0
70
1712
72
0
73
0
74
0
7

75
0
147
1.0
148
0.0
149
0.0
100
AcDbLayout
1
Model
70
1
71
0
10
0.0
20
0.0
11
12.0
21
9.0
12
0.0
22
0.0
32
0.0
14
0.0
24
0.0
34
0.0
15
0.0
25
0.0
35
0.0
146
0.0
13
0.0
23
0.0
33
0.0
16
1.0
26
0.0
36
0.0
17
0.0
27
1.0
37
0.0
76
0
330
261
331
26B
0
MATERIAL
5
F83
102
{ACAD_XDICTIONARY
360
F84
102
}
102
{ACAD_REACTORS
330
F7A
102
}
330
F7A
100
AcDbMaterial
1
ByBlock
72
0
43
0.0208333333333333
43
0.0
43
0.0
43
0.0
43
0.0
43
0.0208333333333333
43
0.0
43
0.0
43
0.0
43
0.0
43
1.0
43
0.0
43
0.0
43
0.0
43
0.0
43
1.0
77
0
47
0.0208333333333333
47
0.0
47
0.0
47
0.0
47
0.0
47
0.0208333333333333
47
0.0
47
0.0
47
0.0
47
0.0
47
1.0
47
0.0
47
0.0
47
0.0
47
0.0
47
1.0
171
0
49
0.0208333333333333
49
0.0
49
0.0
49
0.0
49
0.0
49
0.0208333333333333
49
0.0
49
0.0
49
0.0
49
0.0
49
1.0
49
0.0
49
0.0
49
0.0
49
0.0
49
1.0
175
0
142
0.0208333333333333
142
0.0
142
0.0
142
0.0
142
0.0
142
0.0208333333333333
142
0.0
142
0.0
142
0.0
142
0.0
142
1.0
142
0.0
142
0.0
142
0.0
142
0.0
142
1.0
179
0
144
0.0208333333333333
144
0.0
144
0.0
144
0.0
144
0.0
144
0.0208333333333333
144
0.0
144
0.0
144
0.0
144
0.0
144
1.0
144
0.0
144
0.0
144
0.0
144
0.0
144
1.0
147
0.0208333333333333
147
0.0
147
0.0
147
0.0
147
0.0
147
0.0208333333333333
147
0.0
147
0.0
147
0.0
147
0.0
147
1.0
147
0.0
147
0.0
147
0.0
147
0.0
147
1.0
0
MATERIAL
5
F7B
102
{ACAD_XDICTIONARY
360
F7C
102
}
102
{ACAD_REACTORS
330
F7A
102
}
330
F7A
100
AcDbMaterial
1
ByLayer
72
0
43
0.0208333333333333
43
0.0
43
0.0
43
0.0
43
0.0
43
0.0208333333333333
43
0.0
43
0.0
43
0.0
43
0.0
43
1.0
43
0.0
43
0.0
43
0.0
43
0.0
43
1.0
77
0
47
0.0208333333333333
47
0.0
47
0.0
47
0.0
47
0.0
47
0.0208333333333333
47
0.0
47
0.0
47
0.0
47
0.0
47
1.0
47
0.0
47
0.0
47
0.0
47
0.0
47
1.0
171
0
49
0.0208333333333333
49
0.0
49
0.0
49
0.0
49
0.0
49
0.0208333333333333
49
0.0
49
0.0
49
0.0
49
0.0
49
1.0
49
0.0
49
0.0
49
0.0
49
0.0
49
1.0
175
0
142
0.0208333333333333
142
0.0
142
0.0
142
0.0
142
0.0
142
0.0208333333333333
142
0.0
142
0.0
142
0.0
142
0.0
142
1.0
142
0.0
142
0.0
142
0.0
142
0.0
142
1.0
179
0
144
0.0208333333333333
144
0.0
144
0.0
144
0.0
144
0.0
144
0.0208333333333333
144
0.0
144
0.0
144
0.0
144
0.0
144
1.0
144
0.0
144
0.0
144
0.0
144
0.0
144
1.0
147
0.0208333333333333
147
0.0
147
0.0
147
0.0
147
0.0
147
0.0208333333333333
147
0.0
147
0.0
147
0.0
147
0.0
147
1.0
147
0.0
147
0.0
147
0.0
147
0.0
147
1.0
0
MATERIAL
5
F8B
102
{ACAD_XDICTIONARY
360
F8C
102
}
102
{ACAD_REACTORS
330
F7A
102
}
330
F7A
100
AcDbMaterial
1
Global
72
0
43
0.0208333333333333
43
0.0
43
0.0
43
0.0
43
0.0
43
0.0208333333333333
43
0.0
43
0.0
43
0.0
43
0.0
43
1.0
43
0.0
43
0.0
43
0.0
43
0.0
43
1.0
77
0
47
0.0208333333333333
47
0.0
47
0.0
47
0.0
47
0.0
47
0.0208333333333333
47
0.0
47
0.0
47
0.0
47
0.0
47
1.0
47
0.0
47
0.0
47
0.0
47
0.0
47
1.0
171
0
49
0.0208333333333333
49
0.0
49
0.0
49
0.0
49
0.0
49
0.0208333333333333
49
0.0
49
0.0
49
0.0
49
0.0
49
1.0
49
0.0
49
0.0
49
0.0
49
0.0
49
1.0
175
0
142
0.0208333333333333
142
0.0
142
0.0
142
0.0
142
0.0
142
0.0208333333333333
142
0.0
142
0.0
142
0.0
142
0.0
142
1.0
142
0.0
142
0.0
142
0.0
142
0.0
142
1.0
179
0
144
0.0208333333333333
144
0.0
144
0.0
144
0.0
144
0.0
144
0.0208333333333333
144
0.0
144
0.0
144
0.0
144
0.0
144
1.0
144
0.0
144
0.0
144
0.0
144
0.0
144
1.0
147
0.0208333333333333
147
0.0
147
0.0
147
0.0
147
0.0
147
0.0208333333333333
147
0.0
147
0.0
147
0.0
147
0.0
147
1.0
147
0.0
147
0.0
147
0.0
147
0.0
147
1.0
0
MLEADERSTYLE
5
FCE
102
{ACAD_REACTORS
330
FCD
102
}
330
FCD
100
AcDbMLeaderStyle
170
2
171
1
172
0
90
2
40
0.0
41
0.0
173
1
91
-1056964608
340
256
92
-2
290
1
42
0.09
291
1
43
0.36
3
Standard
44
0.18
300

342
253
174
1
178
6
175
1
176
0
93
-1056964608
45
0.18
292
0
297
0
46
0.18
94
-1056964608
47
1.0
49
1.0
140
1.0
293
1
141
0.0
294
1
177
0
142
1.0
295
0
296
0
143
0.125
1001
ACAD_MLEADERVER
1070
2
0
MLINESTYLE
5
FAA
102
{ACAD_REACTORS
330
16
102
}
330
16
100
AcDbMlineStyle
2
STANDARD
70
0
3

62
256
51
90.0
52
90.0
71
2
49
0.5
62
256
6
BYLAYER
49
-0.5
62
256
6
BYLAYER
0
ACDBPLACEHOLDER
5
19
102
{ACAD_REACTORS
330
18
102
}
330
18
0
SCALE
5
FAC
102
{ACAD_REACTORS
330
FAB
102
}
330
FAB
100
AcDbScale
70
0
300
1:1
140
1.0
141
1.0
290
1
0
SCALE
5
FAD
102
{ACAD_REACTORS
330
FAB
102
}
330
FAB
100
AcDbScale
70
0
300
1:2
140
1.0
141
2.0
290
0
0
SCALE
5
FAE
102
{ACAD_REACTORS
330
FAB
102
}
330
FAB
100
AcDbScale
70
0
300
1:4
140
1.0
141
4.0
290
0
0
SCALE
5
FAF
102
{ACAD_REACTORS
330
FAB
102
}
330
FAB
100
AcDbScale
70
0
300
1:5
140
1.0
141
5.0
290
0
0
SCALE
5
FB0
102
{ACAD_REACTORS
330
FAB
102
}
330
FAB
100
AcDbScale
70
0
300
1:8
140
1.0
141
8.0
290
0
0
SCALE
5
FB1
102
{ACAD_REACTORS
330
FAB
102
}
330
FAB
100
AcDbScale
70
0
300
1:10
140
1.0
141
10.0
290
0
0
SCALE
5
FB2
102
{ACAD_REACTORS
330
FAB
102
}
330
FAB
100
AcDbScale
70
0
300
1:16
140
1.0
141
16.0
290
0
0
SCALE
5
FB3
102
{ACAD_REACTORS
330
FAB
102
}
330
FAB
100
AcDbScale
70
0
300
1:20
140
1.0
141
20.0
290
0
0
SCALE
5
FB4
102
{ACAD_REACTORS
330
FAB
102
}
330
FAB
100
AcDbScale
70
0
300
1:30
140
1.0
141
30.0
290
0
0
SCALE
5
FB5
102
{ACAD_REACTORS
330
FAB
102
}
330
FAB
100
AcDbScale
70
0
300
1:40
140
1.0
141
40.0
290
0
0
SCALE
5
FB6
102
{ACAD_REACTORS
330
FAB
102
}
330
FAB
100
AcDbScale
70
0
300
1:50
140
1.0
141
50.0
290
0
0
SCALE
5
FB7
102
{ACAD_REACTORS
330
FAB
102
}
330
FAB
100
AcDbScale
70
0
300
1:100
140
1.0
141
100.0
290
0
0
SCALE
5
FB8
102
{ACAD_REACTORS
330
FAB
102
}
330
FAB
100
AcDbScale
70
0
300
2:1
140
2.0
141
1.0
290
0
0
SCALE
5
FB9
102
{ACAD_REACTORS
330
FAB
102
}
330
FAB
100
AcDbScale
70
0
300
4:1
140
4.0
141
1.0
290
0
0
SCALE
5
FBA
102
{ACAD_REACTORS
330
FAB
102
}
330
FAB
100
AcDbScale
70
0
300
8:1
140
8.0
141
1.0
290
0
0
SCALE
5
FBB
102
{ACAD_REACTORS
330
FAB
102
}
330
FAB
100
AcDbScale
70
0
300
10:1
140
10.0
141
1.0
290
0
0
SCALE
5
FBC
102
{ACAD_REACTORS
330
FAB
102
}
330
FAB
100
AcDbScale
70
0
300
100:1
140
100.0
141
1.0
290
0
0
SCALE
5
FBD
102
{ACAD_REACTORS
330
FAB
102
}
330
FAB
100
AcDbScale
70
0
300
1/128" = 1'-0"
140
0.0078125
141
12.0
290
0
0
SCALE
5
FBE
102
{ACAD_REACTORS
330
FAB
102
}
330
FAB
100
AcDbScale
70
0
300
1/64" = 1'-0"
140
0.015625
141
12.0
290
0
0
SCALE
5
FBF
102
{ACAD_REACTORS
330
FAB
102
}
330
FAB
100
AcDbScale
70
0
300
1/32" = 1'-0"
140
0.03125
141
12.0
290
0
0
SCALE
5
FC0
102
{ACAD_REACTORS
330
FAB
102
}
330
FAB
100
AcDbScale
70
0
300
1/16" = 1'-0"
140
0.0625
141
12.0
290
0
0
SCALE
5
FC1
102
{ACAD_REACTORS
330
FAB
102
}
330
FAB
100
AcDbScale
70
0
300
3/32" = 1'-0"
140
0.09375
141
12.0
290
0
0
SCALE
5
FC2
102
{ACAD_REACTORS
330
FAB
102
}
330
FAB
100
AcDbScale
70
0
300
1/8" = 1'-0"
140
0.125
141
12.0
290
0
0
SCALE
5
FC3
102
{ACAD_REACTORS
330
FAB
102
}
330
FAB
100
AcDbScale
70
0
300
3/16" = 1'-0"
140
0.1875
141
12.0
290
0
0
SCALE
5
FC4
102
{ACAD_REACTORS
330
FAB
102
}
330
FAB
100
AcDbScale
70
0
300
1/4" = 1'-0"
140
0.25
141
12.0
290
0
0
SCALE
5
FC5
102
{ACAD_REACTORS
330
FAB
102
}
330
FAB
100
AcDbScale
70
0
300
3/8" = 1'-0"
140
0.375
141
12.0
290
0
0
SCALE
5
FC6
102
{ACAD_REACTORS
330
FAB
102
}
330
FAB
100
AcDbScale
70
0
300
1/2" = 1'-0"
140
0.5
141
12.0
290
0
0
SCALE
5
FC7
102
{ACAD_REACTORS
330
FAB
102
}
330
FAB
100
AcDbScale
70
0
300
3/4" = 1'-0"
140
0.75
141
12.0
290
0
0
SCALE
5
FC8
102
{ACAD_REACTORS
330
FAB
102
}
330
FAB
100
AcDbScale
70
0
300
1" = 1'-0"
140
1.0
141
12.0
290
0
0
SCALE
5
FC9
102
{ACAD_REACTORS
330
FAB
102
}
330
FAB
100
AcDbScale
70
0
300
1-1/2" = 1'-0"
140
1.5
141
12.0
290
0
0
SCALE
5
FCA
102
{ACAD_REACTORS
330
FAB
102
}
330
FAB
100
AcDbScale
70
0
300
3" = 1'-0"
140
3.0
141
12.0
290
0
0
SCALE
5
FCB
102
{ACAD_REACTORS
330
FAB
102
}
330
FAB
100
AcDbScale
70
0
300
6" = 1'-0"
140
6.0
141
12.0
290
0
0
SCALE
5
FCC
102
{ACAD_REACTORS
330
FAB
102
}
330
FAB
100
AcDbScale
70
0
300
1'-0" = 1'-0"
140
12.0
141
12.0
290
0
0
TABLESTYLE
5
FA9
102
{ACAD_XDICTIONARY
360
FF8
102
}
102
{ACAD_REACTORS
330
FA8
102
}
330
FA8
100
AcDbTableStyle
3
Standard
70
0
71
0
40
0.06
41
0.06
280
0
281
0
7
Standard
140
0.18
170
2
62
0
63
7
283
0
274
-2
284
1
64
0
275
-2
285
1
65
0
276
-2
286
1
66
0
277
-2
287
1
67
0
278
-2
288
1
68
0
279
-2
289
1
69
0
7
Standard
140
0.25
170
5
62
0
63
7
283
0
274
-2
284
1
64
0
275
-2
285
1
65
0
276
-2
286
1
66
0
277
-2
287
1
67
0
278
-2
288
1
68
0
279
-2
289
1
69
0
7
Standard
140
0.18
170
5
62
0
63
7
283
0
274
-2
284
1
64
0
275
-2
285
1
65
0
276
-2
286
1
66
0
277
-2
287
1
67
0
278
-2
288
1
68
0
279
-2
289
1
69
0
0
VISUALSTYLE
5
F99
102
{ACAD_XDICTIONARY
360
108A
102
}
102
{ACAD_REACTORS
330
F93
102
}
330
F93
100
AcDbVisualStyle
2

70
4
71
0
72
2
73
0
90
0
40
-0.6
41
-30.0
62
5
63
7
74
1
91
4
64
7
65
257
75
1
175
1
42
1.0
92
0
66
257
43
1.0
76
1
77
6
78
2
67
7
79
5
170
0
171
0
290
0
174
0
93
1
44
0.0
173
0
291
0
45
0.0
1001
ACAD
1000
AcDbSavedByObjectVersion
1070
0
0
VISUALSTYLE
5
F9B
102
{ACAD_XDICTIONARY
360
108E
102
}
102
{ACAD_REACTORS
330
F93
102
}
330
F93
100
AcDbVisualStyle
2

70
6
71
1
72
2
73
2
90
0
40
-0.6
41
-30.0
62
5
63
7
74
2
91
2
64
7
65
257
75
2
175
1
42
179.0
92
0
66
257
43
1.0
76
1
77
6
78
2
67
7
79
3
170
0
171
0
290
0
174
0
93
1
44
0.0
173
0
291
0
45
0.0
1001
ACAD
1000
AcDbSavedByObjectVersion
1070
0
0
VISUALSTYLE
5
F9A
102
{ACAD_XDICTIONARY
360
108C
102
}
102
{ACAD_REACTORS
330
F93
102
}
330
F93
100
AcDbVisualStyle
2

70
5
71
0
72
2
73
0
90
0
40
-0.6
41
-30.0
62
5
63
7
74
1
91
4
64
7
65
257
75
1
175
1
42
1.0
92
0
66
257
43
1.0
76
1
77
6
78
2
67
7
79
5
170
0
171
0
290
0
174
0
93
1
44
0.0
173
0
291
0
45
0.0
1001
ACAD
1000
AcDbSavedByObjectVersion
1070
0
0
VISUALSTYLE
5
F98
102
{ACAD_XDICTIONARY
360
1088
102
}
102
{ACAD_REACTORS
330
F93
102
}
330
F93
100
AcDbVisualStyle
2

70
7
71
1
72
0
73
1
90
0
40
-0.6
41
-30.0
62
5
63
7
74
0
91
4
64
7
65
257
75
1
175
1
42
1.0
92
8
66
7
43
1.0
76
1
77
6
78
2
67
7
79
5
170
0
171
0
290
0
174
0
93
1
44
0.0
173
0
291
1
45
0.0
1001
ACAD
1000
AcDbSavedByObjectVersion
1070
0
0
VISUALSTYLE
5
F9F
102
{ACAD_XDICTIONARY
360
1096
102
}
102
{ACAD_REACTORS
330
F93
102
}
330
F93
100
AcDbVisualStyle
2

70
12
71
2
72
2
73
0
90
0
40
-0.6
41
-30.0
62
5
63
7
74
1
91
4
64
7
65
257
75
1
175
1
42
1.0
92
8
66
7
43
1.0
76
1
77
6
78
2
67
7
79
5
170
0
171
0
290
0
174
0
93
1
44
50.0
173
0
291
1
45
0.0
1001
ACAD
1000
AcDbSavedByObjectVersion
1070
0
0
VISUALSTYLE
5
FA3
102
{ACAD_XDICTIONARY
360
109E
102
}
102
{ACAD_REACTORS
330
F93
102
}
330
F93
100
AcDbVisualStyle
2

70
16
71
2
72
2
73
3
90
0
40
-0.6
41
-30.0
62
5
63
8
74
1
91
4
64
7
65
257
75
1
175
1
42
1.0
92
8
66
8
43
1.0
76
1
77
6
78
2
67
7
79
5
170
0
171
0
290
0
174
0
93
1
44
0.0
173
0
291
1
45
0.0
1001
ACAD
1000
AcDbSavedByObjectVersion
1070
0
0
VISUALSTYLE
5
F9C
102
{ACAD_XDICTIONARY
360
1090
102
}
102
{ACAD_REACTORS
330
F93
102
}
330
F93
100
AcDbVisualStyle
2

70
9
71
3
72
2
73
0
90
0
40
-0.6
41
-30.0
62
5
63
7
74
2
91
2
64
7
65
257
75
1
175
1
42
179.0
92
8
66
7
43
1.0
76
1
77
6
78
2
67
7
79
3
170
0
171
0
290
0
174
0
93
1
44
0.0
173
0
291
0
45
0.0
1001
ACAD
1000
AcDbSavedByObjectVersion
1070
0
0
VISUALSTYLE
5
F9E
102
{ACAD_XDICTIONARY
360
1094
102
}
102
{ACAD_REACTORS
330
F93
102
}
330
F93
100
AcDbVisualStyle
2

70
11
71
2
72
2
73
0
90
0
40
-0.6
41
-30.0
62
5
63
7
74
1
91
4
64
7
65
257
75
1
175
1
42
1.0
92
8
66
7
43
1.0
76
1
77
6
78
2
67
7
79
5
170
0
171
0
290
0
174
0
93
1
44
-50.0
173
0
291
1
45
0.0
1001
ACAD
1000
AcDbSavedByObjectVersion
1070
0
0
VISUALSTYLE
5
FA6
102
{ACAD_XDICTIONARY
360
10A4
102
}
102
{ACAD_REACTORS
330
F93
102
}
330
F93
100
AcDbVisualStyle
2

70
22
71
2
72
2
73
0
90
0
40
-0.6
41
-30.0
62
5
63
7
74
1
91
4
64
7
65
257
75
1
175
1
42
1.0
92
8
66
7
43
1.0
76
1
77
6
78
2
67
7
79
5
170
0
171
0
290
0
174
0
93
1
44
0.0
173
0
291
1
45
0.0
1001
ACAD
1000
AcDbSavedByObjectVersion
1070
0
0
VISUALSTYLE
5
FA2
102
{ACAD_XDICTIONARY
360
109C
102
}
102
{ACAD_REACTORS
330
F93
102
}
330
F93
100
AcDbVisualStyle
2

70
15
71
2
72
2
73
0
90
0
40
-0.6
41
-30.0
62
5
63
7
74
1
91
4
64
7
65
257
75
1
175
1
42
1.0
92
8
66
7
43
1.0
76
1
77
6
78
2
67
7
79
5
170
0
171
0
290
0
174
0
93
1
44
0.0
173
0
291
1
45
0.0
1001
ACAD
1000
AcDbSavedByObjectVersion
1070
0
0
VISUALSTYLE
5
F94
102
{ACAD_XDICTIONARY
360
1080
102
}
102
{ACAD_REACTORS
330
F93
102
}
330
F93
100
AcDbVisualStyle
2

70
0
71
2
72
1
73
1
90
2
40
-0.6
41
30.0
62
5
63
7
74
0
91
4
64
7
65
257
75
1
175
1
42
1.0
92
8
66
7
43
1.0
76
1
77
6
78
2
67
7
79
5
170
0
171
0
290
0
174
0
93
13
44
0.0
173
0
291
1
45
0.0
1001
ACAD
1000
AcDbSavedByObjectVersion
1070
0
0
VISUALSTYLE
5
F95
102
{ACAD_XDICTIONARY
360
1082
102
}
102
{ACAD_REACTORS
330
F93
102
}
330
F93
100
AcDbVisualStyle
2

70
1
71
2
72
1
73
1
90
2
40
-0.6
41
30.0
62
5
63
7
74
1
91
4
64
7
65
257
75
1
175
1
42
1.0
92
0
66
257
43
1.0
76
1
77
6
78
2
67
7
79
5
170
0
171
0
290
0
174
0
93
13
44
0.0
173
0
291
1
45
0.0
1001
ACAD
1000
AcDbSavedByObjectVersion
1070
0
0
VISUALSTYLE
5
F96
102
{ACAD_XDICTIONARY
360
1084
102
}
102
{ACAD_REACTORS
330
F93
102
}
330
F93
100
AcDbVisualStyle
2

70
2
71
2
72
2
73
1
90
2
40
-0.6
41
30.0
62
5
63
7
74
0
91
4
64
7
65
257
75
1
175
1
42
1.0
92
0
66
7
43
1.0
76
1
77
6
78
2
67
7
79
5
170
0
171
0
290
0
174
0
93
13
44
0.0
173
0
291
1
45
0.0
1001
ACAD
1000
AcDbSavedByObjectVersion
1070
0
0
VISUALSTYLE
5
F97
102
{ACAD_XDICTIONARY
360
1086
102
}
102
{ACAD_REACTORS
330
F93
102
}
330
F93
100
AcDbVisualStyle
2

70
3
71
2
72
2
73
1
90
2
40
-0.6
41
30.0
62
5
63
7
74
1
91
4
64
7
65
257
75
1
175
1
42
1.0
92
0
66
257
43
1.0
76
1
77
6
78
2
67
7
79
5
170
0
171
0
290
0
174
0
93
13
44
0.0
173
0
291
1
45
0.0
1001
ACAD
1000
AcDbSavedByObjectVersion
1070
0
0
VISUALSTYLE
5
FA4
102
{ACAD_XDICTIONARY
360
10A0
102
}
102
{ACAD_REACTORS
330
F93
102
}
330
F93
100
AcDbVisualStyle
2

70
20
71
2
72
2
73
0
90
0
40
-0.6
41
-30.0
62
5
63
7
74
1
91
4
64
7
65
257
75
1
175
1
42
1.0
92
10
66
7
43
1.0
76
1
77
6
78
2
67
7
79
5
170
0
171
0
290
0
174
0
93
1
44
0.0
173
0
291
1
45
0.0
1001
ACAD
1000
AcDbSavedByObjectVersion
1070
0
0
VISUALSTYLE
5
FA1
102
{ACAD_XDICTIONARY
360
109A
102
}
102
{ACAD_REACTORS
330
F93
102
}
330
F93
100
AcDbVisualStyle
2

70
14
71
2
72
2
73
0
90
0
40
-0.6
41
-30.0
62
5
63
7
74
1
91
4
64
7
65
257
75
7
175
7
42
1.0
92
8
66
7
43
1.0
76
1
77
6
78
2
67
7
79
5
170
0
171
0
290
0
174
0
93
1
44
0.0
173
0
291
1
45
0.0
1001
ACAD
1000
AcDbSavedByObjectVersion
1070
0
0
VISUALSTYLE
5
FA5
102
{ACAD_XDICTIONARY
360
10A2
102
}
102
{ACAD_REACTORS
330
F93
102
}
330
F93
100
AcDbVisualStyle
2

70
21
71
2
72
2
73
0
90
0
40
-0.6
41
-30.0
62
5
63
7
74
1
91
4
64
7
65
257
75
1
175
1
42
1.0
92
9
66
7
43
1.0
76
1
77
6
78
2
67
7
79
5
170
0
171
0
290
0
174
0
93
1
44
0.0
173
0
291
1
45
0.0
1001
ACAD
1000
AcDbSavedByObjectVersion
1070
0
0
VISUALSTYLE
5
F9D
102
{ACAD_XDICTIONARY
360
1092
102
}
102
{ACAD_REACTORS
330
F93
102
}
330
F93
100
AcDbVisualStyle
2

70
8
71
2
72
2
73
0
90
0
40
-0.6
41
-30.0
62
5
63
7
74
1
91
0
64
7
65
257
75
1
175
1
42
1.0
92
8
66
8
43
1.0
76
1
77
6
78
2
67
7
79
5
170
0
171
0
290
0
174
0
93
13
44
0.0
173
0
291
0
45
0.0
1001
ACAD
1000
AcDbSavedByObjectVersion
1070
0
0
VISUALSTYLE
5
FA0
102
{ACAD_XDICTIONARY
360
1098
102
}
102
{ACAD_REACTORS
330
F93
102
}
330
F93
100
AcDbVisualStyle
2

70
13
71
2
72
2
73
0
90
0
40
-0.6
41
-30.0
62
5
63
7
74
1
91
4
64
7
65
257
75
1
175
1
42
1.0
92
12
66
7
43
1.0
76
1
77
6
78
2
67
7
79
5
170
0
171
0
290
0
174
0
93
1
44
0.0
173
0
291
1
45
0.0
1001
ACAD
1000
AcDbSavedByObjectVersion
1070
0
0
DICTIONARYVAR
5
FF3
102
{ACAD_REACTORS
330
FF0
102
}
330
FF0
100
DictionaryVariables
280
0
1
1:1
0
DICTIONARYVAR
5
FF2
102
{ACAD_REACTORS
330
FF0
102
}
330
FF0
100
DictionaryVariables
280
0
1
STANDARD
0
DICTIONARYVAR
5
FF1
102
{ACAD_REACTORS
330
FF0
102
}
330
FF0
100
DictionaryVariables
280
0
1
STANDARD
0
DICTIONARYVAR
5
FF6
102
{ACAD_REACTORS
330
FF0
102
}
330
FF0
100
DictionaryVariables
280
0
1
1
0
DICTIONARYVAR
5
FF5
102
{ACAD_REACTORS
330
FF0
102
}
330
FF0
100
DictionaryVariables
280
0
1
0
0
DICTIONARYVAR
5
FF4
102
{ACAD_REACTORS
330
FF0
102
}
330
FF0
100
DictionaryVariables
280
0
1
127
0
DICTIONARYVAR
5
1078
102
{ACAD_REACTORS
330
FF0
102
}
330
FF0
100
DictionaryVariables
280
0
1
2
0
DICTIONARY
5
10A9
330
FD1
100
AcDbDictionary
280
1
281
1
3
ACAD_XREC_ROUNDTRIP
360
10AA
0
DICTIONARY
5
10A7
330
FD0
100
AcDbDictionary
280
1
281
1
3
ACAD_XREC_ROUNDTRIP
360
10A8
0
DICTIONARY
5
F84
330
F83
100
AcDbDictionary
280
1
281
1
3
ACAD_XREC_ROUNDTRIP
360
FFF
3
BUMPTILE
360
F86
3
DIFFUSETILE
360
F85
3
OPACITYTILE
360
F89
3
REFLECTIONTILE
360
F88
3
REFRACTIONTILE
360
F8A
3
SPECULARTILE
360
F87
0
DICTIONARY
5
F7C
330
F7B
100
AcDbDictionary
280
1
281
1
3
ACAD_XREC_ROUNDTRIP
360
FFE
3
BUMPTILE
360
F7E
3
DIFFUSETILE
360
F7D
3
OPACITYTILE
360
F81
3
REFLECTIONTILE
360
F80
3
REFRACTIONTILE
360
F82
3
SPECULARTILE
360
F7F
0
DICTIONARY
5
F8C
330
F8B
100
AcDbDictionary
280
1
281
1
3
ACAD_XREC_ROUNDTRIP
360
1000
3
BUMPTILE
360
F8E
3
DIFFUSETILE
360
F8D
3
OPACITYTILE
360
F91
3
REFLECTIONTILE
360
F90
3
REFRACTIONTILE
360
F92
3
SPECULARTILE
360
F8F
0
DICTIONARY
5
FF8
330
FA9
100
AcDbDictionary
280
1
281
1
3
ACAD_ROUNDTRIP_2008_TABLESTYLE_CELLSTYLEMAP
360
1079
3
ACAD_XREC_ROUNDTRIP
360
10A6
0
DICTIONARY
5
108A
330
F99
100
AcDbDictionary
280
1
281
1
3
ACAD_XREC_ROUNDTRIP
360
108B
0
DICTIONARY
5
108E
330
F9B
100
AcDbDictionary
280
1
281
1
3
ACAD_XREC_ROUNDTRIP
360
108F
0
DICTIONARY
5
108C
330
F9A
100
AcDbDictionary
280
1
281
1
3
ACAD_XREC_ROUNDTRIP
360
108D
0
DICTIONARY
5
1088
330
F98
100
AcDbDictionary
280
1
281
1
3
ACAD_XREC_ROUNDTRIP
360
1089
0
DICTIONARY
5
1096
330
F9F
100
AcDbDictionary
280
1
281
1
3
ACAD_XREC_ROUNDTRIP
360
1097
0
DICTIONARY
5
109E
330
FA3
100
AcDbDictionary
280
1
281
1
3
ACAD_XREC_ROUNDTRIP
360
109F
0
DICTIONARY
5
1090
330
F9C
100
AcDbDictionary
280
1
281
1
3
ACAD_XREC_ROUNDTRIP
360
1091
0
DICTIONARY
5
1094
330
F9E
100
AcDbDictionary
280
1
281
1
3
ACAD_XREC_ROUNDTRIP
360
1095
0
DICTIONARY
5
10A4
330
FA6
100
AcDbDictionary
280
1
281
1
3
ACAD_XREC_ROUNDTRIP
360
10A5
0
DICTIONARY
5
109C
330
FA2
100
AcDbDictionary
280
1
281
1
3
ACAD_XREC_ROUNDTRIP
360
109D
0
DICTIONARY
5
1080
330
F94
100
AcDbDictionary
280
1
281
1
3
ACAD_XREC_ROUNDTRIP
360
1081
0
DICTIONARY
5
1082
330
F95
100
AcDbDictionary
280
1
281
1
3
ACAD_XREC_ROUNDTRIP
360
1083
0
DICTIONARY
5
1084
330
F96
100
AcDbDictionary
280
1
281
1
3
ACAD_XREC_ROUNDTRIP
360
1085
0
DICTIONARY
5
1086
330
F97
100
AcDbDictionary
280
1
281
1
3
ACAD_XREC_ROUNDTRIP
360
1087
0
DICTIONARY
5
10A0
330
FA4
100
AcDbDictionary
280
1
281
1
3
ACAD_XREC_ROUNDTRIP
360
10A1
0
DICTIONARY
5
109A
330
FA1
100
AcDbDictionary
280
1
281
1
3
ACAD_XREC_ROUNDTRIP
360
109B
0
DICTIONARY
5
10A2
330
FA5
100
AcDbDictionary
280
1
281
1
3
ACAD_XREC_ROUNDTRIP
360
10A3
0
DICTIONARY
5
1092
330
F9D
100
AcDbDictionary
280
1
281
1
3
ACAD_XREC_ROUNDTRIP
360
1093
0
DICTIONARY
5
1098
330
FA0
100
AcDbDictionary
280
1
281
1
3
ACAD_XREC_ROUNDTRIP
360
1099
0
XRECORD
5
10AA
102
{ACAD_REACTORS
330
10A9
102
}
330
10A9
100
AcDbXrecord
280
1
102
SHADEPLOT
70
0
102
SHADEPLOTRESLEVEL
70
2
102
SHADEPLOTCUSTOMDPI
70
300
0
XRECORD
5
10A8
102
{ACAD_REACTORS
330
10A7
102
}
330
10A7
100
AcDbXrecord
280
1
102
SHADEPLOT
70
0
102
SHADEPLOTRESLEVEL
70
2
102
SHADEPLOTCUSTOMDPI
70
300
0
XRECORD
5
FFF
102
{ACAD_REACTORS
330
F84
102
}
330
F84
100
AcDbXrecord
280
1
102
MATERIAL
148
0.0
149
0.0
149
0.0
93
0
94
127
282
0
72
0
77
0
171
0
175
0
179
0
273
0
0
XRECORD
5
F86
102
{ACAD_REACTORS
330
F84
102
}
330
F84
100
AcDbXrecord
280
1
270
1
271
1
0
XRECORD
5
F85
102
{ACAD_REACTORS
330
F84
102
}
330
F84
100
AcDbXrecord
280
1
270
1
271
1
0
XRECORD
5
F89
102
{ACAD_REACTORS
330
F84
102
}
330
F84
100
AcDbXrecord
280
1
270
1
271
1
0
XRECORD
5
F88
102
{ACAD_REACTORS
330
F84
102
}
330
F84
100
AcDbXrecord
280
1
270
1
271
1
0
XRECORD
5
F8A
102
{ACAD_REACTORS
330
F84
102
}
330
F84
100
AcDbXrecord
280
1
270
1
271
1
0
XRECORD
5
F87
102
{ACAD_REACTORS
330
F84
102
}
330
F84
100
AcDbXrecord
280
1
270
1
271
1
0
XRECORD
5
FFE
102
{ACAD_REACTORS
330
F7C
102
}
330
F7C
100
AcDbXrecord
280
1
102
MATERIAL
148
0.0
149
0.0
149
0.0
93
0
94
127
282
0
72
0
77
0
171
0
175
0
179
0
273
0
0
XRECORD
5
F7E
102
{ACAD_REACTORS
330
F7C
102
}
330
F7C
100
AcDbXrecord
280
1
270
1
271
1
0
XRECORD
5
F7D
102
{ACAD_REACTORS
330
F7C
102
}
330
F7C
100
AcDbXrecord
280
1
270
1
271
1
0
XRECORD
5
F81
102
{ACAD_REACTORS
330
F7C
102
}
330
F7C
100
AcDbXrecord
280
1
270
1
271
1
0
XRECORD
5
F80
102
{ACAD_REACTORS
330
F7C
102
}
330
F7C
100
AcDbXrecord
280
1
270
1
271
1
0
XRECORD
5
F82
102
{ACAD_REACTORS
330
F7C
102
}
330
F7C
100
AcDbXrecord
280
1
270
1
271
1
0
XRECORD
5
F7F
102
{ACAD_REACTORS
330
F7C
102
}
330
F7C
100
AcDbXrecord
280
1
270
1
271
1
0
XRECORD
5
1000
102
{ACAD_REACTORS
330
F8C
102
}
330
F8C
100
AcDbXrecord
280
1
102
MATERIAL
148
0.0
149
0.0
149
0.0
93
0
94
127
282
0
72
0
77
0
171
0
175
0
179
0
273
0
0
XRECORD
5
F8E
102
{ACAD_REACTORS
330
F8C
102
}
330
F8C
100
AcDbXrecord
280
1
270
1
271
1
0
XRECORD
5
F8D
102
{ACAD_REACTORS
330
F8C
102
}
330
F8C
100
AcDbXrecord
280
1
270
1
271
1
0
XRECORD
5
F91
102
{ACAD_REACTORS
330
F8C
102
}
330
F8C
100
AcDbXrecord
280
1
270
1
271
1
0
XRECORD
5
F90
102
{ACAD_REACTORS
330
F8C
102
}
330
F8C
100
AcDbXrecord
280
1
270
1
271
1
0
XRECORD
5
F92
102
{ACAD_REACTORS
330
F8C
102
}
330
F8C
100
AcDbXrecord
280
1
270
1
271
1
0
XRECORD
5
F8F
102
{ACAD_REACTORS
330
F8C
102
}
330
F8C
100
AcDbXrecord
280
1
270
1
271
1
0
CELLSTYLEMAP
5
1079
102
{ACAD_REACTORS
330
FF8
102
}
330
FF8
100
AcDbCellStyleMap
90
3
300
CELLSTYLE
1
TABLEFORMAT_BEGIN
90
5
170
1
91
0
92
32768
62
257
93
1
300
CONTENTFORMAT
1
CONTENTFORMAT_BEGIN
90
0
91
0
92
512
93
0
300

40
0.0
140
1.0
94
5
62
0
340
253
144
0.25
309
CONTENTFORMAT_END
171
1
301
MARGIN
1
CELLMARGIN_BEGIN
40
0.06
40
0.06
40
0.06
40
0.06
40
0.18
40
0.18
309
CELLMARGIN_END
94
6
95
1
302
GRIDFORMAT
1
GRIDFORMAT_BEGIN
90
0
91
1
62
0
92
-2
340
0
93
0
40
0.045
309
GRIDFORMAT_END
95
2
302
GRIDFORMAT
1
GRIDFORMAT_BEGIN
90
0
91
1
62
0
92
-2
340
0
93
0
40
0.045
309
GRIDFORMAT_END
95
4
302
GRIDFORMAT
1
GRIDFORMAT_BEGIN
90
0
91
1
62
0
92
-2
340
0
93
0
40
0.045
309
GRIDFORMAT_END
95
8
302
GRIDFORMAT
1
GRIDFORMAT_BEGIN
90
0
91
1
62
0
92
-2
340
0
93
0
40
0.045
309
GRIDFORMAT_END
95
16
302
GRIDFORMAT
1
GRIDFORMAT_BEGIN
90
0
91
1
62
0
92
-2
340
0
93
0
40
0.045
309
GRIDFORMAT_END
95
32
302
GRIDFORMAT
1
GRIDFORMAT_BEGIN
90
0
91
1
62
0
92
-2
340
0
93
0
40
0.045
309
GRIDFORMAT_END
309
TABLEFORMAT_END
1
CELLSTYLE_BEGIN
90
1
91
1
300
_TITLE
309
CELLSTYLE_END
300
CELLSTYLE
1
TABLEFORMAT_BEGIN
90
5
170
1
91
0
92
0
62
257
93
1
300
CONTENTFORMAT
1
CONTENTFORMAT_BEGIN
90
0
91
0
92
512
93
0
300

40
0.0
140
1.0
94
5
62
0
340
253
144
0.18
309
CONTENTFORMAT_END
171
1
301
MARGIN
1
CELLMARGIN_BEGIN
40
0.06
40
0.06
40
0.06
40
0.06
40
0.18
40
0.18
309
CELLMARGIN_END
94
6
95
1
302
GRIDFORMAT
1
GRIDFORMAT_BEGIN
90
0
91
1
62
0
92
-2
340
0
93
0
40
0.045
309
GRIDFORMAT_END
95
2
302
GRIDFORMAT
1
GRIDFORMAT_BEGIN
90
0
91
1
62
0
92
-2
340
0
93
0
40
0.045
309
GRIDFORMAT_END
95
4
302
GRIDFORMAT
1
GRIDFORMAT_BEGIN
90
0
91
1
62
0
92
-2
340
0
93
0
40
0.045
309
GRIDFORMAT_END
95
8
302
GRIDFORMAT
1
GRIDFORMAT_BEGIN
90
0
91
1
62
0
92
-2
340
0
93
0
40
0.045
309
GRIDFORMAT_END
95
16
302
GRIDFORMAT
1
GRIDFORMAT_BEGIN
90
0
91
1
62
0
92
-2
340
0
93
0
40
0.045
309
GRIDFORMAT_END
95
32
302
GRIDFORMAT
1
GRIDFORMAT_BEGIN
90
0
91
1
62
0
92
-2
340
0
93
0
40
0.045
309
GRIDFORMAT_END
309
TABLEFORMAT_END
1
CELLSTYLE_BEGIN
90
2
91
1
300
_HEADER
309
CELLSTYLE_END
300
CELLSTYLE
1
TABLEFORMAT_BEGIN
90
5
170
1
91
0
92
0
62
257
93
1
300
CONTENTFORMAT
1
CONTENTFORMAT_BEGIN
90
0
91
0
92
512
93
0
300

40
0.0
140
1.0
94
2
62
0
340
253
144
0.18
309
CONTENTFORMAT_END
171
1
301
MARGIN
1
CELLMARGIN_BEGIN
40
0.06
40
0.06
40
0.06
40
0.06
40
0.18
40
0.18
309
CELLMARGIN_END
94
6
95
1
302
GRIDFORMAT
1
GRIDFORMAT_BEGIN
90
0
91
1
62
0
92
-2
340
0
93
0
40
0.045
309
GRIDFORMAT_END
95
2
302
GRIDFORMAT
1
GRIDFORMAT_BEGIN
90
0
91
1
62
0
92
-2
340
0
93
0
40
0.045
309
GRIDFORMAT_END
95
4
302
GRIDFORMAT
1
GRIDFORMAT_BEGIN
90
0
91
1
62
0
92
-2
340
0
93
0
40
0.045
309
GRIDFORMAT_END
95
8
302
GRIDFORMAT
1
GRIDFORMAT_BEGIN
90
0
91
1
62
0
92
-2
340
0
93
0
40
0.045
309
GRIDFORMAT_END
95
16
302
GRIDFORMAT
1
GRIDFORMAT_BEGIN
90
0
91
1
62
0
92
-2
340
0
93
0
40
0.045
309
GRIDFORMAT_END
95
32
302
GRIDFORMAT
1
GRIDFORMAT_BEGIN
90
0
91
1
62
0
92
-2
340
0
93
0
40
0.045
309
GRIDFORMAT_END
309
TABLEFORMAT_END
1
CELLSTYLE_BEGIN
90
3
91
2
300
_DATA
309
CELLSTYLE_END
0
XRECORD
5
10A6
102
{ACAD_REACTORS
330
FF8
102
}
330
FF8
100
AcDbXrecord
280
1
102
ACAD_ROUNDTRIP_PRE2007_TABLESTYLE
90
512
91
0
1

92
512
93
0
2

94
512
95
0
3

0
XRECORD
5
108B
102
{ACAD_REACTORS
330
108A
102
}
330
108A
100
AcDbXrecord
280
1
102
RTVSPropertyOp0
70
1
102
RTVSPropertyOp1
70
1
102
RTVSPropertyOp2
70
1
102
RTVSPropertyOp3
70
1
102
RTVSPropertyOp4
70
1
102
RTVSPropertyOp5
70
1
102
RTVSPropertyOp6
70
1
102
RTVSPropertyOp7
70
1
102
RTVSPropertyOp8
70
1
102
RTVSPropertyOp9
70
1
102
RTVSPropertyOp10
70
1
102
RTVSPropertyOp11
70
1
102
RTVSPropertyOp12
70
1
102
RTVSPropertyOp13
70
1
102
RTVSPropertyOp14
70
1
102
RTVSPropertyOp15
70
1
102
RTVSPropertyOp16
70
1
102
RTVSPropertyOp17
70
1
102
RTVSPropertyOp18
70
1
102
RTVSPropertyOp19
70
1
102
RTVSPropertyOp20
70
1
102
RTVSPropertyOp21
70
1
102
RTVSPropertyOp22
70
1
102
RTVSPropertyOp23
70
1
102
RTVSPropertyOp24
70
1
102
RTVSPropertyOp25
70
1
102
RTVSPropertyOp26
70
1
102
RTVSPropertyOp27
70
1
0
XRECORD
5
108F
102
{ACAD_REACTORS
330
108E
102
}
330
108E
100
AcDbXrecord
280
1
102
RTVSPropertyOp0
70
1
102
RTVSPropertyOp1
70
1
102
RTVSPropertyOp2
70
1
102
RTVSPropertyOp3
70
1
102
RTVSPropertyOp4
70
1
102
RTVSPropertyOp5
70
1
102
RTVSPropertyOp6
70
1
102
RTVSPropertyOp7
70
1
102
RTVSPropertyOp8
70
1
102
RTVSPropertyOp9
70
1
102
RTVSPropertyOp10
70
1
102
RTVSPropertyOp11
70
1
102
RTVSPropertyOp12
70
1
102
RTVSPropertyOp13
70
1
102
RTVSPropertyOp14
70
1
102
RTVSPropertyOp15
70
1
102
RTVSPropertyOp16
70
1
102
RTVSPropertyOp17
70
1
102
RTVSPropertyOp18
70
1
102
RTVSPropertyOp19
70
1
102
RTVSPropertyOp20
70
1
102
RTVSPropertyOp21
70
1
102
RTVSPropertyOp22
70
1
102
RTVSPropertyOp23
70
1
102
RTVSPropertyOp24
70
1
102
RTVSPropertyOp25
70
1
102
RTVSPropertyOp26
70
1
102
RTVSPropertyOp27
70
1
0
XRECORD
5
108D
102
{ACAD_REACTORS
330
108C
102
}
330
108C
100
AcDbXrecord
280
1
102
RTVSPropertyOp0
70
1
102
RTVSPropertyOp1
70
1
102
RTVSPropertyOp2
70
1
102
RTVSPropertyOp3
70
1
102
RTVSPropertyOp4
70
1
102
RTVSPropertyOp5
70
1
102
RTVSPropertyOp6
70
1
102
RTVSPropertyOp7
70
1
102
RTVSPropertyOp8
70
1
102
RTVSPropertyOp9
70
1
102
RTVSPropertyOp10
70
1
102
RTVSPropertyOp11
70
1
102
RTVSPropertyOp12
70
1
102
RTVSPropertyOp13
70
1
102
RTVSPropertyOp14
70
1
102
RTVSPropertyOp15
70
1
102
RTVSPropertyOp16
70
1
102
RTVSPropertyOp17
70
1
102
RTVSPropertyOp18
70
1
102
RTVSPropertyOp19
70
1
102
RTVSPropertyOp20
70
1
102
RTVSPropertyOp21
70
1
102
RTVSPropertyOp22
70
1
102
RTVSPropertyOp23
70
1
102
RTVSPropertyOp24
70
1
102
RTVSPropertyOp25
70
1
102
RTVSPropertyOp26
70
1
102
RTVSPropertyOp27
70
1
0
XRECORD
5
1089
102
{ACAD_REACTORS
330
1088
102
}
330
1088
100
AcDbXrecord
280
1
102
RTVSPropertyOp0
70
1
102
RTVSPropertyOp1
70
1
102
RTVSPropertyOp2
70
1
102
RTVSPropertyOp3
70
1
102
RTVSPropertyOp4
70
1
102
RTVSPropertyOp5
70
1
102
RTVSPropertyOp6
70
1
102
RTVSPropertyOp7
70
1
102
RTVSPropertyOp8
70
1
102
RTVSPropertyOp9
70
1
102
RTVSPropertyOp10
70
1
102
RTVSPropertyOp11
70
1
102
RTVSPropertyOp12
70
1
102
RTVSPropertyOp13
70
1
102
RTVSPropertyOp14
70
1
102
RTVSPropertyOp15
70
1
102
RTVSPropertyOp16
70
1
102
RTVSPropertyOp17
70
1
102
RTVSPropertyOp18
70
1
102
RTVSPropertyOp19
70
1
102
RTVSPropertyOp20
70
1
102
RTVSPropertyOp21
70
1
102
RTVSPropertyOp22
70
1
102
RTVSPropertyOp23
70
1
102
RTVSPropertyOp24
70
1
102
RTVSPropertyOp25
70
1
102
RTVSPropertyOp26
70
1
102
RTVSPropertyOp27
70
1
0
XRECORD
5
1097
102
{ACAD_REACTORS
330
1096
102
}
330
1096
100
AcDbXrecord
280
1
102
RTVSPropertyOp0
70
1
102
RTVSPropertyOp1
70
1
102
RTVSPropertyOp2
70
1
102
RTVSPropertyOp3
70
1
102
RTVSPropertyOp4
70
1
102
RTVSPropertyOp5
70
1
102
RTVSPropertyOp6
70
1
102
RTVSPropertyOp7
70
1
102
RTVSPropertyOp8
70
1
102
RTVSPropertyOp9
70
1
102
RTVSPropertyOp10
70
1
102
RTVSPropertyOp11
70
1
102
RTVSPropertyOp12
70
1
102
RTVSPropertyOp13
70
1
102
RTVSPropertyOp14
70
1
102
RTVSPropertyOp15
70
1
102
RTVSPropertyOp16
70
1
102
RTVSPropertyOp17
70
1
102
RTVSPropertyOp18
70
1
102
RTVSPropertyOp19
70
1
102
RTVSPropertyOp20
70
1
102
RTVSPropertyOp21
70
1
102
RTVSPropertyOp22
70
1
102
RTVSPropertyOp23
70
1
102
RTVSPropertyOp24
70
1
102
RTVSPropertyOp25
70
1
102
RTVSPropertyOp26
70
1
102
RTVSPropertyOp27
70
1
0
XRECORD
5
109F
102
{ACAD_REACTORS
330
109E
102
}
330
109E
100
AcDbXrecord
280
1
102
RTVSPropertyOp0
70
1
102
RTVSPropertyOp1
70
1
102
RTVSPropertyOp2
70
1
102
RTVSPropertyOp3
70
1
102
RTVSPropertyOp4
70
1
102
RTVSPropertyOp5
70
1
102
RTVSPropertyOp6
70
1
102
RTVSPropertyOp7
70
1
102
RTVSPropertyOp8
70
1
102
RTVSPropertyOp9
70
1
102
RTVSPropertyOp10
70
1
102
RTVSPropertyOp11
70
1
102
RTVSPropertyOp12
70
1
102
RTVSPropertyOp13
70
1
102
RTVSPropertyOp14
70
1
102
RTVSPropertyOp15
70
1
102
RTVSPropertyOp16
70
1
102
RTVSPropertyOp17
70
1
102
RTVSPropertyOp18
70
1
102
RTVSPropertyOp19
70
1
102
RTVSPropertyOp20
70
1
102
RTVSPropertyOp21
70
1
102
RTVSPropertyOp22
70
1
102
RTVSPropertyOp23
70
1
102
RTVSPropertyOp24
70
1
102
RTVSPropertyOp25
70
1
102
RTVSPropertyOp26
70
1
102
RTVSPropertyOp27
70
1
0
XRECORD
5
1091
102
{ACAD_REACTORS
330
1090
102
}
330
1090
100
AcDbXrecord
280
1
102
RTVSPropertyOp0
70
1
102
RTVSPropertyOp1
70
1
102
RTVSPropertyOp2
70
1
102
RTVSPropertyOp3
70
1
102
RTVSPropertyOp4
70
1
102
RTVSPropertyOp5
70
1
102
RTVSPropertyOp6
70
1
102
RTVSPropertyOp7
70
1
102
RTVSPropertyOp8
70
1
102
RTVSPropertyOp9
70
1
102
RTVSPropertyOp10
70
1
102
RTVSPropertyOp11
70
1
102
RTVSPropertyOp12
70
1
102
RTVSPropertyOp13
70
1
102
RTVSPropertyOp14
70
1
102
RTVSPropertyOp15
70
1
102
RTVSPropertyOp16
70
1
102
RTVSPropertyOp17
70
1
102
RTVSPropertyOp18
70
1
102
RTVSPropertyOp19
70
1
102
RTVSPropertyOp20
70
1
102
RTVSPropertyOp21
70
1
102
RTVSPropertyOp22
70
1
102
RTVSPropertyOp23
70
1
102
RTVSPropertyOp24
70
1
102
RTVSPropertyOp25
70
1
102
RTVSPropertyOp26
70
1
102
RTVSPropertyOp27
70
1
0
XRECORD
5
1095
102
{ACAD_REACTORS
330
1094
102
}
330
1094
100
AcDbXrecord
280
1
102
RTVSPropertyOp0
70
1
102
RTVSPropertyOp1
70
1
102
RTVSPropertyOp2
70
1
102
RTVSPropertyOp3
70
1
102
RTVSPropertyOp4
70
1
102
RTVSPropertyOp5
70
1
102
RTVSPropertyOp6
70
1
102
RTVSPropertyOp7
70
1
102
RTVSPropertyOp8
70
1
102
RTVSPropertyOp9
70
1
102
RTVSPropertyOp10
70
1
102
RTVSPropertyOp11
70
1
102
RTVSPropertyOp12
70
1
102
RTVSPropertyOp13
70
1
102
RTVSPropertyOp14
70
1
102
RTVSPropertyOp15
70
1
102
RTVSPropertyOp16
70
1
102
RTVSPropertyOp17
70
1
102
RTVSPropertyOp18
70
1
102
RTVSPropertyOp19
70
1
102
RTVSPropertyOp20
70
1
102
RTVSPropertyOp21
70
1
102
RTVSPropertyOp22
70
1
102
RTVSPropertyOp23
70
1
102
RTVSPropertyOp24
70
1
102
RTVSPropertyOp25
70
1
102
RTVSPropertyOp26
70
1
102
RTVSPropertyOp27
70
1
0
XRECORD
5
10A5
102
{ACAD_REACTORS
330
10A4
102
}
330
10A4
100
AcDbXrecord
280
1
102
RTVSPropertyOp0
70
0
102
RTVSPropertyOp1
70
0
102
RTVSPropertyOp2
70
0
102
RTVSPropertyOp3
70
0
102
RTVSPropertyOp4
70
0
102
RTVSPropertyOp5
70
0
102
RTVSPropertyOp6
70
0
102
RTVSPropertyOp7
70
0
102
RTVSPropertyOp8
70
0
102
RTVSPropertyOp9
70
0
102
RTVSPropertyOp10
70
0
102
RTVSPropertyOp11
70
0
102
RTVSPropertyOp12
70
0
102
RTVSPropertyOp13
70
0
102
RTVSPropertyOp14
70
2
102
RTVSPropertyOp15
70
0
102
RTVSPropertyOp16
70
0
102
RTVSPropertyOp17
70
0
102
RTVSPropertyOp18
70
0
102
RTVSPropertyOp19
70
0
102
RTVSPropertyOp20
70
0
102
RTVSPropertyOp21
70
0
102
RTVSPropertyOp22
70
0
102
RTVSPropertyOp23
70
0
102
RTVSPropertyOp24
70
0
102
RTVSPropertyOp25
70
0
102
RTVSPropertyOp26
70
0
102
RTVSPropertyOp27
70
0
0
XRECORD
5
109D
102
{ACAD_REACTORS
330
109C
102
}
330
109C
100
AcDbXrecord
280
1
102
RTVSPropertyOp0
70
1
102
RTVSPropertyOp1
70
1
102
RTVSPropertyOp2
70
1
102
RTVSPropertyOp3
70
1
102
RTVSPropertyOp4
70
1
102
RTVSPropertyOp5
70
1
102
RTVSPropertyOp6
70
1
102
RTVSPropertyOp7
70
1
102
RTVSPropertyOp8
70
1
102
RTVSPropertyOp9
70
1
102
RTVSPropertyOp10
70
1
102
RTVSPropertyOp11
70
1
102
RTVSPropertyOp12
70
1
102
RTVSPropertyOp13
70
1
102
RTVSPropertyOp14
70
1
102
RTVSPropertyOp15
70
1
102
RTVSPropertyOp16
70
1
102
RTVSPropertyOp17
70
1
102
RTVSPropertyOp18
70
1
102
RTVSPropertyOp19
70
1
102
RTVSPropertyOp20
70
1
102
RTVSPropertyOp21
70
1
102
RTVSPropertyOp22
70
1
102
RTVSPropertyOp23
70
1
102
RTVSPropertyOp24
70
1
102
RTVSPropertyOp25
70
1
102
RTVSPropertyOp26
70
1
102
RTVSPropertyOp27
70
1
0
XRECORD
5
1081
102
{ACAD_REACTORS
330
1080
102
}
330
1080
100
AcDbXrecord
280
1
102
RTVSPropertyOp0
70
1
102
RTVSPropertyOp1
70
1
102
RTVSPropertyOp2
70
1
102
RTVSPropertyOp3
70
1
102
RTVSPropertyOp4
70
1
102
RTVSPropertyOp5
70
1
102
RTVSPropertyOp6
70
1
102
RTVSPropertyOp7
70
1
102
RTVSPropertyOp8
70
1
102
RTVSPropertyOp9
70
1
102
RTVSPropertyOp10
70
1
102
RTVSPropertyOp11
70
1
102
RTVSPropertyOp12
70
1
102
RTVSPropertyOp13
70
1
102
RTVSPropertyOp14
70
1
102
RTVSPropertyOp15
70
1
102
RTVSPropertyOp16
70
1
102
RTVSPropertyOp17
70
1
102
RTVSPropertyOp18
70
1
102
RTVSPropertyOp19
70
1
102
RTVSPropertyOp20
70
1
102
RTVSPropertyOp21
70
1
102
RTVSPropertyOp22
70
1
102
RTVSPropertyOp23
70
1
102
RTVSPropertyOp24
70
1
102
RTVSPropertyOp25
70
1
102
RTVSPropertyOp26
70
1
102
RTVSPropertyOp27
70
1
0
XRECORD
5
1083
102
{ACAD_REACTORS
330
1082
102
}
330
1082
100
AcDbXrecord
280
1
102
RTVSPropertyOp0
70
1
102
RTVSPropertyOp1
70
1
102
RTVSPropertyOp2
70
1
102
RTVSPropertyOp3
70
1
102
RTVSPropertyOp4
70
1
102
RTVSPropertyOp5
70
1
102
RTVSPropertyOp6
70
1
102
RTVSPropertyOp7
70
1
102
RTVSPropertyOp8
70
1
102
RTVSPropertyOp9
70
1
102
RTVSPropertyOp10
70
1
102
RTVSPropertyOp11
70
1
102
RTVSPropertyOp12
70
1
102
RTVSPropertyOp13
70
1
102
RTVSPropertyOp14
70
1
102
RTVSPropertyOp15
70
1
102
RTVSPropertyOp16
70
1
102
RTVSPropertyOp17
70
1
102
RTVSPropertyOp18
70
1
102
RTVSPropertyOp19
70
1
102
RTVSPropertyOp20
70
1
102
RTVSPropertyOp21
70
1
102
RTVSPropertyOp22
70
1
102
RTVSPropertyOp23
70
1
102
RTVSPropertyOp24
70
1
102
RTVSPropertyOp25
70
1
102
RTVSPropertyOp26
70
1
102
RTVSPropertyOp27
70
1
0
XRECORD
5
1085
102
{ACAD_REACTORS
330
1084
102
}
330
1084
100
AcDbXrecord
280
1
102
RTVSPropertyOp0
70
1
102
RTVSPropertyOp1
70
1
102
RTVSPropertyOp2
70
1
102
RTVSPropertyOp3
70
1
102
RTVSPropertyOp4
70
1
102
RTVSPropertyOp5
70
1
102
RTVSPropertyOp6
70
1
102
RTVSPropertyOp7
70
1
102
RTVSPropertyOp8
70
1
102
RTVSPropertyOp9
70
1
102
RTVSPropertyOp10
70
1
102
RTVSPropertyOp11
70
1
102
RTVSPropertyOp12
70
1
102
RTVSPropertyOp13
70
1
102
RTVSPropertyOp14
70
1
102
RTVSPropertyOp15
70
1
102
RTVSPropertyOp16
70
1
102
RTVSPropertyOp17
70
1
102
RTVSPropertyOp18
70
1
102
RTVSPropertyOp19
70
1
102
RTVSPropertyOp20
70
1
102
RTVSPropertyOp21
70
1
102
RTVSPropertyOp22
70
1
102
RTVSPropertyOp23
70
1
102
RTVSPropertyOp24
70
1
102
RTVSPropertyOp25
70
1
102
RTVSPropertyOp26
70
1
102
RTVSPropertyOp27
70
1
0
XRECORD
5
1087
102
{ACAD_REACTORS
330
1086
102
}
330
1086
100
AcDbXrecord
280
1
102
RTVSPropertyOp0
70
1
102
RTVSPropertyOp1
70
1
102
RTVSPropertyOp2
70
1
102
RTVSPropertyOp3
70
1
102
RTVSPropertyOp4
70
1
102
RTVSPropertyOp5
70
1
102
RTVSPropertyOp6
70
1
102
RTVSPropertyOp7
70
1
102
RTVSPropertyOp8
70
1
102
RTVSPropertyOp9
70
1
102
RTVSPropertyOp10
70
1
102
RTVSPropertyOp11
70
1
102
RTVSPropertyOp12
70
1
102
RTVSPropertyOp13
70
1
102
RTVSPropertyOp14
70
1
102
RTVSPropertyOp15
70
1
102
RTVSPropertyOp16
70
1
102
RTVSPropertyOp17
70
1
102
RTVSPropertyOp18
70
1
102
RTVSPropertyOp19
70
1
102
RTVSPropertyOp20
70
1
102
RTVSPropertyOp21
70
1
102
RTVSPropertyOp22
70
1
102
RTVSPropertyOp23
70
1
102
RTVSPropertyOp24
70
1
102
RTVSPropertyOp25
70
1
102
RTVSPropertyOp26
70
1
102
RTVSPropertyOp27
70
1
0
XRECORD
5
10A1
102
{ACAD_REACTORS
330
10A0
102
}
330
10A0
100
AcDbXrecord
280
1
102
RTVSPropertyOp0
70
0
102
RTVSPropertyOp1
70
0
102
RTVSPropertyOp2
70
0
102
RTVSPropertyOp3
70
0
102
RTVSPropertyOp4
70
0
102
RTVSPropertyOp5
70
0
102
RTVSPropertyOp6
70
0
102
RTVSPropertyOp7
70
0
102
RTVSPropertyOp8
70
0
102
RTVSPropertyOp9
70
0
102
RTVSPropertyOp10
70
0
102
RTVSPropertyOp11
70
0
102
RTVSPropertyOp12
70
0
102
RTVSPropertyOp13
70
0
102
RTVSPropertyOp14
70
2
102
RTVSPropertyOp15
70
0
102
RTVSPropertyOp16
70
0
102
RTVSPropertyOp17
70
0
102
RTVSPropertyOp18
70
0
102
RTVSPropertyOp19
70
0
102
RTVSPropertyOp20
70
0
102
RTVSPropertyOp21
70
0
102
RTVSPropertyOp22
70
0
102
RTVSPropertyOp23
70
0
102
RTVSPropertyOp24
70
0
102
RTVSPropertyOp25
70
0
102
RTVSPropertyOp26
70
0
102
RTVSPropertyOp27
70
0
0
XRECORD
5
109B
102
{ACAD_REACTORS
330
109A
102
}
330
109A
100
AcDbXrecord
280
1
102
RTVSPropertyOp0
70
1
102
RTVSPropertyOp1
70
1
102
RTVSPropertyOp2
70
1
102
RTVSPropertyOp3
70
1
102
RTVSPropertyOp4
70
1
102
RTVSPropertyOp5
70
1
102
RTVSPropertyOp6
70
1
102
RTVSPropertyOp7
70
1
102
RTVSPropertyOp8
70
1
102
RTVSPropertyOp9
70
1
102
RTVSPropertyOp10
70
1
102
RTVSPropertyOp11
70
1
102
RTVSPropertyOp12
70
1
102
RTVSPropertyOp13
70
1
102
RTVSPropertyOp14
70
1
102
RTVSPropertyOp15
70
1
102
RTVSPropertyOp16
70
1
102
RTVSPropertyOp17
70
1
102
RTVSPropertyOp18
70
1
102
RTVSPropertyOp19
70
1
102
RTVSPropertyOp20
70
1
102
RTVSPropertyOp21
70
1
102
RTVSPropertyOp22
70
1
102
RTVSPropertyOp23
70
1
102
RTVSPropertyOp24
70
1
102
RTVSPropertyOp25
70
1
102
RTVSPropertyOp26
70
1
102
RTVSPropertyOp27
70
1
0
XRECORD
5
10A3
102
{ACAD_REACTORS
330
10A2
102
}
330
10A2
100
AcDbXrecord
280
1
102
RTVSPropertyOp0
70
0
102
RTVSPropertyOp1
70
0
102
RTVSPropertyOp2
70
0
102
RTVSPropertyOp3
70
0
102
RTVSPropertyOp4
70
0
102
RTVSPropertyOp5
70
0
102
RTVSPropertyOp6
70
0
102
RTVSPropertyOp7
70
0
102
RTVSPropertyOp8
70
0
102
RTVSPropertyOp9
70
0
102
RTVSPropertyOp10
70
0
102
RTVSPropertyOp11
70
0
102
RTVSPropertyOp12
70
0
102
RTVSPropertyOp13
70
0
102
RTVSPropertyOp14
70
2
102
RTVSPropertyOp15
70
0
102
RTVSPropertyOp16
70
0
102
RTVSPropertyOp17
70
0
102
RTVSPropertyOp18
70
0
102
RTVSPropertyOp19
70
0
102
RTVSPropertyOp20
70
0
102
RTVSPropertyOp21
70
0
102
RTVSPropertyOp22
70
0
102
RTVSPropertyOp23
70
0
102
RTVSPropertyOp24
70
0
102
RTVSPropertyOp25
70
0
102
RTVSPropertyOp26
70
0
102
RTVSPropertyOp27
70
0
0
XRECORD
5
1093
102
{ACAD_REACTORS
330
1092
102
}
330
1092
100
AcDbXrecord
280
1
102
RTVSPropertyOp0
70
1
102
RTVSPropertyOp1
70
1
102
RTVSPropertyOp2
70
1
102
RTVSPropertyOp3
70
1
102
RTVSPropertyOp4
70
1
102
RTVSPropertyOp5
70
1
102
RTVSPropertyOp6
70
1
102
RTVSPropertyOp7
70
1
102
RTVSPropertyOp8
70
1
102
RTVSPropertyOp9
70
1
102
RTVSPropertyOp10
70
1
102
RTVSPropertyOp11
70
1
102
RTVSPropertyOp12
70
1
102
RTVSPropertyOp13
70
1
102
RTVSPropertyOp14
70
1
102
RTVSPropertyOp15
70
1
102
RTVSPropertyOp16
70
1
102
RTVSPropertyOp17
70
1
102
RTVSPropertyOp18
70
1
102
RTVSPropertyOp19
70
1
102
RTVSPropertyOp20
70
1
102
RTVSPropertyOp21
70
1
102
RTVSPropertyOp22
70
1
102
RTVSPropertyOp23
70
1
102
RTVSPropertyOp24
70
1
102
RTVSPropertyOp25
70
1
102
RTVSPropertyOp26
70
1
102
RTVSPropertyOp27
70
1
0
XRECORD
5
1099
102
{ACAD_REACTORS
330
1098
102
}
330
1098
100
AcDbXrecord
280
1
102
RTVSPropertyOp0
70
1
102
RTVSPropertyOp1
70
1
102
RTVSPropertyOp2
70
1
102
RTVSPropertyOp3
70
1
102
RTVSPropertyOp4
70
1
102
RTVSPropertyOp5
70
1
102
RTVSPropertyOp6
70
1
102
RTVSPropertyOp7
70
1
102
RTVSPropertyOp8
70
1
102
RTVSPropertyOp9
70
1
102
RTVSPropertyOp10
70
1
102
RTVSPropertyOp11
70
1
102
RTVSPropertyOp12
70
1
102
RTVSPropertyOp13
70
1
102
RTVSPropertyOp14
70
1
102
RTVSPropertyOp15
70
1
102
RTVSPropertyOp16
70
1
102
RTVSPropertyOp17
70
1
102
RTVSPropertyOp18
70
1
102
RTVSPropertyOp19
70
1
102
RTVSPropertyOp20
70
1
102
RTVSPropertyOp21
70
1
102
RTVSPropertyOp22
70
1
102
RTVSPropertyOp23
70
1
102
RTVSPropertyOp24
70
1
102
RTVSPropertyOp25
70
1
102
RTVSPropertyOp26
70
1
102
RTVSPropertyOp27
70
1
0
ENDSEC
0
EOF
