0
SECTION
2
HEADER
9
$ACADVER
1
AC1015
9
$ACADMAINTVER
70
20
9
$DWGCODEPAGE
3
ANSI_1252
9
$INSBASE
10
0.0
20
0.0
30
0.0
9
$EXTMIN
10
-150.000000000000
20
-105.000000000000
30
0.0
9
$EXTMAX
10
150.000000000000
20
105.000000000000
30
0.0
9
$LIMMIN
10
0.0
20
0.0
9
$LIMMAX
10
12.0
20
9.0
9
$ORTHOMODE
70
0
9
$REGENMODE
70
1
9
$FILLMODE
70
1
9
$QTEXTMODE
70
0
9
$MIRRTEXT
70
1
9
$LTSCALE
40
1.0
9
$ATTMODE
70
1
9
$TEXTSIZE
40
0.2
9
$TRACEWID
40
0.05
9
$TEXTSTYLE
7
Standard
9
$CLAYER
8
0
9
$CELTYPE
6
ByLayer
9
$CECOLOR
62
256
9
$CELTSCALE
40
1.0
9
$DISPSILH
70
0
9
$DIMSCALE
40
1.0
9
$DIMASZ
40
2.5
9
$DIMEXO
40
0.625
9
$DIMDLI
40
0.38
9
$DIMRND
40
0.0
9
$DIMDLE
40
0.0
9
$DIMEXE
40
1.25
9
$DIMTP
40
0.0
9
$DIMTM
40
0.000000001
9
$DIMTXT
40
2.5
9
$DIMCEN
40
0.09
9
$DIMTSZ
40
0.0
9
$DIMTOL
70
1
9
$DIMLIM
70
0
9
$DIMTIH
70
0
9
$DIMTOH
70
0
9
$DIMSE1
70
0
9
$DIMSE2
70
0
9
$DIMTAD
70
1
9
$DIMZIN
70
0
9
$DIMBLK
1
VDDIM_DEFAULT
9
$DIMASO
70
1
9
$DIMSHO
70
1
9
$DIMPOST
1

9
$DIMAPOST
1

9
$DIMALT
70
0
9
$DIMALTD
70
2
9
$DIMALTF
40
25.4
9
$DIMLFAC
40
1.00000000000000
9
$DIMTOFL
70
0
9
$DIMTVP
40
0.0
9
$DIMTIX
70
0
9
$DIMSOXD
70
0
9
$DIMSAH
70
0
9
$DIMBLK1
1

9
$DIMBLK2
1

9
$DIMSTYLE
2
BEM-ISBE
9
$DIMCLRD
70
0
9
$DIMCLRE
70
0
9
$DIMCLRT
70
0
9
$DIMTFAC
40
0.5
9
$DIMGAP
40
0.625
9
$DIMJUST
70
0
9
$DIMSD1
70
0
9
$DIMSD2
70
0
9
$DIMTOLJ
70
1
9
$DIMTZIN
70
0
9
$DIMALTZ
70
0
9
$DIMALTTZ
70
0
9
$DIMUPT
70
0
9
$DIMDEC
70
3
9
$DIMTDEC
70
3
9
$DIMALTU
70
2
9
$DIMALTTD
70
2
9
$DIMTXSTY
7
Standard
9
$DIMAUNIT
70
0
9
$DIMADEC
70
3
9
$DIMALTRND
40
0.0
9
$DIMAZIN
70
0
9
$DIMDSEP
70
46
9
$DIMATFIT
70
3
9
$DIMFRAC
70
0
9
$DIMLDRBLK
1

9
$DIMLUNIT
70
2
9
$DIMLWD
70
-2
9
$DIMLWE
70
-2
9
$DIMTMOVE
70
0
9
$LUNITS
70
2
9
$LUPREC
70
4
9
$SKETCHINC
40
0.1
9
$FILLETRAD
40
0.5
9
$AUNITS
70
0
9
$AUPREC
70
0
9
$MENU
1
.
9
$ELEVATION
40
0.0
9
$PELEVATION
40
0.0
9
$THICKNESS
40
0.0
9
$LIMCHECK
70
0
9
$CHAMFERA
40
0.5
9
$CHAMFERB
40
0.5
9
$CHAMFERC
40
1.0
9
$CHAMFERD
40
0.0
9
$SKPOLY
70
0
9
$TDCREATE
40
0.0
9
$TDUCREATE
40
0.0
9
$TDUPDATE
40
0.0
9
$TDUUPDATE
40
0.0
9
$TDINDWG
40
0.0
9
$TDUSRTIMER
40
0.0
9
$USRTIMER
70
1
9
$ANGBASE
50
0.0
9
$ANGDIR
70
0
9
$PDMODE
70
0
9
$PDSIZE
40
0.0
9
$PLINEWID
40
0.0
9
$SPLFRAME
70
0
9
$SPLINETYPE
70
6
9
$SPLINESEGS
70
8
9
$HANDSEED
5
10AB
9
$SURFTAB1
70
6
9
$SURFTAB2
70
6
9
$SURFTYPE
70
6
9
$SURFU
70
6
9
$SURFV
70
6
9
$UCSBASE
2

9
$UCSNAME
2

9
$UCSORG
10
0.0
20
0.0
30
0.0
9
$UCSXDIR
10
1.0
20
0.0
30
0.0
9
$UCSYDIR
10
0.0
20
1.0
30
0.0
9
$UCSORTHOREF
2

9
$UCSORTHOVIEW
70
0
9
$UCSORGTOP
10
0.0
20
0.0
30
0.0
9
$UCSORGBOTTOM
10
0.0
20
0.0
30
0.0
9
$UCSORGLEFT
10
0.0
20
0.0
30
0.0
9
$UCSORGRIGHT
10
0.0
20
0.0
30
0.0
9
$UCSORGFRONT
10
0.0
20
0.0
30
0.0
9
$UCSORGBACK
10
0.0
20
0.0
30
0.0
9
$PUCSBASE
2

9
$PUCSNAME
2

9
$PUCSORG
10
0.0
20
0.0
30
0.0
9
$PUCSXDIR
10
1.0
20
0.0
30
0.0
9
$PUCSYDIR
10
0.0
20
1.0
30
0.0
9
$PUCSORTHOREF
2

9
$PUCSORTHOVIEW
70
0
9
$PUCSORGTOP
10
0.0
20
0.0
30
0.0
9
$PUCSORGBOTTOM
10
0.0
20
0.0
30
0.0
9
$PUCSORGLEFT
10
0.0
20
0.0
30
0.0
9
$PUCSORGRIGHT
10
0.0
20
0.0
30
0.0
9
$PUCSORGFRONT
10
0.0
20
0.0
30
0.0
9
$PUCSORGBACK
10
0.0
20
0.0
30
0.0
9
$USERI1
70
0
9
$USERI2
70
0
9
$USERI3
70
0
9
$USERI4
70
0
9
$USERI5
70
0
9
$USERR1
40
0.0
9
$USERR2
40
0.0
9
$USERR3
40
0.0
9
$USERR4
40
0.0
9
$USERR5
40
0.0
9
$WORLDVIEW
70
1
9
$SHADEDGE
70
3
9
$SHADEDIF
70
70
9
$TILEMODE
70
1
9
$MAXACTVP
70
64
9
$PINSBASE
10
0.0
20
0.0
30
0.0
9
$PLIMCHECK
70
0
9
$PEXTMIN
10
1.000000000000000E+20
20
1.000000000000000E+20
30
1.000000000000000E+20
9
$PEXTMAX
10
-1.000000000000000E+20
20
-1.000000000000000E+20
30
-1.000000000000000E+20
9
$PLIMMIN
10
0.0
20
0.0
9
$PLIMMAX
10
12.0
20
9.0
9
$UNITMODE
70
0
9
$VISRETAIN
70
1
9
$PLINEGEN
70
0
9
$PSLTSCALE
70
1
9
$TREEDEPTH
70
3020
9
$CMLSTYLE
2
Standard
9
$CMLJUST
70
0
9
$CMLSCALE
40
1.0
9
$PROXYGRAPHICS
70
1
9
$MEASUREMENT
70
0
9
$CELWEIGHT
370
-1
9
$ENDCAPS
280
0
9
$JOINSTYLE
280
0
9
$LWDISPLAY
290
0
9
$INSUNITS
70
4
9
$HYPERLINKBASE
1

9
$STYLESHEET
1

9
$XEDIT
290
1
9
$CEPSNTYPE
380
0
9
$PSTYLEMODE
290
0
9
$FINGERPRINTGUID
2
{FAEB1C30-E019-11D5-929B-00C0DF256EC4}
9
$VERSIONGUID
2
{04C5C4E4-4947-4D90-8812-D401569E61F7}
9
$EXTNAMES
290
1
9
$PSVPSCALE
40
0.0
9
$OLESTARTUP
290
0
0
ENDSEC
0
SECTION
2
CLASSES
0
CLASS
1
ACDBDICTIONARYWDFLT
2
AcDbDictionaryWithDefault
3
ObjectDBX Classes
90
0
280
0
281
0
0
CLASS
1
ACDBPLACEHOLDER
2
AcDbPlaceHolder
3
ObjectDBX Classes
90
0
280
0
281
0
0
CLASS
1
LAYOUT
2
AcDbLayout
3
ObjectDBX Classes
90
0
280
0
281
0
0
CLASS
1
MATERIAL
2
AcDbMaterial
3
ObjectDBX Classes
90
1153
280
0
281
0
0
CLASS
1
VISUALSTYLE
2
AcDbVisualStyle
3
ObjectDBX Classes
90
4095
280
0
281
0
0
CLASS
1
TABLESTYLE
2
AcDbTableStyle
3
ObjectDBX Classes
90
4095
280
0
281
0
0
CLASS
1
SCALE
2
AcDbScale
3
ObjectDBX Classes
90
1153
280
0
281
0
0
CLASS
1
MLEADERSTYLE
2
AcDbMLeaderStyle
3
ACDB_MLEADERSTYLE_CLASS
90
4095
280
0
281
0
0
CLASS
1
DICTIONARYVAR
2
AcDbDictionaryVar
3
ObjectDBX Classes
90
0
280
0
281
0
0
CLASS
1
CELLSTYLEMAP
2
AcDbCellStyleMap
3
ObjectDBX Classes
90
1152
280
0
281
0
0
ENDSEC
0
SECTION
2
TABLES
0
TABLE
2
VPORT
5
24A
330
0
100
AcDbSymbolTable
70
1
0
VPORT
5
26B
330
24A
100
AcDbSymbolTableRecord
100
AcDbViewportTableRecord
2
*Active
70
0
10
0.0
20
0.0
11
1.0
21
1.0
12
0.000000000000000
22
0.000000000000000
13
0.0
23
0.0
14
10.0
24
10.0
15
10.0
25
10.0
16
0.0
26
0.0
36
1.0
17
0.0
27
0.0
37
0.0
40
210.000000000000
41
1.42857142857143
42
1.0
43
0.0
44
0.0
50
0.0
51
0.0000000000007958
71
0
72
100
73
1
74
3
75
0
76
0
77
0
78
1
281
0
65
1
110
0.0
120
0.0
130
0.0
111
1.0
121
0.0
131
0.0
112
0.0
122
1.0
132
0.0
79
0
146
0.0
0
ENDTAB
0
TABLE
2
LTYPE
5
247
330
0
100
AcDbSymbolTable
70
25
0
LTYPE
5
256
330
247
100
AcDbSymbolTableRecord
100
AcDbLinetypeTableRecord
2
ByBlock
70
0
3

72
65
73
0
40
0.0
0
LTYPE
5
257
330
247
100
AcDbSymbolTableRecord
100
AcDbLinetypeTableRecord
2
ByLayer
70
0
3

72
65
73
0
40
0.0
0
LTYPE
5
258
330
247
100
AcDbSymbolTableRecord
100
AcDbLinetypeTableRecord
2
Continuous
70
0
3
Solid line
72
65
73
0
40
0.0
0
LTYPE
5
273
330
247
100
AcDbSymbolTableRecord
100
AcDbLinetypeTableRecord
2
CENTER
70
0
3
Center ____ _ ____ _ ____ _ ____ _ ____ _ ____
72
65
73
4
40
2.0
49
1.25
74
0
49
-0.25
74
0
49
0.25
74
0
49
-0.25
74
0
0
LTYPE
5
274
330
247
100
AcDbSymbolTableRecord
100
AcDbLinetypeTableRecord
2
DASHDOT
70
0
3
Dashdot __ . __ . __ . __ . __ . __ . __ . __
72
65
73
4
40
1.0
49
0.5
74
0
49
-0.25
74
0
49
0.0
74
0
49
-0.25
74
0
0
LTYPE
5
275
330
247
100
AcDbSymbolTableRecord
100
AcDbLinetypeTableRecord
2
DASHED
70
0
3
Dashed __ __ __ __ __ __ __ __ __ __ __ __ __ _
72
65
73
2
40
0.75
49
0.5
74
0
49
-0.25
74
0
0
LTYPE
5
276
330
247
100
AcDbSymbolTableRecord
100
AcDbLinetypeTableRecord
2
HIDDEN
70
0
3
Hidden __ __ __ __ __ __ __ __ __ __ __ __ __ __
72
65
73
2
40
0.375
49
0.25
74
0
49
-0.125
74
0
0
LTYPE
5
277
330
247
100
AcDbSymbolTableRecord
100
AcDbLinetypeTableRecord
2
HIDDEN2
70
0
3
Hidden2 _ _ _ _ _ _ _ _ _ _ _ _ _ _ _ _ _
72
65
73
2
40
0.1875
49
0.125
74
0
49
-0.0625
74
0
0
LTYPE
5
278
330
247
100
AcDbSymbolTableRecord
100
AcDbLinetypeTableRecord
2
BORDER
70
0
3
Border __ __ . __ __ . __ __ . __ __ . __ __ .
72
65
73
6
40
1.75
49
0.5
74
0
49
-0.25
74
0
49
0.5
74
0
49
-0.25
74
0
49
0.0
74
0
49
-0.25
74
0
0
LTYPE
5
279
330
247
100
AcDbSymbolTableRecord
100
AcDbLinetypeTableRecord
2
BORDER2
70
0
3
Border2 __.__.__.__.__.__.__.__.__.__.__.
72
65
73
6
40
0.875
49
0.25
74
0
49
-0.125
74
0
49
0.25
74
0
49
-0.125
74
0
49
0.0
74
0
49
-0.125
74
0
0
LTYPE
5
27A
330
247
100
AcDbSymbolTableRecord
100
AcDbLinetypeTableRecord
2
BORDERX2
70
0
3
Borderx2  ____  ____  .  ____  ____  .  ___
72
65
73
6
40
3.5
49
1.0
74
0
49
-0.5
74
0
49
1.0
74
0
49
-0.5
74
0
49
0.0
74
0
49
-0.5
74
0
0
LTYPE
5
27B
330
247
100
AcDbSymbolTableRecord
100
AcDbLinetypeTableRecord
2
CENTER2
70
0
3
Center2  ___ _ ___ _ ___ _ ___ _ ___ _ ___
72
65
73
4
40
1.125
49
0.75
74
0
49
-0.125
74
0
49
0.125
74
0
49
-0.125
74
0
0
LTYPE
5
27C
330
247
100
AcDbSymbolTableRecord
100
AcDbLinetypeTableRecord
2
CENTERX2
70
0
3
Centerx2  ________  __  ________  __  _____
72
65
73
4
40
4.0
49
2.5
74
0
49
-0.5
74
0
49
0.5
74
0
49
-0.5
74
0
0
LTYPE
5
27D
330
247
100
AcDbSymbolTableRecord
100
AcDbLinetypeTableRecord
2
DASHDOT2
70
0
3
Dashdot2  _._._._._._._._._._._._._._._.
72
65
73
4
40
0.5
49
0.25
74
0
49
-0.125
74
0
49
0.0
74
0
49
-0.125
74
0
0
LTYPE
5
27E
330
247
100
AcDbSymbolTableRecord
100
AcDbLinetypeTableRecord
2
DASHDOTX2
70
0
3
Dashdotx2 ____  .  ____  .  ____  .  ___
72
65
73
4
40
2.0
49
1.0
74
0
49
-0.5
74
0
49
0.0
74
0
49
-0.5
74
0
0
LTYPE
5
27F
330
247
100
AcDbSymbolTableRecord
100
AcDbLinetypeTableRecord
2
DASHED2
70
0
3
Dashed2 _ _ _ _ _ _ _ _ _ _ _ _ _ _ _ _ _
72
65
73
2
40
0.375
49
0.25
74
0
49
-0.125
74
0
0
LTYPE
5
280
330
247
100
AcDbSymbolTableRecord
100
AcDbLinetypeTableRecord
2
DASHEDX2
70
0
3
Dashedx2 ____  ____  ____  ____  ____  ___
72
65
73
2
40
1.5
49
1.0
74
0
49
-0.5
74
0
0
LTYPE
5
281
330
247
100
AcDbSymbolTableRecord
100
AcDbLinetypeTableRecord
2
DIVIDE
70
0
3
Divide ____ . . ____ . . ____ . . ____ . . ____
72
65
73
6
40
1.25
49
0.5
74
0
49
-0.25
74
0
49
0.0
74
0
49
-0.25
74
0
49
0.0
74
0
49
-0.25
74
0
0
LTYPE
5
282
330
247
100
AcDbSymbolTableRecord
100
AcDbLinetypeTableRecord
2
DIVIDE2
70
0
3
Divide2 __..__..__..__..__..__..__..__.._
72
65
73
6
40
0.625
49
0.25
74
0
49
-0.125
74
0
49
0.0
74
0
49
-0.125
74
0
49
0.0
74
0
49
-0.125
74
0
0
LTYPE
5
283
330
247
100
AcDbSymbolTableRecord
100
AcDbLinetypeTableRecord
2
DIVIDEX2
70
0
3
Dividex2 ________  .  .  ________  .  .  _
72
65
73
6
40
2.5
49
1.0
74
0
49
-0.5
74
0
49
0.0
74
0
49
-0.5
74
0
49
0.0
74
0
49
-0.5
74
0
0
LTYPE
5
284
330
247
100
AcDbSymbolTableRecord
100
AcDbLinetypeTableRecord
2
DOT
70
0
3
Dot . . . . . . . . . . . . . . . . . . . . . . . .
72
65
73
2
40
0.25
49
0.0
74
0
49
-0.25
74
0
0
LTYPE
5
285
330
247
100
AcDbSymbolTableRecord
100
AcDbLinetypeTableRecord
2
DOT2
70
0
3
Dot2 ........................................
72
65
73
2
40
0.125
49
0.0
74
0
49
-0.125
74
0
0
LTYPE
5
286
330
247
100
AcDbSymbolTableRecord
100
AcDbLinetypeTableRecord
2
DOTX2
70
0
3
Dotx2 .  .  .  .  .  .  .  .  .  .  .  .  .  .
72
65
73
2
40
0.5
49
0.0
74
0
49
-0.5
74
0
0
LTYPE
5
287
330
247
100
AcDbSymbolTableRecord
100
AcDbLinetypeTableRecord
2
HIDDENX2
70
0
3
Hiddenx2 ____ ____ ____ ____ ____ ____ ____
72
65
73
2
40
0.75
49
0.5
74
0
49
-0.25
74
0
0
LTYPE
5
288
330
247
100
AcDbSymbolTableRecord
100
AcDbLinetypeTableRecord
2
PHANTOM
70
0
3
Phantom ______  __  __  ______  __  __  ______
72
65
73
6
40
2.5
49
1.25
74
0
49
-0.25
74
0
49
0.25
74
0
49
-0.25
74
0
49
0.25
74
0
49
-0.25
74
0
0
LTYPE
5
289
330
247
100
AcDbSymbolTableRecord
100
AcDbLinetypeTableRecord
2
PHANTOM2
70
0
3
Phantom2 ___ _ _ ___ _ _ ___ _ _ ___ _ _
72
65
73
6
40
1.25
49
0.625
74
0
49
-0.125
74
0
49
0.125
74
0
49
-0.125
74
0
49
0.125
74
0
49
-0.125
74
0
0
LTYPE
5
28A
330
247
100
AcDbSymbolTableRecord
100
AcDbLinetypeTableRecord
2
PHANTOMX2
70
0
3
Phantomx2 ____________    ____    ____   _
72
65
73
6
40
5.0
49
2.5
74
0
49
-0.5
74
0
49
0.5
74
0
49
-0.5
74
0
49
0.5
74
0
49
-0.5
74
0
0
ENDTAB
0
TABLE
2
LAYER
5
244
330
0
100
AcDbSymbolTable
70
6
0
LAYER
5
252
330
244
100
AcDbSymbolTableRecord
100
AcDbLayerTableRecord
2
0
70
0
62
7
6
Continuous
370
0
390
251
0
LAYER
5
23F
330
244
100
AcDbSymbolTableRecord
100
AcDbLayerTableRecord
2
Bemassung
70
0
 62
   7
6
Continuous
370
0
390
251
0
LAYER
5
240
330
244
100
AcDbSymbolTableRecord
100
AcDbLayerTableRecord
2
Rahmen
70
0
 62
   7
6
Continuous
370
0
390
251
0
LAYER
5
241
330
244
100
AcDbSymbolTableRecord
100
AcDbLayerTableRecord
2
Geo
70
0
 62
   7
6
Continuous
370
0
390
251
0
LAYER
5
33A
330
244
100
AcDbSymbolTableRecord
100
AcDbLayerTableRecord
2
Defpoints
70
0
62
7
6
Continuous
290
0
370
-3
390
251
0
LAYER
5
57E
330
244
100
AcDbSymbolTableRecord
100
AcDbLayerTableRecord
2
Text
70
0
 62
   7
6
Continuous
370
0
390
251
1001
AcAecLayerStandard
1000

1000

0
ENDTAB
0
TABLE
2
STYLE
5
245
330
0
100
AcDbSymbolTable
70
2
0
STYLE
5
253
330
245
100
AcDbSymbolTableRecord
100
AcDbTextStyleTableRecord
2
Standard
70
0
40
0.0
41
1.0
50
0.0
71
0
42
0.2
3
Arial
4

1001
ACAD
1000
Arial
1071
0
0
STYLE
5
132
330
245
100
AcDbSymbolTableRecord
100
AcDbTextStyleTableRecord
2
Beschriftung
70
0
40
0.0
41
1.0
50
0.0
71
0
42
0.2
3
Arial
4

1001
ACAD
1000
Arial
1071
0
1001
AcadAnnotative
1000
AnnotativeData
1070
1
1070
1
0
ENDTAB
0
TABLE
2
VIEW
5
248
330
0
100
AcDbSymbolTable
70
0
0
ENDTAB
0
TABLE
2
UCS
5
249
330
0
100
AcDbSymbolTable
70
0
0
ENDTAB
0
TABLE
2
APPID
5
24B
330
0
100
AcDbSymbolTable
70
13
0
APPID
5
254
330
24B
100
AcDbSymbolTableRecord
100
AcDbRegAppTableRecord
2
ACAD
70
0
0
APPID
5
26C
330
24B
100
AcDbSymbolTableRecord
100
AcDbRegAppTableRecord
2
VD_INVISIBLE_NOT_FOR_READ
70
0
0
APPID
5
26D
330
24B
100
AcDbSymbolTableRecord
100
AcDbRegAppTableRecord
2
VD_TEMPHATCH
70
0
0
APPID
5
26E
330
24B
100
AcDbSymbolTableRecord
100
AcDbRegAppTableRecord
2
VDEXTRAPARAM
70
0
0
APPID
5
26F
330
24B
100
AcDbSymbolTableRecord
100
AcDbRegAppTableRecord
2
PE_URL
70
0
0
APPID
5
270
330
24B
100
AcDbSymbolTableRecord
100
AcDbRegAppTableRecord
2
VD_UNKNOWN
70
0
0
APPID
5
28F
330
24B
100
AcDbSymbolTableRecord
100
AcDbRegAppTableRecord
2
AcadAnnotative
70
0
0
APPID
5
290
330
24B
100
AcDbSymbolTableRecord
100
AcDbRegAppTableRecord
2
ACAD_DSTYLE_DIMJAG
70
0
0
APPID
5
291
330
24B
100
AcDbSymbolTableRecord
100
AcDbRegAppTableRecord
2
ACAD_DSTYLE_DIMTALN
70
0
0
APPID
5
293
330
24B
100
AcDbSymbolTableRecord
100
AcDbRegAppTableRecord
2
ACAD_PSEXT
70
0
0
APPID
5
42A
330
24B
100
AcDbSymbolTableRecord
100
AcDbRegAppTableRecord
2
ACAD_MLEADERVER
70
0
0
APPID
5
532
330
24B
100
AcDbSymbolTableRecord
100
AcDbRegAppTableRecord
2
ACAD_EXEMPT_FROM_CAD_STANDARDS
70
0
0
APPID
5
57F
330
24B
100
AcDbSymbolTableRecord
100
AcDbRegAppTableRecord
2
AcAecLayerStandard
70
0
0
ENDTAB
0
TABLE
2
DIMSTYLE
5
24C
330
0
100
AcDbSymbolTable
70
3
100
AcDbDimStyleTable
71
2
340
27
340
269
0
DIMSTYLE
105
269
330
24C
100
AcDbSymbolTableRecord
100
AcDbDimStyleTableRecord
2
Standard
70
0
172
1
174
1
288
1
340
253
342
23C
0
DIMSTYLE
105
137
330
24C
100
AcDbSymbolTableRecord
100
AcDbDimStyleTableRecord
2
Beschriftung
70
0
41
2.5
42
0.625
44
1.25
73
0
74
0
77
1
140
2.5
147
0.625
172
1
174
1
271
2
288
1
340
253
342
23C
1001
AcadAnnotative
1000
AnnotativeData
1070
1
1070
1
1001
ACAD_DSTYLE_DIMJAG
1070
388
1040
1.5
1001
ACAD_DSTYLE_DIMTALN
1070
392
1070
0
0
DIMSTYLE
105
27
102
{ACAD_REACTORS
330
F10012
330
F10017
330
F10008
330
F10003
330
F1000D
102
}
330
24C
100
AcDbSymbolTableRecord
100
AcDbDimStyleTableRecord
2
BEM-ISBE
70
0
41
2.5
42
0.625
44
1.25
48
0.000000001
71
1
73
0
74
0
77
1
140
2.5
144
1.00000000000000
146
0.5
147
0.625
171
 3
172
 1
179
 3
271
 3
272
 3
274
 3
340
253
342
23C
1001
ACAD_DSTYLE_DIMJAG
1070
388
1040
1.5
1001
ACAD_DSTYLE_DIMTALN
1070
392
1070
1
0
ENDTAB
0
TABLE
2
BLOCK_RECORD
5
243
330
0
100
AcDbSymbolTable
70
5
0
BLOCK_RECORD
5
261
330
243
100
AcDbSymbolTableRecord
100
AcDbBlockTableRecord
2
*Model_Space
340
FD0
0
BLOCK_RECORD
5
25D
330
243
100
AcDbSymbolTableRecord
100
AcDbBlockTableRecord
2
*Paper_Space
340
FD1
0
BLOCK_RECORD
5
265
330
243
100
AcDbSymbolTableRecord
100
AcDbBlockTableRecord
2
*Paper_Space0
340
0
0
BLOCK_RECORD
5
23C
330
243
100
AcDbSymbolTableRecord
100
AcDbBlockTableRecord
2
VDDIM_DEFAULT
340
0
102
{BLKREFS
102
}
0
BLOCK_RECORD
5
23E
330
243
100
AcDbSymbolTableRecord
100
AcDbBlockTableRecord
2
VDDIM_NONE
340
0
0
BLOCK_RECORD
5
F10011
330
243
100
AcDbSymbolTableRecord
100
AcDbBlockTableRecord
2
*D6
340
0
0
BLOCK_RECORD
5
F10016
330
243
100
AcDbSymbolTableRecord
100
AcDbBlockTableRecord
2
*D7
340
0
0
BLOCK_RECORD
5
F10007
330
243
100
AcDbSymbolTableRecord
100
AcDbBlockTableRecord
2
*D4
340
0
0
BLOCK_RECORD
5
F10002
330
243
100
AcDbSymbolTableRecord
100
AcDbBlockTableRecord
2
*D3
340
0
0
BLOCK_RECORD
5
F1000C
330
243
100
AcDbSymbolTableRecord
100
AcDbBlockTableRecord
2
*D5
340
0
0
ENDTAB
0
ENDSEC
0
SECTION
2
BLOCKS
0
BLOCK
5
262
330
261
100
AcDbEntity
8
0
100
AcDbBlockBegin
2
*Model_Space
70
0
10
0.0
20
0.0
30
0.0
3
*Model_Space
1

0
ENDBLK
5
263
330
261
100
AcDbEntity
8
0
100
AcDbBlockEnd
0
BLOCK
5
25E
330
25D
100
AcDbEntity
67
1
8
0
100
AcDbBlockBegin
2
*Paper_Space
70
0
10
0.0
20
0.0
30
0.0
3
*Paper_Space
1

0
ENDBLK
5
25F
330
25D
100
AcDbEntity
67
1
8
0
100
AcDbBlockEnd
0
BLOCK
5
266
330
265
100
AcDbEntity
8
0
100
AcDbBlockBegin
2
*Paper_Space0
70
0
10
0.0
20
0.0
30
0.0
3
*Paper_Space0
1

0
VIEWPORT
5
296
102
{ACAD_XDICTIONARY
360
58E
102
}
330
265
100
AcDbEntity
8
0
60
1
100
AcDbViewport
10
0.0
20
0.0
30
0.0
40
10.0
41
10.0
69
0
12
0.0
22
0.0
13
0.0
23
0.0
14
1.0
24
1.0
15
0.0
25
0.0
16
0.0
26
0.0
36
1.0
17
0.0
27
0.0
37
0.0
42
0.0
43
0.0
44
0.0
45
10.0
50
0.0
51
0.0000000000007958
72
100
90
163872
1

281
0
71
0
74
0
110
0.0
120
0.0
130
0.0
111
1.0
121
0.0
131
0.0
112
0.0
122
1.0
132
0.0
79
0
146
0.0
1001
VD_INVISIBLE_NOT_FOR_READ
1000
VD_INVISIBLE_NOT_FOR_READ
0
VIEWPORT
5
297
102
{ACAD_XDICTIONARY
360
590
102
}
330
265
100
AcDbEntity
8
0
60
1
100
AcDbViewport
10
0.0
20
0.0
30
0.0
40
10.0
41
10.0
69
0
12
0.0
22
0.0
13
0.0
23
0.0
14
1.0
24
1.0
15
0.0
25
0.0
16
0.0
26
0.0
36
1.0
17
0.0
27
0.0
37
0.0
42
0.0
43
0.0
44
0.0
45
10.0
50
0.0
51
0.0000000000007958
72
100
90
163872
1

281
0
71
0
74
0
110
0.0
120
0.0
130
0.0
111
1.0
121
0.0
131
0.0
112
0.0
122
1.0
132
0.0
79
0
146
0.0
1001
VD_INVISIBLE_NOT_FOR_READ
1000
VD_INVISIBLE_NOT_FOR_READ
0
ENDBLK
5
267
330
265
100
AcDbEntity
8
0
100
AcDbBlockEnd
0
BLOCK
5
28B
330
23C
100
AcDbEntity
8
0
100
AcDbBlockBegin
2
VDDIM_DEFAULT
70
0
10
0.0
20
0.0
30
0.0
3
VDDIM_DEFAULT
1

0
LWPOLYLINE
5
23D
330
23C
100
AcDbEntity
8
0
6
Continuous
62
0
100
AcDbPolyline
90
4
70
0
43
0.0
10
0.0
20
0.0
10
-1.0
20
-0.1665
10
-1.0
20
0.1665
10
0.0
20
0.0
1001
VDEXTRAPARAM
1071
1
1071
0
1071
0
1040
1.0
1000

1000

1040
0.0
1040
0.0
0
HATCH
5
292
330
23C
100
AcDbEntity
8
0
6
Continuous
62
0
100
AcDbHatch
10
0.0
20
0.0
30
0.0
210
0.0
220
0.0
230
1.0
2
SOLID
70
1
71
0
91
1
92
2
72
0
73
1
93
3
10
0.0
20
0.0
10
-1.0
20
-0.1665
10
-1.0
20
0.1665
97
0
75
0
76
1
98
1
10
0.0
20
0.0
1001
VDEXTRAPARAM
1071
1
1071
0
1071
0
1040
1.0
1000

1000

1040
0.0
1040
0.0
1001
VD_TEMPHATCH
1000
VD_TEMPHATCH
0
ENDBLK
5
28C
330
23C
100
AcDbEntity
8
0
100
AcDbBlockEnd
0
BLOCK
5
28D
330
23E
100
AcDbEntity
8
0
100
AcDbBlockBegin
2
VDDIM_NONE
70
0
10
0.0
20
0.0
30
0.0
3
VDDIM_NONE
1

0
ENDBLK
5
28E
330
23E
100
AcDbEntity
8
0
100
AcDbBlockEnd
  0
BLOCK
  5
F1001B
330
F10011
100
AcDbEntity
  8
0
100
AcDbBlockBegin
  2
*D6
 70
     1
 10
0.0
 20
0.0
 30
0.0
  3
*D6
  1

  0
LINE
  5
F1001C
330
F10011
100
AcDbEntity
  8
Bemassung
 62
     0
370
    -2
100
AcDbLine
10
-19.0377276669558
20
4.93148308759756
30
0.000000000000000
11
-19.0377276669558
21
-5.06851691240244
31
0.000000000000000
  0
LINE
  5
F1001D
330
F10011
100
AcDbEntity
  8
Bemassung
 62
     0
370
    -2
100
AcDbLine
10
-39.0377276669558
20
-5.06851691240244
30
0.000000000000000
11
-39.0377276669558
21
32.9314830875976
31
0.000000000000000
  0
LINE
  5
F1001E
330
F10011
100
AcDbEntity
  8
Bemassung
 62
     0
370
    -2
100
AcDbLine
10
-19.0377276669558
20
-3.06851691240244
30
0.000000000000000
11
-39.0377276669558
21
-3.06851691240244
31
0.000000000000000
  0
INSERT
  5
F1001F
330
F10011
100
AcDbEntity
  8
Bemassung
 62
     0
370
    -2
100
AcDbBlockReference
  2
VDDIM_DEFAULT
10
-19.0377276669558
20
-3.06851691240244
30
0.000000000000000
 41
2.50000000000000
 42
2.50000000000000
 43
2.50000000000000
  0
INSERT
  5
F10020
330
F10011
100
AcDbEntity
  8
Bemassung
 62
     0
370
    -2
100
AcDbBlockReference
  2
VDDIM_DEFAULT
10
-39.0377276669558
20
-3.06851691240244
30
0.000000000000000
 41
2.50000000000000
 42
2.50000000000000
 43
2.50000000000000
 50
180.000000000000
  0
MTEXT
  5
F10021
330
F10011
100
AcDbEntity
  8
Bemassung
 62
     0
100
AcDbMText
10
-27.1448395490026
20
-2.40185024573578
30
0.000000000000000
 40
2.50000000000000
 41
0.0
 71
     8
 72
     1
  1
20
 11
1.00000000000000
 21
0.000000000000000
 31
0.0
 73
     1
 44
1.0
1001
ACAD
1000
MTEXTBEGIN
1070
73
1070
1
1070
44
1040
1.0
1070
74
1070
0
1000
MTEXTEND
  0
POINT
  5
F10022
330
F10011
100
AcDbEntity
  8
Bemassung
 62
     0
100
AcDbPoint
10
-19.0377276669558
20
4.93148308759756
30
0.000000000000000
  0
POINT
  5
F10023
330
F10011
100
AcDbEntity
  8
Bemassung
 62
     0
100
AcDbPoint
10
-39.0377276669558
20
-5.06851691240244
30
0.000000000000000
  0
ENDBLK
  5
F10024
330
F10011
100
AcDbEntity
  8
0
100
AcDbBlockEnd
  0
BLOCK
  5
F10025
330
F10016
100
AcDbEntity
  8
0
100
AcDbBlockBegin
  2
*D7
 70
     1
 10
0.0
 20
0.0
 30
0.0
  3
*D7
  1

  0
LINE
  5
F10026
330
F10016
100
AcDbEntity
  8
Bemassung
 62
     0
370
    -2
100
AcDbLine
10
43.9622723330442
20
20.4314830875976
30
0.000000000000000
11
43.9622723330442
21
32.9314830875976
31
0.000000000000000
  0
LINE
  5
F10027
330
F10016
100
AcDbEntity
  8
Bemassung
 62
     0
370
    -2
100
AcDbLine
10
-39.0377276669558
20
-5.06851691240244
30
0.000000000000000
11
-39.0377276669558
21
32.9314830875976
31
0.000000000000000
  0
LINE
  5
F10028
330
F10016
100
AcDbEntity
  8
Bemassung
 62
     0
370
    -2
100
AcDbLine
10
43.9622723330442
20
30.9314830875976
30
0.000000000000000
11
-39.0377276669558
21
30.9314830875976
31
0.000000000000000
  0
INSERT
  5
F10029
330
F10016
100
AcDbEntity
  8
Bemassung
 62
     0
370
    -2
100
AcDbBlockReference
  2
VDDIM_DEFAULT
10
43.9622723330442
20
30.9314830875976
30
0.000000000000000
 41
2.50000000000000
 42
2.50000000000000
 43
2.50000000000000
  0
INSERT
  5
F1002A
330
F10016
100
AcDbEntity
  8
Bemassung
 62
     0
370
    -2
100
AcDbBlockReference
  2
VDDIM_DEFAULT
10
-39.0377276669558
20
30.9314830875976
30
0.000000000000000
 41
2.50000000000000
 42
2.50000000000000
 43
2.50000000000000
 50
180.000000000000
  0
MTEXT
  5
F1002B
330
F10016
100
AcDbEntity
  8
Bemassung
 62
     0
100
AcDbMText
10
2.46227233304424
20
31.5981497542642
30
0.000000000000000
 40
2.50000000000000
 41
0.0
 71
     8
 72
     1
  1
83
 11
1.00000000000000
 21
0.000000000000000
 31
0.0
 73
     1
 44
1.0
1001
ACAD
1000
MTEXTBEGIN
1070
73
1070
1
1070
44
1040
1.0
1070
74
1070
0
1000
MTEXTEND
  0
POINT
  5
F1002C
330
F10016
100
AcDbEntity
  8
Bemassung
 62
     0
100
AcDbPoint
10
43.9622723330442
20
20.4314830875976
30
0.000000000000000
  0
POINT
  5
F1002D
330
F10016
100
AcDbEntity
  8
Bemassung
 62
     0
100
AcDbPoint
10
-39.0377276669558
20
-5.06851691240244
30
0.000000000000000
  0
ENDBLK
  5
F1002E
330
F10016
100
AcDbEntity
  8
0
100
AcDbBlockEnd
  0
BLOCK
  5
F1002F
330
F10007
100
AcDbEntity
  8
0
100
AcDbBlockBegin
  2
*D4
 70
     1
 10
0.0
 20
0.0
 30
0.0
  3
*D4
  1

  0
LINE
  5
F10030
330
F10007
100
AcDbEntity
  8
Bemassung
 62
     0
370
    -2
100
AcDbLine
10
-36.6945819164481
20
18.5883373370899
30
0.000000000000000
11
-45.4343018213357
21
27.3280572419775
31
0.000000000000000
  0
INSERT
  5
F10031
330
F10007
100
AcDbEntity
  8
Bemassung
 62
     0
370
    -2
100
AcDbBlockReference
  2
VDDIM_DEFAULT
10
-36.6945819164481
20
18.5883373370899
30
0.000000000000000
 41
2.50000000000000
 42
2.50000000000000
 43
2.50000000000000
 50
315.000000000000
  0
MTEXT
  5
F10032
330
F10007
100
AcDbEntity
  8
Bemassung
 62
     0
100
AcDbMText
10
-43.7656497283136
20
25.6594051489554
30
0.000000000000000
 40
2.50000000000000
 41
0.0
 71
     8
 72
     1
  1
R8
 11
0.707106781186547
 21
-0.707106781186548
 31
0.0
 73
     1
 44
1.0
1001
ACAD
1000
MTEXTBEGIN
1070
73
1070
1
1070
44
1040
1.0
1070
74
1070
0
1000
MTEXTEND
  0
POINT
  5
F10033
330
F10007
100
AcDbEntity
  8
Bemassung
 62
     0
100
AcDbPoint
10
-36.6945819164481
20
18.5883373370899
30
0.000000000000000
  0
POINT
  5
F10034
330
F10007
100
AcDbEntity
  8
Bemassung
 62
     0
100
AcDbPoint
10
-31.0377276669558
20
12.9314830875976
30
0.000000000000000
  0
ENDBLK
  5
F10035
330
F10007
100
AcDbEntity
  8
0
100
AcDbBlockEnd
  0
BLOCK
  5
F10036
330
F10002
100
AcDbEntity
  8
0
100
AcDbBlockBegin
  2
*D3
 70
     1
 10
0.0
 20
0.0
 30
0.0
  3
*D3
  1

  0
LINE
  5
F10037
330
F10002
100
AcDbEntity
  8
Bemassung
 62
     0
370
    -2
100
AcDbLine
10
-31.0377276669558
20
4.93148308759756
30
0.000000000000000
11
-51.0377276669558
21
4.93148308759756
31
0.000000000000000
  0
LINE
  5
F10038
330
F10002
100
AcDbEntity
  8
Bemassung
 62
     0
370
    -2
100
AcDbLine
10
-31.0377276669558
20
20.9314830875976
30
0.000000000000000
11
-51.0377276669558
21
20.9314830875976
31
0.000000000000000
  0
LINE
  5
F10039
330
F10002
100
AcDbEntity
  8
Bemassung
 62
     0
370
    -2
100
AcDbLine
10
-49.0377276669558
20
4.93148308759756
30
0.000000000000000
11
-49.0377276669558
21
20.9314830875976
31
0.000000000000000
  0
INSERT
  5
F1003A
330
F10002
100
AcDbEntity
  8
Bemassung
 62
     0
370
    -2
100
AcDbBlockReference
  2
VDDIM_DEFAULT
10
-49.0377276669558
20
4.93148308759756
30
0.000000000000000
 41
2.50000000000000
 42
2.50000000000000
 43
2.50000000000000
 50
270.000000000000
  0
INSERT
  5
F1003B
330
F10002
100
AcDbEntity
  8
Bemassung
 62
     0
370
    -2
100
AcDbBlockReference
  2
VDDIM_DEFAULT
10
-49.0377276669558
20
20.9314830875976
30
0.000000000000000
 41
2.50000000000000
 42
2.50000000000000
 43
2.50000000000000
 50
90.0000000000000
  0
MTEXT
  5
F1003C
330
F10002
100
AcDbEntity
  8
Bemassung
 62
     0
100
AcDbMText
10
-49.7043943336224
20
12.9314830875976
30
0.000000000000000
 40
2.50000000000000
 41
0.0
 71
     8
 72
     1
  1
Ø16
 11
6.12323399573677e-17
 21
1.00000000000000
 31
0.0
 73
     1
 44
1.0
1001
ACAD
1000
MTEXTBEGIN
1070
73
1070
1
1070
44
1040
1.0
1070
74
1070
0
1000
MTEXTEND
  0
POINT
  5
F1003D
330
F10002
100
AcDbEntity
  8
Bemassung
 62
     0
100
AcDbPoint
10
-31.0377276669558
20
4.93148308759756
30
0.000000000000000
  0
POINT
  5
F1003E
330
F10002
100
AcDbEntity
  8
Bemassung
 62
     0
100
AcDbPoint
10
-31.0377276669558
20
20.9314830875976
30
0.000000000000000
  0
ENDBLK
  5
F1003F
330
F10002
100
AcDbEntity
  8
0
100
AcDbBlockEnd
  0
BLOCK
  5
F10040
330
F1000C
100
AcDbEntity
  8
0
100
AcDbBlockBegin
  2
*D5
 70
     1
 10
0.0
 20
0.0
 30
0.0
  3
*D5
  1

  0
LINE
  5
F10041
330
F1000C
100
AcDbEntity
  8
Bemassung
 62
     0
370
    -2
100
AcDbLine
10
43.4622723330442
20
4.93148308759756
30
0.000000000000000
11
55.9622723330442
21
4.93148308759756
31
0.000000000000000
  0
LINE
  5
F10042
330
F1000C
100
AcDbEntity
  8
Bemassung
 62
     0
370
    -2
100
AcDbLine
10
43.4622723330442
20
20.9314830875976
30
0.000000000000000
11
55.9622723330442
21
20.9314830875976
31
0.000000000000000
  0
LINE
  5
F10043
330
F1000C
100
AcDbEntity
  8
Bemassung
 62
     0
370
    -2
100
AcDbLine
10
53.9622723330442
20
4.93148308759756
30
0.000000000000000
11
53.9622723330442
21
20.9314830875976
31
0.000000000000000
  0
INSERT
  5
F10044
330
F1000C
100
AcDbEntity
  8
Bemassung
 62
     0
370
    -2
100
AcDbBlockReference
  2
VDDIM_DEFAULT
10
53.9622723330442
20
4.93148308759756
30
0.000000000000000
 41
2.50000000000000
 42
2.50000000000000
 43
2.50000000000000
 50
270.000000000000
  0
INSERT
  5
F10045
330
F1000C
100
AcDbEntity
  8
Bemassung
 62
     0
370
    -2
100
AcDbBlockReference
  2
VDDIM_DEFAULT
10
53.9622723330442
20
20.9314830875976
30
0.000000000000000
 41
2.50000000000000
 42
2.50000000000000
 43
2.50000000000000
 50
90.0000000000000
  0
MTEXT
  5
F10046
330
F1000C
100
AcDbEntity
  8
Bemassung
 62
     0
100
AcDbMText
10
53.2956056663776
20
12.9314830875976
30
0.000000000000000
 40
2.50000000000000
 41
0.0
 71
     8
 72
     1
  1
Ø16h6
 11
6.12323399573677e-17
 21
1.00000000000000
 31
0.0
 73
     1
 44
1.0
  0
POINT
  5
F10047
330
F1000C
100
AcDbEntity
  8
Bemassung
 62
     0
100
AcDbPoint
10
43.4622723330442
20
4.93148308759756
30
0.000000000000000
  0
POINT
  5
F10048
330
F1000C
100
AcDbEntity
  8
Bemassung
 62
     0
100
AcDbPoint
10
43.4622723330442
20
20.9314830875976
30
0.000000000000000
  0
ENDBLK
  5
F10049
330
F1000C
100
AcDbEntity
  8
0
100
AcDbBlockEnd
0
ENDSEC
0
SECTION
2
ENTITIES
  0
DIMENSION
  5
F10012
330
261
100
AcDbEntity
  8
Bemassung
100
AcDbDimension
  2
*D6
10
-39.0377276669558
20
-3.06851691240244
30
0.000000000000000
11
-27.1448395490026
21
-2.40185024573578
31
0.000000000000000
 70
32
 1
20
 71
     8
  3
BEM-ISBE
100
AcDbAlignedDimension
13
-19.0377276669558
23
4.93148308759756
33
0.000000000000000
14
-39.0377276669558
24
-5.06851691240244
34
0.000000000000000
100
AcDbRotatedDimension
1001
ACAD
1000
DSTYLE
1002
{
1070
284
1070
8
1070
78
1070
8
1070
144
1040
1.00000000000000
1070
147
1040
0.625
1070
 72
1070
 0
1070
 71
1070
 0
1002
}
  0
DIMENSION
  5
F10017
330
261
100
AcDbEntity
  8
Bemassung
100
AcDbDimension
  2
*D7
10
-39.0377276669558
20
30.9314830875976
30
0.000000000000000
11
2.46227233304424
21
31.5981497542642
31
0.000000000000000
 70
32
 1
83
 71
     8
  3
BEM-ISBE
100
AcDbAlignedDimension
13
43.9622723330442
23
20.4314830875976
33
0.000000000000000
14
-39.0377276669558
24
-5.06851691240244
34
0.000000000000000
100
AcDbRotatedDimension
1001
ACAD
1000
DSTYLE
1002
{
1070
284
1070
8
1070
78
1070
8
1070
144
1040
1.00000000000000
1070
147
1040
0.625
1070
 72
1070
 0
1070
 71
1070
 0
1002
}
  0
DIMENSION
  5
F10008
330
261
100
AcDbEntity
  8
Bemassung
100
AcDbDimension
  2
*D4
10
-31.0377276669558
20
12.9314830875976
30
0.000000000000000
11
-43.7656497283136
21
25.6594051489554
31
0.000000000000000
 70
164
 1
R8
 71
     8
  3
BEM-ISBE
100
AcDbRadialDimension
15
-36.6945819164481
25
18.5883373370899
35
0.000000000000000
40
0.0
1001
ACAD
1000
DSTYLE
1002
{
1070
284
1070
8
1070
78
1070
8
1070
144
1040
1.00000000000000
1070
147
1040
0.625
1070
 72
1070
 0
1070
 71
1070
 0
1002
}
  0
DIMENSION
  5
F10003
330
261
100
AcDbEntity
  8
Bemassung
100
AcDbDimension
  2
*D3
10
-49.0377276669558
20
20.9314830875976
30
0.000000000000000
11
-49.7043943336224
21
12.9314830875976
31
0.000000000000000
 70
32
 1
Ø16
 71
     8
  3
BEM-ISBE
100
AcDbAlignedDimension
13
-31.0377276669558
23
4.93148308759756
33
0.000000000000000
14
-31.0377276669558
24
20.9314830875976
34
0.000000000000000
50
90.0000000000000
100
AcDbRotatedDimension
1001
ACAD
1000
DSTYLE
1002
{
1070
284
1070
8
1070
78
1070
8
1070
144
1040
1.00000000000000
1070
147
1040
0.625
1070
 72
1070
 0
1070
 71
1070
 0
1002
}
  0
DIMENSION
  5
F1000D
330
261
100
AcDbEntity
  8
Bemassung
100
AcDbDimension
  2
*D5
10
53.9622723330442
20
20.9314830875976
30
0.000000000000000
11
53.2956056663776
21
12.9314830875976
31
0.000000000000000
 70
32
 1
Ø16h6
 71
     8
  3
BEM-ISBE
100
AcDbAlignedDimension
13
43.4622723330442
23
4.93148308759756
33
0.000000000000000
14
43.4622723330442
24
20.9314830875976
34
0.000000000000000
50
90.0000000000000
100
AcDbRotatedDimension
1001
ACAD
1000
DSTYLE
1002
{
1070
284
1070
8
1070
78
1070
8
1070
144
1040
1.00000000000000
1070
147
1040
0.625
1070
 72
1070
 0
1070
 71
1070
 0
1002
}
  0
ARC
  5
F1004A
330
F1004B
100
AcDbEntity
8
Geo
100
AcDbCircle
10
-31.0377276669558
20
12.9314830875976
30
0.000000000000000
 40
8.00000000000000
100
AcDbArc
 50
90.0000000000000
 51
180.000000000000
  0
LINE
  5
F1004C
330
F1004D
100
AcDbEntity
8
Geo
100
AcDbLine
10
-31.0377276669558
20
20.9314830875976
30
0.000000000000000
11
-19.0377276669558
21
20.9314830875976
31
0.000000000000000
  0
LINE
  5
F1004E
330
F1004F
100
AcDbEntity
8
Geo
100
AcDbLine
10
-19.0377276669558
20
20.9314830875976
30
0.000000000000000
11
43.4622723330442
21
20.9314830875976
31
0.000000000000000
  0
LINE
  5
F10050
330
F10051
100
AcDbEntity
8
Geo
100
AcDbLine
10
43.4622723330442
20
20.9314830875976
30
0.000000000000000
11
43.9622723330442
21
20.4314830875976
31
0.000000000000000
  0
LINE
  5
F10052
330
F10053
100
AcDbEntity
8
Geo
100
AcDbLine
10
-37.8660915016557
20
17.0996298389682
30
0.000000000000000
11
-37.8377276669558
21
17.1444505859291
31
0.000000000000000
  0
LINE
  5
F10054
330
F10055
100
AcDbEntity
8
Geo
100
AcDbLine
10
-37.8377276669558
20
17.1444505859291
30
0.000000000000000
11
-37.7377276669558
21
17.2907993158771
31
0.000000000000000
  0
LINE
  5
F10056
330
F10057
100
AcDbEntity
8
Geo
100
AcDbLine
10
-37.7377276669558
20
17.2907993158771
30
0.000000000000000
11
-37.6377276669558
21
17.4253583362865
31
0.000000000000000
  0
LINE
  5
F10058
330
F10059
100
AcDbEntity
8
Geo
100
AcDbLine
10
-37.6377276669558
20
17.4253583362865
30
0.000000000000000
11
-37.5377276669558
21
17.5520063773937
31
0.000000000000000
  0
LINE
  5
F1005A
330
F1005B
100
AcDbEntity
8
Geo
100
AcDbLine
10
-37.5377276669558
20
17.5520063773937
30
0.000000000000000
11
-37.4377276669558
21
17.6725589130304
31
0.000000000000000
  0
LINE
  5
F1005C
330
F1005D
100
AcDbEntity
8
Geo
100
AcDbLine
10
-37.4377276669558
20
17.6725589130304
30
0.000000000000000
11
-37.3377276669558
21
17.7879927612292
31
0.000000000000000
  0
LINE
  5
F1005E
330
F1005F
100
AcDbEntity
8
Geo
100
AcDbLine
10
-37.3377276669558
20
17.7879927612292
30
0.000000000000000
11
-37.2377276669558
21
17.8990890428754
31
0.000000000000000
  0
LINE
  5
F10060
330
F10061
100
AcDbEntity
8
Geo
100
AcDbLine
10
-37.2377276669558
20
17.8990890428754
30
0.000000000000000
11
-37.1377276669558
21
18.0062653353273
31
0.000000000000000
  0
LINE
  5
F10062
330
F10063
100
AcDbEntity
8
Geo
100
AcDbLine
10
-37.1377276669558
20
18.0062653353273
30
0.000000000000000
11
-37.0377276669558
21
18.1099218030015
31
0.000000000000000
  0
LINE
  5
F10064
330
F10065
100
AcDbEntity
8
Geo
100
AcDbLine
10
-37.0377276669558
20
18.1099218030015
30
0.000000000000000
11
-36.9377276669558
21
18.2103657095795
31
0.000000000000000
  0
LINE
  5
F10066
330
F10067
100
AcDbEntity
8
Geo
100
AcDbLine
10
-36.9377276669558
20
18.2103657095795
30
0.000000000000000
11
-36.8377276669558
21
18.3078408044134
31
0.000000000000000
  0
LINE
  5
F10068
330
F10069
100
AcDbEntity
8
Geo
100
AcDbLine
10
-36.8377276669558
20
18.3078408044134
30
0.000000000000000
11
-36.7377276669558
21
18.4025461353929
31
0.000000000000000
  0
LINE
  5
F1006A
330
F1006B
100
AcDbEntity
8
Geo
100
AcDbLine
10
-36.7377276669558
20
18.4025461353929
30
0.000000000000000
11
-36.6377276669558
21
18.4945489153371
31
0.000000000000000
  0
LINE
  5
F1006C
330
F1006D
100
AcDbEntity
8
Geo
100
AcDbLine
10
-36.6377276669558
20
18.4945489153371
30
0.000000000000000
11
-36.5377276669558
21
18.5831173655249
31
0.000000000000000
  0
LINE
  5
F1006E
330
F1006F
100
AcDbEntity
8
Geo
100
AcDbLine
10
-36.5377276669558
20
18.5831173655249
30
0.000000000000000
11
-36.4377276669558
21
18.6679503624070
31
0.000000000000000
  0
LINE
  5
F10070
330
F10071
100
AcDbEntity
8
Geo
100
AcDbLine
10
-36.4377276669558
20
18.6679503624070
30
0.000000000000000
11
-36.3377276669558
21
18.7492002273136
31
0.000000000000000
  0
LINE
  5
F10072
330
F10073
100
AcDbEntity
8
Geo
100
AcDbLine
10
-36.3377276669558
20
18.7492002273136
30
0.000000000000000
11
-36.2377276669558
21
18.8270046899769
31
0.000000000000000
  0
LINE
  5
F10074
330
F10075
100
AcDbEntity
8
Geo
100
AcDbLine
10
-36.2377276669558
20
18.8270046899769
30
0.000000000000000
11
-36.1377276669558
21
18.9014887726803
31
0.000000000000000
  0
LINE
  5
F10076
330
F10077
100
AcDbEntity
8
Geo
100
AcDbLine
10
-36.1377276669558
20
18.9014887726803
30
0.000000000000000
11
-36.0377276669558
21
18.9727663765031
31
0.000000000000000
  0
LINE
  5
F10078
330
F10079
100
AcDbEntity
8
Geo
100
AcDbLine
10
-36.0377276669558
20
18.9727663765031
30
0.000000000000000
11
-35.9377276669558
21
19.0409416252434
31
0.000000000000000
  0
LINE
  5
F1007A
330
F1007B
100
AcDbEntity
8
Geo
100
AcDbLine
10
-35.9377276669558
20
19.0409416252434
30
0.000000000000000
11
-35.8377276669558
21
19.1061100107451
31
0.000000000000000
  0
LINE
  5
F1007C
330
F1007D
100
AcDbEntity
8
Geo
100
AcDbLine
10
-35.8377276669558
20
19.1061100107451
30
0.000000000000000
11
-35.7377276669558
21
19.1683593743247
31
0.000000000000000
  0
LINE
  5
F1007E
330
F1007F
100
AcDbEntity
8
Geo
100
AcDbLine
10
-35.7377276669558
20
19.1683593743247
30
0.000000000000000
11
-35.6377276669558
21
19.2277707520483
31
0.000000000000000
  0
LINE
  5
F10080
330
F10081
100
AcDbEntity
8
Geo
100
AcDbLine
10
-35.6377276669558
20
19.2277707520483
30
0.000000000000000
11
-35.5377276669558
21
19.2844191062212
31
0.000000000000000
  0
LINE
  5
F10082
330
F10083
100
AcDbEntity
8
Geo
100
AcDbLine
10
-35.5377276669558
20
19.2844191062212
30
0.000000000000000
11
-35.4377276669558
21
19.3383739612366
31
0.000000000000000
  0
LINE
  5
F10084
330
F10085
100
AcDbEntity
8
Geo
100
AcDbLine
10
-35.4377276669558
20
19.3383739612366
30
0.000000000000000
11
-35.3377276669558
21
19.3896999586057
31
0.000000000000000
  0
LINE
  5
F10086
330
F10087
100
AcDbEntity
8
Geo
100
AcDbLine
10
-35.3377276669558
20
19.3896999586057
30
0.000000000000000
11
-35.2377276669558
21
19.4384573433499
31
0.000000000000000
  0
LINE
  5
F10088
330
F10089
100
AcDbEntity
8
Geo
100
AcDbLine
10
-35.2377276669558
20
19.4384573433499
30
0.000000000000000
11
-35.1377276669558
21
19.4847023918235
31
0.000000000000000
  0
LINE
  5
F1008A
330
F1008B
100
AcDbEntity
8
Geo
100
AcDbLine
10
-35.1377276669558
20
19.4847023918235
30
0.000000000000000
11
-35.0377276669558
21
19.5284877893348
31
0.000000000000000
  0
LINE
  5
F1008C
330
F1008D
100
AcDbEntity
8
Geo
100
AcDbLine
10
-35.0377276669558
20
19.5284877893348
30
0.000000000000000
11
-34.9377276669558
21
19.5698629645555
31
0.000000000000000
  0
LINE
  5
F1008E
330
F1008F
100
AcDbEntity
8
Geo
100
AcDbLine
10
-34.9377276669558
20
19.5698629645555
30
0.000000000000000
11
-34.8377276669558
21
19.6088743865860
31
0.000000000000000
  0
LINE
  5
F10090
330
F10091
100
AcDbEntity
8
Geo
100
AcDbLine
10
-34.8377276669558
20
19.6088743865860
30
0.000000000000000
11
-34.7377276669558
21
19.6455658296257
31
0.000000000000000
  0
LINE
  5
F10092
330
F10093
100
AcDbEntity
8
Geo
100
AcDbLine
10
-34.7377276669558
20
19.6455658296257
30
0.000000000000000
11
-34.6377276669558
21
19.6799786094364
31
0.000000000000000
  0
LINE
  5
F10094
330
F10095
100
AcDbEntity
8
Geo
100
AcDbLine
10
-34.6377276669558
20
19.6799786094364
30
0.000000000000000
11
-34.5377276669558
21
19.7121517951665
31
0.000000000000000
  0
LINE
  5
F10096
330
F10097
100
AcDbEntity
8
Geo
100
AcDbLine
10
-34.5377276669558
20
19.7121517951665
30
0.000000000000000
11
-34.4377276669558
21
19.7421223995767
31
0.000000000000000
  0
LINE
  5
F10098
330
F10099
100
AcDbEntity
8
Geo
100
AcDbLine
10
-34.4377276669558
20
19.7421223995767
30
0.000000000000000
11
-34.3377276669558
21
19.7699255502757
31
0.000000000000000
  0
LINE
  5
F1009A
330
F1009B
100
AcDbEntity
8
Geo
100
AcDbLine
10
-34.3377276669558
20
19.7699255502757
30
0.000000000000000
11
-34.2377276669558
21
19.7955946442099
31
0.000000000000000
  0
LINE
  5
F1009C
330
F1009D
100
AcDbEntity
8
Geo
100
AcDbLine
10
-34.2377276669558
20
19.7955946442099
30
0.000000000000000
11
-34.1377276669558
21
19.8191614873418
31
0.000000000000000
  0
LINE
  5
F1009E
330
F1009F
100
AcDbEntity
8
Geo
100
AcDbLine
10
-34.1377276669558
20
19.8191614873418
30
0.000000000000000
11
-34.0377276669558
21
19.8406564211931
31
0.000000000000000
  0
LINE
  5
F100A0
330
F100A1
100
AcDbEntity
8
Geo
100
AcDbLine
10
-34.0377276669558
20
19.8406564211931
30
0.000000000000000
11
-33.9377276669558
21
19.8601084377091
31
0.000000000000000
  0
LINE
  5
F100A2
330
F100A3
100
AcDbEntity
8
Geo
100
AcDbLine
10
-33.9377276669558
20
19.8601084377091
30
0.000000000000000
11
-33.8377276669558
21
19.8775452837100
31
0.000000000000000
  0
LINE
  5
F100A4
330
F100A5
100
AcDbEntity
8
Geo
100
AcDbLine
10
-33.8377276669558
20
19.8775452837100
30
0.000000000000000
11
-33.7377276669558
21
19.8929935560388
31
0.000000000000000
  0
LINE
  5
F100A6
330
F100A7
100
AcDbEntity
8
Geo
100
AcDbLine
10
-33.7377276669558
20
19.8929935560388
30
0.000000000000000
11
-33.6377276669558
21
19.9064787883733
31
0.000000000000000
  0
LINE
  5
F100A8
330
F100A9
100
AcDbEntity
8
Geo
100
AcDbLine
10
-33.6377276669558
20
19.9064787883733
30
0.000000000000000
11
-33.5377276669558
21
19.9180255305552
31
0.000000000000000
  0
LINE
  5
F100AA
330
F100AB
100
AcDbEntity
8
Geo
100
AcDbLine
10
-33.5377276669558
20
19.9180255305552
30
0.000000000000000
11
-33.4377276669558
21
19.9276574211848
31
0.000000000000000
  0
LINE
  5
F100AC
330
F100AD
100
AcDbEntity
8
Geo
100
AcDbLine
10
-33.4377276669558
20
19.9276574211848
30
0.000000000000000
11
-33.3377276669558
21
19.9353972541434
31
0.000000000000000
  0
LINE
  5
F100AE
330
F100AF
100
AcDbEntity
8
Geo
100
AcDbLine
10
-33.3377276669558
20
19.9353972541434
30
0.000000000000000
11
-33.2377276669558
21
19.9412670396266
31
0.000000000000000
  0
LINE
  5
F100B0
330
F100B1
100
AcDbEntity
8
Geo
100
AcDbLine
10
-33.2377276669558
20
19.9412670396266
30
0.000000000000000
11
-33.1377276669558
21
19.9452880602078
31
0.000000000000000
  0
LINE
  5
F100B2
330
F100B3
100
AcDbEntity
8
Geo
100
AcDbLine
10
-33.1377276669558
20
19.9452880602078
30
0.000000000000000
11
-33.0377276669558
21
19.9474809223912
31
0.000000000000000
  0
LINE
  5
F100B4
330
F100B5
100
AcDbEntity
8
Geo
100
AcDbLine
10
-33.0377276669558
20
19.9474809223912
30
0.000000000000000
11
-32.9377276669558
21
19.9478656040626
31
0.000000000000000
  0
LINE
  5
F100B6
330
F100B7
100
AcDbEntity
8
Geo
100
AcDbLine
10
-32.9377276669558
20
19.9478656040626
30
0.000000000000000
11
-32.8377276669558
21
19.9464614982040
31
0.000000000000000
  0
LINE
  5
F100B8
330
F100B9
100
AcDbEntity
8
Geo
100
AcDbLine
10
-32.8377276669558
20
19.9464614982040
30
0.000000000000000
11
-32.7377276669558
21
19.9432874531950
31
0.000000000000000
  0
LINE
  5
F100BA
330
F100BB
100
AcDbEntity
8
Geo
100
AcDbLine
10
-32.7377276669558
20
19.9432874531950
30
0.000000000000000
11
-32.6377276669558
21
19.9383618099942
31
0.000000000000000
  0
LINE
  5
F100BC
330
F100BD
100
AcDbEntity
8
Geo
100
AcDbLine
10
-32.6377276669558
20
19.9383618099942
30
0.000000000000000
11
-32.5377276669558
21
19.9317024364584
31
0.000000000000000
  0
LINE
  5
F100BE
330
F100BF
100
AcDbEntity
8
Geo
100
AcDbLine
10
-32.5377276669558
20
19.9317024364584
30
0.000000000000000
11
-32.4377276669558
21
19.9233267590345
31
0.000000000000000
  0
LINE
  5
F100C0
330
F100C1
100
AcDbEntity
8
Geo
100
AcDbLine
10
-32.4377276669558
20
19.9233267590345
30
0.000000000000000
11
-32.3377276669558
21
19.9132517920318
31
0.000000000000000
  0
LINE
  5
F100C2
330
F100C3
100
AcDbEntity
8
Geo
100
AcDbLine
10
-32.3377276669558
20
19.9132517920318
30
0.000000000000000
11
-32.2377276669558
21
19.9014941646638
31
0.000000000000000
  0
LINE
  5
F100C4
330
F100C5
100
AcDbEntity
8
Geo
100
AcDbLine
10
-32.2377276669558
20
19.9014941646638
30
0.000000000000000
11
-32.1377276669558
21
19.8880701460271
31
0.000000000000000
  0
LINE
  5
F100C6
330
F100C7
100
AcDbEntity
8
Geo
100
AcDbLine
10
-32.1377276669558
20
19.8880701460271
30
0.000000000000000
11
-32.0377276669558
21
19.8729956681701
31
0.000000000000000
  0
LINE
  5
F100C8
330
F100C9
100
AcDbEntity
8
Geo
100
AcDbLine
10
-32.0377276669558
20
19.8729956681701
30
0.000000000000000
11
-31.9377276669558
21
19.8562863473861
31
0.000000000000000
  0
LINE
  5
F100CA
330
F100CB
100
AcDbEntity
8
Geo
100
AcDbLine
10
-31.9377276669558
20
19.8562863473861
30
0.000000000000000
11
-31.8377276669558
21
19.8379575038562
31
0.000000000000000
  0
LINE
  5
F100CC
330
F100CD
100
AcDbEntity
8
Geo
100
AcDbLine
10
-31.8377276669558
20
19.8379575038562
30
0.000000000000000
11
-31.7377276669558
21
19.8180241797488
31
0.000000000000000
  0
LINE
  5
F100CE
330
F100CF
100
AcDbEntity
8
Geo
100
AcDbLine
10
-31.7377276669558
20
19.8180241797488
30
0.000000000000000
11
-31.6377276669558
21
19.7965011558772
31
0.000000000000000
  0
LINE
  5
F100D0
330
F100D1
100
AcDbEntity
8
Geo
100
AcDbLine
10
-31.6377276669558
20
19.7965011558772
30
0.000000000000000
11
-31.5377276669558
21
19.7734029670027
31
0.000000000000000
  0
LINE
  5
F100D2
330
F100D3
100
AcDbEntity
8
Geo
100
AcDbLine
10
-31.5377276669558
20
19.7734029670027
30
0.000000000000000
11
-31.4377276669558
21
19.7487439158624
31
0.000000000000000
  0
LINE
  5
F100D4
330
F100D5
100
AcDbEntity
8
Geo
100
AcDbLine
10
-31.4377276669558
20
19.7487439158624
30
0.000000000000000
11
-31.3377276669558
21
19.7225380859934
31
0.000000000000000
  0
LINE
  5
F100D6
330
F100D7
100
AcDbEntity
8
Geo
100
AcDbLine
10
-31.3377276669558
20
19.7225380859934
30
0.000000000000000
11
-31.2377276669558
21
19.6947993534149
31
0.000000000000000
  0
LINE
  5
F100D8
330
F100D9
100
AcDbEntity
8
Geo
100
AcDbLine
10
-31.2377276669558
20
19.6947993534149
30
0.000000000000000
11
-31.1377276669558
21
19.6655413972245
31
0.000000000000000
  0
LINE
  5
F100DA
330
F100DB
100
AcDbEntity
8
Geo
100
AcDbLine
10
-31.1377276669558
20
19.6655413972245
30
0.000000000000000
11
-31.0377276669558
21
19.6347777091575
31
0.000000000000000
  0
LINE
  5
F100DC
330
F100DD
100
AcDbEntity
8
Geo
100
AcDbLine
10
-31.0377276669558
20
19.6347777091575
30
0.000000000000000
11
-30.9377276669558
21
19.6030913166372
31
0.000000000000000
  0
LINE
  5
F100DE
330
F100DF
100
AcDbEntity
8
Geo
100
AcDbLine
10
-30.9377276669558
20
19.6030913166372
30
0.000000000000000
11
-30.8377276669558
21
19.5710574460298
31
0.000000000000000
  0
LINE
  5
F100E0
330
F100E1
100
AcDbEntity
8
Geo
100
AcDbLine
10
-30.8377276669558
20
19.5710574460298
30
0.000000000000000
11
-30.7377276669558
21
19.5386777657588
31
0.000000000000000
  0
LINE
  5
F100E2
330
F100E3
100
AcDbEntity
8
Geo
100
AcDbLine
10
-30.7377276669558
20
19.5386777657588
30
0.000000000000000
11
-30.6377276669558
21
19.5059539622586
31
0.000000000000000
  0
LINE
  5
F100E4
330
F100E5
100
AcDbEntity
8
Geo
100
AcDbLine
10
-30.6377276669558
20
19.5059539622586
30
0.000000000000000
11
-30.5377276669558
21
19.4728877398866
31
0.000000000000000
  0
LINE
  5
F100E6
330
F100E7
100
AcDbEntity
8
Geo
100
AcDbLine
10
-30.5377276669558
20
19.4728877398866
30
0.000000000000000
11
-30.4377276669558
21
19.4394808208343
31
0.000000000000000
  0
LINE
  5
F100E8
330
F100E9
100
AcDbEntity
8
Geo
100
AcDbLine
10
-30.4377276669558
20
19.4394808208343
30
0.000000000000000
11
-30.3377276669558
21
19.4057349450378
31
0.000000000000000
  0
LINE
  5
F100EA
330
F100EB
100
AcDbEntity
8
Geo
100
AcDbLine
10
-30.3377276669558
20
19.4057349450378
30
0.000000000000000
11
-30.2377276669558
21
19.3716518700874
31
0.000000000000000
  0
LINE
  5
F100EC
330
F100ED
100
AcDbEntity
8
Geo
100
AcDbLine
10
-30.2377276669558
20
19.3716518700874
30
0.000000000000000
11
-30.1377276669558
21
19.3372333711353
31
0.000000000000000
  0
LINE
  5
F100EE
330
F100EF
100
AcDbEntity
8
Geo
100
AcDbLine
10
-30.1377276669558
20
19.3372333711353
30
0.000000000000000
11
-30.0377276669558
21
19.3024812408041
31
0.000000000000000
  0
LINE
  5
F100F0
330
F100F1
100
AcDbEntity
8
Geo
100
AcDbLine
10
-30.0377276669558
20
19.3024812408041
30
0.000000000000000
11
-29.9377276669558
21
19.2673972890926
31
0.000000000000000
  0
LINE
  5
F100F2
330
F100F3
100
AcDbEntity
8
Geo
100
AcDbLine
10
-29.9377276669558
20
19.2673972890926
30
0.000000000000000
11
-29.8377276669558
21
19.2319833432820
31
0.000000000000000
  0
LINE
  5
F100F4
330
F100F5
100
AcDbEntity
8
Geo
100
AcDbLine
10
-29.8377276669558
20
19.2319833432820
30
0.000000000000000
11
-29.7377276669558
21
19.1962412478407
31
0.000000000000000
  0
LINE
  5
F100F6
330
F100F7
100
AcDbEntity
8
Geo
100
AcDbLine
10
-29.7377276669558
20
19.1962412478407
30
0.000000000000000
11
-29.6377276669558
21
19.1601728643281
31
0.000000000000000
  0
LINE
  5
F100F8
330
F100F9
100
AcDbEntity
8
Geo
100
AcDbLine
10
-29.6377276669558
20
19.1601728643281
30
0.000000000000000
11
-29.5377276669558
21
19.1237800712976
31
0.000000000000000
  0
LINE
  5
F100FA
330
F100FB
100
AcDbEntity
8
Geo
100
AcDbLine
10
-29.5377276669558
20
19.1237800712976
30
0.000000000000000
11
-29.4377276669558
21
19.0870647641990
31
0.000000000000000
  0
LINE
  5
F100FC
330
F100FD
100
AcDbEntity
8
Geo
100
AcDbLine
10
-29.4377276669558
20
19.0870647641990
30
0.000000000000000
11
-29.3377276669558
21
19.0500288552796
31
0.000000000000000
  0
LINE
  5
F100FE
330
F100FF
100
AcDbEntity
8
Geo
100
AcDbLine
10
-29.3377276669558
20
19.0500288552796
30
0.000000000000000
11
-29.2377276669558
21
19.0126742734846
31
0.000000000000000
  0
LINE
  5
F10100
330
F10101
100
AcDbEntity
8
Geo
100
AcDbLine
10
-29.2377276669558
20
19.0126742734846
30
0.000000000000000
11
-29.1377276669558
21
18.9750029643567
31
0.000000000000000
  0
LINE
  5
F10102
330
F10103
100
AcDbEntity
8
Geo
100
AcDbLine
10
-29.1377276669558
20
18.9750029643567
30
0.000000000000000
11
-29.0377276669558
21
18.9370168899348
31
0.000000000000000
  0
LINE
  5
F10104
330
F10105
100
AcDbEntity
8
Geo
100
AcDbLine
10
-29.0377276669558
20
18.9370168899348
30
0.000000000000000
11
-28.9377276669558
21
18.8987180286515
31
0.000000000000000
  0
LINE
  5
F10106
330
F10107
100
AcDbEntity
8
Geo
100
AcDbLine
10
-28.9377276669558
20
18.8987180286515
30
0.000000000000000
11
-28.8377276669558
21
18.8601083752307
31
0.000000000000000
  0
LINE
  5
F10108
330
F10109
100
AcDbEntity
8
Geo
100
AcDbLine
10
-28.8377276669558
20
18.8601083752307
30
0.000000000000000
11
-28.7377276669558
21
18.8211899405829
31
0.000000000000000
  0
LINE
  5
F1010A
330
F1010B
100
AcDbEntity
8
Geo
100
AcDbLine
10
-28.7377276669558
20
18.8211899405829
30
0.000000000000000
11
-28.6377276669558
21
18.7819647517014
31
0.000000000000000
  0
LINE
  5
F1010C
330
F1010D
100
AcDbEntity
8
Geo
100
AcDbLine
10
-28.6377276669558
20
18.7819647517014
30
0.000000000000000
11
-28.5377276669558
21
18.7424348515557
31
0.000000000000000
  0
LINE
  5
F1010E
330
F1010F
100
AcDbEntity
8
Geo
100
AcDbLine
10
-28.5377276669558
20
18.7424348515557
30
0.000000000000000
11
-28.4377276669558
21
18.7026022989859
31
0.000000000000000
  0
LINE
  5
F10110
330
F10111
100
AcDbEntity
8
Geo
100
AcDbLine
10
-28.4377276669558
20
18.7026022989859
30
0.000000000000000
11
-28.3377276669558
21
18.6624691685950
31
0.000000000000000
  0
LINE
  5
F10112
330
F10113
100
AcDbEntity
8
Geo
100
AcDbLine
10
-28.3377276669558
20
18.6624691685950
30
0.000000000000000
11
-28.2377276669558
21
18.6220375506414
31
0.000000000000000
  0
LINE
  5
F10114
330
F10115
100
AcDbEntity
8
Geo
100
AcDbLine
10
-28.2377276669558
20
18.6220375506414
30
0.000000000000000
11
-28.1377276669558
21
18.5813095509291
31
0.000000000000000
  0
LINE
  5
F10116
330
F10117
100
AcDbEntity
8
Geo
100
AcDbLine
10
-28.1377276669558
20
18.5813095509291
30
0.000000000000000
11
-28.0377276669558
21
18.5402872906991
31
0.000000000000000
  0
LINE
  5
F10118
330
F10119
100
AcDbEntity
8
Geo
100
AcDbLine
10
-28.0377276669558
20
18.5402872906991
30
0.000000000000000
11
-27.9377276669558
21
18.4989729065181
31
0.000000000000000
  0
LINE
  5
F1011A
330
F1011B
100
AcDbEntity
8
Geo
100
AcDbLine
10
-27.9377276669558
20
18.4989729065181
30
0.000000000000000
11
-27.8377276669558
21
18.4573685501675
31
0.000000000000000
  0
LINE
  5
F1011C
330
F1011D
100
AcDbEntity
8
Geo
100
AcDbLine
10
-27.8377276669558
20
18.4573685501675
30
0.000000000000000
11
-27.7377276669558
21
18.4154763885316
31
0.000000000000000
  0
LINE
  5
F1011E
330
F1011F
100
AcDbEntity
8
Geo
100
AcDbLine
10
-27.7377276669558
20
18.4154763885316
30
0.000000000000000
11
-27.6377276669558
21
18.3732986034843
31
0.000000000000000
  0
LINE
  5
F10120
330
F10121
100
AcDbEntity
8
Geo
100
AcDbLine
10
-27.6377276669558
20
18.3732986034843
30
0.000000000000000
11
-27.5377276669558
21
18.3308373917757
31
0.000000000000000
  0
LINE
  5
F10122
330
F10123
100
AcDbEntity
8
Geo
100
AcDbLine
10
-27.5377276669558
20
18.3308373917757
30
0.000000000000000
11
-27.4377276669558
21
18.2880949649177
31
0.000000000000000
  0
LINE
  5
F10124
330
F10125
100
AcDbEntity
8
Geo
100
AcDbLine
10
-27.4377276669558
20
18.2880949649177
30
0.000000000000000
11
-27.3377276669558
21
18.2450735490686
31
0.000000000000000
  0
LINE
  5
F10126
330
F10127
100
AcDbEntity
8
Geo
100
AcDbLine
10
-27.3377276669558
20
18.2450735490686
30
0.000000000000000
11
-27.2377276669558
21
18.2017753849174
31
0.000000000000000
  0
LINE
  5
F10128
330
F10129
100
AcDbEntity
8
Geo
100
AcDbLine
10
-27.2377276669558
20
18.2017753849174
30
0.000000000000000
11
-27.1377276669558
21
18.1582027275672
31
0.000000000000000
  0
LINE
  5
F1012A
330
F1012B
100
AcDbEntity
8
Geo
100
AcDbLine
10
-27.1377276669558
20
18.1582027275672
30
0.000000000000000
11
-27.0377276669558
21
18.1143578464172
31
0.000000000000000
  0
LINE
  5
F1012C
330
F1012D
100
AcDbEntity
8
Geo
100
AcDbLine
10
-27.0377276669558
20
18.1143578464172
30
0.000000000000000
11
-26.9377276669558
21
18.0702430250452
31
0.000000000000000
  0
LINE
  5
F1012E
330
F1012F
100
AcDbEntity
8
Geo
100
AcDbLine
10
-26.9377276669558
20
18.0702430250452
30
0.000000000000000
11
-26.8377276669558
21
18.0258605610881
31
0.000000000000000
  0
LINE
  5
F10130
330
F10131
100
AcDbEntity
8
Geo
100
AcDbLine
10
-26.8377276669558
20
18.0258605610881
30
0.000000000000000
11
-26.7377276669558
21
17.9812127661225
31
0.000000000000000
  0
LINE
  5
F10132
330
F10133
100
AcDbEntity
8
Geo
100
AcDbLine
10
-26.7377276669558
20
17.9812127661225
30
0.000000000000000
11
-26.6377276669558
21
17.9363019655443
31
0.000000000000000
  0
LINE
  5
F10134
330
F10135
100
AcDbEntity
8
Geo
100
AcDbLine
10
-26.6377276669558
20
17.9363019655443
30
0.000000000000000
11
-26.5377276669558
21
17.8911304984476
31
0.000000000000000
  0
LINE
  5
F10136
330
F10137
100
AcDbEntity
8
Geo
100
AcDbLine
10
-26.5377276669558
20
17.8911304984476
30
0.000000000000000
11
-26.4377276669558
21
17.8457007175028
31
0.000000000000000
  0
LINE
  5
F10138
330
F10139
100
AcDbEntity
8
Geo
100
AcDbLine
10
-26.4377276669558
20
17.8457007175028
30
0.000000000000000
11
-26.3377276669558
21
17.8000149888339
31
0.000000000000000
  0
LINE
  5
F1013A
330
F1013B
100
AcDbEntity
8
Geo
100
AcDbLine
10
-26.3377276669558
20
17.8000149888339
30
0.000000000000000
11
-26.2377276669558
21
17.7540756918958
31
0.000000000000000
  0
LINE
  5
F1013C
330
F1013D
100
AcDbEntity
8
Geo
100
AcDbLine
10
-26.2377276669558
20
17.7540756918958
30
0.000000000000000
11
-26.1377276669558
21
17.7078852193497
31
0.000000000000000
  0
LINE
  5
F1013E
330
F1013F
100
AcDbEntity
8
Geo
100
AcDbLine
10
-26.1377276669558
20
17.7078852193497
30
0.000000000000000
11
-26.0377276669558
21
17.6614459769389
31
0.000000000000000
  0
LINE
  5
F10140
330
F10141
100
AcDbEntity
8
Geo
100
AcDbLine
10
-26.0377276669558
20
17.6614459769389
30
0.000000000000000
11
-25.9377276669558
21
17.6147603833636
31
0.000000000000000
  0
LINE
  5
F10142
330
F10143
100
AcDbEntity
8
Geo
100
AcDbLine
10
-25.9377276669558
20
17.6147603833636
30
0.000000000000000
11
-25.8377276669558
21
17.5678308701545
31
0.000000000000000
  0
LINE
  5
F10144
330
F10145
100
AcDbEntity
8
Geo
100
AcDbLine
10
-25.8377276669558
20
17.5678308701545
30
0.000000000000000
11
-25.7377276669558
21
17.5206598815464
31
0.000000000000000
  0
LINE
  5
F10146
330
F10147
100
AcDbEntity
8
Geo
100
AcDbLine
10
-25.7377276669558
20
17.5206598815464
30
0.000000000000000
11
-25.6377276669558
21
17.4732498743511
31
0.000000000000000
  0
LINE
  5
F10148
330
F10149
100
AcDbEntity
8
Geo
100
AcDbLine
10
-25.6377276669558
20
17.4732498743511
30
0.000000000000000
11
-25.5377276669558
21
17.4256033178290
31
0.000000000000000
  0
LINE
  5
F1014A
330
F1014B
100
AcDbEntity
8
Geo
100
AcDbLine
10
-25.5377276669558
20
17.4256033178290
30
0.000000000000000
11
-25.4377276669558
21
17.3777226935608
31
0.000000000000000
  0
LINE
  5
F1014C
330
F1014D
100
AcDbEntity
8
Geo
100
AcDbLine
10
-25.4377276669558
20
17.3777226935608
30
0.000000000000000
11
-25.3377276669558
21
17.3296104953182
31
0.000000000000000
  0
LINE
  5
F1014E
330
F1014F
100
AcDbEntity
8
Geo
100
AcDbLine
10
-25.3377276669558
20
17.3296104953182
30
0.000000000000000
11
-25.2377276669558
21
17.2812692289340
31
0.000000000000000
  0
LINE
  5
F10150
330
F10151
100
AcDbEntity
8
Geo
100
AcDbLine
10
-25.2377276669558
20
17.2812692289340
30
0.000000000000000
11
-25.1377276669558
21
17.2327014121716
31
0.000000000000000
  0
LINE
  5
F10152
330
F10153
100
AcDbEntity
8
Geo
100
AcDbLine
10
-25.1377276669558
20
17.2327014121716
30
0.000000000000000
11
-25.0377276669558
21
17.1839095745938
31
0.000000000000000
  0
LINE
  5
F10154
330
F10155
100
AcDbEntity
8
Geo
100
AcDbLine
10
-25.0377276669558
20
17.1839095745938
30
0.000000000000000
11
-24.9377276669558
21
17.1348962574311
31
0.000000000000000
  0
LINE
  5
F10156
330
F10157
100
AcDbEntity
8
Geo
100
AcDbLine
10
-24.9377276669558
20
17.1348962574311
30
0.000000000000000
11
-24.8377276669558
21
17.0856640134493
31
0.000000000000000
  0
LINE
  5
F10158
330
F10159
100
AcDbEntity
8
Geo
100
AcDbLine
10
-24.8377276669558
20
17.0856640134493
30
0.000000000000000
11
-24.7377276669558
21
17.0362154068167
31
0.000000000000000
  0
LINE
  5
F1015A
330
F1015B
100
AcDbEntity
8
Geo
100
AcDbLine
10
-24.7377276669558
20
17.0362154068167
30
0.000000000000000
11
-24.6377276669558
21
16.9865530129703
31
0.000000000000000
  0
LINE
  5
F1015C
330
F1015D
100
AcDbEntity
8
Geo
100
AcDbLine
10
-24.6377276669558
20
16.9865530129703
30
0.000000000000000
11
-24.5377276669558
21
16.9366794184821
31
0.000000000000000
  0
LINE
  5
F1015E
330
F1015F
100
AcDbEntity
8
Geo
100
AcDbLine
10
-24.5377276669558
20
16.9366794184821
30
0.000000000000000
11
-24.4377276669558
21
16.8865972209236
31
0.000000000000000
  0
LINE
  5
F10160
330
F10161
100
AcDbEntity
8
Geo
100
AcDbLine
10
-24.4377276669558
20
16.8865972209236
30
0.000000000000000
11
-24.3377276669558
21
16.8363090287315
31
0.000000000000000
  0
LINE
  5
F10162
330
F10163
100
AcDbEntity
8
Geo
100
AcDbLine
10
-24.3377276669558
20
16.8363090287315
30
0.000000000000000
11
-24.2377276669558
21
16.7858174610709
31
0.000000000000000
  0
LINE
  5
F10164
330
F10165
100
AcDbEntity
8
Geo
100
AcDbLine
10
-24.2377276669558
20
16.7858174610709
30
0.000000000000000
11
-24.1377276669558
21
16.7351251476997
31
0.000000000000000
  0
LINE
  5
F10166
330
F10167
100
AcDbEntity
8
Geo
100
AcDbLine
10
-24.1377276669558
20
16.7351251476997
30
0.000000000000000
11
-24.0377276669558
21
16.6842347288311
31
0.000000000000000
  0
LINE
  5
F10168
330
F10169
100
AcDbEntity
8
Geo
100
AcDbLine
10
-37.9377276669558
20
14.0741867460718
30
0.000000000000000
11
-37.9377276669558
21
13.1952239315670
31
0.000000000000000
  0
LINE
  5
F1016A
330
F1016B
100
AcDbEntity
8
Geo
100
AcDbLine
10
-37.9377276669558
20
13.1952239315670
30
0.000000000000000
11
-37.8377276669558
21
12.8270567594902
31
0.000000000000000
  0
LINE
  5
F1016C
330
F1016D
100
AcDbEntity
8
Geo
100
AcDbLine
10
-37.8377276669558
20
12.8270567594902
30
0.000000000000000
11
-37.7377276669558
21
12.6053511789184
31
0.000000000000000
  0
LINE
  5
F1016E
330
F1016F
100
AcDbEntity
8
Geo
100
AcDbLine
10
-37.7377276669558
20
12.6053511789184
30
0.000000000000000
11
-37.6377276669558
21
12.4364222335396
31
0.000000000000000
  0
LINE
  5
F10170
330
F10171
100
AcDbEntity
8
Geo
100
AcDbLine
10
-37.6377276669558
20
12.4364222335396
30
0.000000000000000
11
-37.5377276669558
21
12.2984234312840
31
0.000000000000000
  0
LINE
  5
F10172
330
F10173
100
AcDbEntity
8
Geo
100
AcDbLine
10
-37.5377276669558
20
12.2984234312840
30
0.000000000000000
11
-37.4377276669558
21
12.1816831026042
31
0.000000000000000
  0
LINE
  5
F10174
330
F10175
100
AcDbEntity
8
Geo
100
AcDbLine
10
-37.4377276669558
20
12.1816831026042
30
0.000000000000000
11
-37.3377276669558
21
12.0804168211282
31
0.000000000000000
  0
LINE
  5
F10176
330
F10177
100
AcDbEntity
8
Geo
100
AcDbLine
10
-37.3377276669558
20
12.0804168211282
30
0.000000000000000
11
-37.2377276669558
21
11.9918602520470
31
0.000000000000000
  0
LINE
  5
F10178
330
F10179
100
AcDbEntity
8
Geo
100
AcDbLine
10
-37.2377276669558
20
11.9918602520470
30
0.000000000000000
11
-37.1377276669558
21
11.9133548352996
31
0.000000000000000
  0
LINE
  5
F1017A
330
F1017B
100
AcDbEntity
8
Geo
100
AcDbLine
10
-37.1377276669558
20
11.9133548352996
30
0.000000000000000
11
-37.0377276669558
21
11.8434700036661
31
0.000000000000000
  0
LINE
  5
F1017C
330
F1017D
100
AcDbEntity
8
Geo
100
AcDbLine
10
-37.0377276669558
20
11.8434700036661
30
0.000000000000000
11
-36.9377276669558
21
11.7810926046149
31
0.000000000000000
  0
LINE
  5
F1017E
330
F1017F
100
AcDbEntity
8
Geo
100
AcDbLine
10
-36.9377276669558
20
11.7810926046149
30
0.000000000000000
11
-36.8377276669558
21
11.7253414289043
31
0.000000000000000
  0
LINE
  5
F10180
330
F10181
100
AcDbEntity
8
Geo
100
AcDbLine
10
-36.8377276669558
20
11.7253414289043
30
0.000000000000000
11
-36.7377276669558
21
11.6755097092776
31
0.000000000000000
  0
LINE
  5
F10182
330
F10183
100
AcDbEntity
8
Geo
100
AcDbLine
10
-36.7377276669558
20
11.6755097092776
30
0.000000000000000
11
-36.6377276669558
21
11.6305993125288
31
0.000000000000000
  0
LINE
  5
F10184
330
F10185
100
AcDbEntity
8
Geo
100
AcDbLine
10
-36.6377276669558
20
11.6305993125288
30
0.000000000000000
11
-36.5377276669558
21
11.5864812331169
31
0.000000000000000
  0
LINE
  5
F10186
330
F10187
100
AcDbEntity
8
Geo
100
AcDbLine
10
-36.5377276669558
20
11.5864812331169
30
0.000000000000000
11
-36.4377276669558
21
11.5411798095174
31
0.000000000000000
  0
LINE
  5
F10188
330
F10189
100
AcDbEntity
8
Geo
100
AcDbLine
10
-36.4377276669558
20
11.5411798095174
30
0.000000000000000
11
-36.3377276669558
21
11.4947620700529
31
0.000000000000000
  0
LINE
  5
F1018A
330
F1018B
100
AcDbEntity
8
Geo
100
AcDbLine
10
-36.3377276669558
20
11.4947620700529
30
0.000000000000000
11
-36.2377276669558
21
11.4472913763019
31
0.000000000000000
  0
LINE
  5
F1018C
330
F1018D
100
AcDbEntity
8
Geo
100
AcDbLine
10
-36.2377276669558
20
11.4472913763019
30
0.000000000000000
11
-36.1377276669558
21
11.3988278360554
31
0.000000000000000
  0
LINE
  5
F1018E
330
F1018F
100
AcDbEntity
8
Geo
100
AcDbLine
10
-36.1377276669558
20
11.3988278360554
30
0.000000000000000
11
-36.0377276669558
21
11.3494286564258
31
0.000000000000000
  0
LINE
  5
F10190
330
F10191
100
AcDbEntity
8
Geo
100
AcDbLine
10
-36.0377276669558
20
11.3494286564258
30
0.000000000000000
11
-35.9377276669558
21
11.2991484476458
31
0.000000000000000
  0
LINE
  5
F10192
330
F10193
100
AcDbEntity
8
Geo
100
AcDbLine
10
-35.9377276669558
20
11.2991484476458
30
0.000000000000000
11
-35.8377276669558
21
11.2480394859458
31
0.000000000000000
  0
LINE
  5
F10194
330
F10195
100
AcDbEntity
8
Geo
100
AcDbLine
10
-35.8377276669558
20
11.2480394859458
30
0.000000000000000
11
-35.7377276669558
21
11.1961519422362
31
0.000000000000000
  0
LINE
  5
F10196
330
F10197
100
AcDbEntity
8
Geo
100
AcDbLine
10
-35.7377276669558
20
11.1961519422362
30
0.000000000000000
11
-35.6377276669558
21
11.1435340820368
31
0.000000000000000
  0
LINE
  5
F10198
330
F10199
100
AcDbEntity
8
Geo
100
AcDbLine
10
-35.6377276669558
20
11.1435340820368
30
0.000000000000000
11
-35.5377276669558
21
11.0902324410872
31
0.000000000000000
  0
LINE
  5
F1019A
330
F1019B
100
AcDbEntity
8
Geo
100
AcDbLine
10
-35.5377276669558
20
11.0902324410872
30
0.000000000000000
11
-35.4377276669558
21
11.0362919802732
31
0.000000000000000
  0
LINE
  5
F1019C
330
F1019D
100
AcDbEntity
8
Geo
100
AcDbLine
10
-35.4377276669558
20
11.0362919802732
30
0.000000000000000
11
-35.3377276669558
21
10.9817562228736
31
0.000000000000000
  0
LINE
  5
F1019E
330
F1019F
100
AcDbEntity
8
Geo
100
AcDbLine
10
-35.3377276669558
20
10.9817562228736
30
0.000000000000000
11
-35.2377276669558
21
10.9266673766215
31
0.000000000000000
  0
LINE
  5
F101A0
330
F101A1
100
AcDbEntity
8
Geo
100
AcDbLine
10
-35.2377276669558
20
10.9266673766215
30
0.000000000000000
11
-35.1377276669558
21
10.8710664426638
31
0.000000000000000
  0
LINE
  5
F101A2
330
F101A3
100
AcDbEntity
8
Geo
100
AcDbLine
10
-35.1377276669558
20
10.8710664426638
30
0.000000000000000
11
-35.0377276669558
21
10.8149933131700
31
0.000000000000000
  0
LINE
  5
F101A4
330
F101A5
100
AcDbEntity
8
Geo
100
AcDbLine
10
-35.0377276669558
20
10.8149933131700
30
0.000000000000000
11
-34.9377276669558
21
10.7584868590687
31
0.000000000000000
  0
LINE
  5
F101A6
330
F101A7
100
AcDbEntity
8
Geo
100
AcDbLine
10
-34.9377276669558
20
10.7584868590687
30
0.000000000000000
11
-34.8377276669558
21
10.7015850091659
31
0.000000000000000
  0
LINE
  5
F101A8
330
F101A9
100
AcDbEntity
8
Geo
100
AcDbLine
10
-34.8377276669558
20
10.7015850091659
30
0.000000000000000
11
-34.7377276669558
21
10.6443248217138
31
0.000000000000000
  0
LINE
  5
F101AA
330
F101AB
100
AcDbEntity
8
Geo
100
AcDbLine
10
-34.7377276669558
20
10.6443248217138
30
0.000000000000000
11
-34.6377276669558
21
10.5867425493456
31
0.000000000000000
  0
LINE
  5
F101AC
330
F101AD
100
AcDbEntity
8
Geo
100
AcDbLine
10
-34.6377276669558
20
10.5867425493456
30
0.000000000000000
11
-34.5377276669558
21
10.5288736981637
31
0.000000000000000
  0
LINE
  5
F101AE
330
F101AF
100
AcDbEntity
8
Geo
100
AcDbLine
10
-34.5377276669558
20
10.5288736981637
30
0.000000000000000
11
-34.4377276669558
21
10.4707530816593
31
0.000000000000000
  0
LINE
  5
F101B0
330
F101B1
100
AcDbEntity
8
Geo
100
AcDbLine
10
-34.4377276669558
20
10.4707530816593
30
0.000000000000000
11
-34.3377276669558
21
10.4124148700534
31
0.000000000000000
  0
LINE
  5
F101B2
330
F101B3
100
AcDbEntity
8
Geo
100
AcDbLine
10
-34.3377276669558
20
10.4124148700534
30
0.000000000000000
11
-34.2377276669558
21
10.3538926355706
31
0.000000000000000
  0
LINE
  5
F101B4
330
F101B5
100
AcDbEntity
8
Geo
100
AcDbLine
10
-34.2377276669558
20
10.3538926355706
30
0.000000000000000
11
-34.1377276669558
21
10.2952193940917
31
0.000000000000000
  0
LINE
  5
F101B6
330
F101B7
100
AcDbEntity
8
Geo
100
AcDbLine
10
-34.1377276669558
20
10.2952193940917
30
0.000000000000000
11
-34.0377276669558
21
10.2364276435793
31
0.000000000000000
  0
LINE
  5
F101B8
330
F101B9
100
AcDbEntity
8
Geo
100
AcDbLine
10
-34.0377276669558
20
10.2364276435793
30
0.000000000000000
11
-33.9377276669558
21
10.1775493996173
31
0.000000000000000
  0
LINE
  5
F101BA
330
F101BB
100
AcDbEntity
8
Geo
100
AcDbLine
10
-33.9377276669558
20
10.1775493996173
30
0.000000000000000
11
-33.8377276669558
21
10.1186162283705
31
0.000000000000000
  0
LINE
  5
F101BC
330
F101BD
100
AcDbEntity
8
Geo
100
AcDbLine
10
-33.8377276669558
20
10.1186162283705
30
0.000000000000000
11
-33.7377276669558
21
10.0596592772319
31
0.000000000000000
  0
LINE
  5
F101BE
330
F101BF
100
AcDbEntity
8
Geo
100
AcDbLine
10
-33.7377276669558
20
10.0596592772319
30
0.000000000000000
11
-33.6377276669558
21
10.0007093033965
31
0.000000000000000
  0
LINE
  5
F101C0
330
F101C1
100
AcDbEntity
8
Geo
100
AcDbLine
10
-33.6377276669558
20
10.0007093033965
30
0.000000000000000
11
-33.5377276669558
21
9.94179670057433
31
0.000000000000000
  0
LINE
  5
F101C2
330
F101C3
100
AcDbEntity
8
Geo
100
AcDbLine
10
-33.5377276669558
20
9.94179670057433
30
0.000000000000000
11
-33.4377276669558
21
9.88295152403206
31
0.000000000000000
  0
LINE
  5
F101C4
330
F101C5
100
AcDbEntity
8
Geo
100
AcDbLine
10
-33.4377276669558
20
9.88295152403206
30
0.000000000000000
11
-33.3377276669558
21
9.82420351413484
31
0.000000000000000
  0
LINE
  5
F101C6
330
F101C7
100
AcDbEntity
8
Geo
100
AcDbLine
10
-33.3377276669558
20
9.82420351413484
30
0.000000000000000
11
-33.2377276669558
21
9.76558211854046
31
0.000000000000000
  0
LINE
  5
F101C8
330
F101C9
100
AcDbEntity
8
Geo
100
AcDbLine
10
-33.2377276669558
20
9.76558211854046
30
0.000000000000000
11
-33.1377276669558
21
9.70711651318516
31
0.000000000000000
  0
LINE
  5
F101CA
330
F101CB
100
AcDbEntity
8
Geo
100
AcDbLine
10
-33.1377276669558
20
9.70711651318516
30
0.000000000000000
11
-33.0377276669558
21
9.64883562218623
31
0.000000000000000
  0
LINE
  5
F101CC
330
F101CD
100
AcDbEntity
8
Geo
100
AcDbLine
10
-33.0377276669558
20
9.64883562218623
30
0.000000000000000
11
-32.9377276669558
21
9.59076813677587
31
0.000000000000000
  0
LINE
  5
F101CE
330
F101CF
100
AcDbEntity
8
Geo
100
AcDbLine
10
-32.9377276669558
20
9.59076813677587
30
0.000000000000000
11
-32.8377276669558
21
9.53294253337046
31
0.000000000000000
  0
LINE
  5
F101D0
330
F101D1
100
AcDbEntity
8
Geo
100
AcDbLine
10
-32.8377276669558
20
9.53294253337046
30
0.000000000000000
11
-32.7377276669558
21
9.47538709087102
31
0.000000000000000
  0
LINE
  5
F101D2
330
F101D3
100
AcDbEntity
8
Geo
100
AcDbLine
10
-32.7377276669558
20
9.47538709087102
30
0.000000000000000
11
-32.6377276669558
21
9.41812990728311
31
0.000000000000000
  0
LINE
  5
F101D4
330
F101D5
100
AcDbEntity
8
Geo
100
AcDbLine
10
-32.6377276669558
20
9.41812990728311
30
0.000000000000000
11
-32.5377276669558
21
9.36119891573759
31
0.000000000000000
  0
LINE
  5
F101D6
330
F101D7
100
AcDbEntity
8
Geo
100
AcDbLine
10
-32.5377276669558
20
9.36119891573759
30
0.000000000000000
11
-32.4377276669558
21
9.30462189998824
31
0.000000000000000
  0
LINE
  5
F101D8
330
F101D9
100
AcDbEntity
8
Geo
100
AcDbLine
10
-32.4377276669558
20
9.30462189998824
30
0.000000000000000
11
-32.3377276669558
21
9.24842650945728
31
0.000000000000000
  0
LINE
  5
F101DA
330
F101DB
100
AcDbEntity
8
Geo
100
AcDbLine
10
-32.3377276669558
20
9.24842650945728
30
0.000000000000000
11
-32.2377276669558
21
9.19264027389517
31
0.000000000000000
  0
LINE
  5
F101DC
330
F101DD
100
AcDbEntity
8
Geo
100
AcDbLine
10
-32.2377276669558
20
9.19264027389517
30
0.000000000000000
11
-32.1377276669558
21
9.13729061771808
31
0.000000000000000
  0
LINE
  5
F101DE
330
F101DF
100
AcDbEntity
8
Geo
100
AcDbLine
10
-32.1377276669558
20
9.13729061771808
30
0.000000000000000
11
-32.0377276669558
21
9.08240487408283
31
0.000000000000000
  0
LINE
  5
F101E0
330
F101E1
100
AcDbEntity
8
Geo
100
AcDbLine
10
-32.0377276669558
20
9.08240487408283
30
0.000000000000000
11
-31.9377276669558
21
9.02801029875662
31
0.000000000000000
  0
LINE
  5
F101E2
330
F101E3
100
AcDbEntity
8
Geo
100
AcDbLine
10
-31.9377276669558
20
9.02801029875662
30
0.000000000000000
11
-31.8377276669558
21
8.97413408383703
31
0.000000000000000
  0
LINE
  5
F101E4
330
F101E5
100
AcDbEntity
8
Geo
100
AcDbLine
10
-31.8377276669558
20
8.97413408383703
30
0.000000000000000
11
-31.7377276669558
21
8.92080337137588
31
0.000000000000000
  0
LINE
  5
F101E6
330
F101E7
100
AcDbEntity
8
Geo
100
AcDbLine
10
-31.7377276669558
20
8.92080337137588
30
0.000000000000000
11
-31.6377276669558
21
8.86804526695926
31
0.000000000000000
  0
LINE
  5
F101E8
330
F101E9
100
AcDbEntity
8
Geo
100
AcDbLine
10
-31.6377276669558
20
8.86804526695926
30
0.000000000000000
11
-31.5377276669558
21
8.81588685329552
31
0.000000000000000
  0
LINE
  5
F101EA
330
F101EB
100
AcDbEntity
8
Geo
100
AcDbLine
10
-31.5377276669558
20
8.81588685329552
30
0.000000000000000
11
-31.4377276669558
21
8.76435520386207
31
0.000000000000000
  0
LINE
  5
F101EC
330
F101ED
100
AcDbEntity
8
Geo
100
AcDbLine
10
-31.4377276669558
20
8.76435520386207
30
0.000000000000000
11
-31.3377276669558
21
8.71347739666228
31
0.000000000000000
  0
LINE
  5
F101EE
330
F101EF
100
AcDbEntity
8
Geo
100
AcDbLine
10
-31.3377276669558
20
8.71347739666228
30
0.000000000000000
11
-31.2377276669558
21
8.66328052814348
31
0.000000000000000
  0
LINE
  5
F101F0
330
F101F1
100
AcDbEntity
8
Geo
100
AcDbLine
10
-31.2377276669558
20
8.66328052814348
30
0.000000000000000
11
-31.1377276669558
21
8.61379172732824
31
0.000000000000000
  0
LINE
  5
F101F2
330
F101F3
100
AcDbEntity
8
Geo
100
AcDbLine
10
-31.1377276669558
20
8.61379172732824
30
0.000000000000000
11
-31.0377276669558
21
8.56503817021160
31
0.000000000000000
  0
LINE
  5
F101F4
330
F101F5
100
AcDbEntity
8
Geo
100
AcDbLine
10
-31.0377276669558
20
8.56503817021160
30
0.000000000000000
11
-30.9377276669558
21
8.51677543723038
31
0.000000000000000
  0
LINE
  5
F101F6
330
F101F7
100
AcDbEntity
8
Geo
100
AcDbLine
10
-30.9377276669558
20
8.51677543723038
30
0.000000000000000
11
-30.8377276669558
21
8.46874263594132
31
0.000000000000000
  0
LINE
  5
F101F8
330
F101F9
100
AcDbEntity
8
Geo
100
AcDbLine
10
-30.8377276669558
20
8.46874263594132
30
0.000000000000000
11
-30.7377276669558
21
8.42094226804195
31
0.000000000000000
  0
LINE
  5
F101FA
330
F101FB
100
AcDbEntity
8
Geo
100
AcDbLine
10
-30.7377276669558
20
8.42094226804195
30
0.000000000000000
11
-30.6377276669558
21
8.37337682312397
31
0.000000000000000
  0
LINE
  5
F101FC
330
F101FD
100
AcDbEntity
8
Geo
100
AcDbLine
10
-30.6377276669558
20
8.37337682312397
30
0.000000000000000
11
-30.5377276669558
21
8.32604877854354
31
0.000000000000000
  0
LINE
  5
F101FE
330
F101FF
100
AcDbEntity
8
Geo
100
AcDbLine
10
-30.5377276669558
20
8.32604877854354
30
0.000000000000000
11
-30.4377276669558
21
8.27896059929229
31
0.000000000000000
  0
LINE
  5
F10200
330
F10201
100
AcDbEntity
8
Geo
100
AcDbLine
10
-30.4377276669558
20
8.27896059929229
30
0.000000000000000
11
-30.3377276669558
21
8.23211473786892
31
0.000000000000000
  0
LINE
  5
F10202
330
F10203
100
AcDbEntity
8
Geo
100
AcDbLine
10
-30.3377276669558
20
8.23211473786892
30
0.000000000000000
11
-30.2377276669558
21
8.18551363415143
31
0.000000000000000
  0
LINE
  5
F10204
330
F10205
100
AcDbEntity
8
Geo
100
AcDbLine
10
-30.2377276669558
20
8.18551363415143
30
0.000000000000000
11
-30.1377276669558
21
8.13915971527013
31
0.000000000000000
  0
LINE
  5
F10206
330
F10207
100
AcDbEntity
8
Geo
100
AcDbLine
10
-30.1377276669558
20
8.13915971527013
30
0.000000000000000
11
-30.0377276669558
21
8.09305539548114
31
0.000000000000000
  0
LINE
  5
F10208
330
F10209
100
AcDbEntity
8
Geo
100
AcDbLine
10
-30.0377276669558
20
8.09305539548114
30
0.000000000000000
11
-29.9377276669558
21
8.04720307604068
31
0.000000000000000
  0
LINE
  5
F1020A
330
F1020B
100
AcDbEntity
8
Geo
100
AcDbLine
10
-29.9377276669558
20
8.04720307604068
30
0.000000000000000
11
-29.8377276669558
21
8.00160514508005
31
0.000000000000000
  0
LINE
  5
F1020C
330
F1020D
100
AcDbEntity
8
Geo
100
AcDbLine
10
-29.8377276669558
20
8.00160514508005
30
0.000000000000000
11
-29.7377276669558
21
7.95626397748116
31
0.000000000000000
  0
LINE
  5
F1020E
330
F1020F
100
AcDbEntity
8
Geo
100
AcDbLine
10
-29.7377276669558
20
7.95626397748116
30
0.000000000000000
11
-29.6377276669558
21
7.91118193475292
31
0.000000000000000
  0
LINE
  5
F10210
330
F10211
100
AcDbEntity
8
Geo
100
AcDbLine
10
-29.6377276669558
20
7.91118193475292
30
0.000000000000000
11
-29.5377276669558
21
7.86636136490818
31
0.000000000000000
  0
LINE
  5
F10212
330
F10213
100
AcDbEntity
8
Geo
100
AcDbLine
10
-29.5377276669558
20
7.86636136490818
30
0.000000000000000
11
-29.4377276669558
21
7.82180460234150
31
0.000000000000000
  0
LINE
  5
F10214
330
F10215
100
AcDbEntity
8
Geo
100
AcDbLine
10
-29.4377276669558
20
7.82180460234150
30
0.000000000000000
11
-29.3377276669558
21
7.77751396770752
31
0.000000000000000
  0
LINE
  5
F10216
330
F10217
100
AcDbEntity
8
Geo
100
AcDbLine
10
-29.3377276669558
20
7.77751396770752
30
0.000000000000000
11
-29.2377276669558
21
7.73349176780011
31
0.000000000000000
  0
LINE
  5
F10218
330
F10219
100
AcDbEntity
8
Geo
100
AcDbLine
10
-29.2377276669558
20
7.73349176780011
30
0.000000000000000
11
-29.1377276669558
21
7.68974029543225
31
0.000000000000000
  0
LINE
  5
F1021A
330
F1021B
100
AcDbEntity
8
Geo
100
AcDbLine
10
-29.1377276669558
20
7.68974029543225
30
0.000000000000000
11
-29.0377276669558
21
7.64626182931655
31
0.000000000000000
  0
LINE
  5
F1021C
330
F1021D
100
AcDbEntity
8
Geo
100
AcDbLine
10
-29.0377276669558
20
7.64626182931655
30
0.000000000000000
11
-28.9377276669558
21
7.60305863394663
31
0.000000000000000
  0
LINE
  5
F1021E
330
F1021F
100
AcDbEntity
8
Geo
100
AcDbLine
10
-28.9377276669558
20
7.60305863394663
30
0.000000000000000
11
-28.8377276669558
21
7.56013295947915
31
0.000000000000000
  0
LINE
  5
F10220
330
F10221
100
AcDbEntity
8
Geo
100
AcDbLine
10
-28.8377276669558
20
7.56013295947915
30
0.000000000000000
11
-28.7377276669558
21
7.51748704161662
31
0.000000000000000
  0
LINE
  5
F10222
330
F10223
100
AcDbEntity
8
Geo
100
AcDbLine
10
-28.7377276669558
20
7.51748704161662
30
0.000000000000000
11
-28.6377276669558
21
7.47512310149096
31
0.000000000000000
  0
LINE
  5
F10224
330
F10225
100
AcDbEntity
8
Geo
100
AcDbLine
10
-28.6377276669558
20
7.47512310149096
30
0.000000000000000
11
-28.5377276669558
21
7.43304334554779
31
0.000000000000000
  0
LINE
  5
F10226
330
F10227
100
AcDbEntity
8
Geo
100
AcDbLine
10
-28.5377276669558
20
7.43304334554779
30
0.000000000000000
11
-28.4377276669558
21
7.39124996543157
31
0.000000000000000
  0
LINE
  5
F10228
330
F10229
100
AcDbEntity
8
Geo
100
AcDbLine
10
-28.4377276669558
20
7.39124996543157
30
0.000000000000000
11
-28.3377276669558
21
7.34974513787139
31
0.000000000000000
  0
LINE
  5
F1022A
330
F1022B
100
AcDbEntity
8
Geo
100
AcDbLine
10
-28.3377276669558
20
7.34974513787139
30
0.000000000000000
11
-28.2377276669558
21
7.30853102456765
31
0.000000000000000
  0
LINE
  5
F1022C
330
F1022D
100
AcDbEntity
8
Geo
100
AcDbLine
10
-28.2377276669558
20
7.30853102456765
30
0.000000000000000
11
-28.1377276669558
21
7.26760977207942
31
0.000000000000000
  0
LINE
  5
F1022E
330
F1022F
100
AcDbEntity
8
Geo
100
AcDbLine
10
-28.1377276669558
20
7.26760977207942
30
0.000000000000000
11
-28.0377276669558
21
7.22698351171269
31
0.000000000000000
  0
LINE
  5
F10230
330
F10231
100
AcDbEntity
8
Geo
100
AcDbLine
10
-28.0377276669558
20
7.22698351171269
30
0.000000000000000
11
-27.9377276669558
21
7.18665435940933
31
0.000000000000000
  0
LINE
  5
F10232
330
F10233
100
AcDbEntity
8
Geo
100
AcDbLine
10
-27.9377276669558
20
7.18665435940933
30
0.000000000000000
11
-27.8377276669558
21
7.14662441563692
31
0.000000000000000
  0
LINE
  5
F10234
330
F10235
100
AcDbEntity
8
Geo
100
AcDbLine
10
-27.8377276669558
20
7.14662441563692
30
0.000000000000000
11
-27.7377276669558
21
7.10689576527930
31
0.000000000000000
  0
LINE
  5
F10236
330
F10237
100
AcDbEntity
8
Geo
100
AcDbLine
10
-27.7377276669558
20
7.10689576527930
30
0.000000000000000
11
-27.6377276669558
21
7.06747047752804
31
0.000000000000000
  0
LINE
  5
F10238
330
F10239
100
AcDbEntity
8
Geo
100
AcDbLine
10
-27.6377276669558
20
7.06747047752804
30
0.000000000000000
11
-27.5377276669558
21
7.02835060577463
31
0.000000000000000
  0
LINE
  5
F1023A
330
F1023B
100
AcDbEntity
8
Geo
100
AcDbLine
10
-27.5377276669558
20
7.02835060577463
30
0.000000000000000
11
-27.4377276669558
21
6.98953818750354
31
0.000000000000000
  0
LINE
  5
F1023C
330
F1023D
100
AcDbEntity
8
Geo
100
AcDbLine
10
-27.4377276669558
20
6.98953818750354
30
0.000000000000000
11
-27.3377276669558
21
6.95103524418612
31
0.000000000000000
  0
LINE
  5
F1023E
330
F1023F
100
AcDbEntity
8
Geo
100
AcDbLine
10
-27.3377276669558
20
6.95103524418612
30
0.000000000000000
11
-27.2377276669558
21
6.91284378117530
31
0.000000000000000
  0
LINE
  5
F10240
330
F10241
100
AcDbEntity
8
Geo
100
AcDbLine
10
-27.2377276669558
20
6.91284378117530
30
0.000000000000000
11
-27.1377276669558
21
6.87496578760113
31
0.000000000000000
  0
LINE
  5
F10242
330
F10243
100
AcDbEntity
8
Geo
100
AcDbLine
10
-27.1377276669558
20
6.87496578760113
30
0.000000000000000
11
-27.0377276669558
21
6.83740323626724
31
0.000000000000000
  0
LINE
  5
F10244
330
F10245
100
AcDbEntity
8
Geo
100
AcDbLine
10
-27.0377276669558
20
6.83740323626724
30
0.000000000000000
11
-26.9377276669558
21
6.80015808354800
31
0.000000000000000
  0
LINE
  5
F10246
330
F10247
100
AcDbEntity
8
Geo
100
AcDbLine
10
-26.9377276669558
20
6.80015808354800
30
0.000000000000000
11
-26.8377276669558
21
6.76323226928669
31
0.000000000000000
  0
LINE
  5
F10248
330
F10249
100
AcDbEntity
8
Geo
100
AcDbLine
10
-26.8377276669558
20
6.76323226928669
30
0.000000000000000
11
-26.7377276669558
21
6.72662771669448
31
0.000000000000000
  0
LINE
  5
F1024A
330
F1024B
100
AcDbEntity
8
Geo
100
AcDbLine
10
-26.7377276669558
20
6.72662771669448
30
0.000000000000000
11
-26.6377276669558
21
6.69034633225018
31
0.000000000000000
  0
LINE
  5
F1024C
330
F1024D
100
AcDbEntity
8
Geo
100
AcDbLine
10
-26.6377276669558
20
6.69034633225018
30
0.000000000000000
11
-26.5377276669558
21
6.65439000560106
31
0.000000000000000
  0
LINE
  5
F1024E
330
F1024F
100
AcDbEntity
8
Geo
100
AcDbLine
10
-26.5377276669558
20
6.65439000560106
30
0.000000000000000
11
-26.4377276669558
21
6.61876060946431
31
0.000000000000000
  0
LINE
  5
F10250
330
F10251
100
AcDbEntity
8
Geo
100
AcDbLine
10
-26.4377276669558
20
6.61876060946431
30
0.000000000000000
11
-26.3377276669558
21
6.58345999952960
31
0.000000000000000
  0
LINE
  5
F10252
330
F10253
100
AcDbEntity
8
Geo
100
AcDbLine
10
-26.3377276669558
20
6.58345999952960
30
0.000000000000000
11
-26.2377276669558
21
6.54849001436239
31
0.000000000000000
  0
LINE
  5
F10254
330
F10255
100
AcDbEntity
8
Geo
100
AcDbLine
10
-26.2377276669558
20
6.54849001436239
30
0.000000000000000
11
-26.1377276669558
21
6.51385247530817
31
0.000000000000000
  0
LINE
  5
F10256
330
F10257
100
AcDbEntity
8
Geo
100
AcDbLine
10
-26.1377276669558
20
6.51385247530817
30
0.000000000000000
11
-26.0377276669558
21
6.47954918639759
31
0.000000000000000
  0
LINE
  5
F10258
330
F10259
100
AcDbEntity
8
Geo
100
AcDbLine
10
-26.0377276669558
20
6.47954918639759
30
0.000000000000000
11
-25.9377276669558
21
6.44558193425254
31
0.000000000000000
  0
LINE
  5
F1025A
330
F1025B
100
AcDbEntity
8
Geo
100
AcDbLine
10
-25.9377276669558
20
6.44558193425254
30
0.000000000000000
11
-25.8377276669558
21
6.41195248799305
31
0.000000000000000
  0
LINE
  5
F1025C
330
F1025D
100
AcDbEntity
8
Geo
100
AcDbLine
10
-25.8377276669558
20
6.41195248799305
30
0.000000000000000
11
-25.7377276669558
21
6.37866259914518
31
0.000000000000000
  0
LINE
  5
F1025E
330
F1025F
100
AcDbEntity
8
Geo
100
AcDbLine
10
-25.7377276669558
20
6.37866259914518
30
0.000000000000000
11
-25.6377276669558
21
6.34571400154977
31
0.000000000000000
  0
LINE
  5
F10260
330
F10261
100
AcDbEntity
8
Geo
100
AcDbLine
10
-25.6377276669558
20
6.34571400154977
30
0.000000000000000
11
-25.5377276669558
21
6.31310841127219
31
0.000000000000000
  0
LINE
  5
F10262
330
F10263
100
AcDbEntity
8
Geo
100
AcDbLine
10
-25.5377276669558
20
6.31310841127219
30
0.000000000000000
11
-25.4377276669558
21
6.28084752651287
31
0.000000000000000
  0
LINE
  5
F10264
330
F10265
100
AcDbEntity
8
Geo
100
AcDbLine
10
-25.4377276669558
20
6.28084752651287
30
0.000000000000000
11
-25.3377276669558
21
6.24893302751895
31
0.000000000000000
  0
LINE
  5
F10266
330
F10267
100
AcDbEntity
8
Geo
100
AcDbLine
10
-25.3377276669558
20
6.24893302751895
30
0.000000000000000
11
-25.2377276669558
21
6.21736657649669
31
0.000000000000000
  0
LINE
  5
F10268
330
F10269
100
AcDbEntity
8
Geo
100
AcDbLine
10
-25.2377276669558
20
6.21736657649669
30
0.000000000000000
11
-25.1377276669558
21
6.18614981752495
31
0.000000000000000
  0
LINE
  5
F1026A
330
F1026B
100
AcDbEntity
8
Geo
100
AcDbLine
10
-25.1377276669558
20
6.18614981752495
30
0.000000000000000
11
-25.0377276669558
21
6.15528437646954
31
0.000000000000000
  0
LINE
  5
F1026C
330
F1026D
100
AcDbEntity
8
Geo
100
AcDbLine
10
-25.0377276669558
20
6.15528437646954
30
0.000000000000000
11
-24.9377276669558
21
6.12477186089854
31
0.000000000000000
  0
LINE
  5
F1026E
330
F1026F
100
AcDbEntity
8
Geo
100
AcDbLine
10
-24.9377276669558
20
6.12477186089854
30
0.000000000000000
11
-24.8377276669558
21
6.09461385999857
31
0.000000000000000
  0
LINE
  5
F10270
330
F10271
100
AcDbEntity
8
Geo
100
AcDbLine
10
-24.8377276669558
20
6.09461385999857
30
0.000000000000000
11
-24.7377276669558
21
6.06481194449202
31
0.000000000000000
  0
LINE
  5
F10272
330
F10273
100
AcDbEntity
8
Geo
100
AcDbLine
10
-24.7377276669558
20
6.06481194449202
30
0.000000000000000
11
-24.6377276669558
21
6.03536766655526
31
0.000000000000000
  0
LINE
  5
F10274
330
F10275
100
AcDbEntity
8
Geo
100
AcDbLine
10
-24.6377276669558
20
6.03536766655526
30
0.000000000000000
11
-24.5377276669558
21
6.00628255973777
31
0.000000000000000
  0
LINE
  5
F10276
330
F10277
100
AcDbEntity
8
Geo
100
AcDbLine
10
-24.5377276669558
20
6.00628255973777
30
0.000000000000000
11
-24.4377276669558
21
5.97755813888229
31
0.000000000000000
  0
LINE
  5
F10278
330
F10279
100
AcDbEntity
8
Geo
100
AcDbLine
10
-24.4377276669558
20
5.97755813888229
30
0.000000000000000
11
-24.3377276669558
21
5.94919590004591
31
0.000000000000000
  0
LINE
  5
F1027A
330
F1027B
100
AcDbEntity
8
Geo
100
AcDbLine
10
-24.3377276669558
20
5.94919590004591
30
0.000000000000000
11
-24.2377276669558
21
5.92119732042217
31
0.000000000000000
  0
LINE
  5
F1027C
330
F1027D
100
AcDbEntity
8
Geo
100
AcDbLine
10
-24.2377276669558
20
5.92119732042217
30
0.000000000000000
11
-24.1377276669558
21
5.89356385826408
31
0.000000000000000
  0
LINE
  5
F1027E
330
F1027F
100
AcDbEntity
8
Geo
100
AcDbLine
10
-24.1377276669558
20
5.89356385826408
30
0.000000000000000
11
-24.0377276669558
21
5.86629695280823
31
0.000000000000000
  0
LINE
  5
F10280
330
F10281
100
AcDbEntity
8
Geo
100
AcDbLine
10
-37.9377276669558
20
9.04764113034575
30
0.000000000000000
11
-37.9377276669558
21
8.89162655954829
31
0.000000000000000
  0
LINE
  5
F10282
330
F10283
100
AcDbEntity
8
Geo
100
AcDbLine
10
-37.9377276669558
20
8.89162655954829
30
0.000000000000000
11
-37.8660915016557
21
8.76333633622689
31
0.000000000000000
  0
LINE
  5
F10284
330
F10285
100
AcDbEntity
8
Geo
100
AcDbLine
10
-37.9377276669558
20
13.1952239315670
30
0.000000000000000
11
-37.9377276669558
21
14.0741867460718
31
0.000000000000000
  0
LINE
  5
F10286
330
F10287
100
AcDbEntity
8
Geo
100
AcDbLine
10
-37.9377276669558
20
14.0741867460718
30
0.000000000000000
11
-37.8377276669558
21
14.7401947695453
31
0.000000000000000
  0
LINE
  5
F10288
330
F10289
100
AcDbEntity
8
Geo
100
AcDbLine
10
-37.8377276669558
20
14.7401947695453
30
0.000000000000000
11
-37.7377276669558
21
15.1460150448873
31
0.000000000000000
  0
LINE
  5
F1028A
330
F1028B
100
AcDbEntity
8
Geo
100
AcDbLine
10
-37.7377276669558
20
15.1460150448873
30
0.000000000000000
11
-37.6377276669558
21
15.4600476594451
31
0.000000000000000
  0
LINE
  5
F1028C
330
F1028D
100
AcDbEntity
8
Geo
100
AcDbLine
10
-37.6377276669558
20
15.4600476594451
30
0.000000000000000
11
-37.5377276669558
21
15.7220434932869
31
0.000000000000000
  0
LINE
  5
F1028E
330
F1028F
100
AcDbEntity
8
Geo
100
AcDbLine
10
-37.5377276669558
20
15.7220434932869
30
0.000000000000000
11
-37.4377276669558
21
15.9491301041465
31
0.000000000000000
  0
LINE
  5
F10290
330
F10291
100
AcDbEntity
8
Geo
100
AcDbLine
10
-37.4377276669558
20
15.9491301041465
30
0.000000000000000
11
-37.3377276669558
21
16.1505592600492
31
0.000000000000000
  0
LINE
  5
F10292
330
F10293
100
AcDbEntity
8
Geo
100
AcDbLine
10
-37.3377276669558
20
16.1505592600492
30
0.000000000000000
11
-37.2377276669558
21
16.3320032267827
31
0.000000000000000
  0
LINE
  5
F10294
330
F10295
100
AcDbEntity
8
Geo
100
AcDbLine
10
-37.2377276669558
20
16.3320032267827
30
0.000000000000000
11
-37.1377276669558
21
16.4972377545907
31
0.000000000000000
  0
LINE
  5
F10296
330
F10297
100
AcDbEntity
8
Geo
100
AcDbLine
10
-37.1377276669558
20
16.4972377545907
30
0.000000000000000
11
-37.0377276669558
21
16.6489263641047
31
0.000000000000000
  0
LINE
  5
F10298
330
F10299
100
AcDbEntity
8
Geo
100
AcDbLine
10
-37.0377276669558
20
16.6489263641047
30
0.000000000000000
11
-36.9377276669558
21
16.7890310648216
31
0.000000000000000
  0
LINE
  5
F1029A
330
F1029B
100
AcDbEntity
8
Geo
100
AcDbLine
10
-36.9377276669558
20
16.7890310648216
30
0.000000000000000
11
-36.8377276669558
21
16.9190464317262
31
0.000000000000000
  0
LINE
  5
F1029C
330
F1029D
100
AcDbEntity
8
Geo
100
AcDbLine
10
-36.8377276669558
20
16.9190464317262
30
0.000000000000000
11
-36.7377276669558
21
17.0401418939144
31
0.000000000000000
  0
LINE
  5
F1029E
330
F1029F
100
AcDbEntity
8
Geo
100
AcDbLine
10
-36.7377276669558
20
17.0401418939144
30
0.000000000000000
11
-36.6377276669558
21
17.1532527440395
31
0.000000000000000
  0
LINE
  5
F102A0
330
F102A1
100
AcDbEntity
8
Geo
100
AcDbLine
10
-36.6377276669558
20
17.1532527440395
30
0.000000000000000
11
-36.5377276669558
21
17.2591408017715
31
0.000000000000000
  0
LINE
  5
F102A2
330
F102A3
100
AcDbEntity
8
Geo
100
AcDbLine
10
-36.5377276669558
20
17.2591408017715
30
0.000000000000000
11
-36.4377276669558
21
17.3584362557568
31
0.000000000000000
  0
LINE
  5
F102A4
330
F102A5
100
AcDbEntity
8
Geo
100
AcDbLine
10
-36.4377276669558
20
17.3584362557568
30
0.000000000000000
11
-36.3377276669558
21
17.4516673666727
31
0.000000000000000
  0
LINE
  5
F102A6
330
F102A7
100
AcDbEntity
8
Geo
100
AcDbLine
10
-36.3377276669558
20
17.4516673666727
30
0.000000000000000
11
-36.2377276669558
21
17.5392820781267
31
0.000000000000000
  0
LINE
  5
F102A8
330
F102A9
100
AcDbEntity
8
Geo
100
AcDbLine
10
-36.2377276669558
20
17.5392820781267
30
0.000000000000000
11
-36.1377276669558
21
17.6216640779251
31
0.000000000000000
  0
LINE
  5
F102AA
330
F102AB
100
AcDbEntity
8
Geo
100
AcDbLine
10
-36.1377276669558
20
17.6216640779251
30
0.000000000000000
11
-36.0377276669558
21
17.6991449585954
31
0.000000000000000
  0
LINE
  5
F102AC
330
F102AD
100
AcDbEntity
8
Geo
100
AcDbLine
10
-36.0377276669558
20
17.6991449585954
30
0.000000000000000
11
-35.9377276669558
21
17.7720135764074
31
0.000000000000000
  0
LINE
  5
F102AE
330
F102AF
100
AcDbEntity
8
Geo
100
AcDbLine
10
-35.9377276669558
20
17.7720135764074
30
0.000000000000000
11
-35.8377276669558
21
17.8405233596837
31
0.000000000000000
  0
LINE
  5
F102B0
330
F102B1
100
AcDbEntity
8
Geo
100
AcDbLine
10
-35.8377276669558
20
17.8405233596837
30
0.000000000000000
11
-35.7377276669558
21
17.9048980903211
31
0.000000000000000
  0
LINE
  5
F102B2
330
F102B3
100
AcDbEntity
8
Geo
100
AcDbLine
10
-35.7377276669558
20
17.9048980903211
30
0.000000000000000
11
-35.6377276669558
21
17.9653365311937
31
0.000000000000000
  0
LINE
  5
F102B4
330
F102B5
100
AcDbEntity
8
Geo
100
AcDbLine
10
-35.6377276669558
20
17.9653365311937
30
0.000000000000000
11
-35.5377276669558
21
18.0220161691187
31
0.000000000000000
  0
LINE
  5
F102B6
330
F102B7
100
AcDbEntity
8
Geo
100
AcDbLine
10
-35.5377276669558
20
18.0220161691187
30
0.000000000000000
11
-35.4377276669558
21
18.0750962715907
31
0.000000000000000
  0
LINE
  5
F102B8
330
F102B9
100
AcDbEntity
8
Geo
100
AcDbLine
10
-35.4377276669558
20
18.0750962715907
30
0.000000000000000
11
-35.3377276669558
21
18.1247204050251
31
0.000000000000000
  0
LINE
  5
F102BA
330
F102BB
100
AcDbEntity
8
Geo
100
AcDbLine
10
-35.3377276669558
20
18.1247204050251
30
0.000000000000000
11
-35.2377276669558
21
18.1710185260580
31
0.000000000000000
  0
LINE
  5
F102BC
330
F102BD
100
AcDbEntity
8
Geo
100
AcDbLine
10
-35.2377276669558
20
18.1710185260580
30
0.000000000000000
11
-35.1377276669558
21
18.2141087311199
31
0.000000000000000
  0
LINE
  5
F102BE
330
F102BF
100
AcDbEntity
8
Geo
100
AcDbLine
10
-35.1377276669558
20
18.2141087311199
30
0.000000000000000
11
-35.0377276669558
21
18.2540987300914
31
0.000000000000000
  0
LINE
  5
F102C0
330
F102C1
100
AcDbEntity
8
Geo
100
AcDbLine
10
-35.0377276669558
20
18.2540987300914
30
0.000000000000000
11
-34.9377276669558
21
18.2910870953735
31
0.000000000000000
  0
LINE
  5
F102C2
330
F102C3
100
AcDbEntity
8
Geo
100
AcDbLine
10
-34.9377276669558
20
18.2910870953735
30
0.000000000000000
11
-34.8377276669558
21
18.3251643267770
31
0.000000000000000
  0
LINE
  5
F102C4
330
F102C5
100
AcDbEntity
8
Geo
100
AcDbLine
10
-34.8377276669558
20
18.3251643267770
30
0.000000000000000
11
-34.7377276669558
21
18.3564137643173
31
0.000000000000000
  0
LINE
  5
F102C6
330
F102C7
100
AcDbEntity
8
Geo
100
AcDbLine
10
-34.7377276669558
20
18.3564137643173
30
0.000000000000000
11
-34.6377276669558
21
18.3849123745869
31
0.000000000000000
  0
LINE
  5
F102C8
330
F102C9
100
AcDbEntity
8
Geo
100
AcDbLine
10
-34.6377276669558
20
18.3849123745869
30
0.000000000000000
11
-34.5377276669558
21
18.4107314314118
31
0.000000000000000
  0
LINE
  5
F102CA
330
F102CB
100
AcDbEntity
8
Geo
100
AcDbLine
10
-34.5377276669558
20
18.4107314314118
30
0.000000000000000
11
-34.4377276669558
21
18.4339371075958
31
0.000000000000000
  0
LINE
  5
F102CC
330
F102CD
100
AcDbEntity
8
Geo
100
AcDbLine
10
-34.4377276669558
20
18.4339371075958
30
0.000000000000000
11
-34.3377276669558
21
18.4545909914907
31
0.000000000000000
  0
LINE
  5
F102CE
330
F102CF
100
AcDbEntity
8
Geo
100
AcDbLine
10
-34.3377276669558
20
18.4545909914907
30
0.000000000000000
11
-34.2377276669558
21
18.4727505396832
31
0.000000000000000
  0
LINE
  5
F102D0
330
F102D1
100
AcDbEntity
8
Geo
100
AcDbLine
10
-34.2377276669558
20
18.4727505396832
30
0.000000000000000
11
-34.1377276669558
21
18.4884694751368
31
0.000000000000000
  0
LINE
  5
F102D2
330
F102D3
100
AcDbEntity
8
Geo
100
AcDbLine
10
-34.1377276669558
20
18.4884694751368
30
0.000000000000000
11
-34.0377276669558
21
18.5017981385531
31
0.000000000000000
  0
LINE
  5
F102D4
330
F102D5
100
AcDbEntity
8
Geo
100
AcDbLine
10
-34.0377276669558
20
18.5017981385531
30
0.000000000000000
11
-33.9377276669558
21
18.5127837994375
31
0.000000000000000
  0
LINE
  5
F102D6
330
F102D7
100
AcDbEntity
8
Geo
100
AcDbLine
10
-33.9377276669558
20
18.5127837994375
30
0.000000000000000
11
-33.8377276669558
21
18.5214709323185
31
0.000000000000000
  0
LINE
  5
F102D8
330
F102D9
100
AcDbEntity
8
Geo
100
AcDbLine
10
-33.8377276669558
20
18.5214709323185
30
0.000000000000000
11
-33.7377276669558
21
18.5279014627130
31
0.000000000000000
  0
LINE
  5
F102DA
330
F102DB
100
AcDbEntity
8
Geo
100
AcDbLine
10
-33.7377276669558
20
18.5279014627130
30
0.000000000000000
11
-33.6377276669558
21
18.5321149867315
31
0.000000000000000
  0
LINE
  5
F102DC
330
F102DD
100
AcDbEntity
8
Geo
100
AcDbLine
10
-33.6377276669558
20
18.5321149867315
30
0.000000000000000
11
-33.5377276669558
21
18.5341489676301
31
0.000000000000000
  0
LINE
  5
F102DE
330
F102DF
100
AcDbEntity
8
Geo
100
AcDbLine
10
-33.5377276669558
20
18.5341489676301
30
0.000000000000000
11
-33.4377276669558
21
18.5340389121390
31
0.000000000000000
  0
LINE
  5
F102E0
330
F102E1
100
AcDbEntity
8
Geo
100
AcDbLine
10
-33.4377276669558
20
18.5340389121390
30
0.000000000000000
11
-33.3377276669558
21
18.5318185289872
31
0.000000000000000
  0
LINE
  5
F102E2
330
F102E3
100
AcDbEntity
8
Geo
100
AcDbLine
10
-33.3377276669558
20
18.5318185289872
30
0.000000000000000
11
-33.2377276669558
21
18.5275198717057
31
0.000000000000000
  0
LINE
  5
F102E4
330
F102E5
100
AcDbEntity
8
Geo
100
AcDbLine
10
-33.2377276669558
20
18.5275198717057
30
0.000000000000000
11
-33.1377276669558
21
18.5211734675074
31
0.000000000000000
  0
LINE
  5
F102E6
330
F102E7
100
AcDbEntity
8
Geo
100
AcDbLine
10
-33.1377276669558
20
18.5211734675074
30
0.000000000000000
11
-33.0377276669558
21
18.5128084337961
31
0.000000000000000
  0
LINE
  5
F102E8
330
F102E9
100
AcDbEntity
8
Geo
100
AcDbLine
10
-33.0377276669558
20
18.5128084337961
30
0.000000000000000
11
-32.9377276669558
21
18.5024525836558
31
0.000000000000000
  0
LINE
  5
F102EA
330
F102EB
100
AcDbEntity
8
Geo
100
AcDbLine
10
-32.9377276669558
20
18.5024525836558
30
0.000000000000000
11
-32.8377276669558
21
18.4901325214920
31
0.000000000000000
  0
LINE
  5
F102EC
330
F102ED
100
AcDbEntity
8
Geo
100
AcDbLine
10
-32.8377276669558
20
18.4901325214920
30
0.000000000000000
11
-32.7377276669558
21
18.4758737298509
31
0.000000000000000
  0
LINE
  5
F102EE
330
F102EF
100
AcDbEntity
8
Geo
100
AcDbLine
10
-32.7377276669558
20
18.4758737298509
30
0.000000000000000
11
-32.6377276669558
21
18.4597006483101
31
0.000000000000000
  0
LINE
  5
F102F0
330
F102F1
100
AcDbEntity
8
Geo
100
AcDbLine
10
-32.6377276669558
20
18.4597006483101
30
0.000000000000000
11
-32.5377276669558
21
18.4416367452272
31
0.000000000000000
  0
LINE
  5
F102F2
330
F102F3
100
AcDbEntity
8
Geo
100
AcDbLine
10
-32.5377276669558
20
18.4416367452272
30
0.000000000000000
11
-32.4377276669558
21
18.4217045830329
31
0.000000000000000
  0
LINE
  5
F102F4
330
F102F5
100
AcDbEntity
8
Geo
100
AcDbLine
10
-32.4377276669558
20
18.4217045830329
30
0.000000000000000
11
-32.3377276669558
21
18.3999258776765
31
0.000000000000000
  0
LINE
  5
F102F6
330
F102F7
100
AcDbEntity
8
Geo
100
AcDbLine
10
-32.3377276669558
20
18.3999258776765
30
0.000000000000000
11
-32.2377276669558
21
18.3763215527551
31
0.000000000000000
  0
LINE
  5
F102F8
330
F102F9
100
AcDbEntity
8
Geo
100
AcDbLine
10
-32.2377276669558
20
18.3763215527551
30
0.000000000000000
11
-32.1377276669558
21
18.3509117887971
31
0.000000000000000
  0
LINE
  5
F102FA
330
F102FB
100
AcDbEntity
8
Geo
100
AcDbLine
10
-32.1377276669558
20
18.3509117887971
30
0.000000000000000
11
-32.0377276669558
21
18.3237160681165
31
0.000000000000000
  0
LINE
  5
F102FC
330
F102FD
100
AcDbEntity
8
Geo
100
AcDbLine
10
-32.0377276669558
20
18.3237160681165
30
0.000000000000000
11
-31.9377276669558
21
18.2947532156011
31
0.000000000000000
  0
LINE
  5
F102FE
330
F102FF
100
AcDbEntity
8
Geo
100
AcDbLine
10
-31.9377276669558
20
18.2947532156011
30
0.000000000000000
11
-31.8377276669558
21
18.2640414357605
31
0.000000000000000
  0
LINE
  5
F10300
330
F10301
100
AcDbEntity
8
Geo
100
AcDbLine
10
-31.8377276669558
20
18.2640414357605
30
0.000000000000000
11
-31.7377276669558
21
18.2315983463167
31
0.000000000000000
  0
LINE
  5
F10302
330
F10303
100
AcDbEntity
8
Geo
100
AcDbLine
10
-31.7377276669558
20
18.2315983463167
30
0.000000000000000
11
-31.6377276669558
21
18.1974410085902
31
0.000000000000000
  0
LINE
  5
F10304
330
F10305
100
AcDbEntity
8
Geo
100
AcDbLine
10
-31.6377276669558
20
18.1974410085902
30
0.000000000000000
11
-31.5377276669558
21
18.1615859549004
31
0.000000000000000
  0
LINE
  5
F10306
330
F10307
100
AcDbEntity
8
Geo
100
AcDbLine
10
-31.5377276669558
20
18.1615859549004
30
0.000000000000000
11
-31.4377276669558
21
18.1240492131750
31
0.000000000000000
  0
LINE
  5
F10308
330
F10309
100
AcDbEntity
8
Geo
100
AcDbLine
10
-31.4377276669558
20
18.1240492131750
30
0.000000000000000
11
-31.3377276669558
21
18.0848463289361
31
0.000000000000000
  0
LINE
  5
F1030A
330
F1030B
100
AcDbEntity
8
Geo
100
AcDbLine
10
-31.3377276669558
20
18.0848463289361
30
0.000000000000000
11
-31.2377276669558
21
18.0439923848090
31
0.000000000000000
  0
LINE
  5
F1030C
330
F1030D
100
AcDbEntity
8
Geo
100
AcDbLine
10
-31.2377276669558
20
18.0439923848090
30
0.000000000000000
11
-31.1377276669558
21
18.0015020176793
31
0.000000000000000
  0
LINE
  5
F1030E
330
F1030F
100
AcDbEntity
8
Geo
100
AcDbLine
10
-31.1377276669558
20
18.0015020176793
30
0.000000000000000
11
-31.0377276669558
21
17.9573894336040
31
0.000000000000000
  0
LINE
  5
F10310
330
F10311
100
AcDbEntity
8
Geo
100
AcDbLine
10
-31.0377276669558
20
17.9573894336040
30
0.000000000000000
11
-30.9377276669558
21
17.9123398788335
31
0.000000000000000
  0
LINE
  5
F10312
330
F10313
100
AcDbEntity
8
Geo
100
AcDbLine
10
-30.9377276669558
20
17.9123398788335
30
0.000000000000000
11
-30.8377276669558
21
17.8670309055645
31
0.000000000000000
  0
LINE
  5
F10314
330
F10315
100
AcDbEntity
8
Geo
100
AcDbLine
10
-30.8377276669558
20
17.8670309055645
30
0.000000000000000
11
-30.7377276669558
21
17.8214648736289
31
0.000000000000000
  0
LINE
  5
F10316
330
F10317
100
AcDbEntity
8
Geo
100
AcDbLine
10
-30.7377276669558
20
17.8214648736289
30
0.000000000000000
11
-30.6377276669558
21
17.7756441562474
31
0.000000000000000
  0
LINE
  5
F10318
330
F10319
100
AcDbEntity
8
Geo
100
AcDbLine
10
-30.6377276669558
20
17.7756441562474
30
0.000000000000000
11
-30.5377276669558
21
17.7295711399053
31
0.000000000000000
  0
LINE
  5
F1031A
330
F1031B
100
AcDbEntity
8
Geo
100
AcDbLine
10
-30.5377276669558
20
17.7295711399053
30
0.000000000000000
11
-30.4377276669558
21
17.6832482242284
31
0.000000000000000
  0
LINE
  5
F1031C
330
F1031D
100
AcDbEntity
8
Geo
100
AcDbLine
10
-30.4377276669558
20
17.6832482242284
30
0.000000000000000
11
-30.3377276669558
21
17.6366778218582
31
0.000000000000000
  0
LINE
  5
F1031E
330
F1031F
100
AcDbEntity
8
Geo
100
AcDbLine
10
-30.3377276669558
20
17.6366778218582
30
0.000000000000000
11
-30.2377276669558
21
17.5898623583259
31
0.000000000000000
  0
LINE
  5
F10320
330
F10321
100
AcDbEntity
8
Geo
100
AcDbLine
10
-30.2377276669558
20
17.5898623583259
30
0.000000000000000
11
-30.1377276669558
21
17.5428042719263
31
0.000000000000000
  0
LINE
  5
F10322
330
F10323
100
AcDbEntity
8
Geo
100
AcDbLine
10
-30.1377276669558
20
17.5428042719263
30
0.000000000000000
11
-30.0377276669558
21
17.4955060135907
31
0.000000000000000
  0
LINE
  5
F10324
330
F10325
100
AcDbEntity
8
Geo
100
AcDbLine
10
-30.0377276669558
20
17.4955060135907
30
0.000000000000000
11
-29.9377276669558
21
17.4479700467594
31
0.000000000000000
  0
LINE
  5
F10326
330
F10327
100
AcDbEntity
8
Geo
100
AcDbLine
10
-29.9377276669558
20
17.4479700467594
30
0.000000000000000
11
-29.8377276669558
21
17.4001988472534
31
0.000000000000000
  0
LINE
  5
F10328
330
F10329
100
AcDbEntity
8
Geo
100
AcDbLine
10
-29.8377276669558
20
17.4001988472534
30
0.000000000000000
11
-29.7377276669558
21
17.3521949031450
31
0.000000000000000
  0
LINE
  5
F1032A
330
F1032B
100
AcDbEntity
8
Geo
100
AcDbLine
10
-29.7377276669558
20
17.3521949031450
30
0.000000000000000
11
-29.6377276669558
21
17.3039607146289
31
0.000000000000000
  0
LINE
  5
F1032C
330
F1032D
100
AcDbEntity
8
Geo
100
AcDbLine
10
-29.6377276669558
20
17.3039607146289
30
0.000000000000000
11
-29.5377276669558
21
17.2554987938915
31
0.000000000000000
  0
LINE
  5
F1032E
330
F1032F
100
AcDbEntity
8
Geo
100
AcDbLine
10
-29.5377276669558
20
17.2554987938915
30
0.000000000000000
11
-29.4377276669558
21
17.2068116649802
31
0.000000000000000
  0
LINE
  5
F10330
330
F10331
100
AcDbEntity
8
Geo
100
AcDbLine
10
-29.4377276669558
20
17.2068116649802
30
0.000000000000000
11
-29.3377276669558
21
17.1579018636720
31
0.000000000000000
  0
LINE
  5
F10332
330
F10333
100
AcDbEntity
8
Geo
100
AcDbLine
10
-29.3377276669558
20
17.1579018636720
30
0.000000000000000
11
-29.2377276669558
21
17.1087719373412
31
0.000000000000000
  0
LINE
  5
F10334
330
F10335
100
AcDbEntity
8
Geo
100
AcDbLine
10
-29.2377276669558
20
17.1087719373412
30
0.000000000000000
11
-29.1377276669558
21
17.0594244448272
31
0.000000000000000
  0
LINE
  5
F10336
330
F10337
100
AcDbEntity
8
Geo
100
AcDbLine
10
-29.1377276669558
20
17.0594244448272
30
0.000000000000000
11
-29.0377276669558
21
17.0098619563006
31
0.000000000000000
  0
LINE
  5
F10338
330
F10339
100
AcDbEntity
8
Geo
100
AcDbLine
10
-29.0377276669558
20
17.0098619563006
30
0.000000000000000
11
-28.9377276669558
21
16.9600870531298
31
0.000000000000000
  0
LINE
  5
F1033A
330
F1033B
100
AcDbEntity
8
Geo
100
AcDbLine
10
-28.9377276669558
20
16.9600870531298
30
0.000000000000000
11
-28.8377276669558
21
16.9101023277466
31
0.000000000000000
  0
LINE
  5
F1033C
330
F1033D
100
AcDbEntity
8
Geo
100
AcDbLine
10
-28.8377276669558
20
16.9101023277466
30
0.000000000000000
11
-28.7377276669558
21
16.8599103835106
31
0.000000000000000
  0
LINE
  5
F1033E
330
F1033F
100
AcDbEntity
8
Geo
100
AcDbLine
10
-28.7377276669558
20
16.8599103835106
30
0.000000000000000
11
-28.6377276669558
21
16.8095138345744
31
0.000000000000000
  0
LINE
  5
F10340
330
F10341
100
AcDbEntity
8
Geo
100
AcDbLine
10
-28.6377276669558
20
16.8095138345744
30
0.000000000000000
11
-28.5377276669558
21
16.7589153057467
31
0.000000000000000
  0
LINE
  5
F10342
330
F10343
100
AcDbEntity
8
Geo
100
AcDbLine
10
-28.5377276669558
20
16.7589153057467
30
0.000000000000000
11
-28.4377276669558
21
16.7081174323563
31
0.000000000000000
  0
LINE
  5
F10344
330
F10345
100
AcDbEntity
8
Geo
100
AcDbLine
10
-28.4377276669558
20
16.7081174323563
30
0.000000000000000
11
-28.3377276669558
21
16.6571228601141
31
0.000000000000000
  0
LINE
  5
F10346
330
F10347
100
AcDbEntity
8
Geo
100
AcDbLine
10
-28.3377276669558
20
16.6571228601141
30
0.000000000000000
11
-28.2377276669558
21
16.6059342449759
31
0.000000000000000
  0
LINE
  5
F10348
330
F10349
100
AcDbEntity
8
Geo
100
AcDbLine
10
-28.2377276669558
20
16.6059342449759
30
0.000000000000000
11
-28.1377276669558
21
16.5545542530039
31
0.000000000000000
  0
LINE
  5
F1034A
330
F1034B
100
AcDbEntity
8
Geo
100
AcDbLine
10
-28.1377276669558
20
16.5545542530039
30
0.000000000000000
11
-28.0377276669558
21
16.5029855602278
31
0.000000000000000
  0
LINE
  5
F1034C
330
F1034D
100
AcDbEntity
8
Geo
100
AcDbLine
10
-28.0377276669558
20
16.5029855602278
30
0.000000000000000
11
-27.9377276669558
21
16.4512308525052
31
0.000000000000000
  0
LINE
  5
F1034E
330
F1034F
100
AcDbEntity
8
Geo
100
AcDbLine
10
-27.9377276669558
20
16.4512308525052
30
0.000000000000000
11
-27.8377276669558
21
16.3992928253822
31
0.000000000000000
  0
LINE
  5
F10350
330
F10351
100
AcDbEntity
8
Geo
100
AcDbLine
10
-27.8377276669558
20
16.3992928253822
30
0.000000000000000
11
-27.7377276669558
21
16.3471741839526
31
0.000000000000000
  0
LINE
  5
F10352
330
F10353
100
AcDbEntity
8
Geo
100
AcDbLine
10
-27.7377276669558
20
16.3471741839526
30
0.000000000000000
11
-27.6377276669558
21
16.2948776427172
31
0.000000000000000
  0
LINE
  5
F10354
330
F10355
100
AcDbEntity
8
Geo
100
AcDbLine
10
-27.6377276669558
20
16.2948776427172
30
0.000000000000000
11
-27.5377276669558
21
16.2424059254424
31
0.000000000000000
  0
LINE
  5
F10356
330
F10357
100
AcDbEntity
8
Geo
100
AcDbLine
10
-27.5377276669558
20
16.2424059254424
30
0.000000000000000
11
-27.4377276669558
21
16.1897617650182
31
0.000000000000000
  0
LINE
  5
F10358
330
F10359
100
AcDbEntity
8
Geo
100
AcDbLine
10
-27.4377276669558
20
16.1897617650182
30
0.000000000000000
11
-27.3377276669558
21
16.1369479033162
31
0.000000000000000
  0
LINE
  5
F1035A
330
F1035B
100
AcDbEntity
8
Geo
100
AcDbLine
10
-27.3377276669558
20
16.1369479033162
30
0.000000000000000
11
-27.2377276669558
21
16.0839670910462
31
0.000000000000000
  0
LINE
  5
F1035C
330
F1035D
100
AcDbEntity
8
Geo
100
AcDbLine
10
-27.2377276669558
20
16.0839670910462
30
0.000000000000000
11
-27.1377276669558
21
16.0308220876137
31
0.000000000000000
  0
LINE
  5
F1035E
330
F1035F
100
AcDbEntity
8
Geo
100
AcDbLine
10
-27.1377276669558
20
16.0308220876137
30
0.000000000000000
11
-27.0377276669558
21
15.9775156609756
31
0.000000000000000
  0
LINE
  5
F10360
330
F10361
100
AcDbEntity
8
Geo
100
AcDbLine
10
-27.0377276669558
20
15.9775156609756
30
0.000000000000000
11
-26.9377276669558
21
15.9240505874962
31
0.000000000000000
  0
LINE
  5
F10362
330
F10363
100
AcDbEntity
8
Geo
100
AcDbLine
10
-26.9377276669558
20
15.9240505874962
30
0.000000000000000
11
-26.8377276669558
21
15.8704296518027
31
0.000000000000000
  0
LINE
  5
F10364
330
F10365
100
AcDbEntity
8
Geo
100
AcDbLine
10
-26.8377276669558
20
15.8704296518027
30
0.000000000000000
11
-26.7377276669558
21
15.8166556466400
31
0.000000000000000
  0
LINE
  5
F10366
330
F10367
100
AcDbEntity
8
Geo
100
AcDbLine
10
-26.7377276669558
20
15.8166556466400
30
0.000000000000000
11
-26.6377276669558
21
15.7627313727253
31
0.000000000000000
  0
LINE
  5
F10368
330
F10369
100
AcDbEntity
8
Geo
100
AcDbLine
10
-26.6377276669558
20
15.7627313727253
30
0.000000000000000
11
-26.5377276669558
21
15.7086596386026
31
0.000000000000000
  0
LINE
  5
F1036A
330
F1036B
100
AcDbEntity
8
Geo
100
AcDbLine
10
-26.5377276669558
20
15.7086596386026
30
0.000000000000000
11
-26.4377276669558
21
15.6544432604955
31
0.000000000000000
  0
LINE
  5
F1036C
330
F1036D
100
AcDbEntity
8
Geo
100
AcDbLine
10
-26.4377276669558
20
15.6544432604955
30
0.000000000000000
11
-26.3377276669558
21
15.6000850621617
31
0.000000000000000
  0
LINE
  5
F1036E
330
F1036F
100
AcDbEntity
8
Geo
100
AcDbLine
10
-26.3377276669558
20
15.6000850621617
30
0.000000000000000
11
-26.2377276669558
21
15.5455878747450
31
0.000000000000000
  0
LINE
  5
F10370
330
F10371
100
AcDbEntity
8
Geo
100
AcDbLine
10
-26.2377276669558
20
15.5455878747450
30
0.000000000000000
11
-26.1377276669558
21
15.4909545366281
31
0.000000000000000
  0
LINE
  5
F10372
330
F10373
100
AcDbEntity
8
Geo
100
AcDbLine
10
-26.1377276669558
20
15.4909545366281
30
0.000000000000000
11
-26.0377276669558
21
15.4361878932853
31
0.000000000000000
  0
LINE
  5
F10374
330
F10375
100
AcDbEntity
8
Geo
100
AcDbLine
10
-26.0377276669558
20
15.4361878932853
30
0.000000000000000
11
-25.9377276669558
21
15.3812907971333
31
0.000000000000000
  0
LINE
  5
F10376
330
F10377
100
AcDbEntity
8
Geo
100
AcDbLine
10
-25.9377276669558
20
15.3812907971333
30
0.000000000000000
11
-25.8377276669558
21
15.3262661073836
31
0.000000000000000
  0
LINE
  5
F10378
330
F10379
100
AcDbEntity
8
Geo
100
AcDbLine
10
-25.8377276669558
20
15.3262661073836
30
0.000000000000000
11
-25.7377276669558
21
15.2711166898930
31
0.000000000000000
  0
LINE
  5
F1037A
330
F1037B
100
AcDbEntity
8
Geo
100
AcDbLine
10
-25.7377276669558
20
15.2711166898930
30
0.000000000000000
11
-25.6377276669558
21
15.2158454170145
31
0.000000000000000
  0
LINE
  5
F1037C
330
F1037D
100
AcDbEntity
8
Geo
100
AcDbLine
10
-25.6377276669558
20
15.2158454170145
30
0.000000000000000
11
-25.5377276669558
21
15.1604551674477
31
0.000000000000000
  0
LINE
  5
F1037E
330
F1037F
100
AcDbEntity
8
Geo
100
AcDbLine
10
-25.5377276669558
20
15.1604551674477
30
0.000000000000000
11
-25.4377276669558
21
15.1049488260889
31
0.000000000000000
  0
LINE
  5
F10380
330
F10381
100
AcDbEntity
8
Geo
100
AcDbLine
10
-25.4377276669558
20
15.1049488260889
30
0.000000000000000
11
-25.3377276669558
21
15.0493292838810
31
0.000000000000000
  0
LINE
  5
F10382
330
F10383
100
AcDbEntity
8
Geo
100
AcDbLine
10
-25.3377276669558
20
15.0493292838810
30
0.000000000000000
11
-25.2377276669558
21
14.9935994376623
31
0.000000000000000
  0
LINE
  5
F10384
330
F10385
100
AcDbEntity
8
Geo
100
AcDbLine
10
-25.2377276669558
20
14.9935994376623
30
0.000000000000000
11
-25.1377276669558
21
14.9377621900167
31
0.000000000000000
  0
LINE
  5
F10386
330
F10387
100
AcDbEntity
8
Geo
100
AcDbLine
10
-25.1377276669558
20
14.9377621900167
30
0.000000000000000
11
-25.0377276669558
21
14.8818204491213
31
0.000000000000000
  0
LINE
  5
F10388
330
F10389
100
AcDbEntity
8
Geo
100
AcDbLine
10
-25.0377276669558
20
14.8818204491213
30
0.000000000000000
11
-24.9377276669558
21
14.8257771285958
31
0.000000000000000
  0
LINE
  5
F1038A
330
F1038B
100
AcDbEntity
8
Geo
100
AcDbLine
10
-24.9377276669558
20
14.8257771285958
30
0.000000000000000
11
-24.8377276669558
21
14.7696351473506
31
0.000000000000000
  0
LINE
  5
F1038C
330
F1038D
100
AcDbEntity
8
Geo
100
AcDbLine
10
-24.8377276669558
20
14.7696351473506
30
0.000000000000000
11
-24.7377276669558
21
14.7133974294345
31
0.000000000000000
  0
LINE
  5
F1038E
330
F1038F
100
AcDbEntity
8
Geo
100
AcDbLine
10
-24.7377276669558
20
14.7133974294345
30
0.000000000000000
11
-24.6377276669558
21
14.6570669038826
31
0.000000000000000
  0
LINE
  5
F10390
330
F10391
100
AcDbEntity
8
Geo
100
AcDbLine
10
-24.6377276669558
20
14.6570669038826
30
0.000000000000000
11
-24.5377276669558
21
14.6006465045636
31
0.000000000000000
  0
LINE
  5
F10392
330
F10393
100
AcDbEntity
8
Geo
100
AcDbLine
10
-24.5377276669558
20
14.6006465045636
30
0.000000000000000
11
-24.4377276669558
21
14.5441391700274
31
0.000000000000000
  0
LINE
  5
F10394
330
F10395
100
AcDbEntity
8
Geo
100
AcDbLine
10
-24.4377276669558
20
14.5441391700274
30
0.000000000000000
11
-24.3377276669558
21
14.4875478433514
31
0.000000000000000
  0
LINE
  5
F10396
330
F10397
100
AcDbEntity
8
Geo
100
AcDbLine
10
-24.3377276669558
20
14.4875478433514
30
0.000000000000000
11
-24.2377276669558
21
14.4308754719878
31
0.000000000000000
  0
LINE
  5
F10398
330
F10399
100
AcDbEntity
8
Geo
100
AcDbLine
10
-24.2377276669558
20
14.4308754719878
30
0.000000000000000
11
-24.1377276669558
21
14.3741250076098
31
0.000000000000000
  0
LINE
  5
F1039A
330
F1039B
100
AcDbEntity
8
Geo
100
AcDbLine
10
-24.1377276669558
20
14.3741250076098
30
0.000000000000000
11
-24.0377276669558
21
14.3172994059579
31
0.000000000000000
  0
LINE
  5
F1039C
330
F1039D
100
AcDbEntity
8
Geo
100
AcDbLine
10
-37.9377276669558
20
8.89162655954829
30
0.000000000000000
11
-37.9377276669558
21
9.04764113034575
31
0.000000000000000
  0
LINE
  5
F1039E
330
F1039F
100
AcDbEntity
8
Geo
100
AcDbLine
10
-37.9377276669558
20
9.04764113034575
30
0.000000000000000
11
-37.8377276669558
21
9.12509870716701
31
0.000000000000000
  0
LINE
  5
F103A0
330
F103A1
100
AcDbEntity
8
Geo
100
AcDbLine
10
-37.8377276669558
20
9.12509870716701
30
0.000000000000000
11
-37.7377276669558
21
9.16241845427773
31
0.000000000000000
  0
LINE
  5
F103A2
330
F103A3
100
AcDbEntity
8
Geo
100
AcDbLine
10
-37.7377276669558
20
9.16241845427773
30
0.000000000000000
11
-37.6377276669558
21
9.18363554454072
31
0.000000000000000
  0
LINE
  5
F103A4
330
F103A5
100
AcDbEntity
8
Geo
100
AcDbLine
10
-37.6377276669558
20
9.18363554454072
30
0.000000000000000
11
-37.5377276669558
21
9.19480372990593
31
0.000000000000000
  0
LINE
  5
F103A6
330
F103A7
100
AcDbEntity
8
Geo
100
AcDbLine
10
-37.5377276669558
20
9.19480372990593
30
0.000000000000000
11
-37.4377276669558
21
9.19868166192362
31
0.000000000000000
  0
LINE
  5
F103A8
330
F103A9
100
AcDbEntity
8
Geo
100
AcDbLine
10
-37.4377276669558
20
9.19868166192362
30
0.000000000000000
11
-37.3377276669558
21
9.19684139180479
31
0.000000000000000
  0
LINE
  5
F103AA
330
F103AB
100
AcDbEntity
8
Geo
100
AcDbLine
10
-37.3377276669558
20
9.19684139180479
30
0.000000000000000
11
-37.2377276669558
21
9.19029841118870
31
0.000000000000000
  0
LINE
  5
F103AC
330
F103AD
100
AcDbEntity
8
Geo
100
AcDbLine
10
-37.2377276669558
20
9.19029841118870
30
0.000000000000000
11
-37.1377276669558
21
9.17976432750690
31
0.000000000000000
  0
LINE
  5
F103AE
330
F103AF
100
AcDbEntity
8
Geo
100
AcDbLine
10
-37.1377276669558
20
9.17976432750690
30
0.000000000000000
11
-37.0377276669558
21
9.16576728765301
31
0.000000000000000
  0
LINE
  5
F103B0
330
F103B1
100
AcDbEntity
8
Geo
100
AcDbLine
10
-37.0377276669558
20
9.16576728765301
30
0.000000000000000
11
-36.9377276669558
21
9.14871642767598
31
0.000000000000000
  0
LINE
  5
F103B2
330
F103B3
100
AcDbEntity
8
Geo
100
AcDbLine
10
-36.9377276669558
20
9.14871642767598
30
0.000000000000000
11
-36.8377276669558
21
9.12893938941844
31
0.000000000000000
  0
LINE
  5
F103B4
330
F103B5
100
AcDbEntity
8
Geo
100
AcDbLine
10
-36.8377276669558
20
9.12893938941844
30
0.000000000000000
11
-36.7377276669558
21
9.10670560213842
31
0.000000000000000
  0
LINE
  5
F103B6
330
F103B7
100
AcDbEntity
8
Geo
100
AcDbLine
10
-36.7377276669558
20
9.10670560213842
30
0.000000000000000
11
-36.6377276669558
21
9.08224147814435
31
0.000000000000000
  0
LINE
  5
F103B8
330
F103B9
100
AcDbEntity
8
Geo
100
AcDbLine
10
-36.6377276669558
20
9.08224147814435
30
0.000000000000000
11
-36.5377276669558
21
9.05574074464567
31
0.000000000000000
  0
LINE
  5
F103BA
330
F103BB
100
AcDbEntity
8
Geo
100
AcDbLine
10
-36.5377276669558
20
9.05574074464567
30
0.000000000000000
11
-36.4377276669558
21
9.02737171022569
31
0.000000000000000
  0
LINE
  5
F103BC
330
F103BD
100
AcDbEntity
8
Geo
100
AcDbLine
10
-36.4377276669558
20
9.02737171022569
30
0.000000000000000
11
-36.3377276669558
21
8.99728252290825
31
0.000000000000000
  0
LINE
  5
F103BE
330
F103BF
100
AcDbEntity
8
Geo
100
AcDbLine
10
-36.3377276669558
20
8.99728252290825
30
0.000000000000000
11
-36.2377276669558
21
8.96560506843482
31
0.000000000000000
  0
LINE
  5
F103C0
330
F103C1
100
AcDbEntity
8
Geo
100
AcDbLine
10
-36.2377276669558
20
8.96560506843482
30
0.000000000000000
11
-36.1377276669558
21
8.93245792163895
31
0.000000000000000
  0
LINE
  5
F103C2
330
F103C3
100
AcDbEntity
8
Geo
100
AcDbLine
10
-36.1377276669558
20
8.93245792163895
30
0.000000000000000
11
-36.0377276669558
21
8.89794862216486
31
0.000000000000000
  0
LINE
  5
F103C4
330
F103C5
100
AcDbEntity
8
Geo
100
AcDbLine
10
-36.0377276669558
20
8.89794862216486
30
0.000000000000000
11
-35.9377276669558
21
8.86217545768037
31
0.000000000000000
  0
LINE
  5
F103C6
330
F103C7
100
AcDbEntity
8
Geo
100
AcDbLine
10
-35.9377276669558
20
8.86217545768037
30
0.000000000000000
11
-35.8377276669558
21
8.82522888126348
31
0.000000000000000
  0
LINE
  5
F103C8
330
F103C9
100
AcDbEntity
8
Geo
100
AcDbLine
10
-35.8377276669558
20
8.82522888126348
30
0.000000000000000
11
-35.7377276669558
21
8.78719265247067
31
0.000000000000000
  0
LINE
  5
F103CA
330
F103CB
100
AcDbEntity
8
Geo
100
AcDbLine
10
-35.7377276669558
20
8.78719265247067
30
0.000000000000000
11
-35.6377276669558
21
8.74814476654403
31
0.000000000000000
  0
LINE
  5
F103CC
330
F103CD
100
AcDbEntity
8
Geo
100
AcDbLine
10
-35.6377276669558
20
8.74814476654403
30
0.000000000000000
11
-35.5377276669558
21
8.70815821897347
31
0.000000000000000
  0
LINE
  5
F103CE
330
F103CF
100
AcDbEntity
8
Geo
100
AcDbLine
10
-35.5377276669558
20
8.70815821897347
30
0.000000000000000
11
-35.4377276669558
21
8.66730164053742
31
0.000000000000000
  0
LINE
  5
F103D0
330
F103D1
100
AcDbEntity
8
Geo
100
AcDbLine
10
-35.4377276669558
20
8.66730164053742
30
0.000000000000000
11
-35.3377276669558
21
8.62563982931727
31
0.000000000000000
  0
LINE
  5
F103D2
330
F103D3
100
AcDbEntity
8
Geo
100
AcDbLine
10
-35.3377276669558
20
8.62563982931727
30
0.000000000000000
11
-35.2377276669558
21
8.58323419992837
31
0.000000000000000
  0
LINE
  5
F103D4
330
F103D5
100
AcDbEntity
8
Geo
100
AcDbLine
10
-35.2377276669558
20
8.58323419992837
30
0.000000000000000
11
-35.1377276669558
21
8.54014316561474
31
0.000000000000000
  0
LINE
  5
F103D6
330
F103D7
100
AcDbEntity
8
Geo
100
AcDbLine
10
-35.1377276669558
20
8.54014316561474
30
0.000000000000000
11
-35.0377276669558
21
8.49642246543248
31
0.000000000000000
  0
LINE
  5
F103D8
330
F103D9
100
AcDbEntity
8
Geo
100
AcDbLine
10
-35.0377276669558
20
8.49642246543248
30
0.000000000000000
11
-34.9377276669558
21
8.45212544616812
31
0.000000000000000
  0
LINE
  5
F103DA
330
F103DB
100
AcDbEntity
8
Geo
100
AcDbLine
10
-34.9377276669558
20
8.45212544616812
30
0.000000000000000
11
-34.8377276669558
21
8.40730330667338
31
0.000000000000000
  0
LINE
  5
F103DC
330
F103DD
100
AcDbEntity
8
Geo
100
AcDbLine
10
-34.8377276669558
20
8.40730330667338
30
0.000000000000000
11
-34.7377276669558
21
8.36200531078485
31
0.000000000000000
  0
LINE
  5
F103DE
330
F103DF
100
AcDbEntity
8
Geo
100
AcDbLine
10
-34.7377276669558
20
8.36200531078485
30
0.000000000000000
11
-34.6377276669558
21
8.31627897382248
31
0.000000000000000
  0
LINE
  5
F103E0
330
F103E1
100
AcDbEntity
8
Geo
100
AcDbLine
10
-34.6377276669558
20
8.31627897382248
30
0.000000000000000
11
-34.5377276669558
21
8.27017022673866
31
0.000000000000000
  0
LINE
  5
F103E2
330
F103E3
100
AcDbEntity
8
Geo
100
AcDbLine
10
-34.5377276669558
20
8.27017022673866
30
0.000000000000000
11
-34.4377276669558
21
8.22372356126183
31
0.000000000000000
  0
LINE
  5
F103E4
330
F103E5
100
AcDbEntity
8
Geo
100
AcDbLine
10
-34.4377276669558
20
8.22372356126183
30
0.000000000000000
11
-34.3377276669558
21
8.17698215879834
31
0.000000000000000
  0
LINE
  5
F103E6
330
F103E7
100
AcDbEntity
8
Geo
100
AcDbLine
10
-34.3377276669558
20
8.17698215879834
30
0.000000000000000
11
-34.2377276669558
21
8.12998800539073
31
0.000000000000000
  0
LINE
  5
F103E8
330
F103E9
100
AcDbEntity
8
Geo
100
AcDbLine
10
-34.2377276669558
20
8.12998800539073
30
0.000000000000000
11
-34.1377276669558
21
8.08278199465495
31
0.000000000000000
  0
LINE
  5
F103EA
330
F103EB
100
AcDbEntity
8
Geo
100
AcDbLine
10
-34.1377276669558
20
8.08278199465495
30
0.000000000000000
11
-34.0377276669558
21
8.03540402031347
31
0.000000000000000
  0
LINE
  5
F103EC
330
F103ED
100
AcDbEntity
8
Geo
100
AcDbLine
10
-34.0377276669558
20
8.03540402031347
30
0.000000000000000
11
-33.9377276669558
21
7.98789305969130
31
0.000000000000000
  0
LINE
  5
F103EE
330
F103EF
100
AcDbEntity
8
Geo
100
AcDbLine
10
-33.9377276669558
20
7.98789305969130
30
0.000000000000000
11
-33.8377276669558
21
7.94028724933673
31
0.000000000000000
  0
LINE
  5
F103F0
330
F103F1
100
AcDbEntity
8
Geo
100
AcDbLine
10
-33.8377276669558
20
7.94028724933673
30
0.000000000000000
11
-33.7377276669558
21
7.89262395375889
31
0.000000000000000
  0
LINE
  5
F103F2
330
F103F3
100
AcDbEntity
8
Geo
100
AcDbLine
10
-33.7377276669558
20
7.89262395375889
30
0.000000000000000
11
-33.6377276669558
21
7.84493982813311
31
0.000000000000000
  0
LINE
  5
F103F4
330
F103F5
100
AcDbEntity
8
Geo
100
AcDbLine
10
-33.6377276669558
20
7.84493982813311
30
0.000000000000000
11
-33.5377276669558
21
7.79727087570766
31
0.000000000000000
  0
LINE
  5
F103F6
330
F103F7
100
AcDbEntity
8
Geo
100
AcDbLine
10
-33.5377276669558
20
7.79727087570766
30
0.000000000000000
11
-33.4377276669558
21
7.74965250054668
31
0.000000000000000
  0
LINE
  5
F103F8
330
F103F9
100
AcDbEntity
8
Geo
100
AcDbLine
10
-33.4377276669558
20
7.74965250054668
30
0.000000000000000
11
-33.3377276669558
21
7.70211955616140
31
0.000000000000000
  0
LINE
  5
F103FA
330
F103FB
100
AcDbEntity
8
Geo
100
AcDbLine
10
-33.3377276669558
20
7.70211955616140
30
0.000000000000000
11
-33.2377276669558
21
7.65470639051175
31
0.000000000000000
  0
LINE
  5
F103FC
330
F103FD
100
AcDbEntity
8
Geo
100
AcDbLine
10
-33.2377276669558
20
7.65470639051175
30
0.000000000000000
11
-33.1377276669558
21
7.60744688780107
31
0.000000000000000
  0
LINE
  5
F103FE
330
F103FF
100
AcDbEntity
8
Geo
100
AcDbLine
10
-33.1377276669558
20
7.60744688780107
30
0.000000000000000
11
-33.0377276669558
21
7.56037450743633
31
0.000000000000000
  0
LINE
  5
F10400
330
F10401
100
AcDbEntity
8
Geo
100
AcDbLine
10
-33.0377276669558
20
7.56037450743633
30
0.000000000000000
11
-32.9377276669558
21
7.51352232048338
31
0.000000000000000
  0
LINE
  5
F10402
330
F10403
100
AcDbEntity
8
Geo
100
AcDbLine
10
-32.9377276669558
20
7.51352232048338
30
0.000000000000000
11
-32.8377276669558
21
7.46692304391023
31
0.000000000000000
  0
LINE
  5
F10404
330
F10405
100
AcDbEntity
8
Geo
100
AcDbLine
10
-32.8377276669558
20
7.46692304391023
30
0.000000000000000
11
-32.7377276669558
21
7.42060907287967
31
0.000000000000000
  0
LINE
  5
F10406
330
F10407
100
AcDbEntity
8
Geo
100
AcDbLine
10
-32.7377276669558
20
7.42060907287967
30
0.000000000000000
11
-32.6377276669558
21
7.37461251132636
31
0.000000000000000
  0
LINE
  5
F10408
330
F10409
100
AcDbEntity
8
Geo
100
AcDbLine
10
-32.6377276669558
20
7.37461251132636
30
0.000000000000000
11
-32.5377276669558
21
7.32896520102988
31
0.000000000000000
  0
LINE
  5
F1040A
330
F1040B
100
AcDbEntity
8
Geo
100
AcDbLine
10
-32.5377276669558
20
7.32896520102988
30
0.000000000000000
11
-32.4377276669558
21
7.28369874937611
31
0.000000000000000
  0
LINE
  5
F1040C
330
F1040D
100
AcDbEntity
8
Geo
100
AcDbLine
10
-32.4377276669558
20
7.28369874937611
30
0.000000000000000
11
-32.3377276669558
21
7.23884455598212
31
0.000000000000000
  0
LINE
  5
F1040E
330
F1040F
100
AcDbEntity
8
Geo
100
AcDbLine
10
-32.3377276669558
20
7.23884455598212
30
0.000000000000000
11
-32.2377276669558
21
7.19443383834574
31
0.000000000000000
  0
LINE
  5
F10410
330
F10411
100
AcDbEntity
8
Geo
100
AcDbLine
10
-32.2377276669558
20
7.19443383834574
30
0.000000000000000
11
-32.1377276669558
21
7.15049765666850
31
0.000000000000000
  0
LINE
  5
F10412
330
F10413
100
AcDbEntity
8
Geo
100
AcDbLine
10
-32.1377276669558
20
7.15049765666850
30
0.000000000000000
11
-32.0377276669558
21
7.10706693799052
31
0.000000000000000
  0
LINE
  5
F10414
330
F10415
100
AcDbEntity
8
Geo
100
AcDbLine
10
-32.0377276669558
20
7.10706693799052
30
0.000000000000000
11
-31.9377276669558
21
7.06417249976739
31
0.000000000000000
  0
LINE
  5
F10416
330
F10417
100
AcDbEntity
8
Geo
100
AcDbLine
10
-31.9377276669558
20
7.06417249976739
30
0.000000000000000
11
-31.8377276669558
21
7.02184507301178
31
0.000000000000000
  0
LINE
  5
F10418
330
F10419
100
AcDbEntity
8
Geo
100
AcDbLine
10
-31.8377276669558
20
7.02184507301178
30
0.000000000000000
11
-31.7377276669558
21
6.98011532511706
31
0.000000000000000
  0
LINE
  5
F1041A
330
F1041B
100
AcDbEntity
8
Geo
100
AcDbLine
10
-31.7377276669558
20
6.98011532511706
30
0.000000000000000
11
-31.6377276669558
21
6.93901388247561
31
0.000000000000000
  0
LINE
  5
F1041C
330
F1041D
100
AcDbEntity
8
Geo
100
AcDbLine
10
-31.6377276669558
20
6.93901388247561
30
0.000000000000000
11
-31.5377276669558
21
6.89857135300119
31
0.000000000000000
  0
LINE
  5
F1041E
330
F1041F
100
AcDbEntity
8
Geo
100
AcDbLine
10
-31.5377276669558
20
6.89857135300119
30
0.000000000000000
11
-31.4377276669558
21
6.85881834866249
31
0.000000000000000
  0
LINE
  5
F10420
330
F10421
100
AcDbEntity
8
Geo
100
AcDbLine
10
-31.4377276669558
20
6.85881834866249
30
0.000000000000000
11
-31.3377276669558
21
6.81978550813405
31
0.000000000000000
  0
LINE
  5
F10422
330
F10423
100
AcDbEntity
8
Geo
100
AcDbLine
10
-31.3377276669558
20
6.81978550813405
30
0.000000000000000
11
-31.2377276669558
21
6.78150351967005
31
0.000000000000000
  0
LINE
  5
F10424
330
F10425
100
AcDbEntity
8
Geo
100
AcDbLine
10
-31.2377276669558
20
6.78150351967005
30
0.000000000000000
11
-31.1377276669558
21
6.74400314430789
31
0.000000000000000
  0
LINE
  5
F10426
330
F10427
100
AcDbEntity
8
Geo
100
AcDbLine
10
-31.1377276669558
20
6.74400314430789
30
0.000000000000000
11
-31.0377276669558
21
6.70731523950962
31
0.000000000000000
  0
LINE
  5
F10428
330
F10429
100
AcDbEntity
8
Geo
100
AcDbLine
10
-31.0377276669558
20
6.70731523950962
30
0.000000000000000
11
-30.9377276669558
21
6.67120628659283
31
0.000000000000000
  0
LINE
  5
F1042A
330
F1042B
100
AcDbEntity
8
Geo
100
AcDbLine
10
-30.9377276669558
20
6.67120628659283
30
0.000000000000000
11
-30.8377276669558
21
6.63542338834424
31
0.000000000000000
  0
LINE
  5
F1042C
330
F1042D
100
AcDbEntity
8
Geo
100
AcDbLine
10
-30.8377276669558
20
6.63542338834424
30
0.000000000000000
11
-30.7377276669558
21
6.59996840844841
31
0.000000000000000
  0
LINE
  5
F1042E
330
F1042F
100
AcDbEntity
8
Geo
100
AcDbLine
10
-30.7377276669558
20
6.59996840844841
30
0.000000000000000
11
-30.6377276669558
21
6.56484319351083
31
0.000000000000000
  0
LINE
  5
F10430
330
F10431
100
AcDbEntity
8
Geo
100
AcDbLine
10
-30.6377276669558
20
6.56484319351083
30
0.000000000000000
11
-30.5377276669558
21
6.53004957296185
31
0.000000000000000
  0
LINE
  5
F10432
330
F10433
100
AcDbEntity
8
Geo
100
AcDbLine
10
-30.5377276669558
20
6.53004957296185
30
0.000000000000000
11
-30.4377276669558
21
6.49558935896135
31
0.000000000000000
  0
LINE
  5
F10434
330
F10435
100
AcDbEntity
8
Geo
100
AcDbLine
10
-30.4377276669558
20
6.49558935896135
30
0.000000000000000
11
-30.3377276669558
21
6.46146434630435
31
0.000000000000000
  0
LINE
  5
F10436
330
F10437
100
AcDbEntity
8
Geo
100
AcDbLine
10
-30.3377276669558
20
6.46146434630435
30
0.000000000000000
11
-30.2377276669558
21
6.42767631232754
31
0.000000000000000
  0
LINE
  5
F10438
330
F10439
100
AcDbEntity
8
Geo
100
AcDbLine
10
-30.2377276669558
20
6.42767631232754
30
0.000000000000000
11
-30.1377276669558
21
6.39422701681671
31
0.000000000000000
  0
LINE
  5
F1043A
330
F1043B
100
AcDbEntity
8
Geo
100
AcDbLine
10
-30.1377276669558
20
6.39422701681671
30
0.000000000000000
11
-30.0377276669558
21
6.36111820191512
31
0.000000000000000
  0
LINE
  5
F1043C
330
F1043D
100
AcDbEntity
8
Geo
100
AcDbLine
10
-30.0377276669558
20
6.36111820191512
30
0.000000000000000
11
-29.9377276669558
21
6.32835159203273
31
0.000000000000000
  0
LINE
  5
F1043E
330
F1043F
100
AcDbEntity
8
Geo
100
AcDbLine
10
-29.9377276669558
20
6.32835159203273
30
0.000000000000000
11
-29.8377276669558
21
6.29592889375638
31
0.000000000000000
  0
LINE
  5
F10440
330
F10441
100
AcDbEntity
8
Geo
100
AcDbLine
10
-29.8377276669558
20
6.29592889375638
30
0.000000000000000
11
-29.7377276669558
21
6.26385179576096
31
0.000000000000000
  0
LINE
  5
F10442
330
F10443
100
AcDbEntity
8
Geo
100
AcDbLine
10
-29.7377276669558
20
6.26385179576096
30
0.000000000000000
11
-29.6377276669558
21
6.23212196872140
31
0.000000000000000
  0
LINE
  5
F10444
330
F10445
100
AcDbEntity
8
Geo
100
AcDbLine
10
-29.6377276669558
20
6.23212196872140
30
0.000000000000000
11
-29.5377276669558
21
6.20074106522569
31
0.000000000000000
  0
LINE
  5
F10446
330
F10447
100
AcDbEntity
8
Geo
100
AcDbLine
10
-29.5377276669558
20
6.20074106522569
30
0.000000000000000
11
-29.4377276669558
21
6.16971071968879
31
0.000000000000000
  0
LINE
  5
F10448
330
F10449
100
AcDbEntity
8
Geo
100
AcDbLine
10
-29.4377276669558
20
6.16971071968879
30
0.000000000000000
11
-29.3377276669558
21
6.13903254826750
31
0.000000000000000
  0
LINE
  5
F1044A
330
F1044B
100
AcDbEntity
8
Geo
100
AcDbLine
10
-29.3377276669558
20
6.13903254826750
30
0.000000000000000
11
-29.2377276669558
21
6.10870814877634
31
0.000000000000000
  0
LINE
  5
F1044C
330
F1044D
100
AcDbEntity
8
Geo
100
AcDbLine
10
-29.2377276669558
20
6.10870814877634
30
0.000000000000000
11
-29.1377276669558
21
6.07873910060425
31
0.000000000000000
  0
LINE
  5
F1044E
330
F1044F
100
AcDbEntity
8
Geo
100
AcDbLine
10
-29.1377276669558
20
6.07873910060425
30
0.000000000000000
11
-29.0377276669558
21
6.04912696463238
31
0.000000000000000
  0
LINE
  5
F10450
330
F10451
100
AcDbEntity
8
Geo
100
AcDbLine
10
-29.0377276669558
20
6.04912696463238
30
0.000000000000000
11
-28.9377276669558
21
6.01987328315278
31
0.000000000000000
  0
LINE
  5
F10452
330
F10453
100
AcDbEntity
8
Geo
100
AcDbLine
10
-28.9377276669558
20
6.01987328315278
30
0.000000000000000
11
-28.8377276669558
21
5.99097957978808
31
0.000000000000000
  0
LINE
  5
F10454
330
F10455
100
AcDbEntity
8
Geo
100
AcDbLine
10
-28.8377276669558
20
5.99097957978808
30
0.000000000000000
11
-28.7377276669558
21
5.96244735941215
31
0.000000000000000
  0
LINE
  5
F10456
330
F10457
100
AcDbEntity
8
Geo
100
AcDbLine
10
-28.7377276669558
20
5.96244735941215
30
0.000000000000000
11
-28.6377276669558
21
5.93427810807167
31
0.000000000000000
  0
LINE
  5
F10458
330
F10459
100
AcDbEntity
8
Geo
100
AcDbLine
10
-28.6377276669558
20
5.93427810807167
30
0.000000000000000
11
-28.5377276669558
21
5.90647329290878
31
0.000000000000000
  0
LINE
  5
F1045A
330
F1045B
100
AcDbEntity
8
Geo
100
AcDbLine
10
-28.5377276669558
20
5.90647329290878
30
0.000000000000000
11
-28.4377276669558
21
5.87903436208465
31
0.000000000000000
  0
LINE
  5
F1045C
330
F1045D
100
AcDbEntity
8
Geo
100
AcDbLine
10
-28.4377276669558
20
5.87903436208465
30
0.000000000000000
11
-28.3377276669558
21
5.85196274470406
31
0.000000000000000
  0
LINE
  5
F1045E
330
F1045F
100
AcDbEntity
8
Geo
100
AcDbLine
10
-28.3377276669558
20
5.85196274470406
30
0.000000000000000
11
-28.2377276669558
21
5.82525985074097
31
0.000000000000000
  0
LINE
  5
F10460
330
F10461
100
AcDbEntity
8
Geo
100
AcDbLine
10
-28.2377276669558
20
5.82525985074097
30
0.000000000000000
11
-28.1377276669558
21
5.79892707096506
31
0.000000000000000
  0
LINE
  5
F10462
330
F10463
100
AcDbEntity
8
Geo
100
AcDbLine
10
-28.1377276669558
20
5.79892707096506
30
0.000000000000000
11
-28.0377276669558
21
5.77296577686933
31
0.000000000000000
  0
LINE
  5
F10464
330
F10465
100
AcDbEntity
8
Geo
100
AcDbLine
10
-28.0377276669558
20
5.77296577686933
30
0.000000000000000
11
-27.9377276669558
21
5.74737732059864
31
0.000000000000000
  0
LINE
  5
F10466
330
F10467
100
AcDbEntity
8
Geo
100
AcDbLine
10
-27.9377276669558
20
5.74737732059864
30
0.000000000000000
11
-27.8377276669558
21
5.72216303487931
31
0.000000000000000
  0
LINE
  5
F10468
330
F10469
100
AcDbEntity
8
Geo
100
AcDbLine
10
-27.8377276669558
20
5.72216303487931
30
0.000000000000000
11
-27.7377276669558
21
5.69732423294968
31
0.000000000000000
  0
LINE
  5
F1046A
330
F1046B
100
AcDbEntity
8
Geo
100
AcDbLine
10
-27.7377276669558
20
5.69732423294968
30
0.000000000000000
11
-27.6377276669558
21
5.67286220849174
31
0.000000000000000
  0
LINE
  5
F1046C
330
F1046D
100
AcDbEntity
8
Geo
100
AcDbLine
10
-27.6377276669558
20
5.67286220849174
30
0.000000000000000
11
-27.5377276669558
21
5.64877823556373
31
0.000000000000000
  0
LINE
  5
F1046E
330
F1046F
100
AcDbEntity
8
Geo
100
AcDbLine
10
-27.5377276669558
20
5.64877823556373
30
0.000000000000000
11
-27.4377276669558
21
5.62507356853381
31
0.000000000000000
  0
LINE
  5
F10470
330
F10471
100
AcDbEntity
8
Geo
100
AcDbLine
10
-27.4377276669558
20
5.62507356853381
30
0.000000000000000
11
-27.3377276669558
21
5.60174944201468
31
0.000000000000000
  0
LINE
  5
F10472
330
F10473
100
AcDbEntity
8
Geo
100
AcDbLine
10
-27.3377276669558
20
5.60174944201468
30
0.000000000000000
11
-27.2377276669558
21
5.57880707079932
31
0.000000000000000
  0
LINE
  5
F10474
330
F10475
100
AcDbEntity
8
Geo
100
AcDbLine
10
-27.2377276669558
20
5.57880707079932
30
0.000000000000000
11
-27.1377276669558
21
5.55624764979773
31
0.000000000000000
  0
LINE
  5
F10476
330
F10477
100
AcDbEntity
8
Geo
100
AcDbLine
10
-27.1377276669558
20
5.55624764979773
30
0.000000000000000
11
-27.0377276669558
21
5.53407235397465
31
0.000000000000000
  0
LINE
  5
F10478
330
F10479
100
AcDbEntity
8
Geo
100
AcDbLine
10
-27.0377276669558
20
5.53407235397465
30
0.000000000000000
11
-26.9377276669558
21
5.51228233828838
31
0.000000000000000
  0
LINE
  5
F1047A
330
F1047B
100
AcDbEntity
8
Geo
100
AcDbLine
10
-26.9377276669558
20
5.51228233828838
30
0.000000000000000
11
-26.8377276669558
21
5.49087873763065
31
0.000000000000000
  0
LINE
  5
F1047C
330
F1047D
100
AcDbEntity
8
Geo
100
AcDbLine
10
-26.8377276669558
20
5.49087873763065
30
0.000000000000000
11
-26.7377276669558
21
5.46986266676748
31
0.000000000000000
  0
LINE
  5
F1047E
330
F1047F
100
AcDbEntity
8
Geo
100
AcDbLine
10
-26.7377276669558
20
5.46986266676748
30
0.000000000000000
11
-26.6377276669558
21
5.44923522028117
31
0.000000000000000
  0
LINE
  5
F10480
330
F10481
100
AcDbEntity
8
Geo
100
AcDbLine
10
-26.6377276669558
20
5.44923522028117
30
0.000000000000000
11
-26.5377276669558
21
5.42899747251320
31
0.000000000000000
  0
LINE
  5
F10482
330
F10483
100
AcDbEntity
8
Geo
100
AcDbLine
10
-26.5377276669558
20
5.42899747251320
30
0.000000000000000
11
-26.4377276669558
21
5.40915047750837
31
0.000000000000000
  0
LINE
  5
F10484
330
F10485
100
AcDbEntity
8
Geo
100
AcDbLine
10
-26.4377276669558
20
5.40915047750837
30
0.000000000000000
11
-26.3377276669558
21
5.38969526895985
31
0.000000000000000
  0
LINE
  5
F10486
330
F10487
100
AcDbEntity
8
Geo
100
AcDbLine
10
-26.3377276669558
20
5.38969526895985
30
0.000000000000000
11
-26.2377276669558
21
5.37063286015536
31
0.000000000000000
  0
LINE
  5
F10488
330
F10489
100
AcDbEntity
8
Geo
100
AcDbLine
10
-26.2377276669558
20
5.37063286015536
30
0.000000000000000
11
-26.1377276669558
21
5.35196424392436
31
0.000000000000000
  0
LINE
  5
F1048A
330
F1048B
100
AcDbEntity
8
Geo
100
AcDbLine
10
-26.1377276669558
20
5.35196424392436
30
0.000000000000000
11
-26.0377276669558
21
5.33369039258642
31
0.000000000000000
  0
LINE
  5
F1048C
330
F1048D
100
AcDbEntity
8
Geo
100
AcDbLine
10
-26.0377276669558
20
5.33369039258642
30
0.000000000000000
11
-25.9377276669558
21
5.31581225790048
31
0.000000000000000
  0
LINE
  5
F1048E
330
F1048F
100
AcDbEntity
8
Geo
100
AcDbLine
10
-25.9377276669558
20
5.31581225790048
30
0.000000000000000
11
-25.8377276669558
21
5.29833077101536
31
0.000000000000000
  0
LINE
  5
F10490
330
F10491
100
AcDbEntity
8
Geo
100
AcDbLine
10
-25.8377276669558
20
5.29833077101536
30
0.000000000000000
11
-25.7377276669558
21
5.28124684242121
31
0.000000000000000
  0
LINE
  5
F10492
330
F10493
100
AcDbEntity
8
Geo
100
AcDbLine
10
-25.7377276669558
20
5.28124684242121
30
0.000000000000000
11
-25.6377276669558
21
5.26456136190211
31
0.000000000000000
  0
LINE
  5
F10494
330
F10495
100
AcDbEntity
8
Geo
100
AcDbLine
10
-25.6377276669558
20
5.26456136190211
30
0.000000000000000
11
-25.5377276669558
21
5.24827519848975
31
0.000000000000000
  0
LINE
  5
F10496
330
F10497
100
AcDbEntity
8
Geo
100
AcDbLine
10
-25.5377276669558
20
5.24827519848975
30
0.000000000000000
11
-25.4377276669558
21
5.23238920041811
31
0.000000000000000
  0
LINE
  5
F10498
330
F10499
100
AcDbEntity
8
Geo
100
AcDbLine
10
-25.4377276669558
20
5.23238920041811
30
0.000000000000000
11
-25.3377276669558
21
5.21690419507933
31
0.000000000000000
  0
LINE
  5
F1049A
330
F1049B
100
AcDbEntity
8
Geo
100
AcDbLine
10
-25.3377276669558
20
5.21690419507933
30
0.000000000000000
11
-25.2377276669558
21
5.20182098898062
31
0.000000000000000
  0
LINE
  5
F1049C
330
F1049D
100
AcDbEntity
8
Geo
100
AcDbLine
10
-25.2377276669558
20
5.20182098898062
30
0.000000000000000
11
-25.1377276669558
21
5.18714036770220
31
0.000000000000000
  0
LINE
  5
F1049E
330
F1049F
100
AcDbEntity
8
Geo
100
AcDbLine
10
-25.1377276669558
20
5.18714036770220
30
0.000000000000000
11
-25.0377276669558
21
5.17286309585646
31
0.000000000000000
  0
LINE
  5
F104A0
330
F104A1
100
AcDbEntity
8
Geo
100
AcDbLine
10
-25.0377276669558
20
5.17286309585646
30
0.000000000000000
11
-24.9377276669558
21
5.15898991704808
31
0.000000000000000
  0
LINE
  5
F104A2
330
F104A3
100
AcDbEntity
8
Geo
100
AcDbLine
10
-24.9377276669558
20
5.15898991704808
30
0.000000000000000
11
-24.8377276669558
21
5.14552155383531
31
0.000000000000000
  0
LINE
  5
F104A4
330
F104A5
100
AcDbEntity
8
Geo
100
AcDbLine
10
-24.8377276669558
20
5.14552155383531
30
0.000000000000000
11
-24.7377276669558
21
5.13245870769237
31
0.000000000000000
  0
LINE
  5
F104A6
330
F104A7
100
AcDbEntity
8
Geo
100
AcDbLine
10
-24.7377276669558
20
5.13245870769237
30
0.000000000000000
11
-24.6377276669558
21
5.11980205897286
31
0.000000000000000
  0
LINE
  5
F104A8
330
F104A9
100
AcDbEntity
8
Geo
100
AcDbLine
10
-24.6377276669558
20
5.11980205897286
30
0.000000000000000
11
-24.5377276669558
21
5.10755226687439
31
0.000000000000000
  0
LINE
  5
F104AA
330
F104AB
100
AcDbEntity
8
Geo
100
AcDbLine
10
-24.5377276669558
20
5.10755226687439
30
0.000000000000000
11
-24.4377276669558
21
5.09570996940418
31
0.000000000000000
  0
LINE
  5
F104AC
330
F104AD
100
AcDbEntity
8
Geo
100
AcDbLine
10
-24.4377276669558
20
5.09570996940418
30
0.000000000000000
11
-24.3377276669558
21
5.08427578334589
31
0.000000000000000
  0
LINE
  5
F104AE
330
F104AF
100
AcDbEntity
8
Geo
100
AcDbLine
10
-24.3377276669558
20
5.08427578334589
30
0.000000000000000
11
-24.2377276669558
21
5.07325030422746
31
0.000000000000000
  0
LINE
  5
F104B0
330
F104B1
100
AcDbEntity
8
Geo
100
AcDbLine
10
-24.2377276669558
20
5.07325030422746
30
0.000000000000000
11
-24.1377276669558
21
5.06263410629010
31
0.000000000000000
  0
LINE
  5
F104B2
330
F104B3
100
AcDbEntity
8
Geo
100
AcDbLine
10
-24.1377276669558
20
5.06263410629010
30
0.000000000000000
11
-24.0377276669558
21
5.05242774245838
31
0.000000000000000
  0
LINE
  5
F104B4
330
F104B5
100
AcDbEntity
8
Geo
100
AcDbLine
10
-24.0377276669558
20
16.6842347288311
30
0.000000000000000
11
-23.9377276669558
21
16.6331488549961
31
0.000000000000000
  0
LINE
  5
F104B6
330
F104B7
100
AcDbEntity
8
Geo
100
AcDbLine
10
-23.9377276669558
20
16.6331488549961
30
0.000000000000000
11
-23.8377276669558
21
16.5818701869059
31
0.000000000000000
  0
LINE
  5
F104B8
330
F104B9
100
AcDbEntity
8
Geo
100
AcDbLine
10
-23.8377276669558
20
16.5818701869059
30
0.000000000000000
11
-23.7377276669558
21
16.5304013953127
31
0.000000000000000
  0
LINE
  5
F104BA
330
F104BB
100
AcDbEntity
8
Geo
100
AcDbLine
10
-23.7377276669558
20
16.5304013953127
30
0.000000000000000
11
-23.6377276669558
21
16.4787451608715
31
0.000000000000000
  0
LINE
  5
F104BC
330
F104BD
100
AcDbEntity
8
Geo
100
AcDbLine
10
-23.6377276669558
20
16.4787451608715
30
0.000000000000000
11
-23.5377276669558
21
16.4269041740022
31
0.000000000000000
  0
LINE
  5
F104BE
330
F104BF
100
AcDbEntity
8
Geo
100
AcDbLine
10
-23.5377276669558
20
16.4269041740022
30
0.000000000000000
11
-23.4377276669558
21
16.3748811347663
31
0.000000000000000
  0
LINE
  5
F104C0
330
F104C1
100
AcDbEntity
8
Geo
100
AcDbLine
10
-23.4377276669558
20
16.3748811347663
30
0.000000000000000
11
-23.3377276669558
21
16.3226787528022
31
0.000000000000000
  0
LINE
  5
F104C2
330
F104C3
100
AcDbEntity
8
Geo
100
AcDbLine
10
-23.3377276669558
20
16.3226787528022
30
0.000000000000000
11
-23.2377276669558
21
16.2702997474623
31
0.000000000000000
  0
LINE
  5
F104C4
330
F104C5
100
AcDbEntity
8
Geo
100
AcDbLine
10
-23.2377276669558
20
16.2702997474623
30
0.000000000000000
11
-23.1377276669558
21
16.2177468485070
31
0.000000000000000
  0
LINE
  5
F104C6
330
F104C7
100
AcDbEntity
8
Geo
100
AcDbLine
10
-23.1377276669558
20
16.2177468485070
30
0.000000000000000
11
-23.0377276669558
21
16.1650227981452
31
0.000000000000000
  0
LINE
  5
F104C8
330
F104C9
100
AcDbEntity
8
Geo
100
AcDbLine
10
-23.0377276669558
20
16.1650227981452
30
0.000000000000000
11
-22.9377276669558
21
16.1121303559919
31
0.000000000000000
  0
LINE
  5
F104CA
330
F104CB
100
AcDbEntity
8
Geo
100
AcDbLine
10
-22.9377276669558
20
16.1121303559919
30
0.000000000000000
11
-22.8377276669558
21
16.0590723098348
31
0.000000000000000
  0
LINE
  5
F104CC
330
F104CD
100
AcDbEntity
8
Geo
100
AcDbLine
10
-22.8377276669558
20
16.0590723098348
30
0.000000000000000
11
-22.7377276669558
21
16.0058514972042
31
0.000000000000000
  0
LINE
  5
F104CE
330
F104CF
100
AcDbEntity
8
Geo
100
AcDbLine
10
-22.7377276669558
20
16.0058514972042
30
0.000000000000000
11
-22.6377276669558
21
15.9524708459342
31
0.000000000000000
  0
LINE
  5
F104D0
330
F104D1
100
AcDbEntity
8
Geo
100
AcDbLine
10
-22.6377276669558
20
15.9524708459342
30
0.000000000000000
11
-22.5377276669558
21
15.8989334465789
31
0.000000000000000
  0
LINE
  5
F104D2
330
F104D3
100
AcDbEntity
8
Geo
100
AcDbLine
10
-22.5377276669558
20
15.8989334465789
30
0.000000000000000
11
-22.4377276669558
21
15.8452426761630
31
0.000000000000000
  0
LINE
  5
F104D4
330
F104D5
100
AcDbEntity
8
Geo
100
AcDbLine
10
-22.4377276669558
20
15.8452426761630
30
0.000000000000000
11
-22.3377276669558
21
15.7914024018804
31
0.000000000000000
  0
LINE
  5
F104D6
330
F104D7
100
AcDbEntity
8
Geo
100
AcDbLine
10
-22.3377276669558
20
15.7914024018804
30
0.000000000000000
11
-22.2377276669558
21
15.7374173056477
31
0.000000000000000
  0
LINE
  5
F104D8
330
F104D9
100
AcDbEntity
8
Geo
100
AcDbLine
10
-22.2377276669558
20
15.7374173056477
30
0.000000000000000
11
-22.1377276669558
21
15.6832933866627
31
0.000000000000000
  0
LINE
  5
F104DA
330
F104DB
100
AcDbEntity
8
Geo
100
AcDbLine
10
-22.1377276669558
20
15.6832933866627
30
0.000000000000000
11
-22.0377276669558
21
15.6290387201748
31
0.000000000000000
  0
LINE
  5
F104DC
330
F104DD
100
AcDbEntity
8
Geo
100
AcDbLine
10
-22.0377276669558
20
15.6290387201748
30
0.000000000000000
11
-21.9377276669558
21
15.5746645775745
31
0.000000000000000
  0
LINE
  5
F104DE
330
F104DF
100
AcDbEntity
8
Geo
100
AcDbLine
10
-21.9377276669558
20
15.5746645775745
30
0.000000000000000
11
-21.8377276669558
21
15.5201870467708
31
0.000000000000000
  0
LINE
  5
F104E0
330
F104E1
100
AcDbEntity
8
Geo
100
AcDbLine
10
-21.8377276669558
20
15.5201870467708
30
0.000000000000000
11
-21.7377276669558
21
15.4656293339315
31
0.000000000000000
  0
LINE
  5
F104E2
330
F104E3
100
AcDbEntity
8
Geo
100
AcDbLine
10
-21.7377276669558
20
15.4656293339315
30
0.000000000000000
11
-21.6377276669558
21
15.4110249794095
31
0.000000000000000
  0
LINE
  5
F104E4
330
F104E5
100
AcDbEntity
8
Geo
100
AcDbLine
10
-21.6377276669558
20
15.4110249794095
30
0.000000000000000
11
-21.5377276669558
21
15.3564222835948
31
0.000000000000000
  0
LINE
  5
F104E6
330
F104E7
100
AcDbEntity
8
Geo
100
AcDbLine
10
-21.5377276669558
20
15.3564222835948
30
0.000000000000000
11
-21.4377276669558
21
15.3018903141724
31
0.000000000000000
  0
LINE
  5
F104E8
330
F104E9
100
AcDbEntity
8
Geo
100
AcDbLine
10
-21.4377276669558
20
15.3018903141724
30
0.000000000000000
11
-21.3377276669558
21
15.2475269565512
31
0.000000000000000
  0
LINE
  5
F104EA
330
F104EB
100
AcDbEntity
8
Geo
100
AcDbLine
10
-21.3377276669558
20
15.2475269565512
30
0.000000000000000
11
-21.2377276669558
21
15.1934695758310
31
0.000000000000000
  0
LINE
  5
F104EC
330
F104ED
100
AcDbEntity
8
Geo
100
AcDbLine
10
-21.2377276669558
20
15.1934695758310
30
0.000000000000000
11
-21.1377276669558
21
15.1399089833137
31
0.000000000000000
  0
LINE
  5
F104EE
330
F104EF
100
AcDbEntity
8
Geo
100
AcDbLine
10
-21.1377276669558
20
15.1399089833137
30
0.000000000000000
11
-21.0377276669558
21
15.0871075447790
31
0.000000000000000
  0
LINE
  5
F104F0
330
F104F1
100
AcDbEntity
8
Geo
100
AcDbLine
10
-21.0377276669558
20
15.0871075447790
30
0.000000000000000
11
-20.9377276669558
21
15.0354224326725
31
0.000000000000000
  0
LINE
  5
F104F2
330
F104F3
100
AcDbEntity
8
Geo
100
AcDbLine
10
-20.9377276669558
20
15.0354224326725
30
0.000000000000000
11
-20.8377276669558
21
14.9853352103959
31
0.000000000000000
  0
LINE
  5
F104F4
330
F104F5
100
AcDbEntity
8
Geo
100
AcDbLine
10
-20.8377276669558
20
14.9853352103959
30
0.000000000000000
11
-20.7377276669558
21
14.9374891431137
31
0.000000000000000
  0
LINE
  5
F104F6
330
F104F7
100
AcDbEntity
8
Geo
100
AcDbLine
10
-20.7377276669558
20
14.9374891431137
30
0.000000000000000
11
-20.6377276669558
21
14.8927358526923
31
0.000000000000000
  0
LINE
  5
F104F8
330
F104F9
100
AcDbEntity
8
Geo
100
AcDbLine
10
-20.6377276669558
20
14.8927358526923
30
0.000000000000000
11
-20.5377276669558
21
14.8521931673211
31
0.000000000000000
  0
LINE
  5
F104FA
330
F104FB
100
AcDbEntity
8
Geo
100
AcDbLine
10
-20.5377276669558
20
14.8521931673211
30
0.000000000000000
11
-20.4377276669558
21
14.8173162445514
31
0.000000000000000
  0
LINE
  5
F104FC
330
F104FD
100
AcDbEntity
8
Geo
100
AcDbLine
10
-20.4377276669558
20
14.8173162445514
30
0.000000000000000
11
-20.3377276669558
21
14.7899842420536
31
0.000000000000000
  0
LINE
  5
F104FE
330
F104FF
100
AcDbEntity
8
Geo
100
AcDbLine
10
-20.3377276669558
20
14.7899842420536
30
0.000000000000000
11
-20.2377276669558
21
14.7726049200814
31
0.000000000000000
  0
LINE
  5
F10500
330
F10501
100
AcDbEntity
8
Geo
100
AcDbLine
10
-20.2377276669558
20
14.7726049200814
30
0.000000000000000
11
-20.1377276669558
21
14.7682394812432
31
0.000000000000000
  0
LINE
  5
F10502
330
F10503
100
AcDbEntity
8
Geo
100
AcDbLine
10
-20.1377276669558
20
14.7682394812432
30
0.000000000000000
11
-20.0377276669558
21
14.7807494895003
31
0.000000000000000
  0
LINE
  5
F10504
330
F10505
100
AcDbEntity
8
Geo
100
AcDbLine
10
-20.0377276669558
20
14.7807494895003
30
0.000000000000000
11
-19.9377276669558
21
14.8149664797089
31
0.000000000000000
  0
LINE
  5
F10506
330
F10507
100
AcDbEntity
8
Geo
100
AcDbLine
10
-19.9377276669558
20
14.8149664797089
30
0.000000000000000
11
-19.8377276669558
21
14.8768821347170
31
0.000000000000000
  0
LINE
  5
F10508
330
F10509
100
AcDbEntity
8
Geo
100
AcDbLine
10
-19.8377276669558
20
14.8768821347170
30
0.000000000000000
11
-19.7377276669558
21
14.9738512567343
31
0.000000000000000
  0
LINE
  5
F1050A
330
F1050B
100
AcDbEntity
8
Geo
100
AcDbLine
10
-19.7377276669558
20
14.9738512567343
30
0.000000000000000
11
-19.6377276669558
21
15.1147885185629
31
0.000000000000000
  0
LINE
  5
F1050C
330
F1050D
100
AcDbEntity
8
Geo
100
AcDbLine
10
-19.6377276669558
20
15.1147885185629
30
0.000000000000000
11
-19.5377276669558
21
15.3103181658551
31
0.000000000000000
  0
LINE
  5
F1050E
330
F1050F
100
AcDbEntity
8
Geo
100
AcDbLine
10
-19.5377276669558
20
15.3103181658551
30
0.000000000000000
11
-19.4377276669558
21
15.5727943779592
31
0.000000000000000
  0
LINE
  5
F10510
330
F10511
100
AcDbEntity
8
Geo
100
AcDbLine
10
-19.4377276669558
20
15.5727943779592
30
0.000000000000000
11
-19.3377276669558
21
15.9160328479714
31
0.000000000000000
  0
LINE
  5
F10512
330
F10513
100
AcDbEntity
8
Geo
100
AcDbLine
10
-19.3377276669558
20
15.9160328479714
30
0.000000000000000
11
-19.2377276669557
21
16.3544542267060
31
0.000000000000000
  0
LINE
  5
F10514
330
F10515
100
AcDbEntity
8
Geo
100
AcDbLine
10
-19.2377276669557
20
16.3544542267060
30
0.000000000000000
11
-19.1377276669557
21
16.9010948580131
31
0.000000000000000
  0
LINE
  5
F10516
330
F10517
100
AcDbEntity
8
Geo
100
AcDbLine
10
-19.1377276669557
20
16.9010948580131
30
0.000000000000000
11
-19.0377276669558
21
17.5635317003213
31
0.000000000000000
  0
LINE
  5
F10518
330
F10519
100
AcDbEntity
8
Geo
100
AcDbLine
10
-19.0377276669558
20
17.5635317003213
30
0.000000000000000
11
-19.0377276669558
21
17.7259820536728
31
0.000000000000000
  0
LINE
  5
F1051A
330
F1051B
100
AcDbEntity
8
Geo
100
AcDbLine
10
-19.0377276669558
20
17.7259820536728
30
0.000000000000000
11
-19.1377276669557
21
18.2931945121052
31
0.000000000000000
  0
LINE
  5
F1051C
330
F1051D
100
AcDbEntity
8
Geo
100
AcDbLine
10
-19.1377276669557
20
18.2931945121052
30
0.000000000000000
11
-19.2377276669557
21
18.7705014357037
31
0.000000000000000
  0
LINE
  5
F1051E
330
F1051F
100
AcDbEntity
8
Geo
100
AcDbLine
10
-19.2377276669557
20
18.7705014357037
30
0.000000000000000
11
-19.3377276669558
21
19.1692904178684
31
0.000000000000000
  0
LINE
  5
F10520
330
F10521
100
AcDbEntity
8
Geo
100
AcDbLine
10
-19.3377276669558
20
19.1692904178684
30
0.000000000000000
11
-19.4377276669558
21
19.5004131395891
31
0.000000000000000
  0
LINE
  5
F10522
330
F10523
100
AcDbEntity
8
Geo
100
AcDbLine
10
-19.4377276669558
20
19.5004131395891
30
0.000000000000000
11
-19.5377276669558
21
19.7738571921197
31
0.000000000000000
  0
LINE
  5
F10524
330
F10525
100
AcDbEntity
8
Geo
100
AcDbLine
10
-19.5377276669558
20
19.7738571921197
30
0.000000000000000
11
-19.6377276669558
21
19.9985847278279
31
0.000000000000000
  0
LINE
  5
F10526
330
F10527
100
AcDbEntity
8
Geo
100
AcDbLine
10
-19.6377276669558
20
19.9985847278279
30
0.000000000000000
11
-19.7377276669558
21
20.1824838188819
31
0.000000000000000
  0
LINE
  5
F10528
330
F10529
100
AcDbEntity
8
Geo
100
AcDbLine
10
-19.7377276669558
20
20.1824838188819
30
0.000000000000000
11
-19.8377276669558
21
20.3323922874039
31
0.000000000000000
  0
LINE
  5
F1052A
330
F1052B
100
AcDbEntity
8
Geo
100
AcDbLine
10
-19.8377276669558
20
20.3323922874039
30
0.000000000000000
11
-19.9377276669558
21
20.4541650230551
31
0.000000000000000
  0
LINE
  5
F1052C
330
F1052D
100
AcDbEntity
8
Geo
100
AcDbLine
10
-19.9377276669558
20
20.4541650230551
30
0.000000000000000
11
-20.0377276669558
21
20.5527645490439
31
0.000000000000000
  0
LINE
  5
F1052E
330
F1052F
100
AcDbEntity
8
Geo
100
AcDbLine
10
-20.0377276669558
20
20.5527645490439
30
0.000000000000000
11
-20.1377276669558
21
20.6323611730995
31
0.000000000000000
  0
LINE
  5
F10530
330
F10531
100
AcDbEntity
8
Geo
100
AcDbLine
10
-20.1377276669558
20
20.6323611730995
30
0.000000000000000
11
-20.2377276669558
21
20.6964338670419
31
0.000000000000000
  0
LINE
  5
F10532
330
F10533
100
AcDbEntity
8
Geo
100
AcDbLine
10
-20.2377276669558
20
20.6964338670419
30
0.000000000000000
11
-20.3377276669558
21
20.7478664429877
31
0.000000000000000
  0
LINE
  5
F10534
330
F10535
100
AcDbEntity
8
Geo
100
AcDbLine
10
-20.3377276669558
20
20.7478664429877
30
0.000000000000000
11
-20.4377276669558
21
20.7890359714341
31
0.000000000000000
  0
LINE
  5
F10536
330
F10537
100
AcDbEntity
8
Geo
100
AcDbLine
10
-20.4377276669558
20
20.7890359714341
30
0.000000000000000
11
-20.5377276669558
21
20.8218919908995
31
0.000000000000000
  0
LINE
  5
F10538
330
F10539
100
AcDbEntity
8
Geo
100
AcDbLine
10
-20.5377276669558
20
20.8218919908995
30
0.000000000000000
11
-20.6377276669558
21
20.8480261057987
31
0.000000000000000
  0
LINE
  5
F1053A
330
F1053B
100
AcDbEntity
8
Geo
100
AcDbLine
10
-20.6377276669558
20
20.8480261057987
30
0.000000000000000
11
-20.7377276669558
21
20.8687322225828
31
0.000000000000000
  0
LINE
  5
F1053C
330
F1053D
100
AcDbEntity
8
Geo
100
AcDbLine
10
-20.7377276669558
20
20.8687322225828
30
0.000000000000000
11
-20.8377276669558
21
20.8850580554133
31
0.000000000000000
  0
LINE
  5
F1053E
330
F1053F
100
AcDbEntity
8
Geo
100
AcDbLine
10
-20.8377276669558
20
20.8850580554133
30
0.000000000000000
11
-20.9377276669558
21
20.8978487301035
31
0.000000000000000
  0
LINE
  5
F10540
330
F10541
100
AcDbEntity
8
Geo
100
AcDbLine
10
-20.9377276669558
20
20.8978487301035
30
0.000000000000000
11
-21.0377276669558
21
20.9077833917785
31
0.000000000000000
  0
LINE
  5
F10542
330
F10543
100
AcDbEntity
8
Geo
100
AcDbLine
10
-21.0377276669558
20
20.9077833917785
30
0.000000000000000
11
-21.1377276669558
21
20.9154057218667
31
0.000000000000000
  0
LINE
  5
F10544
330
F10545
100
AcDbEntity
8
Geo
100
AcDbLine
10
-21.1377276669558
20
20.9154057218667
30
0.000000000000000
11
-21.2377276669558
21
20.9211492241098
31
0.000000000000000
  0
LINE
  5
F10546
330
F10547
100
AcDbEntity
8
Geo
100
AcDbLine
10
-21.2377276669558
20
20.9211492241098
30
0.000000000000000
11
-21.3377276669558
21
20.9253580678494
31
0.000000000000000
  0
LINE
  5
F10548
330
F10549
100
AcDbEntity
8
Geo
100
AcDbLine
10
-21.3377276669558
20
20.9253580678494
30
0.000000000000000
11
-21.4377276669558
21
20.9283041935569
31
0.000000000000000
  0
LINE
  5
F1054A
330
F1054B
100
AcDbEntity
8
Geo
100
AcDbLine
10
-21.4377276669558
20
20.9283041935569
30
0.000000000000000
11
-21.5377276669558
21
20.9302012991945
31
0.000000000000000
  0
LINE
  5
F1054C
330
F1054D
100
AcDbEntity
8
Geo
100
AcDbLine
10
-21.5377276669558
20
20.9302012991945
30
0.000000000000000
11
-21.6377276669558
21
20.9312162419665
31
0.000000000000000
  0
LINE
  5
F1054E
330
F1054F
100
AcDbEntity
8
Geo
100
AcDbLine
10
-21.6377276669558
20
20.9312162419665
30
0.000000000000000
11
-21.7259277847068
21
20.9314830875976
31
0.000000000000000
  0
LINE
  5
F10550
330
F10551
100
AcDbEntity
8
Geo
100
AcDbLine
10
-24.0377276669558
20
5.86629695280823
30
0.000000000000000
11
-23.9377276669558
21
5.83939802419977
31
0.000000000000000
  0
LINE
  5
F10552
330
F10553
100
AcDbEntity
8
Geo
100
AcDbLine
10
-23.9377276669558
20
5.83939802419977
30
0.000000000000000
11
-23.8377276669558
21
5.81286847341849
31
0.000000000000000
  0
LINE
  5
F10554
330
F10555
100
AcDbEntity
8
Geo
100
AcDbLine
10
-23.8377276669558
20
5.81286847341849
30
0.000000000000000
11
-23.7377276669558
21
5.78670968220584
31
0.000000000000000
  0
LINE
  5
F10556
330
F10557
100
AcDbEntity
8
Geo
100
AcDbLine
10
-23.7377276669558
20
5.78670968220584
30
0.000000000000000
11
-23.6377276669558
21
5.76092301299304
31
0.000000000000000
  0
LINE
  5
F10558
330
F10559
100
AcDbEntity
8
Geo
100
AcDbLine
10
-23.6377276669558
20
5.76092301299304
30
0.000000000000000
11
-23.5377276669558
21
5.73550980883132
31
0.000000000000000
  0
LINE
  5
F1055A
330
F1055B
100
AcDbEntity
8
Geo
100
AcDbLine
10
-23.5377276669558
20
5.73550980883132
30
0.000000000000000
11
-23.4377276669558
21
5.71047139332959
31
0.000000000000000
  0
LINE
  5
F1055C
330
F1055D
100
AcDbEntity
8
Geo
100
AcDbLine
10
-23.4377276669558
20
5.71047139332959
30
0.000000000000000
11
-23.3377276669558
21
5.68580907062044
31
0.000000000000000
  0
LINE
  5
F1055E
330
F1055F
100
AcDbEntity
8
Geo
100
AcDbLine
10
-23.3377276669558
20
5.68580907062044
30
0.000000000000000
11
-23.2377276669558
21
5.66152412541559
31
0.000000000000000
  0
LINE
  5
F10560
330
F10561
100
AcDbEntity
8
Geo
100
AcDbLine
10
-23.2377276669558
20
5.66152412541559
30
0.000000000000000
11
-23.1377276669558
21
5.63761782329950
31
0.000000000000000
  0
LINE
  5
F10562
330
F10563
100
AcDbEntity
8
Geo
100
AcDbLine
10
-23.1377276669558
20
5.63761782329950
30
0.000000000000000
11
-23.0377276669558
21
5.61409141157584
31
0.000000000000000
  0
LINE
  5
F10564
330
F10565
100
AcDbEntity
8
Geo
100
AcDbLine
10
-23.0377276669558
20
5.61409141157584
30
0.000000000000000
11
-22.9377276669558
21
5.59094612126765
31
0.000000000000000
  0
LINE
  5
F10566
330
F10567
100
AcDbEntity
8
Geo
100
AcDbLine
10
-22.9377276669558
20
5.59094612126765
30
0.000000000000000
11
-22.8377276669558
21
5.56818317132731
31
0.000000000000000
  0
LINE
  5
F10568
330
F10569
100
AcDbEntity
8
Geo
100
AcDbLine
10
-22.8377276669558
20
5.56818317132731
30
0.000000000000000
11
-22.7377276669558
21
5.54580377679526
31
0.000000000000000
  0
LINE
  5
F1056A
330
F1056B
100
AcDbEntity
8
Geo
100
AcDbLine
10
-22.7377276669558
20
5.54580377679526
30
0.000000000000000
11
-22.6377276669558
21
5.52380916361978
31
0.000000000000000
  0
LINE
  5
F1056C
330
F1056D
100
AcDbEntity
8
Geo
100
AcDbLine
10
-22.6377276669558
20
5.52380916361978
30
0.000000000000000
11
-22.5377276669558
21
5.50220059418127
31
0.000000000000000
  0
LINE
  5
F1056E
330
F1056F
100
AcDbEntity
8
Geo
100
AcDbLine
10
-22.5377276669558
20
5.50220059418127
30
0.000000000000000
11
-22.4377276669558
21
5.48097940931897
31
0.000000000000000
  0
LINE
  5
F10570
330
F10571
100
AcDbEntity
8
Geo
100
AcDbLine
10
-22.4377276669558
20
5.48097940931897
30
0.000000000000000
11
-22.3377276669558
21
5.46014709489905
31
0.000000000000000
  0
LINE
  5
F10572
330
F10573
100
AcDbEntity
8
Geo
100
AcDbLine
10
-22.3377276669558
20
5.46014709489905
30
0.000000000000000
11
-22.2377276669558
21
5.43970538374278
31
0.000000000000000
  0
LINE
  5
F10574
330
F10575
100
AcDbEntity
8
Geo
100
AcDbLine
10
-22.2377276669558
20
5.43970538374278
30
0.000000000000000
11
-22.1377276669558
21
5.41965640709172
31
0.000000000000000
  0
LINE
  5
F10576
330
F10577
100
AcDbEntity
8
Geo
100
AcDbLine
10
-22.1377276669558
20
5.41965640709172
30
0.000000000000000
11
-22.0377276669558
21
5.40000291374388
31
0.000000000000000
  0
LINE
  5
F10578
330
F10579
100
AcDbEntity
8
Geo
100
AcDbLine
10
-22.0377276669558
20
5.40000291374388
30
0.000000000000000
11
-21.9377276669558
21
5.38074857954847
31
0.000000000000000
  0
LINE
  5
F1057A
330
F1057B
100
AcDbEntity
8
Geo
100
AcDbLine
10
-21.9377276669558
20
5.38074857954847
30
0.000000000000000
11
-21.8377276669558
21
5.36189843507129
31
0.000000000000000
  0
LINE
  5
F1057C
330
F1057D
100
AcDbEntity
8
Geo
100
AcDbLine
10
-21.8377276669558
20
5.36189843507129
30
0.000000000000000
11
-21.7377276669558
21
5.34345944489639
31
0.000000000000000
  0
LINE
  5
F1057E
330
F1057F
100
AcDbEntity
8
Geo
100
AcDbLine
10
-21.7377276669558
20
5.34345944489639
30
0.000000000000000
11
-21.6377276669558
21
5.32544127817068
31
0.000000000000000
  0
LINE
  5
F10580
330
F10581
100
AcDbEntity
8
Geo
100
AcDbLine
10
-21.6377276669558
20
5.32544127817068
30
0.000000000000000
11
-21.5377276669558
21
5.30785731663291
31
0.000000000000000
  0
LINE
  5
F10582
330
F10583
100
AcDbEntity
8
Geo
100
AcDbLine
10
-21.5377276669558
20
5.30785731663291
30
0.000000000000000
11
-21.4377276669558
21
5.29072595363486
31
0.000000000000000
  0
LINE
  5
F10584
330
F10585
100
AcDbEntity
8
Geo
100
AcDbLine
10
-21.4377276669558
20
5.29072595363486
30
0.000000000000000
11
-21.3377276669558
21
5.27407224599566
31
0.000000000000000
  0
LINE
  5
F10586
330
F10587
100
AcDbEntity
8
Geo
100
AcDbLine
10
-21.3377276669558
20
5.27407224599566
30
0.000000000000000
11
-21.2377276669558
21
5.25792999095130
31
0.000000000000000
  0
LINE
  5
F10588
330
F10589
100
AcDbEntity
8
Geo
100
AcDbLine
10
-21.2377276669558
20
5.25792999095130
30
0.000000000000000
11
-21.1377276669558
21
5.24234431507366
31
0.000000000000000
  0
LINE
  5
F1058A
330
F1058B
100
AcDbEntity
8
Geo
100
AcDbLine
10
-21.1377276669558
20
5.24234431507366
30
0.000000000000000
11
-21.0377276669558
21
5.22737488485266
31
0.000000000000000
  0
LINE
  5
F1058C
330
F1058D
100
AcDbEntity
8
Geo
100
AcDbLine
10
-21.0377276669558
20
5.22737488485266
30
0.000000000000000
11
-20.9377276669558
21
5.21309988693657
31
0.000000000000000
  0
LINE
  5
F1058E
330
F1058F
100
AcDbEntity
8
Geo
100
AcDbLine
10
-20.9377276669558
20
5.21309988693657
30
0.000000000000000
11
-20.8377276669558
21
5.19962099249545
31
0.000000000000000
  0
LINE
  5
F10590
330
F10591
100
AcDbEntity
8
Geo
100
AcDbLine
10
-20.8377276669558
20
5.19962099249545
30
0.000000000000000
11
-20.7377276669558
21
5.18706963626165
31
0.000000000000000
  0
LINE
  5
F10592
330
F10593
100
AcDbEntity
8
Geo
100
AcDbLine
10
-20.7377276669558
20
5.18706963626165
30
0.000000000000000
11
-20.6377276669558
21
5.17561514188004
31
0.000000000000000
  0
LINE
  5
F10594
330
F10595
100
AcDbEntity
8
Geo
100
AcDbLine
10
-20.6377276669558
20
5.17561514188004
30
0.000000000000000
11
-20.5377276669558
21
5.16547556830887
31
0.000000000000000
  0
LINE
  5
F10596
330
F10597
100
AcDbEntity
8
Geo
100
AcDbLine
10
-20.5377276669558
20
5.16547556830887
30
0.000000000000000
11
-20.4377276669558
21
5.15693272734305
31
0.000000000000000
  0
LINE
  5
F10598
330
F10599
100
AcDbEntity
8
Geo
100
AcDbLine
10
-20.4377276669558
20
5.15693272734305
30
0.000000000000000
11
-20.3377276669558
21
5.15035376989016
31
0.000000000000000
  0
LINE
  5
F1059A
330
F1059B
100
AcDbEntity
8
Geo
100
AcDbLine
10
-20.3377276669558
20
5.15035376989016
30
0.000000000000000
11
-20.2377276669558
21
5.14622327189766
31
0.000000000000000
  0
LINE
  5
F1059C
330
F1059D
100
AcDbEntity
8
Geo
100
AcDbLine
10
-20.2377276669558
20
5.14622327189766
30
0.000000000000000
11
-20.1377276669558
21
5.14519218946114
31
0.000000000000000
  0
LINE
  5
F1059E
330
F1059F
100
AcDbEntity
8
Geo
100
AcDbLine
10
-20.1377276669558
20
5.14519218946114
30
0.000000000000000
11
-20.0377276669558
21
5.14815386580603
31
0.000000000000000
  0
LINE
  5
F105A0
330
F105A1
100
AcDbEntity
8
Geo
100
AcDbLine
10
-20.0377276669558
20
5.14815386580603
30
0.000000000000000
11
-19.9377276669558
21
5.15636313279036
31
0.000000000000000
  0
LINE
  5
F105A2
330
F105A3
100
AcDbEntity
8
Geo
100
AcDbLine
10
-19.9377276669558
20
5.15636313279036
30
0.000000000000000
11
-19.8377276669558
21
5.17162338864250
31
0.000000000000000
  0
LINE
  5
F105A4
330
F105A5
100
AcDbEntity
8
Geo
100
AcDbLine
10
-19.8377276669558
20
5.17162338864250
30
0.000000000000000
11
-19.7377276669558
21
5.19657958065596
31
0.000000000000000
  0
LINE
  5
F105A6
330
F105A7
100
AcDbEntity
8
Geo
100
AcDbLine
10
-19.7377276669558
20
5.19657958065596
30
0.000000000000000
11
-19.6377276669558
21
5.23517375161597
31
0.000000000000000
  0
LINE
  5
F105A8
330
F105A9
100
AcDbEntity
8
Geo
100
AcDbLine
10
-19.6377276669558
20
5.23517375161597
30
0.000000000000000
11
-19.5377276669558
21
5.29334563986519
31
0.000000000000000
  0
LINE
  5
F105AA
330
F105AB
100
AcDbEntity
8
Geo
100
AcDbLine
10
-19.5377276669558
20
5.29334563986519
30
0.000000000000000
11
-19.4377276669558
21
5.38009416453128
31
0.000000000000000
  0
LINE
  5
F105AC
330
F105AD
100
AcDbEntity
8
Geo
100
AcDbLine
10
-19.4377276669558
20
5.38009416453128
30
0.000000000000000
11
-19.3377276669558
21
5.50905338245027
31
0.000000000000000
  0
LINE
  5
F105AE
330
F105AF
100
AcDbEntity
8
Geo
100
AcDbLine
10
-19.3377276669558
20
5.50905338245027
30
0.000000000000000
11
-19.2377276669557
21
5.70076607053548
31
0.000000000000000
  0
LINE
  5
F105B0
330
F105B1
100
AcDbEntity
8
Geo
100
AcDbLine
10
-19.2377276669557
20
5.70076607053548
30
0.000000000000000
11
-19.1377276669557
21
5.98582383939236
31
0.000000000000000
  0
LINE
  5
F105B2
330
F105B3
100
AcDbEntity
8
Geo
100
AcDbLine
10
-19.1377276669557
20
5.98582383939236
30
0.000000000000000
11
-19.0377276669558
21
6.40889727755530
31
0.000000000000000
  0
LINE
  5
F105B4
330
F105B5
100
AcDbEntity
8
Geo
100
AcDbLine
10
-19.0377276669558
20
6.40889727755530
30
0.000000000000000
11
-19.0377276669558
21
6.52736100379064
31
0.000000000000000
  0
LINE
  5
F105B6
330
F105B7
100
AcDbEntity
8
Geo
100
AcDbLine
10
-19.0377276669558
20
6.52736100379064
30
0.000000000000000
11
-19.1377276669557
21
6.99413935489147
31
0.000000000000000
  0
LINE
  5
F105B8
330
F105B9
100
AcDbEntity
8
Geo
100
AcDbLine
10
-19.1377276669557
20
6.99413935489147
30
0.000000000000000
11
-19.2377276669557
21
7.46285759937109
31
0.000000000000000
  0
LINE
  5
F105BA
330
F105BB
100
AcDbEntity
8
Geo
100
AcDbLine
10
-19.2377276669557
20
7.46285759937109
30
0.000000000000000
11
-19.3377276669558
21
7.92251515893000
31
0.000000000000000
  0
LINE
  5
F105BC
330
F105BD
100
AcDbEntity
8
Geo
100
AcDbLine
10
-19.3377276669558
20
7.92251515893000
30
0.000000000000000
11
-19.4377276669558
21
8.36539526846376
31
0.000000000000000
  0
LINE
  5
F105BE
330
F105BF
100
AcDbEntity
8
Geo
100
AcDbLine
10
-19.4377276669558
20
8.36539526846376
30
0.000000000000000
11
-19.5377276669558
21
8.78637553606591
31
0.000000000000000
  0
LINE
  5
F105C0
330
F105C1
100
AcDbEntity
8
Geo
100
AcDbLine
10
-19.5377276669558
20
8.78637553606591
30
0.000000000000000
11
-19.6377276669558
21
9.18233993126787
31
0.000000000000000
  0
LINE
  5
F105C2
330
F105C3
100
AcDbEntity
8
Geo
100
AcDbLine
10
-19.6377276669558
20
9.18233993126787
30
0.000000000000000
11
-19.7377276669558
21
9.55169191136881
31
0.000000000000000
  0
LINE
  5
F105C4
330
F105C5
100
AcDbEntity
8
Geo
100
AcDbLine
10
-19.7377276669558
20
9.55169191136881
30
0.000000000000000
11
-19.8377276669558
21
9.89396057472262
31
0.000000000000000
  0
LINE
  5
F105C6
330
F105C7
100
AcDbEntity
8
Geo
100
AcDbLine
10
-19.8377276669558
20
9.89396057472262
30
0.000000000000000
11
-19.9377276669558
21
10.2094881394133
31
0.000000000000000
  0
LINE
  5
F105C8
330
F105C9
100
AcDbEntity
8
Geo
100
AcDbLine
10
-19.9377276669558
20
10.2094881394133
30
0.000000000000000
11
-20.0377276669558
21
10.4991860487031
31
0.000000000000000
  0
LINE
  5
F105CA
330
F105CB
100
AcDbEntity
8
Geo
100
AcDbLine
10
-20.0377276669558
20
10.4991860487031
30
0.000000000000000
11
-20.1377276669558
21
10.7643474868017
31
0.000000000000000
  0
LINE
  5
F105CC
330
F105CD
100
AcDbEntity
8
Geo
100
AcDbLine
10
-20.1377276669558
20
10.7643474868017
30
0.000000000000000
11
-20.2377276669558
21
11.0065053233605
31
0.000000000000000
  0
LINE
  5
F105CE
330
F105CF
100
AcDbEntity
8
Geo
100
AcDbLine
10
-20.2377276669558
20
11.0065053233605
30
0.000000000000000
11
-20.3377276669558
21
11.2273260403803
31
0.000000000000000
  0
LINE
  5
F105D0
330
F105D1
100
AcDbEntity
8
Geo
100
AcDbLine
10
-20.3377276669558
20
11.2273260403803
30
0.000000000000000
11
-20.4377276669558
21
11.4285317651282
31
0.000000000000000
  0
LINE
  5
F105D2
330
F105D3
100
AcDbEntity
8
Geo
100
AcDbLine
10
-20.4377276669558
20
11.4285317651282
30
0.000000000000000
11
-20.5377276669558
21
11.6118439934911
31
0.000000000000000
  0
LINE
  5
F105D4
330
F105D5
100
AcDbEntity
8
Geo
100
AcDbLine
10
-20.5377276669558
20
11.6118439934911
30
0.000000000000000
11
-20.6377276669558
21
11.7789438730927
31
0.000000000000000
  0
LINE
  5
F105D6
330
F105D7
100
AcDbEntity
8
Geo
100
AcDbLine
10
-20.6377276669558
20
11.7789438730927
30
0.000000000000000
11
-20.7377276669558
21
11.9314450037348
31
0.000000000000000
  0
LINE
  5
F105D8
330
F105D9
100
AcDbEntity
8
Geo
100
AcDbLine
10
-20.7377276669558
20
11.9314450037348
30
0.000000000000000
11
-20.8377276669558
21
12.0708756095130
31
0.000000000000000
  0
LINE
  5
F105DA
330
F105DB
100
AcDbEntity
8
Geo
100
AcDbLine
10
-20.8377276669558
20
12.0708756095130
30
0.000000000000000
11
-20.9377276669558
21
12.1986676606991
31
0.000000000000000
  0
LINE
  5
F105DC
330
F105DD
100
AcDbEntity
8
Geo
100
AcDbLine
10
-20.9377276669558
20
12.1986676606991
30
0.000000000000000
11
-21.0377276669558
21
12.3161510979182
31
0.000000000000000
  0
LINE
  5
F105DE
330
F105DF
100
AcDbEntity
8
Geo
100
AcDbLine
10
-21.0377276669558
20
12.3161510979182
30
0.000000000000000
11
-21.1377276669558
21
12.4245517608825
31
0.000000000000000
  0
LINE
  5
F105E0
330
F105E1
100
AcDbEntity
8
Geo
100
AcDbLine
10
-21.1377276669558
20
12.4245517608825
30
0.000000000000000
11
-21.2377276669558
21
12.5249919719875
31
0.000000000000000
  0
LINE
  5
F105E2
330
F105E3
100
AcDbEntity
8
Geo
100
AcDbLine
10
-21.2377276669558
20
12.5249919719875
30
0.000000000000000
11
-21.3377276669558
21
12.6184929917411
31
0.000000000000000
  0
LINE
  5
F105E4
330
F105E5
100
AcDbEntity
8
Geo
100
AcDbLine
10
-21.3377276669558
20
12.6184929917411
30
0.000000000000000
11
-21.4377276669558
21
12.7059787655047
31
0.000000000000000
  0
LINE
  5
F105E6
330
F105E7
100
AcDbEntity
8
Geo
100
AcDbLine
10
-21.4377276669558
20
12.7059787655047
30
0.000000000000000
11
-21.5377276669558
21
12.7882805336163
31
0.000000000000000
  0
LINE
  5
F105E8
330
F105E9
100
AcDbEntity
8
Geo
100
AcDbLine
10
-21.5377276669558
20
12.7882805336163
30
0.000000000000000
11
-21.6377276669558
21
12.8661419911059
31
0.000000000000000
  0
LINE
  5
F105EA
330
F105EB
100
AcDbEntity
8
Geo
100
AcDbLine
10
-21.6377276669558
20
12.8661419911059
30
0.000000000000000
11
-21.7377276669558
21
12.9402247680429
31
0.000000000000000
  0
LINE
  5
F105EC
330
F105ED
100
AcDbEntity
8
Geo
100
AcDbLine
10
-21.7377276669558
20
12.9402247680429
30
0.000000000000000
11
-21.8377276669558
21
13.0111140642111
31
0.000000000000000
  0
LINE
  5
F105EE
330
F105EF
100
AcDbEntity
8
Geo
100
AcDbLine
10
-21.8377276669558
20
13.0111140642111
30
0.000000000000000
11
-21.9377276669558
21
13.0793243178198
31
0.000000000000000
  0
LINE
  5
F105F0
330
F105F1
100
AcDbEntity
8
Geo
100
AcDbLine
10
-21.9377276669558
20
13.0793243178198
30
0.000000000000000
11
-22.0377276669558
21
13.1453048215666
31
0.000000000000000
  0
LINE
  5
F105F2
330
F105F3
100
AcDbEntity
8
Geo
100
AcDbLine
10
-22.0377276669558
20
13.1453048215666
30
0.000000000000000
11
-22.1377276669558
21
13.2094452237791
31
0.000000000000000
  0
LINE
  5
F105F4
330
F105F5
100
AcDbEntity
8
Geo
100
AcDbLine
10
-22.1377276669558
20
13.2094452237791
30
0.000000000000000
11
-22.2377276669558
21
13.2720808700010
31
0.000000000000000
  0
LINE
  5
F105F6
330
F105F7
100
AcDbEntity
8
Geo
100
AcDbLine
10
-22.2377276669558
20
13.2720808700010
30
0.000000000000000
11
-22.3377276669558
21
13.3334979530680
31
0.000000000000000
  0
LINE
  5
F105F8
330
F105F9
100
AcDbEntity
8
Geo
100
AcDbLine
10
-22.3377276669558
20
13.3334979530680
30
0.000000000000000
11
-22.4377276669558
21
13.3939384487757
31
0.000000000000000
  0
LINE
  5
F105FA
330
F105FB
100
AcDbEntity
8
Geo
100
AcDbLine
10
-22.4377276669558
20
13.3939384487757
30
0.000000000000000
11
-22.5377276669558
21
13.4536048206828
31
0.000000000000000
  0
LINE
  5
F105FC
330
F105FD
100
AcDbEntity
8
Geo
100
AcDbLine
10
-22.5377276669558
20
13.4536048206828
30
0.000000000000000
11
-22.6377276669558
21
13.5126644821470
31
0.000000000000000
  0
LINE
  5
F105FE
330
F105FF
100
AcDbEntity
8
Geo
100
AcDbLine
10
-22.6377276669558
20
13.5126644821470
30
0.000000000000000
11
-22.7377276669558
21
13.5712540068943
31
0.000000000000000
  0
LINE
  5
F10600
330
F10601
100
AcDbEntity
8
Geo
100
AcDbLine
10
-22.7377276669558
20
13.5712540068943
30
0.000000000000000
11
-22.8377276669558
21
13.6294830816780
31
0.000000000000000
  0
LINE
  5
F10602
330
F10603
100
AcDbEntity
8
Geo
100
AcDbLine
10
-22.8377276669558
20
13.6294830816780
30
0.000000000000000
11
-22.9377276669558
21
13.6874381961682
31
0.000000000000000
  0
LINE
  5
F10604
330
F10605
100
AcDbEntity
8
Geo
100
AcDbLine
10
-22.9377276669558
20
13.6874381961682
30
0.000000000000000
11
-23.0377276669558
21
13.7451860663493
31
0.000000000000000
  0
LINE
  5
F10606
330
F10607
100
AcDbEntity
8
Geo
100
AcDbLine
10
-23.0377276669558
20
13.7451860663493
30
0.000000000000000
11
-23.1377276669558
21
13.8027767885251
31
0.000000000000000
  0
LINE
  5
F10608
330
F10609
100
AcDbEntity
8
Geo
100
AcDbLine
10
-23.1377276669558
20
13.8027767885251
30
0.000000000000000
11
-23.2377276669558
21
13.8602467216650
31
0.000000000000000
  0
LINE
  5
F1060A
330
F1060B
100
AcDbEntity
8
Geo
100
AcDbLine
10
-23.2377276669558
20
13.8602467216650
30
0.000000000000000
11
-23.3377276669558
21
13.9176210963306
31
0.000000000000000
  0
LINE
  5
F1060C
330
F1060D
100
AcDbEntity
8
Geo
100
AcDbLine
10
-23.3377276669558
20
13.9176210963306
30
0.000000000000000
11
-23.4377276669558
21
13.9749163488595
31
0.000000000000000
  0
LINE
  5
F1060E
330
F1060F
100
AcDbEntity
8
Geo
100
AcDbLine
10
-23.4377276669558
20
13.9749163488595
30
0.000000000000000
11
-23.5377276669558
21
14.0321421798859
31
0.000000000000000
  0
LINE
  5
F10610
330
F10611
100
AcDbEntity
8
Geo
100
AcDbLine
10
-23.5377276669558
20
14.0321421798859
30
0.000000000000000
11
-23.6377276669558
21
14.0893033366604
31
0.000000000000000
  0
LINE
  5
F10612
330
F10613
100
AcDbEntity
8
Geo
100
AcDbLine
10
-23.6377276669558
20
14.0893033366604
30
0.000000000000000
11
-23.7377276669558
21
14.1464011190175
31
0.000000000000000
  0
LINE
  5
F10614
330
F10615
100
AcDbEntity
8
Geo
100
AcDbLine
10
-23.7377276669558
20
14.1464011190175
30
0.000000000000000
11
-23.8377276669558
21
14.2034346092216
31
0.000000000000000
  0
LINE
  5
F10616
330
F10617
100
AcDbEntity
8
Geo
100
AcDbLine
10
-23.8377276669558
20
14.2034346092216
30
0.000000000000000
11
-23.9377276669558
21
14.2604016263116
31
0.000000000000000
  0
LINE
  5
F10618
330
F10619
100
AcDbEntity
8
Geo
100
AcDbLine
10
-23.9377276669558
20
14.2604016263116
30
0.000000000000000
11
-24.0377276669558
21
14.3172994059579
31
0.000000000000000
  0
LINE
  5
F1061A
330
F1061B
100
AcDbEntity
8
Geo
100
AcDbLine
10
-21.7259277847067
20
4.93148308759756
30
0.000000000000000
11
-21.7377276669558
21
4.93148786366004
31
0.000000000000000
  0
LINE
  5
F1061C
330
F1061D
100
AcDbEntity
8
Geo
100
AcDbLine
10
-21.7377276669558
20
4.93148786366004
30
0.000000000000000
11
-21.8377276669558
21
4.93187941569208
31
0.000000000000000
  0
LINE
  5
F1061E
330
F1061F
100
AcDbEntity
8
Geo
100
AcDbLine
10
-21.8377276669558
20
4.93187941569208
30
0.000000000000000
11
-21.9377276669558
21
4.93284926858531
31
0.000000000000000
  0
LINE
  5
F10620
330
F10621
100
AcDbEntity
8
Geo
100
AcDbLine
10
-21.9377276669558
20
4.93284926858531
30
0.000000000000000
11
-22.0377276669558
21
4.93434108147547
31
0.000000000000000
  0
LINE
  5
F10622
330
F10623
100
AcDbEntity
8
Geo
100
AcDbLine
10
-22.0377276669558
20
4.93434108147547
30
0.000000000000000
11
-22.1377276669558
21
4.93631348021277
31
0.000000000000000
  0
LINE
  5
F10624
330
F10625
100
AcDbEntity
8
Geo
100
AcDbLine
10
-22.1377276669558
20
4.93631348021277
30
0.000000000000000
11
-22.2377276669558
21
4.93873680420898
31
0.000000000000000
  0
LINE
  5
F10626
330
F10627
100
AcDbEntity
8
Geo
100
AcDbLine
10
-22.2377276669558
20
4.93873680420898
30
0.000000000000000
11
-22.3377276669558
21
4.94159046954938
31
0.000000000000000
  0
LINE
  5
F10628
330
F10629
100
AcDbEntity
8
Geo
100
AcDbLine
10
-22.3377276669558
20
4.94159046954938
30
0.000000000000000
11
-22.4377276669558
21
4.94486083291958
31
0.000000000000000
  0
LINE
  5
F1062A
330
F1062B
100
AcDbEntity
8
Geo
100
AcDbLine
10
-22.4377276669558
20
4.94486083291958
30
0.000000000000000
11
-22.5377276669558
21
4.94853946410628
31
0.000000000000000
  0
LINE
  5
F1062C
330
F1062D
100
AcDbEntity
8
Geo
100
AcDbLine
10
-22.5377276669558
20
4.94853946410628
30
0.000000000000000
11
-22.6377276669558
21
4.95262175363332
31
0.000000000000000
  0
LINE
  5
F1062E
330
F1062F
100
AcDbEntity
8
Geo
100
AcDbLine
10
-22.6377276669558
20
4.95262175363332
30
0.000000000000000
11
-22.7377276669558
21
4.95710579712389
31
0.000000000000000
  0
LINE
  5
F10630
330
F10631
100
AcDbEntity
8
Geo
100
AcDbLine
10
-22.7377276669558
20
4.95710579712389
30
0.000000000000000
11
-22.8377276669558
21
4.96199150982024
31
0.000000000000000
  0
LINE
  5
F10632
330
F10633
100
AcDbEntity
8
Geo
100
AcDbLine
10
-22.8377276669558
20
4.96199150982024
30
0.000000000000000
11
-22.9377276669558
21
4.96727993387114
31
0.000000000000000
  0
LINE
  5
F10634
330
F10635
100
AcDbEntity
8
Geo
100
AcDbLine
10
-22.9377276669558
20
4.96727993387114
30
0.000000000000000
11
-23.0377276669558
21
4.97297270798691
31
0.000000000000000
  0
LINE
  5
F10636
330
F10637
100
AcDbEntity
8
Geo
100
AcDbLine
10
-23.0377276669558
20
4.97297270798691
30
0.000000000000000
11
-23.1377276669558
21
4.97907167427620
31
0.000000000000000
  0
LINE
  5
F10638
330
F10639
100
AcDbEntity
8
Geo
100
AcDbLine
10
-23.1377276669558
20
4.97907167427620
30
0.000000000000000
11
-23.2377276669558
21
4.98557860088028
31
0.000000000000000
  0
LINE
  5
F1063A
330
F1063B
100
AcDbEntity
8
Geo
100
AcDbLine
10
-23.2377276669558
20
4.98557860088028
30
0.000000000000000
11
-23.3377276669558
21
4.99249500171835
31
0.000000000000000
  0
LINE
  5
F1063C
330
F1063D
100
AcDbEntity
8
Geo
100
AcDbLine
10
-23.3377276669558
20
4.99249500171835
30
0.000000000000000
11
-23.4377276669558
21
4.99982203651298
31
0.000000000000000
  0
LINE
  5
F1063E
330
F1063F
100
AcDbEntity
8
Geo
100
AcDbLine
10
-23.4377276669558
20
4.99982203651298
30
0.000000000000000
11
-23.5377276669558
21
5.00756047549672
31
0.000000000000000
  0
LINE
  5
F10640
330
F10641
100
AcDbEntity
8
Geo
100
AcDbLine
10
-23.5377276669558
20
5.00756047549672
30
0.000000000000000
11
-23.6377276669558
21
5.01571071398423
31
0.000000000000000
  0
LINE
  5
F10642
330
F10643
100
AcDbEntity
8
Geo
100
AcDbLine
10
-23.6377276669558
20
5.01571071398423
30
0.000000000000000
11
-23.7377276669558
21
5.02427282247051
31
0.000000000000000
  0
LINE
  5
F10644
330
F10645
100
AcDbEntity
8
Geo
100
AcDbLine
10
-23.7377276669558
20
5.02427282247051
30
0.000000000000000
11
-23.8377276669558
21
5.03324661819262
31
0.000000000000000
  0
LINE
  5
F10646
330
F10647
100
AcDbEntity
8
Geo
100
AcDbLine
10
-23.8377276669558
20
5.03324661819262
30
0.000000000000000
11
-23.9377276669558
21
5.04263174424839
31
0.000000000000000
  0
LINE
  5
F10648
330
F10649
100
AcDbEntity
8
Geo
100
AcDbLine
10
-23.9377276669558
20
5.04263174424839
30
0.000000000000000
11
-24.0377276669558
21
5.05242774245838
31
0.000000000000000
  0
LINE
  5
F1064A
330
F1064B
100
AcDbEntity
8
Geo
100
AcDbLine
10
-37.9377276669558
20
13.2791645280272
30
0.000000000000000
11
-37.9377276669558
21
12.4000013274386
31
0.000000000000000
  0
LINE
  5
F1064C
330
F1064D
100
AcDbEntity
8
Geo
100
AcDbLine
10
-37.9377276669558
20
12.4000013274386
30
0.000000000000000
11
-37.8377276669558
21
12.0428947680522
31
0.000000000000000
  0
LINE
  5
F1064E
330
F1064F
100
AcDbEntity
8
Geo
100
AcDbLine
10
-37.8377276669558
20
12.0428947680522
30
0.000000000000000
11
-37.7377276669558
21
11.8300644232220
31
0.000000000000000
  0
LINE
  5
F10650
330
F10651
100
AcDbEntity
8
Geo
100
AcDbLine
10
-37.7377276669558
20
11.8300644232220
30
0.000000000000000
11
-37.6377276669558
21
11.6685253205543
31
0.000000000000000
  0
LINE
  5
F10652
330
F10653
100
AcDbEntity
8
Geo
100
AcDbLine
10
-37.6377276669558
20
11.6685253205543
30
0.000000000000000
11
-37.5377276669558
21
11.5367264996477
31
0.000000000000000
  0
LINE
  5
F10654
330
F10655
100
AcDbEntity
8
Geo
100
AcDbLine
10
-37.5377276669558
20
11.5367264996477
30
0.000000000000000
11
-37.4377276669558
21
11.4252086310215
31
0.000000000000000
  0
LINE
  5
F10656
330
F10657
100
AcDbEntity
8
Geo
100
AcDbLine
10
-37.4377276669558
20
11.4252086310215
30
0.000000000000000
11
-37.3377276669558
21
11.3283752690523
31
0.000000000000000
  0
LINE
  5
F10658
330
F10659
100
AcDbEntity
8
Geo
100
AcDbLine
10
-37.3377276669558
20
11.3283752690523
30
0.000000000000000
11
-37.2377276669558
21
11.2435591192040
31
0.000000000000000
  0
LINE
  5
F1065A
330
F1065B
100
AcDbEntity
8
Geo
100
AcDbLine
10
-37.2377276669558
20
11.2435591192040
30
0.000000000000000
11
-37.1377276669558
21
11.1682270760900
31
0.000000000000000
  0
LINE
  5
F1065C
330
F1065D
100
AcDbEntity
8
Geo
100
AcDbLine
10
-37.1377276669558
20
11.1682270760900
30
0.000000000000000
11
-37.0377276669558
21
11.1010215224973
31
0.000000000000000
  0
LINE
  5
F1065E
330
F1065F
100
AcDbEntity
8
Geo
100
AcDbLine
10
-37.0377276669558
20
11.1010215224973
30
0.000000000000000
11
-36.9377276669558
21
11.0408923315392
31
0.000000000000000
  0
LINE
  5
F10660
330
F10661
100
AcDbEntity
8
Geo
100
AcDbLine
10
-36.9377276669558
20
11.0408923315392
30
0.000000000000000
11
-36.8377276669558
21
10.9870121604714
31
0.000000000000000
  0
LINE
  5
F10662
330
F10663
100
AcDbEntity
8
Geo
100
AcDbLine
10
-36.8377276669558
20
10.9870121604714
30
0.000000000000000
11
-36.7377276669558
21
10.9387200115809
31
0.000000000000000
  0
LINE
  5
F10664
330
F10665
100
AcDbEntity
8
Geo
100
AcDbLine
10
-36.7377276669558
20
10.9387200115809
30
0.000000000000000
11
-36.6377276669558
21
10.8950805975636
31
0.000000000000000
  0
LINE
  5
F10666
330
F10667
100
AcDbEntity
8
Geo
100
AcDbLine
10
-36.6377276669558
20
10.8950805975636
30
0.000000000000000
11
-36.5377276669558
21
10.8522026808720
31
0.000000000000000
  0
LINE
  5
F10668
330
F10669
100
AcDbEntity
8
Geo
100
AcDbLine
10
-36.5377276669558
20
10.8522026808720
30
0.000000000000000
11
-36.4377276669558
21
10.8082218430677
31
0.000000000000000
  0
LINE
  5
F1066A
330
F1066B
100
AcDbEntity
8
Geo
100
AcDbLine
10
-36.4377276669558
20
10.8082218430677
30
0.000000000000000
11
-36.3377276669558
21
10.7632005181969
31
0.000000000000000
  0
LINE
  5
F1066C
330
F1066D
100
AcDbEntity
8
Geo
100
AcDbLine
10
-36.3377276669558
20
10.7632005181969
30
0.000000000000000
11
-36.2377276669558
21
10.7171981471725
31
0.000000000000000
  0
LINE
  5
F1066E
330
F1066F
100
AcDbEntity
8
Geo
100
AcDbLine
10
-36.2377276669558
20
10.7171981471725
30
0.000000000000000
11
-36.1377276669558
21
10.6702714723552
31
0.000000000000000
  0
LINE
  5
F10670
330
F10671
100
AcDbEntity
8
Geo
100
AcDbLine
10
-36.1377276669558
20
10.6702714723552
30
0.000000000000000
11
-36.0377276669558
21
10.6224747962555
31
0.000000000000000
  0
LINE
  5
F10672
330
F10673
100
AcDbEntity
8
Geo
100
AcDbLine
10
-36.0377276669558
20
10.6224747962555
30
0.000000000000000
11
-35.9377276669558
21
10.5738602094360
31
0.000000000000000
  0
LINE
  5
F10674
330
F10675
100
AcDbEntity
8
Geo
100
AcDbLine
10
-35.9377276669558
20
10.5738602094360
30
0.000000000000000
11
-35.8377276669558
21
10.5244777919156
31
0.000000000000000
  0
LINE
  5
F10676
330
F10677
100
AcDbEntity
8
Geo
100
AcDbLine
10
-35.8377276669558
20
10.5244777919156
30
0.000000000000000
11
-35.7377276669558
21
10.4743757917146
31
0.000000000000000
  0
LINE
  5
F10678
330
F10679
100
AcDbEntity
8
Geo
100
AcDbLine
10
-35.7377276669558
20
10.4743757917146
30
0.000000000000000
11
-35.6377276669558
21
10.4236007836271
31
0.000000000000000
  0
LINE
  5
F1067A
330
F1067B
100
AcDbEntity
8
Geo
100
AcDbLine
10
-35.6377276669558
20
10.4236007836271
30
0.000000000000000
11
-35.5377276669558
21
10.3721978108410
31
0.000000000000000
  0
LINE
  5
F1067C
330
F1067D
100
AcDbEntity
8
Geo
100
AcDbLine
10
-35.5377276669558
20
10.3721978108410
30
0.000000000000000
11
-35.4377276669558
21
10.3202105116355
31
0.000000000000000
  0
LINE
  5
F1067E
330
F1067F
100
AcDbEntity
8
Geo
100
AcDbLine
10
-35.4377276669558
20
10.3202105116355
30
0.000000000000000
11
-35.3377276669558
21
10.2676812330576
31
0.000000000000000
  0
LINE
  5
F10680
330
F10681
100
AcDbEntity
8
Geo
100
AcDbLine
10
-35.3377276669558
20
10.2676812330576
30
0.000000000000000
11
-35.2377276669558
21
10.2146511332060
31
0.000000000000000
  0
LINE
  5
F10682
330
F10683
100
AcDbEntity
8
Geo
100
AcDbLine
10
-35.2377276669558
20
10.2146511332060
30
0.000000000000000
11
-35.1377276669558
21
10.1611602735198
31
0.000000000000000
  0
LINE
  5
F10684
330
F10685
100
AcDbEntity
8
Geo
100
AcDbLine
10
-35.1377276669558
20
10.1611602735198
30
0.000000000000000
11
-35.0377276669558
21
10.1072477022717
31
0.000000000000000
  0
LINE
  5
F10686
330
F10687
100
AcDbEntity
8
Geo
100
AcDbLine
10
-35.0377276669558
20
10.1072477022717
30
0.000000000000000
11
-34.9377276669558
21
10.0529515303057
31
0.000000000000000
  0
LINE
  5
F10688
330
F10689
100
AcDbEntity
8
Geo
100
AcDbLine
10
-34.9377276669558
20
10.0529515303057
30
0.000000000000000
11
-34.8377276669558
21
9.99830899991547
31
0.000000000000000
  0
LINE
  5
F1068A
330
F1068B
100
AcDbEntity
8
Geo
100
AcDbLine
10
-34.8377276669558
20
9.99830899991547
30
0.000000000000000
11
-34.7377276669558
21
9.94335654764373
31
0.000000000000000
  0
LINE
  5
F1068C
330
F1068D
100
AcDbEntity
8
Geo
100
AcDbLine
10
-34.7377276669558
20
9.94335654764373
30
0.000000000000000
11
-34.6377276669558
21
9.88812986168267
31
0.000000000000000
  0
LINE
  5
F1068E
330
F1068F
100
AcDbEntity
8
Geo
100
AcDbLine
10
-34.6377276669558
20
9.88812986168267
30
0.000000000000000
11
-34.5377276669558
21
9.83266393446724
31
0.000000000000000
  0
LINE
  5
F10690
330
F10691
100
AcDbEntity
8
Geo
100
AcDbLine
10
-34.5377276669558
20
9.83266393446724
30
0.000000000000000
11
-34.4377276669558
21
9.77699311098189
31
0.000000000000000
  0
LINE
  5
F10692
330
F10693
100
AcDbEntity
8
Geo
100
AcDbLine
10
-34.4377276669558
20
9.77699311098189
30
0.000000000000000
11
-34.3377276669558
21
9.72115113323676
31
0.000000000000000
  0
LINE
  5
F10694
330
F10695
100
AcDbEntity
8
Geo
100
AcDbLine
10
-34.3377276669558
20
9.72115113323676
30
0.000000000000000
11
-34.2377276669558
21
9.66517118131564
31
0.000000000000000
  0
LINE
  5
F10696
330
F10697
100
AcDbEntity
8
Geo
100
AcDbLine
10
-34.2377276669558
20
9.66517118131564
30
0.000000000000000
11
-34.1377276669558
21
9.60908591135098
31
0.000000000000000
  0
LINE
  5
F10698
330
F10699
100
AcDbEntity
8
Geo
100
AcDbLine
10
-34.1377276669558
20
9.60908591135098
30
0.000000000000000
11
-34.0377276669558
21
9.55292749074065
31
0.000000000000000
  0
LINE
  5
F1069A
330
F1069B
100
AcDbEntity
8
Geo
100
AcDbLine
10
-34.0377276669558
20
9.55292749074065
30
0.000000000000000
11
-33.9377276669558
21
9.49672763088624
31
0.000000000000000
  0
LINE
  5
F1069C
330
F1069D
100
AcDbEntity
8
Geo
100
AcDbLine
10
-33.9377276669558
20
9.49672763088624
30
0.000000000000000
11
-33.8377276669558
21
9.44051761770202
31
0.000000000000000
  0
LINE
  5
F1069E
330
F1069F
100
AcDbEntity
8
Geo
100
AcDbLine
10
-33.8377276669558
20
9.44051761770202
30
0.000000000000000
11
-33.7377276669558
21
9.38432834011716
31
0.000000000000000
  0
LINE
  5
F106A0
330
F106A1
100
AcDbEntity
8
Geo
100
AcDbLine
10
-33.7377276669558
20
9.38432834011716
30
0.000000000000000
11
-33.6377276669558
21
9.32819031677092
31
0.000000000000000
  0
LINE
  5
F106A2
330
F106A3
100
AcDbEntity
8
Geo
100
AcDbLine
10
-33.6377276669558
20
9.32819031677092
30
0.000000000000000
11
-33.5377276669558
21
9.27213372107995
31
0.000000000000000
  0
LINE
  5
F106A4
330
F106A5
100
AcDbEntity
8
Geo
100
AcDbLine
10
-33.5377276669558
20
9.27213372107995
30
0.000000000000000
11
-33.4377276669558
21
9.21618840483948
31
0.000000000000000
  0
LINE
  5
F106A6
330
F106A7
100
AcDbEntity
8
Geo
100
AcDbLine
10
-33.4377276669558
20
9.21618840483948
30
0.000000000000000
11
-33.3377276669558
21
9.16038392050451
31
0.000000000000000
  0
LINE
  5
F106A8
330
F106A9
100
AcDbEntity
8
Geo
100
AcDbLine
10
-33.3377276669558
20
9.16038392050451
30
0.000000000000000
11
-33.2377276669558
21
9.10474954228377
31
0.000000000000000
  0
LINE
  5
F106AA
330
F106AB
100
AcDbEntity
8
Geo
100
AcDbLine
10
-33.2377276669558
20
9.10474954228377
30
0.000000000000000
11
-33.1377276669558
21
9.04931428616690
31
0.000000000000000
  0
LINE
  5
F106AC
330
F106AD
100
AcDbEntity
8
Geo
100
AcDbLine
10
-33.1377276669558
20
9.04931428616690
30
0.000000000000000
11
-33.0377276669558
21
8.99410692899546
31
0.000000000000000
  0
LINE
  5
F106AE
330
F106AF
100
AcDbEntity
8
Geo
100
AcDbLine
10
-33.0377276669558
20
8.99410692899546
30
0.000000000000000
11
-32.9377276669558
21
8.93915602667859
31
0.000000000000000
  0
LINE
  5
F106B0
330
F106B1
100
AcDbEntity
8
Geo
100
AcDbLine
10
-32.9377276669558
20
8.93915602667859
30
0.000000000000000
11
-32.8377276669558
21
8.88448993164656
31
0.000000000000000
  0
LINE
  5
F106B2
330
F106B3
100
AcDbEntity
8
Geo
100
AcDbLine
10
-32.8377276669558
20
8.88448993164656
30
0.000000000000000
11
-32.7377276669558
21
8.83013680962819
31
0.000000000000000
  0
LINE
  5
F106B4
330
F106B5
100
AcDbEntity
8
Geo
100
AcDbLine
10
-32.7377276669558
20
8.83013680962819
30
0.000000000000000
11
-32.6377276669558
21
8.77612465583192
31
0.000000000000000
  0
LINE
  5
F106B6
330
F106B7
100
AcDbEntity
8
Geo
100
AcDbLine
10
-32.6377276669558
20
8.77612465583192
30
0.000000000000000
11
-32.5377276669558
21
8.72248131060517
31
0.000000000000000
  0
LINE
  5
F106B8
330
F106B9
100
AcDbEntity
8
Geo
100
AcDbLine
10
-32.5377276669558
20
8.72248131060517
30
0.000000000000000
11
-32.4377276669558
21
8.66923447464169
31
0.000000000000000
  0
LINE
  5
F106BA
330
F106BB
100
AcDbEntity
8
Geo
100
AcDbLine
10
-32.4377276669558
20
8.66923447464169
30
0.000000000000000
11
-32.3377276669558
21
8.61641172380270
31
0.000000000000000
  0
LINE
  5
F106BC
330
F106BD
100
AcDbEntity
8
Geo
100
AcDbLine
10
-32.3377276669558
20
8.61641172380270
30
0.000000000000000
11
-32.2377276669558
21
8.56404052361432
31
0.000000000000000
  0
LINE
  5
F106BE
330
F106BF
100
AcDbEntity
8
Geo
100
AcDbLine
10
-32.2377276669558
20
8.56404052361432
30
0.000000000000000
11
-32.1377276669558
21
8.51214824350049
31
0.000000000000000
  0
LINE
  5
F106C0
330
F106C1
100
AcDbEntity
8
Geo
100
AcDbLine
10
-32.1377276669558
20
8.51214824350049
30
0.000000000000000
11
-32.0377276669558
21
8.46076217080865
31
0.000000000000000
  0
LINE
  5
F106C2
330
F106C3
100
AcDbEntity
8
Geo
100
AcDbLine
10
-32.0377276669558
20
8.46076217080865
30
0.000000000000000
11
-31.9377276669558
21
8.40990952468294
31
0.000000000000000
  0
LINE
  5
F106C4
330
F106C5
100
AcDbEntity
8
Geo
100
AcDbLine
10
-31.9377276669558
20
8.40990952468294
30
0.000000000000000
11
-31.8377276669558
21
8.35961746983864
31
0.000000000000000
  0
LINE
  5
F106C6
330
F106C7
100
AcDbEntity
8
Geo
100
AcDbLine
10
-31.8377276669558
20
8.35961746983864
30
0.000000000000000
11
-31.7377276669558
21
8.30991313028993
31
0.000000000000000
  0
LINE
  5
F106C8
330
F106C9
100
AcDbEntity
8
Geo
100
AcDbLine
10
-31.7377276669558
20
8.30991313028993
30
0.000000000000000
11
-31.6377276669558
21
8.26082360308272
31
0.000000000000000
  0
LINE
  5
F106CA
330
F106CB
100
AcDbEntity
8
Geo
100
AcDbLine
10
-31.6377276669558
20
8.26082360308272
30
0.000000000000000
11
-31.5377276669558
21
8.21237597208354
31
0.000000000000000
  0
LINE
  5
F106CC
330
F106CD
100
AcDbEntity
8
Geo
100
AcDbLine
10
-31.5377276669558
20
8.21237597208354
30
0.000000000000000
11
-31.4377276669558
21
8.16459732187553
31
0.000000000000000
  0
LINE
  5
F106CE
330
F106CF
100
AcDbEntity
8
Geo
100
AcDbLine
10
-31.4377276669558
20
8.16459732187553
30
0.000000000000000
11
-31.3377276669558
21
8.11751475181323
31
0.000000000000000
  0
LINE
  5
F106D0
330
F106D1
100
AcDbEntity
8
Geo
100
AcDbLine
10
-31.3377276669558
20
8.11751475181323
30
0.000000000000000
11
-31.2377276669558
21
8.07115539028770
31
0.000000000000000
  0
LINE
  5
F106D2
330
F106D3
100
AcDbEntity
8
Geo
100
AcDbLine
10
-31.2377276669558
20
8.07115539028770
30
0.000000000000000
11
-31.1377276669558
21
8.02554640925565
31
0.000000000000000
  0
LINE
  5
F106D4
330
F106D5
100
AcDbEntity
8
Geo
100
AcDbLine
10
-31.1377276669558
20
8.02554640925565
30
0.000000000000000
11
-31.0377276669558
21
7.98071503908659
31
0.000000000000000
  0
LINE
  5
F106D6
330
F106D7
100
AcDbEntity
8
Geo
100
AcDbLine
10
-31.0377276669558
20
7.98071503908659
30
0.000000000000000
11
-30.9377276669558
21
7.93641088017041
31
0.000000000000000
  0
LINE
  5
F106D8
330
F106D9
100
AcDbEntity
8
Geo
100
AcDbLine
10
-30.9377276669558
20
7.93641088017041
30
0.000000000000000
11
-30.8377276669558
21
7.89236688013587
31
0.000000000000000
  0
LINE
  5
F106DA
330
F106DB
100
AcDbEntity
8
Geo
100
AcDbLine
10
-30.8377276669558
20
7.89236688013587
30
0.000000000000000
11
-30.7377276669558
21
7.84858533293135
31
0.000000000000000
  0
LINE
  5
F106DC
330
F106DD
100
AcDbEntity
8
Geo
100
AcDbLine
10
-30.7377276669558
20
7.84858533293135
30
0.000000000000000
11
-30.6377276669558
21
7.80506851883586
31
0.000000000000000
  0
LINE
  5
F106DE
330
F106DF
100
AcDbEntity
8
Geo
100
AcDbLine
10
-30.6377276669558
20
7.80506851883586
30
0.000000000000000
11
-30.5377276669558
21
7.76181870434031
31
0.000000000000000
  0
LINE
  5
F106E0
330
F106E1
100
AcDbEntity
8
Geo
100
AcDbLine
10
-30.5377276669558
20
7.76181870434031
30
0.000000000000000
11
-30.4377276669558
21
7.71883814202942
31
0.000000000000000
  0
LINE
  5
F106E2
330
F106E3
100
AcDbEntity
8
Geo
100
AcDbLine
10
-30.4377276669558
20
7.71883814202942
30
0.000000000000000
11
-30.3377276669558
21
7.67612907046443
31
0.000000000000000
  0
LINE
  5
F106E4
330
F106E5
100
AcDbEntity
8
Geo
100
AcDbLine
10
-30.3377276669558
20
7.67612907046443
30
0.000000000000000
11
-30.2377276669558
21
7.63369371406650
31
0.000000000000000
  0
LINE
  5
F106E6
330
F106E7
100
AcDbEntity
8
Geo
100
AcDbLine
10
-30.2377276669558
20
7.63369371406650
30
0.000000000000000
11
-30.1377276669558
21
7.59153428300085
31
0.000000000000000
  0
LINE
  5
F106E8
330
F106E9
100
AcDbEntity
8
Geo
100
AcDbLine
10
-30.1377276669558
20
7.59153428300085
30
0.000000000000000
11
-30.0377276669558
21
7.54965297306163
31
0.000000000000000
  0
LINE
  5
F106EA
330
F106EB
100
AcDbEntity
8
Geo
100
AcDbLine
10
-30.0377276669558
20
7.54965297306163
30
0.000000000000000
11
-29.9377276669558
21
7.50805196555763
31
0.000000000000000
  0
LINE
  5
F106EC
330
F106ED
100
AcDbEntity
8
Geo
100
AcDbLine
10
-29.9377276669558
20
7.50805196555763
30
0.000000000000000
11
-29.8377276669558
21
7.46673342719857
31
0.000000000000000
  0
LINE
  5
F106EE
330
F106EF
100
AcDbEntity
8
Geo
100
AcDbLine
10
-29.8377276669558
20
7.46673342719857
30
0.000000000000000
11
-29.7377276669558
21
7.42569950998231
31
0.000000000000000
  0
LINE
  5
F106F0
330
F106F1
100
AcDbEntity
8
Geo
100
AcDbLine
10
-29.7377276669558
20
7.42569950998231
30
0.000000000000000
11
-29.6377276669558
21
7.38495235108278
31
0.000000000000000
  0
LINE
  5
F106F2
330
F106F3
100
AcDbEntity
8
Geo
100
AcDbLine
10
-29.6377276669558
20
7.38495235108278
30
0.000000000000000
11
-29.5377276669558
21
7.34449407273861
31
0.000000000000000
  0
LINE
  5
F106F4
330
F106F5
100
AcDbEntity
8
Geo
100
AcDbLine
10
-29.5377276669558
20
7.34449407273861
30
0.000000000000000
11
-29.4377276669558
21
7.30432678214266
31
0.000000000000000
  0
LINE
  5
F106F6
330
F106F7
100
AcDbEntity
8
Geo
100
AcDbLine
10
-29.4377276669558
20
7.30432678214266
30
0.000000000000000
11
-29.3377276669558
21
7.26445257133224
31
0.000000000000000
  0
LINE
  5
F106F8
330
F106F9
100
AcDbEntity
8
Geo
100
AcDbLine
10
-29.3377276669558
20
7.26445257133224
30
0.000000000000000
11
-29.2377276669558
21
7.22487351708014
31
0.000000000000000
  0
LINE
  5
F106FA
330
F106FB
100
AcDbEntity
8
Geo
100
AcDbLine
10
-29.2377276669558
20
7.22487351708014
30
0.000000000000000
11
-29.1377276669558
21
7.18559168078650
31
0.000000000000000
  0
LINE
  5
F106FC
330
F106FD
100
AcDbEntity
8
Geo
100
AcDbLine
10
-29.1377276669558
20
7.18559168078650
30
0.000000000000000
11
-29.0377276669558
21
7.14660910837140
31
0.000000000000000
  0
LINE
  5
F106FE
330
F106FF
100
AcDbEntity
8
Geo
100
AcDbLine
10
-29.0377276669558
20
7.14660910837140
30
0.000000000000000
11
-28.9377276669558
21
7.10792783016835
31
0.000000000000000
  0
LINE
  5
F10700
330
F10701
100
AcDbEntity
8
Geo
100
AcDbLine
10
-28.9377276669558
20
7.10792783016835
30
0.000000000000000
11
-28.8377276669558
21
7.06954986081850
31
0.000000000000000
  0
LINE
  5
F10702
330
F10703
100
AcDbEntity
8
Geo
100
AcDbLine
10
-28.8377276669558
20
7.06954986081850
30
0.000000000000000
11
-28.7377276669558
21
7.03147719916577
31
0.000000000000000
  0
LINE
  5
F10704
330
F10705
100
AcDbEntity
8
Geo
100
AcDbLine
10
-28.7377276669558
20
7.03147719916577
30
0.000000000000000
11
-28.6377276669558
21
6.99371182815265
31
0.000000000000000
  0
LINE
  5
F10706
330
F10707
100
AcDbEntity
8
Geo
100
AcDbLine
10
-28.6377276669558
20
6.99371182815265
30
0.000000000000000
11
-28.5377276669558
21
6.95625571471704
31
0.000000000000000
  0
LINE
  5
F10708
330
F10709
100
AcDbEntity
8
Geo
100
AcDbLine
10
-28.5377276669558
20
6.95625571471704
30
0.000000000000000
11
-28.4377276669558
21
6.91911080968969
31
0.000000000000000
  0
LINE
  5
F1070A
330
F1070B
100
AcDbEntity
8
Geo
100
AcDbLine
10
-28.4377276669558
20
6.91911080968969
30
0.000000000000000
11
-28.3377276669558
21
6.88227904769269
31
0.000000000000000
  0
LINE
  5
F1070C
330
F1070D
100
AcDbEntity
8
Geo
100
AcDbLine
10
-28.3377276669558
20
6.88227904769269
30
0.000000000000000
11
-28.2377276669558
21
6.84576234703864
31
0.000000000000000
  0
LINE
  5
F1070E
330
F1070F
100
AcDbEntity
8
Geo
100
AcDbLine
10
-28.2377276669558
20
6.84576234703864
30
0.000000000000000
11
-28.1377276669558
21
6.80956260963078
31
0.000000000000000
  0
LINE
  5
F10710
330
F10711
100
AcDbEntity
8
Geo
100
AcDbLine
10
-28.1377276669558
20
6.80956260963078
30
0.000000000000000
11
-28.0377276669558
21
6.77368172086392
31
0.000000000000000
  0
LINE
  5
F10712
330
F10713
100
AcDbEntity
8
Geo
100
AcDbLine
10
-28.0377276669558
20
6.77368172086392
30
0.000000000000000
11
-27.9377276669558
21
6.73812154952624
31
0.000000000000000
  0
LINE
  5
F10714
330
F10715
100
AcDbEntity
8
Geo
100
AcDbLine
10
-27.9377276669558
20
6.73812154952624
30
0.000000000000000
11
-27.8377276669558
21
6.70288394770195
31
0.000000000000000
  0
LINE
  5
F10716
330
F10717
100
AcDbEntity
8
Geo
100
AcDbLine
10
-27.8377276669558
20
6.70288394770195
30
0.000000000000000
11
-27.7377276669558
21
6.66797075067486
31
0.000000000000000
  0
LINE
  5
F10718
330
F10719
100
AcDbEntity
8
Geo
100
AcDbLine
10
-27.7377276669558
20
6.66797075067486
30
0.000000000000000
11
-27.6377276669558
21
6.63338377683275
31
0.000000000000000
  0
LINE
  5
F1071A
330
F1071B
100
AcDbEntity
8
Geo
100
AcDbLine
10
-27.6377276669558
20
6.63338377683275
30
0.000000000000000
11
-27.5377276669558
21
6.59912482757268
31
0.000000000000000
  0
LINE
  5
F1071C
330
F1071D
100
AcDbEntity
8
Geo
100
AcDbLine
10
-27.5377276669558
20
6.59912482757268
30
0.000000000000000
11
-27.4377276669558
21
6.56519568720719
31
0.000000000000000
  0
LINE
  5
F1071E
330
F1071F
100
AcDbEntity
8
Geo
100
AcDbLine
10
-27.4377276669558
20
6.56519568720719
30
0.000000000000000
11
-27.3377276669558
21
6.53159812287134
31
0.000000000000000
  0
LINE
  5
F10720
330
F10721
100
AcDbEntity
8
Geo
100
AcDbLine
10
-27.3377276669558
20
6.53159812287134
30
0.000000000000000
11
-27.2377276669558
21
6.49833388443066
31
0.000000000000000
  0
LINE
  5
F10722
330
F10723
100
AcDbEntity
8
Geo
100
AcDbLine
10
-27.2377276669558
20
6.49833388443066
30
0.000000000000000
11
-27.1377276669558
21
6.46540470439007
31
0.000000000000000
  0
LINE
  5
F10724
330
F10725
100
AcDbEntity
8
Geo
100
AcDbLine
10
-27.1377276669558
20
6.46540470439007
30
0.000000000000000
11
-27.0377276669558
21
6.43281229780358
31
0.000000000000000
  0
LINE
  5
F10726
330
F10727
100
AcDbEntity
8
Geo
100
AcDbLine
10
-27.0377276669558
20
6.43281229780358
30
0.000000000000000
11
-26.9377276669558
21
6.40055836218499
31
0.000000000000000
  0
LINE
  5
F10728
330
F10729
100
AcDbEntity
8
Geo
100
AcDbLine
10
-26.9377276669558
20
6.40055836218499
30
0.000000000000000
11
-26.8377276669558
21
6.36864457741950
31
0.000000000000000
  0
LINE
  5
F1072A
330
F1072B
100
AcDbEntity
8
Geo
100
AcDbLine
10
-26.8377276669558
20
6.36864457741950
30
0.000000000000000
11
-26.7377276669558
21
6.33707260567618
31
0.000000000000000
  0
LINE
  5
F1072C
330
F1072D
100
AcDbEntity
8
Geo
100
AcDbLine
10
-26.7377276669558
20
6.33707260567618
30
0.000000000000000
11
-26.6377276669558
21
6.30584409132142
31
0.000000000000000
  0
LINE
  5
F1072E
330
F1072F
100
AcDbEntity
8
Geo
100
AcDbLine
10
-26.6377276669558
20
6.30584409132142
30
0.000000000000000
11
-26.5377276669558
21
6.27496066083329
31
0.000000000000000
  0
LINE
  5
F10730
330
F10731
100
AcDbEntity
8
Geo
100
AcDbLine
10
-26.5377276669558
20
6.27496066083329
30
0.000000000000000
11
-26.4377276669558
21
6.24442392271680
31
0.000000000000000
  0
LINE
  5
F10732
330
F10733
100
AcDbEntity
8
Geo
100
AcDbLine
10
-26.4377276669558
20
6.24442392271680
30
0.000000000000000
11
-26.3377276669558
21
6.21423546742018
31
0.000000000000000
  0
LINE
  5
F10734
330
F10735
100
AcDbEntity
8
Geo
100
AcDbLine
10
-26.3377276669558
20
6.21423546742018
30
0.000000000000000
11
-26.2377276669558
21
6.18439686725196
31
0.000000000000000
  0
LINE
  5
F10736
330
F10737
100
AcDbEntity
8
Geo
100
AcDbLine
10
-26.2377276669558
20
6.18439686725196
30
0.000000000000000
11
-26.1377276669558
21
6.15490967629917
31
0.000000000000000
  0
LINE
  5
F10738
330
F10739
100
AcDbEntity
8
Geo
100
AcDbLine
10
-26.1377276669558
20
6.15490967629917
30
0.000000000000000
11
-26.0377276669558
21
6.12577543034634
31
0.000000000000000
  0
LINE
  5
F1073A
330
F1073B
100
AcDbEntity
8
Geo
100
AcDbLine
10
-26.0377276669558
20
6.12577543034634
30
0.000000000000000
11
-25.9377276669558
21
6.09699564679551
31
0.000000000000000
  0
LINE
  5
F1073C
330
F1073D
100
AcDbEntity
8
Geo
100
AcDbLine
10
-25.9377276669558
20
6.09699564679551
30
0.000000000000000
11
-25.8377276669558
21
6.06857182458726
31
0.000000000000000
  0
LINE
  5
F1073E
330
F1073F
100
AcDbEntity
8
Geo
100
AcDbLine
10
-25.8377276669558
20
6.06857182458726
30
0.000000000000000
11
-25.7377276669558
21
6.04050544412255
31
0.000000000000000
  0
LINE
  5
F10740
330
F10741
100
AcDbEntity
8
Geo
100
AcDbLine
10
-25.7377276669558
20
6.04050544412255
30
0.000000000000000
11
-25.6377276669558
21
6.01279796718569
31
0.000000000000000
  0
LINE
  5
F10742
330
F10743
100
AcDbEntity
8
Geo
100
AcDbLine
10
-25.6377276669558
20
6.01279796718569
30
0.000000000000000
11
-25.5377276669558
21
5.98545083686818
31
0.000000000000000
  0
LINE
  5
F10744
330
F10745
100
AcDbEntity
8
Geo
100
AcDbLine
10
-25.5377276669558
20
5.98545083686818
30
0.000000000000000
11
-25.4377276669558
21
5.95846547749354
31
0.000000000000000
  0
LINE
  5
F10746
330
F10747
100
AcDbEntity
8
Geo
100
AcDbLine
10
-25.4377276669558
20
5.95846547749354
30
0.000000000000000
11
-25.3377276669558
21
5.93184329454314
31
0.000000000000000
  0
LINE
  5
F10748
330
F10749
100
AcDbEntity
8
Geo
100
AcDbLine
10
-25.3377276669558
20
5.93184329454314
30
0.000000000000000
11
-25.2377276669558
21
5.90558567458298
31
0.000000000000000
  0
LINE
  5
F1074A
330
F1074B
100
AcDbEntity
8
Geo
100
AcDbLine
10
-25.2377276669558
20
5.90558567458298
30
0.000000000000000
11
-25.1377276669558
21
5.87969398519150
31
0.000000000000000
  0
LINE
  5
F1074C
330
F1074D
100
AcDbEntity
8
Geo
100
AcDbLine
10
-25.1377276669558
20
5.87969398519150
30
0.000000000000000
11
-25.0377276669558
21
5.85416957488835
31
0.000000000000000
  0
LINE
  5
F1074E
330
F1074F
100
AcDbEntity
8
Geo
100
AcDbLine
10
-25.0377276669558
20
5.85416957488835
30
0.000000000000000
11
-24.9377276669558
21
5.82901377306411
31
0.000000000000000
  0
LINE
  5
F10750
330
F10751
100
AcDbEntity
8
Geo
100
AcDbLine
10
-24.9377276669558
20
5.82901377306411
30
0.000000000000000
11
-24.8377276669558
21
5.80422788991112
31
0.000000000000000
  0
LINE
  5
F10752
330
F10753
100
AcDbEntity
8
Geo
100
AcDbLine
10
-24.8377276669558
20
5.80422788991112
30
0.000000000000000
11
-24.7377276669558
21
5.77981321635518
31
0.000000000000000
  0
LINE
  5
F10754
330
F10755
100
AcDbEntity
8
Geo
100
AcDbLine
10
-24.7377276669558
20
5.77981321635518
30
0.000000000000000
11
-24.6377276669558
21
5.75577102398837
31
0.000000000000000
  0
LINE
  5
F10756
330
F10757
100
AcDbEntity
8
Geo
100
AcDbLine
10
-24.6377276669558
20
5.75577102398837
30
0.000000000000000
11
-24.5377276669558
21
5.73210256500275
31
0.000000000000000
  0
LINE
  5
F10758
330
F10759
100
AcDbEntity
8
Geo
100
AcDbLine
10
-24.5377276669558
20
5.73210256500275
30
0.000000000000000
11
-24.4377276669558
21
5.70880907212522
31
0.000000000000000
  0
LINE
  5
F1075A
330
F1075B
100
AcDbEntity
8
Geo
100
AcDbLine
10
-24.4377276669558
20
5.70880907212522
30
0.000000000000000
11
-24.3377276669558
21
5.68589175855328
31
0.000000000000000
  0
LINE
  5
F1075C
330
F1075D
100
AcDbEntity
8
Geo
100
AcDbLine
10
-24.3377276669558
20
5.68589175855328
30
0.000000000000000
11
-24.2377276669558
21
5.66335181789181
31
0.000000000000000
  0
LINE
  5
F1075E
330
F1075F
100
AcDbEntity
8
Geo
100
AcDbLine
10
-24.2377276669558
20
5.66335181789181
30
0.000000000000000
11
-24.1377276669558
21
5.64119042409097
31
0.000000000000000
  0
LINE
  5
F10760
330
F10761
100
AcDbEntity
8
Geo
100
AcDbLine
10
-24.1377276669558
20
5.64119042409097
30
0.000000000000000
11
-24.0377276669558
21
5.61940873138501
31
0.000000000000000
  0
LINE
  5
F10762
330
F10763
100
AcDbEntity
8
Geo
100
AcDbLine
10
-37.9377276669558
20
8.95853628863962
30
0.000000000000000
11
-37.9377276669558
21
8.88302659159812
31
0.000000000000000
  0
LINE
  5
F10764
330
F10765
100
AcDbEntity
8
Geo
100
AcDbLine
10
-37.9377276669558
20
16.9799395835970
30
0.000000000000000
11
-37.9377276669558
21
16.8840412199958
31
0.000000000000000
  0
LINE
  5
F10766
330
F10767
100
AcDbEntity
8
Geo
100
AcDbLine
10
-37.9377276669558
20
16.8840412199958
30
0.000000000000000
11
-37.8377276669558
21
16.9860524445764
31
0.000000000000000
  0
LINE
  5
F10768
330
F10769
100
AcDbEntity
8
Geo
100
AcDbLine
10
-37.8377276669558
20
16.9860524445764
30
0.000000000000000
11
-37.7377276669558
21
17.0934913169473
31
0.000000000000000
  0
LINE
  5
F1076A
330
F1076B
100
AcDbEntity
8
Geo
100
AcDbLine
10
-37.7377276669558
20
17.0934913169473
30
0.000000000000000
11
-37.6377276669558
21
17.2010051971783
31
0.000000000000000
  0
LINE
  5
F1076C
330
F1076D
100
AcDbEntity
8
Geo
100
AcDbLine
10
-37.6377276669558
20
17.2010051971783
30
0.000000000000000
11
-37.5377276669558
21
17.3074296321052
31
0.000000000000000
  0
LINE
  5
F1076E
330
F1076F
100
AcDbEntity
8
Geo
100
AcDbLine
10
-37.5377276669558
20
17.3074296321052
30
0.000000000000000
11
-37.4377276669558
21
17.4122775770809
31
0.000000000000000
  0
LINE
  5
F10770
330
F10771
100
AcDbEntity
8
Geo
100
AcDbLine
10
-37.4377276669558
20
17.4122775770809
30
0.000000000000000
11
-37.3377276669558
21
17.5151677184795
31
0.000000000000000
  0
LINE
  5
F10772
330
F10773
100
AcDbEntity
8
Geo
100
AcDbLine
10
-37.3377276669558
20
17.5151677184795
30
0.000000000000000
11
-37.2377276669558
21
17.6161660593873
31
0.000000000000000
  0
LINE
  5
F10774
330
F10775
100
AcDbEntity
8
Geo
100
AcDbLine
10
-37.2377276669558
20
17.6161660593873
30
0.000000000000000
11
-37.1377276669558
21
17.7150873443057
31
0.000000000000000
  0
LINE
  5
F10776
330
F10777
100
AcDbEntity
8
Geo
100
AcDbLine
10
-37.1377276669558
20
17.7150873443057
30
0.000000000000000
11
-37.0377276669558
21
17.8119784311838
31
0.000000000000000
  0
LINE
  5
F10778
330
F10779
100
AcDbEntity
8
Geo
100
AcDbLine
10
-37.0377276669558
20
17.8119784311838
30
0.000000000000000
11
-36.9377276669558
21
17.9068800332476
31
0.000000000000000
  0
LINE
  5
F1077A
330
F1077B
100
AcDbEntity
8
Geo
100
AcDbLine
10
-36.9377276669558
20
17.9068800332476
30
0.000000000000000
11
-36.8377276669558
21
17.9998312406410
31
0.000000000000000
  0
LINE
  5
F1077C
330
F1077D
100
AcDbEntity
8
Geo
100
AcDbLine
10
-36.8377276669558
20
17.9998312406410
30
0.000000000000000
11
-36.7377276669558
21
18.0908717197474
31
0.000000000000000
  0
LINE
  5
F1077E
330
F1077F
100
AcDbEntity
8
Geo
100
AcDbLine
10
-36.7377276669558
20
18.0908717197474
30
0.000000000000000
11
-36.6377276669558
21
18.1798868427323
31
0.000000000000000
  0
LINE
  5
F10780
330
F10781
100
AcDbEntity
8
Geo
100
AcDbLine
10
-36.6377276669558
20
18.1798868427323
30
0.000000000000000
11
-36.5377276669558
21
18.2655720810171
31
0.000000000000000
  0
LINE
  5
F10782
330
F10783
100
AcDbEntity
8
Geo
100
AcDbLine
10
-36.5377276669558
20
18.2655720810171
30
0.000000000000000
11
-36.4377276669558
21
18.3473686732574
31
0.000000000000000
  0
LINE
  5
F10784
330
F10785
100
AcDbEntity
8
Geo
100
AcDbLine
10
-36.4377276669558
20
18.3473686732574
30
0.000000000000000
11
-36.3377276669558
21
18.4254446160171
31
0.000000000000000
  0
LINE
  5
F10786
330
F10787
100
AcDbEntity
8
Geo
100
AcDbLine
10
-36.3377276669558
20
18.4254446160171
30
0.000000000000000
11
-36.2377276669558
21
18.4999513659158
31
0.000000000000000
  0
LINE
  5
F10788
330
F10789
100
AcDbEntity
8
Geo
100
AcDbLine
10
-36.2377276669558
20
18.4999513659158
30
0.000000000000000
11
-36.1377276669558
21
18.5710260290738
31
0.000000000000000
  0
LINE
  5
F1078A
330
F1078B
100
AcDbEntity
8
Geo
100
AcDbLine
10
-36.1377276669558
20
18.5710260290738
30
0.000000000000000
11
-36.0377276669558
21
18.6387931961675
31
0.000000000000000
  0
LINE
  5
F1078C
330
F1078D
100
AcDbEntity
8
Geo
100
AcDbLine
10
-36.0377276669558
20
18.6387931961675
30
0.000000000000000
11
-35.9377276669558
21
18.7033664906223
31
0.000000000000000
  0
LINE
  5
F1078E
330
F1078F
100
AcDbEntity
8
Geo
100
AcDbLine
10
-35.9377276669558
20
18.7033664906223
30
0.000000000000000
11
-35.8377276669558
21
18.7648498827897
31
0.000000000000000
  0
LINE
  5
F10790
330
F10791
100
AcDbEntity
8
Geo
100
AcDbLine
10
-35.8377276669558
20
18.7648498827897
30
0.000000000000000
11
-35.7377276669558
21
18.8233388118385
31
0.000000000000000
  0
LINE
  5
F10792
330
F10793
100
AcDbEntity
8
Geo
100
AcDbLine
10
-35.7377276669558
20
18.8233388118385
30
0.000000000000000
11
-35.6377276669558
21
18.8789211485788
31
0.000000000000000
  0
LINE
  5
F10794
330
F10795
100
AcDbEntity
8
Geo
100
AcDbLine
10
-35.6377276669558
20
18.8789211485788
30
0.000000000000000
11
-35.5377276669558
21
18.9316780258702
31
0.000000000000000
  0
LINE
  5
F10796
330
F10797
100
AcDbEntity
8
Geo
100
AcDbLine
10
-35.5377276669558
20
18.9316780258702
30
0.000000000000000
11
-35.4377276669558
21
18.9816845581507
31
0.000000000000000
  0
LINE
  5
F10798
330
F10799
100
AcDbEntity
8
Geo
100
AcDbLine
10
-35.4377276669558
20
18.9816845581507
30
0.000000000000000
11
-35.3377276669558
21
19.0290104676037
31
0.000000000000000
  0
LINE
  5
F1079A
330
F1079B
100
AcDbEntity
8
Geo
100
AcDbLine
10
-35.3377276669558
20
19.0290104676037
30
0.000000000000000
11
-35.2377276669558
21
19.0737206313062
31
0.000000000000000
  0
LINE
  5
F1079C
330
F1079D
100
AcDbEntity
8
Geo
100
AcDbLine
10
-35.2377276669558
20
19.0737206313062
30
0.000000000000000
11
-35.1377276669558
21
19.1158755611683
31
0.000000000000000
  0
LINE
  5
F1079E
330
F1079F
100
AcDbEntity
8
Geo
100
AcDbLine
10
-35.1377276669558
20
19.1158755611683
30
0.000000000000000
11
-35.0377276669558
21
19.1555318264462
31
0.000000000000000
  0
LINE
  5
F107A0
330
F107A1
100
AcDbEntity
8
Geo
100
AcDbLine
10
-35.0377276669558
20
19.1555318264462
30
0.000000000000000
11
-34.9377276669558
21
19.1927424269719
31
0.000000000000000
  0
LINE
  5
F107A2
330
F107A3
100
AcDbEntity
8
Geo
100
AcDbLine
10
-34.9377276669558
20
19.1927424269719
30
0.000000000000000
11
-34.8377276669558
21
19.2275571239126
31
0.000000000000000
  0
LINE
  5
F107A4
330
F107A5
100
AcDbEntity
8
Geo
100
AcDbLine
10
-34.8377276669558
20
19.2275571239126
30
0.000000000000000
11
-34.7377276669558
21
19.2600227337891
31
0.000000000000000
  0
LINE
  5
F107A6
330
F107A7
100
AcDbEntity
8
Geo
100
AcDbLine
10
-34.7377276669558
20
19.2600227337891
30
0.000000000000000
11
-34.6377276669558
21
19.2901833905889
31
0.000000000000000
  0
LINE
  5
F107A8
330
F107A9
100
AcDbEntity
8
Geo
100
AcDbLine
10
-34.6377276669558
20
19.2901833905889
30
0.000000000000000
11
-34.5377276669558
21
19.3180807800769
31
0.000000000000000
  0
LINE
  5
F107AA
330
F107AB
100
AcDbEntity
8
Geo
100
AcDbLine
10
-34.5377276669558
20
19.3180807800769
30
0.000000000000000
11
-34.4377276669558
21
19.3437543497964
31
0.000000000000000
  0
LINE
  5
F107AC
330
F107AD
100
AcDbEntity
8
Geo
100
AcDbLine
10
-34.4377276669558
20
19.3437543497964
30
0.000000000000000
11
-34.3377276669558
21
19.3672414977453
31
0.000000000000000
  0
LINE
  5
F107AE
330
F107AF
100
AcDbEntity
8
Geo
100
AcDbLine
10
-34.3377276669558
20
19.3672414977453
30
0.000000000000000
11
-34.2377276669558
21
19.3885777422894
31
0.000000000000000
  0
LINE
  5
F107B0
330
F107B1
100
AcDbEntity
8
Geo
100
AcDbLine
10
-34.2377276669558
20
19.3885777422894
30
0.000000000000000
11
-34.1377276669558
21
19.4077968755166
31
0.000000000000000
  0
LINE
  5
F107B2
330
F107B3
100
AcDbEntity
8
Geo
100
AcDbLine
10
-34.1377276669558
20
19.4077968755166
30
0.000000000000000
11
-34.0377276669558
21
19.4249311019383
31
0.000000000000000
  0
LINE
  5
F107B4
330
F107B5
100
AcDbEntity
8
Geo
100
AcDbLine
10
-34.0377276669558
20
19.4249311019383
30
0.000000000000000
11
-33.9377276669558
21
19.4400111641856
31
0.000000000000000
  0
LINE
  5
F107B6
330
F107B7
100
AcDbEntity
8
Geo
100
AcDbLine
10
-33.9377276669558
20
19.4400111641856
30
0.000000000000000
11
-33.8377276669558
21
19.4530664571362
31
0.000000000000000
  0
LINE
  5
F107B8
330
F107B9
100
AcDbEntity
8
Geo
100
AcDbLine
10
-33.8377276669558
20
19.4530664571362
30
0.000000000000000
11
-33.7377276669558
21
19.4641251317223
31
0.000000000000000
  0
LINE
  5
F107BA
330
F107BB
100
AcDbEntity
8
Geo
100
AcDbLine
10
-33.7377276669558
20
19.4641251317223
30
0.000000000000000
11
-33.6377276669558
21
19.4732141895101
31
0.000000000000000
  0
LINE
  5
F107BC
330
F107BD
100
AcDbEntity
8
Geo
100
AcDbLine
10
-33.6377276669558
20
19.4732141895101
30
0.000000000000000
11
-33.5377276669558
21
19.4803595690106
31
0.000000000000000
  0
LINE
  5
F107BE
330
F107BF
100
AcDbEntity
8
Geo
100
AcDbLine
10
-33.5377276669558
20
19.4803595690106
30
0.000000000000000
11
-33.4377276669558
21
19.4855862245608
31
0.000000000000000
  0
LINE
  5
F107C0
330
F107C1
100
AcDbEntity
8
Geo
100
AcDbLine
10
-33.4377276669558
20
19.4855862245608
30
0.000000000000000
11
-33.3377276669558
21
19.4889181985176
31
0.000000000000000
  0
LINE
  5
F107C2
330
F107C3
100
AcDbEntity
8
Geo
100
AcDbLine
10
-33.3377276669558
20
19.4889181985176
30
0.000000000000000
11
-33.2377276669558
21
19.4903786874174
31
0.000000000000000
  0
LINE
  5
F107C4
330
F107C5
100
AcDbEntity
8
Geo
100
AcDbLine
10
-33.2377276669558
20
19.4903786874174
30
0.000000000000000
11
-33.1377276669558
21
19.4899901026791
31
0.000000000000000
  0
LINE
  5
F107C6
330
F107C7
100
AcDbEntity
8
Geo
100
AcDbLine
10
-33.1377276669558
20
19.4899901026791
30
0.000000000000000
11
-33.0377276669558
21
19.4877741263649
31
0.000000000000000
  0
LINE
  5
F107C8
330
F107C9
100
AcDbEntity
8
Geo
100
AcDbLine
10
-33.0377276669558
20
19.4877741263649
30
0.000000000000000
11
-32.9377276669558
21
19.4837517624520
31
0.000000000000000
  0
LINE
  5
F107CA
330
F107CB
100
AcDbEntity
8
Geo
100
AcDbLine
10
-32.9377276669558
20
19.4837517624520
30
0.000000000000000
11
-32.8377276669558
21
19.4779433840210
31
0.000000000000000
  0
LINE
  5
F107CC
330
F107CD
100
AcDbEntity
8
Geo
100
AcDbLine
10
-32.8377276669558
20
19.4779433840210
30
0.000000000000000
11
-32.7377276669558
21
19.4703687767230
31
0.000000000000000
  0
LINE
  5
F107CE
330
F107CF
100
AcDbEntity
8
Geo
100
AcDbLine
10
-32.7377276669558
20
19.4703687767230
30
0.000000000000000
11
-32.6377276669558
21
19.4610471788450
31
0.000000000000000
  0
LINE
  5
F107D0
330
F107D1
100
AcDbEntity
8
Geo
100
AcDbLine
10
-32.6377276669558
20
19.4610471788450
30
0.000000000000000
11
-32.5377276669558
21
19.4499973182648
31
0.000000000000000
  0
LINE
  5
F107D2
330
F107D3
100
AcDbEntity
8
Geo
100
AcDbLine
10
-32.5377276669558
20
19.4499973182648
30
0.000000000000000
11
-32.4377276669558
21
19.4372374465502
31
0.000000000000000
  0
LINE
  5
F107D4
330
F107D5
100
AcDbEntity
8
Geo
100
AcDbLine
10
-32.4377276669558
20
19.4372374465502
30
0.000000000000000
11
-32.3377276669558
21
19.4227853704350
31
0.000000000000000
  0
LINE
  5
F107D6
330
F107D7
100
AcDbEntity
8
Geo
100
AcDbLine
10
-32.3377276669558
20
19.4227853704350
30
0.000000000000000
11
-32.2377276669558
21
19.4066584808789
31
0.000000000000000
  0
LINE
  5
F107D8
330
F107D9
100
AcDbEntity
8
Geo
100
AcDbLine
10
-32.2377276669558
20
19.4066584808789
30
0.000000000000000
11
-32.1377276669558
21
19.3888737798970
31
0.000000000000000
  0
LINE
  5
F107DA
330
F107DB
100
AcDbEntity
8
Geo
100
AcDbLine
10
-32.1377276669558
20
19.3888737798970
30
0.000000000000000
11
-32.0377276669558
21
19.3694479053253
31
0.000000000000000
  0
LINE
  5
F107DC
330
F107DD
100
AcDbEntity
8
Geo
100
AcDbLine
10
-32.0377276669558
20
19.3694479053253
30
0.000000000000000
11
-31.9377276669558
21
19.3483971536740
31
0.000000000000000
  0
LINE
  5
F107DE
330
F107DF
100
AcDbEntity
8
Geo
100
AcDbLine
10
-31.9377276669558
20
19.3483971536740
30
0.000000000000000
11
-31.8377276669558
21
19.3257375012012
31
0.000000000000000
  0
LINE
  5
F107E0
330
F107E1
100
AcDbEntity
8
Geo
100
AcDbLine
10
-31.8377276669558
20
19.3257375012012
30
0.000000000000000
11
-31.7377276669558
21
19.3014846233294
31
0.000000000000000
  0
LINE
  5
F107E2
330
F107E3
100
AcDbEntity
8
Geo
100
AcDbLine
10
-31.7377276669558
20
19.3014846233294
30
0.000000000000000
11
-31.6377276669558
21
19.2756539125141
31
0.000000000000000
  0
LINE
  5
F107E4
330
F107E5
100
AcDbEntity
8
Geo
100
AcDbLine
10
-31.6377276669558
20
19.2756539125141
30
0.000000000000000
11
-31.5377276669558
21
19.2482604946595
31
0.000000000000000
  0
LINE
  5
F107E6
330
F107E7
100
AcDbEntity
8
Geo
100
AcDbLine
10
-31.5377276669558
20
19.2482604946595
30
0.000000000000000
11
-31.4377276669558
21
19.2193192441715
31
0.000000000000000
  0
LINE
  5
F107E8
330
F107E9
100
AcDbEntity
8
Geo
100
AcDbLine
10
-31.4377276669558
20
19.2193192441715
30
0.000000000000000
11
-31.3377276669558
21
19.1888447977234
31
0.000000000000000
  0
LINE
  5
F107EA
330
F107EB
100
AcDbEntity
8
Geo
100
AcDbLine
10
-31.3377276669558
20
19.1888447977234
30
0.000000000000000
11
-31.2377276669558
21
19.1568515668043
31
0.000000000000000
  0
LINE
  5
F107EC
330
F107ED
100
AcDbEntity
8
Geo
100
AcDbLine
10
-31.2377276669558
20
19.1568515668043
30
0.000000000000000
11
-31.1377276669558
21
19.1233537491121
31
0.000000000000000
  0
LINE
  5
F107EE
330
F107EF
100
AcDbEntity
8
Geo
100
AcDbLine
10
-31.1377276669558
20
19.1233537491121
30
0.000000000000000
11
-31.0377276669558
21
19.0883653388434
31
0.000000000000000
  0
LINE
  5
F107F0
330
F107F1
100
AcDbEntity
8
Geo
100
AcDbLine
10
-31.0377276669558
20
19.0883653388434
30
0.000000000000000
11
-30.9377276669558
21
19.0524762233928
31
0.000000000000000
  0
LINE
  5
F107F2
330
F107F3
100
AcDbEntity
8
Geo
100
AcDbLine
10
-30.9377276669558
20
19.0524762233928
30
0.000000000000000
11
-30.8377276669558
21
19.0162683076000
31
0.000000000000000
  0
LINE
  5
F107F4
330
F107F5
100
AcDbEntity
8
Geo
100
AcDbLine
10
-30.8377276669558
20
19.0162683076000
30
0.000000000000000
11
-30.7377276669558
21
18.9797434772859
31
0.000000000000000
  0
LINE
  5
F107F6
330
F107F7
100
AcDbEntity
8
Geo
100
AcDbLine
10
-30.7377276669558
20
18.9797434772859
30
0.000000000000000
11
-30.6377276669558
21
18.9429036347770
31
0.000000000000000
  0
LINE
  5
F107F8
330
F107F9
100
AcDbEntity
8
Geo
100
AcDbLine
10
-30.6377276669558
20
18.9429036347770
30
0.000000000000000
11
-30.5377276669558
21
18.9057506988069
31
0.000000000000000
  0
LINE
  5
F107FA
330
F107FB
100
AcDbEntity
8
Geo
100
AcDbLine
10
-30.5377276669558
20
18.9057506988069
30
0.000000000000000
11
-30.4377276669558
21
18.8682866044159
31
0.000000000000000
  0
LINE
  5
F107FC
330
F107FD
100
AcDbEntity
8
Geo
100
AcDbLine
10
-30.4377276669558
20
18.8682866044159
30
0.000000000000000
11
-30.3377276669558
21
18.8305133028504
31
0.000000000000000
  0
LINE
  5
F107FE
330
F107FF
100
AcDbEntity
8
Geo
100
AcDbLine
10
-30.3377276669558
20
18.8305133028504
30
0.000000000000000
11
-30.2377276669558
21
18.7924327614614
31
0.000000000000000
  0
LINE
  5
F10800
330
F10801
100
AcDbEntity
8
Geo
100
AcDbLine
10
-30.2377276669558
20
18.7924327614614
30
0.000000000000000
11
-30.1377276669558
21
18.7540469636018
31
0.000000000000000
  0
LINE
  5
F10802
330
F10803
100
AcDbEntity
8
Geo
100
AcDbLine
10
-30.1377276669558
20
18.7540469636018
30
0.000000000000000
11
-30.0377276669558
21
18.7153579085232
31
0.000000000000000
  0
LINE
  5
F10804
330
F10805
100
AcDbEntity
8
Geo
100
AcDbLine
10
-30.0377276669558
20
18.7153579085232
30
0.000000000000000
11
-29.9377276669558
21
18.6763676112718
31
0.000000000000000
  0
LINE
  5
F10806
330
F10807
100
AcDbEntity
8
Geo
100
AcDbLine
10
-29.9377276669558
20
18.6763676112718
30
0.000000000000000
11
-29.8377276669558
21
18.6370781025835
31
0.000000000000000
  0
LINE
  5
F10808
330
F10809
100
AcDbEntity
8
Geo
100
AcDbLine
10
-29.8377276669558
20
18.6370781025835
30
0.000000000000000
11
-29.7377276669558
21
18.5974914287779
31
0.000000000000000
  0
LINE
  5
F1080A
330
F1080B
100
AcDbEntity
8
Geo
100
AcDbLine
10
-29.7377276669558
20
18.5974914287779
30
0.000000000000000
11
-29.6377276669558
21
18.5576096516521
31
0.000000000000000
  0
LINE
  5
F1080C
330
F1080D
100
AcDbEntity
8
Geo
100
AcDbLine
10
-29.6377276669558
20
18.5576096516521
30
0.000000000000000
11
-29.5377276669558
21
18.5174348483729
31
0.000000000000000
  0
LINE
  5
F1080E
330
F1080F
100
AcDbEntity
8
Geo
100
AcDbLine
10
-29.5377276669558
20
18.5174348483729
30
0.000000000000000
11
-29.4377276669558
21
18.4769691113688
31
0.000000000000000
  0
LINE
  5
F10810
330
F10811
100
AcDbEntity
8
Geo
100
AcDbLine
10
-29.4377276669558
20
18.4769691113688
30
0.000000000000000
11
-29.3377276669558
21
18.4362145482213
31
0.000000000000000
  0
LINE
  5
F10812
330
F10813
100
AcDbEntity
8
Geo
100
AcDbLine
10
-29.3377276669558
20
18.4362145482213
30
0.000000000000000
11
-29.2377276669558
21
18.3951732815546
31
0.000000000000000
  0
LINE
  5
F10814
330
F10815
100
AcDbEntity
8
Geo
100
AcDbLine
10
-29.2377276669558
20
18.3951732815546
30
0.000000000000000
11
-29.1377276669558
21
18.3538474489254
31
0.000000000000000
  0
LINE
  5
F10816
330
F10817
100
AcDbEntity
8
Geo
100
AcDbLine
10
-29.1377276669558
20
18.3538474489254
30
0.000000000000000
11
-29.0377276669558
21
18.3122392027115
31
0.000000000000000
  0
LINE
  5
F10818
330
F10819
100
AcDbEntity
8
Geo
100
AcDbLine
10
-29.0377276669558
20
18.3122392027115
30
0.000000000000000
11
-28.9377276669558
21
18.2703507099995
31
0.000000000000000
  0
LINE
  5
F1081A
330
F1081B
100
AcDbEntity
8
Geo
100
AcDbLine
10
-28.9377276669558
20
18.2703507099995
30
0.000000000000000
11
-28.8377276669558
21
18.2281841524725
31
0.000000000000000
  0
LINE
  5
F1081C
330
F1081D
100
AcDbEntity
8
Geo
100
AcDbLine
10
-28.8377276669558
20
18.2281841524725
30
0.000000000000000
11
-28.7377276669558
21
18.1857417262957
31
0.000000000000000
  0
LINE
  5
F1081E
330
F1081F
100
AcDbEntity
8
Geo
100
AcDbLine
10
-28.7377276669558
20
18.1857417262957
30
0.000000000000000
11
-28.6377276669558
21
18.1430256420025
31
0.000000000000000
  0
LINE
  5
F10820
330
F10821
100
AcDbEntity
8
Geo
100
AcDbLine
10
-28.6377276669558
20
18.1430256420025
30
0.000000000000000
11
-28.5377276669558
21
18.1000381243794
31
0.000000000000000
  0
LINE
  5
F10822
330
F10823
100
AcDbEntity
8
Geo
100
AcDbLine
10
-28.5377276669558
20
18.1000381243794
30
0.000000000000000
11
-28.4377276669558
21
18.0567814123498
31
0.000000000000000
  0
LINE
  5
F10824
330
F10825
100
AcDbEntity
8
Geo
100
AcDbLine
10
-28.4377276669558
20
18.0567814123498
30
0.000000000000000
11
-28.3377276669558
21
18.0132577588578
31
0.000000000000000
  0
LINE
  5
F10826
330
F10827
100
AcDbEntity
8
Geo
100
AcDbLine
10
-28.3377276669558
20
18.0132577588578
30
0.000000000000000
11
-28.2377276669558
21
17.9694694307504
31
0.000000000000000
  0
LINE
  5
F10828
330
F10829
100
AcDbEntity
8
Geo
100
AcDbLine
10
-28.2377276669558
20
17.9694694307504
30
0.000000000000000
11
-28.1377276669558
21
17.9254187086598
31
0.000000000000000
  0
LINE
  5
F1082A
330
F1082B
100
AcDbEntity
8
Geo
100
AcDbLine
10
-28.1377276669558
20
17.9254187086598
30
0.000000000000000
11
-28.0377276669558
21
17.8811078868846
31
0.000000000000000
  0
LINE
  5
F1082C
330
F1082D
100
AcDbEntity
8
Geo
100
AcDbLine
10
-28.0377276669558
20
17.8811078868846
30
0.000000000000000
11
-27.9377276669558
21
17.8365392732699
31
0.000000000000000
  0
LINE
  5
F1082E
330
F1082F
100
AcDbEntity
8
Geo
100
AcDbLine
10
-27.9377276669558
20
17.8365392732699
30
0.000000000000000
11
-27.8377276669558
21
17.7917151890877
31
0.000000000000000
  0
LINE
  5
F10830
330
F10831
100
AcDbEntity
8
Geo
100
AcDbLine
10
-27.8377276669558
20
17.7917151890877
30
0.000000000000000
11
-27.7377276669558
21
17.7466379689156
31
0.000000000000000
  0
LINE
  5
F10832
330
F10833
100
AcDbEntity
8
Geo
100
AcDbLine
10
-27.7377276669558
20
17.7466379689156
30
0.000000000000000
11
-27.6377276669558
21
17.7013099605152
31
0.000000000000000
  0
LINE
  5
F10834
330
F10835
100
AcDbEntity
8
Geo
100
AcDbLine
10
-27.6377276669558
20
17.7013099605152
30
0.000000000000000
11
-27.5377276669558
21
17.6557335247101
31
0.000000000000000
  0
LINE
  5
F10836
330
F10837
100
AcDbEntity
8
Geo
100
AcDbLine
10
-27.5377276669558
20
17.6557335247101
30
0.000000000000000
11
-27.4377276669558
21
17.6099110352627
31
0.000000000000000
  0
LINE
  5
F10838
330
F10839
100
AcDbEntity
8
Geo
100
AcDbLine
10
-27.4377276669558
20
17.6099110352627
30
0.000000000000000
11
-27.3377276669558
21
17.5638448787506
31
0.000000000000000
  0
LINE
  5
F1083A
330
F1083B
100
AcDbEntity
8
Geo
100
AcDbLine
10
-27.3377276669558
20
17.5638448787506
30
0.000000000000000
11
-27.2377276669558
21
17.5175374544424
31
0.000000000000000
  0
LINE
  5
F1083C
330
F1083D
100
AcDbEntity
8
Geo
100
AcDbLine
10
-27.2377276669558
20
17.5175374544424
30
0.000000000000000
11
-27.1377276669558
21
17.4709911741726
31
0.000000000000000
  0
LINE
  5
F1083E
330
F1083F
100
AcDbEntity
8
Geo
100
AcDbLine
10
-27.1377276669558
20
17.4709911741726
30
0.000000000000000
11
-27.0377276669558
21
17.4242084622162
31
0.000000000000000
  0
LINE
  5
F10840
330
F10841
100
AcDbEntity
8
Geo
100
AcDbLine
10
-27.0377276669558
20
17.4242084622162
30
0.000000000000000
11
-26.9377276669558
21
17.3771917551621
31
0.000000000000000
  0
LINE
  5
F10842
330
F10843
100
AcDbEntity
8
Geo
100
AcDbLine
10
-26.9377276669558
20
17.3771917551621
30
0.000000000000000
11
-26.8377276669558
21
17.3299435017865
31
0.000000000000000
  0
LINE
  5
F10844
330
F10845
100
AcDbEntity
8
Geo
100
AcDbLine
10
-26.8377276669558
20
17.3299435017865
30
0.000000000000000
11
-26.7377276669558
21
17.2824661629254
31
0.000000000000000
  0
LINE
  5
F10846
330
F10847
100
AcDbEntity
8
Geo
100
AcDbLine
10
-26.7377276669558
20
17.2824661629254
30
0.000000000000000
11
-26.6377276669558
21
17.2347622113459
31
0.000000000000000
  0
LINE
  5
F10848
330
F10849
100
AcDbEntity
8
Geo
100
AcDbLine
10
-26.6377276669558
20
17.2347622113459
30
0.000000000000000
11
-26.5377276669558
21
17.1868341316182
31
0.000000000000000
  0
LINE
  5
F1084A
330
F1084B
100
AcDbEntity
8
Geo
100
AcDbLine
10
-26.5377276669558
20
17.1868341316182
30
0.000000000000000
11
-26.4377276669558
21
17.1386844199856
31
0.000000000000000
  0
LINE
  5
F1084C
330
F1084D
100
AcDbEntity
8
Geo
100
AcDbLine
10
-26.4377276669558
20
17.1386844199856
30
0.000000000000000
11
-26.3377276669558
21
17.0903155842347
31
0.000000000000000
  0
LINE
  5
F1084E
330
F1084F
100
AcDbEntity
8
Geo
100
AcDbLine
10
-26.3377276669558
20
17.0903155842347
30
0.000000000000000
11
-26.2377276669558
21
17.0417301435646
31
0.000000000000000
  0
LINE
  5
F10850
330
F10851
100
AcDbEntity
8
Geo
100
AcDbLine
10
-26.2377276669558
20
17.0417301435646
30
0.000000000000000
11
-26.1377276669558
21
16.9929306284563
31
0.000000000000000
  0
LINE
  5
F10852
330
F10853
100
AcDbEntity
8
Geo
100
AcDbLine
10
-26.1377276669558
20
16.9929306284563
30
0.000000000000000
11
-26.0377276669558
21
16.9439195805399
31
0.000000000000000
  0
LINE
  5
F10854
330
F10855
100
AcDbEntity
8
Geo
100
AcDbLine
10
-26.0377276669558
20
16.9439195805399
30
0.000000000000000
11
-25.9377276669558
21
16.8946995524633
31
0.000000000000000
  0
LINE
  5
F10856
330
F10857
100
AcDbEntity
8
Geo
100
AcDbLine
10
-25.9377276669558
20
16.8946995524633
30
0.000000000000000
11
-25.8377276669558
21
16.8452731077583
31
0.000000000000000
  0
LINE
  5
F10858
330
F10859
100
AcDbEntity
8
Geo
100
AcDbLine
10
-25.8377276669558
20
16.8452731077583
30
0.000000000000000
11
-25.7377276669558
21
16.7956428207079
31
0.000000000000000
  0
LINE
  5
F1085A
330
F1085B
100
AcDbEntity
8
Geo
100
AcDbLine
10
-25.7377276669558
20
16.7956428207079
30
0.000000000000000
11
-25.6377276669558
21
16.7458112762115
31
0.000000000000000
  0
LINE
  5
F1085C
330
F1085D
100
AcDbEntity
8
Geo
100
AcDbLine
10
-25.6377276669558
20
16.7458112762115
30
0.000000000000000
11
-25.5377276669558
21
16.6957810696509
31
0.000000000000000
  0
LINE
  5
F1085E
330
F1085F
100
AcDbEntity
8
Geo
100
AcDbLine
10
-25.5377276669558
20
16.6957810696509
30
0.000000000000000
11
-25.4377276669558
21
16.6455548067547
31
0.000000000000000
  0
LINE
  5
F10860
330
F10861
100
AcDbEntity
8
Geo
100
AcDbLine
10
-25.4377276669558
20
16.6455548067547
30
0.000000000000000
11
-25.3377276669558
21
16.5951351034627
31
0.000000000000000
  0
LINE
  5
F10862
330
F10863
100
AcDbEntity
8
Geo
100
AcDbLine
10
-25.3377276669558
20
16.5951351034627
30
0.000000000000000
11
-25.2377276669558
21
16.5445245857897
31
0.000000000000000
  0
LINE
  5
F10864
330
F10865
100
AcDbEntity
8
Geo
100
AcDbLine
10
-25.2377276669558
20
16.5445245857897
30
0.000000000000000
11
-25.1377276669558
21
16.4937258896888
31
0.000000000000000
  0
LINE
  5
F10866
330
F10867
100
AcDbEntity
8
Geo
100
AcDbLine
10
-25.1377276669558
20
16.4937258896888
30
0.000000000000000
11
-25.0377276669558
21
16.4427416609138
31
0.000000000000000
  0
LINE
  5
F10868
330
F10869
100
AcDbEntity
8
Geo
100
AcDbLine
10
-25.0377276669558
20
16.4427416609138
30
0.000000000000000
11
-24.9377276669558
21
16.3915745548820
31
0.000000000000000
  0
LINE
  5
F1086A
330
F1086B
100
AcDbEntity
8
Geo
100
AcDbLine
10
-24.9377276669558
20
16.3915745548820
30
0.000000000000000
11
-24.8377276669558
21
16.3402272365350
31
0.000000000000000
  0
LINE
  5
F1086C
330
F1086D
100
AcDbEntity
8
Geo
100
AcDbLine
10
-24.8377276669558
20
16.3402272365350
30
0.000000000000000
11
-24.7377276669558
21
16.2887023802008
31
0.000000000000000
  0
LINE
  5
F1086E
330
F1086F
100
AcDbEntity
8
Geo
100
AcDbLine
10
-24.7377276669558
20
16.2887023802008
30
0.000000000000000
11
-24.6377276669558
21
16.2370026694541
31
0.000000000000000
  0
LINE
  5
F10870
330
F10871
100
AcDbEntity
8
Geo
100
AcDbLine
10
-24.6377276669558
20
16.2370026694541
30
0.000000000000000
11
-24.5377276669558
21
16.1851307969764
31
0.000000000000000
  0
LINE
  5
F10872
330
F10873
100
AcDbEntity
8
Geo
100
AcDbLine
10
-24.5377276669558
20
16.1851307969764
30
0.000000000000000
11
-24.4377276669558
21
16.1330894644160
31
0.000000000000000
  0
LINE
  5
F10874
330
F10875
100
AcDbEntity
8
Geo
100
AcDbLine
10
-24.4377276669558
20
16.1330894644160
30
0.000000000000000
11
-24.3377276669558
21
16.0808813822472
31
0.000000000000000
  0
LINE
  5
F10876
330
F10877
100
AcDbEntity
8
Geo
100
AcDbLine
10
-24.3377276669558
20
16.0808813822472
30
0.000000000000000
11
-24.2377276669558
21
16.0285092696291
31
0.000000000000000
  0
LINE
  5
F10878
330
F10879
100
AcDbEntity
8
Geo
100
AcDbLine
10
-24.2377276669558
20
16.0285092696291
30
0.000000000000000
11
-24.1377276669558
21
15.9759758542642
31
0.000000000000000
  0
LINE
  5
F1087A
330
F1087B
100
AcDbEntity
8
Geo
100
AcDbLine
10
-24.1377276669558
20
15.9759758542642
30
0.000000000000000
11
-24.0377276669558
21
15.9232838722559
31
0.000000000000000
  0
LINE
  5
F1087C
330
F1087D
100
AcDbEntity
8
Geo
100
AcDbLine
10
43.9622723330442
20
20.4314830875976
30
0.000000000000000
11
43.9622723330442
21
12.9314830875976
31
0.000000000000000
  0
ARC
  5
F1087E
330
F1087F
100
AcDbEntity
8
Geo
100
AcDbCircle
10
-31.0377276669558
20
12.9314830875976
30
0.000000000000000
 40
8.00000000000000
100
AcDbArc
 50
180.000000000000
 51
270.000000000000
  0
LINE
  5
F10880
330
F10881
100
AcDbEntity
8
Geo
100
AcDbLine
10
-31.0377276669558
20
4.93148308759756
30
0.000000000000000
11
-19.0377276669558
21
4.93148308759756
31
0.000000000000000
  0
LINE
  5
F10882
330
F10883
100
AcDbEntity
8
Geo
100
AcDbLine
10
-19.0377276669558
20
4.93148308759756
30
0.000000000000000
11
43.4622723330442
21
4.93148308759756
31
0.000000000000000
  0
LINE
  5
F10884
330
F10885
100
AcDbEntity
8
Geo
100
AcDbLine
10
43.4622723330442
20
4.93148308759756
30
0.000000000000000
11
43.9622723330442
21
5.43148308759756
31
0.000000000000000
  0
LINE
  5
F10886
330
F10887
100
AcDbEntity
8
Geo
100
AcDbLine
10
-31.0377276669558
20
20.9314830875976
30
0.000000000000000
11
-31.0377276669558
21
4.93148308759756
31
0.000000000000000
  0
LINE
  5
F10888
330
F10889
100
AcDbEntity
8
Geo
100
AcDbLine
10
-19.0377276669558
20
20.9314830875976
30
0.000000000000000
11
-19.0377276669558
21
4.93148308759756
31
0.000000000000000
  0
LINE
  5
F1088A
330
F1088B
100
AcDbEntity
8
Geo
100
AcDbLine
10
-19.0377276669558
20
20.9314830875976
30
0.000000000000000
11
-19.0377276669558
21
4.93148308759756
31
0.000000000000000
  0
LINE
  5
F1088C
330
F1088D
100
AcDbEntity
8
Geo
100
AcDbLine
10
43.4622723330442
20
20.9314830875976
30
0.000000000000000
11
43.4622723330442
21
4.93148308759756
31
0.000000000000000
  0
LINE
  5
F1088E
330
F1088F
100
AcDbEntity
8
Geo
100
AcDbLine
10
43.9622723330442
20
20.4314830875976
30
0.000000000000000
11
43.9622723330442
21
5.43148308759756
31
0.000000000000000
  0
LINE
  5
F10890
330
F10891
100
AcDbEntity
8
Geo
 6
Dashdot
100
AcDbLine
10
-39.0377276669558
20
12.9314830875976
30
0.000000000000000
11
43.9622723330442
21
12.9314830875976
31
0.000000000000000
  0
LWPOLYLINE
  5
F10892
330
F10893
100
AcDbEntity
8
Rahmen
100
AcDbPolyline
90
   4
70
   1
43
   0.0
 10
-134.596704249783
 20
99.9002601908066
 10
143.339115351258
 20
99.9002601908066
 10
143.339115351258
 20
-100.082393755421
 10
-134.596704249783
 20
-100.082393755421
  0
TEXT
  5
F10894
330
F10895
 100
AcDbEntity
8
Text
100
AcDbText
10
-133.503902862099
20
-99.5823937554206
30
0.000000000000000
40
1.00000000000000
1
ISBESketcher - ©ISBE GmbH      lizensiert für: Schmid Werkzeuge
100
AcDbText
  0
LWPOLYLINE
  5
F10896
330
F10897
100
AcDbEntity
8
Rahmen
100
AcDbPolyline
90
   4
70
   1
43
   0.0
 10
103.451864700781
 20
-97.1682567215958
 10
143.339115351258
 20
-97.1682567215958
 10
143.339115351258
 20
-100.082393755421
 10
103.451864700781
 20
-100.082393755421
  0
TEXT
  5
F10898
330
F10899
 100
AcDbEntity
8
Text
100
AcDbText
10
104.500000000000
20
-99.4570685169124
30
0.000000000000000
40
1.50000000000000
1
Ers. durch:
100
AcDbText
  0
TEXT
  5
F1089A
330
F1089B
 100
AcDbEntity
8
Text
100
AcDbText
10
0.000000000000000
20
0.500000000000000
30
0.000000000000000
40
1.50000000000000
1

100
AcDbText
  0
LWPOLYLINE
  5
F1089C
330
F1089D
100
AcDbEntity
8
Rahmen
100
AcDbPolyline
90
   4
70
   1
43
   0.0
 10
63.3824804856895
 20
-97.1682567215958
 10
103.451864700781
 20
-97.1682567215958
 10
103.451864700781
 20
-100.082393755421
 10
63.3824804856895
 20
-100.082393755421
  0
TEXT
  5
F1089E
330
F1089F
 100
AcDbEntity
8
Text
100
AcDbText
10
64.5000000000000
20
-99.4570685169124
30
0.000000000000000
40
1.50000000000000
1
Ers. für:
100
AcDbText
  0
TEXT
  5
F108A0
330
F108A1
 100
AcDbEntity
8
Text
100
AcDbText
10
0.000000000000000
20
0.500000000000000
30
0.000000000000000
40
1.50000000000000
1

100
AcDbText
  0
LWPOLYLINE
  5
F108A2
330
F108A3
100
AcDbEntity
8
Rahmen
100
AcDbPolyline
90
   4
70
   1
43
   0.0
 10
130.043365134432
 20
-94.0719861231570
 10
143.339115351258
 20
-94.0719861231570
 10
143.339115351258
 20
-97.1682567215958
 10
130.043365134432
 20
-97.1682567215958
  0
TEXT
  5
F108A4
330
F108A5
 100
AcDbEntity
8
Text
100
AcDbText
10
131.166666666667
20
-96.4570685169124
30
0.000000000000000
40
1.50000000000000
1
Blätter
100
AcDbText
  0
TEXT
  5
F108A6
330
F108A7
 100
AcDbEntity
8
Text
100
AcDbText
10
0.000000000000000
20
0.500000000000000
30
0.000000000000000
40
1.50000000000000
1

100
AcDbText
  0
LWPOLYLINE
  5
F108A8
330
F108A9
100
AcDbEntity
8
Rahmen
100
AcDbPolyline
90
   4
70
   1
43
   0.0
 10
130.043365134432
 20
-91.1578490893322
 10
143.339115351258
 20
-91.1578490893322
 10
143.339115351258
 20
-94.0719861231570
 10
130.043365134432
 20
-94.0719861231570
  0
TEXT
  5
F108AA
330
F108AB
 100
AcDbEntity
8
Text
100
AcDbText
10
131.166666666667
20
-93.4570685169124
30
0.000000000000000
40
1.50000000000000
1
Blatt
100
AcDbText
  0
TEXT
  5
F108AC
330
F108AD
 100
AcDbEntity
8
Text
100
AcDbText
10
0.000000000000000
20
0.500000000000000
30
0.000000000000000
40
1.50000000000000
1

100
AcDbText
  0
LWPOLYLINE
  5
F108AE
330
F108AF
100
AcDbEntity
8
Rahmen
100
AcDbPolyline
90
   4
70
   1
43
   0.0
 10
63.3824804856895
 20
-91.1578490893322
 10
130.043365134432
 20
-91.1578490893322
 10
130.043365134432
 20
-97.1682567215958
 10
63.3824804856895
 20
-97.1682567215958
  0
TEXT
  5
F108B0
330
F108B1
 100
AcDbEntity
8
Text
100
AcDbText
10
64.5000000000000
20
-93.4570685169124
30
0.000000000000000
40
1.50000000000000
1
Datum:
100
AcDbText
  0
TEXT
  5
F108B2
330
F108B3
 100
AcDbEntity
8
Text
100
AcDbText
10
90.9139924833767
20
-96.4570685169124
30
0.000000000000000
40
1.50000000000000
1
30.09.2021
100
AcDbText
  0
LWPOLYLINE
  5
F108B4
330
F108B5
100
AcDbEntity
8
Rahmen
100
AcDbPolyline
90
   4
70
   1
43
   0.0
 10
63.3824804856895
 20
-85.1474414570685
 10
143.339115351258
 20
-85.1474414570685
 10
143.339115351258
 20
-91.1578490893322
 10
63.3824804856895
 20
-91.1578490893322
  0
TEXT
  5
F108B6
330
F108B7
 100
AcDbEntity
8
Text
100
AcDbText
10
0.000000000000000
20
0.500000000000000
30
0.000000000000000
40
1.50000000000000
1

100
AcDbText
  0
TEXT
  5
F108B8
330
F108B9
 100
AcDbEntity
8
Text
100
AcDbText
10
73.6300954032958
20
-89.6254697889564
30
0.000000000000000
40
2.50000000000000
1
VHM-Radiusfräser R0140-16-b
100
AcDbText
  0
LWPOLYLINE
  5
F108BA
330
F108BB
100
AcDbEntity
8
Rahmen
100
AcDbPolyline
90
   4
70
   1
43
   0.0
 10
103.451864700781
 20
-79.1370338248049
 10
143.339115351258
 20
-79.1370338248049
 10
143.339115351258
 20
-85.1474414570685
 10
103.451864700781
 20
-85.1474414570685
  0
TEXT
  5
F108BC
330
F108BD
 100
AcDbEntity
8
Text
100
AcDbText
10
104.500000000000
20
-81.4570685169124
30
0.000000000000000
40
1.50000000000000
1
Zu bearb. Material:
100
AcDbText
  0
TEXT
  5
F108BE
330
F108BF
 100
AcDbEntity
8
Text
100
AcDbText
10
0.000000000000000
20
0.500000000000000
30
0.000000000000000
40
1.50000000000000
1

100
AcDbText
  0
LWPOLYLINE
  5
F108C0
330
F108C1
100
AcDbEntity
8
Rahmen
100
AcDbPolyline
90
   4
70
   1
43
   0.0
 10
63.3824804856895
 20
-79.1370338248049
 10
103.451864700781
 20
-79.1370338248049
 10
103.451864700781
 20
-85.1474414570685
 10
63.3824804856895
 20
-85.1474414570685
  0
TEXT
  5
F108C2
330
F108C3
 100
AcDbEntity
8
Text
100
AcDbText
10
64.5000000000000
20
-81.4570685169124
30
0.000000000000000
40
1.50000000000000
1
Werkstoff:
100
AcDbText
  0
TEXT
  5
F108C4
330
F108C5
 100
AcDbEntity
8
Text
100
AcDbText
10
80.7679965307892
20
-84.4570685169124
30
0.000000000000000
40
1.50000000000000
1
VHM
100
AcDbText
  0
LWPOLYLINE
  5
F108C6
330
F108C7
100
AcDbEntity
8
Rahmen
100
AcDbPolyline
90
   4
70
   1
43
   0.0
 10
103.451864700781
 20
-76.0407632263660
 10
143.339115351258
 20
-76.0407632263660
 10
143.339115351258
 20
-79.1370338248049
 10
103.451864700781
 20
-79.1370338248049
  0
TEXT
  5
F108C8
330
F108C9
 100
AcDbEntity
8
Text
100
AcDbText
10
0.000000000000000
20
0.500000000000000
30
0.000000000000000
40
1.50000000000000
1

100
AcDbText
  0
TEXT
  5
F108CA
330
F108CB
 100
AcDbEntity
8
Text
100
AcDbText
10
0.000000000000000
20
0.500000000000000
30
0.000000000000000
40
1.50000000000000
1

100
AcDbText
  0
LWPOLYLINE
  5
F108CC
330
F108CD
100
AcDbEntity
8
Rahmen
100
AcDbPolyline
90
   4
70
   1
43
   0.0
 10
63.3824804856895
 20
-76.0407632263660
 10
103.451864700781
 20
-76.0407632263660
 10
103.451864700781
 20
-79.1370338248049
 10
63.3824804856895
 20
-79.1370338248049
  0
TEXT
  5
F108CE
330
F108CF
 100
AcDbEntity
8
Text
100
AcDbText
10
64.5000000000000
20
-78.4570685169124
30
0.000000000000000
40
1.50000000000000
1
Maßstab:
100
AcDbText
  0
TEXT
  5
F108D0
330
F108D1
 100
AcDbEntity
8
Text
100
AcDbText
10
89.0411968777103
20
-78.4570685169124
30
0.000000000000000
40
1.50000000000000
1
1 : 1
100
AcDbText
0
VIEWPORT
5
294
102
{ACAD_XDICTIONARY
360
58A
102
}
330
25D
100
AcDbEntity
67
1
8
0
60
1
100
AcDbViewport
10
0.0
20
0.0
30
0.0
40
10.0
41
10.0
68
-1
69
1
12
0.0
22
0.0
13
0.0
23
0.0
14
1.0
24
1.0
15
0.0
25
0.0
16
0.0
26
0.0
36
1.0
17
0.0
27
0.0
37
0.0
42
0.0
43
0.0
44
0.0
45
10.0
50
0.0
51
0.0000000000007958
72
100
90
32800
1

281
0
71
0
74
0
110
0.0
120
0.0
130
0.0
111
1.0
121
0.0
131
0.0
112
0.0
122
1.0
132
0.0
79
0
146
0.0
1001
VD_INVISIBLE_NOT_FOR_READ
1000
VD_INVISIBLE_NOT_FOR_READ
0
VIEWPORT
5
295
102
{ACAD_XDICTIONARY
360
58C
102
}
330
25D
100
AcDbEntity
67
1
8
0
60
1
100
AcDbViewport
10
0.0
20
0.0
30
0.0
40
10.0
41
10.0
68
0
69
2
12
0.0
22
0.0
13
0.0
23
0.0
14
1.0
24
1.0
15
0.0
25
0.0
16
0.0
26
0.0
36
1.0
17
0.0
27
0.0
37
0.0
42
0.0
43
0.0
44
0.0
45
10.0
50
0.0
51
0.0000000000007958
72
100
90
163872
1

281
0
71
0
74
0
110
0.0
120
0.0
130
0.0
111
1.0
121
0.0
131
0.0
112
0.0
122
1.0
132
0.0
79
0
146
0.0
1001
VD_INVISIBLE_NOT_FOR_READ
1000
VD_INVISIBLE_NOT_FOR_READ
0
ENDSEC
0
SECTION
2
OBJECTS
0
DICTIONARY
5
13
330
0
100
AcDbDictionary
281
1
3
ACAD_COLOR
350
FA7
3
ACAD_GROUP
350
14
3
ACAD_LAYOUT
350
FCF
3
ACAD_MATERIAL
350
F7A
3
ACAD_MLEADERSTYLE
350
FCD
3
ACAD_MLINESTYLE
350
16
3
ACAD_PLOTSETTINGS
350
17
3
ACAD_PLOTSTYLENAME
350
18
3
ACAD_SCALELIST
350
FAB
3
ACAD_TABLESTYLE
350
FA8
3
ACAD_VISUALSTYLE
350
F93
3
ACDB_RECOMPOSE_DATA
350
107E
3
AcDbVariableDictionary
350
FF0
3
DWGPROPS
350
107F
0
DICTIONARY
5
F10014
330
F10013
100
AcDbDictionary
280
1
281
1
3
ACAD_MTEXT_2008_RT
360
F10015
0
DICTIONARY
5
F10019
330
F10018
100
AcDbDictionary
280
1
281
1
3
ACAD_MTEXT_2008_RT
360
F1001A
0
DICTIONARY
5
F1000A
330
F10009
100
AcDbDictionary
280
1
281
1
3
ACAD_MTEXT_2008_RT
360
F1000B
0
DICTIONARY
5
F10005
330
F10004
100
AcDbDictionary
280
1
281
1
3
ACAD_MTEXT_2008_RT
360
F10006
0
DICTIONARY
5
F1000F
330
F1000E
100
AcDbDictionary
280
1
281
1
3
ACAD_MTEXT_2008_RT
360
F10010
0
DICTIONARY
5
FA7
102
{ACAD_REACTORS
330
13
102
}
330
13
100
AcDbDictionary
281
1
0
DICTIONARY
5
14
330
13
100
AcDbDictionary
281
1
0
DICTIONARY
5
FCF
102
{ACAD_REACTORS
330
13
102
}
330
13
100
AcDbDictionary
281
1
3
Layout1
350
FD1
3
Model
350
FD0
0
DICTIONARY
5
F7A
102
{ACAD_REACTORS
330
13
102
}
330
13
100
AcDbDictionary
281
1
3
ByBlock
350
F83
3
ByLayer
350
F7B
3
Global
350
F8B
0
DICTIONARY
5
FCD
102
{ACAD_REACTORS
330
13
102
}
330
13
100
AcDbDictionary
281
1
3
Standard
350
FCE
0
DICTIONARY
5
16
330
13
100
AcDbDictionary
281
1
3
Standard
350
FAA
0
DICTIONARY
5
17
102
{ACAD_REACTORS
330
13
102
}
330
13
100
AcDbDictionary
281
1
0
ACDBDICTIONARYWDFLT
5
18
102
{ACAD_REACTORS
330
13
102
}
330
13
100
AcDbDictionary
281
1
3
Normal
350
19
100
AcDbDictionaryWithDefault
340
19
0
DICTIONARY
5
FAB
102
{ACAD_REACTORS
330
13
102
}
330
13
100
AcDbDictionary
281
1
3
A0
350
FAC
3
A1
350
FAD
3
A2
350
FAE
3
A3
350
FAF
3
A4
350
FB0
3
A5
350
FB1
3
A6
350
FB2
3
A7
350
FB3
3
A8
350
FB4
3
A9
350
FB5
3
B0
350
FB6
3
B1
350
FB7
3
B2
350
FB8
3
B3
350
FB9
3
B4
350
FBA
3
B5
350
FBB
3
B6
350
FBC
3
B7
350
FBD
3
B8
350
FBE
3
B9
350
FBF
3
C0
350
FC0
3
C1
350
FC1
3
C2
350
FC2
3
C3
350
FC3
3
C4
350
FC4
3
C5
350
FC5
3
C6
350
FC6
3
C7
350
FC7
3
C8
350
FC8
3
C9
350
FC9
3
D0
350
FCA
3
D1
350
FCB
3
D2
350
FCC
0
DICTIONARY
5
FA8
102
{ACAD_REACTORS
330
13
102
}
330
13
100
AcDbDictionary
281
1
3
Standard
350
FA9
0
DICTIONARY
5
F93
102
{ACAD_REACTORS
330
13
102
}
330
13
100
AcDbDictionary
281
1
3
2dWireframe
350
F99
3
3D Hidden
350
F9B
3
3dWireframe
350
F9A
3
Basic
350
F98
3
Brighten
350
F9F
3
ColorChange
350
FA3
3
Conceptual
350
F9C
3
Dim
350
F9E
3
EdgeColorOff
350
FA6
3
Facepattern
350
FA2
3
Flat
350
F94
3
FlatWithEdges
350
F95
3
Gouraud
350
F96
3
GouraudWithEdges
350
F97
3
JitterOff
350
FA4
3
Linepattern
350
FA1
3
OverhangOff
350
FA5
3
Realistic
350
F9D
3
Thicken
350
FA0
0
XRECORD
5
107E
102
{ACAD_REACTORS
330
13
102
}
330
13
100
AcDbXrecord
280
1
90
1
330
FA9
330
F10013
330
F10018
330
F10009
330
F10004
330
F1000E
0
DICTIONARY
5
FF0
102
{ACAD_REACTORS
330
13
102
}
330
13
100
AcDbDictionary
281
1
3
CANNOSCALE
350
FF3
3
CMLEADERSTYLE
350
FF2
3
CTABLESTYLE
350
FF1
3
DIMASSOC
350
FF6
3
INDEXCTL
350
FF5
3
SORTENTS
350
FF4
3
XCLIPFRAME
350
1078
0
XRECORD
5
107F
102
{ACAD_REACTORS
330
13
102
}
330
13
100
AcDbXrecord
280
1
1
DWGPROPS COOKIE
2

3

4

6

7

8

9

300
=
301
=
302
=
303
=
304
=
305
=
306
=
307
=
308
=
309
=
40
0.0
41
0.0
42
0.0
1

90
0
0
XRECORD
5
F10015
102
{ACAD_REACTORS
330
F10014
102
}
330
F10014
100
AcDbXrecord
280
1
40
48458.0
1
20
0
XRECORD
5
F1001A
102
{ACAD_REACTORS
330
F10019
102
}
330
F10019
100
AcDbXrecord
280
1
40
48458.0
1
83
0
XRECORD
5
F1000B
102
{ACAD_REACTORS
330
F1000A
102
}
330
F1000A
100
AcDbXrecord
280
1
40
48458.0
1
R8
0
XRECORD
5
F10006
102
{ACAD_REACTORS
330
F10005
102
}
330
F10005
100
AcDbXrecord
280
1
40
48458.0
1
Ø16
0
LAYOUT
5
FD1
102
{ACAD_XDICTIONARY
360
10A9
102
}
102
{ACAD_REACTORS
330
FCF
102
}
330
FCF
100
AcDbPlotSettings
1

2
Microsoft XPS Document Writer
4

6

40
0.0
41
0.0
42
0.0
43
0.0
44
0.0
45
0.0
46
0.0
47
0.0
48
0.0
49
0.0
140
0.0
141
0.0
142
1.0
143
1.0
70
688
72
0
73
0
74
5
7

75
16
147
1.0
148
0.0
149
0.0
100
AcDbLayout
1
Layout1
70
1
71
1
10
0.0
20
0.0
11
12.0
21
9.0
12
0.0
22
0.0
32
0.0
14
1.000000000000000E+20
24
1.000000000000000E+20
34
1.000000000000000E+20
15
-1.000000000000000E+20
25
-1.000000000000000E+20
35
-1.000000000000000E+20
146
0.0
13
0.0
23
0.0
33
0.0
16
1.0
26
0.0
36
0.0
17
0.0
27
1.0
37
0.0
76
0
330
25D
0
LAYOUT
5
FD0
102
{ACAD_XDICTIONARY
360
10A7
102
}
102
{ACAD_REACTORS
330
FCF
102
}
330
FCF
100
AcDbPlotSettings
1

2
Microsoft XPS Document Writer
4

6

40
0.0
41
0.0
42
0.0
43
0.0
44
0.0
45
0.0
46
0.0
47
0.0
48
0.0
49
0.0
140
0.0
141
0.0
142
1.0
143
1.0
70
1712
72
0
73
0
74
0
7

75
0
147
1.0
148
0.0
149
0.0
100
AcDbLayout
1
Model
70
1
71
0
10
0.0
20
0.0
11
12.0
21
9.0
12
0.0
22
0.0
32
0.0
14
0.0
24
0.0
34
0.0
15
0.0
25
0.0
35
0.0
146
0.0
13
0.0
23
0.0
33
0.0
16
1.0
26
0.0
36
0.0
17
0.0
27
1.0
37
0.0
76
0
330
261
331
26B
0
MATERIAL
5
F83
102
{ACAD_XDICTIONARY
360
F84
102
}
102
{ACAD_REACTORS
330
F7A
102
}
330
F7A
100
AcDbMaterial
1
ByBlock
72
0
43
0.0208333333333333
43
0.0
43
0.0
43
0.0
43
0.0
43
0.0208333333333333
43
0.0
43
0.0
43
0.0
43
0.0
43
1.0
43
0.0
43
0.0
43
0.0
43
0.0
43
1.0
77
0
47
0.0208333333333333
47
0.0
47
0.0
47
0.0
47
0.0
47
0.0208333333333333
47
0.0
47
0.0
47
0.0
47
0.0
47
1.0
47
0.0
47
0.0
47
0.0
47
0.0
47
1.0
171
0
49
0.0208333333333333
49
0.0
49
0.0
49
0.0
49
0.0
49
0.0208333333333333
49
0.0
49
0.0
49
0.0
49
0.0
49
1.0
49
0.0
49
0.0
49
0.0
49
0.0
49
1.0
175
0
142
0.0208333333333333
142
0.0
142
0.0
142
0.0
142
0.0
142
0.0208333333333333
142
0.0
142
0.0
142
0.0
142
0.0
142
1.0
142
0.0
142
0.0
142
0.0
142
0.0
142
1.0
179
0
144
0.0208333333333333
144
0.0
144
0.0
144
0.0
144
0.0
144
0.0208333333333333
144
0.0
144
0.0
144
0.0
144
0.0
144
1.0
144
0.0
144
0.0
144
0.0
144
0.0
144
1.0
147
0.0208333333333333
147
0.0
147
0.0
147
0.0
147
0.0
147
0.0208333333333333
147
0.0
147
0.0
147
0.0
147
0.0
147
1.0
147
0.0
147
0.0
147
0.0
147
0.0
147
1.0
0
MATERIAL
5
F7B
102
{ACAD_XDICTIONARY
360
F7C
102
}
102
{ACAD_REACTORS
330
F7A
102
}
330
F7A
100
AcDbMaterial
1
ByLayer
72
0
43
0.0208333333333333
43
0.0
43
0.0
43
0.0
43
0.0
43
0.0208333333333333
43
0.0
43
0.0
43
0.0
43
0.0
43
1.0
43
0.0
43
0.0
43
0.0
43
0.0
43
1.0
77
0
47
0.0208333333333333
47
0.0
47
0.0
47
0.0
47
0.0
47
0.0208333333333333
47
0.0
47
0.0
47
0.0
47
0.0
47
1.0
47
0.0
47
0.0
47
0.0
47
0.0
47
1.0
171
0
49
0.0208333333333333
49
0.0
49
0.0
49
0.0
49
0.0
49
0.0208333333333333
49
0.0
49
0.0
49
0.0
49
0.0
49
1.0
49
0.0
49
0.0
49
0.0
49
0.0
49
1.0
175
0
142
0.0208333333333333
142
0.0
142
0.0
142
0.0
142
0.0
142
0.0208333333333333
142
0.0
142
0.0
142
0.0
142
0.0
142
1.0
142
0.0
142
0.0
142
0.0
142
0.0
142
1.0
179
0
144
0.0208333333333333
144
0.0
144
0.0
144
0.0
144
0.0
144
0.0208333333333333
144
0.0
144
0.0
144
0.0
144
0.0
144
1.0
144
0.0
144
0.0
144
0.0
144
0.0
144
1.0
147
0.0208333333333333
147
0.0
147
0.0
147
0.0
147
0.0
147
0.0208333333333333
147
0.0
147
0.0
147
0.0
147
0.0
147
1.0
147
0.0
147
0.0
147
0.0
147
0.0
147
1.0
0
MATERIAL
5
F8B
102
{ACAD_XDICTIONARY
360
F8C
102
}
102
{ACAD_REACTORS
330
F7A
102
}
330
F7A
100
AcDbMaterial
1
Global
72
0
43
0.0208333333333333
43
0.0
43
0.0
43
0.0
43
0.0
43
0.0208333333333333
43
0.0
43
0.0
43
0.0
43
0.0
43
1.0
43
0.0
43
0.0
43
0.0
43
0.0
43
1.0
77
0
47
0.0208333333333333
47
0.0
47
0.0
47
0.0
47
0.0
47
0.0208333333333333
47
0.0
47
0.0
47
0.0
47
0.0
47
1.0
47
0.0
47
0.0
47
0.0
47
0.0
47
1.0
171
0
49
0.0208333333333333
49
0.0
49
0.0
49
0.0
49
0.0
49
0.0208333333333333
49
0.0
49
0.0
49
0.0
49
0.0
49
1.0
49
0.0
49
0.0
49
0.0
49
0.0
49
1.0
175
0
142
0.0208333333333333
142
0.0
142
0.0
142
0.0
142
0.0
142
0.0208333333333333
142
0.0
142
0.0
142
0.0
142
0.0
142
1.0
142
0.0
142
0.0
142
0.0
142
0.0
142
1.0
179
0
144
0.0208333333333333
144
0.0
144
0.0
144
0.0
144
0.0
144
0.0208333333333333
144
0.0
144
0.0
144
0.0
144
0.0
144
1.0
144
0.0
144
0.0
144
0.0
144
0.0
144
1.0
147
0.0208333333333333
147
0.0
147
0.0
147
0.0
147
0.0
147
0.0208333333333333
147
0.0
147
0.0
147
0.0
147
0.0
147
1.0
147
0.0
147
0.0
147
0.0
147
0.0
147
1.0
0
MLEADERSTYLE
5
FCE
102
{ACAD_REACTORS
330
FCD
102
}
330
FCD
100
AcDbMLeaderStyle
170
2
171
1
172
0
90
2
40
0.0
41
0.0
173
1
91
-1056964608
340
256
92
-2
290
1
42
0.09
291
1
43
0.36
3
Standard
44
0.18
300

342
253
174
1
178
6
175
1
176
0
93
-1056964608
45
0.18
292
0
297
0
46
0.18
94
-1056964608
47
1.0
49
1.0
140
1.0
293
1
141
0.0
294
1
177
0
142
1.0
295
0
296
0
143
0.125
1001
ACAD_MLEADERVER
1070
2
0
MLINESTYLE
5
FAA
102
{ACAD_REACTORS
330
16
102
}
330
16
100
AcDbMlineStyle
2
STANDARD
70
0
3

62
256
51
90.0
52
90.0
71
2
49
0.5
62
256
6
BYLAYER
49
-0.5
62
256
6
BYLAYER
0
ACDBPLACEHOLDER
5
19
102
{ACAD_REACTORS
330
18
102
}
330
18
0
SCALE
5
FAC
102
{ACAD_REACTORS
330
FAB
102
}
330
FAB
100
AcDbScale
70
0
300
1:1
140
1.0
141
1.0
290
1
0
SCALE
5
FAD
102
{ACAD_REACTORS
330
FAB
102
}
330
FAB
100
AcDbScale
70
0
300
1:2
140
1.0
141
2.0
290
0
0
SCALE
5
FAE
102
{ACAD_REACTORS
330
FAB
102
}
330
FAB
100
AcDbScale
70
0
300
1:4
140
1.0
141
4.0
290
0
0
SCALE
5
FAF
102
{ACAD_REACTORS
330
FAB
102
}
330
FAB
100
AcDbScale
70
0
300
1:5
140
1.0
141
5.0
290
0
0
SCALE
5
FB0
102
{ACAD_REACTORS
330
FAB
102
}
330
FAB
100
AcDbScale
70
0
300
1:8
140
1.0
141
8.0
290
0
0
SCALE
5
FB1
102
{ACAD_REACTORS
330
FAB
102
}
330
FAB
100
AcDbScale
70
0
300
1:10
140
1.0
141
10.0
290
0
0
SCALE
5
FB2
102
{ACAD_REACTORS
330
FAB
102
}
330
FAB
100
AcDbScale
70
0
300
1:16
140
1.0
141
16.0
290
0
0
SCALE
5
FB3
102
{ACAD_REACTORS
330
FAB
102
}
330
FAB
100
AcDbScale
70
0
300
1:20
140
1.0
141
20.0
290
0
0
SCALE
5
FB4
102
{ACAD_REACTORS
330
FAB
102
}
330
FAB
100
AcDbScale
70
0
300
1:30
140
1.0
141
30.0
290
0
0
SCALE
5
FB5
102
{ACAD_REACTORS
330
FAB
102
}
330
FAB
100
AcDbScale
70
0
300
1:40
140
1.0
141
40.0
290
0
0
SCALE
5
FB6
102
{ACAD_REACTORS
330
FAB
102
}
330
FAB
100
AcDbScale
70
0
300
1:50
140
1.0
141
50.0
290
0
0
SCALE
5
FB7
102
{ACAD_REACTORS
330
FAB
102
}
330
FAB
100
AcDbScale
70
0
300
1:100
140
1.0
141
100.0
290
0
0
SCALE
5
FB8
102
{ACAD_REACTORS
330
FAB
102
}
330
FAB
100
AcDbScale
70
0
300
2:1
140
2.0
141
1.0
290
0
0
SCALE
5
FB9
102
{ACAD_REACTORS
330
FAB
102
}
330
FAB
100
AcDbScale
70
0
300
4:1
140
4.0
141
1.0
290
0
0
SCALE
5
FBA
102
{ACAD_REACTORS
330
FAB
102
}
330
FAB
100
AcDbScale
70
0
300
8:1
140
8.0
141
1.0
290
0
0
SCALE
5
FBB
102
{ACAD_REACTORS
330
FAB
102
}
330
FAB
100
AcDbScale
70
0
300
10:1
140
10.0
141
1.0
290
0
0
SCALE
5
FBC
102
{ACAD_REACTORS
330
FAB
102
}
330
FAB
100
AcDbScale
70
0
300
100:1
140
100.0
141
1.0
290
0
0
SCALE
5
FBD
102
{ACAD_REACTORS
330
FAB
102
}
330
FAB
100
AcDbScale
70
0
300
1/128" = 1'-0"
140
0.0078125
141
12.0
290
0
0
SCALE
5
FBE
102
{ACAD_REACTORS
330
FAB
102
}
330
FAB
100
AcDbScale
70
0
300
1/64" = 1'-0"
140
0.015625
141
12.0
290
0
0
SCALE
5
FBF
102
{ACAD_REACTORS
330
FAB
102
}
330
FAB
100
AcDbScale
70
0
300
1/32" = 1'-0"
140
0.03125
141
12.0
290
0
0
SCALE
5
FC0
102
{ACAD_REACTORS
330
FAB
102
}
330
FAB
100
AcDbScale
70
0
300
1/16" = 1'-0"
140
0.0625
141
12.0
290
0
0
SCALE
5
FC1
102
{ACAD_REACTORS
330
FAB
102
}
330
FAB
100
AcDbScale
70
0
300
3/32" = 1'-0"
140
0.09375
141
12.0
290
0
0
SCALE
5
FC2
102
{ACAD_REACTORS
330
FAB
102
}
330
FAB
100
AcDbScale
70
0
300
1/8" = 1'-0"
140
0.125
141
12.0
290
0
0
SCALE
5
FC3
102
{ACAD_REACTORS
330
FAB
102
}
330
FAB
100
AcDbScale
70
0
300
3/16" = 1'-0"
140
0.1875
141
12.0
290
0
0
SCALE
5
FC4
102
{ACAD_REACTORS
330
FAB
102
}
330
FAB
100
AcDbScale
70
0
300
1/4" = 1'-0"
140
0.25
141
12.0
290
0
0
SCALE
5
FC5
102
{ACAD_REACTORS
330
FAB
102
}
330
FAB
100
AcDbScale
70
0
300
3/8" = 1'-0"
140
0.375
141
12.0
290
0
0
SCALE
5
FC6
102
{ACAD_REACTORS
330
FAB
102
}
330
FAB
100
AcDbScale
70
0
300
1/2" = 1'-0"
140
0.5
141
12.0
290
0
0
SCALE
5
FC7
102
{ACAD_REACTORS
330
FAB
102
}
330
FAB
100
AcDbScale
70
0
300
3/4" = 1'-0"
140
0.75
141
12.0
290
0
0
SCALE
5
FC8
102
{ACAD_REACTORS
330
FAB
102
}
330
FAB
100
AcDbScale
70
0
300
1" = 1'-0"
140
1.0
141
12.0
290
0
0
SCALE
5
FC9
102
{ACAD_REACTORS
330
FAB
102
}
330
FAB
100
AcDbScale
70
0
300
1-1/2" = 1'-0"
140
1.5
141
12.0
290
0
0
SCALE
5
FCA
102
{ACAD_REACTORS
330
FAB
102
}
330
FAB
100
AcDbScale
70
0
300
3" = 1'-0"
140
3.0
141
12.0
290
0
0
SCALE
5
FCB
102
{ACAD_REACTORS
330
FAB
102
}
330
FAB
100
AcDbScale
70
0
300
6" = 1'-0"
140
6.0
141
12.0
290
0
0
SCALE
5
FCC
102
{ACAD_REACTORS
330
FAB
102
}
330
FAB
100
AcDbScale
70
0
300
1'-0" = 1'-0"
140
12.0
141
12.0
290
0
0
TABLESTYLE
5
FA9
102
{ACAD_XDICTIONARY
360
FF8
102
}
102
{ACAD_REACTORS
330
FA8
102
}
330
FA8
100
AcDbTableStyle
3
Standard
70
0
71
0
40
0.06
41
0.06
280
0
281
0
7
Standard
140
0.18
170
2
62
0
63
7
283
0
274
-2
284
1
64
0
275
-2
285
1
65
0
276
-2
286
1
66
0
277
-2
287
1
67
0
278
-2
288
1
68
0
279
-2
289
1
69
0
7
Standard
140
0.25
170
5
62
0
63
7
283
0
274
-2
284
1
64
0
275
-2
285
1
65
0
276
-2
286
1
66
0
277
-2
287
1
67
0
278
-2
288
1
68
0
279
-2
289
1
69
0
7
Standard
140
0.18
170
5
62
0
63
7
283
0
274
-2
284
1
64
0
275
-2
285
1
65
0
276
-2
286
1
66
0
277
-2
287
1
67
0
278
-2
288
1
68
0
279
-2
289
1
69
0
0
VISUALSTYLE
5
F99
102
{ACAD_XDICTIONARY
360
108A
102
}
102
{ACAD_REACTORS
330
F93
102
}
330
F93
100
AcDbVisualStyle
2

70
4
71
0
72
2
73
0
90
0
40
-0.6
41
-30.0
62
5
63
7
74
1
91
4
64
7
65
257
75
1
175
1
42
1.0
92
0
66
257
43
1.0
76
1
77
6
78
2
67
7
79
5
170
0
171
0
290
0
174
0
93
1
44
0.0
173
0
291
0
45
0.0
1001
ACAD
1000
AcDbSavedByObjectVersion
1070
0
0
VISUALSTYLE
5
F9B
102
{ACAD_XDICTIONARY
360
108E
102
}
102
{ACAD_REACTORS
330
F93
102
}
330
F93
100
AcDbVisualStyle
2

70
6
71
1
72
2
73
2
90
0
40
-0.6
41
-30.0
62
5
63
7
74
2
91
2
64
7
65
257
75
2
175
1
42
179.0
92
0
66
257
43
1.0
76
1
77
6
78
2
67
7
79
3
170
0
171
0
290
0
174
0
93
1
44
0.0
173
0
291
0
45
0.0
1001
ACAD
1000
AcDbSavedByObjectVersion
1070
0
0
VISUALSTYLE
5
F9A
102
{ACAD_XDICTIONARY
360
108C
102
}
102
{ACAD_REACTORS
330
F93
102
}
330
F93
100
AcDbVisualStyle
2

70
5
71
0
72
2
73
0
90
0
40
-0.6
41
-30.0
62
5
63
7
74
1
91
4
64
7
65
257
75
1
175
1
42
1.0
92
0
66
257
43
1.0
76
1
77
6
78
2
67
7
79
5
170
0
171
0
290
0
174
0
93
1
44
0.0
173
0
291
0
45
0.0
1001
ACAD
1000
AcDbSavedByObjectVersion
1070
0
0
VISUALSTYLE
5
F98
102
{ACAD_XDICTIONARY
360
1088
102
}
102
{ACAD_REACTORS
330
F93
102
}
330
F93
100
AcDbVisualStyle
2

70
7
71
1
72
0
73
1
90
0
40
-0.6
41
-30.0
62
5
63
7
74
0
91
4
64
7
65
257
75
1
175
1
42
1.0
92
8
66
7
43
1.0
76
1
77
6
78
2
67
7
79
5
170
0
171
0
290
0
174
0
93
1
44
0.0
173
0
291
1
45
0.0
1001
ACAD
1000
AcDbSavedByObjectVersion
1070
0
0
VISUALSTYLE
5
F9F
102
{ACAD_XDICTIONARY
360
1096
102
}
102
{ACAD_REACTORS
330
F93
102
}
330
F93
100
AcDbVisualStyle
2

70
12
71
2
72
2
73
0
90
0
40
-0.6
41
-30.0
62
5
63
7
74
1
91
4
64
7
65
257
75
1
175
1
42
1.0
92
8
66
7
43
1.0
76
1
77
6
78
2
67
7
79
5
170
0
171
0
290
0
174
0
93
1
44
50.0
173
0
291
1
45
0.0
1001
ACAD
1000
AcDbSavedByObjectVersion
1070
0
0
VISUALSTYLE
5
FA3
102
{ACAD_XDICTIONARY
360
109E
102
}
102
{ACAD_REACTORS
330
F93
102
}
330
F93
100
AcDbVisualStyle
2

70
16
71
2
72
2
73
3
90
0
40
-0.6
41
-30.0
62
5
63
8
74
1
91
4
64
7
65
257
75
1
175
1
42
1.0
92
8
66
8
43
1.0
76
1
77
6
78
2
67
7
79
5
170
0
171
0
290
0
174
0
93
1
44
0.0
173
0
291
1
45
0.0
1001
ACAD
1000
AcDbSavedByObjectVersion
1070
0
0
VISUALSTYLE
5
F9C
102
{ACAD_XDICTIONARY
360
1090
102
}
102
{ACAD_REACTORS
330
F93
102
}
330
F93
100
AcDbVisualStyle
2

70
9
71
3
72
2
73
0
90
0
40
-0.6
41
-30.0
62
5
63
7
74
2
91
2
64
7
65
257
75
1
175
1
42
179.0
92
8
66
7
43
1.0
76
1
77
6
78
2
67
7
79
3
170
0
171
0
290
0
174
0
93
1
44
0.0
173
0
291
0
45
0.0
1001
ACAD
1000
AcDbSavedByObjectVersion
1070
0
0
VISUALSTYLE
5
F9E
102
{ACAD_XDICTIONARY
360
1094
102
}
102
{ACAD_REACTORS
330
F93
102
}
330
F93
100
AcDbVisualStyle
2

70
11
71
2
72
2
73
0
90
0
40
-0.6
41
-30.0
62
5
63
7
74
1
91
4
64
7
65
257
75
1
175
1
42
1.0
92
8
66
7
43
1.0
76
1
77
6
78
2
67
7
79
5
170
0
171
0
290
0
174
0
93
1
44
-50.0
173
0
291
1
45
0.0
1001
ACAD
1000
AcDbSavedByObjectVersion
1070
0
0
VISUALSTYLE
5
FA6
102
{ACAD_XDICTIONARY
360
10A4
102
}
102
{ACAD_REACTORS
330
F93
102
}
330
F93
100
AcDbVisualStyle
2

70
22
71
2
72
2
73
0
90
0
40
-0.6
41
-30.0
62
5
63
7
74
1
91
4
64
7
65
257
75
1
175
1
42
1.0
92
8
66
7
43
1.0
76
1
77
6
78
2
67
7
79
5
170
0
171
0
290
0
174
0
93
1
44
0.0
173
0
291
1
45
0.0
1001
ACAD
1000
AcDbSavedByObjectVersion
1070
0
0
VISUALSTYLE
5
FA2
102
{ACAD_XDICTIONARY
360
109C
102
}
102
{ACAD_REACTORS
330
F93
102
}
330
F93
100
AcDbVisualStyle
2

70
15
71
2
72
2
73
0
90
0
40
-0.6
41
-30.0
62
5
63
7
74
1
91
4
64
7
65
257
75
1
175
1
42
1.0
92
8
66
7
43
1.0
76
1
77
6
78
2
67
7
79
5
170
0
171
0
290
0
174
0
93
1
44
0.0
173
0
291
1
45
0.0
1001
ACAD
1000
AcDbSavedByObjectVersion
1070
0
0
VISUALSTYLE
5
F94
102
{ACAD_XDICTIONARY
360
1080
102
}
102
{ACAD_REACTORS
330
F93
102
}
330
F93
100
AcDbVisualStyle
2

70
0
71
2
72
1
73
1
90
2
40
-0.6
41
30.0
62
5
63
7
74
0
91
4
64
7
65
257
75
1
175
1
42
1.0
92
8
66
7
43
1.0
76
1
77
6
78
2
67
7
79
5
170
0
171
0
290
0
174
0
93
13
44
0.0
173
0
291
1
45
0.0
1001
ACAD
1000
AcDbSavedByObjectVersion
1070
0
0
VISUALSTYLE
5
F95
102
{ACAD_XDICTIONARY
360
1082
102
}
102
{ACAD_REACTORS
330
F93
102
}
330
F93
100
AcDbVisualStyle
2

70
1
71
2
72
1
73
1
90
2
40
-0.6
41
30.0
62
5
63
7
74
1
91
4
64
7
65
257
75
1
175
1
42
1.0
92
0
66
257
43
1.0
76
1
77
6
78
2
67
7
79
5
170
0
171
0
290
0
174
0
93
13
44
0.0
173
0
291
1
45
0.0
1001
ACAD
1000
AcDbSavedByObjectVersion
1070
0
0
VISUALSTYLE
5
F96
102
{ACAD_XDICTIONARY
360
1084
102
}
102
{ACAD_REACTORS
330
F93
102
}
330
F93
100
AcDbVisualStyle
2

70
2
71
2
72
2
73
1
90
2
40
-0.6
41
30.0
62
5
63
7
74
0
91
4
64
7
65
257
75
1
175
1
42
1.0
92
0
66
7
43
1.0
76
1
77
6
78
2
67
7
79
5
170
0
171
0
290
0
174
0
93
13
44
0.0
173
0
291
1
45
0.0
1001
ACAD
1000
AcDbSavedByObjectVersion
1070
0
0
VISUALSTYLE
5
F97
102
{ACAD_XDICTIONARY
360
1086
102
}
102
{ACAD_REACTORS
330
F93
102
}
330
F93
100
AcDbVisualStyle
2

70
3
71
2
72
2
73
1
90
2
40
-0.6
41
30.0
62
5
63
7
74
1
91
4
64
7
65
257
75
1
175
1
42
1.0
92
0
66
257
43
1.0
76
1
77
6
78
2
67
7
79
5
170
0
171
0
290
0
174
0
93
13
44
0.0
173
0
291
1
45
0.0
1001
ACAD
1000
AcDbSavedByObjectVersion
1070
0
0
VISUALSTYLE
5
FA4
102
{ACAD_XDICTIONARY
360
10A0
102
}
102
{ACAD_REACTORS
330
F93
102
}
330
F93
100
AcDbVisualStyle
2

70
20
71
2
72
2
73
0
90
0
40
-0.6
41
-30.0
62
5
63
7
74
1
91
4
64
7
65
257
75
1
175
1
42
1.0
92
10
66
7
43
1.0
76
1
77
6
78
2
67
7
79
5
170
0
171
0
290
0
174
0
93
1
44
0.0
173
0
291
1
45
0.0
1001
ACAD
1000
AcDbSavedByObjectVersion
1070
0
0
VISUALSTYLE
5
FA1
102
{ACAD_XDICTIONARY
360
109A
102
}
102
{ACAD_REACTORS
330
F93
102
}
330
F93
100
AcDbVisualStyle
2

70
14
71
2
72
2
73
0
90
0
40
-0.6
41
-30.0
62
5
63
7
74
1
91
4
64
7
65
257
75
7
175
7
42
1.0
92
8
66
7
43
1.0
76
1
77
6
78
2
67
7
79
5
170
0
171
0
290
0
174
0
93
1
44
0.0
173
0
291
1
45
0.0
1001
ACAD
1000
AcDbSavedByObjectVersion
1070
0
0
VISUALSTYLE
5
FA5
102
{ACAD_XDICTIONARY
360
10A2
102
}
102
{ACAD_REACTORS
330
F93
102
}
330
F93
100
AcDbVisualStyle
2

70
21
71
2
72
2
73
0
90
0
40
-0.6
41
-30.0
62
5
63
7
74
1
91
4
64
7
65
257
75
1
175
1
42
1.0
92
9
66
7
43
1.0
76
1
77
6
78
2
67
7
79
5
170
0
171
0
290
0
174
0
93
1
44
0.0
173
0
291
1
45
0.0
1001
ACAD
1000
AcDbSavedByObjectVersion
1070
0
0
VISUALSTYLE
5
F9D
102
{ACAD_XDICTIONARY
360
1092
102
}
102
{ACAD_REACTORS
330
F93
102
}
330
F93
100
AcDbVisualStyle
2

70
8
71
2
72
2
73
0
90
0
40
-0.6
41
-30.0
62
5
63
7
74
1
91
0
64
7
65
257
75
1
175
1
42
1.0
92
8
66
8
43
1.0
76
1
77
6
78
2
67
7
79
5
170
0
171
0
290
0
174
0
93
13
44
0.0
173
0
291
0
45
0.0
1001
ACAD
1000
AcDbSavedByObjectVersion
1070
0
0
VISUALSTYLE
5
FA0
102
{ACAD_XDICTIONARY
360
1098
102
}
102
{ACAD_REACTORS
330
F93
102
}
330
F93
100
AcDbVisualStyle
2

70
13
71
2
72
2
73
0
90
0
40
-0.6
41
-30.0
62
5
63
7
74
1
91
4
64
7
65
257
75
1
175
1
42
1.0
92
12
66
7
43
1.0
76
1
77
6
78
2
67
7
79
5
170
0
171
0
290
0
174
0
93
1
44
0.0
173
0
291
1
45
0.0
1001
ACAD
1000
AcDbSavedByObjectVersion
1070
0
0
DICTIONARYVAR
5
FF3
102
{ACAD_REACTORS
330
FF0
102
}
330
FF0
100
DictionaryVariables
280
0
1
1:1
0
DICTIONARYVAR
5
FF2
102
{ACAD_REACTORS
330
FF0
102
}
330
FF0
100
DictionaryVariables
280
0
1
STANDARD
0
DICTIONARYVAR
5
FF1
102
{ACAD_REACTORS
330
FF0
102
}
330
FF0
100
DictionaryVariables
280
0
1
STANDARD
0
DICTIONARYVAR
5
FF6
102
{ACAD_REACTORS
330
FF0
102
}
330
FF0
100
DictionaryVariables
280
0
1
1
0
DICTIONARYVAR
5
FF5
102
{ACAD_REACTORS
330
FF0
102
}
330
FF0
100
DictionaryVariables
280
0
1
0
0
DICTIONARYVAR
5
FF4
102
{ACAD_REACTORS
330
FF0
102
}
330
FF0
100
DictionaryVariables
280
0
1
127
0
DICTIONARYVAR
5
1078
102
{ACAD_REACTORS
330
FF0
102
}
330
FF0
100
DictionaryVariables
280
0
1
2
0
DICTIONARY
5
10A9
330
FD1
100
AcDbDictionary
280
1
281
1
3
ACAD_XREC_ROUNDTRIP
360
10AA
0
DICTIONARY
5
10A7
330
FD0
100
AcDbDictionary
280
1
281
1
3
ACAD_XREC_ROUNDTRIP
360
10A8
0
DICTIONARY
5
F84
330
F83
100
AcDbDictionary
280
1
281
1
3
ACAD_XREC_ROUNDTRIP
360
FFF
3
BUMPTILE
360
F86
3
DIFFUSETILE
360
F85
3
OPACITYTILE
360
F89
3
REFLECTIONTILE
360
F88
3
REFRACTIONTILE
360
F8A
3
SPECULARTILE
360
F87
0
DICTIONARY
5
F7C
330
F7B
100
AcDbDictionary
280
1
281
1
3
ACAD_XREC_ROUNDTRIP
360
FFE
3
BUMPTILE
360
F7E
3
DIFFUSETILE
360
F7D
3
OPACITYTILE
360
F81
3
REFLECTIONTILE
360
F80
3
REFRACTIONTILE
360
F82
3
SPECULARTILE
360
F7F
0
DICTIONARY
5
F8C
330
F8B
100
AcDbDictionary
280
1
281
1
3
ACAD_XREC_ROUNDTRIP
360
1000
3
BUMPTILE
360
F8E
3
DIFFUSETILE
360
F8D
3
OPACITYTILE
360
F91
3
REFLECTIONTILE
360
F90
3
REFRACTIONTILE
360
F92
3
SPECULARTILE
360
F8F
0
DICTIONARY
5
FF8
330
FA9
100
AcDbDictionary
280
1
281
1
3
ACAD_ROUNDTRIP_2008_TABLESTYLE_CELLSTYLEMAP
360
1079
3
ACAD_XREC_ROUNDTRIP
360
10A6
0
DICTIONARY
5
108A
330
F99
100
AcDbDictionary
280
1
281
1
3
ACAD_XREC_ROUNDTRIP
360
108B
0
DICTIONARY
5
108E
330
F9B
100
AcDbDictionary
280
1
281
1
3
ACAD_XREC_ROUNDTRIP
360
108F
0
DICTIONARY
5
108C
330
F9A
100
AcDbDictionary
280
1
281
1
3
ACAD_XREC_ROUNDTRIP
360
108D
0
DICTIONARY
5
1088
330
F98
100
AcDbDictionary
280
1
281
1
3
ACAD_XREC_ROUNDTRIP
360
1089
0
DICTIONARY
5
1096
330
F9F
100
AcDbDictionary
280
1
281
1
3
ACAD_XREC_ROUNDTRIP
360
1097
0
DICTIONARY
5
109E
330
FA3
100
AcDbDictionary
280
1
281
1
3
ACAD_XREC_ROUNDTRIP
360
109F
0
DICTIONARY
5
1090
330
F9C
100
AcDbDictionary
280
1
281
1
3
ACAD_XREC_ROUNDTRIP
360
1091
0
DICTIONARY
5
1094
330
F9E
100
AcDbDictionary
280
1
281
1
3
ACAD_XREC_ROUNDTRIP
360
1095
0
DICTIONARY
5
10A4
330
FA6
100
AcDbDictionary
280
1
281
1
3
ACAD_XREC_ROUNDTRIP
360
10A5
0
DICTIONARY
5
109C
330
FA2
100
AcDbDictionary
280
1
281
1
3
ACAD_XREC_ROUNDTRIP
360
109D
0
DICTIONARY
5
1080
330
F94
100
AcDbDictionary
280
1
281
1
3
ACAD_XREC_ROUNDTRIP
360
1081
0
DICTIONARY
5
1082
330
F95
100
AcDbDictionary
280
1
281
1
3
ACAD_XREC_ROUNDTRIP
360
1083
0
DICTIONARY
5
1084
330
F96
100
AcDbDictionary
280
1
281
1
3
ACAD_XREC_ROUNDTRIP
360
1085
0
DICTIONARY
5
1086
330
F97
100
AcDbDictionary
280
1
281
1
3
ACAD_XREC_ROUNDTRIP
360
1087
0
DICTIONARY
5
10A0
330
FA4
100
AcDbDictionary
280
1
281
1
3
ACAD_XREC_ROUNDTRIP
360
10A1
0
DICTIONARY
5
109A
330
FA1
100
AcDbDictionary
280
1
281
1
3
ACAD_XREC_ROUNDTRIP
360
109B
0
DICTIONARY
5
10A2
330
FA5
100
AcDbDictionary
280
1
281
1
3
ACAD_XREC_ROUNDTRIP
360
10A3
0
DICTIONARY
5
1092
330
F9D
100
AcDbDictionary
280
1
281
1
3
ACAD_XREC_ROUNDTRIP
360
1093
0
DICTIONARY
5
1098
330
FA0
100
AcDbDictionary
280
1
281
1
3
ACAD_XREC_ROUNDTRIP
360
1099
0
XRECORD
5
10AA
102
{ACAD_REACTORS
330
10A9
102
}
330
10A9
100
AcDbXrecord
280
1
102
SHADEPLOT
70
0
102
SHADEPLOTRESLEVEL
70
2
102
SHADEPLOTCUSTOMDPI
70
300
0
XRECORD
5
10A8
102
{ACAD_REACTORS
330
10A7
102
}
330
10A7
100
AcDbXrecord
280
1
102
SHADEPLOT
70
0
102
SHADEPLOTRESLEVEL
70
2
102
SHADEPLOTCUSTOMDPI
70
300
0
XRECORD
5
FFF
102
{ACAD_REACTORS
330
F84
102
}
330
F84
100
AcDbXrecord
280
1
102
MATERIAL
148
0.0
149
0.0
149
0.0
93
0
94
127
282
0
72
0
77
0
171
0
175
0
179
0
273
0
0
XRECORD
5
F86
102
{ACAD_REACTORS
330
F84
102
}
330
F84
100
AcDbXrecord
280
1
270
1
271
1
0
XRECORD
5
F85
102
{ACAD_REACTORS
330
F84
102
}
330
F84
100
AcDbXrecord
280
1
270
1
271
1
0
XRECORD
5
F89
102
{ACAD_REACTORS
330
F84
102
}
330
F84
100
AcDbXrecord
280
1
270
1
271
1
0
XRECORD
5
F88
102
{ACAD_REACTORS
330
F84
102
}
330
F84
100
AcDbXrecord
280
1
270
1
271
1
0
XRECORD
5
F8A
102
{ACAD_REACTORS
330
F84
102
}
330
F84
100
AcDbXrecord
280
1
270
1
271
1
0
XRECORD
5
F87
102
{ACAD_REACTORS
330
F84
102
}
330
F84
100
AcDbXrecord
280
1
270
1
271
1
0
XRECORD
5
FFE
102
{ACAD_REACTORS
330
F7C
102
}
330
F7C
100
AcDbXrecord
280
1
102
MATERIAL
148
0.0
149
0.0
149
0.0
93
0
94
127
282
0
72
0
77
0
171
0
175
0
179
0
273
0
0
XRECORD
5
F7E
102
{ACAD_REACTORS
330
F7C
102
}
330
F7C
100
AcDbXrecord
280
1
270
1
271
1
0
XRECORD
5
F7D
102
{ACAD_REACTORS
330
F7C
102
}
330
F7C
100
AcDbXrecord
280
1
270
1
271
1
0
XRECORD
5
F81
102
{ACAD_REACTORS
330
F7C
102
}
330
F7C
100
AcDbXrecord
280
1
270
1
271
1
0
XRECORD
5
F80
102
{ACAD_REACTORS
330
F7C
102
}
330
F7C
100
AcDbXrecord
280
1
270
1
271
1
0
XRECORD
5
F82
102
{ACAD_REACTORS
330
F7C
102
}
330
F7C
100
AcDbXrecord
280
1
270
1
271
1
0
XRECORD
5
F7F
102
{ACAD_REACTORS
330
F7C
102
}
330
F7C
100
AcDbXrecord
280
1
270
1
271
1
0
XRECORD
5
1000
102
{ACAD_REACTORS
330
F8C
102
}
330
F8C
100
AcDbXrecord
280
1
102
MATERIAL
148
0.0
149
0.0
149
0.0
93
0
94
127
282
0
72
0
77
0
171
0
175
0
179
0
273
0
0
XRECORD
5
F8E
102
{ACAD_REACTORS
330
F8C
102
}
330
F8C
100
AcDbXrecord
280
1
270
1
271
1
0
XRECORD
5
F8D
102
{ACAD_REACTORS
330
F8C
102
}
330
F8C
100
AcDbXrecord
280
1
270
1
271
1
0
XRECORD
5
F91
102
{ACAD_REACTORS
330
F8C
102
}
330
F8C
100
AcDbXrecord
280
1
270
1
271
1
0
XRECORD
5
F90
102
{ACAD_REACTORS
330
F8C
102
}
330
F8C
100
AcDbXrecord
280
1
270
1
271
1
0
XRECORD
5
F92
102
{ACAD_REACTORS
330
F8C
102
}
330
F8C
100
AcDbXrecord
280
1
270
1
271
1
0
XRECORD
5
F8F
102
{ACAD_REACTORS
330
F8C
102
}
330
F8C
100
AcDbXrecord
280
1
270
1
271
1
0
CELLSTYLEMAP
5
1079
102
{ACAD_REACTORS
330
FF8
102
}
330
FF8
100
AcDbCellStyleMap
90
3
300
CELLSTYLE
1
TABLEFORMAT_BEGIN
90
5
170
1
91
0
92
32768
62
257
93
1
300
CONTENTFORMAT
1
CONTENTFORMAT_BEGIN
90
0
91
0
92
512
93
0
300

40
0.0
140
1.0
94
5
62
0
340
253
144
0.25
309
CONTENTFORMAT_END
171
1
301
MARGIN
1
CELLMARGIN_BEGIN
40
0.06
40
0.06
40
0.06
40
0.06
40
0.18
40
0.18
309
CELLMARGIN_END
94
6
95
1
302
GRIDFORMAT
1
GRIDFORMAT_BEGIN
90
0
91
1
62
0
92
-2
340
0
93
0
40
0.045
309
GRIDFORMAT_END
95
2
302
GRIDFORMAT
1
GRIDFORMAT_BEGIN
90
0
91
1
62
0
92
-2
340
0
93
0
40
0.045
309
GRIDFORMAT_END
95
4
302
GRIDFORMAT
1
GRIDFORMAT_BEGIN
90
0
91
1
62
0
92
-2
340
0
93
0
40
0.045
309
GRIDFORMAT_END
95
8
302
GRIDFORMAT
1
GRIDFORMAT_BEGIN
90
0
91
1
62
0
92
-2
340
0
93
0
40
0.045
309
GRIDFORMAT_END
95
16
302
GRIDFORMAT
1
GRIDFORMAT_BEGIN
90
0
91
1
62
0
92
-2
340
0
93
0
40
0.045
309
GRIDFORMAT_END
95
32
302
GRIDFORMAT
1
GRIDFORMAT_BEGIN
90
0
91
1
62
0
92
-2
340
0
93
0
40
0.045
309
GRIDFORMAT_END
309
TABLEFORMAT_END
1
CELLSTYLE_BEGIN
90
1
91
1
300
_TITLE
309
CELLSTYLE_END
300
CELLSTYLE
1
TABLEFORMAT_BEGIN
90
5
170
1
91
0
92
0
62
257
93
1
300
CONTENTFORMAT
1
CONTENTFORMAT_BEGIN
90
0
91
0
92
512
93
0
300

40
0.0
140
1.0
94
5
62
0
340
253
144
0.18
309
CONTENTFORMAT_END
171
1
301
MARGIN
1
CELLMARGIN_BEGIN
40
0.06
40
0.06
40
0.06
40
0.06
40
0.18
40
0.18
309
CELLMARGIN_END
94
6
95
1
302
GRIDFORMAT
1
GRIDFORMAT_BEGIN
90
0
91
1
62
0
92
-2
340
0
93
0
40
0.045
309
GRIDFORMAT_END
95
2
302
GRIDFORMAT
1
GRIDFORMAT_BEGIN
90
0
91
1
62
0
92
-2
340
0
93
0
40
0.045
309
GRIDFORMAT_END
95
4
302
GRIDFORMAT
1
GRIDFORMAT_BEGIN
90
0
91
1
62
0
92
-2
340
0
93
0
40
0.045
309
GRIDFORMAT_END
95
8
302
GRIDFORMAT
1
GRIDFORMAT_BEGIN
90
0
91
1
62
0
92
-2
340
0
93
0
40
0.045
309
GRIDFORMAT_END
95
16
302
GRIDFORMAT
1
GRIDFORMAT_BEGIN
90
0
91
1
62
0
92
-2
340
0
93
0
40
0.045
309
GRIDFORMAT_END
95
32
302
GRIDFORMAT
1
GRIDFORMAT_BEGIN
90
0
91
1
62
0
92
-2
340
0
93
0
40
0.045
309
GRIDFORMAT_END
309
TABLEFORMAT_END
1
CELLSTYLE_BEGIN
90
2
91
1
300
_HEADER
309
CELLSTYLE_END
300
CELLSTYLE
1
TABLEFORMAT_BEGIN
90
5
170
1
91
0
92
0
62
257
93
1
300
CONTENTFORMAT
1
CONTENTFORMAT_BEGIN
90
0
91
0
92
512
93
0
300

40
0.0
140
1.0
94
2
62
0
340
253
144
0.18
309
CONTENTFORMAT_END
171
1
301
MARGIN
1
CELLMARGIN_BEGIN
40
0.06
40
0.06
40
0.06
40
0.06
40
0.18
40
0.18
309
CELLMARGIN_END
94
6
95
1
302
GRIDFORMAT
1
GRIDFORMAT_BEGIN
90
0
91
1
62
0
92
-2
340
0
93
0
40
0.045
309
GRIDFORMAT_END
95
2
302
GRIDFORMAT
1
GRIDFORMAT_BEGIN
90
0
91
1
62
0
92
-2
340
0
93
0
40
0.045
309
GRIDFORMAT_END
95
4
302
GRIDFORMAT
1
GRIDFORMAT_BEGIN
90
0
91
1
62
0
92
-2
340
0
93
0
40
0.045
309
GRIDFORMAT_END
95
8
302
GRIDFORMAT
1
GRIDFORMAT_BEGIN
90
0
91
1
62
0
92
-2
340
0
93
0
40
0.045
309
GRIDFORMAT_END
95
16
302
GRIDFORMAT
1
GRIDFORMAT_BEGIN
90
0
91
1
62
0
92
-2
340
0
93
0
40
0.045
309
GRIDFORMAT_END
95
32
302
GRIDFORMAT
1
GRIDFORMAT_BEGIN
90
0
91
1
62
0
92
-2
340
0
93
0
40
0.045
309
GRIDFORMAT_END
309
TABLEFORMAT_END
1
CELLSTYLE_BEGIN
90
3
91
2
300
_DATA
309
CELLSTYLE_END
0
XRECORD
5
10A6
102
{ACAD_REACTORS
330
FF8
102
}
330
FF8
100
AcDbXrecord
280
1
102
ACAD_ROUNDTRIP_PRE2007_TABLESTYLE
90
512
91
0
1

92
512
93
0
2

94
512
95
0
3

0
XRECORD
5
108B
102
{ACAD_REACTORS
330
108A
102
}
330
108A
100
AcDbXrecord
280
1
102
RTVSPropertyOp0
70
1
102
RTVSPropertyOp1
70
1
102
RTVSPropertyOp2
70
1
102
RTVSPropertyOp3
70
1
102
RTVSPropertyOp4
70
1
102
RTVSPropertyOp5
70
1
102
RTVSPropertyOp6
70
1
102
RTVSPropertyOp7
70
1
102
RTVSPropertyOp8
70
1
102
RTVSPropertyOp9
70
1
102
RTVSPropertyOp10
70
1
102
RTVSPropertyOp11
70
1
102
RTVSPropertyOp12
70
1
102
RTVSPropertyOp13
70
1
102
RTVSPropertyOp14
70
1
102
RTVSPropertyOp15
70
1
102
RTVSPropertyOp16
70
1
102
RTVSPropertyOp17
70
1
102
RTVSPropertyOp18
70
1
102
RTVSPropertyOp19
70
1
102
RTVSPropertyOp20
70
1
102
RTVSPropertyOp21
70
1
102
RTVSPropertyOp22
70
1
102
RTVSPropertyOp23
70
1
102
RTVSPropertyOp24
70
1
102
RTVSPropertyOp25
70
1
102
RTVSPropertyOp26
70
1
102
RTVSPropertyOp27
70
1
0
XRECORD
5
108F
102
{ACAD_REACTORS
330
108E
102
}
330
108E
100
AcDbXrecord
280
1
102
RTVSPropertyOp0
70
1
102
RTVSPropertyOp1
70
1
102
RTVSPropertyOp2
70
1
102
RTVSPropertyOp3
70
1
102
RTVSPropertyOp4
70
1
102
RTVSPropertyOp5
70
1
102
RTVSPropertyOp6
70
1
102
RTVSPropertyOp7
70
1
102
RTVSPropertyOp8
70
1
102
RTVSPropertyOp9
70
1
102
RTVSPropertyOp10
70
1
102
RTVSPropertyOp11
70
1
102
RTVSPropertyOp12
70
1
102
RTVSPropertyOp13
70
1
102
RTVSPropertyOp14
70
1
102
RTVSPropertyOp15
70
1
102
RTVSPropertyOp16
70
1
102
RTVSPropertyOp17
70
1
102
RTVSPropertyOp18
70
1
102
RTVSPropertyOp19
70
1
102
RTVSPropertyOp20
70
1
102
RTVSPropertyOp21
70
1
102
RTVSPropertyOp22
70
1
102
RTVSPropertyOp23
70
1
102
RTVSPropertyOp24
70
1
102
RTVSPropertyOp25
70
1
102
RTVSPropertyOp26
70
1
102
RTVSPropertyOp27
70
1
0
XRECORD
5
108D
102
{ACAD_REACTORS
330
108C
102
}
330
108C
100
AcDbXrecord
280
1
102
RTVSPropertyOp0
70
1
102
RTVSPropertyOp1
70
1
102
RTVSPropertyOp2
70
1
102
RTVSPropertyOp3
70
1
102
RTVSPropertyOp4
70
1
102
RTVSPropertyOp5
70
1
102
RTVSPropertyOp6
70
1
102
RTVSPropertyOp7
70
1
102
RTVSPropertyOp8
70
1
102
RTVSPropertyOp9
70
1
102
RTVSPropertyOp10
70
1
102
RTVSPropertyOp11
70
1
102
RTVSPropertyOp12
70
1
102
RTVSPropertyOp13
70
1
102
RTVSPropertyOp14
70
1
102
RTVSPropertyOp15
70
1
102
RTVSPropertyOp16
70
1
102
RTVSPropertyOp17
70
1
102
RTVSPropertyOp18
70
1
102
RTVSPropertyOp19
70
1
102
RTVSPropertyOp20
70
1
102
RTVSPropertyOp21
70
1
102
RTVSPropertyOp22
70
1
102
RTVSPropertyOp23
70
1
102
RTVSPropertyOp24
70
1
102
RTVSPropertyOp25
70
1
102
RTVSPropertyOp26
70
1
102
RTVSPropertyOp27
70
1
0
XRECORD
5
1089
102
{ACAD_REACTORS
330
1088
102
}
330
1088
100
AcDbXrecord
280
1
102
RTVSPropertyOp0
70
1
102
RTVSPropertyOp1
70
1
102
RTVSPropertyOp2
70
1
102
RTVSPropertyOp3
70
1
102
RTVSPropertyOp4
70
1
102
RTVSPropertyOp5
70
1
102
RTVSPropertyOp6
70
1
102
RTVSPropertyOp7
70
1
102
RTVSPropertyOp8
70
1
102
RTVSPropertyOp9
70
1
102
RTVSPropertyOp10
70
1
102
RTVSPropertyOp11
70
1
102
RTVSPropertyOp12
70
1
102
RTVSPropertyOp13
70
1
102
RTVSPropertyOp14
70
1
102
RTVSPropertyOp15
70
1
102
RTVSPropertyOp16
70
1
102
RTVSPropertyOp17
70
1
102
RTVSPropertyOp18
70
1
102
RTVSPropertyOp19
70
1
102
RTVSPropertyOp20
70
1
102
RTVSPropertyOp21
70
1
102
RTVSPropertyOp22
70
1
102
RTVSPropertyOp23
70
1
102
RTVSPropertyOp24
70
1
102
RTVSPropertyOp25
70
1
102
RTVSPropertyOp26
70
1
102
RTVSPropertyOp27
70
1
0
XRECORD
5
1097
102
{ACAD_REACTORS
330
1096
102
}
330
1096
100
AcDbXrecord
280
1
102
RTVSPropertyOp0
70
1
102
RTVSPropertyOp1
70
1
102
RTVSPropertyOp2
70
1
102
RTVSPropertyOp3
70
1
102
RTVSPropertyOp4
70
1
102
RTVSPropertyOp5
70
1
102
RTVSPropertyOp6
70
1
102
RTVSPropertyOp7
70
1
102
RTVSPropertyOp8
70
1
102
RTVSPropertyOp9
70
1
102
RTVSPropertyOp10
70
1
102
RTVSPropertyOp11
70
1
102
RTVSPropertyOp12
70
1
102
RTVSPropertyOp13
70
1
102
RTVSPropertyOp14
70
1
102
RTVSPropertyOp15
70
1
102
RTVSPropertyOp16
70
1
102
RTVSPropertyOp17
70
1
102
RTVSPropertyOp18
70
1
102
RTVSPropertyOp19
70
1
102
RTVSPropertyOp20
70
1
102
RTVSPropertyOp21
70
1
102
RTVSPropertyOp22
70
1
102
RTVSPropertyOp23
70
1
102
RTVSPropertyOp24
70
1
102
RTVSPropertyOp25
70
1
102
RTVSPropertyOp26
70
1
102
RTVSPropertyOp27
70
1
0
XRECORD
5
109F
102
{ACAD_REACTORS
330
109E
102
}
330
109E
100
AcDbXrecord
280
1
102
RTVSPropertyOp0
70
1
102
RTVSPropertyOp1
70
1
102
RTVSPropertyOp2
70
1
102
RTVSPropertyOp3
70
1
102
RTVSPropertyOp4
70
1
102
RTVSPropertyOp5
70
1
102
RTVSPropertyOp6
70
1
102
RTVSPropertyOp7
70
1
102
RTVSPropertyOp8
70
1
102
RTVSPropertyOp9
70
1
102
RTVSPropertyOp10
70
1
102
RTVSPropertyOp11
70
1
102
RTVSPropertyOp12
70
1
102
RTVSPropertyOp13
70
1
102
RTVSPropertyOp14
70
1
102
RTVSPropertyOp15
70
1
102
RTVSPropertyOp16
70
1
102
RTVSPropertyOp17
70
1
102
RTVSPropertyOp18
70
1
102
RTVSPropertyOp19
70
1
102
RTVSPropertyOp20
70
1
102
RTVSPropertyOp21
70
1
102
RTVSPropertyOp22
70
1
102
RTVSPropertyOp23
70
1
102
RTVSPropertyOp24
70
1
102
RTVSPropertyOp25
70
1
102
RTVSPropertyOp26
70
1
102
RTVSPropertyOp27
70
1
0
XRECORD
5
1091
102
{ACAD_REACTORS
330
1090
102
}
330
1090
100
AcDbXrecord
280
1
102
RTVSPropertyOp0
70
1
102
RTVSPropertyOp1
70
1
102
RTVSPropertyOp2
70
1
102
RTVSPropertyOp3
70
1
102
RTVSPropertyOp4
70
1
102
RTVSPropertyOp5
70
1
102
RTVSPropertyOp6
70
1
102
RTVSPropertyOp7
70
1
102
RTVSPropertyOp8
70
1
102
RTVSPropertyOp9
70
1
102
RTVSPropertyOp10
70
1
102
RTVSPropertyOp11
70
1
102
RTVSPropertyOp12
70
1
102
RTVSPropertyOp13
70
1
102
RTVSPropertyOp14
70
1
102
RTVSPropertyOp15
70
1
102
RTVSPropertyOp16
70
1
102
RTVSPropertyOp17
70
1
102
RTVSPropertyOp18
70
1
102
RTVSPropertyOp19
70
1
102
RTVSPropertyOp20
70
1
102
RTVSPropertyOp21
70
1
102
RTVSPropertyOp22
70
1
102
RTVSPropertyOp23
70
1
102
RTVSPropertyOp24
70
1
102
RTVSPropertyOp25
70
1
102
RTVSPropertyOp26
70
1
102
RTVSPropertyOp27
70
1
0
XRECORD
5
1095
102
{ACAD_REACTORS
330
1094
102
}
330
1094
100
AcDbXrecord
280
1
102
RTVSPropertyOp0
70
1
102
RTVSPropertyOp1
70
1
102
RTVSPropertyOp2
70
1
102
RTVSPropertyOp3
70
1
102
RTVSPropertyOp4
70
1
102
RTVSPropertyOp5
70
1
102
RTVSPropertyOp6
70
1
102
RTVSPropertyOp7
70
1
102
RTVSPropertyOp8
70
1
102
RTVSPropertyOp9
70
1
102
RTVSPropertyOp10
70
1
102
RTVSPropertyOp11
70
1
102
RTVSPropertyOp12
70
1
102
RTVSPropertyOp13
70
1
102
RTVSPropertyOp14
70
1
102
RTVSPropertyOp15
70
1
102
RTVSPropertyOp16
70
1
102
RTVSPropertyOp17
70
1
102
RTVSPropertyOp18
70
1
102
RTVSPropertyOp19
70
1
102
RTVSPropertyOp20
70
1
102
RTVSPropertyOp21
70
1
102
RTVSPropertyOp22
70
1
102
RTVSPropertyOp23
70
1
102
RTVSPropertyOp24
70
1
102
RTVSPropertyOp25
70
1
102
RTVSPropertyOp26
70
1
102
RTVSPropertyOp27
70
1
0
XRECORD
5
10A5
102
{ACAD_REACTORS
330
10A4
102
}
330
10A4
100
AcDbXrecord
280
1
102
RTVSPropertyOp0
70
0
102
RTVSPropertyOp1
70
0
102
RTVSPropertyOp2
70
0
102
RTVSPropertyOp3
70
0
102
RTVSPropertyOp4
70
0
102
RTVSPropertyOp5
70
0
102
RTVSPropertyOp6
70
0
102
RTVSPropertyOp7
70
0
102
RTVSPropertyOp8
70
0
102
RTVSPropertyOp9
70
0
102
RTVSPropertyOp10
70
0
102
RTVSPropertyOp11
70
0
102
RTVSPropertyOp12
70
0
102
RTVSPropertyOp13
70
0
102
RTVSPropertyOp14
70
2
102
RTVSPropertyOp15
70
0
102
RTVSPropertyOp16
70
0
102
RTVSPropertyOp17
70
0
102
RTVSPropertyOp18
70
0
102
RTVSPropertyOp19
70
0
102
RTVSPropertyOp20
70
0
102
RTVSPropertyOp21
70
0
102
RTVSPropertyOp22
70
0
102
RTVSPropertyOp23
70
0
102
RTVSPropertyOp24
70
0
102
RTVSPropertyOp25
70
0
102
RTVSPropertyOp26
70
0
102
RTVSPropertyOp27
70
0
0
XRECORD
5
109D
102
{ACAD_REACTORS
330
109C
102
}
330
109C
100
AcDbXrecord
280
1
102
RTVSPropertyOp0
70
1
102
RTVSPropertyOp1
70
1
102
RTVSPropertyOp2
70
1
102
RTVSPropertyOp3
70
1
102
RTVSPropertyOp4
70
1
102
RTVSPropertyOp5
70
1
102
RTVSPropertyOp6
70
1
102
RTVSPropertyOp7
70
1
102
RTVSPropertyOp8
70
1
102
RTVSPropertyOp9
70
1
102
RTVSPropertyOp10
70
1
102
RTVSPropertyOp11
70
1
102
RTVSPropertyOp12
70
1
102
RTVSPropertyOp13
70
1
102
RTVSPropertyOp14
70
1
102
RTVSPropertyOp15
70
1
102
RTVSPropertyOp16
70
1
102
RTVSPropertyOp17
70
1
102
RTVSPropertyOp18
70
1
102
RTVSPropertyOp19
70
1
102
RTVSPropertyOp20
70
1
102
RTVSPropertyOp21
70
1
102
RTVSPropertyOp22
70
1
102
RTVSPropertyOp23
70
1
102
RTVSPropertyOp24
70
1
102
RTVSPropertyOp25
70
1
102
RTVSPropertyOp26
70
1
102
RTVSPropertyOp27
70
1
0
XRECORD
5
1081
102
{ACAD_REACTORS
330
1080
102
}
330
1080
100
AcDbXrecord
280
1
102
RTVSPropertyOp0
70
1
102
RTVSPropertyOp1
70
1
102
RTVSPropertyOp2
70
1
102
RTVSPropertyOp3
70
1
102
RTVSPropertyOp4
70
1
102
RTVSPropertyOp5
70
1
102
RTVSPropertyOp6
70
1
102
RTVSPropertyOp7
70
1
102
RTVSPropertyOp8
70
1
102
RTVSPropertyOp9
70
1
102
RTVSPropertyOp10
70
1
102
RTVSPropertyOp11
70
1
102
RTVSPropertyOp12
70
1
102
RTVSPropertyOp13
70
1
102
RTVSPropertyOp14
70
1
102
RTVSPropertyOp15
70
1
102
RTVSPropertyOp16
70
1
102
RTVSPropertyOp17
70
1
102
RTVSPropertyOp18
70
1
102
RTVSPropertyOp19
70
1
102
RTVSPropertyOp20
70
1
102
RTVSPropertyOp21
70
1
102
RTVSPropertyOp22
70
1
102
RTVSPropertyOp23
70
1
102
RTVSPropertyOp24
70
1
102
RTVSPropertyOp25
70
1
102
RTVSPropertyOp26
70
1
102
RTVSPropertyOp27
70
1
0
XRECORD
5
1083
102
{ACAD_REACTORS
330
1082
102
}
330
1082
100
AcDbXrecord
280
1
102
RTVSPropertyOp0
70
1
102
RTVSPropertyOp1
70
1
102
RTVSPropertyOp2
70
1
102
RTVSPropertyOp3
70
1
102
RTVSPropertyOp4
70
1
102
RTVSPropertyOp5
70
1
102
RTVSPropertyOp6
70
1
102
RTVSPropertyOp7
70
1
102
RTVSPropertyOp8
70
1
102
RTVSPropertyOp9
70
1
102
RTVSPropertyOp10
70
1
102
RTVSPropertyOp11
70
1
102
RTVSPropertyOp12
70
1
102
RTVSPropertyOp13
70
1
102
RTVSPropertyOp14
70
1
102
RTVSPropertyOp15
70
1
102
RTVSPropertyOp16
70
1
102
RTVSPropertyOp17
70
1
102
RTVSPropertyOp18
70
1
102
RTVSPropertyOp19
70
1
102
RTVSPropertyOp20
70
1
102
RTVSPropertyOp21
70
1
102
RTVSPropertyOp22
70
1
102
RTVSPropertyOp23
70
1
102
RTVSPropertyOp24
70
1
102
RTVSPropertyOp25
70
1
102
RTVSPropertyOp26
70
1
102
RTVSPropertyOp27
70
1
0
XRECORD
5
1085
102
{ACAD_REACTORS
330
1084
102
}
330
1084
100
AcDbXrecord
280
1
102
RTVSPropertyOp0
70
1
102
RTVSPropertyOp1
70
1
102
RTVSPropertyOp2
70
1
102
RTVSPropertyOp3
70
1
102
RTVSPropertyOp4
70
1
102
RTVSPropertyOp5
70
1
102
RTVSPropertyOp6
70
1
102
RTVSPropertyOp7
70
1
102
RTVSPropertyOp8
70
1
102
RTVSPropertyOp9
70
1
102
RTVSPropertyOp10
70
1
102
RTVSPropertyOp11
70
1
102
RTVSPropertyOp12
70
1
102
RTVSPropertyOp13
70
1
102
RTVSPropertyOp14
70
1
102
RTVSPropertyOp15
70
1
102
RTVSPropertyOp16
70
1
102
RTVSPropertyOp17
70
1
102
RTVSPropertyOp18
70
1
102
RTVSPropertyOp19
70
1
102
RTVSPropertyOp20
70
1
102
RTVSPropertyOp21
70
1
102
RTVSPropertyOp22
70
1
102
RTVSPropertyOp23
70
1
102
RTVSPropertyOp24
70
1
102
RTVSPropertyOp25
70
1
102
RTVSPropertyOp26
70
1
102
RTVSPropertyOp27
70
1
0
XRECORD
5
1087
102
{ACAD_REACTORS
330
1086
102
}
330
1086
100
AcDbXrecord
280
1
102
RTVSPropertyOp0
70
1
102
RTVSPropertyOp1
70
1
102
RTVSPropertyOp2
70
1
102
RTVSPropertyOp3
70
1
102
RTVSPropertyOp4
70
1
102
RTVSPropertyOp5
70
1
102
RTVSPropertyOp6
70
1
102
RTVSPropertyOp7
70
1
102
RTVSPropertyOp8
70
1
102
RTVSPropertyOp9
70
1
102
RTVSPropertyOp10
70
1
102
RTVSPropertyOp11
70
1
102
RTVSPropertyOp12
70
1
102
RTVSPropertyOp13
70
1
102
RTVSPropertyOp14
70
1
102
RTVSPropertyOp15
70
1
102
RTVSPropertyOp16
70
1
102
RTVSPropertyOp17
70
1
102
RTVSPropertyOp18
70
1
102
RTVSPropertyOp19
70
1
102
RTVSPropertyOp20
70
1
102
RTVSPropertyOp21
70
1
102
RTVSPropertyOp22
70
1
102
RTVSPropertyOp23
70
1
102
RTVSPropertyOp24
70
1
102
RTVSPropertyOp25
70
1
102
RTVSPropertyOp26
70
1
102
RTVSPropertyOp27
70
1
0
XRECORD
5
10A1
102
{ACAD_REACTORS
330
10A0
102
}
330
10A0
100
AcDbXrecord
280
1
102
RTVSPropertyOp0
70
0
102
RTVSPropertyOp1
70
0
102
RTVSPropertyOp2
70
0
102
RTVSPropertyOp3
70
0
102
RTVSPropertyOp4
70
0
102
RTVSPropertyOp5
70
0
102
RTVSPropertyOp6
70
0
102
RTVSPropertyOp7
70
0
102
RTVSPropertyOp8
70
0
102
RTVSPropertyOp9
70
0
102
RTVSPropertyOp10
70
0
102
RTVSPropertyOp11
70
0
102
RTVSPropertyOp12
70
0
102
RTVSPropertyOp13
70
0
102
RTVSPropertyOp14
70
2
102
RTVSPropertyOp15
70
0
102
RTVSPropertyOp16
70
0
102
RTVSPropertyOp17
70
0
102
RTVSPropertyOp18
70
0
102
RTVSPropertyOp19
70
0
102
RTVSPropertyOp20
70
0
102
RTVSPropertyOp21
70
0
102
RTVSPropertyOp22
70
0
102
RTVSPropertyOp23
70
0
102
RTVSPropertyOp24
70
0
102
RTVSPropertyOp25
70
0
102
RTVSPropertyOp26
70
0
102
RTVSPropertyOp27
70
0
0
XRECORD
5
109B
102
{ACAD_REACTORS
330
109A
102
}
330
109A
100
AcDbXrecord
280
1
102
RTVSPropertyOp0
70
1
102
RTVSPropertyOp1
70
1
102
RTVSPropertyOp2
70
1
102
RTVSPropertyOp3
70
1
102
RTVSPropertyOp4
70
1
102
RTVSPropertyOp5
70
1
102
RTVSPropertyOp6
70
1
102
RTVSPropertyOp7
70
1
102
RTVSPropertyOp8
70
1
102
RTVSPropertyOp9
70
1
102
RTVSPropertyOp10
70
1
102
RTVSPropertyOp11
70
1
102
RTVSPropertyOp12
70
1
102
RTVSPropertyOp13
70
1
102
RTVSPropertyOp14
70
1
102
RTVSPropertyOp15
70
1
102
RTVSPropertyOp16
70
1
102
RTVSPropertyOp17
70
1
102
RTVSPropertyOp18
70
1
102
RTVSPropertyOp19
70
1
102
RTVSPropertyOp20
70
1
102
RTVSPropertyOp21
70
1
102
RTVSPropertyOp22
70
1
102
RTVSPropertyOp23
70
1
102
RTVSPropertyOp24
70
1
102
RTVSPropertyOp25
70
1
102
RTVSPropertyOp26
70
1
102
RTVSPropertyOp27
70
1
0
XRECORD
5
10A3
102
{ACAD_REACTORS
330
10A2
102
}
330
10A2
100
AcDbXrecord
280
1
102
RTVSPropertyOp0
70
0
102
RTVSPropertyOp1
70
0
102
RTVSPropertyOp2
70
0
102
RTVSPropertyOp3
70
0
102
RTVSPropertyOp4
70
0
102
RTVSPropertyOp5
70
0
102
RTVSPropertyOp6
70
0
102
RTVSPropertyOp7
70
0
102
RTVSPropertyOp8
70
0
102
RTVSPropertyOp9
70
0
102
RTVSPropertyOp10
70
0
102
RTVSPropertyOp11
70
0
102
RTVSPropertyOp12
70
0
102
RTVSPropertyOp13
70
0
102
RTVSPropertyOp14
70
2
102
RTVSPropertyOp15
70
0
102
RTVSPropertyOp16
70
0
102
RTVSPropertyOp17
70
0
102
RTVSPropertyOp18
70
0
102
RTVSPropertyOp19
70
0
102
RTVSPropertyOp20
70
0
102
RTVSPropertyOp21
70
0
102
RTVSPropertyOp22
70
0
102
RTVSPropertyOp23
70
0
102
RTVSPropertyOp24
70
0
102
RTVSPropertyOp25
70
0
102
RTVSPropertyOp26
70
0
102
RTVSPropertyOp27
70
0
0
XRECORD
5
1093
102
{ACAD_REACTORS
330
1092
102
}
330
1092
100
AcDbXrecord
280
1
102
RTVSPropertyOp0
70
1
102
RTVSPropertyOp1
70
1
102
RTVSPropertyOp2
70
1
102
RTVSPropertyOp3
70
1
102
RTVSPropertyOp4
70
1
102
RTVSPropertyOp5
70
1
102
RTVSPropertyOp6
70
1
102
RTVSPropertyOp7
70
1
102
RTVSPropertyOp8
70
1
102
RTVSPropertyOp9
70
1
102
RTVSPropertyOp10
70
1
102
RTVSPropertyOp11
70
1
102
RTVSPropertyOp12
70
1
102
RTVSPropertyOp13
70
1
102
RTVSPropertyOp14
70
1
102
RTVSPropertyOp15
70
1
102
RTVSPropertyOp16
70
1
102
RTVSPropertyOp17
70
1
102
RTVSPropertyOp18
70
1
102
RTVSPropertyOp19
70
1
102
RTVSPropertyOp20
70
1
102
RTVSPropertyOp21
70
1
102
RTVSPropertyOp22
70
1
102
RTVSPropertyOp23
70
1
102
RTVSPropertyOp24
70
1
102
RTVSPropertyOp25
70
1
102
RTVSPropertyOp26
70
1
102
RTVSPropertyOp27
70
1
0
XRECORD
5
1099
102
{ACAD_REACTORS
330
1098
102
}
330
1098
100
AcDbXrecord
280
1
102
RTVSPropertyOp0
70
1
102
RTVSPropertyOp1
70
1
102
RTVSPropertyOp2
70
1
102
RTVSPropertyOp3
70
1
102
RTVSPropertyOp4
70
1
102
RTVSPropertyOp5
70
1
102
RTVSPropertyOp6
70
1
102
RTVSPropertyOp7
70
1
102
RTVSPropertyOp8
70
1
102
RTVSPropertyOp9
70
1
102
RTVSPropertyOp10
70
1
102
RTVSPropertyOp11
70
1
102
RTVSPropertyOp12
70
1
102
RTVSPropertyOp13
70
1
102
RTVSPropertyOp14
70
1
102
RTVSPropertyOp15
70
1
102
RTVSPropertyOp16
70
1
102
RTVSPropertyOp17
70
1
102
RTVSPropertyOp18
70
1
102
RTVSPropertyOp19
70
1
102
RTVSPropertyOp20
70
1
102
RTVSPropertyOp21
70
1
102
RTVSPropertyOp22
70
1
102
RTVSPropertyOp23
70
1
102
RTVSPropertyOp24
70
1
102
RTVSPropertyOp25
70
1
102
RTVSPropertyOp26
70
1
102
RTVSPropertyOp27
70
1
0
ENDSEC
0
EOF
