0
SECTION
2
HEADER
9
$ACADVER
1
AC1015
9
$ACADMAINTVER
70
20
9
$DWGCODEPAGE
3
ANSI_1252
9
$INSBASE
10
0.0
20
0.0
30
0.0
9
$EXTMIN
10
-150.000000000000
20
-105.000000000000
30
0.0
9
$EXTMAX
10
150.000000000000
20
105.000000000000
30
0.0
9
$LIMMIN
10
0.0
20
0.0
9
$LIMMAX
10
12.0
20
9.0
9
$ORTHOMODE
70
0
9
$REGENMODE
70
1
9
$FILLMODE
70
1
9
$QTEXTMODE
70
0
9
$MIRRTEXT
70
1
9
$LTSCALE
40
1.0
9
$ATTMODE
70
1
9
$TEXTSIZE
40
0.2
9
$TRACEWID
40
0.05
9
$TEXTSTYLE
7
Standard
9
$CLAYER
8
0
9
$CELTYPE
6
ByLayer
9
$CECOLOR
62
256
9
$CELTSCALE
40
1.0
9
$DISPSILH
70
0
9
$DIMSCALE
40
1.0
9
$DIMASZ
40
2.5
9
$DIMEXO
40
0.625
9
$DIMDLI
40
0.38
9
$DIMRND
40
0.0
9
$DIMDLE
40
0.0
9
$DIMEXE
40
1.25
9
$DIMTP
40
0.0
9
$DIMTM
40
0.000000001
9
$DIMTXT
40
2.5
9
$DIMCEN
40
0.09
9
$DIMTSZ
40
0.0
9
$DIMTOL
70
1
9
$DIMLIM
70
0
9
$DIMTIH
70
0
9
$DIMTOH
70
0
9
$DIMSE1
70
0
9
$DIMSE2
70
0
9
$DIMTAD
70
1
9
$DIMZIN
70
0
9
$DIMBLK
1
VDDIM_DEFAULT
9
$DIMASO
70
1
9
$DIMSHO
70
1
9
$DIMPOST
1

9
$DIMAPOST
1

9
$DIMALT
70
0
9
$DIMALTD
70
2
9
$DIMALTF
40
25.4
9
$DIMLFAC
40
1.00000000000000
9
$DIMTOFL
70
0
9
$DIMTVP
40
0.0
9
$DIMTIX
70
0
9
$DIMSOXD
70
0
9
$DIMSAH
70
0
9
$DIMBLK1
1

9
$DIMBLK2
1

9
$DIMSTYLE
2
BEM-ISBE
9
$DIMCLRD
70
0
9
$DIMCLRE
70
0
9
$DIMCLRT
70
0
9
$DIMTFAC
40
0.5
9
$DIMGAP
40
0.625
9
$DIMJUST
70
0
9
$DIMSD1
70
0
9
$DIMSD2
70
0
9
$DIMTOLJ
70
1
9
$DIMTZIN
70
0
9
$DIMALTZ
70
0
9
$DIMALTTZ
70
0
9
$DIMUPT
70
0
9
$DIMDEC
70
3
9
$DIMTDEC
70
3
9
$DIMALTU
70
2
9
$DIMALTTD
70
2
9
$DIMTXSTY
7
Standard
9
$DIMAUNIT
70
0
9
$DIMADEC
70
3
9
$DIMALTRND
40
0.0
9
$DIMAZIN
70
0
9
$DIMDSEP
70
46
9
$DIMATFIT
70
3
9
$DIMFRAC
70
0
9
$DIMLDRBLK
1

9
$DIMLUNIT
70
2
9
$DIMLWD
70
-2
9
$DIMLWE
70
-2
9
$DIMTMOVE
70
0
9
$LUNITS
70
2
9
$LUPREC
70
4
9
$SKETCHINC
40
0.1
9
$FILLETRAD
40
0.5
9
$AUNITS
70
0
9
$AUPREC
70
0
9
$MENU
1
.
9
$ELEVATION
40
0.0
9
$PELEVATION
40
0.0
9
$THICKNESS
40
0.0
9
$LIMCHECK
70
0
9
$CHAMFERA
40
0.5
9
$CHAMFERB
40
0.5
9
$CHAMFERC
40
1.0
9
$CHAMFERD
40
0.0
9
$SKPOLY
70
0
9
$TDCREATE
40
0.0
9
$TDUCREATE
40
0.0
9
$TDUPDATE
40
0.0
9
$TDUUPDATE
40
0.0
9
$TDINDWG
40
0.0
9
$TDUSRTIMER
40
0.0
9
$USRTIMER
70
1
9
$ANGBASE
50
0.0
9
$ANGDIR
70
0
9
$PDMODE
70
0
9
$PDSIZE
40
0.0
9
$PLINEWID
40
0.0
9
$SPLFRAME
70
0
9
$SPLINETYPE
70
6
9
$SPLINESEGS
70
8
9
$HANDSEED
5
10AB
9
$SURFTAB1
70
6
9
$SURFTAB2
70
6
9
$SURFTYPE
70
6
9
$SURFU
70
6
9
$SURFV
70
6
9
$UCSBASE
2

9
$UCSNAME
2

9
$UCSORG
10
0.0
20
0.0
30
0.0
9
$UCSXDIR
10
1.0
20
0.0
30
0.0
9
$UCSYDIR
10
0.0
20
1.0
30
0.0
9
$UCSORTHOREF
2

9
$UCSORTHOVIEW
70
0
9
$UCSORGTOP
10
0.0
20
0.0
30
0.0
9
$UCSORGBOTTOM
10
0.0
20
0.0
30
0.0
9
$UCSORGLEFT
10
0.0
20
0.0
30
0.0
9
$UCSORGRIGHT
10
0.0
20
0.0
30
0.0
9
$UCSORGFRONT
10
0.0
20
0.0
30
0.0
9
$UCSORGBACK
10
0.0
20
0.0
30
0.0
9
$PUCSBASE
2

9
$PUCSNAME
2

9
$PUCSORG
10
0.0
20
0.0
30
0.0
9
$PUCSXDIR
10
1.0
20
0.0
30
0.0
9
$PUCSYDIR
10
0.0
20
1.0
30
0.0
9
$PUCSORTHOREF
2

9
$PUCSORTHOVIEW
70
0
9
$PUCSORGTOP
10
0.0
20
0.0
30
0.0
9
$PUCSORGBOTTOM
10
0.0
20
0.0
30
0.0
9
$PUCSORGLEFT
10
0.0
20
0.0
30
0.0
9
$PUCSORGRIGHT
10
0.0
20
0.0
30
0.0
9
$PUCSORGFRONT
10
0.0
20
0.0
30
0.0
9
$PUCSORGBACK
10
0.0
20
0.0
30
0.0
9
$USERI1
70
0
9
$USERI2
70
0
9
$USERI3
70
0
9
$USERI4
70
0
9
$USERI5
70
0
9
$USERR1
40
0.0
9
$USERR2
40
0.0
9
$USERR3
40
0.0
9
$USERR4
40
0.0
9
$USERR5
40
0.0
9
$WORLDVIEW
70
1
9
$SHADEDGE
70
3
9
$SHADEDIF
70
70
9
$TILEMODE
70
1
9
$MAXACTVP
70
64
9
$PINSBASE
10
0.0
20
0.0
30
0.0
9
$PLIMCHECK
70
0
9
$PEXTMIN
10
1.000000000000000E+20
20
1.000000000000000E+20
30
1.000000000000000E+20
9
$PEXTMAX
10
-1.000000000000000E+20
20
-1.000000000000000E+20
30
-1.000000000000000E+20
9
$PLIMMIN
10
0.0
20
0.0
9
$PLIMMAX
10
12.0
20
9.0
9
$UNITMODE
70
0
9
$VISRETAIN
70
1
9
$PLINEGEN
70
0
9
$PSLTSCALE
70
1
9
$TREEDEPTH
70
3020
9
$CMLSTYLE
2
Standard
9
$CMLJUST
70
0
9
$CMLSCALE
40
1.0
9
$PROXYGRAPHICS
70
1
9
$MEASUREMENT
70
0
9
$CELWEIGHT
370
-1
9
$ENDCAPS
280
0
9
$JOINSTYLE
280
0
9
$LWDISPLAY
290
0
9
$INSUNITS
70
4
9
$HYPERLINKBASE
1

9
$STYLESHEET
1

9
$XEDIT
290
1
9
$CEPSNTYPE
380
0
9
$PSTYLEMODE
290
0
9
$FINGERPRINTGUID
2
{FAEB1C30-E019-11D5-929B-00C0DF256EC4}
9
$VERSIONGUID
2
{04C5C4E4-4947-4D90-8812-D401569E61F7}
9
$EXTNAMES
290
1
9
$PSVPSCALE
40
0.0
9
$OLESTARTUP
290
0
0
ENDSEC
0
SECTION
2
CLASSES
0
CLASS
1
ACDBDICTIONARYWDFLT
2
AcDbDictionaryWithDefault
3
ObjectDBX Classes
90
0
280
0
281
0
0
CLASS
1
ACDBPLACEHOLDER
2
AcDbPlaceHolder
3
ObjectDBX Classes
90
0
280
0
281
0
0
CLASS
1
LAYOUT
2
AcDbLayout
3
ObjectDBX Classes
90
0
280
0
281
0
0
CLASS
1
MATERIAL
2
AcDbMaterial
3
ObjectDBX Classes
90
1153
280
0
281
0
0
CLASS
1
VISUALSTYLE
2
AcDbVisualStyle
3
ObjectDBX Classes
90
4095
280
0
281
0
0
CLASS
1
TABLESTYLE
2
AcDbTableStyle
3
ObjectDBX Classes
90
4095
280
0
281
0
0
CLASS
1
SCALE
2
AcDbScale
3
ObjectDBX Classes
90
1153
280
0
281
0
0
CLASS
1
MLEADERSTYLE
2
AcDbMLeaderStyle
3
ACDB_MLEADERSTYLE_CLASS
90
4095
280
0
281
0
0
CLASS
1
DICTIONARYVAR
2
AcDbDictionaryVar
3
ObjectDBX Classes
90
0
280
0
281
0
0
CLASS
1
CELLSTYLEMAP
2
AcDbCellStyleMap
3
ObjectDBX Classes
90
1152
280
0
281
0
0
ENDSEC
0
SECTION
2
TABLES
0
TABLE
2
VPORT
5
24A
330
0
100
AcDbSymbolTable
70
1
0
VPORT
5
26B
330
24A
100
AcDbSymbolTableRecord
100
AcDbViewportTableRecord
2
*Active
70
0
10
0.0
20
0.0
11
1.0
21
1.0
12
0.000000000000000
22
0.000000000000000
13
0.0
23
0.0
14
10.0
24
10.0
15
10.0
25
10.0
16
0.0
26
0.0
36
1.0
17
0.0
27
0.0
37
0.0
40
210.000000000000
41
1.42857142857143
42
1.0
43
0.0
44
0.0
50
0.0
51
0.0000000000007958
71
0
72
100
73
1
74
3
75
0
76
0
77
0
78
1
281
0
65
1
110
0.0
120
0.0
130
0.0
111
1.0
121
0.0
131
0.0
112
0.0
122
1.0
132
0.0
79
0
146
0.0
0
ENDTAB
0
TABLE
2
LTYPE
5
247
330
0
100
AcDbSymbolTable
70
25
0
LTYPE
5
256
330
247
100
AcDbSymbolTableRecord
100
AcDbLinetypeTableRecord
2
ByBlock
70
0
3

72
65
73
0
40
0.0
0
LTYPE
5
257
330
247
100
AcDbSymbolTableRecord
100
AcDbLinetypeTableRecord
2
ByLayer
70
0
3

72
65
73
0
40
0.0
0
LTYPE
5
258
330
247
100
AcDbSymbolTableRecord
100
AcDbLinetypeTableRecord
2
Continuous
70
0
3
Solid line
72
65
73
0
40
0.0
0
LTYPE
5
273
330
247
100
AcDbSymbolTableRecord
100
AcDbLinetypeTableRecord
2
CENTER
70
0
3
Center ____ _ ____ _ ____ _ ____ _ ____ _ ____
72
65
73
4
40
2.0
49
1.25
74
0
49
-0.25
74
0
49
0.25
74
0
49
-0.25
74
0
0
LTYPE
5
274
330
247
100
AcDbSymbolTableRecord
100
AcDbLinetypeTableRecord
2
DASHDOT
70
0
3
Dashdot __ . __ . __ . __ . __ . __ . __ . __
72
65
73
4
40
1.0
49
0.5
74
0
49
-0.25
74
0
49
0.0
74
0
49
-0.25
74
0
0
LTYPE
5
275
330
247
100
AcDbSymbolTableRecord
100
AcDbLinetypeTableRecord
2
DASHED
70
0
3
Dashed __ __ __ __ __ __ __ __ __ __ __ __ __ _
72
65
73
2
40
0.75
49
0.5
74
0
49
-0.25
74
0
0
LTYPE
5
276
330
247
100
AcDbSymbolTableRecord
100
AcDbLinetypeTableRecord
2
HIDDEN
70
0
3
Hidden __ __ __ __ __ __ __ __ __ __ __ __ __ __
72
65
73
2
40
0.375
49
0.25
74
0
49
-0.125
74
0
0
LTYPE
5
277
330
247
100
AcDbSymbolTableRecord
100
AcDbLinetypeTableRecord
2
HIDDEN2
70
0
3
Hidden2 _ _ _ _ _ _ _ _ _ _ _ _ _ _ _ _ _
72
65
73
2
40
0.1875
49
0.125
74
0
49
-0.0625
74
0
0
LTYPE
5
278
330
247
100
AcDbSymbolTableRecord
100
AcDbLinetypeTableRecord
2
BORDER
70
0
3
Border __ __ . __ __ . __ __ . __ __ . __ __ .
72
65
73
6
40
1.75
49
0.5
74
0
49
-0.25
74
0
49
0.5
74
0
49
-0.25
74
0
49
0.0
74
0
49
-0.25
74
0
0
LTYPE
5
279
330
247
100
AcDbSymbolTableRecord
100
AcDbLinetypeTableRecord
2
BORDER2
70
0
3
Border2 __.__.__.__.__.__.__.__.__.__.__.
72
65
73
6
40
0.875
49
0.25
74
0
49
-0.125
74
0
49
0.25
74
0
49
-0.125
74
0
49
0.0
74
0
49
-0.125
74
0
0
LTYPE
5
27A
330
247
100
AcDbSymbolTableRecord
100
AcDbLinetypeTableRecord
2
BORDERX2
70
0
3
Borderx2  ____  ____  .  ____  ____  .  ___
72
65
73
6
40
3.5
49
1.0
74
0
49
-0.5
74
0
49
1.0
74
0
49
-0.5
74
0
49
0.0
74
0
49
-0.5
74
0
0
LTYPE
5
27B
330
247
100
AcDbSymbolTableRecord
100
AcDbLinetypeTableRecord
2
CENTER2
70
0
3
Center2  ___ _ ___ _ ___ _ ___ _ ___ _ ___
72
65
73
4
40
1.125
49
0.75
74
0
49
-0.125
74
0
49
0.125
74
0
49
-0.125
74
0
0
LTYPE
5
27C
330
247
100
AcDbSymbolTableRecord
100
AcDbLinetypeTableRecord
2
CENTERX2
70
0
3
Centerx2  ________  __  ________  __  _____
72
65
73
4
40
4.0
49
2.5
74
0
49
-0.5
74
0
49
0.5
74
0
49
-0.5
74
0
0
LTYPE
5
27D
330
247
100
AcDbSymbolTableRecord
100
AcDbLinetypeTableRecord
2
DASHDOT2
70
0
3
Dashdot2  _._._._._._._._._._._._._._._.
72
65
73
4
40
0.5
49
0.25
74
0
49
-0.125
74
0
49
0.0
74
0
49
-0.125
74
0
0
LTYPE
5
27E
330
247
100
AcDbSymbolTableRecord
100
AcDbLinetypeTableRecord
2
DASHDOTX2
70
0
3
Dashdotx2 ____  .  ____  .  ____  .  ___
72
65
73
4
40
2.0
49
1.0
74
0
49
-0.5
74
0
49
0.0
74
0
49
-0.5
74
0
0
LTYPE
5
27F
330
247
100
AcDbSymbolTableRecord
100
AcDbLinetypeTableRecord
2
DASHED2
70
0
3
Dashed2 _ _ _ _ _ _ _ _ _ _ _ _ _ _ _ _ _
72
65
73
2
40
0.375
49
0.25
74
0
49
-0.125
74
0
0
LTYPE
5
280
330
247
100
AcDbSymbolTableRecord
100
AcDbLinetypeTableRecord
2
DASHEDX2
70
0
3
Dashedx2 ____  ____  ____  ____  ____  ___
72
65
73
2
40
1.5
49
1.0
74
0
49
-0.5
74
0
0
LTYPE
5
281
330
247
100
AcDbSymbolTableRecord
100
AcDbLinetypeTableRecord
2
DIVIDE
70
0
3
Divide ____ . . ____ . . ____ . . ____ . . ____
72
65
73
6
40
1.25
49
0.5
74
0
49
-0.25
74
0
49
0.0
74
0
49
-0.25
74
0
49
0.0
74
0
49
-0.25
74
0
0
LTYPE
5
282
330
247
100
AcDbSymbolTableRecord
100
AcDbLinetypeTableRecord
2
DIVIDE2
70
0
3
Divide2 __..__..__..__..__..__..__..__.._
72
65
73
6
40
0.625
49
0.25
74
0
49
-0.125
74
0
49
0.0
74
0
49
-0.125
74
0
49
0.0
74
0
49
-0.125
74
0
0
LTYPE
5
283
330
247
100
AcDbSymbolTableRecord
100
AcDbLinetypeTableRecord
2
DIVIDEX2
70
0
3
Dividex2 ________  .  .  ________  .  .  _
72
65
73
6
40
2.5
49
1.0
74
0
49
-0.5
74
0
49
0.0
74
0
49
-0.5
74
0
49
0.0
74
0
49
-0.5
74
0
0
LTYPE
5
284
330
247
100
AcDbSymbolTableRecord
100
AcDbLinetypeTableRecord
2
DOT
70
0
3
Dot . . . . . . . . . . . . . . . . . . . . . . . .
72
65
73
2
40
0.25
49
0.0
74
0
49
-0.25
74
0
0
LTYPE
5
285
330
247
100
AcDbSymbolTableRecord
100
AcDbLinetypeTableRecord
2
DOT2
70
0
3
Dot2 ........................................
72
65
73
2
40
0.125
49
0.0
74
0
49
-0.125
74
0
0
LTYPE
5
286
330
247
100
AcDbSymbolTableRecord
100
AcDbLinetypeTableRecord
2
DOTX2
70
0
3
Dotx2 .  .  .  .  .  .  .  .  .  .  .  .  .  .
72
65
73
2
40
0.5
49
0.0
74
0
49
-0.5
74
0
0
LTYPE
5
287
330
247
100
AcDbSymbolTableRecord
100
AcDbLinetypeTableRecord
2
HIDDENX2
70
0
3
Hiddenx2 ____ ____ ____ ____ ____ ____ ____
72
65
73
2
40
0.75
49
0.5
74
0
49
-0.25
74
0
0
LTYPE
5
288
330
247
100
AcDbSymbolTableRecord
100
AcDbLinetypeTableRecord
2
PHANTOM
70
0
3
Phantom ______  __  __  ______  __  __  ______
72
65
73
6
40
2.5
49
1.25
74
0
49
-0.25
74
0
49
0.25
74
0
49
-0.25
74
0
49
0.25
74
0
49
-0.25
74
0
0
LTYPE
5
289
330
247
100
AcDbSymbolTableRecord
100
AcDbLinetypeTableRecord
2
PHANTOM2
70
0
3
Phantom2 ___ _ _ ___ _ _ ___ _ _ ___ _ _
72
65
73
6
40
1.25
49
0.625
74
0
49
-0.125
74
0
49
0.125
74
0
49
-0.125
74
0
49
0.125
74
0
49
-0.125
74
0
0
LTYPE
5
28A
330
247
100
AcDbSymbolTableRecord
100
AcDbLinetypeTableRecord
2
PHANTOMX2
70
0
3
Phantomx2 ____________    ____    ____   _
72
65
73
6
40
5.0
49
2.5
74
0
49
-0.5
74
0
49
0.5
74
0
49
-0.5
74
0
49
0.5
74
0
49
-0.5
74
0
0
ENDTAB
0
TABLE
2
LAYER
5
244
330
0
100
AcDbSymbolTable
70
6
0
LAYER
5
252
330
244
100
AcDbSymbolTableRecord
100
AcDbLayerTableRecord
2
0
70
0
62
7
6
Continuous
370
0
390
251
0
LAYER
5
23F
330
244
100
AcDbSymbolTableRecord
100
AcDbLayerTableRecord
2
Bemassung
70
0
 62
   7
6
Continuous
370
0
390
251
0
LAYER
5
240
330
244
100
AcDbSymbolTableRecord
100
AcDbLayerTableRecord
2
Rahmen
70
0
 62
   7
6
Continuous
370
0
390
251
0
LAYER
5
241
330
244
100
AcDbSymbolTableRecord
100
AcDbLayerTableRecord
2
Geo
70
0
 62
   7
6
Continuous
370
0
390
251
0
LAYER
5
33A
330
244
100
AcDbSymbolTableRecord
100
AcDbLayerTableRecord
2
Defpoints
70
0
62
7
6
Continuous
290
0
370
-3
390
251
0
LAYER
5
57E
330
244
100
AcDbSymbolTableRecord
100
AcDbLayerTableRecord
2
Text
70
0
 62
   7
6
Continuous
370
0
390
251
1001
AcAecLayerStandard
1000

1000

0
ENDTAB
0
TABLE
2
STYLE
5
245
330
0
100
AcDbSymbolTable
70
2
0
STYLE
5
253
330
245
100
AcDbSymbolTableRecord
100
AcDbTextStyleTableRecord
2
Standard
70
0
40
0.0
41
1.0
50
0.0
71
0
42
0.2
3
Arial
4

1001
ACAD
1000
Arial
1071
0
0
STYLE
5
132
330
245
100
AcDbSymbolTableRecord
100
AcDbTextStyleTableRecord
2
Beschriftung
70
0
40
0.0
41
1.0
50
0.0
71
0
42
0.2
3
Arial
4

1001
ACAD
1000
Arial
1071
0
1001
AcadAnnotative
1000
AnnotativeData
1070
1
1070
1
0
ENDTAB
0
TABLE
2
VIEW
5
248
330
0
100
AcDbSymbolTable
70
0
0
ENDTAB
0
TABLE
2
UCS
5
249
330
0
100
AcDbSymbolTable
70
0
0
ENDTAB
0
TABLE
2
APPID
5
24B
330
0
100
AcDbSymbolTable
70
13
0
APPID
5
254
330
24B
100
AcDbSymbolTableRecord
100
AcDbRegAppTableRecord
2
ACAD
70
0
0
APPID
5
26C
330
24B
100
AcDbSymbolTableRecord
100
AcDbRegAppTableRecord
2
VD_INVISIBLE_NOT_FOR_READ
70
0
0
APPID
5
26D
330
24B
100
AcDbSymbolTableRecord
100
AcDbRegAppTableRecord
2
VD_TEMPHATCH
70
0
0
APPID
5
26E
330
24B
100
AcDbSymbolTableRecord
100
AcDbRegAppTableRecord
2
VDEXTRAPARAM
70
0
0
APPID
5
26F
330
24B
100
AcDbSymbolTableRecord
100
AcDbRegAppTableRecord
2
PE_URL
70
0
0
APPID
5
270
330
24B
100
AcDbSymbolTableRecord
100
AcDbRegAppTableRecord
2
VD_UNKNOWN
70
0
0
APPID
5
28F
330
24B
100
AcDbSymbolTableRecord
100
AcDbRegAppTableRecord
2
AcadAnnotative
70
0
0
APPID
5
290
330
24B
100
AcDbSymbolTableRecord
100
AcDbRegAppTableRecord
2
ACAD_DSTYLE_DIMJAG
70
0
0
APPID
5
291
330
24B
100
AcDbSymbolTableRecord
100
AcDbRegAppTableRecord
2
ACAD_DSTYLE_DIMTALN
70
0
0
APPID
5
293
330
24B
100
AcDbSymbolTableRecord
100
AcDbRegAppTableRecord
2
ACAD_PSEXT
70
0
0
APPID
5
42A
330
24B
100
AcDbSymbolTableRecord
100
AcDbRegAppTableRecord
2
ACAD_MLEADERVER
70
0
0
APPID
5
532
330
24B
100
AcDbSymbolTableRecord
100
AcDbRegAppTableRecord
2
ACAD_EXEMPT_FROM_CAD_STANDARDS
70
0
0
APPID
5
57F
330
24B
100
AcDbSymbolTableRecord
100
AcDbRegAppTableRecord
2
AcAecLayerStandard
70
0
0
ENDTAB
0
TABLE
2
DIMSTYLE
5
24C
330
0
100
AcDbSymbolTable
70
3
100
AcDbDimStyleTable
71
2
340
27
340
269
0
DIMSTYLE
105
269
330
24C
100
AcDbSymbolTableRecord
100
AcDbDimStyleTableRecord
2
Standard
70
0
172
1
174
1
288
1
340
253
342
23C
0
DIMSTYLE
105
137
330
24C
100
AcDbSymbolTableRecord
100
AcDbDimStyleTableRecord
2
Beschriftung
70
0
41
2.5
42
0.625
44
1.25
73
0
74
0
77
1
140
2.5
147
0.625
172
1
174
1
271
2
288
1
340
253
342
23C
1001
AcadAnnotative
1000
AnnotativeData
1070
1
1070
1
1001
ACAD_DSTYLE_DIMJAG
1070
388
1040
1.5
1001
ACAD_DSTYLE_DIMTALN
1070
392
1070
0
0
DIMSTYLE
105
27
102
{ACAD_REACTORS
330
F1000D
330
F10012
330
F10003
330
F10008
102
}
330
24C
100
AcDbSymbolTableRecord
100
AcDbDimStyleTableRecord
2
BEM-ISBE
70
0
41
2.5
42
0.625
44
1.25
48
0.000000001
71
1
73
0
74
0
77
1
140
2.5
144
1.00000000000000
146
0.5
147
0.625
171
 3
172
 1
179
 3
271
 3
272
 3
274
 3
340
253
342
23C
1001
ACAD_DSTYLE_DIMJAG
1070
388
1040
1.5
1001
ACAD_DSTYLE_DIMTALN
1070
392
1070
1
0
ENDTAB
0
TABLE
2
BLOCK_RECORD
5
243
330
0
100
AcDbSymbolTable
70
5
0
BLOCK_RECORD
5
261
330
243
100
AcDbSymbolTableRecord
100
AcDbBlockTableRecord
2
*Model_Space
340
FD0
0
BLOCK_RECORD
5
25D
330
243
100
AcDbSymbolTableRecord
100
AcDbBlockTableRecord
2
*Paper_Space
340
FD1
0
BLOCK_RECORD
5
265
330
243
100
AcDbSymbolTableRecord
100
AcDbBlockTableRecord
2
*Paper_Space0
340
0
0
BLOCK_RECORD
5
23C
330
243
100
AcDbSymbolTableRecord
100
AcDbBlockTableRecord
2
VDDIM_DEFAULT
340
0
102
{BLKREFS
102
}
0
BLOCK_RECORD
5
23E
330
243
100
AcDbSymbolTableRecord
100
AcDbBlockTableRecord
2
VDDIM_NONE
340
0
0
BLOCK_RECORD
5
F1000C
330
243
100
AcDbSymbolTableRecord
100
AcDbBlockTableRecord
2
*D5
340
0
0
BLOCK_RECORD
5
F10011
330
243
100
AcDbSymbolTableRecord
100
AcDbBlockTableRecord
2
*D6
340
0
0
BLOCK_RECORD
5
F10002
330
243
100
AcDbSymbolTableRecord
100
AcDbBlockTableRecord
2
*D3
340
0
0
BLOCK_RECORD
5
F10007
330
243
100
AcDbSymbolTableRecord
100
AcDbBlockTableRecord
2
*D4
340
0
0
ENDTAB
0
ENDSEC
0
SECTION
2
BLOCKS
0
BLOCK
5
262
330
261
100
AcDbEntity
8
0
100
AcDbBlockBegin
2
*Model_Space
70
0
10
0.0
20
0.0
30
0.0
3
*Model_Space
1

0
ENDBLK
5
263
330
261
100
AcDbEntity
8
0
100
AcDbBlockEnd
0
BLOCK
5
25E
330
25D
100
AcDbEntity
67
1
8
0
100
AcDbBlockBegin
2
*Paper_Space
70
0
10
0.0
20
0.0
30
0.0
3
*Paper_Space
1

0
ENDBLK
5
25F
330
25D
100
AcDbEntity
67
1
8
0
100
AcDbBlockEnd
0
BLOCK
5
266
330
265
100
AcDbEntity
8
0
100
AcDbBlockBegin
2
*Paper_Space0
70
0
10
0.0
20
0.0
30
0.0
3
*Paper_Space0
1

0
VIEWPORT
5
296
102
{ACAD_XDICTIONARY
360
58E
102
}
330
265
100
AcDbEntity
8
0
60
1
100
AcDbViewport
10
0.0
20
0.0
30
0.0
40
10.0
41
10.0
69
0
12
0.0
22
0.0
13
0.0
23
0.0
14
1.0
24
1.0
15
0.0
25
0.0
16
0.0
26
0.0
36
1.0
17
0.0
27
0.0
37
0.0
42
0.0
43
0.0
44
0.0
45
10.0
50
0.0
51
0.0000000000007958
72
100
90
163872
1

281
0
71
0
74
0
110
0.0
120
0.0
130
0.0
111
1.0
121
0.0
131
0.0
112
0.0
122
1.0
132
0.0
79
0
146
0.0
1001
VD_INVISIBLE_NOT_FOR_READ
1000
VD_INVISIBLE_NOT_FOR_READ
0
VIEWPORT
5
297
102
{ACAD_XDICTIONARY
360
590
102
}
330
265
100
AcDbEntity
8
0
60
1
100
AcDbViewport
10
0.0
20
0.0
30
0.0
40
10.0
41
10.0
69
0
12
0.0
22
0.0
13
0.0
23
0.0
14
1.0
24
1.0
15
0.0
25
0.0
16
0.0
26
0.0
36
1.0
17
0.0
27
0.0
37
0.0
42
0.0
43
0.0
44
0.0
45
10.0
50
0.0
51
0.0000000000007958
72
100
90
163872
1

281
0
71
0
74
0
110
0.0
120
0.0
130
0.0
111
1.0
121
0.0
131
0.0
112
0.0
122
1.0
132
0.0
79
0
146
0.0
1001
VD_INVISIBLE_NOT_FOR_READ
1000
VD_INVISIBLE_NOT_FOR_READ
0
ENDBLK
5
267
330
265
100
AcDbEntity
8
0
100
AcDbBlockEnd
0
BLOCK
5
28B
330
23C
100
AcDbEntity
8
0
100
AcDbBlockBegin
2
VDDIM_DEFAULT
70
0
10
0.0
20
0.0
30
0.0
3
VDDIM_DEFAULT
1

0
LWPOLYLINE
5
23D
330
23C
100
AcDbEntity
8
0
6
Continuous
62
0
100
AcDbPolyline
90
4
70
0
43
0.0
10
0.0
20
0.0
10
-1.0
20
-0.1665
10
-1.0
20
0.1665
10
0.0
20
0.0
1001
VDEXTRAPARAM
1071
1
1071
0
1071
0
1040
1.0
1000

1000

1040
0.0
1040
0.0
0
HATCH
5
292
330
23C
100
AcDbEntity
8
0
6
Continuous
62
0
100
AcDbHatch
10
0.0
20
0.0
30
0.0
210
0.0
220
0.0
230
1.0
2
SOLID
70
1
71
0
91
1
92
2
72
0
73
1
93
3
10
0.0
20
0.0
10
-1.0
20
-0.1665
10
-1.0
20
0.1665
97
0
75
0
76
1
98
1
10
0.0
20
0.0
1001
VDEXTRAPARAM
1071
1
1071
0
1071
0
1040
1.0
1000

1000

1040
0.0
1040
0.0
1001
VD_TEMPHATCH
1000
VD_TEMPHATCH
0
ENDBLK
5
28C
330
23C
100
AcDbEntity
8
0
100
AcDbBlockEnd
0
BLOCK
5
28D
330
23E
100
AcDbEntity
8
0
100
AcDbBlockBegin
2
VDDIM_NONE
70
0
10
0.0
20
0.0
30
0.0
3
VDDIM_NONE
1

0
ENDBLK
5
28E
330
23E
100
AcDbEntity
8
0
100
AcDbBlockEnd
  0
BLOCK
  5
F10016
330
F1000C
100
AcDbEntity
  8
0
100
AcDbBlockBegin
  2
*D5
 70
     1
 10
0.0
 20
0.0
 30
0.0
  3
*D5
  1

  0
LINE
  5
F10017
330
F1000C
100
AcDbEntity
  8
Bemassung
 62
     0
370
    -2
100
AcDbLine
10
-16.3057241977451
20
-0.0754553339115489
30
0.000000000000000
11
-16.3057241977451
21
-11.0754553339115
31
0.000000000000000
  0
LINE
  5
F10018
330
F1000C
100
AcDbEntity
  8
Bemassung
 62
     0
370
    -2
100
AcDbLine
10
-36.3057241977451
20
-11.0754553339115
30
0.000000000000000
11
-36.3057241977451
21
29.9245446660885
31
0.000000000000000
  0
LINE
  5
F10019
330
F1000C
100
AcDbEntity
  8
Bemassung
 62
     0
370
    -2
100
AcDbLine
10
-16.3057241977451
20
-9.07545533391155
30
0.000000000000000
11
-36.3057241977451
21
-9.07545533391155
31
0.000000000000000
  0
INSERT
  5
F1001A
330
F1000C
100
AcDbEntity
  8
Bemassung
 62
     0
370
    -2
100
AcDbBlockReference
  2
VDDIM_DEFAULT
10
-16.3057241977451
20
-9.07545533391155
30
0.000000000000000
 41
2.50000000000000
 42
2.50000000000000
 43
2.50000000000000
  0
INSERT
  5
F1001B
330
F1000C
100
AcDbEntity
  8
Bemassung
 62
     0
370
    -2
100
AcDbBlockReference
  2
VDDIM_DEFAULT
10
-36.3057241977451
20
-9.07545533391155
30
0.000000000000000
 41
2.50000000000000
 42
2.50000000000000
 43
2.50000000000000
 50
180.000000000000
  0
MTEXT
  5
F1001C
330
F1000C
100
AcDbEntity
  8
Bemassung
 62
     0
100
AcDbMText
10
-26.3057241977451
20
-8.40878866724488
30
0.000000000000000
 40
2.50000000000000
 41
0.0
 71
     8
 72
     1
  1
20
 11
1.00000000000000
 21
0.000000000000000
 31
0.0
 73
     1
 44
1.0
1001
ACAD
1000
MTEXTBEGIN
1070
73
1070
1
1070
44
1040
1.0
1070
74
1070
0
1000
MTEXTEND
  0
POINT
  5
F1001D
330
F1000C
100
AcDbEntity
  8
Bemassung
 62
     0
100
AcDbPoint
10
-16.3057241977451
20
-0.0754553339115489
30
0.000000000000000
  0
POINT
  5
F1001E
330
F1000C
100
AcDbEntity
  8
Bemassung
 62
     0
100
AcDbPoint
10
-36.3057241977451
20
-11.0754553339115
30
0.000000000000000
  0
ENDBLK
  5
F1001F
330
F1000C
100
AcDbEntity
  8
0
100
AcDbBlockEnd
  0
BLOCK
  5
F10020
330
F10011
100
AcDbEntity
  8
0
100
AcDbBlockBegin
  2
*D6
 70
     1
 10
0.0
 20
0.0
 30
0.0
  3
*D6
  1

  0
LINE
  5
F10021
330
F10011
100
AcDbEntity
  8
Bemassung
 62
     0
370
    -2
100
AcDbLine
10
46.6942758022549
20
16.9245446660885
30
0.000000000000000
11
46.6942758022549
21
29.9245446660885
31
0.000000000000000
  0
LINE
  5
F10022
330
F10011
100
AcDbEntity
  8
Bemassung
 62
     0
370
    -2
100
AcDbLine
10
-36.3057241977451
20
-11.0754553339115
30
0.000000000000000
11
-36.3057241977451
21
29.9245446660885
31
0.000000000000000
  0
LINE
  5
F10023
330
F10011
100
AcDbEntity
  8
Bemassung
 62
     0
370
    -2
100
AcDbLine
10
46.6942758022549
20
27.9245446660885
30
0.000000000000000
11
-36.3057241977451
21
27.9245446660885
31
0.000000000000000
  0
INSERT
  5
F10024
330
F10011
100
AcDbEntity
  8
Bemassung
 62
     0
370
    -2
100
AcDbBlockReference
  2
VDDIM_DEFAULT
10
46.6942758022549
20
27.9245446660885
30
0.000000000000000
 41
2.50000000000000
 42
2.50000000000000
 43
2.50000000000000
  0
INSERT
  5
F10025
330
F10011
100
AcDbEntity
  8
Bemassung
 62
     0
370
    -2
100
AcDbBlockReference
  2
VDDIM_DEFAULT
10
-36.3057241977451
20
27.9245446660885
30
0.000000000000000
 41
2.50000000000000
 42
2.50000000000000
 43
2.50000000000000
 50
180.000000000000
  0
MTEXT
  5
F10026
330
F10011
100
AcDbEntity
  8
Bemassung
 62
     0
100
AcDbMText
10
5.19427580225495
20
28.5912113327551
30
0.000000000000000
 40
2.50000000000000
 41
0.0
 71
     8
 72
     1
  1
83
 11
1.00000000000000
 21
0.000000000000000
 31
0.0
 73
     1
 44
1.0
1001
ACAD
1000
MTEXTBEGIN
1070
73
1070
1
1070
44
1040
1.0
1070
74
1070
0
1000
MTEXTEND
  0
POINT
  5
F10027
330
F10011
100
AcDbEntity
  8
Bemassung
 62
     0
100
AcDbPoint
10
46.6942758022549
20
16.9245446660885
30
0.000000000000000
  0
POINT
  5
F10028
330
F10011
100
AcDbEntity
  8
Bemassung
 62
     0
100
AcDbPoint
10
-36.3057241977451
20
-11.0754553339115
30
0.000000000000000
  0
ENDBLK
  5
F10029
330
F10011
100
AcDbEntity
  8
0
100
AcDbBlockEnd
  0
BLOCK
  5
F1002A
330
F10002
100
AcDbEntity
  8
0
100
AcDbBlockBegin
  2
*D3
 70
     1
 10
0.0
 20
0.0
 30
0.0
  3
*D3
  1

  0
LINE
  5
F1002B
330
F10002
100
AcDbEntity
  8
Bemassung
 62
     0
370
    -2
100
AcDbLine
10
-36.3057241977451
20
-0.0754553339115489
30
0.000000000000000
11
-48.3057241977451
21
-0.0754553339115489
31
0.000000000000000
  0
LINE
  5
F1002C
330
F10002
100
AcDbEntity
  8
Bemassung
 62
     0
370
    -2
100
AcDbLine
10
-36.3057241977451
20
17.9245446660885
30
0.000000000000000
11
-48.3057241977451
21
17.9245446660885
31
0.000000000000000
  0
LINE
  5
F1002D
330
F10002
100
AcDbEntity
  8
Bemassung
 62
     0
370
    -2
100
AcDbLine
10
-46.3057241977451
20
-0.0754553339115489
30
0.000000000000000
11
-46.3057241977451
21
17.9245446660885
31
0.000000000000000
  0
INSERT
  5
F1002E
330
F10002
100
AcDbEntity
  8
Bemassung
 62
     0
370
    -2
100
AcDbBlockReference
  2
VDDIM_DEFAULT
10
-46.3057241977451
20
-0.0754553339115489
30
0.000000000000000
 41
2.50000000000000
 42
2.50000000000000
 43
2.50000000000000
 50
270.000000000000
  0
INSERT
  5
F1002F
330
F10002
100
AcDbEntity
  8
Bemassung
 62
     0
370
    -2
100
AcDbBlockReference
  2
VDDIM_DEFAULT
10
-46.3057241977451
20
17.9245446660885
30
0.000000000000000
 41
2.50000000000000
 42
2.50000000000000
 43
2.50000000000000
 50
90.0000000000000
  0
MTEXT
  5
F10030
330
F10002
100
AcDbEntity
  8
Bemassung
 62
     0
100
AcDbMText
10
-46.9723908644117
20
8.92454466608845
30
0.000000000000000
 40
2.50000000000000
 41
0.0
 71
     8
 72
     1
  1
Ø18
 11
6.12323399573677e-17
 21
1.00000000000000
 31
0.0
 73
     1
 44
1.0
1001
ACAD
1000
MTEXTBEGIN
1070
73
1070
1
1070
44
1040
1.0
1070
74
1070
0
1000
MTEXTEND
  0
POINT
  5
F10031
330
F10002
100
AcDbEntity
  8
Bemassung
 62
     0
100
AcDbPoint
10
-36.3057241977451
20
-0.0754553339115489
30
0.000000000000000
  0
POINT
  5
F10032
330
F10002
100
AcDbEntity
  8
Bemassung
 62
     0
100
AcDbPoint
10
-36.3057241977451
20
17.9245446660885
30
0.000000000000000
  0
ENDBLK
  5
F10033
330
F10002
100
AcDbEntity
  8
0
100
AcDbBlockEnd
  0
BLOCK
  5
F10034
330
F10007
100
AcDbEntity
  8
0
100
AcDbBlockBegin
  2
*D4
 70
     1
 10
0.0
 20
0.0
 30
0.0
  3
*D4
  1

  0
LINE
  5
F10035
330
F10007
100
AcDbEntity
  8
Bemassung
 62
     0
370
    -2
100
AcDbLine
10
45.6942758022549
20
-0.0754553339115489
30
0.000000000000000
11
58.6942758022549
21
-0.0754553339115489
31
0.000000000000000
  0
LINE
  5
F10036
330
F10007
100
AcDbEntity
  8
Bemassung
 62
     0
370
    -2
100
AcDbLine
10
45.6942758022549
20
17.9245446660885
30
0.000000000000000
11
58.6942758022549
21
17.9245446660885
31
0.000000000000000
  0
LINE
  5
F10037
330
F10007
100
AcDbEntity
  8
Bemassung
 62
     0
370
    -2
100
AcDbLine
10
56.6942758022549
20
-0.0754553339115489
30
0.000000000000000
11
56.6942758022549
21
17.9245446660885
31
0.000000000000000
  0
INSERT
  5
F10038
330
F10007
100
AcDbEntity
  8
Bemassung
 62
     0
370
    -2
100
AcDbBlockReference
  2
VDDIM_DEFAULT
10
56.6942758022549
20
-0.0754553339115489
30
0.000000000000000
 41
2.50000000000000
 42
2.50000000000000
 43
2.50000000000000
 50
270.000000000000
  0
INSERT
  5
F10039
330
F10007
100
AcDbEntity
  8
Bemassung
 62
     0
370
    -2
100
AcDbBlockReference
  2
VDDIM_DEFAULT
10
56.6942758022549
20
17.9245446660885
30
0.000000000000000
 41
2.50000000000000
 42
2.50000000000000
 43
2.50000000000000
 50
90.0000000000000
  0
MTEXT
  5
F1003A
330
F10007
100
AcDbEntity
  8
Bemassung
 62
     0
100
AcDbMText
10
56.0276091355883
20
8.92454466608845
30
0.000000000000000
 40
2.50000000000000
 41
0.0
 71
     8
 72
     1
  1
Ø18h6
 11
6.12323399573677e-17
 21
1.00000000000000
 31
0.0
 73
     1
 44
1.0
  0
POINT
  5
F1003B
330
F10007
100
AcDbEntity
  8
Bemassung
 62
     0
100
AcDbPoint
10
45.6942758022549
20
-0.0754553339115489
30
0.000000000000000
  0
POINT
  5
F1003C
330
F10007
100
AcDbEntity
  8
Bemassung
 62
     0
100
AcDbPoint
10
45.6942758022549
20
17.9245446660885
30
0.000000000000000
  0
ENDBLK
  5
F1003D
330
F10007
100
AcDbEntity
  8
0
100
AcDbBlockEnd
0
ENDSEC
0
SECTION
2
ENTITIES
  0
DIMENSION
  5
F1000D
330
261
100
AcDbEntity
  8
Bemassung
100
AcDbDimension
  2
*D5
10
-36.3057241977451
20
-9.07545533391155
30
0.000000000000000
11
-26.3057241977451
21
-8.40878866724488
31
0.000000000000000
 70
32
 1
20
 71
     8
  3
BEM-ISBE
100
AcDbAlignedDimension
13
-16.3057241977451
23
-0.0754553339115489
33
0.000000000000000
14
-36.3057241977451
24
-11.0754553339115
34
0.000000000000000
100
AcDbRotatedDimension
1001
ACAD
1000
DSTYLE
1002
{
1070
284
1070
8
1070
78
1070
8
1070
144
1040
1.00000000000000
1070
147
1040
0.625
1070
 72
1070
 0
1070
 71
1070
 0
1002
}
  0
DIMENSION
  5
F10012
330
261
100
AcDbEntity
  8
Bemassung
100
AcDbDimension
  2
*D6
10
-36.3057241977451
20
27.9245446660885
30
0.000000000000000
11
5.19427580225495
21
28.5912113327551
31
0.000000000000000
 70
32
 1
83
 71
     8
  3
BEM-ISBE
100
AcDbAlignedDimension
13
46.6942758022549
23
16.9245446660885
33
0.000000000000000
14
-36.3057241977451
24
-11.0754553339115
34
0.000000000000000
100
AcDbRotatedDimension
1001
ACAD
1000
DSTYLE
1002
{
1070
284
1070
8
1070
78
1070
8
1070
144
1040
1.00000000000000
1070
147
1040
0.625
1070
 72
1070
 0
1070
 71
1070
 0
1002
}
  0
DIMENSION
  5
F10003
330
261
100
AcDbEntity
  8
Bemassung
100
AcDbDimension
  2
*D3
10
-46.3057241977451
20
17.9245446660885
30
0.000000000000000
11
-46.9723908644117
21
8.92454466608845
31
0.000000000000000
 70
32
 1
Ø18
 71
     8
  3
BEM-ISBE
100
AcDbAlignedDimension
13
-36.3057241977451
23
-0.0754553339115489
33
0.000000000000000
14
-36.3057241977451
24
17.9245446660885
34
0.000000000000000
50
90.0000000000000
100
AcDbRotatedDimension
1001
ACAD
1000
DSTYLE
1002
{
1070
284
1070
8
1070
78
1070
8
1070
144
1040
1.00000000000000
1070
147
1040
0.625
1070
 72
1070
 0
1070
 71
1070
 0
1002
}
  0
DIMENSION
  5
F10008
330
261
100
AcDbEntity
  8
Bemassung
100
AcDbDimension
  2
*D4
10
56.6942758022549
20
17.9245446660885
30
0.000000000000000
11
56.0276091355883
21
8.92454466608845
31
0.000000000000000
 70
32
 1
Ø18h6
 71
     8
  3
BEM-ISBE
100
AcDbAlignedDimension
13
45.6942758022549
23
-0.0754553339115489
33
0.000000000000000
14
45.6942758022549
24
17.9245446660885
34
0.000000000000000
50
90.0000000000000
100
AcDbRotatedDimension
1001
ACAD
1000
DSTYLE
1002
{
1070
284
1070
8
1070
78
1070
8
1070
144
1040
1.00000000000000
1070
147
1040
0.625
1070
 72
1070
 0
1070
 71
1070
 0
1002
}
  0
LINE
  5
F1003E
330
F1003F
100
AcDbEntity
8
Geo
100
AcDbLine
10
-36.3057241977451
20
8.92454466608845
30
0.000000000000000
11
-36.3057241977451
21
17.9245446660885
31
0.000000000000000
  0
LINE
  5
F10040
330
F10041
100
AcDbEntity
8
Geo
100
AcDbLine
10
-36.3057241977451
20
17.9245446660885
30
0.000000000000000
11
-16.3057241977451
21
17.9245446660885
31
0.000000000000000
  0
LINE
  5
F10042
330
F10043
100
AcDbEntity
8
Geo
100
AcDbLine
10
-16.3057241977451
20
17.9245446660885
30
0.000000000000000
11
45.6942758022549
21
17.9245446660885
31
0.000000000000000
  0
LINE
  5
F10044
330
F10045
100
AcDbEntity
8
Geo
100
AcDbLine
10
45.6942758022549
20
17.9245446660885
30
0.000000000000000
11
46.6942758022549
21
16.9245446660885
31
0.000000000000000
  0
LINE
  5
F10046
330
F10047
100
AcDbEntity
8
Geo
100
AcDbLine
10
-36.3057241977451
20
17.9245446660885
30
0.000000000000000
11
-36.2057241977450
21
17.9239891162485
31
0.000000000000000
  0
LINE
  5
F10048
330
F10049
100
AcDbEntity
8
Geo
100
AcDbLine
10
-36.2057241977450
20
17.9239891162485
30
0.000000000000000
11
-36.1057241977450
21
17.9223225353142
31
0.000000000000000
  0
LINE
  5
F1004A
330
F1004B
100
AcDbEntity
8
Geo
100
AcDbLine
10
-36.1057241977450
20
17.9223225353142
30
0.000000000000000
11
-36.0057241977451
21
17.9195451290343
31
0.000000000000000
  0
LINE
  5
F1004C
330
F1004D
100
AcDbEntity
8
Geo
100
AcDbLine
10
-36.0057241977451
20
17.9195451290343
30
0.000000000000000
11
-35.9057241977451
21
17.9156572402948
31
0.000000000000000
  0
LINE
  5
F1004E
330
F1004F
100
AcDbEntity
8
Geo
100
AcDbLine
10
-35.9057241977451
20
17.9156572402948
30
0.000000000000000
11
-35.8057241977451
21
17.9106593490772
31
0.000000000000000
  0
LINE
  5
F10050
330
F10051
100
AcDbEntity
8
Geo
100
AcDbLine
10
-35.8057241977451
20
17.9106593490772
30
0.000000000000000
11
-35.7057241977450
21
17.9045520723986
31
0.000000000000000
  0
LINE
  5
F10052
330
F10053
100
AcDbEntity
8
Geo
100
AcDbLine
10
-35.7057241977450
20
17.9045520723986
30
0.000000000000000
11
-35.6057241977450
21
17.8973361642360
31
0.000000000000000
  0
LINE
  5
F10054
330
F10055
100
AcDbEntity
8
Geo
100
AcDbLine
10
-35.6057241977450
20
17.8973361642360
30
0.000000000000000
11
-35.5057241977451
21
17.8890125154333
31
0.000000000000000
  0
LINE
  5
F10056
330
F10057
100
AcDbEntity
8
Geo
100
AcDbLine
10
-35.5057241977451
20
17.8890125154333
30
0.000000000000000
11
-35.4057241977451
21
17.8795821535907
31
0.000000000000000
  0
LINE
  5
F10058
330
F10059
100
AcDbEntity
8
Geo
100
AcDbLine
10
-35.4057241977451
20
17.8795821535907
30
0.000000000000000
11
-35.3057241977451
21
17.8690462429385
31
0.000000000000000
  0
LINE
  5
F1005A
330
F1005B
100
AcDbEntity
8
Geo
100
AcDbLine
10
-35.3057241977451
20
17.8690462429385
30
0.000000000000000
11
-35.2057241977450
21
17.8574060841930
31
0.000000000000000
  0
LINE
  5
F1005C
330
F1005D
100
AcDbEntity
8
Geo
100
AcDbLine
10
-35.2057241977450
20
17.8574060841930
30
0.000000000000000
11
-35.1057241977450
21
17.8446631143961
31
0.000000000000000
  0
LINE
  5
F1005E
330
F1005F
100
AcDbEntity
8
Geo
100
AcDbLine
10
-35.1057241977450
20
17.8446631143961
30
0.000000000000000
11
-35.0057241977451
21
17.8308189067377
31
0.000000000000000
  0
LINE
  5
F10060
330
F10061
100
AcDbEntity
8
Geo
100
AcDbLine
10
-35.0057241977451
20
17.8308189067377
30
0.000000000000000
11
-34.9057241977451
21
17.8158751703617
31
0.000000000000000
  0
LINE
  5
F10062
330
F10063
100
AcDbEntity
8
Geo
100
AcDbLine
10
-34.9057241977451
20
17.8158751703617
30
0.000000000000000
11
-34.8057241977451
21
17.7998337501548
31
0.000000000000000
  0
LINE
  5
F10064
330
F10065
100
AcDbEntity
8
Geo
100
AcDbLine
10
-34.8057241977451
20
17.7998337501548
30
0.000000000000000
11
-34.7057241977450
21
17.7826966265189
31
0.000000000000000
  0
LINE
  5
F10066
330
F10067
100
AcDbEntity
8
Geo
100
AcDbLine
10
-34.7057241977450
20
17.7826966265189
30
0.000000000000000
11
-34.6057241977450
21
17.7644659151265
31
0.000000000000000
  0
LINE
  5
F10068
330
F10069
100
AcDbEntity
8
Geo
100
AcDbLine
10
-34.6057241977450
20
17.7644659151265
30
0.000000000000000
11
-34.5057241977451
21
17.7451438666596
31
0.000000000000000
  0
LINE
  5
F1006A
330
F1006B
100
AcDbEntity
8
Geo
100
AcDbLine
10
-34.5057241977451
20
17.7451438666596
30
0.000000000000000
11
-34.4057241977451
21
17.7247328665317
31
0.000000000000000
  0
LINE
  5
F1006C
330
F1006D
100
AcDbEntity
8
Geo
100
AcDbLine
10
-34.4057241977451
20
17.7247328665317
30
0.000000000000000
11
-34.3057241977451
21
17.7032354345935
31
0.000000000000000
  0
LINE
  5
F1006E
330
F1006F
100
AcDbEntity
8
Geo
100
AcDbLine
10
-34.3057241977451
20
17.7032354345935
30
0.000000000000000
11
-34.2057241977450
21
17.6806542248215
31
0.000000000000000
  0
LINE
  5
F10070
330
F10071
100
AcDbEntity
8
Geo
100
AcDbLine
10
-34.2057241977450
20
17.6806542248215
30
0.000000000000000
11
-34.1057241977450
21
17.6569920249908
31
0.000000000000000
  0
LINE
  5
F10072
330
F10073
100
AcDbEntity
8
Geo
100
AcDbLine
10
-34.1057241977450
20
17.6569920249908
30
0.000000000000000
11
-34.0057241977451
21
17.6322517563306
31
0.000000000000000
  0
LINE
  5
F10074
330
F10075
100
AcDbEntity
8
Geo
100
AcDbLine
10
-34.0057241977451
20
17.6322517563306
30
0.000000000000000
11
-33.9057241977451
21
17.6064364731635
31
0.000000000000000
  0
LINE
  5
F10076
330
F10077
100
AcDbEntity
8
Geo
100
AcDbLine
10
-33.9057241977451
20
17.6064364731635
30
0.000000000000000
11
-33.8057241977451
21
17.5795493625289
31
0.000000000000000
  0
LINE
  5
F10078
330
F10079
100
AcDbEntity
8
Geo
100
AcDbLine
10
-33.8057241977451
20
17.5795493625289
30
0.000000000000000
11
-33.7057241977450
21
17.5515937437889
31
0.000000000000000
  0
LINE
  5
F1007A
330
F1007B
100
AcDbEntity
8
Geo
100
AcDbLine
10
-33.7057241977450
20
17.5515937437889
30
0.000000000000000
11
-33.6057241977450
21
17.5225730682189
31
0.000000000000000
  0
LINE
  5
F1007C
330
F1007D
100
AcDbEntity
8
Geo
100
AcDbLine
10
-33.6057241977450
20
17.5225730682189
30
0.000000000000000
11
-33.5057241977450
21
17.4924909185816
31
0.000000000000000
  0
LINE
  5
F1007E
330
F1007F
100
AcDbEntity
8
Geo
100
AcDbLine
10
-33.5057241977450
20
17.4924909185816
30
0.000000000000000
11
-33.4057241977451
21
17.4613510086844
31
0.000000000000000
  0
LINE
  5
F10080
330
F10081
100
AcDbEntity
8
Geo
100
AcDbLine
10
-33.4057241977451
20
17.4613510086844
30
0.000000000000000
11
-33.3057241977451
21
17.4291571829211
31
0.000000000000000
  0
LINE
  5
F10082
330
F10083
100
AcDbEntity
8
Geo
100
AcDbLine
10
-33.3057241977451
20
17.4291571829211
30
0.000000000000000
11
-33.2057241977450
21
17.3959134157971
31
0.000000000000000
  0
LINE
  5
F10084
330
F10085
100
AcDbEntity
8
Geo
100
AcDbLine
10
-33.2057241977450
20
17.3959134157971
30
0.000000000000000
11
-33.1057241977450
21
17.3616238114391
31
0.000000000000000
  0
LINE
  5
F10086
330
F10087
100
AcDbEntity
8
Geo
100
AcDbLine
10
-33.1057241977450
20
17.3616238114391
30
0.000000000000000
11
-33.0057241977450
21
17.3262926030879
31
0.000000000000000
  0
LINE
  5
F10088
330
F10089
100
AcDbEntity
8
Geo
100
AcDbLine
10
-33.0057241977450
20
17.3262926030879
30
0.000000000000000
11
-32.9057241977451
21
17.2899241525762
31
0.000000000000000
  0
LINE
  5
F1008A
330
F1008B
100
AcDbEntity
8
Geo
100
AcDbLine
10
-32.9057241977451
20
17.2899241525762
30
0.000000000000000
11
-32.8057241977451
21
17.2525229497901
31
0.000000000000000
  0
LINE
  5
F1008C
330
F1008D
100
AcDbEntity
8
Geo
100
AcDbLine
10
-32.8057241977451
20
17.2525229497901
30
0.000000000000000
11
-32.7057241977450
21
17.2140936121144
31
0.000000000000000
  0
LINE
  5
F1008E
330
F1008F
100
AcDbEntity
8
Geo
100
AcDbLine
10
-32.7057241977450
20
17.2140936121144
30
0.000000000000000
11
-32.6057241977450
21
17.1746408838631
31
0.000000000000000
  0
LINE
  5
F10090
330
F10091
100
AcDbEntity
8
Geo
100
AcDbLine
10
-32.6057241977450
20
17.1746408838631
30
0.000000000000000
11
-32.5057241977450
21
17.1341696356931
31
0.000000000000000
  0
LINE
  5
F10092
330
F10093
100
AcDbEntity
8
Geo
100
AcDbLine
10
-32.5057241977450
20
17.1341696356931
30
0.000000000000000
11
-32.4057241977450
21
17.0926848640036
31
0.000000000000000
  0
LINE
  5
F10094
330
F10095
100
AcDbEntity
8
Geo
100
AcDbLine
10
-32.4057241977450
20
17.0926848640036
30
0.000000000000000
11
-32.3057241977451
21
17.0501916903185
31
0.000000000000000
  0
LINE
  5
F10096
330
F10097
100
AcDbEntity
8
Geo
100
AcDbLine
10
-32.3057241977451
20
17.0501916903185
30
0.000000000000000
11
-32.2057241977450
21
17.0066953606548
31
0.000000000000000
  0
LINE
  5
F10098
330
F10099
100
AcDbEntity
8
Geo
100
AcDbLine
10
-32.2057241977450
20
17.0066953606548
30
0.000000000000000
11
-32.1057241977450
21
16.9622012448743
31
0.000000000000000
  0
LINE
  5
F1009A
330
F1009B
100
AcDbEntity
8
Geo
100
AcDbLine
10
-32.1057241977450
20
16.9622012448743
30
0.000000000000000
11
-32.0057241977451
21
16.9167148360214
31
0.000000000000000
  0
LINE
  5
F1009C
330
F1009D
100
AcDbEntity
8
Geo
100
AcDbLine
10
-32.0057241977451
20
16.9167148360214
30
0.000000000000000
11
-31.9057241977451
21
16.8702417496442
31
0.000000000000000
  0
LINE
  5
F1009E
330
F1009F
100
AcDbEntity
8
Geo
100
AcDbLine
10
-31.9057241977451
20
16.8702417496442
30
0.000000000000000
11
-31.8057241977451
21
16.8227877231018
31
0.000000000000000
  0
LINE
  5
F100A0
330
F100A1
100
AcDbEntity
8
Geo
100
AcDbLine
10
-31.8057241977451
20
16.8227877231018
30
0.000000000000000
11
-31.7057241977450
21
16.7743586148558
31
0.000000000000000
  0
LINE
  5
F100A2
330
F100A3
100
AcDbEntity
8
Geo
100
AcDbLine
10
-31.7057241977450
20
16.7743586148558
30
0.000000000000000
11
-31.6057241977451
21
16.7249604037468
31
0.000000000000000
  0
LINE
  5
F100A4
330
F100A5
100
AcDbEntity
8
Geo
100
AcDbLine
10
-31.6057241977451
20
16.7249604037468
30
0.000000000000000
11
-31.5057241977451
21
16.6745991882567
31
0.000000000000000
  0
LINE
  5
F100A6
330
F100A7
100
AcDbEntity
8
Geo
100
AcDbLine
10
-31.5057241977451
20
16.6745991882567
30
0.000000000000000
11
-31.4057241977451
21
16.6232811857557
31
0.000000000000000
  0
LINE
  5
F100A8
330
F100A9
100
AcDbEntity
8
Geo
100
AcDbLine
10
-31.4057241977451
20
16.6232811857557
30
0.000000000000000
11
-31.3057241977451
21
16.5710127317342
31
0.000000000000000
  0
LINE
  5
F100AA
330
F100AB
100
AcDbEntity
8
Geo
100
AcDbLine
10
-31.3057241977451
20
16.5710127317342
30
0.000000000000000
11
-31.2057241977451
21
16.5178002790216
31
0.000000000000000
  0
LINE
  5
F100AC
330
F100AD
100
AcDbEntity
8
Geo
100
AcDbLine
10
-31.2057241977451
20
16.5178002790216
30
0.000000000000000
11
-31.1057241977451
21
16.4636503969888
31
0.000000000000000
  0
LINE
  5
F100AE
330
F100AF
100
AcDbEntity
8
Geo
100
AcDbLine
10
-31.1057241977451
20
16.4636503969888
30
0.000000000000000
11
-31.0057241977451
21
16.4085697707376
31
0.000000000000000
  0
LINE
  5
F100B0
330
F100B1
100
AcDbEntity
8
Geo
100
AcDbLine
10
-31.0057241977451
20
16.4085697707376
30
0.000000000000000
11
-30.9057241977451
21
16.3525652002756
31
0.000000000000000
  0
LINE
  5
F100B2
330
F100B3
100
AcDbEntity
8
Geo
100
AcDbLine
10
-30.9057241977451
20
16.3525652002756
30
0.000000000000000
11
-30.8057241977451
21
16.2956435996759
31
0.000000000000000
  0
LINE
  5
F100B4
330
F100B5
100
AcDbEntity
8
Geo
100
AcDbLine
10
-30.8057241977451
20
16.2956435996759
30
0.000000000000000
11
-30.7057241977451
21
16.2378119962244
31
0.000000000000000
  0
LINE
  5
F100B6
330
F100B7
100
AcDbEntity
8
Geo
100
AcDbLine
10
-30.7057241977451
20
16.2378119962244
30
0.000000000000000
11
-30.6057241977451
21
16.1790775295518
31
0.000000000000000
  0
LINE
  5
F100B8
330
F100B9
100
AcDbEntity
8
Geo
100
AcDbLine
10
-30.6057241977451
20
16.1790775295518
30
0.000000000000000
11
-30.5057241977451
21
16.1194474507522
31
0.000000000000000
  0
LINE
  5
F100BA
330
F100BB
100
AcDbEntity
8
Geo
100
AcDbLine
10
-30.5057241977451
20
16.1194474507522
30
0.000000000000000
11
-30.4057241977451
21
16.0589291214880
31
0.000000000000000
  0
LINE
  5
F100BC
330
F100BD
100
AcDbEntity
8
Geo
100
AcDbLine
10
-30.4057241977451
20
16.0589291214880
30
0.000000000000000
11
-30.3057241977451
21
15.9975300130810
31
0.000000000000000
  0
LINE
  5
F100BE
330
F100BF
100
AcDbEntity
8
Geo
100
AcDbLine
10
-30.3057241977451
20
15.9975300130810
30
0.000000000000000
11
-30.2057241977451
21
15.9352577055900
31
0.000000000000000
  0
LINE
  5
F100C0
330
F100C1
100
AcDbEntity
8
Geo
100
AcDbLine
10
-30.2057241977451
20
15.9352577055900
30
0.000000000000000
11
-30.1057241977451
21
15.8721198868752
31
0.000000000000000
  0
LINE
  5
F100C2
330
F100C3
100
AcDbEntity
8
Geo
100
AcDbLine
10
-30.1057241977451
20
15.8721198868752
30
0.000000000000000
11
-30.0057241977451
21
15.8081243516489
31
0.000000000000000
  0
LINE
  5
F100C4
330
F100C5
100
AcDbEntity
8
Geo
100
AcDbLine
10
-30.0057241977451
20
15.8081243516489
30
0.000000000000000
11
-29.9057241977451
21
15.7432790005129
31
0.000000000000000
  0
LINE
  5
F100C6
330
F100C7
100
AcDbEntity
8
Geo
100
AcDbLine
10
-29.9057241977451
20
15.7432790005129
30
0.000000000000000
11
-29.8057241977451
21
15.6775918389840
31
0.000000000000000
  0
LINE
  5
F100C8
330
F100C9
100
AcDbEntity
8
Geo
100
AcDbLine
10
-29.8057241977451
20
15.6775918389840
30
0.000000000000000
11
-29.7057241977451
21
15.6110709765049
31
0.000000000000000
  0
LINE
  5
F100CA
330
F100CB
100
AcDbEntity
8
Geo
100
AcDbLine
10
-29.7057241977451
20
15.6110709765049
30
0.000000000000000
11
-29.6057241977451
21
15.5437246254430
31
0.000000000000000
  0
LINE
  5
F100CC
330
F100CD
100
AcDbEntity
8
Geo
100
AcDbLine
10
-29.6057241977451
20
15.5437246254430
30
0.000000000000000
11
-29.5057241977451
21
15.4755611000774
31
0.000000000000000
  0
LINE
  5
F100CE
330
F100CF
100
AcDbEntity
8
Geo
100
AcDbLine
10
-29.5057241977451
20
15.4755611000774
30
0.000000000000000
11
-29.4057241977451
21
15.4065888155714
31
0.000000000000000
  0
LINE
  5
F100D0
330
F100D1
100
AcDbEntity
8
Geo
100
AcDbLine
10
-29.4057241977451
20
15.4065888155714
30
0.000000000000000
11
-29.3057241977451
21
15.3368162869342
31
0.000000000000000
  0
LINE
  5
F100D2
330
F100D3
100
AcDbEntity
8
Geo
100
AcDbLine
10
-29.3057241977451
20
15.3368162869342
30
0.000000000000000
11
-29.2057241977451
21
15.2662521279698
31
0.000000000000000
  0
LINE
  5
F100D4
330
F100D5
100
AcDbEntity
8
Geo
100
AcDbLine
10
-29.2057241977451
20
15.2662521279698
30
0.000000000000000
11
-29.1057241977451
21
15.1949050502129
31
0.000000000000000
  0
LINE
  5
F100D6
330
F100D7
100
AcDbEntity
8
Geo
100
AcDbLine
10
-29.1057241977451
20
15.1949050502129
30
0.000000000000000
11
-29.0057241977451
21
15.1227838618543
31
0.000000000000000
  0
LINE
  5
F100D8
330
F100D9
100
AcDbEntity
8
Geo
100
AcDbLine
10
-29.0057241977451
20
15.1227838618543
30
0.000000000000000
11
-28.9057241977451
21
15.0498974666527
31
0.000000000000000
  0
LINE
  5
F100DA
330
F100DB
100
AcDbEntity
8
Geo
100
AcDbLine
10
-28.9057241977451
20
15.0498974666527
30
0.000000000000000
11
-28.8057241977451
21
14.9762548628360
31
0.000000000000000
  0
LINE
  5
F100DC
330
F100DD
100
AcDbEntity
8
Geo
100
AcDbLine
10
-28.8057241977451
20
14.9762548628360
30
0.000000000000000
11
-28.7057241977451
21
14.9018651419900
31
0.000000000000000
  0
LINE
  5
F100DE
330
F100DF
100
AcDbEntity
8
Geo
100
AcDbLine
10
-28.7057241977451
20
14.9018651419900
30
0.000000000000000
11
-28.6057241977451
21
14.8267374879365
31
0.000000000000000
  0
LINE
  5
F100E0
330
F100E1
100
AcDbEntity
8
Geo
100
AcDbLine
10
-28.6057241977451
20
14.8267374879365
30
0.000000000000000
11
-28.5057241977451
21
14.7508811755990
31
0.000000000000000
  0
LINE
  5
F100E2
330
F100E3
100
AcDbEntity
8
Geo
100
AcDbLine
10
-28.5057241977451
20
14.7508811755990
30
0.000000000000000
11
-28.4057241977451
21
14.6743055698581
31
0.000000000000000
  0
LINE
  5
F100E4
330
F100E5
100
AcDbEntity
8
Geo
100
AcDbLine
10
-28.4057241977451
20
14.6743055698581
30
0.000000000000000
11
-28.3057241977451
21
14.5970201243950
31
0.000000000000000
  0
LINE
  5
F100E6
330
F100E7
100
AcDbEntity
8
Geo
100
AcDbLine
10
-28.3057241977451
20
14.5970201243950
30
0.000000000000000
11
-28.2057241977451
21
14.5190343805244
31
0.000000000000000
  0
LINE
  5
F100E8
330
F100E9
100
AcDbEntity
8
Geo
100
AcDbLine
10
-28.2057241977451
20
14.5190343805244
30
0.000000000000000
11
-28.1057241977451
21
14.4403579660171
31
0.000000000000000
  0
LINE
  5
F100EA
330
F100EB
100
AcDbEntity
8
Geo
100
AcDbLine
10
-28.1057241977451
20
14.4403579660171
30
0.000000000000000
11
-28.0057241977451
21
14.3610005939106
31
0.000000000000000
  0
LINE
  5
F100EC
330
F100ED
100
AcDbEntity
8
Geo
100
AcDbLine
10
-28.0057241977451
20
14.3610005939106
30
0.000000000000000
11
-27.9057241977451
21
14.2809720613106
31
0.000000000000000
  0
LINE
  5
F100EE
330
F100EF
100
AcDbEntity
8
Geo
100
AcDbLine
10
-27.9057241977451
20
14.2809720613106
30
0.000000000000000
11
-27.8057241977451
21
14.2002822481812
31
0.000000000000000
  0
LINE
  5
F100F0
330
F100F1
100
AcDbEntity
8
Geo
100
AcDbLine
10
-27.8057241977451
20
14.2002822481812
30
0.000000000000000
11
-27.7057241977451
21
14.1189411161252
31
0.000000000000000
  0
LINE
  5
F100F2
330
F100F3
100
AcDbEntity
8
Geo
100
AcDbLine
10
-27.7057241977451
20
14.1189411161252
30
0.000000000000000
11
-27.6057241977451
21
14.0369587071545
31
0.000000000000000
  0
LINE
  5
F100F4
330
F100F5
100
AcDbEntity
8
Geo
100
AcDbLine
10
-27.6057241977451
20
14.0369587071545
30
0.000000000000000
11
-27.5057241977451
21
13.9543451424498
31
0.000000000000000
  0
LINE
  5
F100F6
330
F100F7
100
AcDbEntity
8
Geo
100
AcDbLine
10
-27.5057241977451
20
13.9543451424498
30
0.000000000000000
11
-27.4057241977451
21
13.8711106211118
31
0.000000000000000
  0
LINE
  5
F100F8
330
F100F9
100
AcDbEntity
8
Geo
100
AcDbLine
10
-27.4057241977451
20
13.8711106211118
30
0.000000000000000
11
-27.3057241977451
21
13.7872654189017
31
0.000000000000000
  0
LINE
  5
F100FA
330
F100FB
100
AcDbEntity
8
Geo
100
AcDbLine
10
-27.3057241977451
20
13.7872654189017
30
0.000000000000000
11
-27.2057241977451
21
13.7028198869725
31
0.000000000000000
  0
LINE
  5
F100FC
330
F100FD
100
AcDbEntity
8
Geo
100
AcDbLine
10
-27.2057241977451
20
13.7028198869725
30
0.000000000000000
11
-27.1057241977451
21
13.6177844505911
31
0.000000000000000
  0
LINE
  5
F100FE
330
F100FF
100
AcDbEntity
8
Geo
100
AcDbLine
10
-27.1057241977451
20
13.6177844505911
30
0.000000000000000
11
-27.0057241977451
21
13.5321696078517
31
0.000000000000000
  0
LINE
  5
F10100
330
F10101
100
AcDbEntity
8
Geo
100
AcDbLine
10
-27.0057241977451
20
13.5321696078517
30
0.000000000000000
11
-26.9057241977451
21
13.4459859283791
31
0.000000000000000
  0
LINE
  5
F10102
330
F10103
100
AcDbEntity
8
Geo
100
AcDbLine
10
-26.9057241977451
20
13.4459859283791
30
0.000000000000000
11
-26.8057241977451
21
13.3592440520244
31
0.000000000000000
  0
LINE
  5
F10104
330
F10105
100
AcDbEntity
8
Geo
100
AcDbLine
10
-26.8057241977451
20
13.3592440520244
30
0.000000000000000
11
-26.7057241977451
21
13.2719546875510
31
0.000000000000000
  0
LINE
  5
F10106
330
F10107
100
AcDbEntity
8
Geo
100
AcDbLine
10
-26.7057241977451
20
13.2719546875510
30
0.000000000000000
11
-26.6057241977451
21
13.1841286113127
31
0.000000000000000
  0
LINE
  5
F10108
330
F10109
100
AcDbEntity
8
Geo
100
AcDbLine
10
-26.6057241977451
20
13.1841286113127
30
0.000000000000000
11
-26.5057241977451
21
13.0957766659235
31
0.000000000000000
  0
LINE
  5
F1010A
330
F1010B
100
AcDbEntity
8
Geo
100
AcDbLine
10
-26.5057241977451
20
13.0957766659235
30
0.000000000000000
11
-26.4057241977451
21
13.0069097589187
31
0.000000000000000
  0
LINE
  5
F1010C
330
F1010D
100
AcDbEntity
8
Geo
100
AcDbLine
10
-26.4057241977451
20
13.0069097589187
30
0.000000000000000
11
-26.3057241977451
21
12.9175388614085
31
0.000000000000000
  0
LINE
  5
F1010E
330
F1010F
100
AcDbEntity
8
Geo
100
AcDbLine
10
-26.3057241977451
20
12.9175388614085
30
0.000000000000000
11
-26.2057241977451
21
12.8276750067237
31
0.000000000000000
  0
LINE
  5
F10110
330
F10111
100
AcDbEntity
8
Geo
100
AcDbLine
10
-26.2057241977451
20
12.8276750067237
30
0.000000000000000
11
-26.1057241977451
21
12.7373292890530
31
0.000000000000000
  0
LINE
  5
F10112
330
F10113
100
AcDbEntity
8
Geo
100
AcDbLine
10
-26.1057241977451
20
12.7373292890530
30
0.000000000000000
11
-26.0057241977451
21
12.6465128620740
31
0.000000000000000
  0
LINE
  5
F10114
330
F10115
100
AcDbEntity
8
Geo
100
AcDbLine
10
-26.0057241977451
20
12.6465128620740
30
0.000000000000000
11
-25.9057241977451
21
12.5552369375760
31
0.000000000000000
  0
LINE
  5
F10116
330
F10117
100
AcDbEntity
8
Geo
100
AcDbLine
10
-25.9057241977451
20
12.5552369375760
30
0.000000000000000
11
-25.8057241977451
21
12.4635127840757
31
0.000000000000000
  0
LINE
  5
F10118
330
F10119
100
AcDbEntity
8
Geo
100
AcDbLine
10
-25.8057241977451
20
12.4635127840757
30
0.000000000000000
11
-25.7057241977451
21
12.3713517254261
31
0.000000000000000
  0
LINE
  5
F1011A
330
F1011B
100
AcDbEntity
8
Geo
100
AcDbLine
10
-25.7057241977451
20
12.3713517254261
30
0.000000000000000
11
-25.6057241977451
21
12.2787651394187
31
0.000000000000000
  0
LINE
  5
F1011C
330
F1011D
100
AcDbEntity
8
Geo
100
AcDbLine
10
-25.6057241977451
20
12.2787651394187
30
0.000000000000000
11
-25.5057241977451
21
12.1857644563785
31
0.000000000000000
  0
LINE
  5
F1011E
330
F1011F
100
AcDbEntity
8
Geo
100
AcDbLine
10
-25.5057241977451
20
12.1857644563785
30
0.000000000000000
11
-25.4057241977451
21
12.0923611577534
31
0.000000000000000
  0
LINE
  5
F10120
330
F10121
100
AcDbEntity
8
Geo
100
AcDbLine
10
-25.4057241977451
20
12.0923611577534
30
0.000000000000000
11
-25.3057241977451
21
11.9985667746959
31
0.000000000000000
  0
LINE
  5
F10122
330
F10123
100
AcDbEntity
8
Geo
100
AcDbLine
10
-25.3057241977451
20
11.9985667746959
30
0.000000000000000
11
-25.2057241977451
21
11.9043928866406
31
0.000000000000000
  0
LINE
  5
F10124
330
F10125
100
AcDbEntity
8
Geo
100
AcDbLine
10
-25.2057241977451
20
11.9043928866406
30
0.000000000000000
11
-25.1057241977451
21
11.8098511198737
31
0.000000000000000
  0
LINE
  5
F10126
330
F10127
100
AcDbEntity
8
Geo
100
AcDbLine
10
-25.1057241977451
20
11.8098511198737
30
0.000000000000000
11
-25.0057241977451
21
11.7149531460982
31
0.000000000000000
  0
LINE
  5
F10128
330
F10129
100
AcDbEntity
8
Geo
100
AcDbLine
10
-25.0057241977451
20
11.7149531460982
30
0.000000000000000
11
-24.9057241977451
21
11.6197106809928
31
0.000000000000000
  0
LINE
  5
F1012A
330
F1012B
100
AcDbEntity
8
Geo
100
AcDbLine
10
-24.9057241977451
20
11.6197106809928
30
0.000000000000000
11
-24.8057241977451
21
11.5241354827656
31
0.000000000000000
  0
LINE
  5
F1012C
330
F1012D
100
AcDbEntity
8
Geo
100
AcDbLine
10
-24.8057241977451
20
11.5241354827656
30
0.000000000000000
11
-24.7057241977451
21
11.4282393507023
31
0.000000000000000
  0
LINE
  5
F1012E
330
F1012F
100
AcDbEntity
8
Geo
100
AcDbLine
10
-24.7057241977451
20
11.4282393507023
30
0.000000000000000
11
-24.6057241977451
21
11.3320341237098
31
0.000000000000000
  0
LINE
  5
F10130
330
F10131
100
AcDbEntity
8
Geo
100
AcDbLine
10
-24.6057241977451
20
11.3320341237098
30
0.000000000000000
11
-24.5057241977451
21
11.2355316788544
31
0.000000000000000
  0
LINE
  5
F10132
330
F10133
100
AcDbEntity
8
Geo
100
AcDbLine
10
-24.5057241977451
20
11.2355316788544
30
0.000000000000000
11
-24.4057241977451
21
11.1387439298956
31
0.000000000000000
  0
LINE
  5
F10134
330
F10135
100
AcDbEntity
8
Geo
100
AcDbLine
10
-24.4057241977451
20
11.1387439298956
30
0.000000000000000
11
-24.3057241977451
21
11.0416828258154
31
0.000000000000000
  0
LINE
  5
F10136
330
F10137
100
AcDbEntity
8
Geo
100
AcDbLine
10
-24.3057241977451
20
11.0416828258154
30
0.000000000000000
11
-24.2057241977451
21
10.9443603493427
31
0.000000000000000
  0
LINE
  5
F10138
330
F10139
100
AcDbEntity
8
Geo
100
AcDbLine
10
-24.2057241977451
20
10.9443603493427
30
0.000000000000000
11
-24.1057241977451
21
10.8467885154746
31
0.000000000000000
  0
LINE
  5
F1013A
330
F1013B
100
AcDbEntity
8
Geo
100
AcDbLine
10
-24.1057241977451
20
10.8467885154746
30
0.000000000000000
11
-24.0057241977451
21
10.7489793699925
31
0.000000000000000
  0
LINE
  5
F1013C
330
F1013D
100
AcDbEntity
8
Geo
100
AcDbLine
10
-24.0057241977451
20
10.7489793699925
30
0.000000000000000
11
-23.9057241977451
21
10.6509449879753
31
0.000000000000000
  0
LINE
  5
F1013E
330
F1013F
100
AcDbEntity
8
Geo
100
AcDbLine
10
-23.9057241977451
20
10.6509449879753
30
0.000000000000000
11
-23.8057241977451
21
10.5526974723086
31
0.000000000000000
  0
LINE
  5
F10140
330
F10141
100
AcDbEntity
8
Geo
100
AcDbLine
10
-23.8057241977451
20
10.5526974723086
30
0.000000000000000
11
-23.7057241977451
21
10.4542489521906
31
0.000000000000000
  0
LINE
  5
F10142
330
F10143
100
AcDbEntity
8
Geo
100
AcDbLine
10
-23.7057241977451
20
10.4542489521906
30
0.000000000000000
11
-23.6057241977451
21
10.3556115816346
31
0.000000000000000
  0
LINE
  5
F10144
330
F10145
100
AcDbEntity
8
Geo
100
AcDbLine
10
-23.6057241977451
20
10.3556115816346
30
0.000000000000000
11
-23.5057241977451
21
10.2567975379683
31
0.000000000000000
  0
LINE
  5
F10146
330
F10147
100
AcDbEntity
8
Geo
100
AcDbLine
10
-23.5057241977451
20
10.2567975379683
30
0.000000000000000
11
-23.4057241977451
21
10.1578190203310
31
0.000000000000000
  0
LINE
  5
F10148
330
F10149
100
AcDbEntity
8
Geo
100
AcDbLine
10
-23.4057241977451
20
10.1578190203310
30
0.000000000000000
11
-23.3057241977451
21
10.0586882481669
31
0.000000000000000
  0
LINE
  5
F1014A
330
F1014B
100
AcDbEntity
8
Geo
100
AcDbLine
10
-23.3057241977451
20
10.0586882481669
30
0.000000000000000
11
-23.2057241977451
21
9.95941745971722
31
0.000000000000000
  0
LINE
  5
F1014C
330
F1014D
100
AcDbEntity
8
Geo
100
AcDbLine
10
-23.2057241977451
20
9.95941745971722
30
0.000000000000000
11
-23.1057241977451
21
9.86001891050864
31
0.000000000000000
  0
LINE
  5
F1014E
330
F1014F
100
AcDbEntity
8
Geo
100
AcDbLine
10
-23.1057241977451
20
9.86001891050864
30
0.000000000000000
11
-23.0057241977451
21
9.76050487184077
31
0.000000000000000
  0
LINE
  5
F10150
330
F10151
100
AcDbEntity
8
Geo
100
AcDbLine
10
-23.0057241977451
20
9.76050487184077
30
0.000000000000000
11
-22.9057241977451
21
9.66088762927100
31
0.000000000000000
  0
LINE
  5
F10152
330
F10153
100
AcDbEntity
8
Geo
100
AcDbLine
10
-22.9057241977451
20
9.66088762927100
30
0.000000000000000
11
-22.8057241977451
21
9.56117948109781
31
0.000000000000000
  0
LINE
  5
F10154
330
F10155
100
AcDbEntity
8
Geo
100
AcDbLine
10
-22.8057241977451
20
9.56117948109781
30
0.000000000000000
11
-22.7057241977451
21
9.46139273684249
31
0.000000000000000
  0
LINE
  5
F10156
330
F10157
100
AcDbEntity
8
Geo
100
AcDbLine
10
-22.7057241977451
20
9.46139273684249
30
0.000000000000000
11
-22.6057241977451
21
9.36153971572943
31
0.000000000000000
  0
LINE
  5
F10158
330
F10159
100
AcDbEntity
8
Geo
100
AcDbLine
10
-22.6057241977451
20
9.36153971572943
30
0.000000000000000
11
-22.5057241977451
21
9.26163274516528
31
0.000000000000000
  0
LINE
  5
F1015A
330
F1015B
100
AcDbEntity
8
Geo
100
AcDbLine
10
-22.5057241977451
20
9.26163274516528
30
0.000000000000000
11
-22.4057241977451
21
9.16168415921705
31
0.000000000000000
  0
LINE
  5
F1015C
330
F1015D
100
AcDbEntity
8
Geo
100
AcDbLine
10
-22.4057241977451
20
9.16168415921705
30
0.000000000000000
11
-22.3057241977451
21
9.06170629708938
31
0.000000000000000
  0
LINE
  5
F1015E
330
F1015F
100
AcDbEntity
8
Geo
100
AcDbLine
10
-22.3057241977451
20
9.06170629708938
30
0.000000000000000
11
-22.2057241977451
21
8.96171150160123
31
0.000000000000000
  0
LINE
  5
F10160
330
F10161
100
AcDbEntity
8
Geo
100
AcDbLine
10
-22.2057241977451
20
8.96171150160123
30
0.000000000000000
11
-22.1057241977451
21
8.86171211766208
31
0.000000000000000
  0
LINE
  5
F10162
330
F10163
100
AcDbEntity
8
Geo
100
AcDbLine
10
-22.1057241977451
20
8.86171211766208
30
0.000000000000000
11
-22.0057241977451
21
8.76172049074787
31
0.000000000000000
  0
LINE
  5
F10164
330
F10165
100
AcDbEntity
8
Geo
100
AcDbLine
10
-22.0057241977451
20
8.76172049074787
30
0.000000000000000
11
-21.9057241977451
21
8.66174896537689
31
0.000000000000000
  0
LINE
  5
F10166
330
F10167
100
AcDbEntity
8
Geo
100
AcDbLine
10
-21.9057241977451
20
8.66174896537689
30
0.000000000000000
11
-21.8057241977451
21
8.56180988358579
31
0.000000000000000
  0
LINE
  5
F10168
330
F10169
100
AcDbEntity
8
Geo
100
AcDbLine
10
-21.8057241977451
20
8.56180988358579
30
0.000000000000000
11
-21.7057241977451
21
8.46191558340589
31
0.000000000000000
  0
LINE
  5
F1016A
330
F1016B
100
AcDbEntity
8
Geo
100
AcDbLine
10
-21.7057241977451
20
8.46191558340589
30
0.000000000000000
11
-21.6057241977451
21
8.36207839733996
31
0.000000000000000
  0
LINE
  5
F1016C
330
F1016D
100
AcDbEntity
8
Geo
100
AcDbLine
10
-21.6057241977451
20
8.36207839733996
30
0.000000000000000
11
-21.5057241977451
21
8.26231065083972
31
0.000000000000000
  0
LINE
  5
F1016E
330
F1016F
100
AcDbEntity
8
Geo
100
AcDbLine
10
-21.5057241977451
20
8.26231065083972
30
0.000000000000000
11
-21.4057241977451
21
8.16262466078419
31
0.000000000000000
  0
LINE
  5
F10170
330
F10171
100
AcDbEntity
8
Geo
100
AcDbLine
10
-21.4057241977451
20
8.16262466078419
30
0.000000000000000
11
-21.3057241977451
21
8.06303273395911
31
0.000000000000000
  0
LINE
  5
F10172
330
F10173
100
AcDbEntity
8
Geo
100
AcDbLine
10
-36.3057241977451
20
8.92454466608845
30
0.000000000000000
11
-36.2057241977450
21
8.82454672368889
31
0.000000000000000
  0
LINE
  5
F10174
330
F10175
100
AcDbEntity
8
Geo
100
AcDbLine
10
-36.2057241977450
20
8.82454672368889
30
0.000000000000000
11
-36.1057241977450
21
8.72456112658733
31
0.000000000000000
  0
LINE
  5
F10176
330
F10177
100
AcDbEntity
8
Geo
100
AcDbLine
10
-36.1057241977450
20
8.72456112658733
30
0.000000000000000
11
-36.0057241977451
21
8.62460021855764
31
0.000000000000000
  0
LINE
  5
F10178
330
F10179
100
AcDbEntity
8
Geo
100
AcDbLine
10
-36.0057241977451
20
8.62460021855764
30
0.000000000000000
11
-35.9057241977451
21
8.52467634032568
31
0.000000000000000
  0
LINE
  5
F1017A
330
F1017B
100
AcDbEntity
8
Geo
100
AcDbLine
10
-35.9057241977451
20
8.52467634032568
30
0.000000000000000
11
-35.8057241977451
21
8.42480182804582
31
0.000000000000000
  0
LINE
  5
F1017C
330
F1017D
100
AcDbEntity
8
Geo
100
AcDbLine
10
-35.8057241977451
20
8.42480182804582
30
0.000000000000000
11
-35.7057241977450
21
8.32498901177788
31
0.000000000000000
  0
LINE
  5
F1017E
330
F1017F
100
AcDbEntity
8
Geo
100
AcDbLine
10
-35.7057241977450
20
8.32498901177788
30
0.000000000000000
11
-35.6057241977450
21
8.22525021396502
31
0.000000000000000
  0
LINE
  5
F10180
330
F10181
100
AcDbEntity
8
Geo
100
AcDbLine
10
-35.6057241977450
20
8.22525021396502
30
0.000000000000000
11
-35.5057241977451
21
8.12559774791238
31
0.000000000000000
  0
LINE
  5
F10182
330
F10183
100
AcDbEntity
8
Geo
100
AcDbLine
10
-35.5057241977451
20
8.12559774791238
30
0.000000000000000
11
-35.4057241977451
21
8.02604391626697
31
0.000000000000000
  0
LINE
  5
F10184
330
F10185
100
AcDbEntity
8
Geo
100
AcDbLine
10
-35.4057241977451
20
8.02604391626697
30
0.000000000000000
11
-35.3057241977451
21
7.92660100949884
31
0.000000000000000
  0
LINE
  5
F10186
330
F10187
100
AcDbEntity
8
Geo
100
AcDbLine
10
-35.3057241977451
20
7.92660100949884
30
0.000000000000000
11
-35.2057241977450
21
7.82728130438377
31
0.000000000000000
  0
LINE
  5
F10188
330
F10189
100
AcDbEntity
8
Geo
100
AcDbLine
10
-35.2057241977450
20
7.82728130438377
30
0.000000000000000
11
-35.1057241977450
21
7.72809706248759
31
0.000000000000000
  0
LINE
  5
F1018A
330
F1018B
100
AcDbEntity
8
Geo
100
AcDbLine
10
-35.1057241977450
20
7.72809706248759
30
0.000000000000000
11
-35.0057241977451
21
7.62906052865247
31
0.000000000000000
  0
LINE
  5
F1018C
330
F1018D
100
AcDbEntity
8
Geo
100
AcDbLine
10
-35.0057241977451
20
7.62906052865247
30
0.000000000000000
11
-34.9057241977451
21
7.53018392948518
31
0.000000000000000
  0
LINE
  5
F1018E
330
F1018F
100
AcDbEntity
8
Geo
100
AcDbLine
10
-34.9057241977451
20
7.53018392948518
30
0.000000000000000
11
-34.8057241977451
21
7.43147947184768
31
0.000000000000000
  0
LINE
  5
F10190
330
F10191
100
AcDbEntity
8
Geo
100
AcDbLine
10
-34.8057241977451
20
7.43147947184768
30
0.000000000000000
11
-34.7057241977450
21
7.33295934135014
31
0.000000000000000
  0
LINE
  5
F10192
330
F10193
100
AcDbEntity
8
Geo
100
AcDbLine
10
-34.7057241977450
20
7.33295934135014
30
0.000000000000000
11
-34.6057241977450
21
7.23463570084648
31
0.000000000000000
  0
LINE
  5
F10194
330
F10195
100
AcDbEntity
8
Geo
100
AcDbLine
10
-34.6057241977450
20
7.23463570084648
30
0.000000000000000
11
-34.5057241977451
21
7.13652068893287
31
0.000000000000000
  0
LINE
  5
F10196
330
F10197
100
AcDbEntity
8
Geo
100
AcDbLine
10
-34.5057241977451
20
7.13652068893287
30
0.000000000000000
11
-34.4057241977451
21
7.03862641844913
31
0.000000000000000
  0
LINE
  5
F10198
330
F10199
100
AcDbEntity
8
Geo
100
AcDbLine
10
-34.4057241977451
20
7.03862641844913
30
0.000000000000000
11
-34.3057241977451
21
6.94096497498332
31
0.000000000000000
  0
LINE
  5
F1019A
330
F1019B
100
AcDbEntity
8
Geo
100
AcDbLine
10
-34.3057241977451
20
6.94096497498332
30
0.000000000000000
11
-34.2057241977450
21
6.84354841537973
31
0.000000000000000
  0
LINE
  5
F1019C
330
F1019D
100
AcDbEntity
8
Geo
100
AcDbLine
10
-34.2057241977450
20
6.84354841537973
30
0.000000000000000
11
-34.1057241977450
21
6.74638876625039
31
0.000000000000000
  0
LINE
  5
F1019E
330
F1019F
100
AcDbEntity
8
Geo
100
AcDbLine
10
-34.1057241977450
20
6.74638876625039
30
0.000000000000000
11
-34.0057241977451
21
6.64949802249030
31
0.000000000000000
  0
LINE
  5
F101A0
330
F101A1
100
AcDbEntity
8
Geo
100
AcDbLine
10
-34.0057241977451
20
6.64949802249030
30
0.000000000000000
11
-33.9057241977451
21
6.55288814579660
31
0.000000000000000
  0
LINE
  5
F101A2
330
F101A3
100
AcDbEntity
8
Geo
100
AcDbLine
10
-33.9057241977451
20
6.55288814579660
30
0.000000000000000
11
-33.8057241977451
21
6.45657106319188
31
0.000000000000000
  0
LINE
  5
F101A4
330
F101A5
100
AcDbEntity
8
Geo
100
AcDbLine
10
-33.8057241977451
20
6.45657106319188
30
0.000000000000000
11
-33.7057241977450
21
6.36055866555164
31
0.000000000000000
  0
LINE
  5
F101A6
330
F101A7
100
AcDbEntity
8
Geo
100
AcDbLine
10
-33.7057241977450
20
6.36055866555164
30
0.000000000000000
11
-33.6057241977450
21
6.26486280613636
31
0.000000000000000
  0
LINE
  5
F101A8
330
F101A9
100
AcDbEntity
8
Geo
100
AcDbLine
10
-33.6057241977450
20
6.26486280613636
30
0.000000000000000
11
-33.5057241977450
21
6.16949529912813
31
0.000000000000000
  0
LINE
  5
F101AA
330
F101AB
100
AcDbEntity
8
Geo
100
AcDbLine
10
-33.5057241977450
20
6.16949529912813
30
0.000000000000000
11
-33.4057241977451
21
6.07446791817212
31
0.000000000000000
  0
LINE
  5
F101AC
330
F101AD
100
AcDbEntity
8
Geo
100
AcDbLine
10
-33.4057241977451
20
6.07446791817212
30
0.000000000000000
11
-33.3057241977451
21
5.97979239492305
31
0.000000000000000
  0
LINE
  5
F101AE
330
F101AF
100
AcDbEntity
8
Geo
100
AcDbLine
10
-33.3057241977451
20
5.97979239492305
30
0.000000000000000
11
-33.2057241977450
21
5.88548041759688
31
0.000000000000000
  0
LINE
  5
F101B0
330
F101B1
100
AcDbEntity
8
Geo
100
AcDbLine
10
-33.2057241977450
20
5.88548041759688
30
0.000000000000000
11
-33.1057241977450
21
5.79154362952781
31
0.000000000000000
  0
LINE
  5
F101B2
330
F101B3
100
AcDbEntity
8
Geo
100
AcDbLine
10
-33.1057241977450
20
5.79154362952781
30
0.000000000000000
11
-33.0057241977450
21
5.69799362773086
31
0.000000000000000
  0
LINE
  5
F101B4
330
F101B5
100
AcDbEntity
8
Geo
100
AcDbLine
10
-33.0057241977450
20
5.69799362773086
30
0.000000000000000
11
-32.9057241977451
21
5.60484196147016
31
0.000000000000000
  0
LINE
  5
F101B6
330
F101B7
100
AcDbEntity
8
Geo
100
AcDbLine
10
-32.9057241977451
20
5.60484196147016
30
0.000000000000000
11
-32.8057241977451
21
5.51210013083308
31
0.000000000000000
  0
LINE
  5
F101B8
330
F101B9
100
AcDbEntity
8
Geo
100
AcDbLine
10
-32.8057241977451
20
5.51210013083308
30
0.000000000000000
11
-32.7057241977450
21
5.41977958531057
31
0.000000000000000
  0
LINE
  5
F101BA
330
F101BB
100
AcDbEntity
8
Geo
100
AcDbLine
10
-32.7057241977450
20
5.41977958531057
30
0.000000000000000
11
-32.6057241977450
21
5.32789172238357
31
0.000000000000000
  0
LINE
  5
F101BC
330
F101BD
100
AcDbEntity
8
Geo
100
AcDbLine
10
-32.6057241977450
20
5.32789172238357
30
0.000000000000000
11
-32.5057241977450
21
5.23644788611598
31
0.000000000000000
  0
LINE
  5
F101BE
330
F101BF
100
AcDbEntity
8
Geo
100
AcDbLine
10
-32.5057241977450
20
5.23644788611598
30
0.000000000000000
11
-32.4057241977450
21
5.14545936575417
31
0.000000000000000
  0
LINE
  5
F101C0
330
F101C1
100
AcDbEntity
8
Geo
100
AcDbLine
10
-32.4057241977450
20
5.14545936575417
30
0.000000000000000
11
-32.3057241977451
21
5.05493739433322
31
0.000000000000000
  0
LINE
  5
F101C2
330
F101C3
100
AcDbEntity
8
Geo
100
AcDbLine
10
-32.3057241977451
20
5.05493739433322
30
0.000000000000000
11
-32.2057241977450
21
4.96489314729019
31
0.000000000000000
  0
LINE
  5
F101C4
330
F101C5
100
AcDbEntity
8
Geo
100
AcDbLine
10
-32.2057241977450
20
4.96489314729019
30
0.000000000000000
11
-32.1057241977450
21
4.87533774108442
31
0.000000000000000
  0
LINE
  5
F101C6
330
F101C7
100
AcDbEntity
8
Geo
100
AcDbLine
10
-32.1057241977450
20
4.87533774108442
30
0.000000000000000
11
-32.0057241977451
21
4.78628223182516
31
0.000000000000000
  0
LINE
  5
F101C8
330
F101C9
100
AcDbEntity
8
Geo
100
AcDbLine
10
-32.0057241977451
20
4.78628223182516
30
0.000000000000000
11
-31.9057241977451
21
4.69773761390660
31
0.000000000000000
  0
LINE
  5
F101CA
330
F101CB
100
AcDbEntity
8
Geo
100
AcDbLine
10
-31.9057241977451
20
4.69773761390660
30
0.000000000000000
11
-31.8057241977451
21
4.60971481865060
31
0.000000000000000
  0
LINE
  5
F101CC
330
F101CD
100
AcDbEntity
8
Geo
100
AcDbLine
10
-31.8057241977451
20
4.60971481865060
30
0.000000000000000
11
-31.7057241977450
21
4.52222471295711
31
0.000000000000000
  0
LINE
  5
F101CE
330
F101CF
100
AcDbEntity
8
Geo
100
AcDbLine
10
-31.7057241977450
20
4.52222471295711
30
0.000000000000000
11
-31.6057241977451
21
4.43527809796262
31
0.000000000000000
  0
LINE
  5
F101D0
330
F101D1
100
AcDbEntity
8
Geo
100
AcDbLine
10
-31.6057241977451
20
4.43527809796262
30
0.000000000000000
11
-31.5057241977451
21
4.34888570770671
31
0.000000000000000
  0
LINE
  5
F101D2
330
F101D3
100
AcDbEntity
8
Geo
100
AcDbLine
10
-31.5057241977451
20
4.34888570770671
30
0.000000000000000
11
-31.4057241977451
21
4.26305820780684
31
0.000000000000000
  0
LINE
  5
F101D4
330
F101D5
100
AcDbEntity
8
Geo
100
AcDbLine
10
-31.4057241977451
20
4.26305820780684
30
0.000000000000000
11
-31.3057241977451
21
4.17780619414164
31
0.000000000000000
  0
LINE
  5
F101D6
330
F101D7
100
AcDbEntity
8
Geo
100
AcDbLine
10
-31.3057241977451
20
4.17780619414164
30
0.000000000000000
11
-31.2057241977451
21
4.09314019154277
31
0.000000000000000
  0
LINE
  5
F101D8
330
F101D9
100
AcDbEntity
8
Geo
100
AcDbLine
10
-31.2057241977451
20
4.09314019154277
30
0.000000000000000
11
-31.1057241977451
21
4.00907065249563
31
0.000000000000000
  0
LINE
  5
F101DA
330
F101DB
100
AcDbEntity
8
Geo
100
AcDbLine
10
-31.1057241977451
20
4.00907065249563
30
0.000000000000000
11
-31.0057241977451
21
3.92560795584888
31
0.000000000000000
  0
LINE
  5
F101DC
330
F101DD
100
AcDbEntity
8
Geo
100
AcDbLine
10
-31.0057241977451
20
3.92560795584888
30
0.000000000000000
11
-30.9057241977451
21
3.84276240553311
31
0.000000000000000
  0
LINE
  5
F101DE
330
F101DF
100
AcDbEntity
8
Geo
100
AcDbLine
10
-30.9057241977451
20
3.84276240553311
30
0.000000000000000
11
-30.8057241977451
21
3.76054422928883
31
0.000000000000000
  0
LINE
  5
F101E0
330
F101E1
100
AcDbEntity
8
Geo
100
AcDbLine
10
-30.8057241977451
20
3.76054422928883
30
0.000000000000000
11
-30.7057241977451
21
3.67896357740375
31
0.000000000000000
  0
LINE
  5
F101E2
330
F101E3
100
AcDbEntity
8
Geo
100
AcDbLine
10
-30.7057241977451
20
3.67896357740375
30
0.000000000000000
11
-30.6057241977451
21
3.59803052145965
31
0.000000000000000
  0
LINE
  5
F101E4
330
F101E5
100
AcDbEntity
8
Geo
100
AcDbLine
10
-30.6057241977451
20
3.59803052145965
30
0.000000000000000
11
-30.5057241977451
21
3.51775505308906
31
0.000000000000000
  0
LINE
  5
F101E6
330
F101E7
100
AcDbEntity
8
Geo
100
AcDbLine
10
-30.5057241977451
20
3.51775505308906
30
0.000000000000000
11
-30.4057241977451
21
3.43814708274164
31
0.000000000000000
  0
LINE
  5
F101E8
330
F101E9
100
AcDbEntity
8
Geo
100
AcDbLine
10
-30.4057241977451
20
3.43814708274164
30
0.000000000000000
11
-30.3057241977451
21
3.35921643846080
31
0.000000000000000
  0
LINE
  5
F101EA
330
F101EB
100
AcDbEntity
8
Geo
100
AcDbLine
10
-30.3057241977451
20
3.35921643846080
30
0.000000000000000
11
-30.2057241977451
21
3.28097286467025
31
0.000000000000000
  0
LINE
  5
F101EC
330
F101ED
100
AcDbEntity
8
Geo
100
AcDbLine
10
-30.2057241977451
20
3.28097286467025
30
0.000000000000000
11
-30.1057241977451
21
3.20342602097108
31
0.000000000000000
  0
LINE
  5
F101EE
330
F101EF
100
AcDbEntity
8
Geo
100
AcDbLine
10
-30.1057241977451
20
3.20342602097108
30
0.000000000000000
11
-30.0057241977451
21
3.12658548094921
31
0.000000000000000
  0
LINE
  5
F101F0
330
F101F1
100
AcDbEntity
8
Geo
100
AcDbLine
10
-30.0057241977451
20
3.12658548094921
30
0.000000000000000
11
-29.9057241977451
21
3.05046073099347
31
0.000000000000000
  0
LINE
  5
F101F2
330
F101F3
100
AcDbEntity
8
Geo
100
AcDbLine
10
-29.9057241977451
20
3.05046073099347
30
0.000000000000000
11
-29.8057241977451
21
2.97506116912444
31
0.000000000000000
  0
LINE
  5
F101F4
330
F101F5
100
AcDbEntity
8
Geo
100
AcDbLine
10
-29.8057241977451
20
2.97506116912444
30
0.000000000000000
11
-29.7057241977451
21
2.90039610383424
31
0.000000000000000
  0
LINE
  5
F101F6
330
F101F7
100
AcDbEntity
8
Geo
100
AcDbLine
10
-29.7057241977451
20
2.90039610383424
30
0.000000000000000
11
-29.6057241977451
21
2.82647475293733
31
0.000000000000000
  0
LINE
  5
F101F8
330
F101F9
100
AcDbEntity
8
Geo
100
AcDbLine
10
-29.6057241977451
20
2.82647475293733
30
0.000000000000000
11
-29.5057241977451
21
2.75330624243253
31
0.000000000000000
  0
LINE
  5
F101FA
330
F101FB
100
AcDbEntity
8
Geo
100
AcDbLine
10
-29.5057241977451
20
2.75330624243253
30
0.000000000000000
11
-29.4057241977451
21
2.68089960537635
31
0.000000000000000
  0
LINE
  5
F101FC
330
F101FD
100
AcDbEntity
8
Geo
100
AcDbLine
10
-29.4057241977451
20
2.68089960537635
30
0.000000000000000
11
-29.3057241977451
21
2.60926378076782
31
0.000000000000000
  0
LINE
  5
F101FE
330
F101FF
100
AcDbEntity
8
Geo
100
AcDbLine
10
-29.3057241977451
20
2.60926378076782
30
0.000000000000000
11
-29.2057241977451
21
2.53840761244491
31
0.000000000000000
  0
LINE
  5
F10200
330
F10201
100
AcDbEntity
8
Geo
100
AcDbLine
10
-29.2057241977451
20
2.53840761244491
30
0.000000000000000
11
-29.1057241977451
21
2.46833984799273
31
0.000000000000000
  0
LINE
  5
F10202
330
F10203
100
AcDbEntity
8
Geo
100
AcDbLine
10
-29.1057241977451
20
2.46833984799273
30
0.000000000000000
11
-29.0057241977451
21
2.39906913766358
31
0.000000000000000
  0
LINE
  5
F10204
330
F10205
100
AcDbEntity
8
Geo
100
AcDbLine
10
-29.0057241977451
20
2.39906913766358
30
0.000000000000000
11
-28.9057241977451
21
2.33060403330902
31
0.000000000000000
  0
LINE
  5
F10206
330
F10207
100
AcDbEntity
8
Geo
100
AcDbLine
10
-28.9057241977451
20
2.33060403330902
30
0.000000000000000
11
-28.8057241977451
21
2.26295298732410
31
0.000000000000000
  0
LINE
  5
F10208
330
F10209
100
AcDbEntity
8
Geo
100
AcDbLine
10
-28.8057241977451
20
2.26295298732410
30
0.000000000000000
11
-28.7057241977451
21
2.19612435160390
31
0.000000000000000
  0
LINE
  5
F1020A
330
F1020B
100
AcDbEntity
8
Geo
100
AcDbLine
10
-28.7057241977451
20
2.19612435160390
30
0.000000000000000
11
-28.6057241977451
21
2.13012637651238
31
0.000000000000000
  0
LINE
  5
F1020C
330
F1020D
100
AcDbEntity
8
Geo
100
AcDbLine
10
-28.6057241977451
20
2.13012637651238
30
0.000000000000000
11
-28.5057241977451
21
2.06496720986388
31
0.000000000000000
  0
LINE
  5
F1020E
330
F1020F
100
AcDbEntity
8
Geo
100
AcDbLine
10
-28.5057241977451
20
2.06496720986388
30
0.000000000000000
11
-28.4057241977451
21
2.00065489591720
31
0.000000000000000
  0
LINE
  5
F10210
330
F10211
100
AcDbEntity
8
Geo
100
AcDbLine
10
-28.4057241977451
20
2.00065489591720
30
0.000000000000000
11
-28.3057241977451
21
1.93719737438250
31
0.000000000000000
  0
LINE
  5
F10212
330
F10213
100
AcDbEntity
8
Geo
100
AcDbLine
10
-28.3057241977451
20
1.93719737438250
30
0.000000000000000
11
-28.2057241977451
21
1.87460247944109
31
0.000000000000000
  0
LINE
  5
F10214
330
F10215
100
AcDbEntity
8
Geo
100
AcDbLine
10
-28.2057241977451
20
1.87460247944109
30
0.000000000000000
11
-28.1057241977451
21
1.81287793877829
31
0.000000000000000
  0
LINE
  5
F10216
330
F10217
100
AcDbEntity
8
Geo
100
AcDbLine
10
-28.1057241977451
20
1.81287793877829
30
0.000000000000000
11
-28.0057241977451
21
1.75203137262935
31
0.000000000000000
  0
LINE
  5
F10218
330
F10219
100
AcDbEntity
8
Geo
100
AcDbLine
10
-28.0057241977451
20
1.75203137262935
30
0.000000000000000
11
-27.9057241977451
21
1.69207029283874
31
0.000000000000000
  0
LINE
  5
F1021A
330
F1021B
100
AcDbEntity
8
Geo
100
AcDbLine
10
-27.9057241977451
20
1.69207029283874
30
0.000000000000000
11
-27.8057241977451
21
1.63300210193275
31
0.000000000000000
  0
LINE
  5
F1021C
330
F1021D
100
AcDbEntity
8
Geo
100
AcDbLine
10
-27.8057241977451
20
1.63300210193275
30
0.000000000000000
11
-27.7057241977451
21
1.57483409220559
31
0.000000000000000
  0
LINE
  5
F1021E
330
F1021F
100
AcDbEntity
8
Geo
100
AcDbLine
10
-27.7057241977451
20
1.57483409220559
30
0.000000000000000
11
-27.6057241977451
21
1.51757344481917
31
0.000000000000000
  0
LINE
  5
F10220
330
F10221
100
AcDbEntity
8
Geo
100
AcDbLine
10
-27.6057241977451
20
1.51757344481917
30
0.000000000000000
11
-27.5057241977451
21
1.46122722891647
31
0.000000000000000
  0
LINE
  5
F10222
330
F10223
100
AcDbEntity
8
Geo
100
AcDbLine
10
-27.5057241977451
20
1.46122722891647
30
0.000000000000000
11
-27.4057241977451
21
1.40580240074888
31
0.000000000000000
  0
LINE
  5
F10224
330
F10225
100
AcDbEntity
8
Geo
100
AcDbLine
10
-27.4057241977451
20
1.40580240074888
30
0.000000000000000
11
-27.3057241977451
21
1.35130580281737
31
0.000000000000000
  0
LINE
  5
F10226
330
F10227
100
AcDbEntity
8
Geo
100
AcDbLine
10
-27.3057241977451
20
1.35130580281737
30
0.000000000000000
11
-27.2057241977451
21
1.29774416302780
31
0.000000000000000
  0
LINE
  5
F10228
330
F10229
100
AcDbEntity
8
Geo
100
AcDbLine
10
-27.2057241977451
20
1.29774416302780
30
0.000000000000000
11
-27.1057241977451
21
1.24512409386025
31
0.000000000000000
  0
LINE
  5
F1022A
330
F1022B
100
AcDbEntity
8
Geo
100
AcDbLine
10
-27.1057241977451
20
1.24512409386025
30
0.000000000000000
11
-27.0057241977451
21
1.19345209155272
31
0.000000000000000
  0
LINE
  5
F1022C
330
F1022D
100
AcDbEntity
8
Geo
100
AcDbLine
10
-27.0057241977451
20
1.19345209155272
30
0.000000000000000
11
-26.9057241977451
21
1.14273453529912
31
0.000000000000000
  0
LINE
  5
F1022E
330
F1022F
100
AcDbEntity
8
Geo
100
AcDbLine
10
-26.9057241977451
20
1.14273453529912
30
0.000000000000000
11
-26.8057241977451
21
1.09297768646174
31
0.000000000000000
  0
LINE
  5
F10230
330
F10231
100
AcDbEntity
8
Geo
100
AcDbLine
10
-26.8057241977451
20
1.09297768646174
30
0.000000000000000
11
-26.7057241977451
21
1.04418768779821
31
0.000000000000000
  0
LINE
  5
F10232
330
F10233
100
AcDbEntity
8
Geo
100
AcDbLine
10
-26.7057241977451
20
1.04418768779821
30
0.000000000000000
11
-26.6057241977451
21
0.996370562703213
31
0.000000000000000
  0
LINE
  5
F10234
330
F10235
100
AcDbEntity
8
Geo
100
AcDbLine
10
-26.6057241977451
20
0.996370562703213
30
0.000000000000000
11
-26.5057241977451
21
0.949532214464771
31
0.000000000000000
  0
LINE
  5
F10236
330
F10237
100
AcDbEntity
8
Geo
100
AcDbLine
10
-26.5057241977451
20
0.949532214464771
30
0.000000000000000
11
-26.4057241977451
21
0.903678425535528
31
0.000000000000000
  0
LINE
  5
F10238
330
F10239
100
AcDbEntity
8
Geo
100
AcDbLine
10
-26.4057241977451
20
0.903678425535528
30
0.000000000000000
11
-26.3057241977451
21
0.858814856818839
31
0.000000000000000
  0
LINE
  5
F1023A
330
F1023B
100
AcDbEntity
8
Geo
100
AcDbLine
10
-26.3057241977451
20
0.858814856818839
30
0.000000000000000
11
-26.2057241977451
21
0.814947046969909
31
0.000000000000000
  0
LINE
  5
F1023C
330
F1023D
100
AcDbEntity
8
Geo
100
AcDbLine
10
-26.2057241977451
20
0.814947046969909
30
0.000000000000000
11
-26.1057241977451
21
0.772080411712016
31
0.000000000000000
  0
LINE
  5
F1023E
330
F1023F
100
AcDbEntity
8
Geo
100
AcDbLine
10
-26.1057241977451
20
0.772080411712016
30
0.000000000000000
11
-26.0057241977451
21
0.730220243167905
31
0.000000000000000
  0
LINE
  5
F10240
330
F10241
100
AcDbEntity
8
Geo
100
AcDbLine
10
-26.0057241977451
20
0.730220243167905
30
0.000000000000000
11
-25.9057241977451
21
0.689371709206450
31
0.000000000000000
  0
LINE
  5
F10242
330
F10243
100
AcDbEntity
8
Geo
100
AcDbLine
10
-25.9057241977451
20
0.689371709206450
30
0.000000000000000
11
-25.8057241977451
21
0.649539852804651
31
0.000000000000000
  0
LINE
  5
F10244
330
F10245
100
AcDbEntity
8
Geo
100
AcDbLine
10
-25.8057241977451
20
0.649539852804651
30
0.000000000000000
11
-25.7057241977451
21
0.610729591425056
31
0.000000000000000
  0
LINE
  5
F10246
330
F10247
100
AcDbEntity
8
Geo
100
AcDbLine
10
-25.7057241977451
20
0.610729591425056
30
0.000000000000000
11
-25.6057241977451
21
0.572945716408663
31
0.000000000000000
  0
LINE
  5
F10248
330
F10249
100
AcDbEntity
8
Geo
100
AcDbLine
10
-25.6057241977451
20
0.572945716408663
30
0.000000000000000
11
-25.5057241977451
21
0.536192892383411
31
0.000000000000000
  0
LINE
  5
F1024A
330
F1024B
100
AcDbEntity
8
Geo
100
AcDbLine
10
-25.5057241977451
20
0.536192892383411
30
0.000000000000000
11
-25.4057241977451
21
0.500475656688300
31
0.000000000000000
  0
LINE
  5
F1024C
330
F1024D
100
AcDbEntity
8
Geo
100
AcDbLine
10
-25.4057241977451
20
0.500475656688300
30
0.000000000000000
11
-25.3057241977451
21
0.465798418813234
31
0.000000000000000
  0
LINE
  5
F1024E
330
F1024F
100
AcDbEntity
8
Geo
100
AcDbLine
10
-25.3057241977451
20
0.465798418813234
30
0.000000000000000
11
-25.2057241977451
21
0.432165459854650
31
0.000000000000000
  0
LINE
  5
F10250
330
F10251
100
AcDbEntity
8
Geo
100
AcDbLine
10
-25.2057241977451
20
0.432165459854650
30
0.000000000000000
11
-25.1057241977451
21
0.399580931986986
31
0.000000000000000
  0
LINE
  5
F10252
330
F10253
100
AcDbEntity
8
Geo
100
AcDbLine
10
-25.1057241977451
20
0.399580931986986
30
0.000000000000000
11
-25.0057241977451
21
0.368048857950070
31
0.000000000000000
  0
LINE
  5
F10254
330
F10255
100
AcDbEntity
8
Geo
100
AcDbLine
10
-25.0057241977451
20
0.368048857950070
30
0.000000000000000
11
-24.9057241977451
21
0.337573130552501
31
0.000000000000000
  0
LINE
  5
F10256
330
F10257
100
AcDbEntity
8
Geo
100
AcDbLine
10
-24.9057241977451
20
0.337573130552501
30
0.000000000000000
11
-24.8057241977451
21
0.308157512191052
31
0.000000000000000
  0
LINE
  5
F10258
330
F10259
100
AcDbEntity
8
Geo
100
AcDbLine
10
-24.8057241977451
20
0.308157512191052
30
0.000000000000000
11
-24.7057241977451
21
0.279805634386184
31
0.000000000000000
  0
LINE
  5
F1025A
330
F1025B
100
AcDbEntity
8
Geo
100
AcDbLine
10
-24.7057241977451
20
0.279805634386184
30
0.000000000000000
11
-24.6057241977451
21
0.252520997333713
31
0.000000000000000
  0
LINE
  5
F1025C
330
F1025D
100
AcDbEntity
8
Geo
100
AcDbLine
10
-24.6057241977451
20
0.252520997333713
30
0.000000000000000
11
-24.5057241977451
21
0.226306969472695
31
0.000000000000000
  0
LINE
  5
F1025E
330
F1025F
100
AcDbEntity
8
Geo
100
AcDbLine
10
-24.5057241977451
20
0.226306969472695
30
0.000000000000000
11
-24.4057241977451
21
0.201166787069573
31
0.000000000000000
  0
LINE
  5
F10260
330
F10261
100
AcDbEntity
8
Geo
100
AcDbLine
10
-24.4057241977451
20
0.201166787069573
30
0.000000000000000
11
-24.3057241977451
21
0.177103553818636
31
0.000000000000000
  0
LINE
  5
F10262
330
F10263
100
AcDbEntity
8
Geo
100
AcDbLine
10
-24.3057241977451
20
0.177103553818636
30
0.000000000000000
11
-24.2057241977451
21
0.154120240458857
31
0.000000000000000
  0
LINE
  5
F10264
330
F10265
100
AcDbEntity
8
Geo
100
AcDbLine
10
-24.2057241977451
20
0.154120240458857
30
0.000000000000000
11
-24.1057241977451
21
0.132219684407140
31
0.000000000000000
  0
LINE
  5
F10266
330
F10267
100
AcDbEntity
8
Geo
100
AcDbLine
10
-24.1057241977451
20
0.132219684407140
30
0.000000000000000
11
-24.0057241977451
21
0.111404589408020
31
0.000000000000000
  0
LINE
  5
F10268
330
F10269
100
AcDbEntity
8
Geo
100
AcDbLine
10
-24.0057241977451
20
0.111404589408020
30
0.000000000000000
11
-23.9057241977451
21
0.0916775251998736
31
0.000000000000000
  0
LINE
  5
F1026A
330
F1026B
100
AcDbEntity
8
Geo
100
AcDbLine
10
-23.9057241977451
20
0.0916775251998736
30
0.000000000000000
11
-23.8057241977451
21
0.0730409271976722
31
0.000000000000000
  0
LINE
  5
F1026C
330
F1026D
100
AcDbEntity
8
Geo
100
AcDbLine
10
-23.8057241977451
20
0.0730409271976722
30
0.000000000000000
11
-23.7057241977451
21
0.0554970961923100
31
0.000000000000000
  0
LINE
  5
F1026E
330
F1026F
100
AcDbEntity
8
Geo
100
AcDbLine
10
-23.7057241977451
20
0.0554970961923100
30
0.000000000000000
11
-23.6057241977451
21
0.0390481980665669
31
0.000000000000000
  0
LINE
  5
F10270
330
F10271
100
AcDbEntity
8
Geo
100
AcDbLine
10
-23.6057241977451
20
0.0390481980665669
30
0.000000000000000
11
-23.5057241977451
21
0.0236962635277180
31
0.000000000000000
  0
LINE
  5
F10272
330
F10273
100
AcDbEntity
8
Geo
100
AcDbLine
10
-23.5057241977451
20
0.0236962635277180
30
0.000000000000000
11
-23.4057241977451
21
0.00944318785682441
31
0.000000000000000
  0
LINE
  5
F10274
330
F10275
100
AcDbEntity
8
Geo
100
AcDbLine
10
-23.4057241977451
20
0.00944318785682441
30
0.000000000000000
11
-23.3057241977451
21
-0.00370926932525073
31
0.000000000000000
  0
LINE
  5
F10276
330
F10277
100
AcDbEntity
8
Geo
100
AcDbLine
10
-23.3057241977451
20
-0.00370926932525073
30
0.000000000000000
11
-23.2057241977451
21
-0.0157594842750601
31
0.000000000000000
  0
LINE
  5
F10278
330
F10279
100
AcDbEntity
8
Geo
100
AcDbLine
10
-23.2057241977451
20
-0.0157594842750601
30
0.000000000000000
11
-23.1057241977451
21
-0.0267059693270575
31
0.000000000000000
  0
LINE
  5
F1027A
330
F1027B
100
AcDbEntity
8
Geo
100
AcDbLine
10
-23.1057241977451
20
-0.0267059693270575
30
0.000000000000000
11
-23.0057241977451
21
-0.0365473730772337
31
0.000000000000000
  0
LINE
  5
F1027C
330
F1027D
100
AcDbEntity
8
Geo
100
AcDbLine
10
-23.0057241977451
20
-0.0365473730772337
30
0.000000000000000
11
-22.9057241977451
21
-0.0452824805499716
31
0.000000000000000
  0
LINE
  5
F1027E
330
F1027F
100
AcDbEntity
8
Geo
100
AcDbLine
10
-22.9057241977451
20
-0.0452824805499716
30
0.000000000000000
11
-22.8057241977451
21
-0.0529102133480386
31
0.000000000000000
  0
LINE
  5
F10280
330
F10281
100
AcDbEntity
8
Geo
100
AcDbLine
10
-22.8057241977451
20
-0.0529102133480386
30
0.000000000000000
11
-22.7057241977451
21
-0.0594296297857131
31
0.000000000000000
  0
LINE
  5
F10282
330
F10283
100
AcDbEntity
8
Geo
100
AcDbLine
10
-22.7057241977451
20
-0.0594296297857131
30
0.000000000000000
11
-22.6057241977451
21
-0.0648399250050531
31
0.000000000000000
  0
LINE
  5
F10284
330
F10285
100
AcDbEntity
8
Geo
100
AcDbLine
10
-22.6057241977451
20
-0.0648399250050531
30
0.000000000000000
11
-22.5057241977451
21
-0.0691404310752421
31
0.000000000000000
  0
LINE
  5
F10286
330
F10287
100
AcDbEntity
8
Geo
100
AcDbLine
10
-22.5057241977451
20
-0.0691404310752421
30
0.000000000000000
11
-22.4057241977451
21
-0.0723306170750710
31
0.000000000000000
  0
LINE
  5
F10288
330
F10289
100
AcDbEntity
8
Geo
100
AcDbLine
10
-22.4057241977451
20
-0.0723306170750710
30
0.000000000000000
11
-22.3057241977451
21
-0.0744100891584694
31
0.000000000000000
  0
LINE
  5
F1028A
330
F1028B
100
AcDbEntity
8
Geo
100
AcDbLine
10
-22.3057241977451
20
-0.0744100891584694
30
0.000000000000000
11
-22.2057241977451
21
-0.0753785906031297
31
0.000000000000000
  0
LINE
  5
F1028C
330
F1028D
100
AcDbEntity
8
Geo
100
AcDbLine
10
-22.2057241977451
20
-0.0753785906031297
30
0.000000000000000
11
-22.1685571332606
21
-0.0754553339115489
31
0.000000000000000
  0
LINE
  5
F1028E
330
F1028F
100
AcDbEntity
8
Geo
100
AcDbLine
10
-36.3057241977451
20
-0.0754553339115489
30
0.000000000000000
11
-36.3057241977451
21
-0.0754553339115489
31
0.000000000000000
  0
LINE
  5
F10290
330
F10291
100
AcDbEntity
8
Geo
100
AcDbLine
10
-22.1685571332606
20
17.9245446660885
30
0.000000000000000
11
-22.1057241977451
21
17.9243253340191
31
0.000000000000000
  0
LINE
  5
F10292
330
F10293
100
AcDbEntity
8
Geo
100
AcDbLine
10
-22.1057241977451
20
17.9243253340191
30
0.000000000000000
11
-22.0057241977451
21
17.9230716726560
31
0.000000000000000
  0
LINE
  5
F10294
330
F10295
100
AcDbEntity
8
Geo
100
AcDbLine
10
-22.0057241977451
20
17.9230716726560
30
0.000000000000000
11
-21.9057241977451
21
17.9207070934620
31
0.000000000000000
  0
LINE
  5
F10296
330
F10297
100
AcDbEntity
8
Geo
100
AcDbLine
10
-21.9057241977451
20
17.9207070934620
30
0.000000000000000
11
-21.8057241977451
21
17.9172318883576
31
0.000000000000000
  0
LINE
  5
F10298
330
F10299
100
AcDbEntity
8
Geo
100
AcDbLine
10
-21.8057241977451
20
17.9172318883576
30
0.000000000000000
11
-21.7057241977451
21
17.9126464863760
31
0.000000000000000
  0
LINE
  5
F1029A
330
F1029B
100
AcDbEntity
8
Geo
100
AcDbLine
10
-21.7057241977451
20
17.9126464863760
30
0.000000000000000
11
-21.6057241977451
21
17.9069514536104
31
0.000000000000000
  0
LINE
  5
F1029C
330
F1029D
100
AcDbEntity
8
Geo
100
AcDbLine
10
-21.6057241977451
20
17.9069514536104
30
0.000000000000000
11
-21.5057241977451
21
17.9001474931440
31
0.000000000000000
  0
LINE
  5
F1029E
330
F1029F
100
AcDbEntity
8
Geo
100
AcDbLine
10
-21.5057241977451
20
17.9001474931440
30
0.000000000000000
11
-21.4057241977451
21
17.8922354449633
31
0.000000000000000
  0
LINE
  5
F102A0
330
F102A1
100
AcDbEntity
8
Geo
100
AcDbLine
10
-21.4057241977451
20
17.8922354449633
30
0.000000000000000
11
-21.3057241977451
21
17.8832162858543
31
0.000000000000000
  0
LINE
  5
F102A2
330
F102A3
100
AcDbEntity
8
Geo
100
AcDbLine
10
-24.9959904992292
20
17.9245446660885
30
0.000000000000000
11
-24.9057241977451
21
17.9240920014682
31
0.000000000000000
  0
LINE
  5
F102A4
330
F102A5
100
AcDbEntity
8
Geo
100
AcDbLine
10
-24.9057241977451
20
17.9240920014682
30
0.000000000000000
11
-24.8057241977451
21
17.9225335564987
31
0.000000000000000
  0
LINE
  5
F102A6
330
F102A7
100
AcDbEntity
8
Geo
100
AcDbLine
10
-24.8057241977451
20
17.9225335564987
30
0.000000000000000
11
-24.7057241977451
21
17.9198642601318
31
0.000000000000000
  0
LINE
  5
F102A8
330
F102A9
100
AcDbEntity
8
Geo
100
AcDbLine
10
-24.7057241977451
20
17.9198642601318
30
0.000000000000000
11
-24.6057241977451
21
17.9160844419069
31
0.000000000000000
  0
LINE
  5
F102AA
330
F102AB
100
AcDbEntity
8
Geo
100
AcDbLine
10
-24.6057241977451
20
17.9160844419069
30
0.000000000000000
11
-24.5057241977451
21
17.9111945684635
31
0.000000000000000
  0
LINE
  5
F102AC
330
F102AD
100
AcDbEntity
8
Geo
100
AcDbLine
10
-24.5057241977451
20
17.9111945684635
30
0.000000000000000
11
-24.4057241977451
21
17.9051952434833
31
0.000000000000000
  0
LINE
  5
F102AE
330
F102AF
100
AcDbEntity
8
Geo
100
AcDbLine
10
-24.4057241977451
20
17.9051952434833
30
0.000000000000000
11
-24.3057241977451
21
17.8980872076161
31
0.000000000000000
  0
LINE
  5
F102B0
330
F102B1
100
AcDbEntity
8
Geo
100
AcDbLine
10
-24.3057241977451
20
17.8980872076161
30
0.000000000000000
11
-24.2057241977451
21
17.8898713383883
31
0.000000000000000
  0
LINE
  5
F102B2
330
F102B3
100
AcDbEntity
8
Geo
100
AcDbLine
10
-24.2057241977451
20
17.8898713383883
30
0.000000000000000
11
-24.1057241977451
21
17.8805486500942
31
0.000000000000000
  0
LINE
  5
F102B4
330
F102B5
100
AcDbEntity
8
Geo
100
AcDbLine
10
-24.1057241977451
20
17.8805486500942
30
0.000000000000000
11
-24.0057241977451
21
17.8701202936711
31
0.000000000000000
  0
LINE
  5
F102B6
330
F102B7
100
AcDbEntity
8
Geo
100
AcDbLine
10
-24.0057241977451
20
17.8701202936711
30
0.000000000000000
11
-23.9057241977451
21
17.8585875565573
31
0.000000000000000
  0
LINE
  5
F102B8
330
F102B9
100
AcDbEntity
8
Geo
100
AcDbLine
10
-23.9057241977451
20
17.8585875565573
30
0.000000000000000
11
-23.8057241977451
21
17.8459518625327
31
0.000000000000000
  0
LINE
  5
F102BA
330
F102BB
100
AcDbEntity
8
Geo
100
AcDbLine
10
-23.8057241977451
20
17.8459518625327
30
0.000000000000000
11
-23.7057241977451
21
17.8322147715436
31
0.000000000000000
  0
LINE
  5
F102BC
330
F102BD
100
AcDbEntity
8
Geo
100
AcDbLine
10
-23.7057241977451
20
17.8322147715436
30
0.000000000000000
11
-23.6057241977451
21
17.8173779795097
31
0.000000000000000
  0
LINE
  5
F102BE
330
F102BF
100
AcDbEntity
8
Geo
100
AcDbLine
10
-23.6057241977451
20
17.8173779795097
30
0.000000000000000
11
-23.5057241977451
21
17.8014433181148
31
0.000000000000000
  0
LINE
  5
F102C0
330
F102C1
100
AcDbEntity
8
Geo
100
AcDbLine
10
-23.5057241977451
20
17.8014433181148
30
0.000000000000000
11
-23.4057241977451
21
17.7844127545809
31
0.000000000000000
  0
LINE
  5
F102C2
330
F102C3
100
AcDbEntity
8
Geo
100
AcDbLine
10
-23.4057241977451
20
17.7844127545809
30
0.000000000000000
11
-23.3057241977451
21
17.7662883914250
31
0.000000000000000
  0
LINE
  5
F102C4
330
F102C5
100
AcDbEntity
8
Geo
100
AcDbLine
10
-23.3057241977451
20
17.7662883914250
30
0.000000000000000
11
-23.2057241977451
21
17.7470724661998
31
0.000000000000000
  0
LINE
  5
F102C6
330
F102C7
100
AcDbEntity
8
Geo
100
AcDbLine
10
-23.2057241977451
20
17.7470724661998
30
0.000000000000000
11
-23.1057241977451
21
17.7267673512174
31
0.000000000000000
  0
LINE
  5
F102C8
330
F102C9
100
AcDbEntity
8
Geo
100
AcDbLine
10
-23.1057241977451
20
17.7267673512174
30
0.000000000000000
11
-23.0057241977451
21
17.7053755532562
31
0.000000000000000
  0
LINE
  5
F102CA
330
F102CB
100
AcDbEntity
8
Geo
100
AcDbLine
10
-23.0057241977451
20
17.7053755532562
30
0.000000000000000
11
-22.9057241977451
21
17.6828997132519
31
0.000000000000000
  0
LINE
  5
F102CC
330
F102CD
100
AcDbEntity
8
Geo
100
AcDbLine
10
-22.9057241977451
20
17.6828997132519
30
0.000000000000000
11
-22.8057241977451
21
17.6593426059709
31
0.000000000000000
  0
LINE
  5
F102CE
330
F102CF
100
AcDbEntity
8
Geo
100
AcDbLine
10
-22.8057241977451
20
17.6593426059709
30
0.000000000000000
11
-22.7057241977451
21
17.6347071396681
31
0.000000000000000
  0
LINE
  5
F102D0
330
F102D1
100
AcDbEntity
8
Geo
100
AcDbLine
10
-22.7057241977451
20
17.6347071396681
30
0.000000000000000
11
-22.6057241977451
21
17.6089963557280
31
0.000000000000000
  0
LINE
  5
F102D2
330
F102D3
100
AcDbEntity
8
Geo
100
AcDbLine
10
-22.6057241977451
20
17.6089963557280
30
0.000000000000000
11
-22.5057241977451
21
17.5822134282885
31
0.000000000000000
  0
LINE
  5
F102D4
330
F102D5
100
AcDbEntity
8
Geo
100
AcDbLine
10
-22.5057241977451
20
17.5822134282885
30
0.000000000000000
11
-22.4057241977451
21
17.5543616638501
31
0.000000000000000
  0
LINE
  5
F102D6
330
F102D7
100
AcDbEntity
8
Geo
100
AcDbLine
10
-22.4057241977451
20
17.5543616638501
30
0.000000000000000
11
-22.3057241977451
21
17.5254445008668
31
0.000000000000000
  0
LINE
  5
F102D8
330
F102D9
100
AcDbEntity
8
Geo
100
AcDbLine
10
-22.3057241977451
20
17.5254445008668
30
0.000000000000000
11
-22.2057241977451
21
17.4954655093219
31
0.000000000000000
  0
LINE
  5
F102DA
330
F102DB
100
AcDbEntity
8
Geo
100
AcDbLine
10
-22.2057241977451
20
17.4954655093219
30
0.000000000000000
11
-22.1057241977451
21
17.4644283902874
31
0.000000000000000
  0
LINE
  5
F102DC
330
F102DD
100
AcDbEntity
8
Geo
100
AcDbLine
10
-22.1057241977451
20
17.4644283902874
30
0.000000000000000
11
-22.0057241977451
21
17.4323369754671
31
0.000000000000000
  0
LINE
  5
F102DE
330
F102DF
100
AcDbEntity
8
Geo
100
AcDbLine
10
-22.0057241977451
20
17.4323369754671
30
0.000000000000000
11
-21.9057241977451
21
17.3991952267231
31
0.000000000000000
  0
LINE
  5
F102E0
330
F102E1
100
AcDbEntity
8
Geo
100
AcDbLine
10
-21.9057241977451
20
17.3991952267231
30
0.000000000000000
11
-21.8057241977451
21
17.3650072355875
31
0.000000000000000
  0
LINE
  5
F102E2
330
F102E3
100
AcDbEntity
8
Geo
100
AcDbLine
10
-21.8057241977451
20
17.3650072355875
30
0.000000000000000
11
-21.7057241977451
21
17.3297772227562
31
0.000000000000000
  0
LINE
  5
F102E4
330
F102E5
100
AcDbEntity
8
Geo
100
AcDbLine
10
-21.7057241977451
20
17.3297772227562
30
0.000000000000000
11
-21.6057241977451
21
17.2935095375691
31
0.000000000000000
  0
LINE
  5
F102E6
330
F102E7
100
AcDbEntity
8
Geo
100
AcDbLine
10
-21.6057241977451
20
17.2935095375691
30
0.000000000000000
11
-21.5057241977451
21
17.2562086574718
31
0.000000000000000
  0
LINE
  5
F102E8
330
F102E9
100
AcDbEntity
8
Geo
100
AcDbLine
10
-21.5057241977451
20
17.2562086574718
30
0.000000000000000
11
-21.4057241977451
21
17.2178791874641
31
0.000000000000000
  0
LINE
  5
F102EA
330
F102EB
100
AcDbEntity
8
Geo
100
AcDbLine
10
-21.4057241977451
20
17.2178791874641
30
0.000000000000000
11
-21.3057241977451
21
17.1785258595305
31
0.000000000000000
  0
LINE
  5
F102EC
330
F102ED
100
AcDbEntity
8
Geo
100
AcDbLine
10
-36.3057241977451
20
17.4840533127448
30
0.000000000000000
11
-36.2057241977450
21
17.4526238898454
31
0.000000000000000
  0
LINE
  5
F102EE
330
F102EF
100
AcDbEntity
8
Geo
100
AcDbLine
10
-36.2057241977450
20
17.4526238898454
30
0.000000000000000
11
-36.1057241977450
21
17.4201416284908
31
0.000000000000000
  0
LINE
  5
F102F0
330
F102F1
100
AcDbEntity
8
Geo
100
AcDbLine
10
-36.1057241977450
20
17.4201416284908
30
0.000000000000000
11
-36.0057241977451
21
17.3866105387956
31
0.000000000000000
  0
LINE
  5
F102F2
330
F102F3
100
AcDbEntity
8
Geo
100
AcDbLine
10
-36.0057241977451
20
17.3866105387956
30
0.000000000000000
11
-35.9057241977451
21
17.3520347603577
31
0.000000000000000
  0
LINE
  5
F102F4
330
F102F5
100
AcDbEntity
8
Geo
100
AcDbLine
10
-35.9057241977451
20
17.3520347603577
30
0.000000000000000
11
-35.8057241977451
21
17.3164185617481
31
0.000000000000000
  0
LINE
  5
F102F6
330
F102F7
100
AcDbEntity
8
Geo
100
AcDbLine
10
-35.8057241977451
20
17.3164185617481
30
0.000000000000000
11
-35.7057241977450
21
17.2797663399829
31
0.000000000000000
  0
LINE
  5
F102F8
330
F102F9
100
AcDbEntity
8
Geo
100
AcDbLine
10
-35.7057241977450
20
17.2797663399829
30
0.000000000000000
11
-35.6057241977450
21
17.2420826199812
31
0.000000000000000
  0
LINE
  5
F102FA
330
F102FB
100
AcDbEntity
8
Geo
100
AcDbLine
10
-35.6057241977450
20
17.2420826199812
30
0.000000000000000
11
-35.5057241977451
21
17.2033720540063
31
0.000000000000000
  0
LINE
  5
F102FC
330
F102FD
100
AcDbEntity
8
Geo
100
AcDbLine
10
-35.5057241977451
20
17.2033720540063
30
0.000000000000000
11
-35.4057241977451
21
17.1636394210914
31
0.000000000000000
  0
LINE
  5
F102FE
330
F102FF
100
AcDbEntity
8
Geo
100
AcDbLine
10
-35.4057241977451
20
17.1636394210914
30
0.000000000000000
11
-35.3057241977451
21
17.1228896264491
31
0.000000000000000
  0
LINE
  5
F10300
330
F10301
100
AcDbEntity
8
Geo
100
AcDbLine
10
-35.3057241977451
20
17.1228896264491
30
0.000000000000000
11
-35.2057241977450
21
17.0811277008666
31
0.000000000000000
  0
LINE
  5
F10302
330
F10303
100
AcDbEntity
8
Geo
100
AcDbLine
10
-35.2057241977450
20
17.0811277008666
30
0.000000000000000
11
-35.1057241977450
21
17.0383588000842
31
0.000000000000000
  0
LINE
  5
F10304
330
F10305
100
AcDbEntity
8
Geo
100
AcDbLine
10
-35.1057241977450
20
17.0383588000842
30
0.000000000000000
11
-35.0057241977451
21
16.9945882041587
31
0.000000000000000
  0
LINE
  5
F10306
330
F10307
100
AcDbEntity
8
Geo
100
AcDbLine
10
-35.0057241977451
20
16.9945882041587
30
0.000000000000000
11
-34.9057241977451
21
16.9498213168118
31
0.000000000000000
  0
LINE
  5
F10308
330
F10309
100
AcDbEntity
8
Geo
100
AcDbLine
10
-34.9057241977451
20
16.9498213168118
30
0.000000000000000
11
-34.8057241977451
21
16.9040636647628
31
0.000000000000000
  0
LINE
  5
F1030A
330
F1030B
100
AcDbEntity
8
Geo
100
AcDbLine
10
-34.8057241977451
20
16.9040636647628
30
0.000000000000000
11
-34.7057241977450
21
16.8573208970466
31
0.000000000000000
  0
LINE
  5
F1030C
330
F1030D
100
AcDbEntity
8
Geo
100
AcDbLine
10
-34.7057241977450
20
16.8573208970466
30
0.000000000000000
11
-34.6057241977450
21
16.8095987843157
31
0.000000000000000
  0
LINE
  5
F1030E
330
F1030F
100
AcDbEntity
8
Geo
100
AcDbLine
10
-34.6057241977450
20
16.8095987843157
30
0.000000000000000
11
-34.5057241977451
21
16.7609032181285
31
0.000000000000000
  0
LINE
  5
F10310
330
F10311
100
AcDbEntity
8
Geo
100
AcDbLine
10
-34.5057241977451
20
16.7609032181285
30
0.000000000000000
11
-34.4057241977451
21
16.7112402102214
31
0.000000000000000
  0
LINE
  5
F10312
330
F10313
100
AcDbEntity
8
Geo
100
AcDbLine
10
-34.4057241977451
20
16.7112402102214
30
0.000000000000000
11
-34.3057241977451
21
16.6606158917668
31
0.000000000000000
  0
LINE
  5
F10314
330
F10315
100
AcDbEntity
8
Geo
100
AcDbLine
10
-34.3057241977451
20
16.6606158917668
30
0.000000000000000
11
-34.2057241977450
21
16.6090365126163
31
0.000000000000000
  0
LINE
  5
F10316
330
F10317
100
AcDbEntity
8
Geo
100
AcDbLine
10
-34.2057241977450
20
16.6090365126163
30
0.000000000000000
11
-34.1057241977450
21
16.5565084405289
31
0.000000000000000
  0
LINE
  5
F10318
330
F10319
100
AcDbEntity
8
Geo
100
AcDbLine
10
-34.1057241977450
20
16.5565084405289
30
0.000000000000000
11
-34.0057241977451
21
16.5030381603852
31
0.000000000000000
  0
LINE
  5
F1031A
330
F1031B
100
AcDbEntity
8
Geo
100
AcDbLine
10
-34.0057241977451
20
16.5030381603852
30
0.000000000000000
11
-33.9057241977451
21
16.4486322733864
31
0.000000000000000
  0
LINE
  5
F1031C
330
F1031D
100
AcDbEntity
8
Geo
100
AcDbLine
10
-33.9057241977451
20
16.4486322733864
30
0.000000000000000
11
-33.8057241977451
21
16.3932974962395
31
0.000000000000000
  0
LINE
  5
F1031E
330
F1031F
100
AcDbEntity
8
Geo
100
AcDbLine
10
-33.8057241977451
20
16.3932974962395
30
0.000000000000000
11
-33.7057241977450
21
16.3370406603282
31
0.000000000000000
  0
LINE
  5
F10320
330
F10321
100
AcDbEntity
8
Geo
100
AcDbLine
10
-33.7057241977450
20
16.3370406603282
30
0.000000000000000
11
-33.6057241977450
21
16.2798687108695
31
0.000000000000000
  0
LINE
  5
F10322
330
F10323
100
AcDbEntity
8
Geo
100
AcDbLine
10
-33.6057241977450
20
16.2798687108695
30
0.000000000000000
11
-33.5057241977450
21
16.2217887060560
31
0.000000000000000
  0
LINE
  5
F10324
330
F10325
100
AcDbEntity
8
Geo
100
AcDbLine
10
-33.5057241977450
20
16.2217887060560
30
0.000000000000000
11
-33.4057241977451
21
16.1628078161851
31
0.000000000000000
  0
LINE
  5
F10326
330
F10327
100
AcDbEntity
8
Geo
100
AcDbLine
10
-33.4057241977451
20
16.1628078161851
30
0.000000000000000
11
-33.3057241977451
21
16.1029333227731
31
0.000000000000000
  0
LINE
  5
F10328
330
F10329
100
AcDbEntity
8
Geo
100
AcDbLine
10
-33.3057241977451
20
16.1029333227731
30
0.000000000000000
11
-33.2057241977450
21
16.0421726176568
31
0.000000000000000
  0
LINE
  5
F1032A
330
F1032B
100
AcDbEntity
8
Geo
100
AcDbLine
10
-33.2057241977450
20
16.0421726176568
30
0.000000000000000
11
-33.1057241977450
21
15.9805332020805
31
0.000000000000000
  0
LINE
  5
F1032C
330
F1032D
100
AcDbEntity
8
Geo
100
AcDbLine
10
-33.1057241977450
20
15.9805332020805
30
0.000000000000000
11
-33.0057241977450
21
15.9180226857705
31
0.000000000000000
  0
LINE
  5
F1032E
330
F1032F
100
AcDbEntity
8
Geo
100
AcDbLine
10
-33.0057241977450
20
15.9180226857705
30
0.000000000000000
11
-32.9057241977451
21
15.8546487859949
31
0.000000000000000
  0
LINE
  5
F10330
330
F10331
100
AcDbEntity
8
Geo
100
AcDbLine
10
-32.9057241977451
20
15.8546487859949
30
0.000000000000000
11
-32.8057241977451
21
15.7904193266116
31
0.000000000000000
  0
LINE
  5
F10332
330
F10333
100
AcDbEntity
8
Geo
100
AcDbLine
10
-32.8057241977451
20
15.7904193266116
30
0.000000000000000
11
-32.7057241977450
21
15.7253422371018
31
0.000000000000000
  0
LINE
  5
F10334
330
F10335
100
AcDbEntity
8
Geo
100
AcDbLine
10
-32.7057241977450
20
15.7253422371018
30
0.000000000000000
11
-32.6057241977450
21
15.6594255515915
31
0.000000000000000
  0
LINE
  5
F10336
330
F10337
100
AcDbEntity
8
Geo
100
AcDbLine
10
-32.6057241977450
20
15.6594255515915
30
0.000000000000000
11
-32.5057241977450
21
15.5926774078594
31
0.000000000000000
  0
LINE
  5
F10338
330
F10339
100
AcDbEntity
8
Geo
100
AcDbLine
10
-32.5057241977450
20
15.5926774078594
30
0.000000000000000
11
-32.4057241977450
21
15.5251060463322
31
0.000000000000000
  0
LINE
  5
F1033A
330
F1033B
100
AcDbEntity
8
Geo
100
AcDbLine
10
-32.4057241977450
20
15.5251060463322
30
0.000000000000000
11
-32.3057241977451
21
15.4567198090675
31
0.000000000000000
  0
LINE
  5
F1033C
330
F1033D
100
AcDbEntity
8
Geo
100
AcDbLine
10
-32.3057241977451
20
15.4567198090675
30
0.000000000000000
11
-32.2057241977450
21
15.3875271387239
31
0.000000000000000
  0
LINE
  5
F1033E
330
F1033F
100
AcDbEntity
8
Geo
100
AcDbLine
10
-32.2057241977450
20
15.3875271387239
30
0.000000000000000
11
-32.1057241977450
21
15.3175365775184
31
0.000000000000000
  0
LINE
  5
F10340
330
F10341
100
AcDbEntity
8
Geo
100
AcDbLine
10
-32.1057241977450
20
15.3175365775184
30
0.000000000000000
11
-32.0057241977451
21
15.2467567661721
31
0.000000000000000
  0
LINE
  5
F10342
330
F10343
100
AcDbEntity
8
Geo
100
AcDbLine
10
-32.0057241977451
20
15.2467567661721
30
0.000000000000000
11
-31.9057241977451
21
15.1751964428434
31
0.000000000000000
  0
LINE
  5
F10344
330
F10345
100
AcDbEntity
8
Geo
100
AcDbLine
10
-31.9057241977451
20
15.1751964428434
30
0.000000000000000
11
-31.8057241977451
21
15.1028644420494
31
0.000000000000000
  0
LINE
  5
F10346
330
F10347
100
AcDbEntity
8
Geo
100
AcDbLine
10
-31.8057241977451
20
15.1028644420494
30
0.000000000000000
11
-31.7057241977450
21
15.0297696935747
31
0.000000000000000
  0
LINE
  5
F10348
330
F10349
100
AcDbEntity
8
Geo
100
AcDbLine
10
-31.7057241977450
20
15.0297696935747
30
0.000000000000000
11
-31.6057241977451
21
14.9559212213695
31
0.000000000000000
  0
LINE
  5
F1034A
330
F1034B
100
AcDbEntity
8
Geo
100
AcDbLine
10
-31.6057241977451
20
14.9559212213695
30
0.000000000000000
11
-31.5057241977451
21
14.8813281424354
31
0.000000000000000
  0
LINE
  5
F1034C
330
F1034D
100
AcDbEntity
8
Geo
100
AcDbLine
10
-31.5057241977451
20
14.8813281424354
30
0.000000000000000
11
-31.4057241977451
21
14.8059996656997
31
0.000000000000000
  0
LINE
  5
F1034E
330
F1034F
100
AcDbEntity
8
Geo
100
AcDbLine
10
-31.4057241977451
20
14.8059996656997
30
0.000000000000000
11
-31.3057241977451
21
14.7299450908787
31
0.000000000000000
  0
LINE
  5
F10350
330
F10351
100
AcDbEntity
8
Geo
100
AcDbLine
10
-31.3057241977451
20
14.7299450908787
30
0.000000000000000
11
-31.2057241977451
21
14.6531738073294
31
0.000000000000000
  0
LINE
  5
F10352
330
F10353
100
AcDbEntity
8
Geo
100
AcDbLine
10
-31.2057241977451
20
14.6531738073294
30
0.000000000000000
11
-31.1057241977451
21
14.5756952928907
31
0.000000000000000
  0
LINE
  5
F10354
330
F10355
100
AcDbEntity
8
Geo
100
AcDbLine
10
-31.1057241977451
20
14.5756952928907
30
0.000000000000000
11
-31.0057241977451
21
14.4975191127127
31
0.000000000000000
  0
LINE
  5
F10356
330
F10357
100
AcDbEntity
8
Geo
100
AcDbLine
10
-31.0057241977451
20
14.4975191127127
30
0.000000000000000
11
-30.9057241977451
21
14.4186549180766
31
0.000000000000000
  0
LINE
  5
F10358
330
F10359
100
AcDbEntity
8
Geo
100
AcDbLine
10
-30.9057241977451
20
14.4186549180766
30
0.000000000000000
11
-30.8057241977451
21
14.3391124452023
31
0.000000000000000
  0
LINE
  5
F1035A
330
F1035B
100
AcDbEntity
8
Geo
100
AcDbLine
10
-30.8057241977451
20
14.3391124452023
30
0.000000000000000
11
-30.7057241977451
21
14.2589015140473
31
0.000000000000000
  0
LINE
  5
F1035C
330
F1035D
100
AcDbEntity
8
Geo
100
AcDbLine
10
-30.7057241977451
20
14.2589015140473
30
0.000000000000000
11
-30.6057241977451
21
14.1780320270937
31
0.000000000000000
  0
LINE
  5
F1035E
330
F1035F
100
AcDbEntity
8
Geo
100
AcDbLine
10
-30.6057241977451
20
14.1780320270937
30
0.000000000000000
11
-30.5057241977451
21
14.0965139681263
31
0.000000000000000
  0
LINE
  5
F10360
330
F10361
100
AcDbEntity
8
Geo
100
AcDbLine
10
-30.5057241977451
20
14.0965139681263
30
0.000000000000000
11
-30.4057241977451
21
14.0143574009992
31
0.000000000000000
  0
LINE
  5
F10362
330
F10363
100
AcDbEntity
8
Geo
100
AcDbLine
10
-30.4057241977451
20
14.0143574009992
30
0.000000000000000
11
-30.3057241977451
21
13.9315724683943
31
0.000000000000000
  0
LINE
  5
F10364
330
F10365
100
AcDbEntity
8
Geo
100
AcDbLine
10
-30.3057241977451
20
13.9315724683943
30
0.000000000000000
11
-30.2057241977451
21
13.8481693905684
31
0.000000000000000
  0
LINE
  5
F10366
330
F10367
100
AcDbEntity
8
Geo
100
AcDbLine
10
-30.2057241977451
20
13.8481693905684
30
0.000000000000000
11
-30.1057241977451
21
13.7641584640918
31
0.000000000000000
  0
LINE
  5
F10368
330
F10369
100
AcDbEntity
8
Geo
100
AcDbLine
10
-30.1057241977451
20
13.7641584640918
30
0.000000000000000
11
-30.0057241977451
21
13.6795500605772
31
0.000000000000000
  0
LINE
  5
F1036A
330
F1036B
100
AcDbEntity
8
Geo
100
AcDbLine
10
-30.0057241977451
20
13.6795500605772
30
0.000000000000000
11
-29.9057241977451
21
13.5943546253991
31
0.000000000000000
  0
LINE
  5
F1036C
330
F1036D
100
AcDbEntity
8
Geo
100
AcDbLine
10
-29.9057241977451
20
13.5943546253991
30
0.000000000000000
11
-29.8057241977451
21
13.5085826764042
31
0.000000000000000
  0
LINE
  5
F1036E
330
F1036F
100
AcDbEntity
8
Geo
100
AcDbLine
10
-29.8057241977451
20
13.5085826764042
30
0.000000000000000
11
-29.7057241977451
21
13.4222448026130
31
0.000000000000000
  0
LINE
  5
F10370
330
F10371
100
AcDbEntity
8
Geo
100
AcDbLine
10
-29.7057241977451
20
13.4222448026130
30
0.000000000000000
11
-29.6057241977451
21
13.3353516629126
31
0.000000000000000
  0
LINE
  5
F10372
330
F10373
100
AcDbEntity
8
Geo
100
AcDbLine
10
-29.6057241977451
20
13.3353516629126
30
0.000000000000000
11
-29.5057241977451
21
13.2479139847409
31
0.000000000000000
  0
LINE
  5
F10374
330
F10375
100
AcDbEntity
8
Geo
100
AcDbLine
10
-29.5057241977451
20
13.2479139847409
30
0.000000000000000
11
-29.4057241977451
21
13.1599425627618
31
0.000000000000000
  0
LINE
  5
F10376
330
F10377
100
AcDbEntity
8
Geo
100
AcDbLine
10
-29.4057241977451
20
13.1599425627618
30
0.000000000000000
11
-29.3057241977451
21
13.0714482575330
31
0.000000000000000
  0
LINE
  5
F10378
330
F10379
100
AcDbEntity
8
Geo
100
AcDbLine
10
-29.3057241977451
20
13.0714482575330
30
0.000000000000000
11
-29.2057241977451
21
12.9824419941649
31
0.000000000000000
  0
LINE
  5
F1037A
330
F1037B
100
AcDbEntity
8
Geo
100
AcDbLine
10
-29.2057241977451
20
12.9824419941649
30
0.000000000000000
11
-29.1057241977451
21
12.8929347609720
31
0.000000000000000
  0
LINE
  5
F1037C
330
F1037D
100
AcDbEntity
8
Geo
100
AcDbLine
10
-29.1057241977451
20
12.8929347609720
30
0.000000000000000
11
-29.0057241977451
21
12.8029376081165
31
0.000000000000000
  0
LINE
  5
F1037E
330
F1037F
100
AcDbEntity
8
Geo
100
AcDbLine
10
-29.0057241977451
20
12.8029376081165
30
0.000000000000000
11
-28.9057241977451
21
12.7124616462435
31
0.000000000000000
  0
LINE
  5
F10380
330
F10381
100
AcDbEntity
8
Geo
100
AcDbLine
10
-28.9057241977451
20
12.7124616462435
30
0.000000000000000
11
-28.8057241977451
21
12.6215180451101
31
0.000000000000000
  0
LINE
  5
F10382
330
F10383
100
AcDbEntity
8
Geo
100
AcDbLine
10
-28.8057241977451
20
12.6215180451101
30
0.000000000000000
11
-28.7057241977451
21
12.5301180322057
31
0.000000000000000
  0
LINE
  5
F10384
330
F10385
100
AcDbEntity
8
Geo
100
AcDbLine
10
-28.7057241977451
20
12.5301180322057
30
0.000000000000000
11
-28.6057241977451
21
12.4382728913665
31
0.000000000000000
  0
LINE
  5
F10386
330
F10387
100
AcDbEntity
8
Geo
100
AcDbLine
10
-28.6057241977451
20
12.4382728913665
30
0.000000000000000
11
-28.5057241977451
21
12.3459939613822
31
0.000000000000000
  0
LINE
  5
F10388
330
F10389
100
AcDbEntity
8
Geo
100
AcDbLine
10
-28.5057241977451
20
12.3459939613822
30
0.000000000000000
11
-28.4057241977451
21
12.2532926345959
31
0.000000000000000
  0
LINE
  5
F1038A
330
F1038B
100
AcDbEntity
8
Geo
100
AcDbLine
10
-28.4057241977451
20
12.2532926345959
30
0.000000000000000
11
-28.3057241977451
21
12.1601803554983
31
0.000000000000000
  0
LINE
  5
F1038C
330
F1038D
100
AcDbEntity
8
Geo
100
AcDbLine
10
-28.3057241977451
20
12.1601803554983
30
0.000000000000000
11
-28.2057241977451
21
12.0666686193141
31
0.000000000000000
  0
LINE
  5
F1038E
330
F1038F
100
AcDbEntity
8
Geo
100
AcDbLine
10
-28.2057241977451
20
12.0666686193141
30
0.000000000000000
11
-28.1057241977451
21
11.9727689705833
31
0.000000000000000
  0
LINE
  5
F10390
330
F10391
100
AcDbEntity
8
Geo
100
AcDbLine
10
-28.1057241977451
20
11.9727689705833
30
0.000000000000000
11
-28.0057241977451
21
11.8784930017360
31
0.000000000000000
  0
LINE
  5
F10392
330
F10393
100
AcDbEntity
8
Geo
100
AcDbLine
10
-28.0057241977451
20
11.8784930017360
30
0.000000000000000
11
-27.9057241977451
21
11.7838523516609
31
0.000000000000000
  0
LINE
  5
F10394
330
F10395
100
AcDbEntity
8
Geo
100
AcDbLine
10
-27.9057241977451
20
11.7838523516609
30
0.000000000000000
11
-27.8057241977451
21
11.6888587042686
31
0.000000000000000
  0
LINE
  5
F10396
330
F10397
100
AcDbEntity
8
Geo
100
AcDbLine
10
-27.8057241977451
20
11.6888587042686
30
0.000000000000000
11
-27.7057241977451
21
11.5935237870493
31
0.000000000000000
  0
LINE
  5
F10398
330
F10399
100
AcDbEntity
8
Geo
100
AcDbLine
10
-27.7057241977451
20
11.5935237870493
30
0.000000000000000
11
-27.6057241977451
21
11.4978593696247
31
0.000000000000000
  0
LINE
  5
F1039A
330
F1039B
100
AcDbEntity
8
Geo
100
AcDbLine
10
-27.6057241977451
20
11.4978593696247
30
0.000000000000000
11
-27.5057241977451
21
11.4018772622953
31
0.000000000000000
  0
LINE
  5
F1039C
330
F1039D
100
AcDbEntity
8
Geo
100
AcDbLine
10
-27.5057241977451
20
11.4018772622953
30
0.000000000000000
11
-27.4057241977451
21
11.3055893145821
31
0.000000000000000
  0
LINE
  5
F1039E
330
F1039F
100
AcDbEntity
8
Geo
100
AcDbLine
10
-27.4057241977451
20
11.3055893145821
30
0.000000000000000
11
-27.3057241977451
21
11.2090074137636
31
0.000000000000000
  0
LINE
  5
F103A0
330
F103A1
100
AcDbEntity
8
Geo
100
AcDbLine
10
-27.3057241977451
20
11.2090074137636
30
0.000000000000000
11
-27.2057241977451
21
11.1121434834087
31
0.000000000000000
  0
LINE
  5
F103A2
330
F103A3
100
AcDbEntity
8
Geo
100
AcDbLine
10
-27.2057241977451
20
11.1121434834087
30
0.000000000000000
11
-27.1057241977451
21
11.0150094819042
31
0.000000000000000
  0
LINE
  5
F103A4
330
F103A5
100
AcDbEntity
8
Geo
100
AcDbLine
10
-27.1057241977451
20
11.0150094819042
30
0.000000000000000
11
-27.0057241977451
21
10.9176174009789
31
0.000000000000000
  0
LINE
  5
F103A6
330
F103A7
100
AcDbEntity
8
Geo
100
AcDbLine
10
-27.0057241977451
20
10.9176174009789
30
0.000000000000000
11
-26.9057241977451
21
10.8199792642227
31
0.000000000000000
  0
LINE
  5
F103A8
330
F103A9
100
AcDbEntity
8
Geo
100
AcDbLine
10
-26.9057241977451
20
10.8199792642227
30
0.000000000000000
11
-26.8057241977451
21
10.7221071256026
31
0.000000000000000
  0
LINE
  5
F103AA
330
F103AB
100
AcDbEntity
8
Geo
100
AcDbLine
10
-26.8057241977451
20
10.7221071256026
30
0.000000000000000
11
-26.7057241977451
21
10.6240130679743
31
0.000000000000000
  0
LINE
  5
F103AC
330
F103AD
100
AcDbEntity
8
Geo
100
AcDbLine
10
-26.7057241977451
20
10.6240130679743
30
0.000000000000000
11
-26.6057241977451
21
10.5257092015907
31
0.000000000000000
  0
LINE
  5
F103AE
330
F103AF
100
AcDbEntity
8
Geo
100
AcDbLine
10
-26.6057241977451
20
10.5257092015907
30
0.000000000000000
11
-26.5057241977451
21
10.4272076626068
31
0.000000000000000
  0
LINE
  5
F103B0
330
F103B1
100
AcDbEntity
8
Geo
100
AcDbLine
10
-26.5057241977451
20
10.4272076626068
30
0.000000000000000
11
-26.4057241977451
21
10.3285206115813
31
0.000000000000000
  0
LINE
  5
F103B2
330
F103B3
100
AcDbEntity
8
Geo
100
AcDbLine
10
-26.4057241977451
20
10.3285206115813
30
0.000000000000000
11
-26.3057241977451
21
10.2296602319754
31
0.000000000000000
  0
LINE
  5
F103B4
330
F103B5
100
AcDbEntity
8
Geo
100
AcDbLine
10
-26.3057241977451
20
10.2296602319754
30
0.000000000000000
11
-26.2057241977451
21
10.1306387286486
31
0.000000000000000
  0
LINE
  5
F103B6
330
F103B7
100
AcDbEntity
8
Geo
100
AcDbLine
10
-26.2057241977451
20
10.1306387286486
30
0.000000000000000
11
-26.1057241977451
21
10.0314683263522
31
0.000000000000000
  0
LINE
  5
F103B8
330
F103B9
100
AcDbEntity
8
Geo
100
AcDbLine
10
-26.1057241977451
20
10.0314683263522
30
0.000000000000000
11
-26.0057241977451
21
9.93216126821968
31
0.000000000000000
  0
LINE
  5
F103BA
330
F103BB
100
AcDbEntity
8
Geo
100
AcDbLine
10
-26.0057241977451
20
9.93216126821968
30
0.000000000000000
11
-25.9057241977451
21
9.83272981425560
31
0.000000000000000
  0
LINE
  5
F103BC
330
F103BD
100
AcDbEntity
8
Geo
100
AcDbLine
10
-25.9057241977451
20
9.83272981425560
30
0.000000000000000
11
-25.8057241977451
21
9.73318623982180
31
0.000000000000000
  0
LINE
  5
F103BE
330
F103BF
100
AcDbEntity
8
Geo
100
AcDbLine
10
-25.8057241977451
20
9.73318623982180
30
0.000000000000000
11
-25.7057241977451
21
9.63354283412203
31
0.000000000000000
  0
LINE
  5
F103C0
330
F103C1
100
AcDbEntity
8
Geo
100
AcDbLine
10
-25.7057241977451
20
9.63354283412203
30
0.000000000000000
11
-25.6057241977451
21
9.53381189868474
31
0.000000000000000
  0
LINE
  5
F103C2
330
F103C3
100
AcDbEntity
8
Geo
100
AcDbLine
10
-25.6057241977451
20
9.53381189868474
30
0.000000000000000
11
-25.5057241977451
21
9.43400574584443
31
0.000000000000000
  0
LINE
  5
F103C4
330
F103C5
100
AcDbEntity
8
Geo
100
AcDbLine
10
-25.5057241977451
20
9.43400574584443
30
0.000000000000000
11
-25.4057241977451
21
9.33413669722160
31
0.000000000000000
  0
LINE
  5
F103C6
330
F103C7
100
AcDbEntity
8
Geo
100
AcDbLine
10
-25.4057241977451
20
9.33413669722160
30
0.000000000000000
11
-25.3057241977451
21
9.23421708220159
31
0.000000000000000
  0
LINE
  5
F103C8
330
F103C9
100
AcDbEntity
8
Geo
100
AcDbLine
10
-25.3057241977451
20
9.23421708220159
30
0.000000000000000
11
-25.2057241977451
21
9.13425923641241
31
0.000000000000000
  0
LINE
  5
F103CA
330
F103CB
100
AcDbEntity
8
Geo
100
AcDbLine
10
-25.2057241977451
20
9.13425923641241
30
0.000000000000000
11
-25.1057241977451
21
9.03427550020191
31
0.000000000000000
  0
LINE
  5
F103CC
330
F103CD
100
AcDbEntity
8
Geo
100
AcDbLine
10
-25.1057241977451
20
9.03427550020191
30
0.000000000000000
11
-25.0057241977451
21
8.93427821711422
31
0.000000000000000
  0
LINE
  5
F103CE
330
F103CF
100
AcDbEntity
8
Geo
100
AcDbLine
10
-25.0057241977451
20
8.93427821711422
30
0.000000000000000
11
-24.9057241977451
21
8.83427973236592
31
0.000000000000000
  0
LINE
  5
F103D0
330
F103D1
100
AcDbEntity
8
Geo
100
AcDbLine
10
-24.9057241977451
20
8.83427973236592
30
0.000000000000000
11
-24.8057241977451
21
8.73429239132196
31
0.000000000000000
  0
LINE
  5
F103D2
330
F103D3
100
AcDbEntity
8
Geo
100
AcDbLine
10
-24.8057241977451
20
8.73429239132196
30
0.000000000000000
11
-24.7057241977451
21
8.63432853797151
31
0.000000000000000
  0
LINE
  5
F103D4
330
F103D5
100
AcDbEntity
8
Geo
100
AcDbLine
10
-24.7057241977451
20
8.63432853797151
30
0.000000000000000
11
-24.6057241977451
21
8.53440051340406
31
0.000000000000000
  0
LINE
  5
F103D6
330
F103D7
100
AcDbEntity
8
Geo
100
AcDbLine
10
-24.6057241977451
20
8.53440051340406
30
0.000000000000000
11
-24.5057241977451
21
8.43452065428586
31
0.000000000000000
  0
LINE
  5
F103D8
330
F103D9
100
AcDbEntity
8
Geo
100
AcDbLine
10
-24.5057241977451
20
8.43452065428586
30
0.000000000000000
11
-24.4057241977451
21
8.33470129133685
31
0.000000000000000
  0
LINE
  5
F103DA
330
F103DB
100
AcDbEntity
8
Geo
100
AcDbLine
10
-24.4057241977451
20
8.33470129133685
30
0.000000000000000
11
-24.3057241977451
21
8.23495474780838
31
0.000000000000000
  0
LINE
  5
F103DC
330
F103DD
100
AcDbEntity
8
Geo
100
AcDbLine
10
-24.3057241977451
20
8.23495474780838
30
0.000000000000000
11
-24.2057241977451
21
8.13529333796186
31
0.000000000000000
  0
LINE
  5
F103DE
330
F103DF
100
AcDbEntity
8
Geo
100
AcDbLine
10
-24.2057241977451
20
8.13529333796186
30
0.000000000000000
11
-24.1057241977451
21
8.03572936554847
31
0.000000000000000
  0
LINE
  5
F103E0
330
F103E1
100
AcDbEntity
8
Geo
100
AcDbLine
10
-24.1057241977451
20
8.03572936554847
30
0.000000000000000
11
-24.0057241977451
21
7.93627512229018
31
0.000000000000000
  0
LINE
  5
F103E2
330
F103E3
100
AcDbEntity
8
Geo
100
AcDbLine
10
-24.0057241977451
20
7.93627512229018
30
0.000000000000000
11
-23.9057241977451
21
7.83694288636232
31
0.000000000000000
  0
LINE
  5
F103E4
330
F103E5
100
AcDbEntity
8
Geo
100
AcDbLine
10
-23.9057241977451
20
7.83694288636232
30
0.000000000000000
11
-23.8057241977451
21
7.73774492087772
31
0.000000000000000
  0
LINE
  5
F103E6
330
F103E7
100
AcDbEntity
8
Geo
100
AcDbLine
10
-23.8057241977451
20
7.73774492087772
30
0.000000000000000
11
-23.7057241977451
21
7.63869347237280
31
0.000000000000000
  0
LINE
  5
F103E8
330
F103E9
100
AcDbEntity
8
Geo
100
AcDbLine
10
-23.7057241977451
20
7.63869347237280
30
0.000000000000000
11
-23.6057241977451
21
7.53980076929565
31
0.000000000000000
  0
LINE
  5
F103EA
330
F103EB
100
AcDbEntity
8
Geo
100
AcDbLine
10
-23.6057241977451
20
7.53980076929565
30
0.000000000000000
11
-23.5057241977451
21
7.44107902049633
31
0.000000000000000
  0
LINE
  5
F103EC
330
F103ED
100
AcDbEntity
8
Geo
100
AcDbLine
10
-23.5057241977451
20
7.44107902049633
30
0.000000000000000
11
-23.4057241977451
21
7.34254041371969
31
0.000000000000000
  0
LINE
  5
F103EE
330
F103EF
100
AcDbEntity
8
Geo
100
AcDbLine
10
-23.4057241977451
20
7.34254041371969
30
0.000000000000000
11
-23.3057241977451
21
7.24419711410066
31
0.000000000000000
  0
LINE
  5
F103F0
330
F103F1
100
AcDbEntity
8
Geo
100
AcDbLine
10
-23.3057241977451
20
7.24419711410066
30
0.000000000000000
11
-23.2057241977451
21
7.14606126266243
31
0.000000000000000
  0
LINE
  5
F103F2
330
F103F3
100
AcDbEntity
8
Geo
100
AcDbLine
10
-23.2057241977451
20
7.14606126266243
30
0.000000000000000
11
-23.1057241977451
21
7.04814497481759
31
0.000000000000000
  0
LINE
  5
F103F4
330
F103F5
100
AcDbEntity
8
Geo
100
AcDbLine
10
-23.1057241977451
20
7.04814497481759
30
0.000000000000000
11
-23.0057241977451
21
6.95046033887235
31
0.000000000000000
  0
LINE
  5
F103F6
330
F103F7
100
AcDbEntity
8
Geo
100
AcDbLine
10
-23.0057241977451
20
6.95046033887235
30
0.000000000000000
11
-22.9057241977451
21
6.85301941453425
31
0.000000000000000
  0
LINE
  5
F103F8
330
F103F9
100
AcDbEntity
8
Geo
100
AcDbLine
10
-22.9057241977451
20
6.85301941453425
30
0.000000000000000
11
-22.8057241977451
21
6.75583423142326
31
0.000000000000000
  0
LINE
  5
F103FA
330
F103FB
100
AcDbEntity
8
Geo
100
AcDbLine
10
-22.8057241977451
20
6.75583423142326
30
0.000000000000000
11
-22.7057241977451
21
6.65891678758671
31
0.000000000000000
  0
LINE
  5
F103FC
330
F103FD
100
AcDbEntity
8
Geo
100
AcDbLine
10
-22.7057241977451
20
6.65891678758671
30
0.000000000000000
11
-22.6057241977451
21
6.56227904801802
31
0.000000000000000
  0
LINE
  5
F103FE
330
F103FF
100
AcDbEntity
8
Geo
100
AcDbLine
10
-22.6057241977451
20
6.56227904801802
30
0.000000000000000
11
-22.5057241977451
21
6.46593294317958
31
0.000000000000000
  0
LINE
  5
F10400
330
F10401
100
AcDbEntity
8
Geo
100
AcDbLine
10
-22.5057241977451
20
6.46593294317958
30
0.000000000000000
11
-22.4057241977451
21
6.36989036752986
31
0.000000000000000
  0
LINE
  5
F10402
330
F10403
100
AcDbEntity
8
Geo
100
AcDbLine
10
-22.4057241977451
20
6.36989036752986
30
0.000000000000000
11
-22.3057241977451
21
6.27416317805498
31
0.000000000000000
  0
LINE
  5
F10404
330
F10405
100
AcDbEntity
8
Geo
100
AcDbLine
10
-22.3057241977451
20
6.27416317805498
30
0.000000000000000
11
-22.2057241977451
21
6.17876319280490
31
0.000000000000000
  0
LINE
  5
F10406
330
F10407
100
AcDbEntity
8
Geo
100
AcDbLine
10
-22.2057241977451
20
6.17876319280490
30
0.000000000000000
11
-22.1057241977451
21
6.08370218943441
31
0.000000000000000
  0
LINE
  5
F10408
330
F10409
100
AcDbEntity
8
Geo
100
AcDbLine
10
-22.1057241977451
20
6.08370218943441
30
0.000000000000000
11
-22.0057241977451
21
5.98899190374909
31
0.000000000000000
  0
LINE
  5
F1040A
330
F1040B
100
AcDbEntity
8
Geo
100
AcDbLine
10
-22.0057241977451
20
5.98899190374909
30
0.000000000000000
11
-21.9057241977451
21
5.89464402825653
31
0.000000000000000
  0
LINE
  5
F1040C
330
F1040D
100
AcDbEntity
8
Geo
100
AcDbLine
10
-21.9057241977451
20
5.89464402825653
30
0.000000000000000
11
-21.8057241977451
21
5.80067021072276
31
0.000000000000000
  0
LINE
  5
F1040E
330
F1040F
100
AcDbEntity
8
Geo
100
AcDbLine
10
-21.8057241977451
20
5.80067021072276
30
0.000000000000000
11
-21.7057241977451
21
5.70708205273427
31
0.000000000000000
  0
LINE
  5
F10410
330
F10411
100
AcDbEntity
8
Geo
100
AcDbLine
10
-21.7057241977451
20
5.70708205273427
30
0.000000000000000
11
-21.6057241977451
21
5.61389110826579
31
0.000000000000000
  0
LINE
  5
F10412
330
F10413
100
AcDbEntity
8
Geo
100
AcDbLine
10
-21.6057241977451
20
5.61389110826579
30
0.000000000000000
11
-21.5057241977451
21
5.52110888225382
31
0.000000000000000
  0
LINE
  5
F10414
330
F10415
100
AcDbEntity
8
Geo
100
AcDbLine
10
-21.5057241977451
20
5.52110888225382
30
0.000000000000000
11
-21.4057241977451
21
5.42874682917632
31
0.000000000000000
  0
LINE
  5
F10416
330
F10417
100
AcDbEntity
8
Geo
100
AcDbLine
10
-21.4057241977451
20
5.42874682917632
30
0.000000000000000
11
-21.3057241977451
21
5.33681635163859
31
0.000000000000000
  0
LINE
  5
F10418
330
F10419
100
AcDbEntity
8
Geo
100
AcDbLine
10
-36.3057241977451
20
6.14339171671395
30
0.000000000000000
11
-36.2057241977450
21
6.04845969632055
31
0.000000000000000
  0
LINE
  5
F1041A
330
F1041B
100
AcDbEntity
8
Geo
100
AcDbLine
10
-36.2057241977450
20
6.04845969632055
30
0.000000000000000
11
-36.1057241977450
21
5.95388274449264
31
0.000000000000000
  0
LINE
  5
F1041C
330
F1041D
100
AcDbEntity
8
Geo
100
AcDbLine
10
-36.1057241977450
20
5.95388274449264
30
0.000000000000000
11
-36.0057241977451
21
5.85967253727700
31
0.000000000000000
  0
LINE
  5
F1041E
330
F1041F
100
AcDbEntity
8
Geo
100
AcDbLine
10
-36.0057241977451
20
5.85967253727700
30
0.000000000000000
11
-35.9057241977451
21
5.76584070544375
31
0.000000000000000
  0
LINE
  5
F10420
330
F10421
100
AcDbEntity
8
Geo
100
AcDbLine
10
-35.9057241977451
20
5.76584070544375
30
0.000000000000000
11
-35.8057241977451
21
5.67239883305047
31
0.000000000000000
  0
LINE
  5
F10422
330
F10423
100
AcDbEntity
8
Geo
100
AcDbLine
10
-35.8057241977451
20
5.67239883305047
30
0.000000000000000
11
-35.7057241977450
21
5.57935845601212
31
0.000000000000000
  0
LINE
  5
F10424
330
F10425
100
AcDbEntity
8
Geo
100
AcDbLine
10
-35.7057241977450
20
5.57935845601212
30
0.000000000000000
11
-35.6057241977450
21
5.48673106067683
31
0.000000000000000
  0
LINE
  5
F10426
330
F10427
100
AcDbEntity
8
Geo
100
AcDbLine
10
-35.6057241977450
20
5.48673106067683
30
0.000000000000000
11
-35.5057241977451
21
5.39452808240784
31
0.000000000000000
  0
LINE
  5
F10428
330
F10429
100
AcDbEntity
8
Geo
100
AcDbLine
10
-35.5057241977451
20
5.39452808240784
30
0.000000000000000
11
-35.4057241977451
21
5.30276090417178
31
0.000000000000000
  0
LINE
  5
F1042A
330
F1042B
100
AcDbEntity
8
Geo
100
AcDbLine
10
-35.4057241977451
20
5.30276090417178
30
0.000000000000000
11
-35.3057241977451
21
5.21144085513338
31
0.000000000000000
  0
LINE
  5
F1042C
330
F1042D
100
AcDbEntity
8
Geo
100
AcDbLine
10
-35.3057241977451
20
5.21144085513338
30
0.000000000000000
11
-35.2057241977450
21
5.12057920925675
31
0.000000000000000
  0
LINE
  5
F1042E
330
F1042F
100
AcDbEntity
8
Geo
100
AcDbLine
10
-35.2057241977450
20
5.12057920925675
30
0.000000000000000
11
-35.1057241977450
21
5.03018718391365
31
0.000000000000000
  0
LINE
  5
F10430
330
F10431
100
AcDbEntity
8
Geo
100
AcDbLine
10
-35.1057241977450
20
5.03018718391365
30
0.000000000000000
11
-35.0057241977451
21
4.94027593849857
31
0.000000000000000
  0
LINE
  5
F10432
330
F10433
100
AcDbEntity
8
Geo
100
AcDbLine
10
-35.0057241977451
20
4.94027593849857
30
0.000000000000000
11
-34.9057241977451
21
4.85085657305106
31
0.000000000000000
  0
LINE
  5
F10434
330
F10435
100
AcDbEntity
8
Geo
100
AcDbLine
10
-34.9057241977451
20
4.85085657305106
30
0.000000000000000
11
-34.8057241977451
21
4.76194012688538
31
0.000000000000000
  0
LINE
  5
F10436
330
F10437
100
AcDbEntity
8
Geo
100
AcDbLine
10
-34.8057241977451
20
4.76194012688538
30
0.000000000000000
11
-34.7057241977450
21
4.67353757722763
31
0.000000000000000
  0
LINE
  5
F10438
330
F10439
100
AcDbEntity
8
Geo
100
AcDbLine
10
-34.7057241977450
20
4.67353757722763
30
0.000000000000000
11
-34.6057241977450
21
4.58565983786055
31
0.000000000000000
  0
LINE
  5
F1043A
330
F1043B
100
AcDbEntity
8
Geo
100
AcDbLine
10
-34.6057241977450
20
4.58565983786055
30
0.000000000000000
11
-34.5057241977451
21
4.49831775777615
31
0.000000000000000
  0
LINE
  5
F1043C
330
F1043D
100
AcDbEntity
8
Geo
100
AcDbLine
10
-34.5057241977451
20
4.49831775777615
30
0.000000000000000
11
-34.4057241977451
21
4.41152211983633
31
0.000000000000000
  0
LINE
  5
F1043E
330
F1043F
100
AcDbEntity
8
Geo
100
AcDbLine
10
-34.4057241977451
20
4.41152211983633
30
0.000000000000000
11
-34.3057241977451
21
4.32528363944172
31
0.000000000000000
  0
LINE
  5
F10440
330
F10441
100
AcDbEntity
8
Geo
100
AcDbLine
10
-34.3057241977451
20
4.32528363944172
30
0.000000000000000
11
-34.2057241977450
21
4.23961296320876
31
0.000000000000000
  0
LINE
  5
F10442
330
F10443
100
AcDbEntity
8
Geo
100
AcDbLine
10
-34.2057241977450
20
4.23961296320876
30
0.000000000000000
11
-34.1057241977450
21
4.15452066765533
31
0.000000000000000
  0
LINE
  5
F10444
330
F10445
100
AcDbEntity
8
Geo
100
AcDbLine
10
-34.1057241977450
20
4.15452066765533
30
0.000000000000000
11
-34.0057241977451
21
4.07001725789502
31
0.000000000000000
  0
LINE
  5
F10446
330
F10447
100
AcDbEntity
8
Geo
100
AcDbLine
10
-34.0057241977451
20
4.07001725789502
30
0.000000000000000
11
-33.9057241977451
21
3.98611316634023
31
0.000000000000000
  0
LINE
  5
F10448
330
F10449
100
AcDbEntity
8
Geo
100
AcDbLine
10
-33.9057241977451
20
3.98611316634023
30
0.000000000000000
11
-33.8057241977451
21
3.90281875141422
31
0.000000000000000
  0
LINE
  5
F1044A
330
F1044B
100
AcDbEntity
8
Geo
100
AcDbLine
10
-33.8057241977451
20
3.90281875141422
30
0.000000000000000
11
-33.7057241977450
21
3.82014429627228
31
0.000000000000000
  0
LINE
  5
F1044C
330
F1044D
100
AcDbEntity
8
Geo
100
AcDbLine
10
-33.7057241977450
20
3.82014429627228
30
0.000000000000000
11
-33.6057241977450
21
3.73810000753227
31
0.000000000000000
  0
LINE
  5
F1044E
330
F1044F
100
AcDbEntity
8
Geo
100
AcDbLine
10
-33.6057241977450
20
3.73810000753227
30
0.000000000000000
11
-33.5057241977450
21
3.65669601401452
31
0.000000000000000
  0
LINE
  5
F10450
330
F10451
100
AcDbEntity
8
Geo
100
AcDbLine
10
-33.5057241977450
20
3.65669601401452
30
0.000000000000000
11
-33.4057241977451
21
3.57594236549138
31
0.000000000000000
  0
LINE
  5
F10452
330
F10453
100
AcDbEntity
8
Geo
100
AcDbLine
10
-33.4057241977451
20
3.57594236549138
30
0.000000000000000
11
-33.3057241977451
21
3.49584903144652
31
0.000000000000000
  0
LINE
  5
F10454
330
F10455
100
AcDbEntity
8
Geo
100
AcDbLine
10
-33.3057241977451
20
3.49584903144652
30
0.000000000000000
11
-33.2057241977450
21
3.41642589984413
31
0.000000000000000
  0
LINE
  5
F10456
330
F10457
100
AcDbEntity
8
Geo
100
AcDbLine
10
-33.2057241977450
20
3.41642589984413
30
0.000000000000000
11
-33.1057241977450
21
3.33768277590824
31
0.000000000000000
  0
LINE
  5
F10458
330
F10459
100
AcDbEntity
8
Geo
100
AcDbLine
10
-33.1057241977450
20
3.33768277590824
30
0.000000000000000
11
-33.0057241977450
21
3.25962938091215
31
0.000000000000000
  0
LINE
  5
F1045A
330
F1045B
100
AcDbEntity
8
Geo
100
AcDbLine
10
-33.0057241977450
20
3.25962938091215
30
0.000000000000000
11
-32.9057241977451
21
3.18227535097834
31
0.000000000000000
  0
LINE
  5
F1045C
330
F1045D
100
AcDbEntity
8
Geo
100
AcDbLine
10
-32.9057241977451
20
3.18227535097834
30
0.000000000000000
11
-32.8057241977451
21
3.10563023588878
31
0.000000000000000
  0
LINE
  5
F1045E
330
F1045F
100
AcDbEntity
8
Geo
100
AcDbLine
10
-32.8057241977451
20
3.10563023588878
30
0.000000000000000
11
-32.7057241977450
21
3.02970349790603
31
0.000000000000000
  0
LINE
  5
F10460
330
F10461
100
AcDbEntity
8
Geo
100
AcDbLine
10
-32.7057241977450
20
3.02970349790603
30
0.000000000000000
11
-32.6057241977450
21
2.95450451060499
31
0.000000000000000
  0
LINE
  5
F10462
330
F10463
100
AcDbEntity
8
Geo
100
AcDbLine
10
-32.6057241977450
20
2.95450451060499
30
0.000000000000000
11
-32.5057241977450
21
2.88004255771575
31
0.000000000000000
  0
LINE
  5
F10464
330
F10465
100
AcDbEntity
8
Geo
100
AcDbLine
10
-32.5057241977450
20
2.88004255771575
30
0.000000000000000
11
-32.4057241977450
21
2.80632683197742
31
0.000000000000000
  0
LINE
  5
F10466
330
F10467
100
AcDbEntity
8
Geo
100
AcDbLine
10
-32.4057241977450
20
2.80632683197742
30
0.000000000000000
11
-32.3057241977451
21
2.73336643400326
31
0.000000000000000
  0
LINE
  5
F10468
330
F10469
100
AcDbEntity
8
Geo
100
AcDbLine
10
-32.3057241977451
20
2.73336643400326
30
0.000000000000000
11
-32.2057241977450
21
2.66117037115714
31
0.000000000000000
  0
LINE
  5
F1046A
330
F1046B
100
AcDbEntity
8
Geo
100
AcDbLine
10
-32.2057241977450
20
2.66117037115714
30
0.000000000000000
11
-32.1057241977450
21
2.58974755644153
31
0.000000000000000
  0
LINE
  5
F1046C
330
F1046D
100
AcDbEntity
8
Geo
100
AcDbLine
10
-32.1057241977450
20
2.58974755644153
30
0.000000000000000
11
-32.0057241977451
21
2.51910680739717
31
0.000000000000000
  0
LINE
  5
F1046E
330
F1046F
100
AcDbEntity
8
Geo
100
AcDbLine
10
-32.0057241977451
20
2.51910680739717
30
0.000000000000000
11
-31.9057241977451
21
2.44925684501446
31
0.000000000000000
  0
LINE
  5
F10470
330
F10471
100
AcDbEntity
8
Geo
100
AcDbLine
10
-31.9057241977451
20
2.44925684501446
30
0.000000000000000
11
-31.8057241977451
21
2.38020629265684
31
0.000000000000000
  0
LINE
  5
F10472
330
F10473
100
AcDbEntity
8
Geo
100
AcDbLine
10
-31.8057241977451
20
2.38020629265684
30
0.000000000000000
11
-31.7057241977450
21
2.31196367499614
31
0.000000000000000
  0
LINE
  5
F10474
330
F10475
100
AcDbEntity
8
Geo
100
AcDbLine
10
-31.7057241977450
20
2.31196367499614
30
0.000000000000000
11
-31.6057241977451
21
2.24453741696023
31
0.000000000000000
  0
LINE
  5
F10476
330
F10477
100
AcDbEntity
8
Geo
100
AcDbLine
10
-31.6057241977451
20
2.24453741696023
30
0.000000000000000
11
-31.5057241977451
21
2.17793584269284
31
0.000000000000000
  0
LINE
  5
F10478
330
F10479
100
AcDbEntity
8
Geo
100
AcDbLine
10
-31.5057241977451
20
2.17793584269284
30
0.000000000000000
11
-31.4057241977451
21
2.11216717452595
31
0.000000000000000
  0
LINE
  5
F1047A
330
F1047B
100
AcDbEntity
8
Geo
100
AcDbLine
10
-31.4057241977451
20
2.11216717452595
30
0.000000000000000
11
-31.3057241977451
21
2.04723953196471
31
0.000000000000000
  0
LINE
  5
F1047C
330
F1047D
100
AcDbEntity
8
Geo
100
AcDbLine
10
-31.3057241977451
20
2.04723953196471
30
0.000000000000000
11
-31.2057241977451
21
1.98316093068498
31
0.000000000000000
  0
LINE
  5
F1047E
330
F1047F
100
AcDbEntity
8
Geo
100
AcDbLine
10
-31.2057241977451
20
1.98316093068498
30
0.000000000000000
11
-31.1057241977451
21
1.91993928154380
31
0.000000000000000
  0
LINE
  5
F10480
330
F10481
100
AcDbEntity
8
Geo
100
AcDbLine
10
-31.1057241977451
20
1.91993928154380
30
0.000000000000000
11
-31.0057241977451
21
1.85758238960274
31
0.000000000000000
  0
LINE
  5
F10482
330
F10483
100
AcDbEntity
8
Geo
100
AcDbLine
10
-31.0057241977451
20
1.85758238960274
30
0.000000000000000
11
-30.9057241977451
21
1.79609795316433
31
0.000000000000000
  0
LINE
  5
F10484
330
F10485
100
AcDbEntity
8
Geo
100
AcDbLine
10
-30.9057241977451
20
1.79609795316433
30
0.000000000000000
11
-30.8057241977451
21
1.73549356282163
31
0.000000000000000
  0
LINE
  5
F10486
330
F10487
100
AcDbEntity
8
Geo
100
AcDbLine
10
-30.8057241977451
20
1.73549356282163
30
0.000000000000000
11
-30.7057241977451
21
1.67577670052118
31
0.000000000000000
  0
LINE
  5
F10488
330
F10489
100
AcDbEntity
8
Geo
100
AcDbLine
10
-30.7057241977451
20
1.67577670052118
30
0.000000000000000
11
-30.6057241977451
21
1.61695473863925
31
0.000000000000000
  0
LINE
  5
F1048A
330
F1048B
100
AcDbEntity
8
Geo
100
AcDbLine
10
-30.6057241977451
20
1.61695473863925
30
0.000000000000000
11
-30.5057241977451
21
1.55903493907174
31
0.000000000000000
  0
LINE
  5
F1048C
330
F1048D
100
AcDbEntity
8
Geo
100
AcDbLine
10
-30.5057241977451
20
1.55903493907174
30
0.000000000000000
11
-30.4057241977451
21
1.50202445233762
31
0.000000000000000
  0
LINE
  5
F1048E
330
F1048F
100
AcDbEntity
8
Geo
100
AcDbLine
10
-30.4057241977451
20
1.50202445233762
30
0.000000000000000
11
-30.3057241977451
21
1.44593031669618
31
0.000000000000000
  0
LINE
  5
F10490
330
F10491
100
AcDbEntity
8
Geo
100
AcDbLine
10
-30.3057241977451
20
1.44593031669618
30
0.000000000000000
11
-30.2057241977451
21
1.39075945727810
31
0.000000000000000
  0
LINE
  5
F10492
330
F10493
100
AcDbEntity
8
Geo
100
AcDbLine
10
-30.2057241977451
20
1.39075945727810
30
0.000000000000000
11
-30.1057241977451
21
1.33651868523052
31
0.000000000000000
  0
LINE
  5
F10494
330
F10495
100
AcDbEntity
8
Geo
100
AcDbLine
10
-30.1057241977451
20
1.33651868523052
30
0.000000000000000
11
-30.0057241977451
21
1.28321469687616
31
0.000000000000000
  0
LINE
  5
F10496
330
F10497
100
AcDbEntity
8
Geo
100
AcDbLine
10
-30.0057241977451
20
1.28321469687616
30
0.000000000000000
11
-29.9057241977451
21
1.23085407288662
31
0.000000000000000
  0
LINE
  5
F10498
330
F10499
100
AcDbEntity
8
Geo
100
AcDbLine
10
-29.9057241977451
20
1.23085407288662
30
0.000000000000000
11
-29.8057241977451
21
1.17944327746995
31
0.000000000000000
  0
LINE
  5
F1049A
330
F1049B
100
AcDbEntity
8
Geo
100
AcDbLine
10
-29.8057241977451
20
1.17944327746995
30
0.000000000000000
11
-29.7057241977451
21
1.12898865757266
31
0.000000000000000
  0
LINE
  5
F1049C
330
F1049D
100
AcDbEntity
8
Geo
100
AcDbLine
10
-29.7057241977451
20
1.12898865757266
30
0.000000000000000
11
-29.6057241977451
21
1.07949644209605
31
0.000000000000000
  0
LINE
  5
F1049E
330
F1049F
100
AcDbEntity
8
Geo
100
AcDbLine
10
-29.6057241977451
20
1.07949644209605
30
0.000000000000000
11
-29.5057241977451
21
1.03097274112735
31
0.000000000000000
  0
LINE
  5
F104A0
330
F104A1
100
AcDbEntity
8
Geo
100
AcDbLine
10
-29.5057241977451
20
1.03097274112735
30
0.000000000000000
11
-29.4057241977451
21
0.983423545185272
31
0.000000000000000
  0
LINE
  5
F104A2
330
F104A3
100
AcDbEntity
8
Geo
100
AcDbLine
10
-29.4057241977451
20
0.983423545185272
30
0.000000000000000
11
-29.3057241977451
21
0.936854724480538
31
0.000000000000000
  0
LINE
  5
F104A4
330
F104A5
100
AcDbEntity
8
Geo
100
AcDbLine
10
-29.3057241977451
20
0.936854724480538
30
0.000000000000000
11
-29.2057241977451
21
0.891272028191120
31
0.000000000000000
  0
LINE
  5
F104A6
330
F104A7
100
AcDbEntity
8
Geo
100
AcDbLine
10
-29.2057241977451
20
0.891272028191120
30
0.000000000000000
11
-29.1057241977451
21
0.846681083752491
31
0.000000000000000
  0
LINE
  5
F104A8
330
F104A9
100
AcDbEntity
8
Geo
100
AcDbLine
10
-29.1057241977451
20
0.846681083752491
30
0.000000000000000
11
-29.0057241977451
21
0.803087396162887
31
0.000000000000000
  0
LINE
  5
F104AA
330
F104AB
100
AcDbEntity
8
Geo
100
AcDbLine
10
-29.0057241977451
20
0.803087396162887
30
0.000000000000000
11
-28.9057241977451
21
0.760496347303675
31
0.000000000000000
  0
LINE
  5
F104AC
330
F104AD
100
AcDbEntity
8
Geo
100
AcDbLine
10
-28.9057241977451
20
0.760496347303675
30
0.000000000000000
11
-28.8057241977451
21
0.718913195274940
31
0.000000000000000
  0
LINE
  5
F104AE
330
F104AF
100
AcDbEntity
8
Geo
100
AcDbLine
10
-28.8057241977451
20
0.718913195274940
30
0.000000000000000
11
-28.7057241977451
21
0.678343073746341
31
0.000000000000000
  0
LINE
  5
F104B0
330
F104B1
100
AcDbEntity
8
Geo
100
AcDbLine
10
-28.7057241977451
20
0.678343073746341
30
0.000000000000000
11
-28.6057241977451
21
0.638790991323321
31
0.000000000000000
  0
LINE
  5
F104B2
330
F104B3
100
AcDbEntity
8
Geo
100
AcDbLine
10
-28.6057241977451
20
0.638790991323321
30
0.000000000000000
11
-28.5057241977451
21
0.600261830928789
31
0.000000000000000
  0
LINE
  5
F104B4
330
F104B5
100
AcDbEntity
8
Geo
100
AcDbLine
10
-28.5057241977451
20
0.600261830928789
30
0.000000000000000
11
-28.4057241977451
21
0.562760349200275
31
0.000000000000000
  0
LINE
  5
F104B6
330
F104B7
100
AcDbEntity
8
Geo
100
AcDbLine
10
-28.4057241977451
20
0.562760349200275
30
0.000000000000000
11
-28.3057241977451
21
0.526291175902706
31
0.000000000000000
  0
LINE
  5
F104B8
330
F104B9
100
AcDbEntity
8
Geo
100
AcDbLine
10
-28.3057241977451
20
0.526291175902706
30
0.000000000000000
11
-28.2057241977451
21
0.490858813356837
31
0.000000000000000
  0
LINE
  5
F104BA
330
F104BB
100
AcDbEntity
8
Geo
100
AcDbLine
10
-28.2057241977451
20
0.490858813356837
30
0.000000000000000
11
-28.1057241977451
21
0.456467635883408
31
0.000000000000000
  0
LINE
  5
F104BC
330
F104BD
100
AcDbEntity
8
Geo
100
AcDbLine
10
-28.1057241977451
20
0.456467635883408
30
0.000000000000000
11
-28.0057241977451
21
0.423121889263115
31
0.000000000000000
  0
LINE
  5
F104BE
330
F104BF
100
AcDbEntity
8
Geo
100
AcDbLine
10
-28.0057241977451
20
0.423121889263115
30
0.000000000000000
11
-27.9057241977451
21
0.390825690212454
31
0.000000000000000
  0
LINE
  5
F104C0
330
F104C1
100
AcDbEntity
8
Geo
100
AcDbLine
10
-27.9057241977451
20
0.390825690212454
30
0.000000000000000
11
-27.8057241977451
21
0.359583025875468
31
0.000000000000000
  0
LINE
  5
F104C2
330
F104C3
100
AcDbEntity
8
Geo
100
AcDbLine
10
-27.8057241977451
20
0.359583025875468
30
0.000000000000000
11
-27.7057241977451
21
0.329397753331529
31
0.000000000000000
  0
LINE
  5
F104C4
330
F104C5
100
AcDbEntity
8
Geo
100
AcDbLine
10
-27.7057241977451
20
0.329397753331529
30
0.000000000000000
11
-27.6057241977451
21
0.300273599119157
31
0.000000000000000
  0
LINE
  5
F104C6
330
F104C7
100
AcDbEntity
8
Geo
100
AcDbLine
10
-27.6057241977451
20
0.300273599119157
30
0.000000000000000
11
-27.5057241977451
21
0.272214158775954
31
0.000000000000000
  0
LINE
  5
F104C8
330
F104C9
100
AcDbEntity
8
Geo
100
AcDbLine
10
-27.5057241977451
20
0.272214158775954
30
0.000000000000000
11
-27.4057241977451
21
0.245222896394715
31
0.000000000000000
  0
LINE
  5
F104CA
330
F104CB
100
AcDbEntity
8
Geo
100
AcDbLine
10
-27.4057241977451
20
0.245222896394715
30
0.000000000000000
11
-27.3057241977451
21
0.219303144195777
31
0.000000000000000
  0
LINE
  5
F104CC
330
F104CD
100
AcDbEntity
8
Geo
100
AcDbLine
10
-27.3057241977451
20
0.219303144195777
30
0.000000000000000
11
-27.2057241977451
21
0.194458102115627
31
0.000000000000000
  0
LINE
  5
F104CE
330
F104CF
100
AcDbEntity
8
Geo
100
AcDbLine
10
-27.2057241977451
20
0.194458102115627
30
0.000000000000000
11
-27.1057241977451
21
0.170690837411851
31
0.000000000000000
  0
LINE
  5
F104D0
330
F104D1
100
AcDbEntity
8
Geo
100
AcDbLine
10
-27.1057241977451
20
0.170690837411851
30
0.000000000000000
11
-27.0057241977451
21
0.148004284284472
31
0.000000000000000
  0
LINE
  5
F104D2
330
F104D3
100
AcDbEntity
8
Geo
100
AcDbLine
10
-27.0057241977451
20
0.148004284284472
30
0.000000000000000
11
-26.9057241977451
21
0.126401243513701
31
0.000000000000000
  0
LINE
  5
F104D4
330
F104D5
100
AcDbEntity
8
Geo
100
AcDbLine
10
-26.9057241977451
20
0.126401243513701
30
0.000000000000000
11
-26.8057241977451
21
0.105884382114176
31
0.000000000000000
  0
LINE
  5
F104D6
330
F104D7
100
AcDbEntity
8
Geo
100
AcDbLine
10
-26.8057241977451
20
0.105884382114176
30
0.000000000000000
11
-26.7057241977451
21
0.0864562330056877
31
0.000000000000000
  0
LINE
  5
F104D8
330
F104D9
100
AcDbEntity
8
Geo
100
AcDbLine
10
-26.7057241977451
20
0.0864562330056877
30
0.000000000000000
11
-26.6057241977451
21
0.0681191947004862
31
0.000000000000000
  0
LINE
  5
F104DA
330
F104DB
100
AcDbEntity
8
Geo
100
AcDbLine
10
-26.6057241977451
20
0.0681191947004862
30
0.000000000000000
11
-26.5057241977451
21
0.0508755310071685
31
0.000000000000000
  0
LINE
  5
F104DC
330
F104DD
100
AcDbEntity
8
Geo
100
AcDbLine
10
-26.5057241977451
20
0.0508755310071685
30
0.000000000000000
11
-26.4057241977451
21
0.0347273707512059
31
0.000000000000000
  0
LINE
  5
F104DE
330
F104DF
100
AcDbEntity
8
Geo
100
AcDbLine
10
-26.4057241977451
20
0.0347273707512059
30
0.000000000000000
11
-26.3057241977451
21
0.0196767075121169
31
0.000000000000000
  0
LINE
  5
F104E0
330
F104E1
100
AcDbEntity
8
Geo
100
AcDbLine
10
-26.3057241977451
20
0.0196767075121169
30
0.000000000000000
11
-26.2057241977451
21
0.00572539937736138
31
0.000000000000000
  0
LINE
  5
F104E2
330
F104E3
100
AcDbEntity
8
Geo
100
AcDbLine
10
-26.2057241977451
20
0.00572539937736138
30
0.000000000000000
11
-26.1057241977451
21
-0.00712483128706509
31
0.000000000000000
  0
LINE
  5
F104E4
330
F104E5
100
AcDbEntity
8
Geo
100
AcDbLine
10
-26.1057241977451
20
-0.00712483128706509
30
0.000000000000000
11
-26.0057241977451
21
-0.0188723980492469
31
0.000000000000000
  0
LINE
  5
F104E6
330
F104E7
100
AcDbEntity
8
Geo
100
AcDbLine
10
-26.0057241977451
20
-0.0188723980492469
30
0.000000000000000
11
-25.9057241977451
21
-0.0295158506072273
31
0.000000000000000
  0
LINE
  5
F104E8
330
F104E9
100
AcDbEntity
8
Geo
100
AcDbLine
10
-25.9057241977451
20
-0.0295158506072273
30
0.000000000000000
11
-25.8057241977451
21
-0.0390538749680331
31
0.000000000000000
  0
LINE
  5
F104EA
330
F104EB
100
AcDbEntity
8
Geo
100
AcDbLine
10
-25.8057241977451
20
-0.0390538749680331
30
0.000000000000000
11
-25.7057241977451
21
-0.0474852936099079
31
0.000000000000000
  0
LINE
  5
F104EC
330
F104ED
100
AcDbEntity
8
Geo
100
AcDbLine
10
-25.7057241977451
20
-0.0474852936099079
30
0.000000000000000
11
-25.6057241977451
21
-0.0548090656276781
31
0.000000000000000
  0
LINE
  5
F104EE
330
F104EF
100
AcDbEntity
8
Geo
100
AcDbLine
10
-25.6057241977451
20
-0.0548090656276781
30
0.000000000000000
11
-25.5057241977451
21
-0.0610242868612598
31
0.000000000000000
  0
LINE
  5
F104F0
330
F104F1
100
AcDbEntity
8
Geo
100
AcDbLine
10
-25.5057241977451
20
-0.0610242868612598
30
0.000000000000000
11
-25.4057241977451
21
-0.0661301900072875
31
0.000000000000000
  0
LINE
  5
F104F2
330
F104F3
100
AcDbEntity
8
Geo
100
AcDbLine
10
-25.4057241977451
20
-0.0661301900072875
30
0.000000000000000
11
-25.3057241977451
21
-0.0701261447138304
31
0.000000000000000
  0
LINE
  5
F104F4
330
F104F5
100
AcDbEntity
8
Geo
100
AcDbLine
10
-25.3057241977451
20
-0.0701261447138304
30
0.000000000000000
11
-25.2057241977451
21
-0.0730116576582240
31
0.000000000000000
  0
LINE
  5
F104F6
330
F104F7
100
AcDbEntity
8
Geo
100
AcDbLine
10
-25.2057241977451
20
-0.0730116576582240
30
0.000000000000000
11
-25.1057241977451
21
-0.0747863726079654
31
0.000000000000000
  0
LINE
  5
F104F8
330
F104F9
100
AcDbEntity
8
Geo
100
AcDbLine
10
-25.1057241977451
20
-0.0747863726079654
30
0.000000000000000
11
-25.0057241977451
21
-0.0754500704646990
31
0.000000000000000
  0
LINE
  5
F104FA
330
F104FB
100
AcDbEntity
8
Geo
100
AcDbLine
10
-25.0057241977451
20
-0.0754500704646990
30
0.000000000000000
11
-24.9959904992292
21
-0.0754553339115489
31
0.000000000000000
  0
LINE
  5
F104FC
330
F104FD
100
AcDbEntity
8
Geo
100
AcDbLine
10
-21.3057241977451
20
8.06303273395911
30
0.000000000000000
11
-21.2057241977451
21
7.96354716553759
31
0.000000000000000
  0
LINE
  5
F104FE
330
F104FF
100
AcDbEntity
8
Geo
100
AcDbLine
10
-21.2057241977451
20
7.96354716553759
30
0.000000000000000
11
-21.1057241977451
21
7.86418023756223
31
0.000000000000000
  0
LINE
  5
F10500
330
F10501
100
AcDbEntity
8
Geo
100
AcDbLine
10
-21.1057241977451
20
7.86418023756223
30
0.000000000000000
11
-21.0057241977451
21
7.76494421742878
31
0.000000000000000
  0
LINE
  5
F10502
330
F10503
100
AcDbEntity
8
Geo
100
AcDbLine
10
-21.0057241977451
20
7.76494421742878
30
0.000000000000000
11
-20.9057241977451
21
7.66585135637199
31
0.000000000000000
  0
LINE
  5
F10504
330
F10505
100
AcDbEntity
8
Geo
100
AcDbLine
10
-20.9057241977451
20
7.66585135637199
30
0.000000000000000
11
-20.8057241977451
21
7.56691388795604
31
0.000000000000000
  0
LINE
  5
F10506
330
F10507
100
AcDbEntity
8
Geo
100
AcDbLine
10
-20.8057241977451
20
7.56691388795604
30
0.000000000000000
11
-20.7057241977451
21
7.46814402658415
31
0.000000000000000
  0
LINE
  5
F10508
330
F10509
100
AcDbEntity
8
Geo
100
AcDbLine
10
-20.7057241977451
20
7.46814402658415
30
0.000000000000000
11
-20.6057241977451
21
7.36955396608359
31
0.000000000000000
  0
LINE
  5
F1050A
330
F1050B
100
AcDbEntity
8
Geo
100
AcDbLine
10
-20.6057241977451
20
7.36955396608359
30
0.000000000000000
11
-20.5057241977451
21
7.27115587853512
31
0.000000000000000
  0
LINE
  5
F1050C
330
F1050D
100
AcDbEntity
8
Geo
100
AcDbLine
10
-20.5057241977451
20
7.27115587853512
30
0.000000000000000
11
-20.4057241977451
21
7.17296191376981
31
0.000000000000000
  0
LINE
  5
F1050E
330
F1050F
100
AcDbEntity
8
Geo
100
AcDbLine
10
-20.4057241977451
20
7.17296191376981
30
0.000000000000000
11
-20.3057241977451
21
7.07498420045607
31
0.000000000000000
  0
LINE
  5
F10510
330
F10511
100
AcDbEntity
8
Geo
100
AcDbLine
10
-20.3057241977451
20
7.07498420045607
30
0.000000000000000
11
-20.2057241977451
21
6.97723485059420
31
0.000000000000000
  0
LINE
  5
F10512
330
F10513
100
AcDbEntity
8
Geo
100
AcDbLine
10
-20.2057241977451
20
6.97723485059420
30
0.000000000000000
11
-20.1057241977451
21
6.87972597072179
31
0.000000000000000
  0
LINE
  5
F10514
330
F10515
100
AcDbEntity
8
Geo
100
AcDbLine
10
-20.1057241977451
20
6.87972597072179
30
0.000000000000000
11
-20.0057241977451
21
6.78246968546138
31
0.000000000000000
  0
LINE
  5
F10516
330
F10517
100
AcDbEntity
8
Geo
100
AcDbLine
10
-20.0057241977451
20
6.78246968546138
30
0.000000000000000
11
-19.9057241977451
21
6.68547818252262
31
0.000000000000000
  0
LINE
  5
F10518
330
F10519
100
AcDbEntity
8
Geo
100
AcDbLine
10
-19.9057241977451
20
6.68547818252262
30
0.000000000000000
11
-19.8057241977451
21
6.58876379327631
31
0.000000000000000
  0
LINE
  5
F1051A
330
F1051B
100
AcDbEntity
8
Geo
100
AcDbLine
10
-19.8057241977451
20
6.58876379327631
30
0.000000000000000
11
-19.7057241977451
21
6.49233912998535
31
0.000000000000000
  0
LINE
  5
F1051C
330
F1051D
100
AcDbEntity
8
Geo
100
AcDbLine
10
-19.7057241977451
20
6.49233912998535
30
0.000000000000000
11
-19.6057241977451
21
6.39621731021196
31
0.000000000000000
  0
LINE
  5
F1051E
330
F1051F
100
AcDbEntity
8
Geo
100
AcDbLine
10
-19.6057241977451
20
6.39621731021196
30
0.000000000000000
11
-19.5057241977451
21
6.30041231139352
31
0.000000000000000
  0
LINE
  5
F10520
330
F10521
100
AcDbEntity
8
Geo
100
AcDbLine
10
-19.5057241977451
20
6.30041231139352
30
0.000000000000000
11
-19.4057241977451
21
6.20493951473116
31
0.000000000000000
  0
LINE
  5
F10522
330
F10523
100
AcDbEntity
8
Geo
100
AcDbLine
10
-19.4057241977451
20
6.20493951473116
30
0.000000000000000
11
-19.3057241977451
21
6.10981651806938
31
0.000000000000000
  0
LINE
  5
F10524
330
F10525
100
AcDbEntity
8
Geo
100
AcDbLine
10
-19.3057241977451
20
6.10981651806938
30
0.000000000000000
11
-19.2057241977451
21
6.01506432313326
31
0.000000000000000
  0
LINE
  5
F10526
330
F10527
100
AcDbEntity
8
Geo
100
AcDbLine
10
-19.2057241977451
20
6.01506432313326
30
0.000000000000000
11
-19.1057241977451
21
5.92070903416311
31
0.000000000000000
  0
LINE
  5
F10528
330
F10529
100
AcDbEntity
8
Geo
100
AcDbLine
10
-19.1057241977451
20
5.92070903416311
30
0.000000000000000
11
-19.0057241977451
21
5.82678424354374
31
0.000000000000000
  0
LINE
  5
F1052A
330
F1052B
100
AcDbEntity
8
Geo
100
AcDbLine
10
-19.0057241977451
20
5.82678424354374
30
0.000000000000000
11
-18.9057241977451
21
5.73333432643753
31
0.000000000000000
  0
LINE
  5
F1052C
330
F1052D
100
AcDbEntity
8
Geo
100
AcDbLine
10
-18.9057241977451
20
5.73333432643753
30
0.000000000000000
11
-18.8057241977451
21
5.64041892176132
31
0.000000000000000
  0
LINE
  5
F1052E
330
F1052F
100
AcDbEntity
8
Geo
100
AcDbLine
10
-18.8057241977451
20
5.64041892176132
30
0.000000000000000
11
-18.7057241977451
21
5.54811894230362
31
0.000000000000000
  0
LINE
  5
F10530
330
F10531
100
AcDbEntity
8
Geo
100
AcDbLine
10
-18.7057241977451
20
5.54811894230362
30
0.000000000000000
11
-18.6057241977451
21
5.45654453379930
31
0.000000000000000
  0
LINE
  5
F10532
330
F10533
100
AcDbEntity
8
Geo
100
AcDbLine
10
-18.6057241977451
20
5.45654453379930
30
0.000000000000000
11
-18.5057241977451
21
5.36584549321045
31
0.000000000000000
  0
LINE
  5
F10534
330
F10535
100
AcDbEntity
8
Geo
100
AcDbLine
10
-18.5057241977451
20
5.36584549321045
30
0.000000000000000
11
-18.4057241977451
21
5.27622476286330
31
0.000000000000000
  0
LINE
  5
F10536
330
F10537
100
AcDbEntity
8
Geo
100
AcDbLine
10
-18.4057241977451
20
5.27622476286330
30
0.000000000000000
11
-18.3057241977451
21
5.18795574326621
31
0.000000000000000
  0
LINE
  5
F10538
330
F10539
100
AcDbEntity
8
Geo
100
AcDbLine
10
-18.3057241977451
20
5.18795574326621
30
0.000000000000000
11
-18.2057241977451
21
5.10140431930348
31
0.000000000000000
  0
LINE
  5
F1053A
330
F1053B
100
AcDbEntity
8
Geo
100
AcDbLine
10
-18.2057241977451
20
5.10140431930348
30
0.000000000000000
11
-18.1057241977451
21
5.01705668152554
31
0.000000000000000
  0
LINE
  5
F1053C
330
F1053D
100
AcDbEntity
8
Geo
100
AcDbLine
10
-18.1057241977451
20
5.01705668152554
30
0.000000000000000
11
-18.0057241977451
21
4.93555426165213
31
0.000000000000000
  0
LINE
  5
F1053E
330
F1053F
100
AcDbEntity
8
Geo
100
AcDbLine
10
-18.0057241977451
20
4.93555426165213
30
0.000000000000000
11
-17.9057241977451
21
4.85773741350277
31
0.000000000000000
  0
LINE
  5
F10540
330
F10541
100
AcDbEntity
8
Geo
100
AcDbLine
10
-17.9057241977451
20
4.85773741350277
30
0.000000000000000
11
-17.8057241977451
21
4.78469989572316
31
0.000000000000000
  0
LINE
  5
F10542
330
F10543
100
AcDbEntity
8
Geo
100
AcDbLine
10
-17.8057241977451
20
4.78469989572316
30
0.000000000000000
11
-17.7057241977451
21
4.71785681008153
31
0.000000000000000
  0
LINE
  5
F10544
330
F10545
100
AcDbEntity
8
Geo
100
AcDbLine
10
-17.7057241977451
20
4.71785681008153
30
0.000000000000000
11
-17.6057241977451
21
4.65902950763115
31
0.000000000000000
  0
LINE
  5
F10546
330
F10547
100
AcDbEntity
8
Geo
100
AcDbLine
10
-17.6057241977451
20
4.65902950763115
30
0.000000000000000
11
-17.5057241977451
21
4.61055222333210
31
0.000000000000000
  0
LINE
  5
F10548
330
F10549
100
AcDbEntity
8
Geo
100
AcDbLine
10
-17.5057241977451
20
4.61055222333210
30
0.000000000000000
11
-17.4057241977451
21
4.57540701498441
31
0.000000000000000
  0
LINE
  5
F1054A
330
F1054B
100
AcDbEntity
8
Geo
100
AcDbLine
10
-17.4057241977451
20
4.57540701498441
30
0.000000000000000
11
-17.3057241977451
21
4.55739619057981
31
0.000000000000000
  0
LINE
  5
F1054C
330
F1054D
100
AcDbEntity
8
Geo
100
AcDbLine
10
-17.3057241977451
20
4.55739619057981
30
0.000000000000000
11
-17.2057241977450
21
4.56136506013982
31
0.000000000000000
  0
LINE
  5
F1054E
330
F1054F
100
AcDbEntity
8
Geo
100
AcDbLine
10
-17.2057241977450
20
4.56136506013982
30
0.000000000000000
11
-17.1057241977450
21
4.59349273607172
31
0.000000000000000
  0
LINE
  5
F10550
330
F10551
100
AcDbEntity
8
Geo
100
AcDbLine
10
-17.1057241977450
20
4.59349273607172
30
0.000000000000000
11
-17.0057241977450
21
4.66167475118022
31
0.000000000000000
  0
LINE
  5
F10552
330
F10553
100
AcDbEntity
8
Geo
100
AcDbLine
10
-17.0057241977450
20
4.66167475118022
30
0.000000000000000
11
-16.9057241977450
21
4.77602763165845
31
0.000000000000000
  0
LINE
  5
F10554
330
F10555
100
AcDbEntity
8
Geo
100
AcDbLine
10
-16.9057241977450
20
4.77602763165845
30
0.000000000000000
11
-16.8057241977450
21
4.94954963197588
31
0.000000000000000
  0
LINE
  5
F10556
330
F10557
100
AcDbEntity
8
Geo
100
AcDbLine
10
-16.8057241977450
20
4.94954963197588
30
0.000000000000000
11
-16.7057241977450
21
5.19896709104713
31
0.000000000000000
  0
LINE
  5
F10558
330
F10559
100
AcDbEntity
8
Geo
100
AcDbLine
10
-16.7057241977450
20
5.19896709104713
30
0.000000000000000
11
-16.6057241977450
21
5.54576773203469
31
0.000000000000000
  0
LINE
  5
F1055A
330
F1055B
100
AcDbEntity
8
Geo
100
AcDbLine
10
-16.6057241977450
20
5.54576773203469
30
0.000000000000000
11
-16.5057241977450
21
6.01734019962433
31
0.000000000000000
  0
LINE
  5
F1055C
330
F1055D
100
AcDbEntity
8
Geo
100
AcDbLine
10
-16.5057241977450
20
6.01734019962433
30
0.000000000000000
11
-16.4057241977450
21
6.64794266351890
31
0.000000000000000
  0
LINE
  5
F1055E
330
F1055F
100
AcDbEntity
8
Geo
100
AcDbLine
10
-16.4057241977450
20
6.64794266351890
30
0.000000000000000
11
-16.3057241977451
21
7.47879886415643
31
0.000000000000000
  0
LINE
  5
F10560
330
F10561
100
AcDbEntity
8
Geo
100
AcDbLine
10
-16.3057241977451
20
7.47879886415643
30
0.000000000000000
11
-16.3057241977451
21
7.70248909698052
31
0.000000000000000
  0
LINE
  5
F10562
330
F10563
100
AcDbEntity
8
Geo
100
AcDbLine
10
-16.3057241977451
20
7.70248909698052
30
0.000000000000000
11
-16.4057241977450
21
8.56054610229354
31
0.000000000000000
  0
LINE
  5
F10564
330
F10565
100
AcDbEntity
8
Geo
100
AcDbLine
10
-16.4057241977450
20
8.56054610229354
30
0.000000000000000
11
-16.5057241977450
21
9.34814720071555
31
0.000000000000000
  0
LINE
  5
F10566
330
F10567
100
AcDbEntity
8
Geo
100
AcDbLine
10
-16.5057241977450
20
9.34814720071555
30
0.000000000000000
11
-16.6057241977450
21
10.0650468023586
31
0.000000000000000
  0
LINE
  5
F10568
330
F10569
100
AcDbEntity
8
Geo
100
AcDbLine
10
-16.6057241977450
20
10.0650468023586
30
0.000000000000000
11
-16.7057241977450
21
10.7134012282031
31
0.000000000000000
  0
LINE
  5
F1056A
330
F1056B
100
AcDbEntity
8
Geo
100
AcDbLine
10
-16.7057241977450
20
10.7134012282031
30
0.000000000000000
11
-16.8057241977450
21
11.2969067170283
31
0.000000000000000
  0
LINE
  5
F1056C
330
F1056D
100
AcDbEntity
8
Geo
100
AcDbLine
10
-16.8057241977450
20
11.2969067170283
30
0.000000000000000
11
-16.9057241977450
21
11.8201590305167
31
0.000000000000000
  0
LINE
  5
F1056E
330
F1056F
100
AcDbEntity
8
Geo
100
AcDbLine
10
-16.9057241977450
20
11.8201590305167
30
0.000000000000000
11
-17.0057241977450
21
12.2881914439203
31
0.000000000000000
  0
LINE
  5
F10570
330
F10571
100
AcDbEntity
8
Geo
100
AcDbLine
10
-17.0057241977450
20
12.2881914439203
30
0.000000000000000
11
-17.1057241977450
21
12.7061520028881
31
0.000000000000000
  0
LINE
  5
F10572
330
F10573
100
AcDbEntity
8
Geo
100
AcDbLine
10
-17.1057241977450
20
12.7061520028881
30
0.000000000000000
11
-17.2057241977450
21
13.0790866862990
31
0.000000000000000
  0
LINE
  5
F10574
330
F10575
100
AcDbEntity
8
Geo
100
AcDbLine
10
-17.2057241977450
20
13.0790866862990
30
0.000000000000000
11
-17.3057241977451
21
13.4118011837266
31
0.000000000000000
  0
LINE
  5
F10576
330
F10577
100
AcDbEntity
8
Geo
100
AcDbLine
10
-17.3057241977451
20
13.4118011837266
30
0.000000000000000
11
-17.4057241977451
21
13.7087796523712
31
0.000000000000000
  0
LINE
  5
F10578
330
F10579
100
AcDbEntity
8
Geo
100
AcDbLine
10
-17.4057241977451
20
13.7087796523712
30
0.000000000000000
11
-17.5057241977451
21
13.9741437349825
31
0.000000000000000
  0
LINE
  5
F1057A
330
F1057B
100
AcDbEntity
8
Geo
100
AcDbLine
10
-17.5057241977451
20
13.9741437349825
30
0.000000000000000
11
-17.6057241977451
21
14.2116392025436
31
0.000000000000000
  0
LINE
  5
F1057C
330
F1057D
100
AcDbEntity
8
Geo
100
AcDbLine
10
-17.6057241977451
20
14.2116392025436
30
0.000000000000000
11
-17.7057241977451
21
14.4246408643622
31
0.000000000000000
  0
LINE
  5
F1057E
330
F1057F
100
AcDbEntity
8
Geo
100
AcDbLine
10
-17.7057241977451
20
14.4246408643622
30
0.000000000000000
11
-17.8057241977451
21
14.6161689548501
31
0.000000000000000
  0
LINE
  5
F10580
330
F10581
100
AcDbEntity
8
Geo
100
AcDbLine
10
-17.8057241977451
20
14.6161689548501
30
0.000000000000000
11
-17.9057241977451
21
14.7889121730703
31
0.000000000000000
  0
LINE
  5
F10582
330
F10583
100
AcDbEntity
8
Geo
100
AcDbLine
10
-17.9057241977451
20
14.7889121730703
30
0.000000000000000
11
-18.0057241977451
21
14.9452540303782
31
0.000000000000000
  0
LINE
  5
F10584
330
F10585
100
AcDbEntity
8
Geo
100
AcDbLine
10
-18.0057241977451
20
14.9452540303782
30
0.000000000000000
11
-18.1057241977451
21
15.0873002548033
31
0.000000000000000
  0
LINE
  5
F10586
330
F10587
100
AcDbEntity
8
Geo
100
AcDbLine
10
-18.1057241977451
20
15.0873002548033
30
0.000000000000000
11
-18.2057241977451
21
15.2169057949932
31
0.000000000000000
  0
LINE
  5
F10588
330
F10589
100
AcDbEntity
8
Geo
100
AcDbLine
10
-18.2057241977451
20
15.2169057949932
30
0.000000000000000
11
-18.3057241977451
21
15.3357005328843
31
0.000000000000000
  0
LINE
  5
F1058A
330
F1058B
100
AcDbEntity
8
Geo
100
AcDbLine
10
-18.3057241977451
20
15.3357005328843
30
0.000000000000000
11
-18.4057241977451
21
15.4451132097595
31
0.000000000000000
  0
LINE
  5
F1058C
330
F1058D
100
AcDbEntity
8
Geo
100
AcDbLine
10
-18.4057241977451
20
15.4451132097595
30
0.000000000000000
11
-18.5057241977451
21
15.5463933396067
31
0.000000000000000
  0
LINE
  5
F1058E
330
F1058F
100
AcDbEntity
8
Geo
100
AcDbLine
10
-18.5057241977451
20
15.5463933396067
30
0.000000000000000
11
-18.6057241977451
21
15.6406310610290
31
0.000000000000000
  0
LINE
  5
F10590
330
F10591
100
AcDbEntity
8
Geo
100
AcDbLine
10
-18.6057241977451
20
15.6406310610290
30
0.000000000000000
11
-18.7057241977451
21
15.7287749903998
31
0.000000000000000
  0
LINE
  5
F10592
330
F10593
100
AcDbEntity
8
Geo
100
AcDbLine
10
-18.7057241977451
20
15.7287749903998
30
0.000000000000000
11
-18.8057241977451
21
15.8116482040192
31
0.000000000000000
  0
LINE
  5
F10594
330
F10595
100
AcDbEntity
8
Geo
100
AcDbLine
10
-18.8057241977451
20
15.8116482040192
30
0.000000000000000
11
-18.9057241977451
21
15.8899625101282
31
0.000000000000000
  0
LINE
  5
F10596
330
F10597
100
AcDbEntity
8
Geo
100
AcDbLine
10
-18.9057241977451
20
15.8899625101282
30
0.000000000000000
11
-19.0057241977451
21
15.9643311833392
31
0.000000000000000
  0
LINE
  5
F10598
330
F10599
100
AcDbEntity
8
Geo
100
AcDbLine
10
-19.0057241977451
20
15.9643311833392
30
0.000000000000000
11
-19.1057241977451
21
16.0352803319558
31
0.000000000000000
  0
LINE
  5
F1059A
330
F1059B
100
AcDbEntity
8
Geo
100
AcDbLine
10
-19.1057241977451
20
16.0352803319558
30
0.000000000000000
11
-19.2057241977451
21
16.1032590582041
31
0.000000000000000
  0
LINE
  5
F1059C
330
F1059D
100
AcDbEntity
8
Geo
100
AcDbLine
10
-19.2057241977451
20
16.1032590582041
30
0.000000000000000
11
-19.3057241977451
21
16.1686485563729
31
0.000000000000000
  0
LINE
  5
F1059E
330
F1059F
100
AcDbEntity
8
Geo
100
AcDbLine
10
-19.3057241977451
20
16.1686485563729
30
0.000000000000000
11
-19.4057241977451
21
16.2317702768450
31
0.000000000000000
  0
LINE
  5
F105A0
330
F105A1
100
AcDbEntity
8
Geo
100
AcDbLine
10
-19.4057241977451
20
16.2317702768450
30
0.000000000000000
11
-19.5057241977451
21
16.2928932667266
31
0.000000000000000
  0
LINE
  5
F105A2
330
F105A3
100
AcDbEntity
8
Geo
100
AcDbLine
10
-19.5057241977451
20
16.2928932667266
30
0.000000000000000
11
-19.6057241977451
21
16.3522407813178
31
0.000000000000000
  0
LINE
  5
F105A4
330
F105A5
100
AcDbEntity
8
Geo
100
AcDbLine
10
-19.6057241977451
20
16.3522407813178
30
0.000000000000000
11
-19.7057241977451
21
16.4099962456823
31
0.000000000000000
  0
LINE
  5
F105A6
330
F105A7
100
AcDbEntity
8
Geo
100
AcDbLine
10
-19.7057241977451
20
16.4099962456823
30
0.000000000000000
11
-19.8057241977451
21
16.4663086323782
31
0.000000000000000
  0
LINE
  5
F105A8
330
F105A9
100
AcDbEntity
8
Geo
100
AcDbLine
10
-19.8057241977451
20
16.4663086323782
30
0.000000000000000
11
-19.9057241977451
21
16.5212973101402
31
0.000000000000000
  0
LINE
  5
F105AA
330
F105AB
100
AcDbEntity
8
Geo
100
AcDbLine
10
-19.9057241977451
20
16.5212973101402
30
0.000000000000000
11
-20.0057241977451
21
16.5750564089256
31
0.000000000000000
  0
LINE
  5
F105AC
330
F105AD
100
AcDbEntity
8
Geo
100
AcDbLine
10
-20.0057241977451
20
16.5750564089256
30
0.000000000000000
11
-20.1057241977451
21
16.6276587391348
31
0.000000000000000
  0
LINE
  5
F105AE
330
F105AF
100
AcDbEntity
8
Geo
100
AcDbLine
10
-20.1057241977451
20
16.6276587391348
30
0.000000000000000
11
-20.2057241977451
21
16.6791592968387
31
0.000000000000000
  0
LINE
  5
F105B0
330
F105B1
100
AcDbEntity
8
Geo
100
AcDbLine
10
-20.2057241977451
20
16.6791592968387
30
0.000000000000000
11
-20.3057241977451
21
16.7295983822739
31
0.000000000000000
  0
LINE
  5
F105B2
330
F105B3
100
AcDbEntity
8
Geo
100
AcDbLine
10
-20.3057241977451
20
16.7295983822739
30
0.000000000000000
11
-20.4057241977451
21
16.7790043555158
31
0.000000000000000
  0
LINE
  5
F105B4
330
F105B5
100
AcDbEntity
8
Geo
100
AcDbLine
10
-20.4057241977451
20
16.7790043555158
30
0.000000000000000
11
-20.5057241977451
21
16.8273960508970
31
0.000000000000000
  0
LINE
  5
F105B6
330
F105B7
100
AcDbEntity
8
Geo
100
AcDbLine
10
-20.5057241977451
20
16.8273960508970
30
0.000000000000000
11
-20.6057241977451
21
16.8747848702117
31
0.000000000000000
  0
LINE
  5
F105B8
330
F105B9
100
AcDbEntity
8
Geo
100
AcDbLine
10
-20.6057241977451
20
16.8747848702117
30
0.000000000000000
11
-20.7057241977451
21
16.9211765738704
31
0.000000000000000
  0
LINE
  5
F105BA
330
F105BB
100
AcDbEntity
8
Geo
100
AcDbLine
10
-20.7057241977451
20
16.9211765738704
30
0.000000000000000
11
-20.8057241977451
21
16.9665727887770
31
0.000000000000000
  0
LINE
  5
F105BC
330
F105BD
100
AcDbEntity
8
Geo
100
AcDbLine
10
-20.8057241977451
20
16.9665727887770
30
0.000000000000000
11
-20.9057241977451
21
17.0109722516686
31
0.000000000000000
  0
LINE
  5
F105BE
330
F105BF
100
AcDbEntity
8
Geo
100
AcDbLine
10
-20.9057241977451
20
17.0109722516686
30
0.000000000000000
11
-21.0057241977451
21
17.0543718068691
31
0.000000000000000
  0
LINE
  5
F105C0
330
F105C1
100
AcDbEntity
8
Geo
100
AcDbLine
10
-21.0057241977451
20
17.0543718068691
30
0.000000000000000
11
-21.1057241977451
21
17.0967671777795
31
0.000000000000000
  0
LINE
  5
F105C2
330
F105C3
100
AcDbEntity
8
Geo
100
AcDbLine
10
-21.1057241977451
20
17.0967671777795
30
0.000000000000000
11
-21.2057241977451
21
17.1381535318820
31
0.000000000000000
  0
LINE
  5
F105C4
330
F105C5
100
AcDbEntity
8
Geo
100
AcDbLine
10
-21.2057241977451
20
17.1381535318820
30
0.000000000000000
11
-21.3057241977451
21
17.1785258595305
31
0.000000000000000
  0
LINE
  5
F105C6
330
F105C7
100
AcDbEntity
8
Geo
100
AcDbLine
10
-16.4519403044168
20
-0.0754553339115489
30
0.000000000000000
11
-16.5057241977450
21
-0.0654809675044543
31
0.000000000000000
  0
LINE
  5
F105C8
330
F105C9
100
AcDbEntity
8
Geo
100
AcDbLine
10
-16.5057241977450
20
-0.0654809675044543
30
0.000000000000000
11
-16.6057241977450
21
-0.00289925012650016
31
0.000000000000000
  0
LINE
  5
F105CA
330
F105CB
100
AcDbEntity
8
Geo
100
AcDbLine
10
-16.6057241977450
20
-0.00289925012650016
30
0.000000000000000
11
-16.7057241977450
21
0.104114279753592
31
0.000000000000000
  0
LINE
  5
F105CC
330
F105CD
100
AcDbEntity
8
Geo
100
AcDbLine
10
-16.7057241977450
20
0.104114279753592
30
0.000000000000000
11
-16.8057241977450
21
0.242845621589115
31
0.000000000000000
  0
LINE
  5
F105CE
330
F105CF
100
AcDbEntity
8
Geo
100
AcDbLine
10
-16.8057241977450
20
0.242845621589115
30
0.000000000000000
11
-16.9057241977450
21
0.403076632203849
31
0.000000000000000
  0
LINE
  5
F105D0
330
F105D1
100
AcDbEntity
8
Geo
100
AcDbLine
10
-16.9057241977450
20
0.403076632203849
30
0.000000000000000
11
-17.0057241977450
21
0.576737747263516
31
0.000000000000000
  0
LINE
  5
F105D2
330
F105D3
100
AcDbEntity
8
Geo
100
AcDbLine
10
-17.0057241977450
20
0.576737747263516
30
0.000000000000000
11
-17.1057241977450
21
0.757571790520442
31
0.000000000000000
  0
LINE
  5
F105D4
330
F105D5
100
AcDbEntity
8
Geo
100
AcDbLine
10
-17.1057241977450
20
0.757571790520442
30
0.000000000000000
11
-17.2057241977450
21
0.940824943909737
31
0.000000000000000
  0
LINE
  5
F105D6
330
F105D7
100
AcDbEntity
8
Geo
100
AcDbLine
10
-17.2057241977450
20
0.940824943909737
30
0.000000000000000
11
-17.3057241977451
21
1.12297245627623
31
0.000000000000000
  0
LINE
  5
F105D8
330
F105D9
100
AcDbEntity
8
Geo
100
AcDbLine
10
-17.3057241977451
20
1.12297245627623
30
0.000000000000000
11
-17.4057241977451
21
1.30148126637648
31
0.000000000000000
  0
LINE
  5
F105DA
330
F105DB
100
AcDbEntity
8
Geo
100
AcDbLine
10
-17.4057241977451
20
1.30148126637648
30
0.000000000000000
11
-17.5057241977451
21
1.47460847552783
31
0.000000000000000
  0
LINE
  5
F105DC
330
F105DD
100
AcDbEntity
8
Geo
100
AcDbLine
10
-17.5057241977451
20
1.47460847552783
30
0.000000000000000
11
-17.6057241977451
21
1.64123282582054
31
0.000000000000000
  0
LINE
  5
F105DE
330
F105DF
100
AcDbEntity
8
Geo
100
AcDbLine
10
-17.6057241977451
20
1.64123282582054
30
0.000000000000000
11
-17.7057241977451
21
1.80071551248471
31
0.000000000000000
  0
LINE
  5
F105E0
330
F105E1
100
AcDbEntity
8
Geo
100
AcDbLine
10
-17.7057241977451
20
1.80071551248471
30
0.000000000000000
11
-17.8057241977451
21
1.95278642619098
31
0.000000000000000
  0
LINE
  5
F105E2
330
F105E3
100
AcDbEntity
8
Geo
100
AcDbLine
10
-17.8057241977451
20
1.95278642619098
30
0.000000000000000
11
-17.9057241977451
21
2.09745203869165
31
0.000000000000000
  0
LINE
  5
F105E4
330
F105E5
100
AcDbEntity
8
Geo
100
AcDbLine
10
-17.9057241977451
20
2.09745203869165
30
0.000000000000000
11
-18.0057241977451
21
2.23492145167992
31
0.000000000000000
  0
LINE
  5
F105E6
330
F105E7
100
AcDbEntity
8
Geo
100
AcDbLine
10
-18.0057241977451
20
2.23492145167992
30
0.000000000000000
11
-18.1057241977451
21
2.36554752065809
31
0.000000000000000
  0
LINE
  5
F105E8
330
F105E9
100
AcDbEntity
8
Geo
100
AcDbLine
10
-18.1057241977451
20
2.36554752065809
30
0.000000000000000
11
-18.2057241977451
21
2.48978037953925
31
0.000000000000000
  0
LINE
  5
F105EA
330
F105EB
100
AcDbEntity
8
Geo
100
AcDbLine
10
-18.2057241977451
20
2.48978037953925
30
0.000000000000000
11
-18.3057241977451
21
2.60813109099306
31
0.000000000000000
  0
LINE
  5
F105EC
330
F105ED
100
AcDbEntity
8
Geo
100
AcDbLine
10
-18.3057241977451
20
2.60813109099306
30
0.000000000000000
11
-18.4057241977451
21
2.72114351290737
31
0.000000000000000
  0
LINE
  5
F105EE
330
F105EF
100
AcDbEntity
8
Geo
100
AcDbLine
10
-18.4057241977451
20
2.72114351290737
30
0.000000000000000
11
-18.5057241977451
21
2.82937279443261
31
0.000000000000000
  0
LINE
  5
F105F0
330
F105F1
100
AcDbEntity
8
Geo
100
AcDbLine
10
-18.5057241977451
20
2.82937279443261
30
0.000000000000000
11
-18.6057241977451
21
2.93336919413852
31
0.000000000000000
  0
LINE
  5
F105F2
330
F105F3
100
AcDbEntity
8
Geo
100
AcDbLine
10
-18.6057241977451
20
2.93336919413852
30
0.000000000000000
11
-18.7057241977451
21
3.03366614979551
31
0.000000000000000
  0
LINE
  5
F105F4
330
F105F5
100
AcDbEntity
8
Geo
100
AcDbLine
10
-18.7057241977451
20
3.03366614979551
30
0.000000000000000
11
-18.8057241977451
21
3.13077172802627
31
0.000000000000000
  0
LINE
  5
F105F6
330
F105F7
100
AcDbEntity
8
Geo
100
AcDbLine
10
-18.8057241977451
20
3.13077172802627
30
0.000000000000000
11
-18.9057241977451
21
3.22516274714908
31
0.000000000000000
  0
LINE
  5
F105F8
330
F105F9
100
AcDbEntity
8
Geo
100
AcDbLine
10
-18.9057241977451
20
3.22516274714908
30
0.000000000000000
11
-19.0057241977451
21
3.31728100263057
31
0.000000000000000
  0
LINE
  5
F105FA
330
F105FB
100
AcDbEntity
8
Geo
100
AcDbLine
10
-19.0057241977451
20
3.31728100263057
30
0.000000000000000
11
-19.1057241977451
21
3.40753113609211
31
0.000000000000000
  0
LINE
  5
F105FC
330
F105FD
100
AcDbEntity
8
Geo
100
AcDbLine
10
-19.1057241977451
20
3.40753113609211
30
0.000000000000000
11
-19.2057241977451
21
3.49627977973376
31
0.000000000000000
  0
LINE
  5
F105FE
330
F105FF
100
AcDbEntity
8
Geo
100
AcDbLine
10
-19.2057241977451
20
3.49627977973376
30
0.000000000000000
11
-19.3057241977451
21
3.58385568181250
31
0.000000000000000
  0
LINE
  5
F10600
330
F10601
100
AcDbEntity
8
Geo
100
AcDbLine
10
-19.3057241977451
20
3.58385568181250
30
0.000000000000000
11
-19.4057241977451
21
3.67055057839633
31
0.000000000000000
  0
LINE
  5
F10602
330
F10603
100
AcDbEntity
8
Geo
100
AcDbLine
10
-19.4057241977451
20
3.67055057839633
30
0.000000000000000
11
-19.5057241977451
21
3.75662062451487
31
0.000000000000000
  0
LINE
  5
F10604
330
F10605
100
AcDbEntity
8
Geo
100
AcDbLine
10
-19.5057241977451
20
3.75662062451487
30
0.000000000000000
11
-19.6057241977451
21
3.84228823613465
31
0.000000000000000
  0
LINE
  5
F10606
330
F10607
100
AcDbEntity
8
Geo
100
AcDbLine
10
-19.6057241977451
20
3.84228823613465
30
0.000000000000000
11
-19.7057241977451
21
3.92774422485051
31
0.000000000000000
  0
LINE
  5
F10608
330
F10609
100
AcDbEntity
8
Geo
100
AcDbLine
10
-19.7057241977451
20
3.92774422485051
30
0.000000000000000
11
-19.8057241977451
21
4.01315013125678
31
0.000000000000000
  0
LINE
  5
F1060A
330
F1060B
100
AcDbEntity
8
Geo
100
AcDbLine
10
-19.8057241977451
20
4.01315013125678
30
0.000000000000000
11
-19.9057241977451
21
4.09864068184957
31
0.000000000000000
  0
LINE
  5
F1060C
330
F1060D
100
AcDbEntity
8
Geo
100
AcDbLine
10
-19.9057241977451
20
4.09864068184957
30
0.000000000000000
11
-20.0057241977451
21
4.18432630901761
31
0.000000000000000
  0
LINE
  5
F1060E
330
F1060F
100
AcDbEntity
8
Geo
100
AcDbLine
10
-20.0057241977451
20
4.18432630901761
30
0.000000000000000
11
-20.1057241977451
21
4.27029568503517
31
0.000000000000000
  0
LINE
  5
F10610
330
F10611
100
AcDbEntity
8
Geo
100
AcDbLine
10
-20.1057241977451
20
4.27029568503517
30
0.000000000000000
11
-20.2057241977451
21
4.35661822966746
31
0.000000000000000
  0
LINE
  5
F10612
330
F10613
100
AcDbEntity
8
Geo
100
AcDbLine
10
-20.2057241977451
20
4.35661822966746
30
0.000000000000000
11
-20.3057241977451
21
4.44334655760677
31
0.000000000000000
  0
LINE
  5
F10614
330
F10615
100
AcDbEntity
8
Geo
100
AcDbLine
10
-20.3057241977451
20
4.44334655760677
30
0.000000000000000
11
-20.4057241977451
21
4.53051883694720
31
0.000000000000000
  0
LINE
  5
F10616
330
F10617
100
AcDbEntity
8
Geo
100
AcDbLine
10
-20.4057241977451
20
4.53051883694720
30
0.000000000000000
11
-20.5057241977451
21
4.61816103366208
31
0.000000000000000
  0
LINE
  5
F10618
330
F10619
100
AcDbEntity
8
Geo
100
AcDbLine
10
-20.5057241977451
20
4.61816103366208
30
0.000000000000000
11
-20.6057241977451
21
4.70628901988312
31
0.000000000000000
  0
LINE
  5
F1061A
330
F1061B
100
AcDbEntity
8
Geo
100
AcDbLine
10
-20.6057241977451
20
4.70628901988312
30
0.000000000000000
11
-20.7057241977451
21
4.79491052594424
31
0.000000000000000
  0
LINE
  5
F1061C
330
F1061D
100
AcDbEntity
8
Geo
100
AcDbLine
10
-20.7057241977451
20
4.79491052594424
30
0.000000000000000
11
-20.8057241977451
21
4.88402691784307
31
0.000000000000000
  0
LINE
  5
F1061E
330
F1061F
100
AcDbEntity
8
Geo
100
AcDbLine
10
-20.8057241977451
20
4.88402691784307
30
0.000000000000000
11
-20.9057241977451
21
4.97363478314150
31
0.000000000000000
  0
LINE
  5
F10620
330
F10621
100
AcDbEntity
8
Geo
100
AcDbLine
10
-20.9057241977451
20
4.97363478314150
30
0.000000000000000
11
-21.0057241977451
21
5.06372730948812
31
0.000000000000000
  0
LINE
  5
F10622
330
F10623
100
AcDbEntity
8
Geo
100
AcDbLine
10
-21.0057241977451
20
5.06372730948812
30
0.000000000000000
11
-21.1057241977451
21
5.15429544098278
31
0.000000000000000
  0
LINE
  5
F10624
330
F10625
100
AcDbEntity
8
Geo
100
AcDbLine
10
-21.1057241977451
20
5.15429544098278
30
0.000000000000000
11
-21.2057241977451
21
5.24532879857578
31
0.000000000000000
  0
LINE
  5
F10626
330
F10627
100
AcDbEntity
8
Geo
100
AcDbLine
10
-21.2057241977451
20
5.24532879857578
30
0.000000000000000
11
-21.3057241977451
21
5.33681635163859
31
0.000000000000000
  0
LINE
  5
F10628
330
F10629
100
AcDbEntity
8
Geo
100
AcDbLine
10
-21.3057241977451
20
17.8832162858543
30
0.000000000000000
11
-21.2057241977451
21
17.8730911292821
31
0.000000000000000
  0
LINE
  5
F1062A
330
F1062B
100
AcDbEntity
8
Geo
100
AcDbLine
10
-21.2057241977451
20
17.8730911292821
30
0.000000000000000
11
-21.1057241977451
21
17.8618612252530
31
0.000000000000000
  0
LINE
  5
F1062C
330
F1062D
100
AcDbEntity
8
Geo
100
AcDbLine
10
-21.1057241977451
20
17.8618612252530
30
0.000000000000000
11
-21.0057241977451
21
17.8495279601607
31
0.000000000000000
  0
LINE
  5
F1062E
330
F1062F
100
AcDbEntity
8
Geo
100
AcDbLine
10
-21.0057241977451
20
17.8495279601607
30
0.000000000000000
11
-20.9057241977451
21
17.8360928566149
31
0.000000000000000
  0
LINE
  5
F10630
330
F10631
100
AcDbEntity
8
Geo
100
AcDbLine
10
-20.9057241977451
20
17.8360928566149
30
0.000000000000000
11
-20.8057241977451
21
17.8215575732538
31
0.000000000000000
  0
LINE
  5
F10632
330
F10633
100
AcDbEntity
8
Geo
100
AcDbLine
10
-20.8057241977451
20
17.8215575732538
30
0.000000000000000
11
-20.7057241977451
21
17.8059239045430
31
0.000000000000000
  0
LINE
  5
F10634
330
F10635
100
AcDbEntity
8
Geo
100
AcDbLine
10
-20.7057241977451
20
17.8059239045430
30
0.000000000000000
11
-20.6057241977451
21
17.7891937805711
31
0.000000000000000
  0
LINE
  5
F10636
330
F10637
100
AcDbEntity
8
Geo
100
AcDbLine
10
-20.6057241977451
20
17.7891937805711
30
0.000000000000000
11
-20.5057241977451
21
17.7713692668813
31
0.000000000000000
  0
LINE
  5
F10638
330
F10639
100
AcDbEntity
8
Geo
100
AcDbLine
10
-20.5057241977451
20
17.7713692668813
30
0.000000000000000
11
-20.4057241977451
21
17.7524525644401
31
0.000000000000000
  0
LINE
  5
F1063A
330
F1063B
100
AcDbEntity
8
Geo
100
AcDbLine
10
-20.4057241977451
20
17.7524525644401
30
0.000000000000000
11
-20.3057241977451
21
17.7324460099938
31
0.000000000000000
  0
LINE
  5
F1063C
330
F1063D
100
AcDbEntity
8
Geo
100
AcDbLine
10
-20.3057241977451
20
17.7324460099938
30
0.000000000000000
11
-20.2057241977451
21
17.7113520773431
31
0.000000000000000
  0
LINE
  5
F1063E
330
F1063F
100
AcDbEntity
8
Geo
100
AcDbLine
10
-20.2057241977451
20
17.7113520773431
30
0.000000000000000
11
-20.1057241977451
21
17.6891733805908
31
0.000000000000000
  0
LINE
  5
F10640
330
F10641
100
AcDbEntity
8
Geo
100
AcDbLine
10
-20.1057241977451
20
17.6891733805908
30
0.000000000000000
11
-20.0057241977451
21
17.6659126813005
31
0.000000000000000
  0
LINE
  5
F10642
330
F10643
100
AcDbEntity
8
Geo
100
AcDbLine
10
-20.0057241977451
20
17.6659126813005
30
0.000000000000000
11
-19.9057241977451
21
17.6415729029460
31
0.000000000000000
  0
LINE
  5
F10644
330
F10645
100
AcDbEntity
8
Geo
100
AcDbLine
10
-19.9057241977451
20
17.6415729029460
30
0.000000000000000
11
-19.8057241977451
21
17.6161571582676
31
0.000000000000000
  0
LINE
  5
F10646
330
F10647
100
AcDbEntity
8
Geo
100
AcDbLine
10
-19.8057241977451
20
17.6161571582676
30
0.000000000000000
11
-19.7057241977451
21
17.5896687985028
31
0.000000000000000
  0
LINE
  5
F10648
330
F10649
100
AcDbEntity
8
Geo
100
AcDbLine
10
-19.7057241977451
20
17.5896687985028
30
0.000000000000000
11
-19.6057241977451
21
17.5621114983351
31
0.000000000000000
  0
LINE
  5
F1064A
330
F1064B
100
AcDbEntity
8
Geo
100
AcDbLine
10
-19.6057241977451
20
17.5621114983351
30
0.000000000000000
11
-19.5057241977451
21
17.5334893972993
31
0.000000000000000
  0
LINE
  5
F1064C
330
F1064D
100
AcDbEntity
8
Geo
100
AcDbLine
10
-19.5057241977451
20
17.5334893972993
30
0.000000000000000
11
-19.4057241977451
21
17.5038073279208
31
0.000000000000000
  0
LINE
  5
F1064E
330
F1064F
100
AcDbEntity
8
Geo
100
AcDbLine
10
-19.4057241977451
20
17.5038073279208
30
0.000000000000000
11
-19.3057241977451
21
17.4730711737826
31
0.000000000000000
  0
LINE
  5
F10650
330
F10651
100
AcDbEntity
8
Geo
100
AcDbLine
10
-19.3057241977451
20
17.4730711737826
30
0.000000000000000
11
-19.2057241977451
21
17.4412884178963
31
0.000000000000000
  0
LINE
  5
F10652
330
F10653
100
AcDbEntity
8
Geo
100
AcDbLine
10
-19.2057241977451
20
17.4412884178963
30
0.000000000000000
11
-19.1057241977451
21
17.4084689642170
31
0.000000000000000
  0
LINE
  5
F10654
330
F10655
100
AcDbEntity
8
Geo
100
AcDbLine
10
-19.1057241977451
20
17.4084689642170
30
0.000000000000000
11
-19.0057241977451
21
17.3746263440674
31
0.000000000000000
  0
LINE
  5
F10656
330
F10657
100
AcDbEntity
8
Geo
100
AcDbLine
10
-19.0057241977451
20
17.3746263440674
30
0.000000000000000
11
-18.9057241977451
21
17.3397794559268
31
0.000000000000000
  0
LINE
  5
F10658
330
F10659
100
AcDbEntity
8
Geo
100
AcDbLine
10
-18.9057241977451
20
17.3397794559268
30
0.000000000000000
11
-18.8057241977451
21
17.3039550329011
31
0.000000000000000
  0
LINE
  5
F1065A
330
F1065B
100
AcDbEntity
8
Geo
100
AcDbLine
10
-18.8057241977451
20
17.3039550329011
30
0.000000000000000
11
-18.7057241977451
21
17.2671910886431
31
0.000000000000000
  0
LINE
  5
F1065C
330
F1065D
100
AcDbEntity
8
Geo
100
AcDbLine
10
-18.7057241977451
20
17.2671910886431
30
0.000000000000000
11
-18.6057241977451
21
17.2295416608165
31
0.000000000000000
  0
LINE
  5
F1065E
330
F1065F
100
AcDbEntity
8
Geo
100
AcDbLine
10
-18.6057241977451
20
17.2295416608165
30
0.000000000000000
11
-18.5057241977451
21
17.1910832522778
31
0.000000000000000
  0
LINE
  5
F10660
330
F10661
100
AcDbEntity
8
Geo
100
AcDbLine
10
-18.5057241977451
20
17.1910832522778
30
0.000000000000000
11
-18.4057241977451
21
17.1519234639639
31
0.000000000000000
  0
LINE
  5
F10662
330
F10663
100
AcDbEntity
8
Geo
100
AcDbLine
10
-18.4057241977451
20
17.1519234639639
30
0.000000000000000
11
-18.3057241977451
21
17.1122124183756
31
0.000000000000000
  0
LINE
  5
F10664
330
F10665
100
AcDbEntity
8
Geo
100
AcDbLine
10
-18.3057241977451
20
17.1122124183756
30
0.000000000000000
11
-18.2057241977451
21
17.0721576839474
31
0.000000000000000
  0
LINE
  5
F10666
330
F10667
100
AcDbEntity
8
Geo
100
AcDbLine
10
-18.2057241977451
20
17.0721576839474
30
0.000000000000000
11
-18.1057241977451
21
17.0320435190330
31
0.000000000000000
  0
LINE
  5
F10668
330
F10669
100
AcDbEntity
8
Geo
100
AcDbLine
10
-18.1057241977451
20
17.0320435190330
30
0.000000000000000
11
-18.0057241977451
21
16.9922553421920
31
0.000000000000000
  0
LINE
  5
F1066A
330
F1066B
100
AcDbEntity
8
Geo
100
AcDbLine
10
-18.0057241977451
20
16.9922553421920
30
0.000000000000000
11
-17.9057241977451
21
16.9533103726162
31
0.000000000000000
  0
LINE
  5
F1066C
330
F1066D
100
AcDbEntity
8
Geo
100
AcDbLine
10
-17.9057241977451
20
16.9533103726162
30
0.000000000000000
11
-17.8057241977451
21
16.9158953202194
31
0.000000000000000
  0
LINE
  5
F1066E
330
F1066F
100
AcDbEntity
8
Geo
100
AcDbLine
10
-17.8057241977451
20
16.9158953202194
30
0.000000000000000
11
-17.7057241977451
21
16.8809117567979
31
0.000000000000000
  0
LINE
  5
F10670
330
F10671
100
AcDbEntity
8
Geo
100
AcDbLine
10
-17.7057241977451
20
16.8809117567979
30
0.000000000000000
11
-17.6057241977451
21
16.8495292359770
31
0.000000000000000
  0
LINE
  5
F10672
330
F10673
100
AcDbEntity
8
Geo
100
AcDbLine
10
-17.6057241977451
20
16.8495292359770
30
0.000000000000000
11
-17.5057241977451
21
16.8232451417263
31
0.000000000000000
  0
LINE
  5
F10674
330
F10675
100
AcDbEntity
8
Geo
100
AcDbLine
10
-17.5057241977451
20
16.8232451417263
30
0.000000000000000
11
-17.4057241977451
21
16.8039483041660
31
0.000000000000000
  0
LINE
  5
F10676
330
F10677
100
AcDbEntity
8
Geo
100
AcDbLine
10
-17.4057241977451
20
16.8039483041660
30
0.000000000000000
11
-17.3057241977451
21
16.7939801091722
31
0.000000000000000
  0
LINE
  5
F10678
330
F10679
100
AcDbEntity
8
Geo
100
AcDbLine
10
-17.3057241977451
20
16.7939801091722
30
0.000000000000000
11
-17.2057241977450
21
16.7961813273066
31
0.000000000000000
  0
LINE
  5
F1067A
330
F1067B
100
AcDbEntity
8
Geo
100
AcDbLine
10
-17.2057241977450
20
16.7961813273066
30
0.000000000000000
11
-17.1057241977450
21
16.8139039036627
31
0.000000000000000
  0
LINE
  5
F1067C
330
F1067D
100
AcDbEntity
8
Geo
100
AcDbLine
10
-17.1057241977450
20
16.8139039036627
30
0.000000000000000
11
-17.0057241977450
21
16.8509524330766
31
0.000000000000000
  0
LINE
  5
F1067E
330
F1067F
100
AcDbEntity
8
Geo
100
AcDbLine
10
-17.0057241977450
20
16.8509524330766
30
0.000000000000000
11
-16.9057241977450
21
16.9113967628187
31
0.000000000000000
  0
LINE
  5
F10680
330
F10681
100
AcDbEntity
8
Geo
100
AcDbLine
10
-16.9057241977450
20
16.9113967628187
30
0.000000000000000
11
-16.8057241977450
21
16.9991601045338
31
0.000000000000000
  0
LINE
  5
F10682
330
F10683
100
AcDbEntity
8
Geo
100
AcDbLine
10
-16.8057241977450
20
16.9991601045338
30
0.000000000000000
11
-16.7057241977450
21
17.1172287032248
31
0.000000000000000
  0
LINE
  5
F10684
330
F10685
100
AcDbEntity
8
Geo
100
AcDbLine
10
-16.7057241977450
20
17.1172287032248
30
0.000000000000000
11
-16.6057241977450
21
17.2662391240452
31
0.000000000000000
  0
LINE
  5
F10686
330
F10687
100
AcDbEntity
8
Geo
100
AcDbLine
10
-16.6057241977450
20
17.2662391240452
30
0.000000000000000
11
-16.5057241977450
21
17.4420655607016
31
0.000000000000000
  0
LINE
  5
F10688
330
F10689
100
AcDbEntity
8
Geo
100
AcDbLine
10
-16.5057241977450
20
17.4420655607016
30
0.000000000000000
11
-16.4057241977450
21
17.6318452421508
31
0.000000000000000
  0
LINE
  5
F1068A
330
F1068B
100
AcDbEntity
8
Geo
100
AcDbLine
10
-16.4057241977450
20
17.6318452421508
30
0.000000000000000
11
-16.3057241977451
21
17.8076645614966
31
0.000000000000000
  0
LINE
  5
F1068C
330
F1068D
100
AcDbEntity
8
Geo
100
AcDbLine
10
-16.3057241977451
20
17.8076645614966
30
0.000000000000000
11
-16.3057241977451
21
17.8411909070252
31
0.000000000000000
  0
LINE
  5
F1068E
330
F1068F
100
AcDbEntity
8
Geo
100
AcDbLine
10
-16.3057241977451
20
17.8411909070252
30
0.000000000000000
11
-16.4057241977450
21
17.9171808227199
31
0.000000000000000
  0
LINE
  5
F10690
330
F10691
100
AcDbEntity
8
Geo
100
AcDbLine
10
-16.4057241977450
20
17.9171808227199
30
0.000000000000000
11
-16.4519403044168
21
17.9245446660885
31
0.000000000000000
  0
LINE
  5
F10692
330
F10693
100
AcDbEntity
8
Geo
100
AcDbLine
10
-36.3057241977451
20
8.03821768837746
30
0.000000000000000
11
-36.2057241977450
21
7.94001090300367
31
0.000000000000000
  0
LINE
  5
F10694
330
F10695
100
AcDbEntity
8
Geo
100
AcDbLine
10
-36.2057241977450
20
7.94001090300367
30
0.000000000000000
11
-36.1057241977450
21
7.84192566375759
31
0.000000000000000
  0
LINE
  5
F10696
330
F10697
100
AcDbEntity
8
Geo
100
AcDbLine
10
-36.1057241977450
20
7.84192566375759
30
0.000000000000000
11
-36.0057241977451
21
7.74397407980340
31
0.000000000000000
  0
LINE
  5
F10698
330
F10699
100
AcDbEntity
8
Geo
100
AcDbLine
10
-36.0057241977451
20
7.74397407980340
30
0.000000000000000
11
-35.9057241977451
21
7.64616824380483
31
0.000000000000000
  0
LINE
  5
F1069A
330
F1069B
100
AcDbEntity
8
Geo
100
AcDbLine
10
-35.9057241977451
20
7.64616824380483
30
0.000000000000000
11
-35.8057241977451
21
7.54852023043222
31
0.000000000000000
  0
LINE
  5
F1069C
330
F1069D
100
AcDbEntity
8
Geo
100
AcDbLine
10
-35.8057241977451
20
7.54852023043222
30
0.000000000000000
11
-35.7057241977450
21
7.45104209487185
31
0.000000000000000
  0
LINE
  5
F1069E
330
F1069F
100
AcDbEntity
8
Geo
100
AcDbLine
10
-35.7057241977450
20
7.45104209487185
30
0.000000000000000
11
-35.6057241977450
21
7.35374587133763
31
0.000000000000000
  0
LINE
  5
F106A0
330
F106A1
100
AcDbEntity
8
Geo
100
AcDbLine
10
-35.6057241977450
20
7.35374587133763
30
0.000000000000000
11
-35.5057241977451
21
7.25664357158542
31
0.000000000000000
  0
LINE
  5
F106A2
330
F106A3
100
AcDbEntity
8
Geo
100
AcDbLine
10
-35.5057241977451
20
7.25664357158542
30
0.000000000000000
11
-35.4057241977451
21
7.15974718343014
31
0.000000000000000
  0
LINE
  5
F106A4
330
F106A5
100
AcDbEntity
8
Geo
100
AcDbLine
10
-35.4057241977451
20
7.15974718343014
30
0.000000000000000
11
-35.3057241977451
21
7.06306866926577
31
0.000000000000000
  0
LINE
  5
F106A6
330
F106A7
100
AcDbEntity
8
Geo
100
AcDbLine
10
-35.3057241977451
20
7.06306866926577
30
0.000000000000000
11
-35.2057241977450
21
6.96661996458855
31
0.000000000000000
  0
LINE
  5
F106A8
330
F106A9
100
AcDbEntity
8
Geo
100
AcDbLine
10
-35.2057241977450
20
6.96661996458855
30
0.000000000000000
11
-35.1057241977450
21
6.87041297652346
31
0.000000000000000
  0
LINE
  5
F106AA
330
F106AB
100
AcDbEntity
8
Geo
100
AcDbLine
10
-35.1057241977450
20
6.87041297652346
30
0.000000000000000
11
-35.0057241977451
21
6.77445958235426
31
0.000000000000000
  0
LINE
  5
F106AC
330
F106AD
100
AcDbEntity
8
Geo
100
AcDbLine
10
-35.0057241977451
20
6.77445958235426
30
0.000000000000000
11
-34.9057241977451
21
6.67877162805710
31
0.000000000000000
  0
LINE
  5
F106AE
330
F106AF
100
AcDbEntity
8
Geo
100
AcDbLine
10
-34.9057241977451
20
6.67877162805710
30
0.000000000000000
11
-34.8057241977451
21
6.58336092683816
31
0.000000000000000
  0
LINE
  5
F106B0
330
F106B1
100
AcDbEntity
8
Geo
100
AcDbLine
10
-34.8057241977451
20
6.58336092683816
30
0.000000000000000
11
-34.7057241977450
21
6.48823925767514
31
0.000000000000000
  0
LINE
  5
F106B2
330
F106B3
100
AcDbEntity
8
Geo
100
AcDbLine
10
-34.7057241977450
20
6.48823925767514
30
0.000000000000000
11
-34.6057241977450
21
6.39341836386320
31
0.000000000000000
  0
LINE
  5
F106B4
330
F106B5
100
AcDbEntity
8
Geo
100
AcDbLine
10
-34.6057241977450
20
6.39341836386320
30
0.000000000000000
11
-34.5057241977451
21
6.29890995156508
31
0.000000000000000
  0
LINE
  5
F106B6
330
F106B7
100
AcDbEntity
8
Geo
100
AcDbLine
10
-34.5057241977451
20
6.29890995156508
30
0.000000000000000
11
-34.4057241977451
21
6.20472568836596
31
0.000000000000000
  0
LINE
  5
F106B8
330
F106B9
100
AcDbEntity
8
Geo
100
AcDbLine
10
-34.4057241977451
20
6.20472568836596
30
0.000000000000000
11
-34.3057241977451
21
6.11087720183303
31
0.000000000000000
  0
LINE
  5
F106BA
330
F106BB
100
AcDbEntity
8
Geo
100
AcDbLine
10
-34.3057241977451
20
6.11087720183303
30
0.000000000000000
11
-34.2057241977450
21
6.01737607808000
31
0.000000000000000
  0
LINE
  5
F106BC
330
F106BD
100
AcDbEntity
8
Geo
100
AcDbLine
10
-34.2057241977450
20
6.01737607808000
30
0.000000000000000
11
-34.1057241977450
21
5.92423386033672
31
0.000000000000000
  0
LINE
  5
F106BE
330
F106BF
100
AcDbEntity
8
Geo
100
AcDbLine
10
-34.1057241977450
20
5.92423386033672
30
0.000000000000000
11
-34.0057241977451
21
5.83146204752412
31
0.000000000000000
  0
LINE
  5
F106C0
330
F106C1
100
AcDbEntity
8
Geo
100
AcDbLine
10
-34.0057241977451
20
5.83146204752412
30
0.000000000000000
11
-33.9057241977451
21
5.73907209283459
31
0.000000000000000
  0
LINE
  5
F106C2
330
F106C3
100
AcDbEntity
8
Geo
100
AcDbLine
10
-33.9057241977451
20
5.73907209283459
30
0.000000000000000
11
-33.8057241977451
21
5.64707540231803
31
0.000000000000000
  0
LINE
  5
F106C4
330
F106C5
100
AcDbEntity
8
Geo
100
AcDbLine
10
-33.8057241977451
20
5.64707540231803
30
0.000000000000000
11
-33.7057241977450
21
5.55548333347370
31
0.000000000000000
  0
LINE
  5
F106C6
330
F106C7
100
AcDbEntity
8
Geo
100
AcDbLine
10
-33.7057241977450
20
5.55548333347370
30
0.000000000000000
11
-33.6057241977450
21
5.46430719384809
31
0.000000000000000
  0
LINE
  5
F106C8
330
F106C9
100
AcDbEntity
8
Geo
100
AcDbLine
10
-33.6057241977450
20
5.46430719384809
30
0.000000000000000
11
-33.5057241977450
21
5.37355823963893
31
0.000000000000000
  0
LINE
  5
F106CA
330
F106CB
100
AcDbEntity
8
Geo
100
AcDbLine
10
-33.5057241977450
20
5.37355823963893
30
0.000000000000000
11
-33.4057241977451
21
5.28324767430555
31
0.000000000000000
  0
LINE
  5
F106CC
330
F106CD
100
AcDbEntity
8
Geo
100
AcDbLine
10
-33.4057241977451
20
5.28324767430555
30
0.000000000000000
11
-33.3057241977451
21
5.19338664718575
31
0.000000000000000
  0
LINE
  5
F106CE
330
F106CF
100
AcDbEntity
8
Geo
100
AcDbLine
10
-33.3057241977451
20
5.19338664718575
30
0.000000000000000
11
-33.2057241977450
21
5.10398625211937
31
0.000000000000000
  0
LINE
  5
F106D0
330
F106D1
100
AcDbEntity
8
Geo
100
AcDbLine
10
-33.2057241977450
20
5.10398625211937
30
0.000000000000000
11
-33.1057241977450
21
5.01505752607866
31
0.000000000000000
  0
LINE
  5
F106D2
330
F106D3
100
AcDbEntity
8
Geo
100
AcDbLine
10
-33.1057241977450
20
5.01505752607866
30
0.000000000000000
11
-33.0057241977450
21
4.92661144780575
31
0.000000000000000
  0
LINE
  5
F106D4
330
F106D5
100
AcDbEntity
8
Geo
100
AcDbLine
10
-33.0057241977450
20
4.92661144780575
30
0.000000000000000
11
-32.9057241977451
21
4.83865893645721
31
0.000000000000000
  0
LINE
  5
F106D6
330
F106D7
100
AcDbEntity
8
Geo
100
AcDbLine
10
-32.9057241977451
20
4.83865893645721
30
0.000000000000000
11
-32.8057241977451
21
4.75121085025607
31
0.000000000000000
  0
LINE
  5
F106D8
330
F106D9
100
AcDbEntity
8
Geo
100
AcDbLine
10
-32.8057241977451
20
4.75121085025607
30
0.000000000000000
11
-32.7057241977450
21
4.66427798515129
31
0.000000000000000
  0
LINE
  5
F106DA
330
F106DB
100
AcDbEntity
8
Geo
100
AcDbLine
10
-32.7057241977450
20
4.66427798515129
30
0.000000000000000
11
-32.6057241977450
21
4.57787107348493
31
0.000000000000000
  0
LINE
  5
F106DC
330
F106DD
100
AcDbEntity
8
Geo
100
AcDbLine
10
-32.6057241977450
20
4.57787107348493
30
0.000000000000000
11
-32.5057241977450
21
4.49200078266720
31
0.000000000000000
  0
LINE
  5
F106DE
330
F106DF
100
AcDbEntity
8
Geo
100
AcDbLine
10
-32.5057241977450
20
4.49200078266720
30
0.000000000000000
11
-32.4057241977450
21
4.40667771385951
31
0.000000000000000
  0
LINE
  5
F106E0
330
F106E1
100
AcDbEntity
8
Geo
100
AcDbLine
10
-32.4057241977450
20
4.40667771385951
30
0.000000000000000
11
-32.3057241977451
21
4.32191240066569
31
0.000000000000000
  0
LINE
  5
F106E2
330
F106E3
100
AcDbEntity
8
Geo
100
AcDbLine
10
-32.3057241977451
20
4.32191240066569
30
0.000000000000000
11
-32.2057241977450
21
4.23771530783154
31
0.000000000000000
  0
LINE
  5
F106E4
330
F106E5
100
AcDbEntity
8
Geo
100
AcDbLine
10
-32.2057241977450
20
4.23771530783154
30
0.000000000000000
11
-32.1057241977450
21
4.15409682995296
31
0.000000000000000
  0
LINE
  5
F106E6
330
F106E7
100
AcDbEntity
8
Geo
100
AcDbLine
10
-32.1057241977450
20
4.15409682995296
30
0.000000000000000
11
-32.0057241977451
21
4.07106729019261
31
0.000000000000000
  0
LINE
  5
F106E8
330
F106E9
100
AcDbEntity
8
Geo
100
AcDbLine
10
-32.0057241977451
20
4.07106729019261
30
0.000000000000000
11
-31.9057241977451
21
3.98863693900550
31
0.000000000000000
  0
LINE
  5
F106EA
330
F106EB
100
AcDbEntity
8
Geo
100
AcDbLine
10
-31.9057241977451
20
3.98863693900550
30
0.000000000000000
11
-31.8057241977451
21
3.90681595287349
31
0.000000000000000
  0
LINE
  5
F106EC
330
F106ED
100
AcDbEntity
8
Geo
100
AcDbLine
10
-31.8057241977451
20
3.90681595287349
30
0.000000000000000
11
-31.7057241977450
21
3.82561443304897
31
0.000000000000000
  0
LINE
  5
F106EE
330
F106EF
100
AcDbEntity
8
Geo
100
AcDbLine
10
-31.7057241977450
20
3.82561443304897
30
0.000000000000000
11
-31.6057241977451
21
3.74504240430780
31
0.000000000000000
  0
LINE
  5
F106F0
330
F106F1
100
AcDbEntity
8
Geo
100
AcDbLine
10
-31.6057241977451
20
3.74504240430780
30
0.000000000000000
11
-31.5057241977451
21
3.66510981371168
31
0.000000000000000
  0
LINE
  5
F106F2
330
F106F3
100
AcDbEntity
8
Geo
100
AcDbLine
10
-31.5057241977451
20
3.66510981371168
30
0.000000000000000
11
-31.4057241977451
21
3.58582652938016
31
0.000000000000000
  0
LINE
  5
F106F4
330
F106F5
100
AcDbEntity
8
Geo
100
AcDbLine
10
-31.4057241977451
20
3.58582652938016
30
0.000000000000000
11
-31.3057241977451
21
3.50720233927233
31
0.000000000000000
  0
LINE
  5
F106F6
330
F106F7
100
AcDbEntity
8
Geo
100
AcDbLine
10
-31.3057241977451
20
3.50720233927233
30
0.000000000000000
11
-31.2057241977451
21
3.42924694997845
31
0.000000000000000
  0
LINE
  5
F106F8
330
F106F9
100
AcDbEntity
8
Geo
100
AcDbLine
10
-31.2057241977451
20
3.42924694997845
30
0.000000000000000
11
-31.1057241977451
21
3.35196998552165
31
0.000000000000000
  0
LINE
  5
F106FA
330
F106FB
100
AcDbEntity
8
Geo
100
AcDbLine
10
-31.1057241977451
20
3.35196998552165
30
0.000000000000000
11
-31.0057241977451
21
3.27538098616977
31
0.000000000000000
  0
LINE
  5
F106FC
330
F106FD
100
AcDbEntity
8
Geo
100
AcDbLine
10
-31.0057241977451
20
3.27538098616977
30
0.000000000000000
11
-30.9057241977451
21
3.19948940725753
31
0.000000000000000
  0
LINE
  5
F106FE
330
F106FF
100
AcDbEntity
8
Geo
100
AcDbLine
10
-30.9057241977451
20
3.19948940725753
30
0.000000000000000
11
-30.8057241977451
21
3.12430461801929
31
0.000000000000000
  0
LINE
  5
F10700
330
F10701
100
AcDbEntity
8
Geo
100
AcDbLine
10
-30.8057241977451
20
3.12430461801929
30
0.000000000000000
11
-30.7057241977451
21
3.04983590043229
31
0.000000000000000
  0
LINE
  5
F10702
330
F10703
100
AcDbEntity
8
Geo
100
AcDbLine
10
-30.7057241977451
20
3.04983590043229
30
0.000000000000000
11
-30.6057241977451
21
2.97609244807079
31
0.000000000000000
  0
LINE
  5
F10704
330
F10705
100
AcDbEntity
8
Geo
100
AcDbLine
10
-30.6057241977451
20
2.97609244807079
30
0.000000000000000
11
-30.5057241977451
21
2.90308336497104
31
0.000000000000000
  0
LINE
  5
F10706
330
F10707
100
AcDbEntity
8
Geo
100
AcDbLine
10
-30.5057241977451
20
2.90308336497104
30
0.000000000000000
11
-30.4057241977451
21
2.83081766450737
31
0.000000000000000
  0
LINE
  5
F10708
330
F10709
100
AcDbEntity
8
Geo
100
AcDbLine
10
-30.4057241977451
20
2.83081766450737
30
0.000000000000000
11
-30.3057241977451
21
2.75930426827939
31
0.000000000000000
  0
LINE
  5
F1070A
330
F1070B
100
AcDbEntity
8
Geo
100
AcDbLine
10
-30.3057241977451
20
2.75930426827939
30
0.000000000000000
11
-30.2057241977451
21
2.68855200501063
31
0.000000000000000
  0
LINE
  5
F1070C
330
F1070D
100
AcDbEntity
8
Geo
100
AcDbLine
10
-30.2057241977451
20
2.68855200501063
30
0.000000000000000
11
-30.1057241977451
21
2.61856960945854
31
0.000000000000000
  0
LINE
  5
F1070E
330
F1070F
100
AcDbEntity
8
Geo
100
AcDbLine
10
-30.1057241977451
20
2.61856960945854
30
0.000000000000000
11
-30.0057241977451
21
2.54936572133616
31
0.000000000000000
  0
LINE
  5
F10710
330
F10711
100
AcDbEntity
8
Geo
100
AcDbLine
10
-30.0057241977451
20
2.54936572133616
30
0.000000000000000
11
-29.9057241977451
21
2.48094888424548
31
0.000000000000000
  0
LINE
  5
F10712
330
F10713
100
AcDbEntity
8
Geo
100
AcDbLine
10
-29.9057241977451
20
2.48094888424548
30
0.000000000000000
11
-29.8057241977451
21
2.41332754462269
31
0.000000000000000
  0
LINE
  5
F10714
330
F10715
100
AcDbEntity
8
Geo
100
AcDbLine
10
-29.8057241977451
20
2.41332754462269
30
0.000000000000000
11
-29.7057241977451
21
2.34651005069545
31
0.000000000000000
  0
LINE
  5
F10716
330
F10717
100
AcDbEntity
8
Geo
100
AcDbLine
10
-29.7057241977451
20
2.34651005069545
30
0.000000000000000
11
-29.6057241977451
21
2.28050465145221
31
0.000000000000000
  0
LINE
  5
F10718
330
F10719
100
AcDbEntity
8
Geo
100
AcDbLine
10
-29.6057241977451
20
2.28050465145221
30
0.000000000000000
11
-29.5057241977451
21
2.21531949562386
31
0.000000000000000
  0
LINE
  5
F1071A
330
F1071B
100
AcDbEntity
8
Geo
100
AcDbLine
10
-29.5057241977451
20
2.21531949562386
30
0.000000000000000
11
-29.4057241977451
21
2.15096263067771
31
0.000000000000000
  0
LINE
  5
F1071C
330
F1071D
100
AcDbEntity
8
Geo
100
AcDbLine
10
-29.4057241977451
20
2.15096263067771
30
0.000000000000000
11
-29.3057241977451
21
2.08744200182398
31
0.000000000000000
  0
LINE
  5
F1071E
330
F1071F
100
AcDbEntity
8
Geo
100
AcDbLine
10
-29.3057241977451
20
2.08744200182398
30
0.000000000000000
11
-29.2057241977451
21
2.02476545103495
31
0.000000000000000
  0
LINE
  5
F10720
330
F10721
100
AcDbEntity
8
Geo
100
AcDbLine
10
-29.2057241977451
20
2.02476545103495
30
0.000000000000000
11
-29.1057241977451
21
1.96294071607677
31
0.000000000000000
  0
LINE
  5
F10722
330
F10723
100
AcDbEntity
8
Geo
100
AcDbLine
10
-29.1057241977451
20
1.96294071607677
30
0.000000000000000
11
-29.0057241977451
21
1.90197542955425
31
0.000000000000000
  0
LINE
  5
F10724
330
F10725
100
AcDbEntity
8
Geo
100
AcDbLine
10
-29.0057241977451
20
1.90197542955425
30
0.000000000000000
11
-28.9057241977451
21
1.84187711796855
31
0.000000000000000
  0
LINE
  5
F10726
330
F10727
100
AcDbEntity
8
Geo
100
AcDbLine
10
-28.9057241977451
20
1.84187711796855
30
0.000000000000000
11
-28.8057241977451
21
1.78265320078797
31
0.000000000000000
  0
LINE
  5
F10728
330
F10729
100
AcDbEntity
8
Geo
100
AcDbLine
10
-28.8057241977451
20
1.78265320078797
30
0.000000000000000
11
-28.7057241977451
21
1.72431098953200
31
0.000000000000000
  0
LINE
  5
F1072A
330
F1072B
100
AcDbEntity
8
Geo
100
AcDbLine
10
-28.7057241977451
20
1.72431098953200
30
0.000000000000000
11
-28.6057241977451
21
1.66685768686866
31
0.000000000000000
  0
LINE
  5
F1072C
330
F1072D
100
AcDbEntity
8
Geo
100
AcDbLine
10
-28.6057241977451
20
1.66685768686866
30
0.000000000000000
11
-28.5057241977451
21
1.61030038572533
31
0.000000000000000
  0
LINE
  5
F1072E
330
F1072F
100
AcDbEntity
8
Geo
100
AcDbLine
10
-28.5057241977451
20
1.61030038572533
30
0.000000000000000
11
-28.4057241977451
21
1.55464606841301
31
0.000000000000000
  0
LINE
  5
F10730
330
F10731
100
AcDbEntity
8
Geo
100
AcDbLine
10
-28.4057241977451
20
1.55464606841301
30
0.000000000000000
11
-28.3057241977451
21
1.49990160576439
31
0.000000000000000
  0
LINE
  5
F10732
330
F10733
100
AcDbEntity
8
Geo
100
AcDbLine
10
-28.3057241977451
20
1.49990160576439
30
0.000000000000000
11
-28.2057241977451
21
1.44607375628558
31
0.000000000000000
  0
LINE
  5
F10734
330
F10735
100
AcDbEntity
8
Geo
100
AcDbLine
10
-28.2057241977451
20
1.44607375628558
30
0.000000000000000
11
-28.1057241977451
21
1.39316916532172
31
0.000000000000000
  0
LINE
  5
F10736
330
F10737
100
AcDbEntity
8
Geo
100
AcDbLine
10
-28.1057241977451
20
1.39316916532172
30
0.000000000000000
11
-28.0057241977451
21
1.34119436423661
31
0.000000000000000
  0
LINE
  5
F10738
330
F10739
100
AcDbEntity
8
Geo
100
AcDbLine
10
-28.0057241977451
20
1.34119436423661
30
0.000000000000000
11
-27.9057241977451
21
1.29015576960632
31
0.000000000000000
  0
LINE
  5
F1073A
330
F1073B
100
AcDbEntity
8
Geo
100
AcDbLine
10
-27.9057241977451
20
1.29015576960632
30
0.000000000000000
11
-27.8057241977451
21
1.24005968242712
31
0.000000000000000
  0
LINE
  5
F1073C
330
F1073D
100
AcDbEntity
8
Geo
100
AcDbLine
10
-27.8057241977451
20
1.24005968242712
30
0.000000000000000
11
-27.7057241977451
21
1.19091228733748
31
0.000000000000000
  0
LINE
  5
F1073E
330
F1073F
100
AcDbEntity
8
Geo
100
AcDbLine
10
-27.7057241977451
20
1.19091228733748
30
0.000000000000000
11
-27.6057241977451
21
1.14271965185462
31
0.000000000000000
  0
LINE
  5
F10740
330
F10741
100
AcDbEntity
8
Geo
100
AcDbLine
10
-27.6057241977451
20
1.14271965185462
30
0.000000000000000
11
-27.5057241977451
21
1.09548772562543
31
0.000000000000000
  0
LINE
  5
F10742
330
F10743
100
AcDbEntity
8
Geo
100
AcDbLine
10
-27.5057241977451
20
1.09548772562543
30
0.000000000000000
11
-27.4057241977451
21
1.04922233969190
31
0.000000000000000
  0
LINE
  5
F10744
330
F10745
100
AcDbEntity
8
Geo
100
AcDbLine
10
-27.4057241977451
20
1.04922233969190
30
0.000000000000000
11
-27.3057241977451
21
1.00392920577133
31
0.000000000000000
  0
LINE
  5
F10746
330
F10747
100
AcDbEntity
8
Geo
100
AcDbLine
10
-27.3057241977451
20
1.00392920577133
30
0.000000000000000
11
-27.2057241977451
21
0.959613915551106
31
0.000000000000000
  0
LINE
  5
F10748
330
F10749
100
AcDbEntity
8
Geo
100
AcDbLine
10
-27.2057241977451
20
0.959613915551106
30
0.000000000000000
11
-27.1057241977451
21
0.916281939998431
31
0.000000000000000
  0
LINE
  5
F1074A
330
F1074B
100
AcDbEntity
8
Geo
100
AcDbLine
10
-27.1057241977451
20
0.916281939998431
30
0.000000000000000
11
-27.0057241977451
21
0.873938628684879
31
0.000000000000000
  0
LINE
  5
F1074C
330
F1074D
100
AcDbEntity
8
Geo
100
AcDbLine
10
-27.0057241977451
20
0.873938628684879
30
0.000000000000000
11
-26.9057241977451
21
0.832589209125967
31
0.000000000000000
  0
LINE
  5
F1074E
330
F1074F
100
AcDbEntity
8
Geo
100
AcDbLine
10
-26.9057241977451
20
0.832589209125967
30
0.000000000000000
11
-26.8057241977451
21
0.792238786135787
31
0.000000000000000
  0
LINE
  5
F10750
330
F10751
100
AcDbEntity
8
Geo
100
AcDbLine
10
-26.8057241977451
20
0.792238786135787
30
0.000000000000000
11
-26.7057241977451
21
0.752892341196791
31
0.000000000000000
  0
LINE
  5
F10752
330
F10753
100
AcDbEntity
8
Geo
100
AcDbLine
10
-26.7057241977451
20
0.752892341196791
30
0.000000000000000
11
-26.6057241977451
21
0.714554731844801
31
0.000000000000000
  0
LINE
  5
F10754
330
F10755
100
AcDbEntity
8
Geo
100
AcDbLine
10
-26.6057241977451
20
0.714554731844801
30
0.000000000000000
11
-26.5057241977451
21
0.677230691069314
31
0.000000000000000
  0
LINE
  5
F10756
330
F10757
100
AcDbEntity
8
Geo
100
AcDbLine
10
-26.5057241977451
20
0.677230691069314
30
0.000000000000000
11
-26.4057241977451
21
0.640924826729194
31
0.000000000000000
  0
LINE
  5
F10758
330
F10759
100
AcDbEntity
8
Geo
100
AcDbLine
10
-26.4057241977451
20
0.640924826729194
30
0.000000000000000
11
-26.3057241977451
21
0.605641620983798
31
0.000000000000000
  0
LINE
  5
F1075A
330
F1075B
100
AcDbEntity
8
Geo
100
AcDbLine
10
-26.3057241977451
20
0.605641620983798
30
0.000000000000000
11
-26.2057241977451
21
0.571385429739641
31
0.000000000000000
  0
LINE
  5
F1075C
330
F1075D
100
AcDbEntity
8
Geo
100
AcDbLine
10
-26.2057241977451
20
0.571385429739641
30
0.000000000000000
11
-26.1057241977451
21
0.538160482112627
31
0.000000000000000
  0
LINE
  5
F1075E
330
F1075F
100
AcDbEntity
8
Geo
100
AcDbLine
10
-26.1057241977451
20
0.538160482112627
30
0.000000000000000
11
-26.0057241977451
21
0.505970879905938
31
0.000000000000000
  0
LINE
  5
F10760
330
F10761
100
AcDbEntity
8
Geo
100
AcDbLine
10
-26.0057241977451
20
0.505970879905938
30
0.000000000000000
11
-25.9057241977451
21
0.474820597103660
31
0.000000000000000
  0
LINE
  5
F10762
330
F10763
100
AcDbEntity
8
Geo
100
AcDbLine
10
-25.9057241977451
20
0.474820597103660
30
0.000000000000000
11
-25.8057241977451
21
0.444713479380148
31
0.000000000000000
  0
LINE
  5
F10764
330
F10765
100
AcDbEntity
8
Geo
100
AcDbLine
10
-25.8057241977451
20
0.444713479380148
30
0.000000000000000
11
-25.7057241977451
21
0.415653243625281
31
0.000000000000000
  0
LINE
  5
F10766
330
F10767
100
AcDbEntity
8
Geo
100
AcDbLine
10
-25.7057241977451
20
0.415653243625281
30
0.000000000000000
11
-25.6057241977451
21
0.387643477485572
31
0.000000000000000
  0
LINE
  5
F10768
330
F10769
100
AcDbEntity
8
Geo
100
AcDbLine
10
-25.6057241977451
20
0.387643477485572
30
0.000000000000000
11
-25.5057241977451
21
0.360687638921268
31
0.000000000000000
  0
LINE
  5
F1076A
330
F1076B
100
AcDbEntity
8
Geo
100
AcDbLine
10
-25.5057241977451
20
0.360687638921268
30
0.000000000000000
11
-25.4057241977451
21
0.334789055779432
31
0.000000000000000
  0
LINE
  5
F1076C
330
F1076D
100
AcDbEntity
8
Geo
100
AcDbLine
10
-25.4057241977451
20
0.334789055779432
30
0.000000000000000
11
-25.3057241977451
21
0.309950925383111
31
0.000000000000000
  0
LINE
  5
F1076E
330
F1076F
100
AcDbEntity
8
Geo
100
AcDbLine
10
-25.3057241977451
20
0.309950925383111
30
0.000000000000000
11
-25.2057241977451
21
0.286176314136616
31
0.000000000000000
  0
LINE
  5
F10770
330
F10771
100
AcDbEntity
8
Geo
100
AcDbLine
10
-25.2057241977451
20
0.286176314136616
30
0.000000000000000
11
-25.1057241977451
21
0.263468157146937
31
0.000000000000000
  0
LINE
  5
F10772
330
F10773
100
AcDbEntity
8
Geo
100
AcDbLine
10
-25.1057241977451
20
0.263468157146937
30
0.000000000000000
11
-25.0057241977451
21
0.241829257861404
31
0.000000000000000
  0
LINE
  5
F10774
330
F10775
100
AcDbEntity
8
Geo
100
AcDbLine
10
-25.0057241977451
20
0.241829257861404
30
0.000000000000000
11
-24.9057241977451
21
0.221262287721583
31
0.000000000000000
  0
LINE
  5
F10776
330
F10777
100
AcDbEntity
8
Geo
100
AcDbLine
10
-24.9057241977451
20
0.221262287721583
30
0.000000000000000
11
-24.8057241977451
21
0.201769785833461
31
0.000000000000000
  0
LINE
  5
F10778
330
F10779
100
AcDbEntity
8
Geo
100
AcDbLine
10
-24.8057241977451
20
0.201769785833461
30
0.000000000000000
11
-24.7057241977451
21
0.183354158654002
31
0.000000000000000
  0
LINE
  5
F1077A
330
F1077B
100
AcDbEntity
8
Geo
100
AcDbLine
10
-24.7057241977451
20
0.183354158654002
30
0.000000000000000
11
-24.6057241977451
21
0.166017679694027
31
0.000000000000000
  0
LINE
  5
F1077C
330
F1077D
100
AcDbEntity
8
Geo
100
AcDbLine
10
-24.6057241977451
20
0.166017679694027
30
0.000000000000000
11
-24.5057241977451
21
0.149762489237570
31
0.000000000000000
  0
LINE
  5
F1077E
330
F1077F
100
AcDbEntity
8
Geo
100
AcDbLine
10
-24.5057241977451
20
0.149762489237570
30
0.000000000000000
11
-24.4057241977451
21
0.134590594077617
31
0.000000000000000
  0
LINE
  5
F10780
330
F10781
100
AcDbEntity
8
Geo
100
AcDbLine
10
-24.4057241977451
20
0.134590594077617
30
0.000000000000000
11
-24.3057241977451
21
0.120503867268374
31
0.000000000000000
  0
LINE
  5
F10782
330
F10783
100
AcDbEntity
8
Geo
100
AcDbLine
10
-24.3057241977451
20
0.120503867268374
30
0.000000000000000
11
-24.2057241977451
21
0.107504047894027
31
0.000000000000000
  0
LINE
  5
F10784
330
F10785
100
AcDbEntity
8
Geo
100
AcDbLine
10
-24.2057241977451
20
0.107504047894027
30
0.000000000000000
11
-24.1057241977451
21
0.0955927408540322
31
0.000000000000000
  0
LINE
  5
F10786
330
F10787
100
AcDbEntity
8
Geo
100
AcDbLine
10
-24.1057241977451
20
0.0955927408540322
30
0.000000000000000
11
-24.0057241977451
21
0.0847714166649975
31
0.000000000000000
  0
LINE
  5
F10788
330
F10789
100
AcDbEntity
8
Geo
100
AcDbLine
10
-24.0057241977451
20
0.0847714166649975
30
0.000000000000000
11
-23.9057241977451
21
0.0750414112791269
31
0.000000000000000
  0
LINE
  5
F1078A
330
F1078B
100
AcDbEntity
8
Geo
100
AcDbLine
10
-23.9057241977451
20
0.0750414112791269
30
0.000000000000000
11
-23.8057241977451
21
0.0664039259192943
31
0.000000000000000
  0
LINE
  5
F1078C
330
F1078D
100
AcDbEntity
8
Geo
100
AcDbLine
10
-23.8057241977451
20
0.0664039259192943
30
0.000000000000000
11
-23.7057241977451
21
0.0588600269307467
31
0.000000000000000
  0
LINE
  5
F1078E
330
F1078F
100
AcDbEntity
8
Geo
100
AcDbLine
10
-23.7057241977451
20
0.0588600269307467
30
0.000000000000000
11
-23.6057241977451
21
0.0524106456494557
31
0.000000000000000
  0
LINE
  5
F10790
330
F10791
100
AcDbEntity
8
Geo
100
AcDbLine
10
-23.6057241977451
20
0.0524106456494557
30
0.000000000000000
11
-23.5057241977451
21
0.0470565782871422
31
0.000000000000000
  0
LINE
  5
F10792
330
F10793
100
AcDbEntity
8
Geo
100
AcDbLine
10
-23.5057241977451
20
0.0470565782871422
30
0.000000000000000
11
-23.4057241977451
21
0.0427984858329804
31
0.000000000000000
  0
LINE
  5
F10794
330
F10795
100
AcDbEntity
8
Geo
100
AcDbLine
10
-23.4057241977451
20
0.0427984858329804
30
0.000000000000000
11
-23.3057241977451
21
0.0396368939719789
31
0.000000000000000
  0
LINE
  5
F10796
330
F10797
100
AcDbEntity
8
Geo
100
AcDbLine
10
-23.3057241977451
20
0.0396368939719789
30
0.000000000000000
11
-23.2057241977451
21
0.0375721930201127
31
0.000000000000000
  0
LINE
  5
F10798
330
F10799
100
AcDbEntity
8
Geo
100
AcDbLine
10
-23.2057241977451
20
0.0375721930201127
30
0.000000000000000
11
-23.1057241977451
21
0.0366046378761080
31
0.000000000000000
  0
LINE
  5
F1079A
330
F1079B
100
AcDbEntity
8
Geo
100
AcDbLine
10
-23.1057241977451
20
0.0366046378761080
30
0.000000000000000
11
-23.0675451367625
21
-0.0754553339115489
31
0.000000000000000
  0
LINE
  5
F1079C
330
F1079D
100
AcDbEntity
8
Geo
100
AcDbLine
10
-23.0675451367624
20
17.9245446660885
30
0.000000000000000
11
-23.0057241977451
21
17.8123549841869
31
0.000000000000000
  0
LINE
  5
F1079E
330
F1079F
100
AcDbEntity
8
Geo
100
AcDbLine
10
-23.0057241977451
20
17.8123549841869
30
0.000000000000000
11
-22.9057241977451
21
17.8111280248286
31
0.000000000000000
  0
LINE
  5
F107A0
330
F107A1
100
AcDbEntity
8
Geo
100
AcDbLine
10
-22.9057241977451
20
17.8111280248286
30
0.000000000000000
11
-22.8057241977451
21
17.8088039677007
31
0.000000000000000
  0
LINE
  5
F107A2
330
F107A3
100
AcDbEntity
8
Geo
100
AcDbLine
10
-22.8057241977451
20
17.8088039677007
30
0.000000000000000
11
-22.7057241977451
21
17.8053830997209
31
0.000000000000000
  0
LINE
  5
F107A4
330
F107A5
100
AcDbEntity
8
Geo
100
AcDbLine
10
-22.7057241977451
20
17.8053830997209
30
0.000000000000000
11
-22.6057241977451
21
17.8008658432143
31
0.000000000000000
  0
LINE
  5
F107A6
330
F107A7
100
AcDbEntity
8
Geo
100
AcDbLine
10
-22.6057241977451
20
17.8008658432143
30
0.000000000000000
11
-22.5057241977451
21
17.7952527558612
31
0.000000000000000
  0
LINE
  5
F107A8
330
F107A9
100
AcDbEntity
8
Geo
100
AcDbLine
10
-22.5057241977451
20
17.7952527558612
30
0.000000000000000
11
-22.4057241977451
21
17.7885445306280
31
0.000000000000000
  0
LINE
  5
F107AA
330
F107AB
100
AcDbEntity
8
Geo
100
AcDbLine
10
-22.4057241977451
20
17.7885445306280
30
0.000000000000000
11
-22.3057241977451
21
17.7807419956823
31
0.000000000000000
  0
LINE
  5
F107AC
330
F107AD
100
AcDbEntity
8
Geo
100
AcDbLine
10
-22.3057241977451
20
17.7807419956823
30
0.000000000000000
11
-22.2057241977451
21
17.7718461142901
31
0.000000000000000
  0
LINE
  5
F107AE
330
F107AF
100
AcDbEntity
8
Geo
100
AcDbLine
10
-22.2057241977451
20
17.7718461142901
30
0.000000000000000
11
-22.1057241977451
21
17.7618579846971
31
0.000000000000000
  0
LINE
  5
F107B0
330
F107B1
100
AcDbEntity
8
Geo
100
AcDbLine
10
-22.1057241977451
20
17.7618579846971
30
0.000000000000000
11
-22.0057241977451
21
17.7507788399929
31
0.000000000000000
  0
LINE
  5
F107B2
330
F107B3
100
AcDbEntity
8
Geo
100
AcDbLine
10
-22.0057241977451
20
17.7507788399929
30
0.000000000000000
11
-21.9057241977451
21
17.7386100479592
31
0.000000000000000
  0
LINE
  5
F107B4
330
F107B5
100
AcDbEntity
8
Geo
100
AcDbLine
10
-21.9057241977451
20
17.7386100479592
30
0.000000000000000
11
-21.8057241977451
21
17.7253531109004
31
0.000000000000000
  0
LINE
  5
F107B6
330
F107B7
100
AcDbEntity
8
Geo
100
AcDbLine
10
-21.8057241977451
20
17.7253531109004
30
0.000000000000000
11
-21.7057241977451
21
17.7110096654587
31
0.000000000000000
  0
LINE
  5
F107B8
330
F107B9
100
AcDbEntity
8
Geo
100
AcDbLine
10
-21.7057241977451
20
17.7110096654587
30
0.000000000000000
11
-21.6057241977451
21
17.6955814824116
31
0.000000000000000
  0
LINE
  5
F107BA
330
F107BB
100
AcDbEntity
8
Geo
100
AcDbLine
10
-21.6057241977451
20
17.6955814824116
30
0.000000000000000
11
-21.5057241977451
21
17.6790704664534
31
0.000000000000000
  0
LINE
  5
F107BC
330
F107BD
100
AcDbEntity
8
Geo
100
AcDbLine
10
-21.5057241977451
20
17.6790704664534
30
0.000000000000000
11
-21.4057241977451
21
17.6614786559602
31
0.000000000000000
  0
LINE
  5
F107BE
330
F107BF
100
AcDbEntity
8
Geo
100
AcDbLine
10
-21.4057241977451
20
17.6614786559602
30
0.000000000000000
11
-21.3057241977451
21
17.6428082227381
31
0.000000000000000
  0
LINE
  5
F107C0
330
F107C1
100
AcDbEntity
8
Geo
100
AcDbLine
10
-36.3057241977451
20
17.7682613061882
30
0.000000000000000
11
-36.2057241977450
21
17.7578675284739
31
0.000000000000000
  0
LINE
  5
F107C2
330
F107C3
100
AcDbEntity
8
Geo
100
AcDbLine
10
-36.2057241977450
20
17.7578675284739
30
0.000000000000000
11
-36.1057241977450
21
17.7463832282924
31
0.000000000000000
  0
LINE
  5
F107C4
330
F107C5
100
AcDbEntity
8
Geo
100
AcDbLine
10
-36.1057241977450
20
17.7463832282924
30
0.000000000000000
11
-36.0057241977451
21
17.7338098234438
31
0.000000000000000
  0
LINE
  5
F107C6
330
F107C7
100
AcDbEntity
8
Geo
100
AcDbLine
10
-36.0057241977451
20
17.7338098234438
30
0.000000000000000
11
-35.9057241977451
21
17.7201488661844
31
0.000000000000000
  0
LINE
  5
F107C8
330
F107C9
100
AcDbEntity
8
Geo
100
AcDbLine
10
-35.9057241977451
20
17.7201488661844
30
0.000000000000000
11
-35.8057241977451
21
17.7054020430348
31
0.000000000000000
  0
LINE
  5
F107CA
330
F107CB
100
AcDbEntity
8
Geo
100
AcDbLine
10
-35.8057241977451
20
17.7054020430348
30
0.000000000000000
11
-35.7057241977450
21
17.6895711745717
31
0.000000000000000
  0
LINE
  5
F107CC
330
F107CD
100
AcDbEntity
8
Geo
100
AcDbLine
10
-35.7057241977450
20
17.6895711745717
30
0.000000000000000
11
-35.6057241977450
21
17.6726582152032
31
0.000000000000000
  0
LINE
  5
F107CE
330
F107CF
100
AcDbEntity
8
Geo
100
AcDbLine
10
-35.6057241977450
20
17.6726582152032
30
0.000000000000000
11
-35.5057241977451
21
17.6546652529275
31
0.000000000000000
  0
LINE
  5
F107D0
330
F107D1
100
AcDbEntity
8
Geo
100
AcDbLine
10
-35.5057241977451
20
17.6546652529275
30
0.000000000000000
11
-35.4057241977451
21
17.6355945090752
31
0.000000000000000
  0
LINE
  5
F107D2
330
F107D3
100
AcDbEntity
8
Geo
100
AcDbLine
10
-35.4057241977451
20
17.6355945090752
30
0.000000000000000
11
-35.3057241977451
21
17.6154483380347
31
0.000000000000000
  0
LINE
  5
F107D4
330
F107D5
100
AcDbEntity
8
Geo
100
AcDbLine
10
-35.3057241977451
20
17.6154483380347
30
0.000000000000000
11
-35.2057241977450
21
17.5942292269622
31
0.000000000000000
  0
LINE
  5
F107D6
330
F107D7
100
AcDbEntity
8
Geo
100
AcDbLine
10
-35.2057241977450
20
17.5942292269622
30
0.000000000000000
11
-35.1057241977450
21
17.5719397954740
31
0.000000000000000
  0
LINE
  5
F107D8
330
F107D9
100
AcDbEntity
8
Geo
100
AcDbLine
10
-35.1057241977450
20
17.5719397954740
30
0.000000000000000
11
-35.0057241977451
21
17.5485827953235
31
0.000000000000000
  0
LINE
  5
F107DA
330
F107DB
100
AcDbEntity
8
Geo
100
AcDbLine
10
-35.0057241977451
20
17.5485827953235
30
0.000000000000000
11
-34.9057241977451
21
17.5241611100612
31
0.000000000000000
  0
LINE
  5
F107DC
330
F107DD
100
AcDbEntity
8
Geo
100
AcDbLine
10
-34.9057241977451
20
17.5241611100612
30
0.000000000000000
11
-34.8057241977451
21
17.4986777546792
31
0.000000000000000
  0
LINE
  5
F107DE
330
F107DF
100
AcDbEntity
8
Geo
100
AcDbLine
10
-34.8057241977451
20
17.4986777546792
30
0.000000000000000
11
-34.7057241977450
21
17.4721358752381
31
0.000000000000000
  0
LINE
  5
F107E0
330
F107E1
100
AcDbEntity
8
Geo
100
AcDbLine
10
-34.7057241977450
20
17.4721358752381
30
0.000000000000000
11
-34.6057241977450
21
17.4445387484796
31
0.000000000000000
  0
LINE
  5
F107E2
330
F107E3
100
AcDbEntity
8
Geo
100
AcDbLine
10
-34.6057241977450
20
17.4445387484796
30
0.000000000000000
11
-34.5057241977451
21
17.4158897814212
31
0.000000000000000
  0
LINE
  5
F107E4
330
F107E5
100
AcDbEntity
8
Geo
100
AcDbLine
10
-34.5057241977451
20
17.4158897814212
30
0.000000000000000
11
-34.4057241977451
21
17.3861925109362
31
0.000000000000000
  0
LINE
  5
F107E6
330
F107E7
100
AcDbEntity
8
Geo
100
AcDbLine
10
-34.4057241977451
20
17.3861925109362
30
0.000000000000000
11
-34.3057241977451
21
17.3554506033165
31
0.000000000000000
  0
LINE
  5
F107E8
330
F107E9
100
AcDbEntity
8
Geo
100
AcDbLine
10
-34.3057241977451
20
17.3554506033165
30
0.000000000000000
11
-34.2057241977450
21
17.3236678538202
31
0.000000000000000
  0
LINE
  5
F107EA
330
F107EB
100
AcDbEntity
8
Geo
100
AcDbLine
10
-34.2057241977450
20
17.3236678538202
30
0.000000000000000
11
-34.1057241977450
21
17.2908481862033
31
0.000000000000000
  0
LINE
  5
F107EC
330
F107ED
100
AcDbEntity
8
Geo
100
AcDbLine
10
-34.1057241977450
20
17.2908481862033
30
0.000000000000000
11
-34.0057241977451
21
17.2569956522348
31
0.000000000000000
  0
LINE
  5
F107EE
330
F107EF
100
AcDbEntity
8
Geo
100
AcDbLine
10
-34.0057241977451
20
17.2569956522348
30
0.000000000000000
11
-33.9057241977451
21
17.2221144311970
31
0.000000000000000
  0
LINE
  5
F107F0
330
F107F1
100
AcDbEntity
8
Geo
100
AcDbLine
10
-33.9057241977451
20
17.2221144311970
30
0.000000000000000
11
-33.8057241977451
21
17.1862088293691
31
0.000000000000000
  0
LINE
  5
F107F2
330
F107F3
100
AcDbEntity
8
Geo
100
AcDbLine
10
-33.8057241977451
20
17.1862088293691
30
0.000000000000000
11
-33.7057241977450
21
17.1492832794959
31
0.000000000000000
  0
LINE
  5
F107F4
330
F107F5
100
AcDbEntity
8
Geo
100
AcDbLine
10
-33.7057241977450
20
17.1492832794959
30
0.000000000000000
11
-33.6057241977450
21
17.1113423402404
31
0.000000000000000
  0
LINE
  5
F107F6
330
F107F7
100
AcDbEntity
8
Geo
100
AcDbLine
10
-33.6057241977450
20
17.1113423402404
30
0.000000000000000
11
-33.5057241977450
21
17.0723906956209
31
0.000000000000000
  0
LINE
  5
F107F8
330
F107F9
100
AcDbEntity
8
Geo
100
AcDbLine
10
-33.5057241977450
20
17.0723906956209
30
0.000000000000000
11
-33.4057241977451
21
17.0324331544329
31
0.000000000000000
  0
LINE
  5
F107FA
330
F107FB
100
AcDbEntity
8
Geo
100
AcDbLine
10
-33.4057241977451
20
17.0324331544329
30
0.000000000000000
11
-33.3057241977451
21
16.9914746496556
31
0.000000000000000
  0
LINE
  5
F107FC
330
F107FD
100
AcDbEntity
8
Geo
100
AcDbLine
10
-33.3057241977451
20
16.9914746496556
30
0.000000000000000
11
-33.2057241977450
21
16.9495202378423
31
0.000000000000000
  0
LINE
  5
F107FE
330
F107FF
100
AcDbEntity
8
Geo
100
AcDbLine
10
-33.2057241977450
20
16.9495202378423
30
0.000000000000000
11
-33.1057241977450
21
16.9065750984969
31
0.000000000000000
  0
LINE
  5
F10800
330
F10801
100
AcDbEntity
8
Geo
100
AcDbLine
10
-33.1057241977450
20
16.9065750984969
30
0.000000000000000
11
-33.0057241977450
21
16.8626445334338
31
0.000000000000000
  0
LINE
  5
F10802
330
F10803
100
AcDbEntity
8
Geo
100
AcDbLine
10
-33.0057241977450
20
16.8626445334338
30
0.000000000000000
11
-32.9057241977451
21
16.8177339661237
31
0.000000000000000
  0
LINE
  5
F10804
330
F10805
100
AcDbEntity
8
Geo
100
AcDbLine
10
-32.9057241977451
20
16.8177339661237
30
0.000000000000000
11
-32.8057241977451
21
16.7718489410243
31
0.000000000000000
  0
LINE
  5
F10806
330
F10807
100
AcDbEntity
8
Geo
100
AcDbLine
10
-32.8057241977451
20
16.7718489410243
30
0.000000000000000
11
-32.7057241977450
21
16.7249951228949
31
0.000000000000000
  0
LINE
  5
F10808
330
F10809
100
AcDbEntity
8
Geo
100
AcDbLine
10
-32.7057241977450
20
16.7249951228949
30
0.000000000000000
11
-32.6057241977450
21
16.6771782960983
31
0.000000000000000
  0
LINE
  5
F1080A
330
F1080B
100
AcDbEntity
8
Geo
100
AcDbLine
10
-32.6057241977450
20
16.6771782960983
30
0.000000000000000
11
-32.5057241977450
21
16.6284043638854
31
0.000000000000000
  0
LINE
  5
F1080C
330
F1080D
100
AcDbEntity
8
Geo
100
AcDbLine
10
-32.5057241977450
20
16.6284043638854
30
0.000000000000000
11
-32.4057241977450
21
16.5786793476677
31
0.000000000000000
  0
LINE
  5
F1080E
330
F1080F
100
AcDbEntity
8
Geo
100
AcDbLine
10
-32.4057241977450
20
16.5786793476677
30
0.000000000000000
11
-32.3057241977451
21
16.5280093862726
31
0.000000000000000
  0
LINE
  5
F10810
330
F10811
100
AcDbEntity
8
Geo
100
AcDbLine
10
-32.3057241977451
20
16.5280093862726
30
0.000000000000000
11
-32.2057241977450
21
16.4764007351868
31
0.000000000000000
  0
LINE
  5
F10812
330
F10813
100
AcDbEntity
8
Geo
100
AcDbLine
10
-32.2057241977450
20
16.4764007351868
30
0.000000000000000
11
-32.1057241977450
21
16.4238597657830
31
0.000000000000000
  0
LINE
  5
F10814
330
F10815
100
AcDbEntity
8
Geo
100
AcDbLine
10
-32.1057241977450
20
16.4238597657830
30
0.000000000000000
11
-32.0057241977451
21
16.3703929645339
31
0.000000000000000
  0
LINE
  5
F10816
330
F10817
100
AcDbEntity
8
Geo
100
AcDbLine
10
-32.0057241977451
20
16.3703929645339
30
0.000000000000000
11
-31.9057241977451
21
16.3160069322114
31
0.000000000000000
  0
LINE
  5
F10818
330
F10819
100
AcDbEntity
8
Geo
100
AcDbLine
10
-31.9057241977451
20
16.3160069322114
30
0.000000000000000
11
-31.8057241977451
21
16.2607083830712
31
0.000000000000000
  0
LINE
  5
F1081A
330
F1081B
100
AcDbEntity
8
Geo
100
AcDbLine
10
-31.8057241977451
20
16.2607083830712
30
0.000000000000000
11
-31.7057241977450
21
16.2045041440246
31
0.000000000000000
  0
LINE
  5
F1081C
330
F1081D
100
AcDbEntity
8
Geo
100
AcDbLine
10
-31.7057241977450
20
16.2045041440246
30
0.000000000000000
11
-31.6057241977451
21
16.1474011537950
31
0.000000000000000
  0
LINE
  5
F1081E
330
F1081F
100
AcDbEntity
8
Geo
100
AcDbLine
10
-31.6057241977451
20
16.1474011537950
30
0.000000000000000
11
-31.5057241977451
21
16.0894064620620
31
0.000000000000000
  0
LINE
  5
F10820
330
F10821
100
AcDbEntity
8
Geo
100
AcDbLine
10
-31.5057241977451
20
16.0894064620620
30
0.000000000000000
11
-31.4057241977451
21
16.0305272285901
31
0.000000000000000
  0
LINE
  5
F10822
330
F10823
100
AcDbEntity
8
Geo
100
AcDbLine
10
-31.4057241977451
20
16.0305272285901
30
0.000000000000000
11
-31.3057241977451
21
15.9707707223460
31
0.000000000000000
  0
LINE
  5
F10824
330
F10825
100
AcDbEntity
8
Geo
100
AcDbLine
10
-31.3057241977451
20
15.9707707223460
30
0.000000000000000
11
-31.2057241977451
21
15.9101443206000
31
0.000000000000000
  0
LINE
  5
F10826
330
F10827
100
AcDbEntity
8
Geo
100
AcDbLine
10
-31.2057241977451
20
15.9101443206000
30
0.000000000000000
11
-31.1057241977451
21
15.8486555080162
31
0.000000000000000
  0
LINE
  5
F10828
330
F10829
100
AcDbEntity
8
Geo
100
AcDbLine
10
-31.1057241977451
20
15.8486555080162
30
0.000000000000000
11
-31.0057241977451
21
15.7863118757279
31
0.000000000000000
  0
LINE
  5
F1082A
330
F1082B
100
AcDbEntity
8
Geo
100
AcDbLine
10
-31.0057241977451
20
15.7863118757279
30
0.000000000000000
11
-30.9057241977451
21
15.7231211204007
31
0.000000000000000
  0
LINE
  5
F1082C
330
F1082D
100
AcDbEntity
8
Geo
100
AcDbLine
10
-30.9057241977451
20
15.7231211204007
30
0.000000000000000
11
-30.8057241977451
21
15.6590910432820
31
0.000000000000000
  0
LINE
  5
F1082E
330
F1082F
100
AcDbEntity
8
Geo
100
AcDbLine
10
-30.8057241977451
20
15.6590910432820
30
0.000000000000000
11
-30.7057241977451
21
15.5942295492384
31
0.000000000000000
  0
LINE
  5
F10830
330
F10831
100
AcDbEntity
8
Geo
100
AcDbLine
10
-30.7057241977451
20
15.5942295492384
30
0.000000000000000
11
-30.6057241977451
21
15.5285446457793
31
0.000000000000000
  0
LINE
  5
F10832
330
F10833
100
AcDbEntity
8
Geo
100
AcDbLine
10
-30.6057241977451
20
15.5285446457793
30
0.000000000000000
11
-30.5057241977451
21
15.4620444420687
31
0.000000000000000
  0
LINE
  5
F10834
330
F10835
100
AcDbEntity
8
Geo
100
AcDbLine
10
-30.5057241977451
20
15.4620444420687
30
0.000000000000000
11
-30.4057241977451
21
15.3947371479237
31
0.000000000000000
  0
LINE
  5
F10836
330
F10837
100
AcDbEntity
8
Geo
100
AcDbLine
10
-30.4057241977451
20
15.3947371479237
30
0.000000000000000
11
-30.3057241977451
21
15.3266310728014
31
0.000000000000000
  0
LINE
  5
F10838
330
F10839
100
AcDbEntity
8
Geo
100
AcDbLine
10
-30.3057241977451
20
15.3266310728014
30
0.000000000000000
11
-30.2057241977451
21
15.2577346247727
31
0.000000000000000
  0
LINE
  5
F1083A
330
F1083B
100
AcDbEntity
8
Geo
100
AcDbLine
10
-30.2057241977451
20
15.2577346247727
30
0.000000000000000
11
-30.1057241977451
21
15.1880563094845
31
0.000000000000000
  0
LINE
  5
F1083C
330
F1083D
100
AcDbEntity
8
Geo
100
AcDbLine
10
-30.1057241977451
20
15.1880563094845
30
0.000000000000000
11
-30.0057241977451
21
15.1176047291092
31
0.000000000000000
  0
LINE
  5
F1083E
330
F1083F
100
AcDbEntity
8
Geo
100
AcDbLine
10
-30.0057241977451
20
15.1176047291092
30
0.000000000000000
11
-29.9057241977451
21
15.0463885812836
31
0.000000000000000
  0
LINE
  5
F10840
330
F10841
100
AcDbEntity
8
Geo
100
AcDbLine
10
-29.9057241977451
20
15.0463885812836
30
0.000000000000000
11
-29.8057241977451
21
14.9744166580340
31
0.000000000000000
  0
LINE
  5
F10842
330
F10843
100
AcDbEntity
8
Geo
100
AcDbLine
10
-29.8057241977451
20
14.9744166580340
30
0.000000000000000
11
-29.7057241977451
21
14.9016978446917
31
0.000000000000000
  0
LINE
  5
F10844
330
F10845
100
AcDbEntity
8
Geo
100
AcDbLine
10
-29.7057241977451
20
14.9016978446917
30
0.000000000000000
11
-29.6057241977451
21
14.8282411187957
31
0.000000000000000
  0
LINE
  5
F10846
330
F10847
100
AcDbEntity
8
Geo
100
AcDbLine
10
-29.6057241977451
20
14.8282411187957
30
0.000000000000000
11
-29.5057241977451
21
14.7540555489842
31
0.000000000000000
  0
LINE
  5
F10848
330
F10849
100
AcDbEntity
8
Geo
100
AcDbLine
10
-29.5057241977451
20
14.7540555489842
30
0.000000000000000
11
-29.4057241977451
21
14.6791502938754
31
0.000000000000000
  0
LINE
  5
F1084A
330
F1084B
100
AcDbEntity
8
Geo
100
AcDbLine
10
-29.4057241977451
20
14.6791502938754
30
0.000000000000000
11
-29.3057241977451
21
14.6035346009363
31
0.000000000000000
  0
LINE
  5
F1084C
330
F1084D
100
AcDbEntity
8
Geo
100
AcDbLine
10
-29.3057241977451
20
14.6035346009363
30
0.000000000000000
11
-29.2057241977451
21
14.5272178053419
31
0.000000000000000
  0
LINE
  5
F1084E
330
F1084F
100
AcDbEntity
8
Geo
100
AcDbLine
10
-29.2057241977451
20
14.5272178053419
30
0.000000000000000
11
-29.1057241977451
21
14.4502093288216
31
0.000000000000000
  0
LINE
  5
F10850
330
F10851
100
AcDbEntity
8
Geo
100
AcDbLine
10
-29.1057241977451
20
14.4502093288216
30
0.000000000000000
11
-29.0057241977451
21
14.3725186784971
31
0.000000000000000
  0
LINE
  5
F10852
330
F10853
100
AcDbEntity
8
Geo
100
AcDbLine
10
-29.0057241977451
20
14.3725186784971
30
0.000000000000000
11
-28.9057241977451
21
14.2941554457079
31
0.000000000000000
  0
LINE
  5
F10854
330
F10855
100
AcDbEntity
8
Geo
100
AcDbLine
10
-28.9057241977451
20
14.2941554457079
30
0.000000000000000
11
-28.8057241977451
21
14.2151293048277
31
0.000000000000000
  0
LINE
  5
F10856
330
F10857
100
AcDbEntity
8
Geo
100
AcDbLine
10
-28.8057241977451
20
14.2151293048277
30
0.000000000000000
11
-28.7057241977451
21
14.1354500120699
31
0.000000000000000
  0
LINE
  5
F10858
330
F10859
100
AcDbEntity
8
Geo
100
AcDbLine
10
-28.7057241977451
20
14.1354500120699
30
0.000000000000000
11
-28.6057241977451
21
14.0551274042830
31
0.000000000000000
  0
LINE
  5
F1085A
330
F1085B
100
AcDbEntity
8
Geo
100
AcDbLine
10
-28.6057241977451
20
14.0551274042830
30
0.000000000000000
11
-28.5057241977451
21
13.9741713977362
31
0.000000000000000
  0
LINE
  5
F1085C
330
F1085D
100
AcDbEntity
8
Geo
100
AcDbLine
10
-28.5057241977451
20
13.9741713977362
30
0.000000000000000
11
-28.4057241977451
21
13.8925919868954
31
0.000000000000000
  0
LINE
  5
F1085E
330
F1085F
100
AcDbEntity
8
Geo
100
AcDbLine
10
-28.4057241977451
20
13.8925919868954
30
0.000000000000000
11
-28.3057241977451
21
13.8103992431893
31
0.000000000000000
  0
LINE
  5
F10860
330
F10861
100
AcDbEntity
8
Geo
100
AcDbLine
10
-28.3057241977451
20
13.8103992431893
30
0.000000000000000
11
-28.2057241977451
21
13.7276033137658
31
0.000000000000000
  0
LINE
  5
F10862
330
F10863
100
AcDbEntity
8
Geo
100
AcDbLine
10
-28.2057241977451
20
13.7276033137658
30
0.000000000000000
11
-28.1057241977451
21
13.6442144202393
31
0.000000000000000
  0
LINE
  5
F10864
330
F10865
100
AcDbEntity
8
Geo
100
AcDbLine
10
-28.1057241977451
20
13.6442144202393
30
0.000000000000000
11
-28.0057241977451
21
13.5602428574292
31
0.000000000000000
  0
LINE
  5
F10866
330
F10867
100
AcDbEntity
8
Geo
100
AcDbLine
10
-28.0057241977451
20
13.5602428574292
30
0.000000000000000
11
-27.9057241977451
21
13.4756989920882
31
0.000000000000000
  0
LINE
  5
F10868
330
F10869
100
AcDbEntity
8
Geo
100
AcDbLine
10
-27.9057241977451
20
13.4756989920882
30
0.000000000000000
11
-27.8057241977451
21
13.3905932616234
31
0.000000000000000
  0
LINE
  5
F1086A
330
F1086B
100
AcDbEntity
8
Geo
100
AcDbLine
10
-27.8057241977451
20
13.3905932616234
30
0.000000000000000
11
-27.7057241977451
21
13.3049361728068
31
0.000000000000000
  0
LINE
  5
F1086C
330
F1086D
100
AcDbEntity
8
Geo
100
AcDbLine
10
-27.7057241977451
20
13.3049361728068
30
0.000000000000000
11
-27.6057241977451
21
13.2187383004790
31
0.000000000000000
  0
LINE
  5
F1086E
330
F1086F
100
AcDbEntity
8
Geo
100
AcDbLine
10
-27.6057241977451
20
13.2187383004790
30
0.000000000000000
11
-27.5057241977451
21
13.1320102862431
31
0.000000000000000
  0
LINE
  5
F10870
330
F10871
100
AcDbEntity
8
Geo
100
AcDbLine
10
-27.5057241977451
20
13.1320102862431
30
0.000000000000000
11
-27.4057241977451
21
13.0447628371512
31
0.000000000000000
  0
LINE
  5
F10872
330
F10873
100
AcDbEntity
8
Geo
100
AcDbLine
10
-27.4057241977451
20
13.0447628371512
30
0.000000000000000
11
-27.3057241977451
21
12.9570067243825
31
0.000000000000000
  0
LINE
  5
F10874
330
F10875
100
AcDbEntity
8
Geo
100
AcDbLine
10
-27.3057241977451
20
12.9570067243825
30
0.000000000000000
11
-27.2057241977451
21
12.8687527819135
31
0.000000000000000
  0
LINE
  5
F10876
330
F10877
100
AcDbEntity
8
Geo
100
AcDbLine
10
-27.2057241977451
20
12.8687527819135
30
0.000000000000000
11
-27.1057241977451
21
12.7800119051806
31
0.000000000000000
  0
LINE
  5
F10878
330
F10879
100
AcDbEntity
8
Geo
100
AcDbLine
10
-27.1057241977451
20
12.7800119051806
30
0.000000000000000
11
-27.0057241977451
21
12.6907950497349
31
0.000000000000000
  0
LINE
  5
F1087A
330
F1087B
100
AcDbEntity
8
Geo
100
AcDbLine
10
-27.0057241977451
20
12.6907950497349
30
0.000000000000000
11
-26.9057241977451
21
12.6011132298896
31
0.000000000000000
  0
LINE
  5
F1087C
330
F1087D
100
AcDbEntity
8
Geo
100
AcDbLine
10
-26.9057241977451
20
12.6011132298896
30
0.000000000000000
11
-26.8057241977451
21
12.5109775173605
31
0.000000000000000
  0
LINE
  5
F1087E
330
F1087F
100
AcDbEntity
8
Geo
100
AcDbLine
10
-26.8057241977451
20
12.5109775173605
30
0.000000000000000
11
-26.7057241977451
21
12.4203990398988
31
0.000000000000000
  0
LINE
  5
F10880
330
F10881
100
AcDbEntity
8
Geo
100
AcDbLine
10
-26.7057241977451
20
12.4203990398988
30
0.000000000000000
11
-26.6057241977451
21
12.3293889799175
31
0.000000000000000
  0
LINE
  5
F10882
330
F10883
100
AcDbEntity
8
Geo
100
AcDbLine
10
-26.6057241977451
20
12.3293889799175
30
0.000000000000000
11
-26.5057241977451
21
12.2379585731109
31
0.000000000000000
  0
LINE
  5
F10884
330
F10885
100
AcDbEntity
8
Geo
100
AcDbLine
10
-26.5057241977451
20
12.2379585731109
30
0.000000000000000
11
-26.4057241977451
21
12.1461191070675
31
0.000000000000000
  0
LINE
  5
F10886
330
F10887
100
AcDbEntity
8
Geo
100
AcDbLine
10
-26.4057241977451
20
12.1461191070675
30
0.000000000000000
11
-26.3057241977451
21
12.0538819198763
31
0.000000000000000
  0
LINE
  5
F10888
330
F10889
100
AcDbEntity
8
Geo
100
AcDbLine
10
-26.3057241977451
20
12.0538819198763
30
0.000000000000000
11
-26.2057241977451
21
11.9612583987271
31
0.000000000000000
  0
LINE
  5
F1088A
330
F1088B
100
AcDbEntity
8
Geo
100
AcDbLine
10
-26.2057241977451
20
11.9612583987271
30
0.000000000000000
11
-26.1057241977451
21
11.8682599785051
31
0.000000000000000
  0
LINE
  5
F1088C
330
F1088D
100
AcDbEntity
8
Geo
100
AcDbLine
10
-26.1057241977451
20
11.8682599785051
30
0.000000000000000
11
-26.0057241977451
21
11.7748981403784
31
0.000000000000000
  0
LINE
  5
F1088E
330
F1088F
100
AcDbEntity
8
Geo
100
AcDbLine
10
-26.0057241977451
20
11.7748981403784
30
0.000000000000000
11
-25.9057241977451
21
11.6811844103813
31
0.000000000000000
  0
LINE
  5
F10890
330
F10891
100
AcDbEntity
8
Geo
100
AcDbLine
10
-25.9057241977451
20
11.6811844103813
30
0.000000000000000
11
-25.8057241977451
21
11.5871303579912
31
0.000000000000000
  0
LINE
  5
F10892
330
F10893
100
AcDbEntity
8
Geo
100
AcDbLine
10
-25.8057241977451
20
11.5871303579912
30
0.000000000000000
11
-25.7057241977451
21
11.4927475946999
31
0.000000000000000
  0
LINE
  5
F10894
330
F10895
100
AcDbEntity
8
Geo
100
AcDbLine
10
-25.7057241977451
20
11.4927475946999
30
0.000000000000000
11
-25.6057241977451
21
11.3980477725807
31
0.000000000000000
  0
LINE
  5
F10896
330
F10897
100
AcDbEntity
8
Geo
100
AcDbLine
10
-25.6057241977451
20
11.3980477725807
30
0.000000000000000
11
-25.5057241977451
21
11.3030425828492
31
0.000000000000000
  0
LINE
  5
F10898
330
F10899
100
AcDbEntity
8
Geo
100
AcDbLine
10
-25.5057241977451
20
11.3030425828492
30
0.000000000000000
11
-25.4057241977451
21
11.2077437544206
31
0.000000000000000
  0
LINE
  5
F1089A
330
F1089B
100
AcDbEntity
8
Geo
100
AcDbLine
10
-25.4057241977451
20
11.2077437544206
30
0.000000000000000
11
-25.3057241977451
21
11.1121630524612
31
0.000000000000000
  0
LINE
  5
F1089C
330
F1089D
100
AcDbEntity
8
Geo
100
AcDbLine
10
-25.3057241977451
20
11.1121630524612
30
0.000000000000000
11
-25.2057241977451
21
11.0163122769365
31
0.000000000000000
  0
LINE
  5
F1089E
330
F1089F
100
AcDbEntity
8
Geo
100
AcDbLine
10
-25.2057241977451
20
11.0163122769365
30
0.000000000000000
11
-25.1057241977451
21
10.9202032611536
31
0.000000000000000
  0
LINE
  5
F108A0
330
F108A1
100
AcDbEntity
8
Geo
100
AcDbLine
10
-25.1057241977451
20
10.9202032611536
30
0.000000000000000
11
-25.0057241977451
21
10.8238478703011
31
0.000000000000000
  0
LINE
  5
F108A2
330
F108A3
100
AcDbEntity
8
Geo
100
AcDbLine
10
-25.0057241977451
20
10.8238478703011
30
0.000000000000000
11
-24.9057241977451
21
10.7272579999839
31
0.000000000000000
  0
LINE
  5
F108A4
330
F108A5
100
AcDbEntity
8
Geo
100
AcDbLine
10
-24.9057241977451
20
10.7272579999839
30
0.000000000000000
11
-24.8057241977451
21
10.6304455747547
31
0.000000000000000
  0
LINE
  5
F108A6
330
F108A7
100
AcDbEntity
8
Geo
100
AcDbLine
10
-24.8057241977451
20
10.6304455747547
30
0.000000000000000
11
-24.7057241977451
21
10.5334225466417
31
0.000000000000000
  0
LINE
  5
F108A8
330
F108A9
100
AcDbEntity
8
Geo
100
AcDbLine
10
-24.7057241977451
20
10.5334225466417
30
0.000000000000000
11
-24.6057241977451
21
10.4362008936734
31
0.000000000000000
  0
LINE
  5
F108AA
330
F108AB
100
AcDbEntity
8
Geo
100
AcDbLine
10
-24.6057241977451
20
10.4362008936734
30
0.000000000000000
11
-24.5057241977451
21
10.3387926183995
31
0.000000000000000
  0
LINE
  5
F108AC
330
F108AD
100
AcDbEntity
8
Geo
100
AcDbLine
10
-24.5057241977451
20
10.3387926183995
30
0.000000000000000
11
-24.4057241977451
21
10.2412097464092
31
0.000000000000000
  0
LINE
  5
F108AE
330
F108AF
100
AcDbEntity
8
Geo
100
AcDbLine
10
-24.4057241977451
20
10.2412097464092
30
0.000000000000000
11
-24.3057241977451
21
10.1434643248467
31
0.000000000000000
  0
LINE
  5
F108B0
330
F108B1
100
AcDbEntity
8
Geo
100
AcDbLine
10
-24.3057241977451
20
10.1434643248467
30
0.000000000000000
11
-24.2057241977451
21
10.0455684209239
31
0.000000000000000
  0
LINE
  5
F108B2
330
F108B3
100
AcDbEntity
8
Geo
100
AcDbLine
10
-24.2057241977451
20
10.0455684209239
30
0.000000000000000
11
-24.1057241977451
21
9.94753412043059
31
0.000000000000000
  0
LINE
  5
F108B4
330
F108B5
100
AcDbEntity
8
Geo
100
AcDbLine
10
-24.1057241977451
20
9.94753412043059
30
0.000000000000000
11
-24.0057241977451
21
9.84937352624220
31
0.000000000000000
  0
LINE
  5
F108B6
330
F108B7
100
AcDbEntity
8
Geo
100
AcDbLine
10
-24.0057241977451
20
9.84937352624220
30
0.000000000000000
11
-23.9057241977451
21
9.75109875682597
31
0.000000000000000
  0
LINE
  5
F108B8
330
F108B9
100
AcDbEntity
8
Geo
100
AcDbLine
10
-23.9057241977451
20
9.75109875682597
30
0.000000000000000
11
-23.8057241977451
21
9.65272194474467
31
0.000000000000000
  0
LINE
  5
F108BA
330
F108BB
100
AcDbEntity
8
Geo
100
AcDbLine
10
-23.8057241977451
20
9.65272194474467
30
0.000000000000000
11
-23.7057241977451
21
9.55425523515877
31
0.000000000000000
  0
LINE
  5
F108BC
330
F108BD
100
AcDbEntity
8
Geo
100
AcDbLine
10
-23.7057241977451
20
9.55425523515877
30
0.000000000000000
11
-23.6057241977451
21
9.45571078432713
31
0.000000000000000
  0
LINE
  5
F108BE
330
F108BF
100
AcDbEntity
8
Geo
100
AcDbLine
10
-23.6057241977451
20
9.45571078432713
30
0.000000000000000
11
-23.5057241977451
21
9.35710075810615
31
0.000000000000000
  0
LINE
  5
F108C0
330
F108C1
100
AcDbEntity
8
Geo
100
AcDbLine
10
-23.5057241977451
20
9.35710075810615
30
0.000000000000000
11
-23.4057241977451
21
9.25843733044791
31
0.000000000000000
  0
LINE
  5
F108C2
330
F108C3
100
AcDbEntity
8
Geo
100
AcDbLine
10
-23.4057241977451
20
9.25843733044791
30
0.000000000000000
11
-23.3057241977451
21
9.15973268189717
31
0.000000000000000
  0
LINE
  5
F108C4
330
F108C5
100
AcDbEntity
8
Geo
100
AcDbLine
10
-23.3057241977451
20
9.15973268189717
30
0.000000000000000
11
-23.2057241977451
21
9.06099899808763
31
0.000000000000000
  0
LINE
  5
F108C6
330
F108C7
100
AcDbEntity
8
Geo
100
AcDbLine
10
-23.2057241977451
20
9.06099899808763
30
0.000000000000000
11
-23.1057241977451
21
8.96224846823758
31
0.000000000000000
  0
LINE
  5
F108C8
330
F108C9
100
AcDbEntity
8
Geo
100
AcDbLine
10
-23.1057241977451
20
8.96224846823758
30
0.000000000000000
11
-23.0057241977451
21
8.86349328364504
31
0.000000000000000
  0
LINE
  5
F108CA
330
F108CB
100
AcDbEntity
8
Geo
100
AcDbLine
10
-23.0057241977451
20
8.86349328364504
30
0.000000000000000
11
-22.9057241977451
21
8.76474563618266
31
0.000000000000000
  0
LINE
  5
F108CC
330
F108CD
100
AcDbEntity
8
Geo
100
AcDbLine
10
-22.9057241977451
20
8.76474563618266
30
0.000000000000000
11
-22.8057241977451
21
8.66601771679261
31
0.000000000000000
  0
LINE
  5
F108CE
330
F108CF
100
AcDbEntity
8
Geo
100
AcDbLine
10
-22.8057241977451
20
8.66601771679261
30
0.000000000000000
11
-22.7057241977451
21
8.56732171398152
31
0.000000000000000
  0
LINE
  5
F108D0
330
F108D1
100
AcDbEntity
8
Geo
100
AcDbLine
10
-22.7057241977451
20
8.56732171398152
30
0.000000000000000
11
-22.6057241977451
21
8.46866981231573
31
0.000000000000000
  0
LINE
  5
F108D2
330
F108D3
100
AcDbEntity
8
Geo
100
AcDbLine
10
-22.6057241977451
20
8.46866981231573
30
0.000000000000000
11
-22.5057241977451
21
8.37007419091707
31
0.000000000000000
  0
LINE
  5
F108D4
330
F108D5
100
AcDbEntity
8
Geo
100
AcDbLine
10
-22.5057241977451
20
8.37007419091707
30
0.000000000000000
11
-22.4057241977451
21
8.27154702195925
31
0.000000000000000
  0
LINE
  5
F108D6
330
F108D7
100
AcDbEntity
8
Geo
100
AcDbLine
10
-22.4057241977451
20
8.27154702195925
30
0.000000000000000
11
-22.3057241977451
21
8.17310046916514
31
0.000000000000000
  0
LINE
  5
F108D8
330
F108D9
100
AcDbEntity
8
Geo
100
AcDbLine
10
-22.3057241977451
20
8.17310046916514
30
0.000000000000000
11
-22.2057241977451
21
8.07474668630512
31
0.000000000000000
  0
LINE
  5
F108DA
330
F108DB
100
AcDbEntity
8
Geo
100
AcDbLine
10
-22.2057241977451
20
8.07474668630512
30
0.000000000000000
11
-22.1057241977451
21
7.97649781569657
31
0.000000000000000
  0
LINE
  5
F108DC
330
F108DD
100
AcDbEntity
8
Geo
100
AcDbLine
10
-22.1057241977451
20
7.97649781569657
30
0.000000000000000
11
-22.0057241977451
21
7.87836598670493
31
0.000000000000000
  0
LINE
  5
F108DE
330
F108DF
100
AcDbEntity
8
Geo
100
AcDbLine
10
-22.0057241977451
20
7.87836598670493
30
0.000000000000000
11
-21.9057241977451
21
7.78036331424615
31
0.000000000000000
  0
LINE
  5
F108E0
330
F108E1
100
AcDbEntity
8
Geo
100
AcDbLine
10
-21.9057241977451
20
7.78036331424615
30
0.000000000000000
11
-21.8057241977451
21
7.68250189729114
31
0.000000000000000
  0
LINE
  5
F108E2
330
F108E3
100
AcDbEntity
8
Geo
100
AcDbLine
10
-21.8057241977451
20
7.68250189729114
30
0.000000000000000
11
-21.7057241977451
21
7.58479381737202
31
0.000000000000000
  0
LINE
  5
F108E4
330
F108E5
100
AcDbEntity
8
Geo
100
AcDbLine
10
-21.7057241977451
20
7.58479381737202
30
0.000000000000000
11
-21.6057241977451
21
7.48725113709058
31
0.000000000000000
  0
LINE
  5
F108E6
330
F108E7
100
AcDbEntity
8
Geo
100
AcDbLine
10
-21.6057241977451
20
7.48725113709058
30
0.000000000000000
11
-21.5057241977451
21
7.38988589862916
31
0.000000000000000
  0
LINE
  5
F108E8
330
F108E9
100
AcDbEntity
8
Geo
100
AcDbLine
10
-21.5057241977451
20
7.38988589862916
30
0.000000000000000
11
-21.4057241977451
21
7.29271012226389
31
0.000000000000000
  0
LINE
  5
F108EA
330
F108EB
100
AcDbEntity
8
Geo
100
AcDbLine
10
-21.4057241977451
20
7.29271012226389
30
0.000000000000000
11
-21.3057241977451
21
7.19573580488078
31
0.000000000000000
  0
LINE
  5
F108EC
330
F108ED
100
AcDbEntity
8
Geo
100
AcDbLine
10
46.6942758022549
20
16.9245446660885
30
0.000000000000000
11
46.6942758022549
21
8.92454466608845
31
0.000000000000000
  0
LINE
  5
F108EE
330
F108EF
100
AcDbEntity
8
Geo
100
AcDbLine
10
-36.3057241977451
20
8.92454466608845
30
0.000000000000000
11
-36.3057241977451
21
-0.0754553339115489
31
0.000000000000000
  0
LINE
  5
F108F0
330
F108F1
100
AcDbEntity
8
Geo
100
AcDbLine
10
-36.3057241977451
20
-0.0754553339115489
30
0.000000000000000
11
-16.3057241977451
21
-0.0754553339115489
31
0.000000000000000
  0
LINE
  5
F108F2
330
F108F3
100
AcDbEntity
8
Geo
100
AcDbLine
10
-16.3057241977451
20
-0.0754553339115489
30
0.000000000000000
11
45.6942758022549
21
-0.0754553339115489
31
0.000000000000000
  0
LINE
  5
F108F4
330
F108F5
100
AcDbEntity
8
Geo
100
AcDbLine
10
45.6942758022549
20
-0.0754553339115489
30
0.000000000000000
11
46.6942758022549
21
0.924544666088451
31
0.000000000000000
  0
LINE
  5
F108F6
330
F108F7
100
AcDbEntity
8
Geo
100
AcDbLine
10
-36.3057241977451
20
17.9245446660885
30
0.000000000000000
11
-36.3057241977451
21
-0.0754553339115489
31
0.000000000000000
  0
LINE
  5
F108F8
330
F108F9
100
AcDbEntity
8
Geo
100
AcDbLine
10
-16.3057241977451
20
17.9245446660885
30
0.000000000000000
11
-16.3057241977451
21
-0.0754553339115489
31
0.000000000000000
  0
LINE
  5
F108FA
330
F108FB
100
AcDbEntity
8
Geo
100
AcDbLine
10
-16.3057241977451
20
17.9245446660885
30
0.000000000000000
11
-16.3057241977451
21
-0.0754553339115489
31
0.000000000000000
  0
LINE
  5
F108FC
330
F108FD
100
AcDbEntity
8
Geo
100
AcDbLine
10
45.6942758022549
20
17.9245446660885
30
0.000000000000000
11
45.6942758022549
21
-0.0754553339115489
31
0.000000000000000
  0
LINE
  5
F108FE
330
F108FF
100
AcDbEntity
8
Geo
100
AcDbLine
10
46.6942758022549
20
16.9245446660885
30
0.000000000000000
11
46.6942758022549
21
0.924544666088451
31
0.000000000000000
  0
LINE
  5
F10900
330
F10901
100
AcDbEntity
8
Geo
 6
Dashdot
100
AcDbLine
10
-36.3057241977451
20
8.92454466608845
30
0.000000000000000
11
46.6942758022549
21
8.92454466608845
31
0.000000000000000
  0
LWPOLYLINE
  5
F10902
330
F10903
100
AcDbEntity
8
Rahmen
100
AcDbPolyline
90
   4
70
   1
43
   0.0
 10
-134.596704249783
 20
99.9002601908066
 10
143.339115351258
 20
99.9002601908066
 10
143.339115351258
 20
-100.082393755421
 10
-134.596704249783
 20
-100.082393755421
  0
TEXT
  5
F10904
330
F10905
 100
AcDbEntity
8
Text
100
AcDbText
10
-133.503902862099
20
-99.5823937554206
30
0.000000000000000
40
1.00000000000000
1
ISBESketcher - ©ISBE GmbH      lizensiert für: Schmid Werkzeuge
100
AcDbText
  0
LWPOLYLINE
  5
F10906
330
F10907
100
AcDbEntity
8
Rahmen
100
AcDbPolyline
90
   4
70
   1
43
   0.0
 10
103.451864700781
 20
-97.1682567215958
 10
143.339115351258
 20
-97.1682567215958
 10
143.339115351258
 20
-100.082393755421
 10
103.451864700781
 20
-100.082393755421
  0
TEXT
  5
F10908
330
F10909
 100
AcDbEntity
8
Text
100
AcDbText
10
104.500000000000
20
-99.4570685169124
30
0.000000000000000
40
1.50000000000000
1
Ers. durch:
100
AcDbText
  0
TEXT
  5
F1090A
330
F1090B
 100
AcDbEntity
8
Text
100
AcDbText
10
0.000000000000000
20
0.500000000000000
30
0.000000000000000
40
1.50000000000000
1

100
AcDbText
  0
LWPOLYLINE
  5
F1090C
330
F1090D
100
AcDbEntity
8
Rahmen
100
AcDbPolyline
90
   4
70
   1
43
   0.0
 10
63.3824804856895
 20
-97.1682567215958
 10
103.451864700781
 20
-97.1682567215958
 10
103.451864700781
 20
-100.082393755421
 10
63.3824804856895
 20
-100.082393755421
  0
TEXT
  5
F1090E
330
F1090F
 100
AcDbEntity
8
Text
100
AcDbText
10
64.5000000000000
20
-99.4570685169124
30
0.000000000000000
40
1.50000000000000
1
Ers. für:
100
AcDbText
  0
TEXT
  5
F10910
330
F10911
 100
AcDbEntity
8
Text
100
AcDbText
10
0.000000000000000
20
0.500000000000000
30
0.000000000000000
40
1.50000000000000
1

100
AcDbText
  0
LWPOLYLINE
  5
F10912
330
F10913
100
AcDbEntity
8
Rahmen
100
AcDbPolyline
90
   4
70
   1
43
   0.0
 10
130.043365134432
 20
-94.0719861231570
 10
143.339115351258
 20
-94.0719861231570
 10
143.339115351258
 20
-97.1682567215958
 10
130.043365134432
 20
-97.1682567215958
  0
TEXT
  5
F10914
330
F10915
 100
AcDbEntity
8
Text
100
AcDbText
10
131.166666666667
20
-96.4570685169124
30
0.000000000000000
40
1.50000000000000
1
Blätter
100
AcDbText
  0
TEXT
  5
F10916
330
F10917
 100
AcDbEntity
8
Text
100
AcDbText
10
0.000000000000000
20
0.500000000000000
30
0.000000000000000
40
1.50000000000000
1

100
AcDbText
  0
LWPOLYLINE
  5
F10918
330
F10919
100
AcDbEntity
8
Rahmen
100
AcDbPolyline
90
   4
70
   1
43
   0.0
 10
130.043365134432
 20
-91.1578490893322
 10
143.339115351258
 20
-91.1578490893322
 10
143.339115351258
 20
-94.0719861231570
 10
130.043365134432
 20
-94.0719861231570
  0
TEXT
  5
F1091A
330
F1091B
 100
AcDbEntity
8
Text
100
AcDbText
10
131.166666666667
20
-93.4570685169124
30
0.000000000000000
40
1.50000000000000
1
Blatt
100
AcDbText
  0
TEXT
  5
F1091C
330
F1091D
 100
AcDbEntity
8
Text
100
AcDbText
10
0.000000000000000
20
0.500000000000000
30
0.000000000000000
40
1.50000000000000
1

100
AcDbText
  0
LWPOLYLINE
  5
F1091E
330
F1091F
100
AcDbEntity
8
Rahmen
100
AcDbPolyline
90
   4
70
   1
43
   0.0
 10
63.3824804856895
 20
-91.1578490893322
 10
130.043365134432
 20
-91.1578490893322
 10
130.043365134432
 20
-97.1682567215958
 10
63.3824804856895
 20
-97.1682567215958
  0
TEXT
  5
F10920
330
F10921
 100
AcDbEntity
8
Text
100
AcDbText
10
64.5000000000000
20
-93.4570685169124
30
0.000000000000000
40
1.50000000000000
1
Datum:
100
AcDbText
  0
TEXT
  5
F10922
330
F10923
 100
AcDbEntity
8
Text
100
AcDbText
10
90.9139924833767
20
-96.4570685169124
30
0.000000000000000
40
1.50000000000000
1
29.09.2021
100
AcDbText
  0
LWPOLYLINE
  5
F10924
330
F10925
100
AcDbEntity
8
Rahmen
100
AcDbPolyline
90
   4
70
   1
43
   0.0
 10
63.3824804856895
 20
-85.1474414570685
 10
143.339115351258
 20
-85.1474414570685
 10
143.339115351258
 20
-91.1578490893322
 10
63.3824804856895
 20
-91.1578490893322
  0
TEXT
  5
F10926
330
F10927
 100
AcDbEntity
8
Text
100
AcDbText
10
0.000000000000000
20
0.500000000000000
30
0.000000000000000
40
1.50000000000000
1

100
AcDbText
  0
TEXT
  5
F10928
330
F10929
 100
AcDbEntity
8
Text
100
AcDbText
10
72.9926279271466
20
-89.6254697889564
30
0.000000000000000
40
2.50000000000000
1
VHM-Schlichtfräser 0160-180-b
100
AcDbText
  0
LWPOLYLINE
  5
F1092A
330
F1092B
100
AcDbEntity
8
Rahmen
100
AcDbPolyline
90
   4
70
   1
43
   0.0
 10
103.451864700781
 20
-79.1370338248049
 10
143.339115351258
 20
-79.1370338248049
 10
143.339115351258
 20
-85.1474414570685
 10
103.451864700781
 20
-85.1474414570685
  0
TEXT
  5
F1092C
330
F1092D
 100
AcDbEntity
8
Text
100
AcDbText
10
104.500000000000
20
-81.4570685169124
30
0.000000000000000
40
1.50000000000000
1
Zu bearb. Material:
100
AcDbText
  0
TEXT
  5
F1092E
330
F1092F
 100
AcDbEntity
8
Text
100
AcDbText
10
0.000000000000000
20
0.500000000000000
30
0.000000000000000
40
1.50000000000000
1

100
AcDbText
  0
LWPOLYLINE
  5
F10930
330
F10931
100
AcDbEntity
8
Rahmen
100
AcDbPolyline
90
   4
70
   1
43
   0.0
 10
63.3824804856895
 20
-79.1370338248049
 10
103.451864700781
 20
-79.1370338248049
 10
103.451864700781
 20
-85.1474414570685
 10
63.3824804856895
 20
-85.1474414570685
  0
TEXT
  5
F10932
330
F10933
 100
AcDbEntity
8
Text
100
AcDbText
10
64.5000000000000
20
-81.4570685169124
30
0.000000000000000
40
1.50000000000000
1
Werkstoff:
100
AcDbText
  0
TEXT
  5
F10934
330
F10935
 100
AcDbEntity
8
Text
100
AcDbText
10
80.7679965307892
20
-84.4570685169124
30
0.000000000000000
40
1.50000000000000
1
VHM
100
AcDbText
  0
LWPOLYLINE
  5
F10936
330
F10937
100
AcDbEntity
8
Rahmen
100
AcDbPolyline
90
   4
70
   1
43
   0.0
 10
103.451864700781
 20
-76.0407632263660
 10
143.339115351258
 20
-76.0407632263660
 10
143.339115351258
 20
-79.1370338248049
 10
103.451864700781
 20
-79.1370338248049
  0
TEXT
  5
F10938
330
F10939
 100
AcDbEntity
8
Text
100
AcDbText
10
0.000000000000000
20
0.500000000000000
30
0.000000000000000
40
1.50000000000000
1

100
AcDbText
  0
TEXT
  5
F1093A
330
F1093B
 100
AcDbEntity
8
Text
100
AcDbText
10
0.000000000000000
20
0.500000000000000
30
0.000000000000000
40
1.50000000000000
1

100
AcDbText
  0
LWPOLYLINE
  5
F1093C
330
F1093D
100
AcDbEntity
8
Rahmen
100
AcDbPolyline
90
   4
70
   1
43
   0.0
 10
63.3824804856895
 20
-76.0407632263660
 10
103.451864700781
 20
-76.0407632263660
 10
103.451864700781
 20
-79.1370338248049
 10
63.3824804856895
 20
-79.1370338248049
  0
TEXT
  5
F1093E
330
F1093F
 100
AcDbEntity
8
Text
100
AcDbText
10
64.5000000000000
20
-78.4570685169124
30
0.000000000000000
40
1.50000000000000
1
Maßstab:
100
AcDbText
  0
TEXT
  5
F10940
330
F10941
 100
AcDbEntity
8
Text
100
AcDbText
10
89.0411968777103
20
-78.4570685169124
30
0.000000000000000
40
1.50000000000000
1
1 : 1
100
AcDbText
0
VIEWPORT
5
294
102
{ACAD_XDICTIONARY
360
58A
102
}
330
25D
100
AcDbEntity
67
1
8
0
60
1
100
AcDbViewport
10
0.0
20
0.0
30
0.0
40
10.0
41
10.0
68
-1
69
1
12
0.0
22
0.0
13
0.0
23
0.0
14
1.0
24
1.0
15
0.0
25
0.0
16
0.0
26
0.0
36
1.0
17
0.0
27
0.0
37
0.0
42
0.0
43
0.0
44
0.0
45
10.0
50
0.0
51
0.0000000000007958
72
100
90
32800
1

281
0
71
0
74
0
110
0.0
120
0.0
130
0.0
111
1.0
121
0.0
131
0.0
112
0.0
122
1.0
132
0.0
79
0
146
0.0
1001
VD_INVISIBLE_NOT_FOR_READ
1000
VD_INVISIBLE_NOT_FOR_READ
0
VIEWPORT
5
295
102
{ACAD_XDICTIONARY
360
58C
102
}
330
25D
100
AcDbEntity
67
1
8
0
60
1
100
AcDbViewport
10
0.0
20
0.0
30
0.0
40
10.0
41
10.0
68
0
69
2
12
0.0
22
0.0
13
0.0
23
0.0
14
1.0
24
1.0
15
0.0
25
0.0
16
0.0
26
0.0
36
1.0
17
0.0
27
0.0
37
0.0
42
0.0
43
0.0
44
0.0
45
10.0
50
0.0
51
0.0000000000007958
72
100
90
163872
1

281
0
71
0
74
0
110
0.0
120
0.0
130
0.0
111
1.0
121
0.0
131
0.0
112
0.0
122
1.0
132
0.0
79
0
146
0.0
1001
VD_INVISIBLE_NOT_FOR_READ
1000
VD_INVISIBLE_NOT_FOR_READ
0
ENDSEC
0
SECTION
2
OBJECTS
0
DICTIONARY
5
13
330
0
100
AcDbDictionary
281
1
3
ACAD_COLOR
350
FA7
3
ACAD_GROUP
350
14
3
ACAD_LAYOUT
350
FCF
3
ACAD_MATERIAL
350
F7A
3
ACAD_MLEADERSTYLE
350
FCD
3
ACAD_MLINESTYLE
350
16
3
ACAD_PLOTSETTINGS
350
17
3
ACAD_PLOTSTYLENAME
350
18
3
ACAD_SCALELIST
350
FAB
3
ACAD_TABLESTYLE
350
FA8
3
ACAD_VISUALSTYLE
350
F93
3
ACDB_RECOMPOSE_DATA
350
107E
3
AcDbVariableDictionary
350
FF0
3
DWGPROPS
350
107F
0
DICTIONARY
5
F1000F
330
F1000E
100
AcDbDictionary
280
1
281
1
3
ACAD_MTEXT_2008_RT
360
F10010
0
DICTIONARY
5
F10014
330
F10013
100
AcDbDictionary
280
1
281
1
3
ACAD_MTEXT_2008_RT
360
F10015
0
DICTIONARY
5
F10005
330
F10004
100
AcDbDictionary
280
1
281
1
3
ACAD_MTEXT_2008_RT
360
F10006
0
DICTIONARY
5
F1000A
330
F10009
100
AcDbDictionary
280
1
281
1
3
ACAD_MTEXT_2008_RT
360
F1000B
0
DICTIONARY
5
FA7
102
{ACAD_REACTORS
330
13
102
}
330
13
100
AcDbDictionary
281
1
0
DICTIONARY
5
14
330
13
100
AcDbDictionary
281
1
0
DICTIONARY
5
FCF
102
{ACAD_REACTORS
330
13
102
}
330
13
100
AcDbDictionary
281
1
3
Layout1
350
FD1
3
Model
350
FD0
0
DICTIONARY
5
F7A
102
{ACAD_REACTORS
330
13
102
}
330
13
100
AcDbDictionary
281
1
3
ByBlock
350
F83
3
ByLayer
350
F7B
3
Global
350
F8B
0
DICTIONARY
5
FCD
102
{ACAD_REACTORS
330
13
102
}
330
13
100
AcDbDictionary
281
1
3
Standard
350
FCE
0
DICTIONARY
5
16
330
13
100
AcDbDictionary
281
1
3
Standard
350
FAA
0
DICTIONARY
5
17
102
{ACAD_REACTORS
330
13
102
}
330
13
100
AcDbDictionary
281
1
0
ACDBDICTIONARYWDFLT
5
18
102
{ACAD_REACTORS
330
13
102
}
330
13
100
AcDbDictionary
281
1
3
Normal
350
19
100
AcDbDictionaryWithDefault
340
19
0
DICTIONARY
5
FAB
102
{ACAD_REACTORS
330
13
102
}
330
13
100
AcDbDictionary
281
1
3
A0
350
FAC
3
A1
350
FAD
3
A2
350
FAE
3
A3
350
FAF
3
A4
350
FB0
3
A5
350
FB1
3
A6
350
FB2
3
A7
350
FB3
3
A8
350
FB4
3
A9
350
FB5
3
B0
350
FB6
3
B1
350
FB7
3
B2
350
FB8
3
B3
350
FB9
3
B4
350
FBA
3
B5
350
FBB
3
B6
350
FBC
3
B7
350
FBD
3
B8
350
FBE
3
B9
350
FBF
3
C0
350
FC0
3
C1
350
FC1
3
C2
350
FC2
3
C3
350
FC3
3
C4
350
FC4
3
C5
350
FC5
3
C6
350
FC6
3
C7
350
FC7
3
C8
350
FC8
3
C9
350
FC9
3
D0
350
FCA
3
D1
350
FCB
3
D2
350
FCC
0
DICTIONARY
5
FA8
102
{ACAD_REACTORS
330
13
102
}
330
13
100
AcDbDictionary
281
1
3
Standard
350
FA9
0
DICTIONARY
5
F93
102
{ACAD_REACTORS
330
13
102
}
330
13
100
AcDbDictionary
281
1
3
2dWireframe
350
F99
3
3D Hidden
350
F9B
3
3dWireframe
350
F9A
3
Basic
350
F98
3
Brighten
350
F9F
3
ColorChange
350
FA3
3
Conceptual
350
F9C
3
Dim
350
F9E
3
EdgeColorOff
350
FA6
3
Facepattern
350
FA2
3
Flat
350
F94
3
FlatWithEdges
350
F95
3
Gouraud
350
F96
3
GouraudWithEdges
350
F97
3
JitterOff
350
FA4
3
Linepattern
350
FA1
3
OverhangOff
350
FA5
3
Realistic
350
F9D
3
Thicken
350
FA0
0
XRECORD
5
107E
102
{ACAD_REACTORS
330
13
102
}
330
13
100
AcDbXrecord
280
1
90
1
330
FA9
330
F1000E
330
F10013
330
F10004
330
F10009
0
DICTIONARY
5
FF0
102
{ACAD_REACTORS
330
13
102
}
330
13
100
AcDbDictionary
281
1
3
CANNOSCALE
350
FF3
3
CMLEADERSTYLE
350
FF2
3
CTABLESTYLE
350
FF1
3
DIMASSOC
350
FF6
3
INDEXCTL
350
FF5
3
SORTENTS
350
FF4
3
XCLIPFRAME
350
1078
0
XRECORD
5
107F
102
{ACAD_REACTORS
330
13
102
}
330
13
100
AcDbXrecord
280
1
1
DWGPROPS COOKIE
2

3

4

6

7

8

9

300
=
301
=
302
=
303
=
304
=
305
=
306
=
307
=
308
=
309
=
40
0.0
41
0.0
42
0.0
1

90
0
0
XRECORD
5
F10010
102
{ACAD_REACTORS
330
F1000F
102
}
330
F1000F
100
AcDbXrecord
280
1
40
48458.0
1
20
0
XRECORD
5
F10015
102
{ACAD_REACTORS
330
F10014
102
}
330
F10014
100
AcDbXrecord
280
1
40
48458.0
1
83
0
XRECORD
5
F10006
102
{ACAD_REACTORS
330
F10005
102
}
330
F10005
100
AcDbXrecord
280
1
40
48458.0
1
Ø18
0
LAYOUT
5
FD1
102
{ACAD_XDICTIONARY
360
10A9
102
}
102
{ACAD_REACTORS
330
FCF
102
}
330
FCF
100
AcDbPlotSettings
1

2
Microsoft XPS Document Writer
4

6

40
0.0
41
0.0
42
0.0
43
0.0
44
0.0
45
0.0
46
0.0
47
0.0
48
0.0
49
0.0
140
0.0
141
0.0
142
1.0
143
1.0
70
688
72
0
73
0
74
5
7

75
16
147
1.0
148
0.0
149
0.0
100
AcDbLayout
1
Layout1
70
1
71
1
10
0.0
20
0.0
11
12.0
21
9.0
12
0.0
22
0.0
32
0.0
14
1.000000000000000E+20
24
1.000000000000000E+20
34
1.000000000000000E+20
15
-1.000000000000000E+20
25
-1.000000000000000E+20
35
-1.000000000000000E+20
146
0.0
13
0.0
23
0.0
33
0.0
16
1.0
26
0.0
36
0.0
17
0.0
27
1.0
37
0.0
76
0
330
25D
0
LAYOUT
5
FD0
102
{ACAD_XDICTIONARY
360
10A7
102
}
102
{ACAD_REACTORS
330
FCF
102
}
330
FCF
100
AcDbPlotSettings
1

2
Microsoft XPS Document Writer
4

6

40
0.0
41
0.0
42
0.0
43
0.0
44
0.0
45
0.0
46
0.0
47
0.0
48
0.0
49
0.0
140
0.0
141
0.0
142
1.0
143
1.0
70
1712
72
0
73
0
74
0
7

75
0
147
1.0
148
0.0
149
0.0
100
AcDbLayout
1
Model
70
1
71
0
10
0.0
20
0.0
11
12.0
21
9.0
12
0.0
22
0.0
32
0.0
14
0.0
24
0.0
34
0.0
15
0.0
25
0.0
35
0.0
146
0.0
13
0.0
23
0.0
33
0.0
16
1.0
26
0.0
36
0.0
17
0.0
27
1.0
37
0.0
76
0
330
261
331
26B
0
MATERIAL
5
F83
102
{ACAD_XDICTIONARY
360
F84
102
}
102
{ACAD_REACTORS
330
F7A
102
}
330
F7A
100
AcDbMaterial
1
ByBlock
72
0
43
0.0208333333333333
43
0.0
43
0.0
43
0.0
43
0.0
43
0.0208333333333333
43
0.0
43
0.0
43
0.0
43
0.0
43
1.0
43
0.0
43
0.0
43
0.0
43
0.0
43
1.0
77
0
47
0.0208333333333333
47
0.0
47
0.0
47
0.0
47
0.0
47
0.0208333333333333
47
0.0
47
0.0
47
0.0
47
0.0
47
1.0
47
0.0
47
0.0
47
0.0
47
0.0
47
1.0
171
0
49
0.0208333333333333
49
0.0
49
0.0
49
0.0
49
0.0
49
0.0208333333333333
49
0.0
49
0.0
49
0.0
49
0.0
49
1.0
49
0.0
49
0.0
49
0.0
49
0.0
49
1.0
175
0
142
0.0208333333333333
142
0.0
142
0.0
142
0.0
142
0.0
142
0.0208333333333333
142
0.0
142
0.0
142
0.0
142
0.0
142
1.0
142
0.0
142
0.0
142
0.0
142
0.0
142
1.0
179
0
144
0.0208333333333333
144
0.0
144
0.0
144
0.0
144
0.0
144
0.0208333333333333
144
0.0
144
0.0
144
0.0
144
0.0
144
1.0
144
0.0
144
0.0
144
0.0
144
0.0
144
1.0
147
0.0208333333333333
147
0.0
147
0.0
147
0.0
147
0.0
147
0.0208333333333333
147
0.0
147
0.0
147
0.0
147
0.0
147
1.0
147
0.0
147
0.0
147
0.0
147
0.0
147
1.0
0
MATERIAL
5
F7B
102
{ACAD_XDICTIONARY
360
F7C
102
}
102
{ACAD_REACTORS
330
F7A
102
}
330
F7A
100
AcDbMaterial
1
ByLayer
72
0
43
0.0208333333333333
43
0.0
43
0.0
43
0.0
43
0.0
43
0.0208333333333333
43
0.0
43
0.0
43
0.0
43
0.0
43
1.0
43
0.0
43
0.0
43
0.0
43
0.0
43
1.0
77
0
47
0.0208333333333333
47
0.0
47
0.0
47
0.0
47
0.0
47
0.0208333333333333
47
0.0
47
0.0
47
0.0
47
0.0
47
1.0
47
0.0
47
0.0
47
0.0
47
0.0
47
1.0
171
0
49
0.0208333333333333
49
0.0
49
0.0
49
0.0
49
0.0
49
0.0208333333333333
49
0.0
49
0.0
49
0.0
49
0.0
49
1.0
49
0.0
49
0.0
49
0.0
49
0.0
49
1.0
175
0
142
0.0208333333333333
142
0.0
142
0.0
142
0.0
142
0.0
142
0.0208333333333333
142
0.0
142
0.0
142
0.0
142
0.0
142
1.0
142
0.0
142
0.0
142
0.0
142
0.0
142
1.0
179
0
144
0.0208333333333333
144
0.0
144
0.0
144
0.0
144
0.0
144
0.0208333333333333
144
0.0
144
0.0
144
0.0
144
0.0
144
1.0
144
0.0
144
0.0
144
0.0
144
0.0
144
1.0
147
0.0208333333333333
147
0.0
147
0.0
147
0.0
147
0.0
147
0.0208333333333333
147
0.0
147
0.0
147
0.0
147
0.0
147
1.0
147
0.0
147
0.0
147
0.0
147
0.0
147
1.0
0
MATERIAL
5
F8B
102
{ACAD_XDICTIONARY
360
F8C
102
}
102
{ACAD_REACTORS
330
F7A
102
}
330
F7A
100
AcDbMaterial
1
Global
72
0
43
0.0208333333333333
43
0.0
43
0.0
43
0.0
43
0.0
43
0.0208333333333333
43
0.0
43
0.0
43
0.0
43
0.0
43
1.0
43
0.0
43
0.0
43
0.0
43
0.0
43
1.0
77
0
47
0.0208333333333333
47
0.0
47
0.0
47
0.0
47
0.0
47
0.0208333333333333
47
0.0
47
0.0
47
0.0
47
0.0
47
1.0
47
0.0
47
0.0
47
0.0
47
0.0
47
1.0
171
0
49
0.0208333333333333
49
0.0
49
0.0
49
0.0
49
0.0
49
0.0208333333333333
49
0.0
49
0.0
49
0.0
49
0.0
49
1.0
49
0.0
49
0.0
49
0.0
49
0.0
49
1.0
175
0
142
0.0208333333333333
142
0.0
142
0.0
142
0.0
142
0.0
142
0.0208333333333333
142
0.0
142
0.0
142
0.0
142
0.0
142
1.0
142
0.0
142
0.0
142
0.0
142
0.0
142
1.0
179
0
144
0.0208333333333333
144
0.0
144
0.0
144
0.0
144
0.0
144
0.0208333333333333
144
0.0
144
0.0
144
0.0
144
0.0
144
1.0
144
0.0
144
0.0
144
0.0
144
0.0
144
1.0
147
0.0208333333333333
147
0.0
147
0.0
147
0.0
147
0.0
147
0.0208333333333333
147
0.0
147
0.0
147
0.0
147
0.0
147
1.0
147
0.0
147
0.0
147
0.0
147
0.0
147
1.0
0
MLEADERSTYLE
5
FCE
102
{ACAD_REACTORS
330
FCD
102
}
330
FCD
100
AcDbMLeaderStyle
170
2
171
1
172
0
90
2
40
0.0
41
0.0
173
1
91
-1056964608
340
256
92
-2
290
1
42
0.09
291
1
43
0.36
3
Standard
44
0.18
300

342
253
174
1
178
6
175
1
176
0
93
-1056964608
45
0.18
292
0
297
0
46
0.18
94
-1056964608
47
1.0
49
1.0
140
1.0
293
1
141
0.0
294
1
177
0
142
1.0
295
0
296
0
143
0.125
1001
ACAD_MLEADERVER
1070
2
0
MLINESTYLE
5
FAA
102
{ACAD_REACTORS
330
16
102
}
330
16
100
AcDbMlineStyle
2
STANDARD
70
0
3

62
256
51
90.0
52
90.0
71
2
49
0.5
62
256
6
BYLAYER
49
-0.5
62
256
6
BYLAYER
0
ACDBPLACEHOLDER
5
19
102
{ACAD_REACTORS
330
18
102
}
330
18
0
SCALE
5
FAC
102
{ACAD_REACTORS
330
FAB
102
}
330
FAB
100
AcDbScale
70
0
300
1:1
140
1.0
141
1.0
290
1
0
SCALE
5
FAD
102
{ACAD_REACTORS
330
FAB
102
}
330
FAB
100
AcDbScale
70
0
300
1:2
140
1.0
141
2.0
290
0
0
SCALE
5
FAE
102
{ACAD_REACTORS
330
FAB
102
}
330
FAB
100
AcDbScale
70
0
300
1:4
140
1.0
141
4.0
290
0
0
SCALE
5
FAF
102
{ACAD_REACTORS
330
FAB
102
}
330
FAB
100
AcDbScale
70
0
300
1:5
140
1.0
141
5.0
290
0
0
SCALE
5
FB0
102
{ACAD_REACTORS
330
FAB
102
}
330
FAB
100
AcDbScale
70
0
300
1:8
140
1.0
141
8.0
290
0
0
SCALE
5
FB1
102
{ACAD_REACTORS
330
FAB
102
}
330
FAB
100
AcDbScale
70
0
300
1:10
140
1.0
141
10.0
290
0
0
SCALE
5
FB2
102
{ACAD_REACTORS
330
FAB
102
}
330
FAB
100
AcDbScale
70
0
300
1:16
140
1.0
141
16.0
290
0
0
SCALE
5
FB3
102
{ACAD_REACTORS
330
FAB
102
}
330
FAB
100
AcDbScale
70
0
300
1:20
140
1.0
141
20.0
290
0
0
SCALE
5
FB4
102
{ACAD_REACTORS
330
FAB
102
}
330
FAB
100
AcDbScale
70
0
300
1:30
140
1.0
141
30.0
290
0
0
SCALE
5
FB5
102
{ACAD_REACTORS
330
FAB
102
}
330
FAB
100
AcDbScale
70
0
300
1:40
140
1.0
141
40.0
290
0
0
SCALE
5
FB6
102
{ACAD_REACTORS
330
FAB
102
}
330
FAB
100
AcDbScale
70
0
300
1:50
140
1.0
141
50.0
290
0
0
SCALE
5
FB7
102
{ACAD_REACTORS
330
FAB
102
}
330
FAB
100
AcDbScale
70
0
300
1:100
140
1.0
141
100.0
290
0
0
SCALE
5
FB8
102
{ACAD_REACTORS
330
FAB
102
}
330
FAB
100
AcDbScale
70
0
300
2:1
140
2.0
141
1.0
290
0
0
SCALE
5
FB9
102
{ACAD_REACTORS
330
FAB
102
}
330
FAB
100
AcDbScale
70
0
300
4:1
140
4.0
141
1.0
290
0
0
SCALE
5
FBA
102
{ACAD_REACTORS
330
FAB
102
}
330
FAB
100
AcDbScale
70
0
300
8:1
140
8.0
141
1.0
290
0
0
SCALE
5
FBB
102
{ACAD_REACTORS
330
FAB
102
}
330
FAB
100
AcDbScale
70
0
300
10:1
140
10.0
141
1.0
290
0
0
SCALE
5
FBC
102
{ACAD_REACTORS
330
FAB
102
}
330
FAB
100
AcDbScale
70
0
300
100:1
140
100.0
141
1.0
290
0
0
SCALE
5
FBD
102
{ACAD_REACTORS
330
FAB
102
}
330
FAB
100
AcDbScale
70
0
300
1/128" = 1'-0"
140
0.0078125
141
12.0
290
0
0
SCALE
5
FBE
102
{ACAD_REACTORS
330
FAB
102
}
330
FAB
100
AcDbScale
70
0
300
1/64" = 1'-0"
140
0.015625
141
12.0
290
0
0
SCALE
5
FBF
102
{ACAD_REACTORS
330
FAB
102
}
330
FAB
100
AcDbScale
70
0
300
1/32" = 1'-0"
140
0.03125
141
12.0
290
0
0
SCALE
5
FC0
102
{ACAD_REACTORS
330
FAB
102
}
330
FAB
100
AcDbScale
70
0
300
1/16" = 1'-0"
140
0.0625
141
12.0
290
0
0
SCALE
5
FC1
102
{ACAD_REACTORS
330
FAB
102
}
330
FAB
100
AcDbScale
70
0
300
3/32" = 1'-0"
140
0.09375
141
12.0
290
0
0
SCALE
5
FC2
102
{ACAD_REACTORS
330
FAB
102
}
330
FAB
100
AcDbScale
70
0
300
1/8" = 1'-0"
140
0.125
141
12.0
290
0
0
SCALE
5
FC3
102
{ACAD_REACTORS
330
FAB
102
}
330
FAB
100
AcDbScale
70
0
300
3/16" = 1'-0"
140
0.1875
141
12.0
290
0
0
SCALE
5
FC4
102
{ACAD_REACTORS
330
FAB
102
}
330
FAB
100
AcDbScale
70
0
300
1/4" = 1'-0"
140
0.25
141
12.0
290
0
0
SCALE
5
FC5
102
{ACAD_REACTORS
330
FAB
102
}
330
FAB
100
AcDbScale
70
0
300
3/8" = 1'-0"
140
0.375
141
12.0
290
0
0
SCALE
5
FC6
102
{ACAD_REACTORS
330
FAB
102
}
330
FAB
100
AcDbScale
70
0
300
1/2" = 1'-0"
140
0.5
141
12.0
290
0
0
SCALE
5
FC7
102
{ACAD_REACTORS
330
FAB
102
}
330
FAB
100
AcDbScale
70
0
300
3/4" = 1'-0"
140
0.75
141
12.0
290
0
0
SCALE
5
FC8
102
{ACAD_REACTORS
330
FAB
102
}
330
FAB
100
AcDbScale
70
0
300
1" = 1'-0"
140
1.0
141
12.0
290
0
0
SCALE
5
FC9
102
{ACAD_REACTORS
330
FAB
102
}
330
FAB
100
AcDbScale
70
0
300
1-1/2" = 1'-0"
140
1.5
141
12.0
290
0
0
SCALE
5
FCA
102
{ACAD_REACTORS
330
FAB
102
}
330
FAB
100
AcDbScale
70
0
300
3" = 1'-0"
140
3.0
141
12.0
290
0
0
SCALE
5
FCB
102
{ACAD_REACTORS
330
FAB
102
}
330
FAB
100
AcDbScale
70
0
300
6" = 1'-0"
140
6.0
141
12.0
290
0
0
SCALE
5
FCC
102
{ACAD_REACTORS
330
FAB
102
}
330
FAB
100
AcDbScale
70
0
300
1'-0" = 1'-0"
140
12.0
141
12.0
290
0
0
TABLESTYLE
5
FA9
102
{ACAD_XDICTIONARY
360
FF8
102
}
102
{ACAD_REACTORS
330
FA8
102
}
330
FA8
100
AcDbTableStyle
3
Standard
70
0
71
0
40
0.06
41
0.06
280
0
281
0
7
Standard
140
0.18
170
2
62
0
63
7
283
0
274
-2
284
1
64
0
275
-2
285
1
65
0
276
-2
286
1
66
0
277
-2
287
1
67
0
278
-2
288
1
68
0
279
-2
289
1
69
0
7
Standard
140
0.25
170
5
62
0
63
7
283
0
274
-2
284
1
64
0
275
-2
285
1
65
0
276
-2
286
1
66
0
277
-2
287
1
67
0
278
-2
288
1
68
0
279
-2
289
1
69
0
7
Standard
140
0.18
170
5
62
0
63
7
283
0
274
-2
284
1
64
0
275
-2
285
1
65
0
276
-2
286
1
66
0
277
-2
287
1
67
0
278
-2
288
1
68
0
279
-2
289
1
69
0
0
VISUALSTYLE
5
F99
102
{ACAD_XDICTIONARY
360
108A
102
}
102
{ACAD_REACTORS
330
F93
102
}
330
F93
100
AcDbVisualStyle
2

70
4
71
0
72
2
73
0
90
0
40
-0.6
41
-30.0
62
5
63
7
74
1
91
4
64
7
65
257
75
1
175
1
42
1.0
92
0
66
257
43
1.0
76
1
77
6
78
2
67
7
79
5
170
0
171
0
290
0
174
0
93
1
44
0.0
173
0
291
0
45
0.0
1001
ACAD
1000
AcDbSavedByObjectVersion
1070
0
0
VISUALSTYLE
5
F9B
102
{ACAD_XDICTIONARY
360
108E
102
}
102
{ACAD_REACTORS
330
F93
102
}
330
F93
100
AcDbVisualStyle
2

70
6
71
1
72
2
73
2
90
0
40
-0.6
41
-30.0
62
5
63
7
74
2
91
2
64
7
65
257
75
2
175
1
42
179.0
92
0
66
257
43
1.0
76
1
77
6
78
2
67
7
79
3
170
0
171
0
290
0
174
0
93
1
44
0.0
173
0
291
0
45
0.0
1001
ACAD
1000
AcDbSavedByObjectVersion
1070
0
0
VISUALSTYLE
5
F9A
102
{ACAD_XDICTIONARY
360
108C
102
}
102
{ACAD_REACTORS
330
F93
102
}
330
F93
100
AcDbVisualStyle
2

70
5
71
0
72
2
73
0
90
0
40
-0.6
41
-30.0
62
5
63
7
74
1
91
4
64
7
65
257
75
1
175
1
42
1.0
92
0
66
257
43
1.0
76
1
77
6
78
2
67
7
79
5
170
0
171
0
290
0
174
0
93
1
44
0.0
173
0
291
0
45
0.0
1001
ACAD
1000
AcDbSavedByObjectVersion
1070
0
0
VISUALSTYLE
5
F98
102
{ACAD_XDICTIONARY
360
1088
102
}
102
{ACAD_REACTORS
330
F93
102
}
330
F93
100
AcDbVisualStyle
2

70
7
71
1
72
0
73
1
90
0
40
-0.6
41
-30.0
62
5
63
7
74
0
91
4
64
7
65
257
75
1
175
1
42
1.0
92
8
66
7
43
1.0
76
1
77
6
78
2
67
7
79
5
170
0
171
0
290
0
174
0
93
1
44
0.0
173
0
291
1
45
0.0
1001
ACAD
1000
AcDbSavedByObjectVersion
1070
0
0
VISUALSTYLE
5
F9F
102
{ACAD_XDICTIONARY
360
1096
102
}
102
{ACAD_REACTORS
330
F93
102
}
330
F93
100
AcDbVisualStyle
2

70
12
71
2
72
2
73
0
90
0
40
-0.6
41
-30.0
62
5
63
7
74
1
91
4
64
7
65
257
75
1
175
1
42
1.0
92
8
66
7
43
1.0
76
1
77
6
78
2
67
7
79
5
170
0
171
0
290
0
174
0
93
1
44
50.0
173
0
291
1
45
0.0
1001
ACAD
1000
AcDbSavedByObjectVersion
1070
0
0
VISUALSTYLE
5
FA3
102
{ACAD_XDICTIONARY
360
109E
102
}
102
{ACAD_REACTORS
330
F93
102
}
330
F93
100
AcDbVisualStyle
2

70
16
71
2
72
2
73
3
90
0
40
-0.6
41
-30.0
62
5
63
8
74
1
91
4
64
7
65
257
75
1
175
1
42
1.0
92
8
66
8
43
1.0
76
1
77
6
78
2
67
7
79
5
170
0
171
0
290
0
174
0
93
1
44
0.0
173
0
291
1
45
0.0
1001
ACAD
1000
AcDbSavedByObjectVersion
1070
0
0
VISUALSTYLE
5
F9C
102
{ACAD_XDICTIONARY
360
1090
102
}
102
{ACAD_REACTORS
330
F93
102
}
330
F93
100
AcDbVisualStyle
2

70
9
71
3
72
2
73
0
90
0
40
-0.6
41
-30.0
62
5
63
7
74
2
91
2
64
7
65
257
75
1
175
1
42
179.0
92
8
66
7
43
1.0
76
1
77
6
78
2
67
7
79
3
170
0
171
0
290
0
174
0
93
1
44
0.0
173
0
291
0
45
0.0
1001
ACAD
1000
AcDbSavedByObjectVersion
1070
0
0
VISUALSTYLE
5
F9E
102
{ACAD_XDICTIONARY
360
1094
102
}
102
{ACAD_REACTORS
330
F93
102
}
330
F93
100
AcDbVisualStyle
2

70
11
71
2
72
2
73
0
90
0
40
-0.6
41
-30.0
62
5
63
7
74
1
91
4
64
7
65
257
75
1
175
1
42
1.0
92
8
66
7
43
1.0
76
1
77
6
78
2
67
7
79
5
170
0
171
0
290
0
174
0
93
1
44
-50.0
173
0
291
1
45
0.0
1001
ACAD
1000
AcDbSavedByObjectVersion
1070
0
0
VISUALSTYLE
5
FA6
102
{ACAD_XDICTIONARY
360
10A4
102
}
102
{ACAD_REACTORS
330
F93
102
}
330
F93
100
AcDbVisualStyle
2

70
22
71
2
72
2
73
0
90
0
40
-0.6
41
-30.0
62
5
63
7
74
1
91
4
64
7
65
257
75
1
175
1
42
1.0
92
8
66
7
43
1.0
76
1
77
6
78
2
67
7
79
5
170
0
171
0
290
0
174
0
93
1
44
0.0
173
0
291
1
45
0.0
1001
ACAD
1000
AcDbSavedByObjectVersion
1070
0
0
VISUALSTYLE
5
FA2
102
{ACAD_XDICTIONARY
360
109C
102
}
102
{ACAD_REACTORS
330
F93
102
}
330
F93
100
AcDbVisualStyle
2

70
15
71
2
72
2
73
0
90
0
40
-0.6
41
-30.0
62
5
63
7
74
1
91
4
64
7
65
257
75
1
175
1
42
1.0
92
8
66
7
43
1.0
76
1
77
6
78
2
67
7
79
5
170
0
171
0
290
0
174
0
93
1
44
0.0
173
0
291
1
45
0.0
1001
ACAD
1000
AcDbSavedByObjectVersion
1070
0
0
VISUALSTYLE
5
F94
102
{ACAD_XDICTIONARY
360
1080
102
}
102
{ACAD_REACTORS
330
F93
102
}
330
F93
100
AcDbVisualStyle
2

70
0
71
2
72
1
73
1
90
2
40
-0.6
41
30.0
62
5
63
7
74
0
91
4
64
7
65
257
75
1
175
1
42
1.0
92
8
66
7
43
1.0
76
1
77
6
78
2
67
7
79
5
170
0
171
0
290
0
174
0
93
13
44
0.0
173
0
291
1
45
0.0
1001
ACAD
1000
AcDbSavedByObjectVersion
1070
0
0
VISUALSTYLE
5
F95
102
{ACAD_XDICTIONARY
360
1082
102
}
102
{ACAD_REACTORS
330
F93
102
}
330
F93
100
AcDbVisualStyle
2

70
1
71
2
72
1
73
1
90
2
40
-0.6
41
30.0
62
5
63
7
74
1
91
4
64
7
65
257
75
1
175
1
42
1.0
92
0
66
257
43
1.0
76
1
77
6
78
2
67
7
79
5
170
0
171
0
290
0
174
0
93
13
44
0.0
173
0
291
1
45
0.0
1001
ACAD
1000
AcDbSavedByObjectVersion
1070
0
0
VISUALSTYLE
5
F96
102
{ACAD_XDICTIONARY
360
1084
102
}
102
{ACAD_REACTORS
330
F93
102
}
330
F93
100
AcDbVisualStyle
2

70
2
71
2
72
2
73
1
90
2
40
-0.6
41
30.0
62
5
63
7
74
0
91
4
64
7
65
257
75
1
175
1
42
1.0
92
0
66
7
43
1.0
76
1
77
6
78
2
67
7
79
5
170
0
171
0
290
0
174
0
93
13
44
0.0
173
0
291
1
45
0.0
1001
ACAD
1000
AcDbSavedByObjectVersion
1070
0
0
VISUALSTYLE
5
F97
102
{ACAD_XDICTIONARY
360
1086
102
}
102
{ACAD_REACTORS
330
F93
102
}
330
F93
100
AcDbVisualStyle
2

70
3
71
2
72
2
73
1
90
2
40
-0.6
41
30.0
62
5
63
7
74
1
91
4
64
7
65
257
75
1
175
1
42
1.0
92
0
66
257
43
1.0
76
1
77
6
78
2
67
7
79
5
170
0
171
0
290
0
174
0
93
13
44
0.0
173
0
291
1
45
0.0
1001
ACAD
1000
AcDbSavedByObjectVersion
1070
0
0
VISUALSTYLE
5
FA4
102
{ACAD_XDICTIONARY
360
10A0
102
}
102
{ACAD_REACTORS
330
F93
102
}
330
F93
100
AcDbVisualStyle
2

70
20
71
2
72
2
73
0
90
0
40
-0.6
41
-30.0
62
5
63
7
74
1
91
4
64
7
65
257
75
1
175
1
42
1.0
92
10
66
7
43
1.0
76
1
77
6
78
2
67
7
79
5
170
0
171
0
290
0
174
0
93
1
44
0.0
173
0
291
1
45
0.0
1001
ACAD
1000
AcDbSavedByObjectVersion
1070
0
0
VISUALSTYLE
5
FA1
102
{ACAD_XDICTIONARY
360
109A
102
}
102
{ACAD_REACTORS
330
F93
102
}
330
F93
100
AcDbVisualStyle
2

70
14
71
2
72
2
73
0
90
0
40
-0.6
41
-30.0
62
5
63
7
74
1
91
4
64
7
65
257
75
7
175
7
42
1.0
92
8
66
7
43
1.0
76
1
77
6
78
2
67
7
79
5
170
0
171
0
290
0
174
0
93
1
44
0.0
173
0
291
1
45
0.0
1001
ACAD
1000
AcDbSavedByObjectVersion
1070
0
0
VISUALSTYLE
5
FA5
102
{ACAD_XDICTIONARY
360
10A2
102
}
102
{ACAD_REACTORS
330
F93
102
}
330
F93
100
AcDbVisualStyle
2

70
21
71
2
72
2
73
0
90
0
40
-0.6
41
-30.0
62
5
63
7
74
1
91
4
64
7
65
257
75
1
175
1
42
1.0
92
9
66
7
43
1.0
76
1
77
6
78
2
67
7
79
5
170
0
171
0
290
0
174
0
93
1
44
0.0
173
0
291
1
45
0.0
1001
ACAD
1000
AcDbSavedByObjectVersion
1070
0
0
VISUALSTYLE
5
F9D
102
{ACAD_XDICTIONARY
360
1092
102
}
102
{ACAD_REACTORS
330
F93
102
}
330
F93
100
AcDbVisualStyle
2

70
8
71
2
72
2
73
0
90
0
40
-0.6
41
-30.0
62
5
63
7
74
1
91
0
64
7
65
257
75
1
175
1
42
1.0
92
8
66
8
43
1.0
76
1
77
6
78
2
67
7
79
5
170
0
171
0
290
0
174
0
93
13
44
0.0
173
0
291
0
45
0.0
1001
ACAD
1000
AcDbSavedByObjectVersion
1070
0
0
VISUALSTYLE
5
FA0
102
{ACAD_XDICTIONARY
360
1098
102
}
102
{ACAD_REACTORS
330
F93
102
}
330
F93
100
AcDbVisualStyle
2

70
13
71
2
72
2
73
0
90
0
40
-0.6
41
-30.0
62
5
63
7
74
1
91
4
64
7
65
257
75
1
175
1
42
1.0
92
12
66
7
43
1.0
76
1
77
6
78
2
67
7
79
5
170
0
171
0
290
0
174
0
93
1
44
0.0
173
0
291
1
45
0.0
1001
ACAD
1000
AcDbSavedByObjectVersion
1070
0
0
DICTIONARYVAR
5
FF3
102
{ACAD_REACTORS
330
FF0
102
}
330
FF0
100
DictionaryVariables
280
0
1
1:1
0
DICTIONARYVAR
5
FF2
102
{ACAD_REACTORS
330
FF0
102
}
330
FF0
100
DictionaryVariables
280
0
1
STANDARD
0
DICTIONARYVAR
5
FF1
102
{ACAD_REACTORS
330
FF0
102
}
330
FF0
100
DictionaryVariables
280
0
1
STANDARD
0
DICTIONARYVAR
5
FF6
102
{ACAD_REACTORS
330
FF0
102
}
330
FF0
100
DictionaryVariables
280
0
1
1
0
DICTIONARYVAR
5
FF5
102
{ACAD_REACTORS
330
FF0
102
}
330
FF0
100
DictionaryVariables
280
0
1
0
0
DICTIONARYVAR
5
FF4
102
{ACAD_REACTORS
330
FF0
102
}
330
FF0
100
DictionaryVariables
280
0
1
127
0
DICTIONARYVAR
5
1078
102
{ACAD_REACTORS
330
FF0
102
}
330
FF0
100
DictionaryVariables
280
0
1
2
0
DICTIONARY
5
10A9
330
FD1
100
AcDbDictionary
280
1
281
1
3
ACAD_XREC_ROUNDTRIP
360
10AA
0
DICTIONARY
5
10A7
330
FD0
100
AcDbDictionary
280
1
281
1
3
ACAD_XREC_ROUNDTRIP
360
10A8
0
DICTIONARY
5
F84
330
F83
100
AcDbDictionary
280
1
281
1
3
ACAD_XREC_ROUNDTRIP
360
FFF
3
BUMPTILE
360
F86
3
DIFFUSETILE
360
F85
3
OPACITYTILE
360
F89
3
REFLECTIONTILE
360
F88
3
REFRACTIONTILE
360
F8A
3
SPECULARTILE
360
F87
0
DICTIONARY
5
F7C
330
F7B
100
AcDbDictionary
280
1
281
1
3
ACAD_XREC_ROUNDTRIP
360
FFE
3
BUMPTILE
360
F7E
3
DIFFUSETILE
360
F7D
3
OPACITYTILE
360
F81
3
REFLECTIONTILE
360
F80
3
REFRACTIONTILE
360
F82
3
SPECULARTILE
360
F7F
0
DICTIONARY
5
F8C
330
F8B
100
AcDbDictionary
280
1
281
1
3
ACAD_XREC_ROUNDTRIP
360
1000
3
BUMPTILE
360
F8E
3
DIFFUSETILE
360
F8D
3
OPACITYTILE
360
F91
3
REFLECTIONTILE
360
F90
3
REFRACTIONTILE
360
F92
3
SPECULARTILE
360
F8F
0
DICTIONARY
5
FF8
330
FA9
100
AcDbDictionary
280
1
281
1
3
ACAD_ROUNDTRIP_2008_TABLESTYLE_CELLSTYLEMAP
360
1079
3
ACAD_XREC_ROUNDTRIP
360
10A6
0
DICTIONARY
5
108A
330
F99
100
AcDbDictionary
280
1
281
1
3
ACAD_XREC_ROUNDTRIP
360
108B
0
DICTIONARY
5
108E
330
F9B
100
AcDbDictionary
280
1
281
1
3
ACAD_XREC_ROUNDTRIP
360
108F
0
DICTIONARY
5
108C
330
F9A
100
AcDbDictionary
280
1
281
1
3
ACAD_XREC_ROUNDTRIP
360
108D
0
DICTIONARY
5
1088
330
F98
100
AcDbDictionary
280
1
281
1
3
ACAD_XREC_ROUNDTRIP
360
1089
0
DICTIONARY
5
1096
330
F9F
100
AcDbDictionary
280
1
281
1
3
ACAD_XREC_ROUNDTRIP
360
1097
0
DICTIONARY
5
109E
330
FA3
100
AcDbDictionary
280
1
281
1
3
ACAD_XREC_ROUNDTRIP
360
109F
0
DICTIONARY
5
1090
330
F9C
100
AcDbDictionary
280
1
281
1
3
ACAD_XREC_ROUNDTRIP
360
1091
0
DICTIONARY
5
1094
330
F9E
100
AcDbDictionary
280
1
281
1
3
ACAD_XREC_ROUNDTRIP
360
1095
0
DICTIONARY
5
10A4
330
FA6
100
AcDbDictionary
280
1
281
1
3
ACAD_XREC_ROUNDTRIP
360
10A5
0
DICTIONARY
5
109C
330
FA2
100
AcDbDictionary
280
1
281
1
3
ACAD_XREC_ROUNDTRIP
360
109D
0
DICTIONARY
5
1080
330
F94
100
AcDbDictionary
280
1
281
1
3
ACAD_XREC_ROUNDTRIP
360
1081
0
DICTIONARY
5
1082
330
F95
100
AcDbDictionary
280
1
281
1
3
ACAD_XREC_ROUNDTRIP
360
1083
0
DICTIONARY
5
1084
330
F96
100
AcDbDictionary
280
1
281
1
3
ACAD_XREC_ROUNDTRIP
360
1085
0
DICTIONARY
5
1086
330
F97
100
AcDbDictionary
280
1
281
1
3
ACAD_XREC_ROUNDTRIP
360
1087
0
DICTIONARY
5
10A0
330
FA4
100
AcDbDictionary
280
1
281
1
3
ACAD_XREC_ROUNDTRIP
360
10A1
0
DICTIONARY
5
109A
330
FA1
100
AcDbDictionary
280
1
281
1
3
ACAD_XREC_ROUNDTRIP
360
109B
0
DICTIONARY
5
10A2
330
FA5
100
AcDbDictionary
280
1
281
1
3
ACAD_XREC_ROUNDTRIP
360
10A3
0
DICTIONARY
5
1092
330
F9D
100
AcDbDictionary
280
1
281
1
3
ACAD_XREC_ROUNDTRIP
360
1093
0
DICTIONARY
5
1098
330
FA0
100
AcDbDictionary
280
1
281
1
3
ACAD_XREC_ROUNDTRIP
360
1099
0
XRECORD
5
10AA
102
{ACAD_REACTORS
330
10A9
102
}
330
10A9
100
AcDbXrecord
280
1
102
SHADEPLOT
70
0
102
SHADEPLOTRESLEVEL
70
2
102
SHADEPLOTCUSTOMDPI
70
300
0
XRECORD
5
10A8
102
{ACAD_REACTORS
330
10A7
102
}
330
10A7
100
AcDbXrecord
280
1
102
SHADEPLOT
70
0
102
SHADEPLOTRESLEVEL
70
2
102
SHADEPLOTCUSTOMDPI
70
300
0
XRECORD
5
FFF
102
{ACAD_REACTORS
330
F84
102
}
330
F84
100
AcDbXrecord
280
1
102
MATERIAL
148
0.0
149
0.0
149
0.0
93
0
94
127
282
0
72
0
77
0
171
0
175
0
179
0
273
0
0
XRECORD
5
F86
102
{ACAD_REACTORS
330
F84
102
}
330
F84
100
AcDbXrecord
280
1
270
1
271
1
0
XRECORD
5
F85
102
{ACAD_REACTORS
330
F84
102
}
330
F84
100
AcDbXrecord
280
1
270
1
271
1
0
XRECORD
5
F89
102
{ACAD_REACTORS
330
F84
102
}
330
F84
100
AcDbXrecord
280
1
270
1
271
1
0
XRECORD
5
F88
102
{ACAD_REACTORS
330
F84
102
}
330
F84
100
AcDbXrecord
280
1
270
1
271
1
0
XRECORD
5
F8A
102
{ACAD_REACTORS
330
F84
102
}
330
F84
100
AcDbXrecord
280
1
270
1
271
1
0
XRECORD
5
F87
102
{ACAD_REACTORS
330
F84
102
}
330
F84
100
AcDbXrecord
280
1
270
1
271
1
0
XRECORD
5
FFE
102
{ACAD_REACTORS
330
F7C
102
}
330
F7C
100
AcDbXrecord
280
1
102
MATERIAL
148
0.0
149
0.0
149
0.0
93
0
94
127
282
0
72
0
77
0
171
0
175
0
179
0
273
0
0
XRECORD
5
F7E
102
{ACAD_REACTORS
330
F7C
102
}
330
F7C
100
AcDbXrecord
280
1
270
1
271
1
0
XRECORD
5
F7D
102
{ACAD_REACTORS
330
F7C
102
}
330
F7C
100
AcDbXrecord
280
1
270
1
271
1
0
XRECORD
5
F81
102
{ACAD_REACTORS
330
F7C
102
}
330
F7C
100
AcDbXrecord
280
1
270
1
271
1
0
XRECORD
5
F80
102
{ACAD_REACTORS
330
F7C
102
}
330
F7C
100
AcDbXrecord
280
1
270
1
271
1
0
XRECORD
5
F82
102
{ACAD_REACTORS
330
F7C
102
}
330
F7C
100
AcDbXrecord
280
1
270
1
271
1
0
XRECORD
5
F7F
102
{ACAD_REACTORS
330
F7C
102
}
330
F7C
100
AcDbXrecord
280
1
270
1
271
1
0
XRECORD
5
1000
102
{ACAD_REACTORS
330
F8C
102
}
330
F8C
100
AcDbXrecord
280
1
102
MATERIAL
148
0.0
149
0.0
149
0.0
93
0
94
127
282
0
72
0
77
0
171
0
175
0
179
0
273
0
0
XRECORD
5
F8E
102
{ACAD_REACTORS
330
F8C
102
}
330
F8C
100
AcDbXrecord
280
1
270
1
271
1
0
XRECORD
5
F8D
102
{ACAD_REACTORS
330
F8C
102
}
330
F8C
100
AcDbXrecord
280
1
270
1
271
1
0
XRECORD
5
F91
102
{ACAD_REACTORS
330
F8C
102
}
330
F8C
100
AcDbXrecord
280
1
270
1
271
1
0
XRECORD
5
F90
102
{ACAD_REACTORS
330
F8C
102
}
330
F8C
100
AcDbXrecord
280
1
270
1
271
1
0
XRECORD
5
F92
102
{ACAD_REACTORS
330
F8C
102
}
330
F8C
100
AcDbXrecord
280
1
270
1
271
1
0
XRECORD
5
F8F
102
{ACAD_REACTORS
330
F8C
102
}
330
F8C
100
AcDbXrecord
280
1
270
1
271
1
0
CELLSTYLEMAP
5
1079
102
{ACAD_REACTORS
330
FF8
102
}
330
FF8
100
AcDbCellStyleMap
90
3
300
CELLSTYLE
1
TABLEFORMAT_BEGIN
90
5
170
1
91
0
92
32768
62
257
93
1
300
CONTENTFORMAT
1
CONTENTFORMAT_BEGIN
90
0
91
0
92
512
93
0
300

40
0.0
140
1.0
94
5
62
0
340
253
144
0.25
309
CONTENTFORMAT_END
171
1
301
MARGIN
1
CELLMARGIN_BEGIN
40
0.06
40
0.06
40
0.06
40
0.06
40
0.18
40
0.18
309
CELLMARGIN_END
94
6
95
1
302
GRIDFORMAT
1
GRIDFORMAT_BEGIN
90
0
91
1
62
0
92
-2
340
0
93
0
40
0.045
309
GRIDFORMAT_END
95
2
302
GRIDFORMAT
1
GRIDFORMAT_BEGIN
90
0
91
1
62
0
92
-2
340
0
93
0
40
0.045
309
GRIDFORMAT_END
95
4
302
GRIDFORMAT
1
GRIDFORMAT_BEGIN
90
0
91
1
62
0
92
-2
340
0
93
0
40
0.045
309
GRIDFORMAT_END
95
8
302
GRIDFORMAT
1
GRIDFORMAT_BEGIN
90
0
91
1
62
0
92
-2
340
0
93
0
40
0.045
309
GRIDFORMAT_END
95
16
302
GRIDFORMAT
1
GRIDFORMAT_BEGIN
90
0
91
1
62
0
92
-2
340
0
93
0
40
0.045
309
GRIDFORMAT_END
95
32
302
GRIDFORMAT
1
GRIDFORMAT_BEGIN
90
0
91
1
62
0
92
-2
340
0
93
0
40
0.045
309
GRIDFORMAT_END
309
TABLEFORMAT_END
1
CELLSTYLE_BEGIN
90
1
91
1
300
_TITLE
309
CELLSTYLE_END
300
CELLSTYLE
1
TABLEFORMAT_BEGIN
90
5
170
1
91
0
92
0
62
257
93
1
300
CONTENTFORMAT
1
CONTENTFORMAT_BEGIN
90
0
91
0
92
512
93
0
300

40
0.0
140
1.0
94
5
62
0
340
253
144
0.18
309
CONTENTFORMAT_END
171
1
301
MARGIN
1
CELLMARGIN_BEGIN
40
0.06
40
0.06
40
0.06
40
0.06
40
0.18
40
0.18
309
CELLMARGIN_END
94
6
95
1
302
GRIDFORMAT
1
GRIDFORMAT_BEGIN
90
0
91
1
62
0
92
-2
340
0
93
0
40
0.045
309
GRIDFORMAT_END
95
2
302
GRIDFORMAT
1
GRIDFORMAT_BEGIN
90
0
91
1
62
0
92
-2
340
0
93
0
40
0.045
309
GRIDFORMAT_END
95
4
302
GRIDFORMAT
1
GRIDFORMAT_BEGIN
90
0
91
1
62
0
92
-2
340
0
93
0
40
0.045
309
GRIDFORMAT_END
95
8
302
GRIDFORMAT
1
GRIDFORMAT_BEGIN
90
0
91
1
62
0
92
-2
340
0
93
0
40
0.045
309
GRIDFORMAT_END
95
16
302
GRIDFORMAT
1
GRIDFORMAT_BEGIN
90
0
91
1
62
0
92
-2
340
0
93
0
40
0.045
309
GRIDFORMAT_END
95
32
302
GRIDFORMAT
1
GRIDFORMAT_BEGIN
90
0
91
1
62
0
92
-2
340
0
93
0
40
0.045
309
GRIDFORMAT_END
309
TABLEFORMAT_END
1
CELLSTYLE_BEGIN
90
2
91
1
300
_HEADER
309
CELLSTYLE_END
300
CELLSTYLE
1
TABLEFORMAT_BEGIN
90
5
170
1
91
0
92
0
62
257
93
1
300
CONTENTFORMAT
1
CONTENTFORMAT_BEGIN
90
0
91
0
92
512
93
0
300

40
0.0
140
1.0
94
2
62
0
340
253
144
0.18
309
CONTENTFORMAT_END
171
1
301
MARGIN
1
CELLMARGIN_BEGIN
40
0.06
40
0.06
40
0.06
40
0.06
40
0.18
40
0.18
309
CELLMARGIN_END
94
6
95
1
302
GRIDFORMAT
1
GRIDFORMAT_BEGIN
90
0
91
1
62
0
92
-2
340
0
93
0
40
0.045
309
GRIDFORMAT_END
95
2
302
GRIDFORMAT
1
GRIDFORMAT_BEGIN
90
0
91
1
62
0
92
-2
340
0
93
0
40
0.045
309
GRIDFORMAT_END
95
4
302
GRIDFORMAT
1
GRIDFORMAT_BEGIN
90
0
91
1
62
0
92
-2
340
0
93
0
40
0.045
309
GRIDFORMAT_END
95
8
302
GRIDFORMAT
1
GRIDFORMAT_BEGIN
90
0
91
1
62
0
92
-2
340
0
93
0
40
0.045
309
GRIDFORMAT_END
95
16
302
GRIDFORMAT
1
GRIDFORMAT_BEGIN
90
0
91
1
62
0
92
-2
340
0
93
0
40
0.045
309
GRIDFORMAT_END
95
32
302
GRIDFORMAT
1
GRIDFORMAT_BEGIN
90
0
91
1
62
0
92
-2
340
0
93
0
40
0.045
309
GRIDFORMAT_END
309
TABLEFORMAT_END
1
CELLSTYLE_BEGIN
90
3
91
2
300
_DATA
309
CELLSTYLE_END
0
XRECORD
5
10A6
102
{ACAD_REACTORS
330
FF8
102
}
330
FF8
100
AcDbXrecord
280
1
102
ACAD_ROUNDTRIP_PRE2007_TABLESTYLE
90
512
91
0
1

92
512
93
0
2

94
512
95
0
3

0
XRECORD
5
108B
102
{ACAD_REACTORS
330
108A
102
}
330
108A
100
AcDbXrecord
280
1
102
RTVSPropertyOp0
70
1
102
RTVSPropertyOp1
70
1
102
RTVSPropertyOp2
70
1
102
RTVSPropertyOp3
70
1
102
RTVSPropertyOp4
70
1
102
RTVSPropertyOp5
70
1
102
RTVSPropertyOp6
70
1
102
RTVSPropertyOp7
70
1
102
RTVSPropertyOp8
70
1
102
RTVSPropertyOp9
70
1
102
RTVSPropertyOp10
70
1
102
RTVSPropertyOp11
70
1
102
RTVSPropertyOp12
70
1
102
RTVSPropertyOp13
70
1
102
RTVSPropertyOp14
70
1
102
RTVSPropertyOp15
70
1
102
RTVSPropertyOp16
70
1
102
RTVSPropertyOp17
70
1
102
RTVSPropertyOp18
70
1
102
RTVSPropertyOp19
70
1
102
RTVSPropertyOp20
70
1
102
RTVSPropertyOp21
70
1
102
RTVSPropertyOp22
70
1
102
RTVSPropertyOp23
70
1
102
RTVSPropertyOp24
70
1
102
RTVSPropertyOp25
70
1
102
RTVSPropertyOp26
70
1
102
RTVSPropertyOp27
70
1
0
XRECORD
5
108F
102
{ACAD_REACTORS
330
108E
102
}
330
108E
100
AcDbXrecord
280
1
102
RTVSPropertyOp0
70
1
102
RTVSPropertyOp1
70
1
102
RTVSPropertyOp2
70
1
102
RTVSPropertyOp3
70
1
102
RTVSPropertyOp4
70
1
102
RTVSPropertyOp5
70
1
102
RTVSPropertyOp6
70
1
102
RTVSPropertyOp7
70
1
102
RTVSPropertyOp8
70
1
102
RTVSPropertyOp9
70
1
102
RTVSPropertyOp10
70
1
102
RTVSPropertyOp11
70
1
102
RTVSPropertyOp12
70
1
102
RTVSPropertyOp13
70
1
102
RTVSPropertyOp14
70
1
102
RTVSPropertyOp15
70
1
102
RTVSPropertyOp16
70
1
102
RTVSPropertyOp17
70
1
102
RTVSPropertyOp18
70
1
102
RTVSPropertyOp19
70
1
102
RTVSPropertyOp20
70
1
102
RTVSPropertyOp21
70
1
102
RTVSPropertyOp22
70
1
102
RTVSPropertyOp23
70
1
102
RTVSPropertyOp24
70
1
102
RTVSPropertyOp25
70
1
102
RTVSPropertyOp26
70
1
102
RTVSPropertyOp27
70
1
0
XRECORD
5
108D
102
{ACAD_REACTORS
330
108C
102
}
330
108C
100
AcDbXrecord
280
1
102
RTVSPropertyOp0
70
1
102
RTVSPropertyOp1
70
1
102
RTVSPropertyOp2
70
1
102
RTVSPropertyOp3
70
1
102
RTVSPropertyOp4
70
1
102
RTVSPropertyOp5
70
1
102
RTVSPropertyOp6
70
1
102
RTVSPropertyOp7
70
1
102
RTVSPropertyOp8
70
1
102
RTVSPropertyOp9
70
1
102
RTVSPropertyOp10
70
1
102
RTVSPropertyOp11
70
1
102
RTVSPropertyOp12
70
1
102
RTVSPropertyOp13
70
1
102
RTVSPropertyOp14
70
1
102
RTVSPropertyOp15
70
1
102
RTVSPropertyOp16
70
1
102
RTVSPropertyOp17
70
1
102
RTVSPropertyOp18
70
1
102
RTVSPropertyOp19
70
1
102
RTVSPropertyOp20
70
1
102
RTVSPropertyOp21
70
1
102
RTVSPropertyOp22
70
1
102
RTVSPropertyOp23
70
1
102
RTVSPropertyOp24
70
1
102
RTVSPropertyOp25
70
1
102
RTVSPropertyOp26
70
1
102
RTVSPropertyOp27
70
1
0
XRECORD
5
1089
102
{ACAD_REACTORS
330
1088
102
}
330
1088
100
AcDbXrecord
280
1
102
RTVSPropertyOp0
70
1
102
RTVSPropertyOp1
70
1
102
RTVSPropertyOp2
70
1
102
RTVSPropertyOp3
70
1
102
RTVSPropertyOp4
70
1
102
RTVSPropertyOp5
70
1
102
RTVSPropertyOp6
70
1
102
RTVSPropertyOp7
70
1
102
RTVSPropertyOp8
70
1
102
RTVSPropertyOp9
70
1
102
RTVSPropertyOp10
70
1
102
RTVSPropertyOp11
70
1
102
RTVSPropertyOp12
70
1
102
RTVSPropertyOp13
70
1
102
RTVSPropertyOp14
70
1
102
RTVSPropertyOp15
70
1
102
RTVSPropertyOp16
70
1
102
RTVSPropertyOp17
70
1
102
RTVSPropertyOp18
70
1
102
RTVSPropertyOp19
70
1
102
RTVSPropertyOp20
70
1
102
RTVSPropertyOp21
70
1
102
RTVSPropertyOp22
70
1
102
RTVSPropertyOp23
70
1
102
RTVSPropertyOp24
70
1
102
RTVSPropertyOp25
70
1
102
RTVSPropertyOp26
70
1
102
RTVSPropertyOp27
70
1
0
XRECORD
5
1097
102
{ACAD_REACTORS
330
1096
102
}
330
1096
100
AcDbXrecord
280
1
102
RTVSPropertyOp0
70
1
102
RTVSPropertyOp1
70
1
102
RTVSPropertyOp2
70
1
102
RTVSPropertyOp3
70
1
102
RTVSPropertyOp4
70
1
102
RTVSPropertyOp5
70
1
102
RTVSPropertyOp6
70
1
102
RTVSPropertyOp7
70
1
102
RTVSPropertyOp8
70
1
102
RTVSPropertyOp9
70
1
102
RTVSPropertyOp10
70
1
102
RTVSPropertyOp11
70
1
102
RTVSPropertyOp12
70
1
102
RTVSPropertyOp13
70
1
102
RTVSPropertyOp14
70
1
102
RTVSPropertyOp15
70
1
102
RTVSPropertyOp16
70
1
102
RTVSPropertyOp17
70
1
102
RTVSPropertyOp18
70
1
102
RTVSPropertyOp19
70
1
102
RTVSPropertyOp20
70
1
102
RTVSPropertyOp21
70
1
102
RTVSPropertyOp22
70
1
102
RTVSPropertyOp23
70
1
102
RTVSPropertyOp24
70
1
102
RTVSPropertyOp25
70
1
102
RTVSPropertyOp26
70
1
102
RTVSPropertyOp27
70
1
0
XRECORD
5
109F
102
{ACAD_REACTORS
330
109E
102
}
330
109E
100
AcDbXrecord
280
1
102
RTVSPropertyOp0
70
1
102
RTVSPropertyOp1
70
1
102
RTVSPropertyOp2
70
1
102
RTVSPropertyOp3
70
1
102
RTVSPropertyOp4
70
1
102
RTVSPropertyOp5
70
1
102
RTVSPropertyOp6
70
1
102
RTVSPropertyOp7
70
1
102
RTVSPropertyOp8
70
1
102
RTVSPropertyOp9
70
1
102
RTVSPropertyOp10
70
1
102
RTVSPropertyOp11
70
1
102
RTVSPropertyOp12
70
1
102
RTVSPropertyOp13
70
1
102
RTVSPropertyOp14
70
1
102
RTVSPropertyOp15
70
1
102
RTVSPropertyOp16
70
1
102
RTVSPropertyOp17
70
1
102
RTVSPropertyOp18
70
1
102
RTVSPropertyOp19
70
1
102
RTVSPropertyOp20
70
1
102
RTVSPropertyOp21
70
1
102
RTVSPropertyOp22
70
1
102
RTVSPropertyOp23
70
1
102
RTVSPropertyOp24
70
1
102
RTVSPropertyOp25
70
1
102
RTVSPropertyOp26
70
1
102
RTVSPropertyOp27
70
1
0
XRECORD
5
1091
102
{ACAD_REACTORS
330
1090
102
}
330
1090
100
AcDbXrecord
280
1
102
RTVSPropertyOp0
70
1
102
RTVSPropertyOp1
70
1
102
RTVSPropertyOp2
70
1
102
RTVSPropertyOp3
70
1
102
RTVSPropertyOp4
70
1
102
RTVSPropertyOp5
70
1
102
RTVSPropertyOp6
70
1
102
RTVSPropertyOp7
70
1
102
RTVSPropertyOp8
70
1
102
RTVSPropertyOp9
70
1
102
RTVSPropertyOp10
70
1
102
RTVSPropertyOp11
70
1
102
RTVSPropertyOp12
70
1
102
RTVSPropertyOp13
70
1
102
RTVSPropertyOp14
70
1
102
RTVSPropertyOp15
70
1
102
RTVSPropertyOp16
70
1
102
RTVSPropertyOp17
70
1
102
RTVSPropertyOp18
70
1
102
RTVSPropertyOp19
70
1
102
RTVSPropertyOp20
70
1
102
RTVSPropertyOp21
70
1
102
RTVSPropertyOp22
70
1
102
RTVSPropertyOp23
70
1
102
RTVSPropertyOp24
70
1
102
RTVSPropertyOp25
70
1
102
RTVSPropertyOp26
70
1
102
RTVSPropertyOp27
70
1
0
XRECORD
5
1095
102
{ACAD_REACTORS
330
1094
102
}
330
1094
100
AcDbXrecord
280
1
102
RTVSPropertyOp0
70
1
102
RTVSPropertyOp1
70
1
102
RTVSPropertyOp2
70
1
102
RTVSPropertyOp3
70
1
102
RTVSPropertyOp4
70
1
102
RTVSPropertyOp5
70
1
102
RTVSPropertyOp6
70
1
102
RTVSPropertyOp7
70
1
102
RTVSPropertyOp8
70
1
102
RTVSPropertyOp9
70
1
102
RTVSPropertyOp10
70
1
102
RTVSPropertyOp11
70
1
102
RTVSPropertyOp12
70
1
102
RTVSPropertyOp13
70
1
102
RTVSPropertyOp14
70
1
102
RTVSPropertyOp15
70
1
102
RTVSPropertyOp16
70
1
102
RTVSPropertyOp17
70
1
102
RTVSPropertyOp18
70
1
102
RTVSPropertyOp19
70
1
102
RTVSPropertyOp20
70
1
102
RTVSPropertyOp21
70
1
102
RTVSPropertyOp22
70
1
102
RTVSPropertyOp23
70
1
102
RTVSPropertyOp24
70
1
102
RTVSPropertyOp25
70
1
102
RTVSPropertyOp26
70
1
102
RTVSPropertyOp27
70
1
0
XRECORD
5
10A5
102
{ACAD_REACTORS
330
10A4
102
}
330
10A4
100
AcDbXrecord
280
1
102
RTVSPropertyOp0
70
0
102
RTVSPropertyOp1
70
0
102
RTVSPropertyOp2
70
0
102
RTVSPropertyOp3
70
0
102
RTVSPropertyOp4
70
0
102
RTVSPropertyOp5
70
0
102
RTVSPropertyOp6
70
0
102
RTVSPropertyOp7
70
0
102
RTVSPropertyOp8
70
0
102
RTVSPropertyOp9
70
0
102
RTVSPropertyOp10
70
0
102
RTVSPropertyOp11
70
0
102
RTVSPropertyOp12
70
0
102
RTVSPropertyOp13
70
0
102
RTVSPropertyOp14
70
2
102
RTVSPropertyOp15
70
0
102
RTVSPropertyOp16
70
0
102
RTVSPropertyOp17
70
0
102
RTVSPropertyOp18
70
0
102
RTVSPropertyOp19
70
0
102
RTVSPropertyOp20
70
0
102
RTVSPropertyOp21
70
0
102
RTVSPropertyOp22
70
0
102
RTVSPropertyOp23
70
0
102
RTVSPropertyOp24
70
0
102
RTVSPropertyOp25
70
0
102
RTVSPropertyOp26
70
0
102
RTVSPropertyOp27
70
0
0
XRECORD
5
109D
102
{ACAD_REACTORS
330
109C
102
}
330
109C
100
AcDbXrecord
280
1
102
RTVSPropertyOp0
70
1
102
RTVSPropertyOp1
70
1
102
RTVSPropertyOp2
70
1
102
RTVSPropertyOp3
70
1
102
RTVSPropertyOp4
70
1
102
RTVSPropertyOp5
70
1
102
RTVSPropertyOp6
70
1
102
RTVSPropertyOp7
70
1
102
RTVSPropertyOp8
70
1
102
RTVSPropertyOp9
70
1
102
RTVSPropertyOp10
70
1
102
RTVSPropertyOp11
70
1
102
RTVSPropertyOp12
70
1
102
RTVSPropertyOp13
70
1
102
RTVSPropertyOp14
70
1
102
RTVSPropertyOp15
70
1
102
RTVSPropertyOp16
70
1
102
RTVSPropertyOp17
70
1
102
RTVSPropertyOp18
70
1
102
RTVSPropertyOp19
70
1
102
RTVSPropertyOp20
70
1
102
RTVSPropertyOp21
70
1
102
RTVSPropertyOp22
70
1
102
RTVSPropertyOp23
70
1
102
RTVSPropertyOp24
70
1
102
RTVSPropertyOp25
70
1
102
RTVSPropertyOp26
70
1
102
RTVSPropertyOp27
70
1
0
XRECORD
5
1081
102
{ACAD_REACTORS
330
1080
102
}
330
1080
100
AcDbXrecord
280
1
102
RTVSPropertyOp0
70
1
102
RTVSPropertyOp1
70
1
102
RTVSPropertyOp2
70
1
102
RTVSPropertyOp3
70
1
102
RTVSPropertyOp4
70
1
102
RTVSPropertyOp5
70
1
102
RTVSPropertyOp6
70
1
102
RTVSPropertyOp7
70
1
102
RTVSPropertyOp8
70
1
102
RTVSPropertyOp9
70
1
102
RTVSPropertyOp10
70
1
102
RTVSPropertyOp11
70
1
102
RTVSPropertyOp12
70
1
102
RTVSPropertyOp13
70
1
102
RTVSPropertyOp14
70
1
102
RTVSPropertyOp15
70
1
102
RTVSPropertyOp16
70
1
102
RTVSPropertyOp17
70
1
102
RTVSPropertyOp18
70
1
102
RTVSPropertyOp19
70
1
102
RTVSPropertyOp20
70
1
102
RTVSPropertyOp21
70
1
102
RTVSPropertyOp22
70
1
102
RTVSPropertyOp23
70
1
102
RTVSPropertyOp24
70
1
102
RTVSPropertyOp25
70
1
102
RTVSPropertyOp26
70
1
102
RTVSPropertyOp27
70
1
0
XRECORD
5
1083
102
{ACAD_REACTORS
330
1082
102
}
330
1082
100
AcDbXrecord
280
1
102
RTVSPropertyOp0
70
1
102
RTVSPropertyOp1
70
1
102
RTVSPropertyOp2
70
1
102
RTVSPropertyOp3
70
1
102
RTVSPropertyOp4
70
1
102
RTVSPropertyOp5
70
1
102
RTVSPropertyOp6
70
1
102
RTVSPropertyOp7
70
1
102
RTVSPropertyOp8
70
1
102
RTVSPropertyOp9
70
1
102
RTVSPropertyOp10
70
1
102
RTVSPropertyOp11
70
1
102
RTVSPropertyOp12
70
1
102
RTVSPropertyOp13
70
1
102
RTVSPropertyOp14
70
1
102
RTVSPropertyOp15
70
1
102
RTVSPropertyOp16
70
1
102
RTVSPropertyOp17
70
1
102
RTVSPropertyOp18
70
1
102
RTVSPropertyOp19
70
1
102
RTVSPropertyOp20
70
1
102
RTVSPropertyOp21
70
1
102
RTVSPropertyOp22
70
1
102
RTVSPropertyOp23
70
1
102
RTVSPropertyOp24
70
1
102
RTVSPropertyOp25
70
1
102
RTVSPropertyOp26
70
1
102
RTVSPropertyOp27
70
1
0
XRECORD
5
1085
102
{ACAD_REACTORS
330
1084
102
}
330
1084
100
AcDbXrecord
280
1
102
RTVSPropertyOp0
70
1
102
RTVSPropertyOp1
70
1
102
RTVSPropertyOp2
70
1
102
RTVSPropertyOp3
70
1
102
RTVSPropertyOp4
70
1
102
RTVSPropertyOp5
70
1
102
RTVSPropertyOp6
70
1
102
RTVSPropertyOp7
70
1
102
RTVSPropertyOp8
70
1
102
RTVSPropertyOp9
70
1
102
RTVSPropertyOp10
70
1
102
RTVSPropertyOp11
70
1
102
RTVSPropertyOp12
70
1
102
RTVSPropertyOp13
70
1
102
RTVSPropertyOp14
70
1
102
RTVSPropertyOp15
70
1
102
RTVSPropertyOp16
70
1
102
RTVSPropertyOp17
70
1
102
RTVSPropertyOp18
70
1
102
RTVSPropertyOp19
70
1
102
RTVSPropertyOp20
70
1
102
RTVSPropertyOp21
70
1
102
RTVSPropertyOp22
70
1
102
RTVSPropertyOp23
70
1
102
RTVSPropertyOp24
70
1
102
RTVSPropertyOp25
70
1
102
RTVSPropertyOp26
70
1
102
RTVSPropertyOp27
70
1
0
XRECORD
5
1087
102
{ACAD_REACTORS
330
1086
102
}
330
1086
100
AcDbXrecord
280
1
102
RTVSPropertyOp0
70
1
102
RTVSPropertyOp1
70
1
102
RTVSPropertyOp2
70
1
102
RTVSPropertyOp3
70
1
102
RTVSPropertyOp4
70
1
102
RTVSPropertyOp5
70
1
102
RTVSPropertyOp6
70
1
102
RTVSPropertyOp7
70
1
102
RTVSPropertyOp8
70
1
102
RTVSPropertyOp9
70
1
102
RTVSPropertyOp10
70
1
102
RTVSPropertyOp11
70
1
102
RTVSPropertyOp12
70
1
102
RTVSPropertyOp13
70
1
102
RTVSPropertyOp14
70
1
102
RTVSPropertyOp15
70
1
102
RTVSPropertyOp16
70
1
102
RTVSPropertyOp17
70
1
102
RTVSPropertyOp18
70
1
102
RTVSPropertyOp19
70
1
102
RTVSPropertyOp20
70
1
102
RTVSPropertyOp21
70
1
102
RTVSPropertyOp22
70
1
102
RTVSPropertyOp23
70
1
102
RTVSPropertyOp24
70
1
102
RTVSPropertyOp25
70
1
102
RTVSPropertyOp26
70
1
102
RTVSPropertyOp27
70
1
0
XRECORD
5
10A1
102
{ACAD_REACTORS
330
10A0
102
}
330
10A0
100
AcDbXrecord
280
1
102
RTVSPropertyOp0
70
0
102
RTVSPropertyOp1
70
0
102
RTVSPropertyOp2
70
0
102
RTVSPropertyOp3
70
0
102
RTVSPropertyOp4
70
0
102
RTVSPropertyOp5
70
0
102
RTVSPropertyOp6
70
0
102
RTVSPropertyOp7
70
0
102
RTVSPropertyOp8
70
0
102
RTVSPropertyOp9
70
0
102
RTVSPropertyOp10
70
0
102
RTVSPropertyOp11
70
0
102
RTVSPropertyOp12
70
0
102
RTVSPropertyOp13
70
0
102
RTVSPropertyOp14
70
2
102
RTVSPropertyOp15
70
0
102
RTVSPropertyOp16
70
0
102
RTVSPropertyOp17
70
0
102
RTVSPropertyOp18
70
0
102
RTVSPropertyOp19
70
0
102
RTVSPropertyOp20
70
0
102
RTVSPropertyOp21
70
0
102
RTVSPropertyOp22
70
0
102
RTVSPropertyOp23
70
0
102
RTVSPropertyOp24
70
0
102
RTVSPropertyOp25
70
0
102
RTVSPropertyOp26
70
0
102
RTVSPropertyOp27
70
0
0
XRECORD
5
109B
102
{ACAD_REACTORS
330
109A
102
}
330
109A
100
AcDbXrecord
280
1
102
RTVSPropertyOp0
70
1
102
RTVSPropertyOp1
70
1
102
RTVSPropertyOp2
70
1
102
RTVSPropertyOp3
70
1
102
RTVSPropertyOp4
70
1
102
RTVSPropertyOp5
70
1
102
RTVSPropertyOp6
70
1
102
RTVSPropertyOp7
70
1
102
RTVSPropertyOp8
70
1
102
RTVSPropertyOp9
70
1
102
RTVSPropertyOp10
70
1
102
RTVSPropertyOp11
70
1
102
RTVSPropertyOp12
70
1
102
RTVSPropertyOp13
70
1
102
RTVSPropertyOp14
70
1
102
RTVSPropertyOp15
70
1
102
RTVSPropertyOp16
70
1
102
RTVSPropertyOp17
70
1
102
RTVSPropertyOp18
70
1
102
RTVSPropertyOp19
70
1
102
RTVSPropertyOp20
70
1
102
RTVSPropertyOp21
70
1
102
RTVSPropertyOp22
70
1
102
RTVSPropertyOp23
70
1
102
RTVSPropertyOp24
70
1
102
RTVSPropertyOp25
70
1
102
RTVSPropertyOp26
70
1
102
RTVSPropertyOp27
70
1
0
XRECORD
5
10A3
102
{ACAD_REACTORS
330
10A2
102
}
330
10A2
100
AcDbXrecord
280
1
102
RTVSPropertyOp0
70
0
102
RTVSPropertyOp1
70
0
102
RTVSPropertyOp2
70
0
102
RTVSPropertyOp3
70
0
102
RTVSPropertyOp4
70
0
102
RTVSPropertyOp5
70
0
102
RTVSPropertyOp6
70
0
102
RTVSPropertyOp7
70
0
102
RTVSPropertyOp8
70
0
102
RTVSPropertyOp9
70
0
102
RTVSPropertyOp10
70
0
102
RTVSPropertyOp11
70
0
102
RTVSPropertyOp12
70
0
102
RTVSPropertyOp13
70
0
102
RTVSPropertyOp14
70
2
102
RTVSPropertyOp15
70
0
102
RTVSPropertyOp16
70
0
102
RTVSPropertyOp17
70
0
102
RTVSPropertyOp18
70
0
102
RTVSPropertyOp19
70
0
102
RTVSPropertyOp20
70
0
102
RTVSPropertyOp21
70
0
102
RTVSPropertyOp22
70
0
102
RTVSPropertyOp23
70
0
102
RTVSPropertyOp24
70
0
102
RTVSPropertyOp25
70
0
102
RTVSPropertyOp26
70
0
102
RTVSPropertyOp27
70
0
0
XRECORD
5
1093
102
{ACAD_REACTORS
330
1092
102
}
330
1092
100
AcDbXrecord
280
1
102
RTVSPropertyOp0
70
1
102
RTVSPropertyOp1
70
1
102
RTVSPropertyOp2
70
1
102
RTVSPropertyOp3
70
1
102
RTVSPropertyOp4
70
1
102
RTVSPropertyOp5
70
1
102
RTVSPropertyOp6
70
1
102
RTVSPropertyOp7
70
1
102
RTVSPropertyOp8
70
1
102
RTVSPropertyOp9
70
1
102
RTVSPropertyOp10
70
1
102
RTVSPropertyOp11
70
1
102
RTVSPropertyOp12
70
1
102
RTVSPropertyOp13
70
1
102
RTVSPropertyOp14
70
1
102
RTVSPropertyOp15
70
1
102
RTVSPropertyOp16
70
1
102
RTVSPropertyOp17
70
1
102
RTVSPropertyOp18
70
1
102
RTVSPropertyOp19
70
1
102
RTVSPropertyOp20
70
1
102
RTVSPropertyOp21
70
1
102
RTVSPropertyOp22
70
1
102
RTVSPropertyOp23
70
1
102
RTVSPropertyOp24
70
1
102
RTVSPropertyOp25
70
1
102
RTVSPropertyOp26
70
1
102
RTVSPropertyOp27
70
1
0
XRECORD
5
1099
102
{ACAD_REACTORS
330
1098
102
}
330
1098
100
AcDbXrecord
280
1
102
RTVSPropertyOp0
70
1
102
RTVSPropertyOp1
70
1
102
RTVSPropertyOp2
70
1
102
RTVSPropertyOp3
70
1
102
RTVSPropertyOp4
70
1
102
RTVSPropertyOp5
70
1
102
RTVSPropertyOp6
70
1
102
RTVSPropertyOp7
70
1
102
RTVSPropertyOp8
70
1
102
RTVSPropertyOp9
70
1
102
RTVSPropertyOp10
70
1
102
RTVSPropertyOp11
70
1
102
RTVSPropertyOp12
70
1
102
RTVSPropertyOp13
70
1
102
RTVSPropertyOp14
70
1
102
RTVSPropertyOp15
70
1
102
RTVSPropertyOp16
70
1
102
RTVSPropertyOp17
70
1
102
RTVSPropertyOp18
70
1
102
RTVSPropertyOp19
70
1
102
RTVSPropertyOp20
70
1
102
RTVSPropertyOp21
70
1
102
RTVSPropertyOp22
70
1
102
RTVSPropertyOp23
70
1
102
RTVSPropertyOp24
70
1
102
RTVSPropertyOp25
70
1
102
RTVSPropertyOp26
70
1
102
RTVSPropertyOp27
70
1
0
ENDSEC
0
EOF
