0
SECTION
2
HEADER
9
$ACADVER
1
AC1015
9
$ACADMAINTVER
70
20
9
$DWGCODEPAGE
3
ANSI_1252
9
$INSBASE
10
0.0
20
0.0
30
0.0
9
$EXTMIN
10
-150.000000000000
20
-105.000000000000
30
0.0
9
$EXTMAX
10
150.000000000000
20
105.000000000000
30
0.0
9
$LIMMIN
10
0.0
20
0.0
9
$LIMMAX
10
12.0
20
9.0
9
$ORTHOMODE
70
0
9
$REGENMODE
70
1
9
$FILLMODE
70
1
9
$QTEXTMODE
70
0
9
$MIRRTEXT
70
1
9
$LTSCALE
40
1.0
9
$ATTMODE
70
1
9
$TEXTSIZE
40
0.2
9
$TRACEWID
40
0.05
9
$TEXTSTYLE
7
Standard
9
$CLAYER
8
0
9
$CELTYPE
6
ByLayer
9
$CECOLOR
62
256
9
$CELTSCALE
40
1.0
9
$DISPSILH
70
0
9
$DIMSCALE
40
1.0
9
$DIMASZ
40
2.5
9
$DIMEXO
40
0.625
9
$DIMDLI
40
0.38
9
$DIMRND
40
0.0
9
$DIMDLE
40
0.0
9
$DIMEXE
40
1.25
9
$DIMTP
40
0.0
9
$DIMTM
40
0.000000001
9
$DIMTXT
40
2.5
9
$DIMCEN
40
0.09
9
$DIMTSZ
40
0.0
9
$DIMTOL
70
1
9
$DIMLIM
70
0
9
$DIMTIH
70
0
9
$DIMTOH
70
0
9
$DIMSE1
70
0
9
$DIMSE2
70
0
9
$DIMTAD
70
1
9
$DIMZIN
70
0
9
$DIMBLK
1
VDDIM_DEFAULT
9
$DIMASO
70
1
9
$DIMSHO
70
1
9
$DIMPOST
1

9
$DIMAPOST
1

9
$DIMALT
70
0
9
$DIMALTD
70
2
9
$DIMALTF
40
25.4
9
$DIMLFAC
40
1.00000000000000
9
$DIMTOFL
70
0
9
$DIMTVP
40
0.0
9
$DIMTIX
70
0
9
$DIMSOXD
70
0
9
$DIMSAH
70
0
9
$DIMBLK1
1

9
$DIMBLK2
1

9
$DIMSTYLE
2
BEM-ISBE
9
$DIMCLRD
70
0
9
$DIMCLRE
70
0
9
$DIMCLRT
70
0
9
$DIMTFAC
40
0.5
9
$DIMGAP
40
0.625
9
$DIMJUST
70
0
9
$DIMSD1
70
0
9
$DIMSD2
70
0
9
$DIMTOLJ
70
1
9
$DIMTZIN
70
0
9
$DIMALTZ
70
0
9
$DIMALTTZ
70
0
9
$DIMUPT
70
0
9
$DIMDEC
70
3
9
$DIMTDEC
70
3
9
$DIMALTU
70
2
9
$DIMALTTD
70
2
9
$DIMTXSTY
7
Standard
9
$DIMAUNIT
70
0
9
$DIMADEC
70
3
9
$DIMALTRND
40
0.0
9
$DIMAZIN
70
0
9
$DIMDSEP
70
46
9
$DIMATFIT
70
3
9
$DIMFRAC
70
0
9
$DIMLDRBLK
1

9
$DIMLUNIT
70
2
9
$DIMLWD
70
-2
9
$DIMLWE
70
-2
9
$DIMTMOVE
70
0
9
$LUNITS
70
2
9
$LUPREC
70
4
9
$SKETCHINC
40
0.1
9
$FILLETRAD
40
0.5
9
$AUNITS
70
0
9
$AUPREC
70
0
9
$MENU
1
.
9
$ELEVATION
40
0.0
9
$PELEVATION
40
0.0
9
$THICKNESS
40
0.0
9
$LIMCHECK
70
0
9
$CHAMFERA
40
0.5
9
$CHAMFERB
40
0.5
9
$CHAMFERC
40
1.0
9
$CHAMFERD
40
0.0
9
$SKPOLY
70
0
9
$TDCREATE
40
0.0
9
$TDUCREATE
40
0.0
9
$TDUPDATE
40
0.0
9
$TDUUPDATE
40
0.0
9
$TDINDWG
40
0.0
9
$TDUSRTIMER
40
0.0
9
$USRTIMER
70
1
9
$ANGBASE
50
0.0
9
$ANGDIR
70
0
9
$PDMODE
70
0
9
$PDSIZE
40
0.0
9
$PLINEWID
40
0.0
9
$SPLFRAME
70
0
9
$SPLINETYPE
70
6
9
$SPLINESEGS
70
8
9
$HANDSEED
5
10AB
9
$SURFTAB1
70
6
9
$SURFTAB2
70
6
9
$SURFTYPE
70
6
9
$SURFU
70
6
9
$SURFV
70
6
9
$UCSBASE
2

9
$UCSNAME
2

9
$UCSORG
10
0.0
20
0.0
30
0.0
9
$UCSXDIR
10
1.0
20
0.0
30
0.0
9
$UCSYDIR
10
0.0
20
1.0
30
0.0
9
$UCSORTHOREF
2

9
$UCSORTHOVIEW
70
0
9
$UCSORGTOP
10
0.0
20
0.0
30
0.0
9
$UCSORGBOTTOM
10
0.0
20
0.0
30
0.0
9
$UCSORGLEFT
10
0.0
20
0.0
30
0.0
9
$UCSORGRIGHT
10
0.0
20
0.0
30
0.0
9
$UCSORGFRONT
10
0.0
20
0.0
30
0.0
9
$UCSORGBACK
10
0.0
20
0.0
30
0.0
9
$PUCSBASE
2

9
$PUCSNAME
2

9
$PUCSORG
10
0.0
20
0.0
30
0.0
9
$PUCSXDIR
10
1.0
20
0.0
30
0.0
9
$PUCSYDIR
10
0.0
20
1.0
30
0.0
9
$PUCSORTHOREF
2

9
$PUCSORTHOVIEW
70
0
9
$PUCSORGTOP
10
0.0
20
0.0
30
0.0
9
$PUCSORGBOTTOM
10
0.0
20
0.0
30
0.0
9
$PUCSORGLEFT
10
0.0
20
0.0
30
0.0
9
$PUCSORGRIGHT
10
0.0
20
0.0
30
0.0
9
$PUCSORGFRONT
10
0.0
20
0.0
30
0.0
9
$PUCSORGBACK
10
0.0
20
0.0
30
0.0
9
$USERI1
70
0
9
$USERI2
70
0
9
$USERI3
70
0
9
$USERI4
70
0
9
$USERI5
70
0
9
$USERR1
40
0.0
9
$USERR2
40
0.0
9
$USERR3
40
0.0
9
$USERR4
40
0.0
9
$USERR5
40
0.0
9
$WORLDVIEW
70
1
9
$SHADEDGE
70
3
9
$SHADEDIF
70
70
9
$TILEMODE
70
1
9
$MAXACTVP
70
64
9
$PINSBASE
10
0.0
20
0.0
30
0.0
9
$PLIMCHECK
70
0
9
$PEXTMIN
10
1.000000000000000E+20
20
1.000000000000000E+20
30
1.000000000000000E+20
9
$PEXTMAX
10
-1.000000000000000E+20
20
-1.000000000000000E+20
30
-1.000000000000000E+20
9
$PLIMMIN
10
0.0
20
0.0
9
$PLIMMAX
10
12.0
20
9.0
9
$UNITMODE
70
0
9
$VISRETAIN
70
1
9
$PLINEGEN
70
0
9
$PSLTSCALE
70
1
9
$TREEDEPTH
70
3020
9
$CMLSTYLE
2
Standard
9
$CMLJUST
70
0
9
$CMLSCALE
40
1.0
9
$PROXYGRAPHICS
70
1
9
$MEASUREMENT
70
0
9
$CELWEIGHT
370
-1
9
$ENDCAPS
280
0
9
$JOINSTYLE
280
0
9
$LWDISPLAY
290
0
9
$INSUNITS
70
4
9
$HYPERLINKBASE
1

9
$STYLESHEET
1

9
$XEDIT
290
1
9
$CEPSNTYPE
380
0
9
$PSTYLEMODE
290
0
9
$FINGERPRINTGUID
2
{FAEB1C30-E019-11D5-929B-00C0DF256EC4}
9
$VERSIONGUID
2
{04C5C4E4-4947-4D90-8812-D401569E61F7}
9
$EXTNAMES
290
1
9
$PSVPSCALE
40
0.0
9
$OLESTARTUP
290
0
0
ENDSEC
0
SECTION
2
CLASSES
0
CLASS
1
ACDBDICTIONARYWDFLT
2
AcDbDictionaryWithDefault
3
ObjectDBX Classes
90
0
280
0
281
0
0
CLASS
1
ACDBPLACEHOLDER
2
AcDbPlaceHolder
3
ObjectDBX Classes
90
0
280
0
281
0
0
CLASS
1
LAYOUT
2
AcDbLayout
3
ObjectDBX Classes
90
0
280
0
281
0
0
CLASS
1
MATERIAL
2
AcDbMaterial
3
ObjectDBX Classes
90
1153
280
0
281
0
0
CLASS
1
VISUALSTYLE
2
AcDbVisualStyle
3
ObjectDBX Classes
90
4095
280
0
281
0
0
CLASS
1
TABLESTYLE
2
AcDbTableStyle
3
ObjectDBX Classes
90
4095
280
0
281
0
0
CLASS
1
SCALE
2
AcDbScale
3
ObjectDBX Classes
90
1153
280
0
281
0
0
CLASS
1
MLEADERSTYLE
2
AcDbMLeaderStyle
3
ACDB_MLEADERSTYLE_CLASS
90
4095
280
0
281
0
0
CLASS
1
DICTIONARYVAR
2
AcDbDictionaryVar
3
ObjectDBX Classes
90
0
280
0
281
0
0
CLASS
1
CELLSTYLEMAP
2
AcDbCellStyleMap
3
ObjectDBX Classes
90
1152
280
0
281
0
0
ENDSEC
0
SECTION
2
TABLES
0
TABLE
2
VPORT
5
24A
330
0
100
AcDbSymbolTable
70
1
0
VPORT
5
26B
330
24A
100
AcDbSymbolTableRecord
100
AcDbViewportTableRecord
2
*Active
70
0
10
0.0
20
0.0
11
1.0
21
1.0
12
0.000000000000000
22
0.000000000000000
13
0.0
23
0.0
14
10.0
24
10.0
15
10.0
25
10.0
16
0.0
26
0.0
36
1.0
17
0.0
27
0.0
37
0.0
40
210.000000000000
41
1.42857142857143
42
1.0
43
0.0
44
0.0
50
0.0
51
0.0000000000007958
71
0
72
100
73
1
74
3
75
0
76
0
77
0
78
1
281
0
65
1
110
0.0
120
0.0
130
0.0
111
1.0
121
0.0
131
0.0
112
0.0
122
1.0
132
0.0
79
0
146
0.0
0
ENDTAB
0
TABLE
2
LTYPE
5
247
330
0
100
AcDbSymbolTable
70
25
0
LTYPE
5
256
330
247
100
AcDbSymbolTableRecord
100
AcDbLinetypeTableRecord
2
ByBlock
70
0
3

72
65
73
0
40
0.0
0
LTYPE
5
257
330
247
100
AcDbSymbolTableRecord
100
AcDbLinetypeTableRecord
2
ByLayer
70
0
3

72
65
73
0
40
0.0
0
LTYPE
5
258
330
247
100
AcDbSymbolTableRecord
100
AcDbLinetypeTableRecord
2
Continuous
70
0
3
Solid line
72
65
73
0
40
0.0
0
LTYPE
5
273
330
247
100
AcDbSymbolTableRecord
100
AcDbLinetypeTableRecord
2
CENTER
70
0
3
Center ____ _ ____ _ ____ _ ____ _ ____ _ ____
72
65
73
4
40
2.0
49
1.25
74
0
49
-0.25
74
0
49
0.25
74
0
49
-0.25
74
0
0
LTYPE
5
274
330
247
100
AcDbSymbolTableRecord
100
AcDbLinetypeTableRecord
2
DASHDOT
70
0
3
Dashdot __ . __ . __ . __ . __ . __ . __ . __
72
65
73
4
40
1.0
49
0.5
74
0
49
-0.25
74
0
49
0.0
74
0
49
-0.25
74
0
0
LTYPE
5
275
330
247
100
AcDbSymbolTableRecord
100
AcDbLinetypeTableRecord
2
DASHED
70
0
3
Dashed __ __ __ __ __ __ __ __ __ __ __ __ __ _
72
65
73
2
40
0.75
49
0.5
74
0
49
-0.25
74
0
0
LTYPE
5
276
330
247
100
AcDbSymbolTableRecord
100
AcDbLinetypeTableRecord
2
HIDDEN
70
0
3
Hidden __ __ __ __ __ __ __ __ __ __ __ __ __ __
72
65
73
2
40
0.375
49
0.25
74
0
49
-0.125
74
0
0
LTYPE
5
277
330
247
100
AcDbSymbolTableRecord
100
AcDbLinetypeTableRecord
2
HIDDEN2
70
0
3
Hidden2 _ _ _ _ _ _ _ _ _ _ _ _ _ _ _ _ _
72
65
73
2
40
0.1875
49
0.125
74
0
49
-0.0625
74
0
0
LTYPE
5
278
330
247
100
AcDbSymbolTableRecord
100
AcDbLinetypeTableRecord
2
BORDER
70
0
3
Border __ __ . __ __ . __ __ . __ __ . __ __ .
72
65
73
6
40
1.75
49
0.5
74
0
49
-0.25
74
0
49
0.5
74
0
49
-0.25
74
0
49
0.0
74
0
49
-0.25
74
0
0
LTYPE
5
279
330
247
100
AcDbSymbolTableRecord
100
AcDbLinetypeTableRecord
2
BORDER2
70
0
3
Border2 __.__.__.__.__.__.__.__.__.__.__.
72
65
73
6
40
0.875
49
0.25
74
0
49
-0.125
74
0
49
0.25
74
0
49
-0.125
74
0
49
0.0
74
0
49
-0.125
74
0
0
LTYPE
5
27A
330
247
100
AcDbSymbolTableRecord
100
AcDbLinetypeTableRecord
2
BORDERX2
70
0
3
Borderx2  ____  ____  .  ____  ____  .  ___
72
65
73
6
40
3.5
49
1.0
74
0
49
-0.5
74
0
49
1.0
74
0
49
-0.5
74
0
49
0.0
74
0
49
-0.5
74
0
0
LTYPE
5
27B
330
247
100
AcDbSymbolTableRecord
100
AcDbLinetypeTableRecord
2
CENTER2
70
0
3
Center2  ___ _ ___ _ ___ _ ___ _ ___ _ ___
72
65
73
4
40
1.125
49
0.75
74
0
49
-0.125
74
0
49
0.125
74
0
49
-0.125
74
0
0
LTYPE
5
27C
330
247
100
AcDbSymbolTableRecord
100
AcDbLinetypeTableRecord
2
CENTERX2
70
0
3
Centerx2  ________  __  ________  __  _____
72
65
73
4
40
4.0
49
2.5
74
0
49
-0.5
74
0
49
0.5
74
0
49
-0.5
74
0
0
LTYPE
5
27D
330
247
100
AcDbSymbolTableRecord
100
AcDbLinetypeTableRecord
2
DASHDOT2
70
0
3
Dashdot2  _._._._._._._._._._._._._._._.
72
65
73
4
40
0.5
49
0.25
74
0
49
-0.125
74
0
49
0.0
74
0
49
-0.125
74
0
0
LTYPE
5
27E
330
247
100
AcDbSymbolTableRecord
100
AcDbLinetypeTableRecord
2
DASHDOTX2
70
0
3
Dashdotx2 ____  .  ____  .  ____  .  ___
72
65
73
4
40
2.0
49
1.0
74
0
49
-0.5
74
0
49
0.0
74
0
49
-0.5
74
0
0
LTYPE
5
27F
330
247
100
AcDbSymbolTableRecord
100
AcDbLinetypeTableRecord
2
DASHED2
70
0
3
Dashed2 _ _ _ _ _ _ _ _ _ _ _ _ _ _ _ _ _
72
65
73
2
40
0.375
49
0.25
74
0
49
-0.125
74
0
0
LTYPE
5
280
330
247
100
AcDbSymbolTableRecord
100
AcDbLinetypeTableRecord
2
DASHEDX2
70
0
3
Dashedx2 ____  ____  ____  ____  ____  ___
72
65
73
2
40
1.5
49
1.0
74
0
49
-0.5
74
0
0
LTYPE
5
281
330
247
100
AcDbSymbolTableRecord
100
AcDbLinetypeTableRecord
2
DIVIDE
70
0
3
Divide ____ . . ____ . . ____ . . ____ . . ____
72
65
73
6
40
1.25
49
0.5
74
0
49
-0.25
74
0
49
0.0
74
0
49
-0.25
74
0
49
0.0
74
0
49
-0.25
74
0
0
LTYPE
5
282
330
247
100
AcDbSymbolTableRecord
100
AcDbLinetypeTableRecord
2
DIVIDE2
70
0
3
Divide2 __..__..__..__..__..__..__..__.._
72
65
73
6
40
0.625
49
0.25
74
0
49
-0.125
74
0
49
0.0
74
0
49
-0.125
74
0
49
0.0
74
0
49
-0.125
74
0
0
LTYPE
5
283
330
247
100
AcDbSymbolTableRecord
100
AcDbLinetypeTableRecord
2
DIVIDEX2
70
0
3
Dividex2 ________  .  .  ________  .  .  _
72
65
73
6
40
2.5
49
1.0
74
0
49
-0.5
74
0
49
0.0
74
0
49
-0.5
74
0
49
0.0
74
0
49
-0.5
74
0
0
LTYPE
5
284
330
247
100
AcDbSymbolTableRecord
100
AcDbLinetypeTableRecord
2
DOT
70
0
3
Dot . . . . . . . . . . . . . . . . . . . . . . . .
72
65
73
2
40
0.25
49
0.0
74
0
49
-0.25
74
0
0
LTYPE
5
285
330
247
100
AcDbSymbolTableRecord
100
AcDbLinetypeTableRecord
2
DOT2
70
0
3
Dot2 ........................................
72
65
73
2
40
0.125
49
0.0
74
0
49
-0.125
74
0
0
LTYPE
5
286
330
247
100
AcDbSymbolTableRecord
100
AcDbLinetypeTableRecord
2
DOTX2
70
0
3
Dotx2 .  .  .  .  .  .  .  .  .  .  .  .  .  .
72
65
73
2
40
0.5
49
0.0
74
0
49
-0.5
74
0
0
LTYPE
5
287
330
247
100
AcDbSymbolTableRecord
100
AcDbLinetypeTableRecord
2
HIDDENX2
70
0
3
Hiddenx2 ____ ____ ____ ____ ____ ____ ____
72
65
73
2
40
0.75
49
0.5
74
0
49
-0.25
74
0
0
LTYPE
5
288
330
247
100
AcDbSymbolTableRecord
100
AcDbLinetypeTableRecord
2
PHANTOM
70
0
3
Phantom ______  __  __  ______  __  __  ______
72
65
73
6
40
2.5
49
1.25
74
0
49
-0.25
74
0
49
0.25
74
0
49
-0.25
74
0
49
0.25
74
0
49
-0.25
74
0
0
LTYPE
5
289
330
247
100
AcDbSymbolTableRecord
100
AcDbLinetypeTableRecord
2
PHANTOM2
70
0
3
Phantom2 ___ _ _ ___ _ _ ___ _ _ ___ _ _
72
65
73
6
40
1.25
49
0.625
74
0
49
-0.125
74
0
49
0.125
74
0
49
-0.125
74
0
49
0.125
74
0
49
-0.125
74
0
0
LTYPE
5
28A
330
247
100
AcDbSymbolTableRecord
100
AcDbLinetypeTableRecord
2
PHANTOMX2
70
0
3
Phantomx2 ____________    ____    ____   _
72
65
73
6
40
5.0
49
2.5
74
0
49
-0.5
74
0
49
0.5
74
0
49
-0.5
74
0
49
0.5
74
0
49
-0.5
74
0
0
ENDTAB
0
TABLE
2
LAYER
5
244
330
0
100
AcDbSymbolTable
70
6
0
LAYER
5
252
330
244
100
AcDbSymbolTableRecord
100
AcDbLayerTableRecord
2
0
70
0
62
7
6
Continuous
370
0
390
251
0
LAYER
5
23F
330
244
100
AcDbSymbolTableRecord
100
AcDbLayerTableRecord
2
Bemassung
70
0
 62
   7
6
Continuous
370
0
390
251
0
LAYER
5
240
330
244
100
AcDbSymbolTableRecord
100
AcDbLayerTableRecord
2
Rahmen
70
0
 62
   7
6
Continuous
370
0
390
251
0
LAYER
5
241
330
244
100
AcDbSymbolTableRecord
100
AcDbLayerTableRecord
2
Geo
70
0
 62
   7
6
Continuous
370
0
390
251
0
LAYER
5
33A
330
244
100
AcDbSymbolTableRecord
100
AcDbLayerTableRecord
2
Defpoints
70
0
62
7
6
Continuous
290
0
370
-3
390
251
0
LAYER
5
57E
330
244
100
AcDbSymbolTableRecord
100
AcDbLayerTableRecord
2
Text
70
0
 62
   7
6
Continuous
370
0
390
251
1001
AcAecLayerStandard
1000

1000

0
ENDTAB
0
TABLE
2
STYLE
5
245
330
0
100
AcDbSymbolTable
70
2
0
STYLE
5
253
330
245
100
AcDbSymbolTableRecord
100
AcDbTextStyleTableRecord
2
Standard
70
0
40
0.0
41
1.0
50
0.0
71
0
42
0.2
3
Arial
4

1001
ACAD
1000
Arial
1071
0
0
STYLE
5
132
330
245
100
AcDbSymbolTableRecord
100
AcDbTextStyleTableRecord
2
Beschriftung
70
0
40
0.0
41
1.0
50
0.0
71
0
42
0.2
3
Arial
4

1001
ACAD
1000
Arial
1071
0
1001
AcadAnnotative
1000
AnnotativeData
1070
1
1070
1
0
ENDTAB
0
TABLE
2
VIEW
5
248
330
0
100
AcDbSymbolTable
70
0
0
ENDTAB
0
TABLE
2
UCS
5
249
330
0
100
AcDbSymbolTable
70
0
0
ENDTAB
0
TABLE
2
APPID
5
24B
330
0
100
AcDbSymbolTable
70
13
0
APPID
5
254
330
24B
100
AcDbSymbolTableRecord
100
AcDbRegAppTableRecord
2
ACAD
70
0
0
APPID
5
26C
330
24B
100
AcDbSymbolTableRecord
100
AcDbRegAppTableRecord
2
VD_INVISIBLE_NOT_FOR_READ
70
0
0
APPID
5
26D
330
24B
100
AcDbSymbolTableRecord
100
AcDbRegAppTableRecord
2
VD_TEMPHATCH
70
0
0
APPID
5
26E
330
24B
100
AcDbSymbolTableRecord
100
AcDbRegAppTableRecord
2
VDEXTRAPARAM
70
0
0
APPID
5
26F
330
24B
100
AcDbSymbolTableRecord
100
AcDbRegAppTableRecord
2
PE_URL
70
0
0
APPID
5
270
330
24B
100
AcDbSymbolTableRecord
100
AcDbRegAppTableRecord
2
VD_UNKNOWN
70
0
0
APPID
5
28F
330
24B
100
AcDbSymbolTableRecord
100
AcDbRegAppTableRecord
2
AcadAnnotative
70
0
0
APPID
5
290
330
24B
100
AcDbSymbolTableRecord
100
AcDbRegAppTableRecord
2
ACAD_DSTYLE_DIMJAG
70
0
0
APPID
5
291
330
24B
100
AcDbSymbolTableRecord
100
AcDbRegAppTableRecord
2
ACAD_DSTYLE_DIMTALN
70
0
0
APPID
5
293
330
24B
100
AcDbSymbolTableRecord
100
AcDbRegAppTableRecord
2
ACAD_PSEXT
70
0
0
APPID
5
42A
330
24B
100
AcDbSymbolTableRecord
100
AcDbRegAppTableRecord
2
ACAD_MLEADERVER
70
0
0
APPID
5
532
330
24B
100
AcDbSymbolTableRecord
100
AcDbRegAppTableRecord
2
ACAD_EXEMPT_FROM_CAD_STANDARDS
70
0
0
APPID
5
57F
330
24B
100
AcDbSymbolTableRecord
100
AcDbRegAppTableRecord
2
AcAecLayerStandard
70
0
0
ENDTAB
0
TABLE
2
DIMSTYLE
5
24C
330
0
100
AcDbSymbolTable
70
3
100
AcDbDimStyleTable
71
2
340
27
340
269
0
DIMSTYLE
105
269
330
24C
100
AcDbSymbolTableRecord
100
AcDbDimStyleTableRecord
2
Standard
70
0
172
1
174
1
288
1
340
253
342
23C
0
DIMSTYLE
105
137
330
24C
100
AcDbSymbolTableRecord
100
AcDbDimStyleTableRecord
2
Beschriftung
70
0
41
2.5
42
0.625
44
1.25
73
0
74
0
77
1
140
2.5
147
0.625
172
1
174
1
271
2
288
1
340
253
342
23C
1001
AcadAnnotative
1000
AnnotativeData
1070
1
1070
1
1001
ACAD_DSTYLE_DIMJAG
1070
388
1040
1.5
1001
ACAD_DSTYLE_DIMTALN
1070
392
1070
0
0
DIMSTYLE
105
27
102
{ACAD_REACTORS
330
F10003
330
F10017
330
F1001C
330
F10021
330
F10008
330
F1000D
330
F10012
102
}
330
24C
100
AcDbSymbolTableRecord
100
AcDbDimStyleTableRecord
2
BEM-ISBE
70
0
41
2.5
42
0.625
44
1.25
48
0.000000001
71
1
73
0
74
0
77
1
140
2.5
144
1.00000000000000
146
0.5
147
0.625
171
 3
172
 1
179
 3
271
 3
272
 3
274
 3
340
253
342
23C
1001
ACAD_DSTYLE_DIMJAG
1070
388
1040
1.5
1001
ACAD_DSTYLE_DIMTALN
1070
392
1070
1
0
ENDTAB
0
TABLE
2
BLOCK_RECORD
5
243
330
0
100
AcDbSymbolTable
70
5
0
BLOCK_RECORD
5
261
330
243
100
AcDbSymbolTableRecord
100
AcDbBlockTableRecord
2
*Model_Space
340
FD0
0
BLOCK_RECORD
5
25D
330
243
100
AcDbSymbolTableRecord
100
AcDbBlockTableRecord
2
*Paper_Space
340
FD1
0
BLOCK_RECORD
5
265
330
243
100
AcDbSymbolTableRecord
100
AcDbBlockTableRecord
2
*Paper_Space0
340
0
0
BLOCK_RECORD
5
23C
330
243
100
AcDbSymbolTableRecord
100
AcDbBlockTableRecord
2
VDDIM_DEFAULT
340
0
102
{BLKREFS
102
}
0
BLOCK_RECORD
5
23E
330
243
100
AcDbSymbolTableRecord
100
AcDbBlockTableRecord
2
VDDIM_NONE
340
0
0
BLOCK_RECORD
5
F10002
330
243
100
AcDbSymbolTableRecord
100
AcDbBlockTableRecord
2
*D3
340
0
0
BLOCK_RECORD
5
F10016
330
243
100
AcDbSymbolTableRecord
100
AcDbBlockTableRecord
2
*D7
340
0
0
BLOCK_RECORD
5
F1001B
330
243
100
AcDbSymbolTableRecord
100
AcDbBlockTableRecord
2
*D8
340
0
0
BLOCK_RECORD
5
F10020
330
243
100
AcDbSymbolTableRecord
100
AcDbBlockTableRecord
2
*D9
340
0
0
BLOCK_RECORD
5
F10007
330
243
100
AcDbSymbolTableRecord
100
AcDbBlockTableRecord
2
*D4
340
0
0
BLOCK_RECORD
5
F1000C
330
243
100
AcDbSymbolTableRecord
100
AcDbBlockTableRecord
2
*D5
340
0
0
BLOCK_RECORD
5
F10011
330
243
100
AcDbSymbolTableRecord
100
AcDbBlockTableRecord
2
*D6
340
0
0
ENDTAB
0
ENDSEC
0
SECTION
2
BLOCKS
0
BLOCK
5
262
330
261
100
AcDbEntity
8
0
100
AcDbBlockBegin
2
*Model_Space
70
0
10
0.0
20
0.0
30
0.0
3
*Model_Space
1

0
ENDBLK
5
263
330
261
100
AcDbEntity
8
0
100
AcDbBlockEnd
0
BLOCK
5
25E
330
25D
100
AcDbEntity
67
1
8
0
100
AcDbBlockBegin
2
*Paper_Space
70
0
10
0.0
20
0.0
30
0.0
3
*Paper_Space
1

0
ENDBLK
5
25F
330
25D
100
AcDbEntity
67
1
8
0
100
AcDbBlockEnd
0
BLOCK
5
266
330
265
100
AcDbEntity
8
0
100
AcDbBlockBegin
2
*Paper_Space0
70
0
10
0.0
20
0.0
30
0.0
3
*Paper_Space0
1

0
VIEWPORT
5
296
102
{ACAD_XDICTIONARY
360
58E
102
}
330
265
100
AcDbEntity
8
0
60
1
100
AcDbViewport
10
0.0
20
0.0
30
0.0
40
10.0
41
10.0
69
0
12
0.0
22
0.0
13
0.0
23
0.0
14
1.0
24
1.0
15
0.0
25
0.0
16
0.0
26
0.0
36
1.0
17
0.0
27
0.0
37
0.0
42
0.0
43
0.0
44
0.0
45
10.0
50
0.0
51
0.0000000000007958
72
100
90
163872
1

281
0
71
0
74
0
110
0.0
120
0.0
130
0.0
111
1.0
121
0.0
131
0.0
112
0.0
122
1.0
132
0.0
79
0
146
0.0
1001
VD_INVISIBLE_NOT_FOR_READ
1000
VD_INVISIBLE_NOT_FOR_READ
0
VIEWPORT
5
297
102
{ACAD_XDICTIONARY
360
590
102
}
330
265
100
AcDbEntity
8
0
60
1
100
AcDbViewport
10
0.0
20
0.0
30
0.0
40
10.0
41
10.0
69
0
12
0.0
22
0.0
13
0.0
23
0.0
14
1.0
24
1.0
15
0.0
25
0.0
16
0.0
26
0.0
36
1.0
17
0.0
27
0.0
37
0.0
42
0.0
43
0.0
44
0.0
45
10.0
50
0.0
51
0.0000000000007958
72
100
90
163872
1

281
0
71
0
74
0
110
0.0
120
0.0
130
0.0
111
1.0
121
0.0
131
0.0
112
0.0
122
1.0
132
0.0
79
0
146
0.0
1001
VD_INVISIBLE_NOT_FOR_READ
1000
VD_INVISIBLE_NOT_FOR_READ
0
ENDBLK
5
267
330
265
100
AcDbEntity
8
0
100
AcDbBlockEnd
0
BLOCK
5
28B
330
23C
100
AcDbEntity
8
0
100
AcDbBlockBegin
2
VDDIM_DEFAULT
70
0
10
0.0
20
0.0
30
0.0
3
VDDIM_DEFAULT
1

0
LWPOLYLINE
5
23D
330
23C
100
AcDbEntity
8
0
6
Continuous
62
0
100
AcDbPolyline
90
4
70
0
43
0.0
10
0.0
20
0.0
10
-1.0
20
-0.1665
10
-1.0
20
0.1665
10
0.0
20
0.0
1001
VDEXTRAPARAM
1071
1
1071
0
1071
0
1040
1.0
1000

1000

1040
0.0
1040
0.0
0
HATCH
5
292
330
23C
100
AcDbEntity
8
0
6
Continuous
62
0
100
AcDbHatch
10
0.0
20
0.0
30
0.0
210
0.0
220
0.0
230
1.0
2
SOLID
70
1
71
0
91
1
92
2
72
0
73
1
93
3
10
0.0
20
0.0
10
-1.0
20
-0.1665
10
-1.0
20
0.1665
97
0
75
0
76
1
98
1
10
0.0
20
0.0
1001
VDEXTRAPARAM
1071
1
1071
0
1071
0
1040
1.0
1000

1000

1040
0.0
1040
0.0
1001
VD_TEMPHATCH
1000
VD_TEMPHATCH
0
ENDBLK
5
28C
330
23C
100
AcDbEntity
8
0
100
AcDbBlockEnd
0
BLOCK
5
28D
330
23E
100
AcDbEntity
8
0
100
AcDbBlockBegin
2
VDDIM_NONE
70
0
10
0.0
20
0.0
30
0.0
3
VDDIM_NONE
1

0
ENDBLK
5
28E
330
23E
100
AcDbEntity
8
0
100
AcDbBlockEnd
  0
BLOCK
  5
F10025
330
F10002
100
AcDbEntity
  8
0
100
AcDbBlockBegin
  2
*D3
 70
     1
 10
0.0
 20
0.0
 30
0.0
  3
*D3
  1

  0
LINE
  5
F10026
330
F10002
100
AcDbEntity
  8
Bemassung
 62
     0
370
    -2
100
AcDbLine
10
-51.3319459325806
20
-6.91708563422071
30
0.000000000000000
11
-51.3319459325806
21
28.0829143657793
31
0.000000000000000
  0
LINE
  5
F10027
330
F10002
100
AcDbEntity
  8
Bemassung
 62
     0
370
    -2
100
AcDbLine
10
-50.9319459325806
20
14.0829143657793
30
0.000000000000000
11
-50.9319459325806
21
18.0829143657793
31
0.000000000000000
  0
LINE
  5
F10028
330
F10002
100
AcDbEntity
  8
Bemassung
 62
     0
370
    -2
100
AcDbLine
10
-68.4457075370746
20
16.0829143657793
30
0.000000000000000
11
-50.9319459325806
21
16.0829143657793
31
0.000000000000000
  0
INSERT
  5
F10029
330
F10002
100
AcDbEntity
  8
Bemassung
 62
     0
370
    -2
100
AcDbBlockReference
  2
VDDIM_DEFAULT
10
-51.3319459325806
20
16.0829143657793
30
0.000000000000000
 41
2.50000000000000
 42
2.50000000000000
 43
2.50000000000000
  0
INSERT
  5
F1002A
330
F10002
100
AcDbEntity
  8
Bemassung
 62
     0
370
    -2
100
AcDbBlockReference
  2
VDDIM_DEFAULT
10
-50.9319459325806
20
16.0829143657793
30
0.000000000000000
 41
2.50000000000000
 42
2.50000000000000
 43
2.50000000000000
 50
180.000000000000
  0
MTEXT
  5
F1002B
330
F10002
100
AcDbEntity
  8
Bemassung
 62
     0
100
AcDbMText
10
-54.7630429407401
20
16.7495810324460
30
0.000000000000000
 40
2.50000000000000
 41
0.0
 71
     8
 72
     1
  1
0.4 x 45°
 11
1.00000000000000
 21
0.000000000000000
 31
0.0
 73
     1
 44
1.0
1001
ACAD
1000
MTEXTBEGIN
1070
73
1070
1
1070
44
1040
1.0
1070
74
1070
0
1000
MTEXTEND
  0
POINT
  5
F1002C
330
F10002
100
AcDbEntity
  8
Bemassung
 62
     0
100
AcDbPoint
10
-51.3319459325806
20
-6.91708563422071
30
0.000000000000000
  0
POINT
  5
F1002D
330
F10002
100
AcDbEntity
  8
Bemassung
 62
     0
100
AcDbPoint
10
-50.9319459325806
20
14.0829143657793
30
0.000000000000000
  0
ENDBLK
  5
F1002E
330
F10002
100
AcDbEntity
  8
0
100
AcDbBlockEnd
  0
BLOCK
  5
F1002F
330
F10016
100
AcDbEntity
  8
0
100
AcDbBlockBegin
  2
*D7
 70
     1
 10
0.0
 20
0.0
 30
0.0
  3
*D7
  1

  0
LINE
  5
F10030
330
F10016
100
AcDbEntity
  8
Bemassung
 62
     0
370
    -2
100
AcDbLine
10
-27.3319459325806
20
2.48291436577929
30
0.000000000000000
11
-27.3319459325806
21
-6.91708563422071
31
0.000000000000000
  0
LINE
  5
F10031
330
F10016
100
AcDbEntity
  8
Bemassung
 62
     0
370
    -2
100
AcDbLine
10
-51.3319459325806
20
-6.91708563422071
30
0.000000000000000
11
-51.3319459325806
21
28.0829143657793
31
0.000000000000000
  0
LINE
  5
F10032
330
F10016
100
AcDbEntity
  8
Bemassung
 62
     0
370
    -2
100
AcDbLine
10
-27.3319459325806
20
-4.91708563422071
30
0.000000000000000
11
-51.3319459325806
21
-4.91708563422071
31
0.000000000000000
  0
INSERT
  5
F10033
330
F10016
100
AcDbEntity
  8
Bemassung
 62
     0
370
    -2
100
AcDbBlockReference
  2
VDDIM_DEFAULT
10
-27.3319459325806
20
-4.91708563422071
30
0.000000000000000
 41
2.50000000000000
 42
2.50000000000000
 43
2.50000000000000
  0
INSERT
  5
F10034
330
F10016
100
AcDbEntity
  8
Bemassung
 62
     0
370
    -2
100
AcDbBlockReference
  2
VDDIM_DEFAULT
10
-51.3319459325806
20
-4.91708563422071
30
0.000000000000000
 41
2.50000000000000
 42
2.50000000000000
 43
2.50000000000000
 50
180.000000000000
  0
MTEXT
  5
F10035
330
F10016
100
AcDbEntity
  8
Bemassung
 62
     0
100
AcDbMText
10
-39.3319459325806
20
-4.25041896755404
30
0.000000000000000
 40
2.50000000000000
 41
0.0
 71
     8
 72
     1
  1
24
 11
1.00000000000000
 21
0.000000000000000
 31
0.0
 73
     1
 44
1.0
1001
ACAD
1000
MTEXTBEGIN
1070
73
1070
1
1070
44
1040
1.0
1070
74
1070
0
1000
MTEXTEND
  0
POINT
  5
F10036
330
F10016
100
AcDbEntity
  8
Bemassung
 62
     0
100
AcDbPoint
10
-27.3319459325806
20
2.48291436577929
30
0.000000000000000
  0
POINT
  5
F10037
330
F10016
100
AcDbEntity
  8
Bemassung
 62
     0
100
AcDbPoint
10
-51.3319459325806
20
-6.91708563422071
30
0.000000000000000
  0
ENDBLK
  5
F10038
330
F10016
100
AcDbEntity
  8
0
100
AcDbBlockEnd
  0
BLOCK
  5
F10039
330
F1001B
100
AcDbEntity
  8
0
100
AcDbBlockBegin
  2
*D8
 70
     1
 10
0.0
 20
0.0
 30
0.0
  3
*D8
  1

  0
LINE
  5
F1003A
330
F1001B
100
AcDbEntity
  8
Bemassung
 62
     0
370
    -2
100
AcDbLine
10
53.6680540674194
20
13.0829143657793
30
0.000000000000000
11
53.6680540674194
21
28.0829143657793
31
0.000000000000000
  0
LINE
  5
F1003B
330
F1001B
100
AcDbEntity
  8
Bemassung
 62
     0
370
    -2
100
AcDbLine
10
-51.3319459325806
20
-6.91708563422071
30
0.000000000000000
11
-51.3319459325806
21
28.0829143657793
31
0.000000000000000
  0
LINE
  5
F1003C
330
F1001B
100
AcDbEntity
  8
Bemassung
 62
     0
370
    -2
100
AcDbLine
10
53.6680540674194
20
26.0829143657793
30
0.000000000000000
11
-51.3319459325806
21
26.0829143657793
31
0.000000000000000
  0
INSERT
  5
F1003D
330
F1001B
100
AcDbEntity
  8
Bemassung
 62
     0
370
    -2
100
AcDbBlockReference
  2
VDDIM_DEFAULT
10
53.6680540674194
20
26.0829143657793
30
0.000000000000000
 41
2.50000000000000
 42
2.50000000000000
 43
2.50000000000000
  0
INSERT
  5
F1003E
330
F1001B
100
AcDbEntity
  8
Bemassung
 62
     0
370
    -2
100
AcDbBlockReference
  2
VDDIM_DEFAULT
10
-51.3319459325806
20
26.0829143657793
30
0.000000000000000
 41
2.50000000000000
 42
2.50000000000000
 43
2.50000000000000
 50
180.000000000000
  0
MTEXT
  5
F1003F
330
F1001B
100
AcDbEntity
  8
Bemassung
 62
     0
100
AcDbMText
10
1.16805406741945
20
26.7495810324460
30
0.000000000000000
 40
2.50000000000000
 41
0.0
 71
     8
 72
     1
  1
105
 11
1.00000000000000
 21
0.000000000000000
 31
0.0
 73
     1
 44
1.0
1001
ACAD
1000
MTEXTBEGIN
1070
73
1070
1
1070
44
1040
1.0
1070
74
1070
0
1000
MTEXTEND
  0
POINT
  5
F10040
330
F1001B
100
AcDbEntity
  8
Bemassung
 62
     0
100
AcDbPoint
10
53.6680540674194
20
13.0829143657793
30
0.000000000000000
  0
POINT
  5
F10041
330
F1001B
100
AcDbEntity
  8
Bemassung
 62
     0
100
AcDbPoint
10
-51.3319459325806
20
-6.91708563422071
30
0.000000000000000
  0
ENDBLK
  5
F10042
330
F1001B
100
AcDbEntity
  8
0
100
AcDbBlockEnd
  0
BLOCK
  5
F10043
330
F10020
100
AcDbEntity
  8
0
100
AcDbBlockBegin
  2
*D9
 70
     1
 10
0.0
 20
0.0
 30
0.0
  3
*D9
  1

  0
LINE
  5
F10044
330
F10020
100
AcDbEntity
  8
Bemassung
 62
     0
370
    -2
100
AcDbLine
10
-51.3319459325806
20
13.6829143657793
30
0.000000000000000
11
-51.3319459325806
21
21.9548437702470
31
0.000000000000000
  0
LINE
  5
F10045
330
F10020
100
AcDbEntity
  8
Bemassung
 62
     0
370
    -2
100
AcDbLine
10
8.66805406741945
20
13.6829143657793
30
0.000000000000000
11
8.66805406741945
21
21.9548437702470
31
0.000000000000000
  0
LINE
  5
F10046
330
F10020
100
AcDbEntity
  8
Bemassung
 62
     0
370
    -2
100
AcDbLine
10
-51.3319459325806
20
19.9548437702470
30
0.000000000000000
11
8.66805406741945
21
19.9548437702470
31
0.000000000000000
  0
INSERT
  5
F10047
330
F10020
100
AcDbEntity
  8
Bemassung
 62
     0
370
    -2
100
AcDbBlockReference
  2
VDDIM_DEFAULT
10
-51.3319459325806
20
19.9548437702470
30
0.000000000000000
 41
2.50000000000000
 42
2.50000000000000
 43
2.50000000000000
 50
180.000000000000
  0
INSERT
  5
F10048
330
F10020
100
AcDbEntity
  8
Bemassung
 62
     0
370
    -2
100
AcDbBlockReference
  2
VDDIM_DEFAULT
10
8.66805406741945
20
19.9548437702470
30
0.000000000000000
 41
2.50000000000000
 42
2.50000000000000
 43
2.50000000000000
  0
MTEXT
  5
F10049
330
F10020
100
AcDbEntity
  8
Bemassung
 62
     0
100
AcDbMText
10
-21.3319459325806
20
20.6215104369137
30
0.000000000000000
 40
2.50000000000000
 41
0.0
 71
     8
 72
     1
  1
60
 11
1.00000000000000
 21
0.000000000000000
 31
0.0
 73
     1
 44
1.0
1001
ACAD
1000
MTEXTBEGIN
1070
73
1070
1
1070
44
1040
1.0
1070
74
1070
0
1000
MTEXTEND
  0
POINT
  5
F1004A
330
F10020
100
AcDbEntity
  8
Bemassung
 62
     0
100
AcDbPoint
10
-51.3319459325806
20
13.6829143657793
30
0.000000000000000
  0
POINT
  5
F1004B
330
F10020
100
AcDbEntity
  8
Bemassung
 62
     0
100
AcDbPoint
10
8.66805406741945
20
13.6829143657793
30
0.000000000000000
  0
ENDBLK
  5
F1004C
330
F10020
100
AcDbEntity
  8
0
100
AcDbBlockEnd
  0
BLOCK
  5
F1004D
330
F10007
100
AcDbEntity
  8
0
100
AcDbBlockBegin
  2
*D4
 70
     1
 10
0.0
 20
0.0
 30
0.0
  3
*D4
  1

  0
LINE
  5
F1004E
330
F10007
100
AcDbEntity
  8
Bemassung
 62
     0
370
    -2
100
AcDbLine
10
-50.9319459325806
20
2.08291436577929
30
0.000000000000000
11
-63.3319459325806
21
2.08291436577929
31
0.000000000000000
  0
LINE
  5
F1004F
330
F10007
100
AcDbEntity
  8
Bemassung
 62
     0
370
    -2
100
AcDbLine
10
-50.9319459325806
20
14.0829143657793
30
0.000000000000000
11
-63.3319459325806
21
14.0829143657793
31
0.000000000000000
  0
LINE
  5
F10050
330
F10007
100
AcDbEntity
  8
Bemassung
 62
     0
370
    -2
100
AcDbLine
10
-61.3319459325806
20
2.08291436577929
30
0.000000000000000
11
-61.3319459325806
21
14.0829143657793
31
0.000000000000000
  0
INSERT
  5
F10051
330
F10007
100
AcDbEntity
  8
Bemassung
 62
     0
370
    -2
100
AcDbBlockReference
  2
VDDIM_DEFAULT
10
-61.3319459325806
20
2.08291436577929
30
0.000000000000000
 41
2.50000000000000
 42
2.50000000000000
 43
2.50000000000000
 50
90.0000000000000
  0
INSERT
  5
F10052
330
F10007
100
AcDbEntity
  8
Bemassung
 62
     0
370
    -2
100
AcDbBlockReference
  2
VDDIM_DEFAULT
10
-61.3319459325806
20
14.0829143657793
30
0.000000000000000
 41
2.50000000000000
 42
2.50000000000000
 43
2.50000000000000
 50
270.000000000000
  0
MTEXT
  5
F10053
330
F10007
100
AcDbEntity
  8
Bemassung
 62
     0
100
AcDbMText
10
-61.9986125992472
20
8.08291436577929
30
0.000000000000000
 40
2.50000000000000
 41
0.0
 71
     8
 72
     1
  1
Ø12
 11
6.12323399573677e-17
 21
1.00000000000000
 31
0.0
 73
     1
 44
1.0
1001
ACAD
1000
MTEXTBEGIN
1070
73
1070
1
1070
44
1040
1.0
1070
74
1070
0
1000
MTEXTEND
  0
POINT
  5
F10054
330
F10007
100
AcDbEntity
  8
Bemassung
 62
     0
100
AcDbPoint
10
-50.9319459325806
20
2.08291436577929
30
0.000000000000000
  0
POINT
  5
F10055
330
F10007
100
AcDbEntity
  8
Bemassung
 62
     0
100
AcDbPoint
10
-50.9319459325806
20
14.0829143657793
30
0.000000000000000
  0
ENDBLK
  5
F10056
330
F10007
100
AcDbEntity
  8
0
100
AcDbBlockEnd
  0
BLOCK
  5
F10057
330
F1000C
100
AcDbEntity
  8
0
100
AcDbBlockBegin
  2
*D5
 70
     1
 10
0.0
 20
0.0
 30
0.0
  3
*D5
  1

  0
LINE
  5
F10058
330
F1000C
100
AcDbEntity
  8
Bemassung
 62
     0
370
    -2
100
AcDbLine
10
-21.0417208403749
20
2.48291436577929
30
0.000000000000000
11
8.66805406741945
21
2.48291436577929
31
0.000000000000000
  0
LINE
  5
F10059
330
F1000C
100
AcDbEntity
  8
Bemassung
 62
     0
370
    -2
100
AcDbLine
10
-21.0417208403749
20
13.6829143657793
30
0.000000000000000
11
8.66805406741945
21
13.6829143657793
31
0.000000000000000
  0
LINE
  5
F1005A
330
F1000C
100
AcDbEntity
  8
Bemassung
 62
     0
370
    -2
100
AcDbLine
10
-19.0417208403749
20
-10.4760356664255
30
0.000000000000000
11
-19.0417208403749
21
13.6829143657793
31
0.000000000000000
  0
INSERT
  5
F1005B
330
F1000C
100
AcDbEntity
  8
Bemassung
 62
     0
370
    -2
100
AcDbBlockReference
  2
VDDIM_DEFAULT
10
-19.0417208403749
20
2.48291436577929
30
0.000000000000000
 41
2.50000000000000
 42
2.50000000000000
 43
2.50000000000000
 50
90.0000000000000
  0
INSERT
  5
F1005C
330
F1000C
100
AcDbEntity
  8
Bemassung
 62
     0
370
    -2
100
AcDbBlockReference
  2
VDDIM_DEFAULT
10
-19.0417208403749
20
13.6829143657793
30
0.000000000000000
 41
2.50000000000000
 42
2.50000000000000
 43
2.50000000000000
 50
270.000000000000
  0
MTEXT
  5
F1005D
330
F1000C
100
AcDbEntity
  8
Bemassung
 62
     0
100
AcDbMText
10
-19.7083875070415
20
-0.937023367839542
30
0.000000000000000
 40
2.50000000000000
 41
0.0
 71
     8
 72
     1
  1
Ø11.2
 11
6.12323399573677e-17
 21
1.00000000000000
 31
0.0
 73
     1
 44
1.0
1001
ACAD
1000
MTEXTBEGIN
1070
73
1070
1
1070
44
1040
1.0
1070
74
1070
0
1000
MTEXTEND
  0
POINT
  5
F1005E
330
F1000C
100
AcDbEntity
  8
Bemassung
 62
     0
100
AcDbPoint
10
-21.0417208403749
20
2.48291436577929
30
0.000000000000000
  0
POINT
  5
F1005F
330
F1000C
100
AcDbEntity
  8
Bemassung
 62
     0
100
AcDbPoint
10
-21.0417208403749
20
13.6829143657793
30
0.000000000000000
  0
ENDBLK
  5
F10060
330
F1000C
100
AcDbEntity
  8
0
100
AcDbBlockEnd
  0
BLOCK
  5
F10061
330
F10011
100
AcDbEntity
  8
0
100
AcDbBlockBegin
  2
*D6
 70
     1
 10
0.0
 20
0.0
 30
0.0
  3
*D6
  1

  0
LINE
  5
F10062
330
F10011
100
AcDbEntity
  8
Bemassung
 62
     0
370
    -2
100
AcDbLine
10
52.6680540674194
20
2.08291436577929
30
0.000000000000000
11
65.6680540674194
21
2.08291436577929
31
0.000000000000000
  0
LINE
  5
F10063
330
F10011
100
AcDbEntity
  8
Bemassung
 62
     0
370
    -2
100
AcDbLine
10
52.6680540674194
20
14.0829143657793
30
0.000000000000000
11
65.6680540674194
21
14.0829143657793
31
0.000000000000000
  0
LINE
  5
F10064
330
F10011
100
AcDbEntity
  8
Bemassung
 62
     0
370
    -2
100
AcDbLine
10
63.6680540674194
20
2.08291436577929
30
0.000000000000000
11
63.6680540674194
21
14.0829143657793
31
0.000000000000000
  0
INSERT
  5
F10065
330
F10011
100
AcDbEntity
  8
Bemassung
 62
     0
370
    -2
100
AcDbBlockReference
  2
VDDIM_DEFAULT
10
63.6680540674194
20
2.08291436577929
30
0.000000000000000
 41
2.50000000000000
 42
2.50000000000000
 43
2.50000000000000
 50
90.0000000000000
  0
INSERT
  5
F10066
330
F10011
100
AcDbEntity
  8
Bemassung
 62
     0
370
    -2
100
AcDbBlockReference
  2
VDDIM_DEFAULT
10
63.6680540674194
20
14.0829143657793
30
0.000000000000000
 41
2.50000000000000
 42
2.50000000000000
 43
2.50000000000000
 50
270.000000000000
  0
MTEXT
  5
F10067
330
F10011
100
AcDbEntity
  8
Bemassung
 62
     0
100
AcDbMText
10
63.0013874007528
20
8.08291436577929
30
0.000000000000000
 40
2.50000000000000
 41
0.0
 71
     8
 72
     1
  1
Ø12h6
 11
6.12323399573677e-17
 21
1.00000000000000
 31
0.0
 73
     1
 44
1.0
  0
POINT
  5
F10068
330
F10011
100
AcDbEntity
  8
Bemassung
 62
     0
100
AcDbPoint
10
52.6680540674194
20
2.08291436577929
30
0.000000000000000
  0
POINT
  5
F10069
330
F10011
100
AcDbEntity
  8
Bemassung
 62
     0
100
AcDbPoint
10
52.6680540674194
20
14.0829143657793
30
0.000000000000000
  0
ENDBLK
  5
F1006A
330
F10011
100
AcDbEntity
  8
0
100
AcDbBlockEnd
0
ENDSEC
0
SECTION
2
ENTITIES
  0
DIMENSION
  5
F10003
330
261
100
AcDbEntity
  8
Bemassung
100
AcDbDimension
  2
*D3
10
-50.9319459325806
20
16.0829143657793
30
0.000000000000000
11
-54.7630429407401
21
16.7495810324460
31
0.000000000000000
 70
32
 1
0.4 x 45°
 71
     8
  3
BEM-ISBE
100
AcDbAlignedDimension
13
-51.3319459325806
23
-6.91708563422071
33
0.000000000000000
14
-50.9319459325806
24
14.0829143657793
34
0.000000000000000
100
AcDbRotatedDimension
1001
ACAD
1000
DSTYLE
1002
{
1070
284
1070
8
1070
78
1070
8
1070
144
1040
1.00000000000000
1070
147
1040
0.625
1070
 72
1070
 0
1070
 71
1070
 0
1002
}
  0
DIMENSION
  5
F10017
330
261
100
AcDbEntity
  8
Bemassung
100
AcDbDimension
  2
*D7
10
-51.3319459325806
20
-4.91708563422071
30
0.000000000000000
11
-39.3319459325806
21
-4.25041896755404
31
0.000000000000000
 70
32
 1
24
 71
     8
  3
BEM-ISBE
100
AcDbAlignedDimension
13
-27.3319459325806
23
2.48291436577929
33
0.000000000000000
14
-51.3319459325806
24
-6.91708563422071
34
0.000000000000000
100
AcDbRotatedDimension
1001
ACAD
1000
DSTYLE
1002
{
1070
284
1070
8
1070
78
1070
8
1070
144
1040
1.00000000000000
1070
147
1040
0.625
1070
 72
1070
 0
1070
 71
1070
 0
1002
}
  0
DIMENSION
  5
F1001C
330
261
100
AcDbEntity
  8
Bemassung
100
AcDbDimension
  2
*D8
10
-51.3319459325806
20
26.0829143657793
30
0.000000000000000
11
1.16805406741945
21
26.7495810324460
31
0.000000000000000
 70
32
 1
105
 71
     8
  3
BEM-ISBE
100
AcDbAlignedDimension
13
53.6680540674194
23
13.0829143657793
33
0.000000000000000
14
-51.3319459325806
24
-6.91708563422071
34
0.000000000000000
100
AcDbRotatedDimension
1001
ACAD
1000
DSTYLE
1002
{
1070
284
1070
8
1070
78
1070
8
1070
144
1040
1.00000000000000
1070
147
1040
0.625
1070
 72
1070
 0
1070
 71
1070
 0
1002
}
  0
DIMENSION
  5
F10021
330
261
100
AcDbEntity
  8
Bemassung
100
AcDbDimension
  2
*D9
10
8.66805406741945
20
19.9548437702470
30
0.000000000000000
11
-21.3319459325806
21
20.6215104369137
31
0.000000000000000
 70
32
 1
60
 71
     8
  3
BEM-ISBE
100
AcDbAlignedDimension
13
-51.3319459325806
23
13.6829143657793
33
0.000000000000000
14
8.66805406741945
24
13.6829143657793
34
0.000000000000000
100
AcDbRotatedDimension
1001
ACAD
1000
DSTYLE
1002
{
1070
284
1070
8
1070
78
1070
8
1070
144
1040
1.00000000000000
1070
147
1040
0.625
1070
 72
1070
 0
1070
 71
1070
 0
1002
}
  0
DIMENSION
  5
F10008
330
261
100
AcDbEntity
  8
Bemassung
100
AcDbDimension
  2
*D4
10
-61.3319459325806
20
14.0829143657793
30
0.000000000000000
11
-61.9986125992472
21
8.08291436577929
31
0.000000000000000
 70
32
 1
Ø12
 71
     8
  3
BEM-ISBE
100
AcDbAlignedDimension
13
-50.9319459325806
23
2.08291436577929
33
0.000000000000000
14
-50.9319459325806
24
14.0829143657793
34
0.000000000000000
50
90.0000000000000
100
AcDbRotatedDimension
1001
ACAD
1000
DSTYLE
1002
{
1070
284
1070
8
1070
78
1070
8
1070
144
1040
1.00000000000000
1070
147
1040
0.625
1070
 72
1070
 0
1070
 71
1070
 0
1002
}
  0
DIMENSION
  5
F1000D
330
261
100
AcDbEntity
  8
Bemassung
100
AcDbDimension
  2
*D5
10
-19.0417208403749
20
13.6829143657793
30
0.000000000000000
11
-19.7083875070415
21
-0.937023367839542
31
0.000000000000000
 70
32
 1
Ø11.2
 71
     8
  3
BEM-ISBE
100
AcDbAlignedDimension
13
-21.0417208403749
23
2.48291436577929
33
0.000000000000000
14
-21.0417208403749
24
13.6829143657793
34
0.000000000000000
50
90.0000000000000
100
AcDbRotatedDimension
1001
ACAD
1000
DSTYLE
1002
{
1070
284
1070
8
1070
78
1070
8
1070
144
1040
1.00000000000000
1070
147
1040
0.625
1070
 72
1070
 0
1070
 71
1070
 0
1002
}
  0
DIMENSION
  5
F10012
330
261
100
AcDbEntity
  8
Bemassung
100
AcDbDimension
  2
*D6
10
63.6680540674194
20
14.0829143657793
30
0.000000000000000
11
63.0013874007528
21
8.08291436577929
31
0.000000000000000
 70
32
 1
Ø12h6
 71
     8
  3
BEM-ISBE
100
AcDbAlignedDimension
13
52.6680540674194
23
2.08291436577929
33
0.000000000000000
14
52.6680540674194
24
14.0829143657793
34
0.000000000000000
50
90.0000000000000
100
AcDbRotatedDimension
1001
ACAD
1000
DSTYLE
1002
{
1070
284
1070
8
1070
78
1070
8
1070
144
1040
1.00000000000000
1070
147
1040
0.625
1070
 72
1070
 0
1070
 71
1070
 0
1002
}
  0
LINE
  5
F1006B
330
F1006C
100
AcDbEntity
8
Geo
100
AcDbLine
10
-51.3319459325806
20
8.08291436577929
30
0.000000000000000
11
-51.3319459325806
21
13.6829143657793
31
0.000000000000000
  0
LINE
  5
F1006D
330
F1006E
100
AcDbEntity
8
Geo
100
AcDbLine
10
-51.3319459325806
20
13.6829143657793
30
0.000000000000000
11
-50.9319459325806
21
14.0829143657793
31
0.000000000000000
  0
LINE
  5
F1006F
330
F10070
100
AcDbEntity
8
Geo
100
AcDbLine
10
-50.9319459325806
20
14.0829143657793
30
0.000000000000000
11
-27.3319459325806
21
14.0829143657793
31
0.000000000000000
  0
LINE
  5
F10071
330
F10072
100
AcDbEntity
8
Geo
100
AcDbLine
10
-27.3319459325806
20
14.0829143657793
30
0.000000000000000
11
-27.3319459325806
21
13.6829143657793
31
0.000000000000000
  0
LINE
  5
F10073
330
F10074
100
AcDbEntity
8
Geo
100
AcDbLine
10
-27.3319459325806
20
13.6829143657793
30
0.000000000000000
11
8.66805406741945
21
13.6829143657793
31
0.000000000000000
  0
LINE
  5
F10075
330
F10076
100
AcDbEntity
8
Geo
100
AcDbLine
10
8.66805406741945
20
13.6829143657793
30
0.000000000000000
11
9.06805406741945
21
14.0829143657793
31
0.000000000000000
  0
LINE
  5
F10077
330
F10078
100
AcDbEntity
8
Geo
100
AcDbLine
10
9.06805406741945
20
14.0829143657793
30
0.000000000000000
11
52.6680540674194
21
14.0829143657793
31
0.000000000000000
  0
LINE
  5
F10079
330
F1007A
100
AcDbEntity
8
Geo
100
AcDbLine
10
52.6680540674194
20
14.0829143657793
30
0.000000000000000
11
53.6680540674194
21
13.0829143657793
31
0.000000000000000
  0
LINE
  5
F1007B
330
F1007C
100
AcDbEntity
8
Geo
100
AcDbLine
10
-51.3319459325806
20
13.6826317923265
30
0.000000000000000
11
-51.2319459325806
21
13.7816109614522
31
0.000000000000000
  0
LINE
  5
F1007D
330
F1007E
100
AcDbEntity
8
Geo
100
AcDbLine
10
-51.2319459325806
20
13.7816109614522
30
0.000000000000000
11
-51.1319459325805
21
13.8797913050324
31
0.000000000000000
  0
LINE
  5
F1007F
330
F10080
100
AcDbEntity
8
Geo
100
AcDbLine
10
-51.1319459325805
20
13.8797913050324
30
0.000000000000000
11
-51.0319459325806
21
13.9771161828156
31
0.000000000000000
  0
LINE
  5
F10081
330
F10082
100
AcDbEntity
8
Geo
100
AcDbLine
10
-51.0319459325806
20
13.9771161828156
30
0.000000000000000
11
-50.9319459325806
21
14.0735289710764
31
0.000000000000000
  0
LINE
  5
F10083
330
F10084
100
AcDbEntity
8
Geo
100
AcDbLine
10
-50.9319459325806
20
14.0735289710764
30
0.000000000000000
11
-50.8319459325806
21
14.0682518376310
31
0.000000000000000
  0
LINE
  5
F10085
330
F10086
100
AcDbEntity
8
Geo
100
AcDbLine
10
-50.8319459325806
20
14.0682518376310
30
0.000000000000000
11
-50.7319459325806
21
14.0618041106442
31
0.000000000000000
  0
LINE
  5
F10087
330
F10088
100
AcDbEntity
8
Geo
100
AcDbLine
10
-50.7319459325806
20
14.0618041106442
30
0.000000000000000
11
-50.6319459325805
21
14.0541870511422
31
0.000000000000000
  0
LINE
  5
F10089
330
F1008A
100
AcDbEntity
8
Geo
100
AcDbLine
10
-50.6319459325805
20
14.0541870511422
30
0.000000000000000
11
-50.5319459325806
21
14.0454021488456
31
0.000000000000000
  0
LINE
  5
F1008B
330
F1008C
100
AcDbEntity
8
Geo
100
AcDbLine
10
-50.5319459325806
20
14.0454021488456
30
0.000000000000000
11
-50.4319459325806
21
14.0354511218780
31
0.000000000000000
  0
LINE
  5
F1008D
330
F1008E
100
AcDbEntity
8
Geo
100
AcDbLine
10
-50.4319459325806
20
14.0354511218780
30
0.000000000000000
11
-50.3319459325806
21
14.0243359164301
31
0.000000000000000
  0
LINE
  5
F1008F
330
F10090
100
AcDbEntity
8
Geo
100
AcDbLine
10
-50.3319459325806
20
14.0243359164301
30
0.000000000000000
11
-50.2319459325806
21
14.0120587063790
31
0.000000000000000
  0
LINE
  5
F10091
330
F10092
100
AcDbEntity
8
Geo
100
AcDbLine
10
-50.2319459325806
20
14.0120587063790
30
0.000000000000000
11
-50.1319459325805
21
13.9986218928629
31
0.000000000000000
  0
LINE
  5
F10093
330
F10094
100
AcDbEntity
8
Geo
100
AcDbLine
10
-50.1319459325805
20
13.9986218928629
30
0.000000000000000
11
-50.0319459325806
21
13.9840281038117
31
0.000000000000000
  0
LINE
  5
F10095
330
F10096
100
AcDbEntity
8
Geo
100
AcDbLine
10
-50.0319459325806
20
13.9840281038117
30
0.000000000000000
11
-49.9319459325806
21
13.9682801934329
31
0.000000000000000
  0
LINE
  5
F10097
330
F10098
100
AcDbEntity
8
Geo
100
AcDbLine
10
-49.9319459325806
20
13.9682801934329
30
0.000000000000000
11
-49.8319459325806
21
13.9513812416535
31
0.000000000000000
  0
LINE
  5
F10099
330
F1009A
100
AcDbEntity
8
Geo
100
AcDbLine
10
-49.8319459325806
20
13.9513812416535
30
0.000000000000000
11
-49.7319459325806
21
13.9333345535174
31
0.000000000000000
  0
LINE
  5
F1009B
330
F1009C
100
AcDbEntity
8
Geo
100
AcDbLine
10
-49.7319459325806
20
13.9333345535174
30
0.000000000000000
11
-49.6319459325805
21
13.9141436585394
31
0.000000000000000
  0
LINE
  5
F1009D
330
F1009E
100
AcDbEntity
8
Geo
100
AcDbLine
10
-49.6319459325805
20
13.9141436585394
30
0.000000000000000
11
-49.5319459325806
21
13.8938123100146
31
0.000000000000000
  0
LINE
  5
F1009F
330
F100A0
100
AcDbEntity
8
Geo
100
AcDbLine
10
-49.5319459325806
20
13.8938123100146
30
0.000000000000000
11
-49.4319459325806
21
13.8723444842843
31
0.000000000000000
  0
LINE
  5
F100A1
330
F100A2
100
AcDbEntity
8
Geo
100
AcDbLine
10
-49.4319459325806
20
13.8723444842843
30
0.000000000000000
11
-49.3319459325806
21
13.8497443799587
31
0.000000000000000
  0
LINE
  5
F100A3
330
F100A4
100
AcDbEntity
8
Geo
100
AcDbLine
10
-49.3319459325806
20
13.8497443799587
30
0.000000000000000
11
-49.2319459325806
21
13.8260164170952
31
0.000000000000000
  0
LINE
  5
F100A5
330
F100A6
100
AcDbEntity
8
Geo
100
AcDbLine
10
-49.2319459325806
20
13.8260164170952
30
0.000000000000000
11
-49.1319459325805
21
13.8011652363346
31
0.000000000000000
  0
LINE
  5
F100A7
330
F100A8
100
AcDbEntity
8
Geo
100
AcDbLine
10
-49.1319459325805
20
13.8011652363346
30
0.000000000000000
11
-49.0319459325806
21
13.7751956979927
31
0.000000000000000
  0
LINE
  5
F100A9
330
F100AA
100
AcDbEntity
8
Geo
100
AcDbLine
10
-49.0319459325806
20
13.7751956979927
30
0.000000000000000
11
-48.9319459325806
21
13.7481128811107
31
0.000000000000000
  0
LINE
  5
F100AB
330
F100AC
100
AcDbEntity
8
Geo
100
AcDbLine
10
-48.9319459325806
20
13.7481128811107
30
0.000000000000000
11
-48.8319459325806
21
13.7199220824608
31
0.000000000000000
  0
LINE
  5
F100AD
330
F100AE
100
AcDbEntity
8
Geo
100
AcDbLine
10
-48.8319459325806
20
13.7199220824608
30
0.000000000000000
11
-48.7319459325806
21
13.6906288155111
31
0.000000000000000
  0
LINE
  5
F100AF
330
F100B0
100
AcDbEntity
8
Geo
100
AcDbLine
10
-48.7319459325806
20
13.6906288155111
30
0.000000000000000
11
-48.6319459325805
21
13.6602388093469
31
0.000000000000000
  0
LINE
  5
F100B1
330
F100B2
100
AcDbEntity
8
Geo
100
AcDbLine
10
-48.6319459325805
20
13.6602388093469
30
0.000000000000000
11
-48.5319459325805
21
13.6287580075504
31
0.000000000000000
  0
LINE
  5
F100B3
330
F100B4
100
AcDbEntity
8
Geo
100
AcDbLine
10
-48.5319459325805
20
13.6287580075504
30
0.000000000000000
11
-48.4319459325806
21
13.5961925670382
31
0.000000000000000
  0
LINE
  5
F100B5
330
F100B6
100
AcDbEntity
8
Geo
100
AcDbLine
10
-48.4319459325806
20
13.5961925670382
30
0.000000000000000
11
-48.3319459325806
21
13.5625488568569
31
0.000000000000000
  0
LINE
  5
F100B7
330
F100B8
100
AcDbEntity
8
Geo
100
AcDbLine
10
-48.3319459325806
20
13.5625488568569
30
0.000000000000000
11
-48.2319459325806
21
13.5278334569380
31
0.000000000000000
  0
LINE
  5
F100B9
330
F100BA
100
AcDbEntity
8
Geo
100
AcDbLine
10
-48.2319459325806
20
13.5278334569380
30
0.000000000000000
11
-48.1319459325805
21
13.4920531568106
31
0.000000000000000
  0
LINE
  5
F100BB
330
F100BC
100
AcDbEntity
8
Geo
100
AcDbLine
10
-48.1319459325805
20
13.4920531568106
30
0.000000000000000
11
-48.0319459325805
21
13.4552149542736
31
0.000000000000000
  0
LINE
  5
F100BD
330
F100BE
100
AcDbEntity
8
Geo
100
AcDbLine
10
-48.0319459325805
20
13.4552149542736
30
0.000000000000000
11
-47.9319459325806
21
13.4173260540273
31
0.000000000000000
  0
LINE
  5
F100BF
330
F100C0
100
AcDbEntity
8
Geo
100
AcDbLine
10
-47.9319459325806
20
13.4173260540273
30
0.000000000000000
11
-47.8319459325806
21
13.3783938662638
31
0.000000000000000
  0
LINE
  5
F100C1
330
F100C2
100
AcDbEntity
8
Geo
100
AcDbLine
10
-47.8319459325806
20
13.3783938662638
30
0.000000000000000
11
-47.7319459325806
21
13.3384260052186
31
0.000000000000000
  0
LINE
  5
F100C3
330
F100C4
100
AcDbEntity
8
Geo
100
AcDbLine
10
-47.7319459325806
20
13.3384260052186
30
0.000000000000000
11
-47.6319459325805
21
13.2974302876806
31
0.000000000000000
  0
LINE
  5
F100C5
330
F100C6
100
AcDbEntity
8
Geo
100
AcDbLine
10
-47.6319459325805
20
13.2974302876806
30
0.000000000000000
11
-47.5319459325805
21
13.2554147314636
31
0.000000000000000
  0
LINE
  5
F100C7
330
F100C8
100
AcDbEntity
8
Geo
100
AcDbLine
10
-47.5319459325805
20
13.2554147314636
30
0.000000000000000
11
-47.4319459325805
21
13.2123875538386
31
0.000000000000000
  0
LINE
  5
F100C9
330
F100CA
100
AcDbEntity
8
Geo
100
AcDbLine
10
-47.4319459325805
20
13.2123875538386
30
0.000000000000000
11
-47.3319459325806
21
13.1683571699260
31
0.000000000000000
  0
LINE
  5
F100CB
330
F100CC
100
AcDbEntity
8
Geo
100
AcDbLine
10
-47.3319459325806
20
13.1683571699260
30
0.000000000000000
11
-47.2319459325806
21
13.1233321910502
31
0.000000000000000
  0
LINE
  5
F100CD
330
F100CE
100
AcDbEntity
8
Geo
100
AcDbLine
10
-47.2319459325806
20
13.1233321910502
30
0.000000000000000
11
-47.1319459325805
21
13.0773214230557
31
0.000000000000000
  0
LINE
  5
F100CF
330
F100D0
100
AcDbEntity
8
Geo
100
AcDbLine
10
-47.1319459325805
20
13.0773214230557
30
0.000000000000000
11
-47.0319459325806
21
13.0303338645840
31
0.000000000000000
  0
LINE
  5
F100D1
330
F100D2
100
AcDbEntity
8
Geo
100
AcDbLine
10
-47.0319459325806
20
13.0303338645840
30
0.000000000000000
11
-46.9319459325806
21
12.9823787053146
31
0.000000000000000
  0
LINE
  5
F100D3
330
F100D4
100
AcDbEntity
8
Geo
100
AcDbLine
10
-46.9319459325806
20
12.9823787053146
30
0.000000000000000
11
-46.8319459325806
21
12.9334653241673
31
0.000000000000000
  0
LINE
  5
F100D5
330
F100D6
100
AcDbEntity
8
Geo
100
AcDbLine
10
-46.8319459325806
20
12.9334653241673
30
0.000000000000000
11
-46.7319459325806
21
12.8836032874679
31
0.000000000000000
  0
LINE
  5
F100D7
330
F100D8
100
AcDbEntity
8
Geo
100
AcDbLine
10
-46.7319459325806
20
12.8836032874679
30
0.000000000000000
11
-46.6319459325805
21
12.8328023470770
31
0.000000000000000
  0
LINE
  5
F100D9
330
F100DA
100
AcDbEntity
8
Geo
100
AcDbLine
10
-46.6319459325805
20
12.8328023470770
30
0.000000000000000
11
-46.5319459325806
21
12.7810724384835
31
0.000000000000000
  0
LINE
  5
F100DB
330
F100DC
100
AcDbEntity
8
Geo
100
AcDbLine
10
-46.5319459325806
20
12.7810724384835
30
0.000000000000000
11
-46.4319459325806
21
12.7284236788608
31
0.000000000000000
  0
LINE
  5
F100DD
330
F100DE
100
AcDbEntity
8
Geo
100
AcDbLine
10
-46.4319459325806
20
12.7284236788608
30
0.000000000000000
11
-46.3319459325806
21
12.6748663650881
31
0.000000000000000
  0
LINE
  5
F100DF
330
F100E0
100
AcDbEntity
8
Geo
100
AcDbLine
10
-46.3319459325806
20
12.6748663650881
30
0.000000000000000
11
-46.2319459325806
21
12.6204109717370
31
0.000000000000000
  0
LINE
  5
F100E1
330
F100E2
100
AcDbEntity
8
Geo
100
AcDbLine
10
-46.2319459325806
20
12.6204109717370
30
0.000000000000000
11
-46.1319459325806
21
12.5650681490228
31
0.000000000000000
  0
LINE
  5
F100E3
330
F100E4
100
AcDbEntity
8
Geo
100
AcDbLine
10
-46.1319459325806
20
12.5650681490228
30
0.000000000000000
11
-46.0319459325806
21
12.5088487207211
31
0.000000000000000
  0
LINE
  5
F100E5
330
F100E6
100
AcDbEntity
8
Geo
100
AcDbLine
10
-46.0319459325806
20
12.5088487207211
30
0.000000000000000
11
-45.9319459325806
21
12.4517636820515
31
0.000000000000000
  0
LINE
  5
F100E7
330
F100E8
100
AcDbEntity
8
Geo
100
AcDbLine
10
-45.9319459325806
20
12.4517636820515
30
0.000000000000000
11
-45.8319459325806
21
12.3938241975270
31
0.000000000000000
  0
LINE
  5
F100E9
330
F100EA
100
AcDbEntity
8
Geo
100
AcDbLine
10
-45.8319459325806
20
12.3938241975270
30
0.000000000000000
11
-45.7319459325806
21
12.3350415987704
31
0.000000000000000
  0
LINE
  5
F100EB
330
F100EC
100
AcDbEntity
8
Geo
100
AcDbLine
10
-45.7319459325806
20
12.3350415987704
30
0.000000000000000
11
-45.6319459325806
21
12.2754273822980
31
0.000000000000000
  0
LINE
  5
F100ED
330
F100EE
100
AcDbEntity
8
Geo
100
AcDbLine
10
-45.6319459325806
20
12.2754273822980
30
0.000000000000000
11
-45.5319459325806
21
12.2149932072714
31
0.000000000000000
  0
LINE
  5
F100EF
330
F100F0
100
AcDbEntity
8
Geo
100
AcDbLine
10
-45.5319459325806
20
12.2149932072714
30
0.000000000000000
11
-45.4319459325806
21
12.1537508932172
31
0.000000000000000
  0
LINE
  5
F100F1
330
F100F2
100
AcDbEntity
8
Geo
100
AcDbLine
10
-45.4319459325806
20
12.1537508932172
30
0.000000000000000
11
-45.3319459325806
21
12.0917124177151
31
0.000000000000000
  0
LINE
  5
F100F3
330
F100F4
100
AcDbEntity
8
Geo
100
AcDbLine
10
-45.3319459325806
20
12.0917124177151
30
0.000000000000000
11
-45.2319459325806
21
12.0288899140558
31
0.000000000000000
  0
LINE
  5
F100F5
330
F100F6
100
AcDbEntity
8
Geo
100
AcDbLine
10
-45.2319459325806
20
12.0288899140558
30
0.000000000000000
11
-45.1319459325806
21
11.9652956688676
31
0.000000000000000
  0
LINE
  5
F100F7
330
F100F8
100
AcDbEntity
8
Geo
100
AcDbLine
10
-45.1319459325806
20
11.9652956688676
30
0.000000000000000
11
-45.0319459325806
21
11.9009421197136
31
0.000000000000000
  0
LINE
  5
F100F9
330
F100FA
100
AcDbEntity
8
Geo
100
AcDbLine
10
-45.0319459325806
20
11.9009421197136
30
0.000000000000000
11
-44.9319459325806
21
11.8358418526593
31
0.000000000000000
  0
LINE
  5
F100FB
330
F100FC
100
AcDbEntity
8
Geo
100
AcDbLine
10
-44.9319459325806
20
11.8358418526593
30
0.000000000000000
11
-44.8319459325806
21
11.7700075998108
31
0.000000000000000
  0
LINE
  5
F100FD
330
F100FE
100
AcDbEntity
8
Geo
100
AcDbLine
10
-44.8319459325806
20
11.7700075998108
30
0.000000000000000
11
-44.7319459325806
21
11.7034522368249
31
0.000000000000000
  0
LINE
  5
F100FF
330
F10100
100
AcDbEntity
8
Geo
100
AcDbLine
10
-44.7319459325806
20
11.7034522368249
30
0.000000000000000
11
-44.6319459325806
21
11.6361887803909
31
0.000000000000000
  0
LINE
  5
F10101
330
F10102
100
AcDbEntity
8
Geo
100
AcDbLine
10
-44.6319459325806
20
11.6361887803909
30
0.000000000000000
11
-44.5319459325806
21
11.5682303856848
31
0.000000000000000
  0
LINE
  5
F10103
330
F10104
100
AcDbEntity
8
Geo
100
AcDbLine
10
-44.5319459325806
20
11.5682303856848
30
0.000000000000000
11
-44.4319459325806
21
11.4995903437964
31
0.000000000000000
  0
LINE
  5
F10105
330
F10106
100
AcDbEntity
8
Geo
100
AcDbLine
10
-44.4319459325806
20
11.4995903437964
30
0.000000000000000
11
-44.3319459325806
21
11.4302820791300
31
0.000000000000000
  0
LINE
  5
F10107
330
F10108
100
AcDbEntity
8
Geo
100
AcDbLine
10
-44.3319459325806
20
11.4302820791300
30
0.000000000000000
11
-44.2319459325806
21
11.3603191467786
31
0.000000000000000
  0
LINE
  5
F10109
330
F1010A
100
AcDbEntity
8
Geo
100
AcDbLine
10
-44.2319459325806
20
11.3603191467786
30
0.000000000000000
11
-44.1319459325806
21
11.2897152298733
31
0.000000000000000
  0
LINE
  5
F1010B
330
F1010C
100
AcDbEntity
8
Geo
100
AcDbLine
10
-44.1319459325806
20
11.2897152298733
30
0.000000000000000
11
-44.0319459325806
21
11.2184841369069
31
0.000000000000000
  0
LINE
  5
F1010D
330
F1010E
100
AcDbEntity
8
Geo
100
AcDbLine
10
-44.0319459325806
20
11.2184841369069
30
0.000000000000000
11
-43.9319459325806
21
11.1466397990332
31
0.000000000000000
  0
LINE
  5
F1010F
330
F10110
100
AcDbEntity
8
Geo
100
AcDbLine
10
-43.9319459325806
20
11.1466397990332
30
0.000000000000000
11
-43.8319459325806
21
11.0741962673427
31
0.000000000000000
  0
LINE
  5
F10111
330
F10112
100
AcDbEntity
8
Geo
100
AcDbLine
10
-43.8319459325806
20
11.0741962673427
30
0.000000000000000
11
-43.7319459325806
21
11.0011677101141
31
0.000000000000000
  0
LINE
  5
F10113
330
F10114
100
AcDbEntity
8
Geo
100
AcDbLine
10
-43.7319459325806
20
11.0011677101141
30
0.000000000000000
11
-43.6319459325806
21
10.9275684100439
31
0.000000000000000
  0
LINE
  5
F10115
330
F10116
100
AcDbEntity
8
Geo
100
AcDbLine
10
-43.6319459325806
20
10.9275684100439
30
0.000000000000000
11
-43.5319459325806
21
10.8534127614523
31
0.000000000000000
  0
LINE
  5
F10117
330
F10118
100
AcDbEntity
8
Geo
100
AcDbLine
10
-43.5319459325806
20
10.8534127614523
30
0.000000000000000
11
-43.4319459325806
21
10.7787152674688
31
0.000000000000000
  0
LINE
  5
F10119
330
F1011A
100
AcDbEntity
8
Geo
100
AcDbLine
10
-43.4319459325806
20
10.7787152674688
30
0.000000000000000
11
-43.3319459325806
21
10.7034905371950
31
0.000000000000000
  0
LINE
  5
F1011B
330
F1011C
100
AcDbEntity
8
Geo
100
AcDbLine
10
-43.3319459325806
20
10.7034905371950
30
0.000000000000000
11
-43.2319459325806
21
10.6277532828479
31
0.000000000000000
  0
LINE
  5
F1011D
330
F1011E
100
AcDbEntity
8
Geo
100
AcDbLine
10
-43.2319459325806
20
10.6277532828479
30
0.000000000000000
11
-43.1319459325806
21
10.5515183168824
31
0.000000000000000
  0
LINE
  5
F1011F
330
F10120
100
AcDbEntity
8
Geo
100
AcDbLine
10
-43.1319459325806
20
10.5515183168824
30
0.000000000000000
11
-43.0319459325806
21
10.4748005490940
31
0.000000000000000
  0
LINE
  5
F10121
330
F10122
100
AcDbEntity
8
Geo
100
AcDbLine
10
-43.0319459325806
20
10.4748005490940
30
0.000000000000000
11
-42.9319459325806
21
10.3976149837033
31
0.000000000000000
  0
LINE
  5
F10123
330
F10124
100
AcDbEntity
8
Geo
100
AcDbLine
10
-42.9319459325806
20
10.3976149837033
30
0.000000000000000
11
-42.8319459325806
21
10.3199767164213
31
0.000000000000000
  0
LINE
  5
F10125
330
F10126
100
AcDbEntity
8
Geo
100
AcDbLine
10
-42.8319459325806
20
10.3199767164213
30
0.000000000000000
11
-42.7319459325806
21
10.2419009314970
31
0.000000000000000
  0
LINE
  5
F10127
330
F10128
100
AcDbEntity
8
Geo
100
AcDbLine
10
-42.7319459325806
20
10.2419009314970
30
0.000000000000000
11
-42.6319459325806
21
10.1634028987475
31
0.000000000000000
  0
LINE
  5
F10129
330
F1012A
100
AcDbEntity
8
Geo
100
AcDbLine
10
-42.6319459325806
20
10.1634028987475
30
0.000000000000000
11
-42.5319459325806
21
10.0844979705722
31
0.000000000000000
  0
LINE
  5
F1012B
330
F1012C
100
AcDbEntity
8
Geo
100
AcDbLine
10
-42.5319459325806
20
10.0844979705722
30
0.000000000000000
11
-42.4319459325806
21
10.0052015789495
31
0.000000000000000
  0
LINE
  5
F1012D
330
F1012E
100
AcDbEntity
8
Geo
100
AcDbLine
10
-42.4319459325806
20
10.0052015789495
30
0.000000000000000
11
-42.3319459325806
21
9.92552923241909
31
0.000000000000000
  0
LINE
  5
F1012F
330
F10130
100
AcDbEntity
8
Geo
100
AcDbLine
10
-42.3319459325806
20
9.92552923241909
30
0.000000000000000
11
-42.2319459325806
21
9.84549651304884
31
0.000000000000000
  0
LINE
  5
F10131
330
F10132
100
AcDbEntity
8
Geo
100
AcDbLine
10
-42.2319459325806
20
9.84549651304884
30
0.000000000000000
11
-42.1319459325806
21
9.76511907338711
31
0.000000000000000
  0
LINE
  5
F10133
330
F10134
100
AcDbEntity
8
Geo
100
AcDbLine
10
-42.1319459325806
20
9.76511907338711
30
0.000000000000000
11
-42.0319459325806
21
9.68441263340162
31
0.000000000000000
  0
LINE
  5
F10135
330
F10136
100
AcDbEntity
8
Geo
100
AcDbLine
10
-42.0319459325806
20
9.68441263340162
30
0.000000000000000
11
-41.9319459325806
21
9.60339297740490
31
0.000000000000000
  0
LINE
  5
F10137
330
F10138
100
AcDbEntity
8
Geo
100
AcDbLine
10
-41.9319459325806
20
9.60339297740490
30
0.000000000000000
11
-41.8319459325806
21
9.52207595096733
31
0.000000000000000
  0
LINE
  5
F10139
330
F1013A
100
AcDbEntity
8
Geo
100
AcDbLine
10
-41.8319459325806
20
9.52207595096733
30
0.000000000000000
11
-41.7319459325806
21
9.44047745781803
31
0.000000000000000
  0
LINE
  5
F1013B
330
F1013C
100
AcDbEntity
8
Geo
100
AcDbLine
10
-41.7319459325806
20
9.44047745781803
30
0.000000000000000
11
-41.6319459325806
21
9.35861345673454
31
0.000000000000000
  0
LINE
  5
F1013D
330
F1013E
100
AcDbEntity
8
Geo
100
AcDbLine
10
-41.6319459325806
20
9.35861345673454
30
0.000000000000000
11
-41.5319459325806
21
9.27649995842156
31
0.000000000000000
  0
LINE
  5
F1013F
330
F10140
100
AcDbEntity
8
Geo
100
AcDbLine
10
-41.5319459325806
20
9.27649995842156
30
0.000000000000000
11
-41.4319459325806
21
9.19415302237973
31
0.000000000000000
  0
LINE
  5
F10141
330
F10142
100
AcDbEntity
8
Geo
100
AcDbLine
10
-41.4319459325806
20
9.19415302237973
30
0.000000000000000
11
-41.3319459325806
21
9.11158875376466
31
0.000000000000000
  0
LINE
  5
F10143
330
F10144
100
AcDbEntity
8
Geo
100
AcDbLine
10
-41.3319459325806
20
9.11158875376466
30
0.000000000000000
11
-41.2319459325806
21
9.02882330023720
31
0.000000000000000
  0
LINE
  5
F10145
330
F10146
100
AcDbEntity
8
Geo
100
AcDbLine
10
-41.2319459325806
20
9.02882330023720
30
0.000000000000000
11
-41.1319459325806
21
8.94587284880534
31
0.000000000000000
  0
LINE
  5
F10147
330
F10148
100
AcDbEntity
8
Geo
100
AcDbLine
10
-41.1319459325806
20
8.94587284880534
30
0.000000000000000
11
-41.0319459325806
21
8.86275362265835
31
0.000000000000000
  0
LINE
  5
F10149
330
F1014A
100
AcDbEntity
8
Geo
100
AcDbLine
10
-41.0319459325806
20
8.86275362265835
30
0.000000000000000
11
-40.9319459325806
21
8.77948187799394
31
0.000000000000000
  0
LINE
  5
F1014B
330
F1014C
100
AcDbEntity
8
Geo
100
AcDbLine
10
-40.9319459325806
20
8.77948187799394
30
0.000000000000000
11
-40.8319459325806
21
8.69607390083891
31
0.000000000000000
  0
LINE
  5
F1014D
330
F1014E
100
AcDbEntity
8
Geo
100
AcDbLine
10
-40.8319459325806
20
8.69607390083891
30
0.000000000000000
11
-40.7319459325806
21
8.61254600386398
31
0.000000000000000
  0
LINE
  5
F1014F
330
F10150
100
AcDbEntity
8
Geo
100
AcDbLine
10
-40.7319459325806
20
8.61254600386398
30
0.000000000000000
11
-40.6319459325806
21
8.52891452319343
31
0.000000000000000
  0
LINE
  5
F10151
330
F10152
100
AcDbEntity
8
Geo
100
AcDbLine
10
-40.6319459325806
20
8.52891452319343
30
0.000000000000000
11
-40.5319459325806
21
8.44519581521010
31
0.000000000000000
  0
LINE
  5
F10153
330
F10154
100
AcDbEntity
8
Geo
100
AcDbLine
10
-40.5319459325806
20
8.44519581521010
30
0.000000000000000
11
-40.4319459325806
21
8.36140625335648
31
0.000000000000000
  0
LINE
  5
F10155
330
F10156
100
AcDbEntity
8
Geo
100
AcDbLine
10
-40.4319459325806
20
8.36140625335648
30
0.000000000000000
11
-40.3319459325806
21
8.27756222493243
31
0.000000000000000
  0
LINE
  5
F10157
330
F10158
100
AcDbEntity
8
Geo
100
AcDbLine
10
-40.3319459325806
20
8.27756222493243
30
0.000000000000000
11
-40.2319459325806
21
8.19368012789021
31
0.000000000000000
  0
LINE
  5
F10159
330
F1015A
100
AcDbEntity
8
Geo
100
AcDbLine
10
-40.2319459325806
20
8.19368012789021
30
0.000000000000000
11
-40.1319459325806
21
8.10977636762745
31
0.000000000000000
  0
LINE
  5
F1015B
330
F1015C
100
AcDbEntity
8
Geo
100
AcDbLine
10
-40.1319459325806
20
8.10977636762745
30
0.000000000000000
11
-40.0319459325806
21
8.02586735377856
31
0.000000000000000
  0
LINE
  5
F1015D
330
F1015E
100
AcDbEntity
8
Geo
100
AcDbLine
10
-40.0319459325806
20
8.02586735377856
30
0.000000000000000
11
-39.9319459325806
21
7.94196949700546
31
0.000000000000000
  0
LINE
  5
F1015F
330
F10160
100
AcDbEntity
8
Geo
100
AcDbLine
10
-39.9319459325806
20
7.94196949700546
30
0.000000000000000
11
-39.8319459325806
21
7.85809920578800
31
0.000000000000000
  0
LINE
  5
F10161
330
F10162
100
AcDbEntity
8
Geo
100
AcDbLine
10
-39.8319459325806
20
7.85809920578800
30
0.000000000000000
11
-39.7319459325806
21
7.77427288321484
31
0.000000000000000
  0
LINE
  5
F10163
330
F10164
100
AcDbEntity
8
Geo
100
AcDbLine
10
-39.7319459325806
20
7.77427288321484
30
0.000000000000000
11
-39.6319459325806
21
7.69050692377539
31
0.000000000000000
  0
LINE
  5
F10165
330
F10166
100
AcDbEntity
8
Geo
100
AcDbLine
10
-39.6319459325806
20
7.69050692377539
30
0.000000000000000
11
-39.5319459325806
21
7.60681771015343
31
0.000000000000000
  0
LINE
  5
F10167
330
F10168
100
AcDbEntity
8
Geo
100
AcDbLine
10
-39.5319459325806
20
7.60681771015343
30
0.000000000000000
11
-39.4319459325806
21
7.52322161002303
31
0.000000000000000
  0
LINE
  5
F10169
330
F1016A
100
AcDbEntity
8
Geo
100
AcDbLine
10
-39.4319459325806
20
7.52322161002303
30
0.000000000000000
11
-39.3319459325806
21
7.43973497284742
31
0.000000000000000
  0
LINE
  5
F1016B
330
F1016C
100
AcDbEntity
8
Geo
100
AcDbLine
10
-39.3319459325806
20
7.43973497284742
30
0.000000000000000
11
-39.2319459325806
21
7.35637412668141
31
0.000000000000000
  0
LINE
  5
F1016D
330
F1016E
100
AcDbEntity
8
Geo
100
AcDbLine
10
-39.2319459325806
20
7.35637412668141
30
0.000000000000000
11
-39.1319459325806
21
7.27315537497799
31
0.000000000000000
  0
LINE
  5
F1016F
330
F10170
100
AcDbEntity
8
Geo
100
AcDbLine
10
-39.1319459325806
20
7.27315537497799
30
0.000000000000000
11
-39.0319459325806
21
7.19009499339977
31
0.000000000000000
  0
LINE
  5
F10171
330
F10172
100
AcDbEntity
8
Geo
100
AcDbLine
10
-39.0319459325806
20
7.19009499339977
30
0.000000000000000
11
-38.9319459325806
21
7.10720922663582
31
0.000000000000000
  0
LINE
  5
F10173
330
F10174
100
AcDbEntity
8
Geo
100
AcDbLine
10
-38.9319459325806
20
7.10720922663582
30
0.000000000000000
11
-38.8319459325806
21
7.02451428522459
31
0.000000000000000
  0
LINE
  5
F10175
330
F10176
100
AcDbEntity
8
Geo
100
AcDbLine
10
-38.8319459325806
20
7.02451428522459
30
0.000000000000000
11
-38.7319459325806
21
6.94202634238352
31
0.000000000000000
  0
LINE
  5
F10177
330
F10178
100
AcDbEntity
8
Geo
100
AcDbLine
10
-38.7319459325806
20
6.94202634238352
30
0.000000000000000
11
-38.6319459325806
21
6.85976153084590
31
0.000000000000000
  0
LINE
  5
F10179
330
F1017A
100
AcDbEntity
8
Geo
100
AcDbLine
10
-38.6319459325806
20
6.85976153084590
30
0.000000000000000
11
-38.5319459325806
21
6.77773593970572
31
0.000000000000000
  0
LINE
  5
F1017B
330
F1017C
100
AcDbEntity
8
Geo
100
AcDbLine
10
-38.5319459325806
20
6.77773593970572
30
0.000000000000000
11
-38.4319459325806
21
6.69596561127097
31
0.000000000000000
  0
LINE
  5
F1017D
330
F1017E
100
AcDbEntity
8
Geo
100
AcDbLine
10
-38.4319459325806
20
6.69596561127097
30
0.000000000000000
11
-38.3319459325806
21
6.61446653792618
31
0.000000000000000
  0
LINE
  5
F1017F
330
F10180
100
AcDbEntity
8
Geo
100
AcDbLine
10
-38.3319459325806
20
6.61446653792618
30
0.000000000000000
11
-38.2319459325806
21
6.53325465900465
31
0.000000000000000
  0
LINE
  5
F10181
330
F10182
100
AcDbEntity
8
Geo
100
AcDbLine
10
-38.2319459325806
20
6.53325465900465
30
0.000000000000000
11
-38.1319459325806
21
6.45234585767110
31
0.000000000000000
  0
LINE
  5
F10183
330
F10184
100
AcDbEntity
8
Geo
100
AcDbLine
10
-38.1319459325806
20
6.45234585767110
30
0.000000000000000
11
-38.0319459325806
21
6.37175595781528
31
0.000000000000000
  0
LINE
  5
F10185
330
F10186
100
AcDbEntity
8
Geo
100
AcDbLine
10
-38.0319459325806
20
6.37175595781528
30
0.000000000000000
11
-37.9319459325806
21
6.29150072095719
31
0.000000000000000
  0
LINE
  5
F10187
330
F10188
100
AcDbEntity
8
Geo
100
AcDbLine
10
-37.9319459325806
20
6.29150072095719
30
0.000000000000000
11
-37.8319459325806
21
6.21159584316449
31
0.000000000000000
  0
LINE
  5
F10189
330
F1018A
100
AcDbEntity
8
Geo
100
AcDbLine
10
-37.8319459325806
20
6.21159584316449
30
0.000000000000000
11
-37.7319459325806
21
6.13205695198272
31
0.000000000000000
  0
LINE
  5
F1018B
330
F1018C
100
AcDbEntity
8
Geo
100
AcDbLine
10
-37.7319459325806
20
6.13205695198272
30
0.000000000000000
11
-37.6319459325806
21
6.05289960337890
31
0.000000000000000
  0
LINE
  5
F1018D
330
F1018E
100
AcDbEntity
8
Geo
100
AcDbLine
10
-37.6319459325806
20
6.05289960337890
30
0.000000000000000
11
-37.5319459325806
21
5.97413927869914
31
0.000000000000000
  0
LINE
  5
F1018F
330
F10190
100
AcDbEntity
8
Geo
100
AcDbLine
10
-37.5319459325806
20
5.97413927869914
30
0.000000000000000
11
-37.4319459325806
21
5.89579138164087
31
0.000000000000000
  0
LINE
  5
F10191
330
F10192
100
AcDbEntity
8
Geo
100
AcDbLine
10
-37.4319459325806
20
5.89579138164087
30
0.000000000000000
11
-37.3319459325806
21
5.81787123524021
31
0.000000000000000
  0
LINE
  5
F10193
330
F10194
100
AcDbEntity
8
Geo
100
AcDbLine
10
-37.3319459325806
20
5.81787123524021
30
0.000000000000000
11
-37.2319459325806
21
5.74039407887514
31
0.000000000000000
  0
LINE
  5
F10195
330
F10196
100
AcDbEntity
8
Geo
100
AcDbLine
10
-37.2319459325806
20
5.74039407887514
30
0.000000000000000
11
-37.1319459325806
21
5.66337506528506
31
0.000000000000000
  0
LINE
  5
F10197
330
F10198
100
AcDbEntity
8
Geo
100
AcDbLine
10
-37.1319459325806
20
5.66337506528506
30
0.000000000000000
11
-37.0319459325806
21
5.58682925760723
31
0.000000000000000
  0
LINE
  5
F10199
330
F1019A
100
AcDbEntity
8
Geo
100
AcDbLine
10
-37.0319459325806
20
5.58682925760723
30
0.000000000000000
11
-36.9319459325806
21
5.51077162643077
31
0.000000000000000
  0
LINE
  5
F1019B
330
F1019C
100
AcDbEntity
8
Geo
100
AcDbLine
10
-36.9319459325806
20
5.51077162643077
30
0.000000000000000
11
-36.8319459325806
21
5.43521704686877
31
0.000000000000000
  0
LINE
  5
F1019D
330
F1019E
100
AcDbEntity
8
Geo
100
AcDbLine
10
-36.8319459325806
20
5.43521704686877
30
0.000000000000000
11
-36.7319459325806
21
5.36018029564910
31
0.000000000000000
  0
LINE
  5
F1019F
330
F101A0
100
AcDbEntity
8
Geo
100
AcDbLine
10
-36.7319459325806
20
5.36018029564910
30
0.000000000000000
11
-36.6319459325806
21
5.28567604822434
31
0.000000000000000
  0
LINE
  5
F101A1
330
F101A2
100
AcDbEntity
8
Geo
100
AcDbLine
10
-36.6319459325806
20
5.28567604822434
30
0.000000000000000
11
-36.5319459325806
21
5.21171887590166
31
0.000000000000000
  0
LINE
  5
F101A3
330
F101A4
100
AcDbEntity
8
Geo
100
AcDbLine
10
-36.5319459325806
20
5.21171887590166
30
0.000000000000000
11
-36.4319459325806
21
5.13832324299301
31
0.000000000000000
  0
LINE
  5
F101A5
330
F101A6
100
AcDbEntity
8
Geo
100
AcDbLine
10
-36.4319459325806
20
5.13832324299301
30
0.000000000000000
11
-36.3319459325806
21
5.06550350398621
31
0.000000000000000
  0
LINE
  5
F101A7
330
F101A8
100
AcDbEntity
8
Geo
100
AcDbLine
10
-36.3319459325806
20
5.06550350398621
30
0.000000000000000
11
-36.2319459325806
21
4.99327390073756
31
0.000000000000000
  0
LINE
  5
F101A9
330
F101AA
100
AcDbEntity
8
Geo
100
AcDbLine
10
-36.2319459325806
20
4.99327390073756
30
0.000000000000000
11
-36.1319459325806
21
4.92164855968646
31
0.000000000000000
  0
LINE
  5
F101AB
330
F101AC
100
AcDbEntity
8
Geo
100
AcDbLine
10
-36.1319459325806
20
4.92164855968646
30
0.000000000000000
11
-36.0319459325806
21
4.85064148909259
31
0.000000000000000
  0
LINE
  5
F101AD
330
F101AE
100
AcDbEntity
8
Geo
100
AcDbLine
10
-36.0319459325806
20
4.85064148909259
30
0.000000000000000
11
-35.9319459325806
21
4.78026657629625
31
0.000000000000000
  0
LINE
  5
F101AF
330
F101B0
100
AcDbEntity
8
Geo
100
AcDbLine
10
-35.9319459325806
20
4.78026657629625
30
0.000000000000000
11
-35.8319459325806
21
4.71053758500229
31
0.000000000000000
  0
LINE
  5
F101B1
330
F101B2
100
AcDbEntity
8
Geo
100
AcDbLine
10
-35.8319459325806
20
4.71053758500229
30
0.000000000000000
11
-35.7319459325806
21
4.64146815258826
31
0.000000000000000
  0
LINE
  5
F101B3
330
F101B4
100
AcDbEntity
8
Geo
100
AcDbLine
10
-35.7319459325806
20
4.64146815258826
30
0.000000000000000
11
-35.6319459325806
21
4.57307178743725
31
0.000000000000000
  0
LINE
  5
F101B5
330
F101B6
100
AcDbEntity
8
Geo
100
AcDbLine
10
-35.6319459325806
20
4.57307178743725
30
0.000000000000000
11
-35.5319459325806
21
4.50536186629596
31
0.000000000000000
  0
LINE
  5
F101B7
330
F101B8
100
AcDbEntity
8
Geo
100
AcDbLine
10
-35.5319459325806
20
4.50536186629596
30
0.000000000000000
11
-35.4319459325806
21
4.43835163165853
31
0.000000000000000
  0
LINE
  5
F101B9
330
F101BA
100
AcDbEntity
8
Geo
100
AcDbLine
10
-35.4319459325806
20
4.43835163165853
30
0.000000000000000
11
-35.3319459325806
21
4.37205418917661
31
0.000000000000000
  0
LINE
  5
F101BB
330
F101BC
100
AcDbEntity
8
Geo
100
AcDbLine
10
-35.3319459325806
20
4.37205418917661
30
0.000000000000000
11
-35.2319459325806
21
4.30648250509618
31
0.000000000000000
  0
LINE
  5
F101BD
330
F101BE
100
AcDbEntity
8
Geo
100
AcDbLine
10
-35.2319459325806
20
4.30648250509618
30
0.000000000000000
11
-35.1319459325806
21
4.24164940372168
31
0.000000000000000
  0
LINE
  5
F101BF
330
F101C0
100
AcDbEntity
8
Geo
100
AcDbLine
10
-35.1319459325806
20
4.24164940372168
30
0.000000000000000
11
-35.0319459325806
21
4.17756756490785
31
0.000000000000000
  0
LINE
  5
F101C1
330
F101C2
100
AcDbEntity
8
Geo
100
AcDbLine
10
-35.0319459325806
20
4.17756756490785
30
0.000000000000000
11
-34.9319459325806
21
4.11424952157987
31
0.000000000000000
  0
LINE
  5
F101C3
330
F101C4
100
AcDbEntity
8
Geo
100
AcDbLine
10
-34.9319459325806
20
4.11424952157987
30
0.000000000000000
11
-34.8319459325806
21
4.05170765728217
31
0.000000000000000
  0
LINE
  5
F101C5
330
F101C6
100
AcDbEntity
8
Geo
100
AcDbLine
10
-34.8319459325806
20
4.05170765728217
30
0.000000000000000
11
-34.7319459325806
21
3.98995420375652
31
0.000000000000000
  0
LINE
  5
F101C7
330
F101C8
100
AcDbEntity
8
Geo
100
AcDbLine
10
-34.7319459325806
20
3.98995420375652
30
0.000000000000000
11
-34.6319459325806
21
3.92900123854982
31
0.000000000000000
  0
LINE
  5
F101C9
330
F101CA
100
AcDbEntity
8
Geo
100
AcDbLine
10
-34.6319459325806
20
3.92900123854982
30
0.000000000000000
11
-34.5319459325806
21
3.86886068265192
31
0.000000000000000
  0
LINE
  5
F101CB
330
F101CC
100
AcDbEntity
8
Geo
100
AcDbLine
10
-34.5319459325806
20
3.86886068265192
30
0.000000000000000
11
-34.4319459325806
21
3.80954429816424
31
0.000000000000000
  0
LINE
  5
F101CD
330
F101CE
100
AcDbEntity
8
Geo
100
AcDbLine
10
-34.4319459325806
20
3.80954429816424
30
0.000000000000000
11
-34.3319459325806
21
3.75106368599933
31
0.000000000000000
  0
LINE
  5
F101CF
330
F101D0
100
AcDbEntity
8
Geo
100
AcDbLine
10
-34.3319459325806
20
3.75106368599933
30
0.000000000000000
11
-34.2319459325806
21
3.69343028361200
31
0.000000000000000
  0
LINE
  5
F101D1
330
F101D2
100
AcDbEntity
8
Geo
100
AcDbLine
10
-34.2319459325806
20
3.69343028361200
30
0.000000000000000
11
-34.1319459325806
21
3.63665536276245
31
0.000000000000000
  0
LINE
  5
F101D3
330
F101D4
100
AcDbEntity
8
Geo
100
AcDbLine
10
-34.1319459325806
20
3.63665536276245
30
0.000000000000000
11
-34.0319459325806
21
3.58075002731171
31
0.000000000000000
  0
LINE
  5
F101D5
330
F101D6
100
AcDbEntity
8
Geo
100
AcDbLine
10
-34.0319459325806
20
3.58075002731171
30
0.000000000000000
11
-33.9319459325806
21
3.52572521105007
31
0.000000000000000
  0
LINE
  5
F101D7
330
F101D8
100
AcDbEntity
8
Geo
100
AcDbLine
10
-33.9319459325806
20
3.52572521105007
30
0.000000000000000
11
-33.8319459325806
21
3.47159167555862
31
0.000000000000000
  0
LINE
  5
F101D9
330
F101DA
100
AcDbEntity
8
Geo
100
AcDbLine
10
-33.8319459325806
20
3.47159167555862
30
0.000000000000000
11
-33.7319459325806
21
3.41836000810453
31
0.000000000000000
  0
LINE
  5
F101DB
330
F101DC
100
AcDbEntity
8
Geo
100
AcDbLine
10
-33.7319459325806
20
3.41836000810453
30
0.000000000000000
11
-33.6319459325806
21
3.36604061957048
31
0.000000000000000
  0
LINE
  5
F101DD
330
F101DE
100
AcDbEntity
8
Geo
100
AcDbLine
10
-33.6319459325806
20
3.36604061957048
30
0.000000000000000
11
-33.5319459325806
21
3.31464374241847
31
0.000000000000000
  0
LINE
  5
F101DF
330
F101E0
100
AcDbEntity
8
Geo
100
AcDbLine
10
-33.5319459325806
20
3.31464374241847
30
0.000000000000000
11
-33.4319459325806
21
3.26417942868864
31
0.000000000000000
  0
LINE
  5
F101E1
330
F101E2
100
AcDbEntity
8
Geo
100
AcDbLine
10
-33.4319459325806
20
3.26417942868864
30
0.000000000000000
11
-33.3319459325806
21
3.21465754803328
31
0.000000000000000
  0
LINE
  5
F101E3
330
F101E4
100
AcDbEntity
8
Geo
100
AcDbLine
10
-33.3319459325806
20
3.21465754803328
30
0.000000000000000
11
-33.2319459325806
21
3.16608778578657
31
0.000000000000000
  0
LINE
  5
F101E5
330
F101E6
100
AcDbEntity
8
Geo
100
AcDbLine
10
-33.2319459325806
20
3.16608778578657
30
0.000000000000000
11
-33.1319459325806
21
3.11847964107039
31
0.000000000000000
  0
LINE
  5
F101E7
330
F101E8
100
AcDbEntity
8
Geo
100
AcDbLine
10
-33.1319459325806
20
3.11847964107039
30
0.000000000000000
11
-33.0319459325806
21
3.07184242493643
31
0.000000000000000
  0
LINE
  5
F101E9
330
F101EA
100
AcDbEntity
8
Geo
100
AcDbLine
10
-33.0319459325806
20
3.07184242493643
30
0.000000000000000
11
-32.9319459325806
21
3.02618525854525
31
0.000000000000000
  0
LINE
  5
F101EB
330
F101EC
100
AcDbEntity
8
Geo
100
AcDbLine
10
-32.9319459325806
20
3.02618525854525
30
0.000000000000000
11
-32.8319459325806
21
2.98151707138233
31
0.000000000000000
  0
LINE
  5
F101ED
330
F101EE
100
AcDbEntity
8
Geo
100
AcDbLine
10
-32.8319459325806
20
2.98151707138233
30
0.000000000000000
11
-32.7319459325806
21
2.93784659951171
31
0.000000000000000
  0
LINE
  5
F101EF
330
F101F0
100
AcDbEntity
8
Geo
100
AcDbLine
10
-32.7319459325806
20
2.93784659951171
30
0.000000000000000
11
-32.6319459325806
21
2.89518238386739
31
0.000000000000000
  0
LINE
  5
F101F1
330
F101F2
100
AcDbEntity
8
Geo
100
AcDbLine
10
-32.6319459325806
20
2.89518238386739
30
0.000000000000000
11
-32.5319459325806
21
2.85353276858292
31
0.000000000000000
  0
LINE
  5
F101F3
330
F101F4
100
AcDbEntity
8
Geo
100
AcDbLine
10
-32.5319459325806
20
2.85353276858292
30
0.000000000000000
11
-32.4319459325806
21
2.81290589935952
31
0.000000000000000
  0
LINE
  5
F101F5
330
F101F6
100
AcDbEntity
8
Geo
100
AcDbLine
10
-32.4319459325806
20
2.81290589935952
30
0.000000000000000
11
-32.3319459325806
21
2.77330972187292
31
0.000000000000000
  0
LINE
  5
F101F7
330
F101F8
100
AcDbEntity
8
Geo
100
AcDbLine
10
-51.3319459325806
20
5.23433648669592
30
0.000000000000000
11
-51.2319459325806
21
5.12800645042908
31
0.000000000000000
  0
LINE
  5
F101F9
330
F101FA
100
AcDbEntity
8
Geo
100
AcDbLine
10
-51.2319459325806
20
5.12800645042908
30
0.000000000000000
11
-51.1319459325805
21
5.01966293135136
31
0.000000000000000
  0
LINE
  5
F101FB
330
F101FC
100
AcDbEntity
8
Geo
100
AcDbLine
10
-51.1319459325805
20
5.01966293135136
30
0.000000000000000
11
-51.0319459325806
21
4.90934335982149
31
0.000000000000000
  0
LINE
  5
F101FD
330
F101FE
100
AcDbEntity
8
Geo
100
AcDbLine
10
-51.0319459325806
20
4.90934335982149
30
0.000000000000000
11
-50.9319459325806
21
4.79708600003734
31
0.000000000000000
  0
LINE
  5
F101FF
330
F10200
100
AcDbEntity
8
Geo
100
AcDbLine
10
-50.9319459325806
20
4.79708600003734
30
0.000000000000000
11
-50.8319459325806
21
4.72720085157442
31
0.000000000000000
  0
LINE
  5
F10201
330
F10202
100
AcDbEntity
8
Geo
100
AcDbLine
10
-50.8319459325806
20
4.72720085157442
30
0.000000000000000
11
-50.7319459325806
21
4.65797200304199
31
0.000000000000000
  0
LINE
  5
F10203
330
F10204
100
AcDbEntity
8
Geo
100
AcDbLine
10
-50.7319459325806
20
4.65797200304199
30
0.000000000000000
11
-50.6319459325805
21
4.58941299400123
31
0.000000000000000
  0
LINE
  5
F10205
330
F10206
100
AcDbEntity
8
Geo
100
AcDbLine
10
-50.6319459325805
20
4.58941299400123
30
0.000000000000000
11
-50.5319459325806
21
4.52153723300824
31
0.000000000000000
  0
LINE
  5
F10207
330
F10208
100
AcDbEntity
8
Geo
100
AcDbLine
10
-50.5319459325806
20
4.52153723300824
30
0.000000000000000
11
-50.4319459325806
21
4.45435799499160
31
0.000000000000000
  0
LINE
  5
F10209
330
F1020A
100
AcDbEntity
8
Geo
100
AcDbLine
10
-50.4319459325806
20
4.45435799499160
30
0.000000000000000
11
-50.3319459325806
21
4.38788841865609
31
0.000000000000000
  0
LINE
  5
F1020B
330
F1020C
100
AcDbEntity
8
Geo
100
AcDbLine
10
-50.3319459325806
20
4.38788841865609
30
0.000000000000000
11
-50.2319459325806
21
4.32214150391311
31
0.000000000000000
  0
LINE
  5
F1020D
330
F1020E
100
AcDbEntity
8
Geo
100
AcDbLine
10
-50.2319459325806
20
4.32214150391311
30
0.000000000000000
11
-50.1319459325805
21
4.25713010933815
31
0.000000000000000
  0
LINE
  5
F1020F
330
F10210
100
AcDbEntity
8
Geo
100
AcDbLine
10
-50.1319459325805
20
4.25713010933815
30
0.000000000000000
11
-50.0319459325806
21
4.19286694965598
31
0.000000000000000
  0
LINE
  5
F10211
330
F10212
100
AcDbEntity
8
Geo
100
AcDbLine
10
-50.0319459325806
20
4.19286694965598
30
0.000000000000000
11
-49.9319459325806
21
4.12936459325394
31
0.000000000000000
  0
LINE
  5
F10213
330
F10214
100
AcDbEntity
8
Geo
100
AcDbLine
10
-49.9319459325806
20
4.12936459325394
30
0.000000000000000
11
-49.8319459325806
21
4.06663545972385
31
0.000000000000000
  0
LINE
  5
F10215
330
F10216
100
AcDbEntity
8
Geo
100
AcDbLine
10
-49.8319459325806
20
4.06663545972385
30
0.000000000000000
11
-49.7319459325806
21
4.00469181743301
31
0.000000000000000
  0
LINE
  5
F10217
330
F10218
100
AcDbEntity
8
Geo
100
AcDbLine
10
-49.7319459325806
20
4.00469181743301
30
0.000000000000000
11
-49.6319459325805
21
3.94354578112482
31
0.000000000000000
  0
LINE
  5
F10219
330
F1021A
100
AcDbEntity
8
Geo
100
AcDbLine
10
-49.6319459325805
20
3.94354578112482
30
0.000000000000000
11
-49.5319459325806
21
3.88320930954939
31
0.000000000000000
  0
LINE
  5
F1021B
330
F1021C
100
AcDbEntity
8
Geo
100
AcDbLine
10
-49.5319459325806
20
3.88320930954939
30
0.000000000000000
11
-49.4319459325806
21
3.82369420312470
31
0.000000000000000
  0
LINE
  5
F1021D
330
F1021E
100
AcDbEntity
8
Geo
100
AcDbLine
10
-49.4319459325806
20
3.82369420312470
30
0.000000000000000
11
-49.3319459325806
21
3.76501210162872
31
0.000000000000000
  0
LINE
  5
F1021F
330
F10220
100
AcDbEntity
8
Geo
100
AcDbLine
10
-49.3319459325806
20
3.76501210162872
30
0.000000000000000
11
-49.2319459325806
21
3.70717448192292
31
0.000000000000000
  0
LINE
  5
F10221
330
F10222
100
AcDbEntity
8
Geo
100
AcDbLine
10
-49.2319459325806
20
3.70717448192292
30
0.000000000000000
11
-49.1319459325805
21
3.65019265570767
31
0.000000000000000
  0
LINE
  5
F10223
330
F10224
100
AcDbEntity
8
Geo
100
AcDbLine
10
-49.1319459325805
20
3.65019265570767
30
0.000000000000000
11
-49.0319459325806
21
3.59407776730992
31
0.000000000000000
  0
LINE
  5
F10225
330
F10226
100
AcDbEntity
8
Geo
100
AcDbLine
10
-49.0319459325806
20
3.59407776730992
30
0.000000000000000
11
-48.9319459325806
21
3.53884079150365
31
0.000000000000000
  0
LINE
  5
F10227
330
F10228
100
AcDbEntity
8
Geo
100
AcDbLine
10
-48.9319459325806
20
3.53884079150365
30
0.000000000000000
11
-48.8319459325806
21
3.48449253136345
31
0.000000000000000
  0
LINE
  5
F10229
330
F1022A
100
AcDbEntity
8
Geo
100
AcDbLine
10
-48.8319459325806
20
3.48449253136345
30
0.000000000000000
11
-48.7319459325806
21
3.43104361615169
31
0.000000000000000
  0
LINE
  5
F1022B
330
F1022C
100
AcDbEntity
8
Geo
100
AcDbLine
10
-48.7319459325806
20
3.43104361615169
30
0.000000000000000
11
-48.6319459325805
21
3.37850449923965
31
0.000000000000000
  0
LINE
  5
F1022D
330
F1022E
100
AcDbEntity
8
Geo
100
AcDbLine
10
-48.6319459325805
20
3.37850449923965
30
0.000000000000000
11
-48.5319459325805
21
3.32688545606313
31
0.000000000000000
  0
LINE
  5
F1022F
330
F10230
100
AcDbEntity
8
Geo
100
AcDbLine
10
-48.5319459325805
20
3.32688545606313
30
0.000000000000000
11
-48.4319459325806
21
3.27619658211281
31
0.000000000000000
  0
LINE
  5
F10231
330
F10232
100
AcDbEntity
8
Geo
100
AcDbLine
10
-48.4319459325806
20
3.27619658211281
30
0.000000000000000
11
-48.3319459325806
21
3.22644779095976
31
0.000000000000000
  0
LINE
  5
F10233
330
F10234
100
AcDbEntity
8
Geo
100
AcDbLine
10
-48.3319459325806
20
3.22644779095976
30
0.000000000000000
11
-48.2319459325806
21
3.17764881231662
31
0.000000000000000
  0
LINE
  5
F10235
330
F10236
100
AcDbEntity
8
Geo
100
AcDbLine
10
-48.2319459325806
20
3.17764881231662
30
0.000000000000000
11
-48.1319459325805
21
3.12980919013466
31
0.000000000000000
  0
LINE
  5
F10237
330
F10238
100
AcDbEntity
8
Geo
100
AcDbLine
10
-48.1319459325805
20
3.12980919013466
30
0.000000000000000
11
-48.0319459325805
21
3.08293828073724
31
0.000000000000000
  0
LINE
  5
F10239
330
F1023A
100
AcDbEntity
8
Geo
100
AcDbLine
10
-48.0319459325805
20
3.08293828073724
30
0.000000000000000
11
-47.9319459325806
21
3.03704525098990
31
0.000000000000000
  0
LINE
  5
F1023B
330
F1023C
100
AcDbEntity
8
Geo
100
AcDbLine
10
-47.9319459325806
20
3.03704525098990
30
0.000000000000000
11
-47.8319459325806
21
2.99213907650754
31
0.000000000000000
  0
LINE
  5
F1023D
330
F1023E
100
AcDbEntity
8
Geo
100
AcDbLine
10
-47.8319459325806
20
2.99213907650754
30
0.000000000000000
11
-47.7319459325806
21
2.94822853989901
31
0.000000000000000
  0
LINE
  5
F1023F
330
F10240
100
AcDbEntity
8
Geo
100
AcDbLine
10
-47.7319459325806
20
2.94822853989901
30
0.000000000000000
11
-47.6319459325805
21
2.90532222904942
31
0.000000000000000
  0
LINE
  5
F10241
330
F10242
100
AcDbEntity
8
Geo
100
AcDbLine
10
-47.6319459325805
20
2.90532222904942
30
0.000000000000000
11
-47.5319459325805
21
2.86342853544055
31
0.000000000000000
  0
LINE
  5
F10243
330
F10244
100
AcDbEntity
8
Geo
100
AcDbLine
10
-47.5319459325805
20
2.86342853544055
30
0.000000000000000
11
-47.4319459325805
21
2.82255565250968
31
0.000000000000000
  0
LINE
  5
F10245
330
F10246
100
AcDbEntity
8
Geo
100
AcDbLine
10
-47.4319459325805
20
2.82255565250968
30
0.000000000000000
11
-47.3319459325806
21
2.78271157404714
31
0.000000000000000
  0
LINE
  5
F10247
330
F10248
100
AcDbEntity
8
Geo
100
AcDbLine
10
-47.3319459325806
20
2.78271157404714
30
0.000000000000000
11
-47.2319459325806
21
2.74390409263290
31
0.000000000000000
  0
LINE
  5
F10249
330
F1024A
100
AcDbEntity
8
Geo
100
AcDbLine
10
-47.2319459325806
20
2.74390409263290
30
0.000000000000000
11
-47.1319459325805
21
2.70614079811252
31
0.000000000000000
  0
LINE
  5
F1024B
330
F1024C
100
AcDbEntity
8
Geo
100
AcDbLine
10
-47.1319459325805
20
2.70614079811252
30
0.000000000000000
11
-47.0319459325806
21
2.66942907611280
31
0.000000000000000
  0
LINE
  5
F1024D
330
F1024E
100
AcDbEntity
8
Geo
100
AcDbLine
10
-47.0319459325806
20
2.66942907611280
30
0.000000000000000
11
-46.9319459325806
21
2.63377610659723
31
0.000000000000000
  0
LINE
  5
F1024F
330
F10250
100
AcDbEntity
8
Geo
100
AcDbLine
10
-46.9319459325806
20
2.63377610659723
30
0.000000000000000
11
-46.8319459325806
21
2.59918886246184
31
0.000000000000000
  0
LINE
  5
F10251
330
F10252
100
AcDbEntity
8
Geo
100
AcDbLine
10
-46.8319459325806
20
2.59918886246184
30
0.000000000000000
11
-46.7319459325806
21
2.56567410817141
31
0.000000000000000
  0
LINE
  5
F10253
330
F10254
100
AcDbEntity
8
Geo
100
AcDbLine
10
-46.7319459325806
20
2.56567410817141
30
0.000000000000000
11
-46.6319459325805
21
2.53323839843656
31
0.000000000000000
  0
LINE
  5
F10255
330
F10256
100
AcDbEntity
8
Geo
100
AcDbLine
10
-46.6319459325805
20
2.53323839843656
30
0.000000000000000
11
-46.5319459325806
21
2.50188807693170
31
0.000000000000000
  0
LINE
  5
F10257
330
F10258
100
AcDbEntity
8
Geo
100
AcDbLine
10
-46.5319459325806
20
2.50188807693170
30
0.000000000000000
11
-46.4319459325806
21
2.47162927505446
31
0.000000000000000
  0
LINE
  5
F10259
330
F1025A
100
AcDbEntity
8
Geo
100
AcDbLine
10
-46.4319459325806
20
2.47162927505446
30
0.000000000000000
11
-46.3319459325806
21
2.44246791072645
31
0.000000000000000
  0
LINE
  5
F1025B
330
F1025C
100
AcDbEntity
8
Geo
100
AcDbLine
10
-46.3319459325806
20
2.44246791072645
30
0.000000000000000
11
-46.2319459325806
21
2.41440968723591
31
0.000000000000000
  0
LINE
  5
F1025D
330
F1025E
100
AcDbEntity
8
Geo
100
AcDbLine
10
-46.2319459325806
20
2.41440968723591
30
0.000000000000000
11
-46.1319459325806
21
2.38746009212223
31
0.000000000000000
  0
LINE
  5
F1025F
330
F10260
100
AcDbEntity
8
Geo
100
AcDbLine
10
-46.1319459325806
20
2.38746009212223
30
0.000000000000000
11
-46.0319459325806
21
2.36162439610276
31
0.000000000000000
  0
LINE
  5
F10261
330
F10262
100
AcDbEntity
8
Geo
100
AcDbLine
10
-46.0319459325806
20
2.36162439610276
30
0.000000000000000
11
-45.9319459325806
21
2.33690765204193
31
0.000000000000000
  0
LINE
  5
F10263
330
F10264
100
AcDbEntity
8
Geo
100
AcDbLine
10
-45.9319459325806
20
2.33690765204193
30
0.000000000000000
11
-45.8319459325806
21
2.31331469396307
31
0.000000000000000
  0
LINE
  5
F10265
330
F10266
100
AcDbEntity
8
Geo
100
AcDbLine
10
-45.8319459325806
20
2.31331469396307
30
0.000000000000000
11
-45.7319459325806
21
2.29085013610298
31
0.000000000000000
  0
LINE
  5
F10267
330
F10268
100
AcDbEntity
8
Geo
100
AcDbLine
10
-45.7319459325806
20
2.29085013610298
30
0.000000000000000
11
-45.6319459325806
21
2.26951837200946
31
0.000000000000000
  0
LINE
  5
F10269
330
F1026A
100
AcDbEntity
8
Geo
100
AcDbLine
10
-45.6319459325806
20
2.26951837200946
30
0.000000000000000
11
-45.5319459325806
21
2.24932357368207
31
0.000000000000000
  0
LINE
  5
F1026B
330
F1026C
100
AcDbEntity
8
Geo
100
AcDbLine
10
-45.5319459325806
20
2.24932357368207
30
0.000000000000000
11
-45.4319459325806
21
2.23026969075616
31
0.000000000000000
  0
LINE
  5
F1026D
330
F1026E
100
AcDbEntity
8
Geo
100
AcDbLine
10
-45.4319459325806
20
2.23026969075616
30
0.000000000000000
11
-45.3319459325806
21
2.21236044973044
31
0.000000000000000
  0
LINE
  5
F1026F
330
F10270
100
AcDbEntity
8
Geo
100
AcDbLine
10
-45.3319459325806
20
2.21236044973044
30
0.000000000000000
11
-45.2319459325806
21
2.19559935323812
31
0.000000000000000
  0
LINE
  5
F10271
330
F10272
100
AcDbEntity
8
Geo
100
AcDbLine
10
-45.2319459325806
20
2.19559935323812
30
0.000000000000000
11
-45.1319459325806
21
2.17998967936192
31
0.000000000000000
  0
LINE
  5
F10273
330
F10274
100
AcDbEntity
8
Geo
100
AcDbLine
10
-45.1319459325806
20
2.17998967936192
30
0.000000000000000
11
-45.0319459325806
21
2.16553448099292
31
0.000000000000000
  0
LINE
  5
F10275
330
F10276
100
AcDbEntity
8
Geo
100
AcDbLine
10
-45.0319459325806
20
2.16553448099292
30
0.000000000000000
11
-44.9319459325806
21
2.15223658523351
31
0.000000000000000
  0
LINE
  5
F10277
330
F10278
100
AcDbEntity
8
Geo
100
AcDbLine
10
-44.9319459325806
20
2.15223658523351
30
0.000000000000000
11
-44.8319459325806
21
2.14009859284447
31
0.000000000000000
  0
LINE
  5
F10279
330
F1027A
100
AcDbEntity
8
Geo
100
AcDbLine
10
-44.8319459325806
20
2.14009859284447
30
0.000000000000000
11
-44.7319459325806
21
2.12912287773629
31
0.000000000000000
  0
LINE
  5
F1027B
330
F1027C
100
AcDbEntity
8
Geo
100
AcDbLine
10
-44.7319459325806
20
2.12912287773629
30
0.000000000000000
11
-44.6319459325806
21
2.11931158650494
31
0.000000000000000
  0
LINE
  5
F1027D
330
F1027E
100
AcDbEntity
8
Geo
100
AcDbLine
10
-44.6319459325806
20
2.11931158650494
30
0.000000000000000
11
-44.5319459325806
21
2.11066663801199
31
0.000000000000000
  0
LINE
  5
F1027F
330
F10280
100
AcDbEntity
8
Geo
100
AcDbLine
10
-44.5319459325806
20
2.11066663801199
30
0.000000000000000
11
-44.4319459325806
21
2.10318972300938
31
0.000000000000000
  0
LINE
  5
F10281
330
F10282
100
AcDbEntity
8
Geo
100
AcDbLine
10
-44.4319459325806
20
2.10318972300938
30
0.000000000000000
11
-44.3319459325806
21
2.09688230380871
31
0.000000000000000
  0
LINE
  5
F10283
330
F10284
100
AcDbEntity
8
Geo
100
AcDbLine
10
-44.3319459325806
20
2.09688230380871
30
0.000000000000000
11
-44.2319459325806
21
2.09174561399525
31
0.000000000000000
  0
LINE
  5
F10285
330
F10286
100
AcDbEntity
8
Geo
100
AcDbLine
10
-44.2319459325806
20
2.09174561399525
30
0.000000000000000
11
-44.1319459325806
21
2.08778065818669
31
0.000000000000000
  0
LINE
  5
F10287
330
F10288
100
AcDbEntity
8
Geo
100
AcDbLine
10
-44.1319459325806
20
2.08778065818669
30
0.000000000000000
11
-44.0319459325806
21
2.08498821183667
31
0.000000000000000
  0
LINE
  5
F10289
330
F1028A
100
AcDbEntity
8
Geo
100
AcDbLine
10
-44.0319459325806
20
2.08498821183667
30
0.000000000000000
11
-43.9319459325806
21
2.08336882108308
31
0.000000000000000
  0
LINE
  5
F1028B
330
F1028C
100
AcDbEntity
8
Geo
100
AcDbLine
10
-43.9319459325806
20
2.08336882108308
30
0.000000000000000
11
-43.8439375313223
21
2.08291436577929
31
0.000000000000000
  0
LINE
  5
F1028D
330
F1028E
100
AcDbEntity
8
Geo
100
AcDbLine
10
-36.3559289162764
20
14.0829143657793
30
0.000000000000000
11
-36.3319459325806
21
14.0828806183550
31
0.000000000000000
  0
LINE
  5
F1028F
330
F10290
100
AcDbEntity
8
Geo
100
AcDbLine
10
-36.3319459325806
20
14.0828806183550
30
0.000000000000000
11
-36.2319459325806
21
14.0820124687953
31
0.000000000000000
  0
LINE
  5
F10291
330
F10292
100
AcDbEntity
8
Geo
100
AcDbLine
10
-36.2319459325806
20
14.0820124687953
30
0.000000000000000
11
-36.1319459325806
21
14.0799710344330
31
0.000000000000000
  0
LINE
  5
F10293
330
F10294
100
AcDbEntity
8
Geo
100
AcDbLine
10
-36.1319459325806
20
14.0799710344330
30
0.000000000000000
11
-36.0319459325806
21
14.0767567145256
31
0.000000000000000
  0
LINE
  5
F10295
330
F10296
100
AcDbEntity
8
Geo
100
AcDbLine
10
-36.0319459325806
20
14.0767567145256
30
0.000000000000000
11
-35.9319459325806
21
14.0723701377195
31
0.000000000000000
  0
LINE
  5
F10297
330
F10298
100
AcDbEntity
8
Geo
100
AcDbLine
10
-35.9319459325806
20
14.0723701377195
30
0.000000000000000
11
-35.8319459325806
21
14.0668121619277
31
0.000000000000000
  0
LINE
  5
F10299
330
F1029A
100
AcDbEntity
8
Geo
100
AcDbLine
10
-35.8319459325806
20
14.0668121619277
30
0.000000000000000
11
-35.7319459325806
21
14.0600838741617
31
0.000000000000000
  0
LINE
  5
F1029B
330
F1029C
100
AcDbEntity
8
Geo
100
AcDbLine
10
-35.7319459325806
20
14.0600838741617
30
0.000000000000000
11
-35.6319459325806
21
14.0521865903190
31
0.000000000000000
  0
LINE
  5
F1029D
330
F1029E
100
AcDbEntity
8
Geo
100
AcDbLine
10
-35.6319459325806
20
14.0521865903190
30
0.000000000000000
11
-35.5319459325806
21
14.0431218549255
31
0.000000000000000
  0
LINE
  5
F1029F
330
F102A0
100
AcDbEntity
8
Geo
100
AcDbLine
10
-35.5319459325806
20
14.0431218549255
30
0.000000000000000
11
-35.4319459325806
21
14.0328914408339
31
0.000000000000000
  0
LINE
  5
F102A1
330
F102A2
100
AcDbEntity
8
Geo
100
AcDbLine
10
-35.4319459325806
20
14.0328914408339
30
0.000000000000000
11
-35.3319459325806
21
14.0214973488763
31
0.000000000000000
  0
LINE
  5
F102A3
330
F102A4
100
AcDbEntity
8
Geo
100
AcDbLine
10
-35.3319459325806
20
14.0214973488763
30
0.000000000000000
11
-35.2319459325806
21
14.0089418074736
31
0.000000000000000
  0
LINE
  5
F102A5
330
F102A6
100
AcDbEntity
8
Geo
100
AcDbLine
10
-35.2319459325806
20
14.0089418074736
30
0.000000000000000
11
-35.1319459325806
21
13.9952272721993
31
0.000000000000000
  0
LINE
  5
F102A7
330
F102A8
100
AcDbEntity
8
Geo
100
AcDbLine
10
-35.1319459325806
20
13.9952272721993
30
0.000000000000000
11
-35.0319459325806
21
13.9803564252991
31
0.000000000000000
  0
LINE
  5
F102A9
330
F102AA
100
AcDbEntity
8
Geo
100
AcDbLine
10
-35.0319459325806
20
13.9803564252991
30
0.000000000000000
11
-34.9319459325806
21
13.9643321751667
31
0.000000000000000
  0
LINE
  5
F102AB
330
F102AC
100
AcDbEntity
8
Geo
100
AcDbLine
10
-34.9319459325806
20
13.9643321751667
30
0.000000000000000
11
-34.8319459325806
21
13.9471576557747
31
0.000000000000000
  0
LINE
  5
F102AD
330
F102AE
100
AcDbEntity
8
Geo
100
AcDbLine
10
-34.8319459325806
20
13.9471576557747
30
0.000000000000000
11
-34.7319459325806
21
13.9288362260618
31
0.000000000000000
  0
LINE
  5
F102AF
330
F102B0
100
AcDbEntity
8
Geo
100
AcDbLine
10
-34.7319459325806
20
13.9288362260618
30
0.000000000000000
11
-34.6319459325806
21
13.9093714692757
31
0.000000000000000
  0
LINE
  5
F102B1
330
F102B2
100
AcDbEntity
8
Geo
100
AcDbLine
10
-34.6319459325806
20
13.9093714692757
30
0.000000000000000
11
-34.5319459325806
21
13.8887671922726
31
0.000000000000000
  0
LINE
  5
F102B3
330
F102B4
100
AcDbEntity
8
Geo
100
AcDbLine
10
-34.5319459325806
20
13.8887671922726
30
0.000000000000000
11
-34.4319459325806
21
13.8670274247723
31
0.000000000000000
  0
LINE
  5
F102B5
330
F102B6
100
AcDbEntity
8
Geo
100
AcDbLine
10
-34.4319459325806
20
13.8670274247723
30
0.000000000000000
11
-34.3319459325806
21
13.8441564185706
31
0.000000000000000
  0
LINE
  5
F102B7
330
F102B8
100
AcDbEntity
8
Geo
100
AcDbLine
10
-34.3319459325806
20
13.8441564185706
30
0.000000000000000
11
-34.2319459325806
21
13.8201586467070
31
0.000000000000000
  0
LINE
  5
F102B9
330
F102BA
100
AcDbEntity
8
Geo
100
AcDbLine
10
-34.2319459325806
20
13.8201586467070
30
0.000000000000000
11
-34.1319459325806
21
13.7950388025905
31
0.000000000000000
  0
LINE
  5
F102BB
330
F102BC
100
AcDbEntity
8
Geo
100
AcDbLine
10
-34.1319459325806
20
13.7950388025905
30
0.000000000000000
11
-34.0319459325806
21
13.7688017990816
31
0.000000000000000
  0
LINE
  5
F102BD
330
F102BE
100
AcDbEntity
8
Geo
100
AcDbLine
10
-34.0319459325806
20
13.7688017990816
30
0.000000000000000
11
-33.9319459325806
21
13.7414527675312
31
0.000000000000000
  0
LINE
  5
F102BF
330
F102C0
100
AcDbEntity
8
Geo
100
AcDbLine
10
-33.9319459325806
20
13.7414527675312
30
0.000000000000000
11
-33.8319459325806
21
13.7129970567771
31
0.000000000000000
  0
LINE
  5
F102C1
330
F102C2
100
AcDbEntity
8
Geo
100
AcDbLine
10
-33.8319459325806
20
13.7129970567771
30
0.000000000000000
11
-33.7319459325806
21
13.6834402320979
31
0.000000000000000
  0
LINE
  5
F102C3
330
F102C4
100
AcDbEntity
8
Geo
100
AcDbLine
10
-33.7319459325806
20
13.6834402320979
30
0.000000000000000
11
-33.6319459325806
21
13.6527880741250
31
0.000000000000000
  0
LINE
  5
F102C5
330
F102C6
100
AcDbEntity
8
Geo
100
AcDbLine
10
-33.6319459325806
20
13.6527880741250
30
0.000000000000000
11
-33.5319459325806
21
13.6210465777111
31
0.000000000000000
  0
LINE
  5
F102C7
330
F102C8
100
AcDbEntity
8
Geo
100
AcDbLine
10
-33.5319459325806
20
13.6210465777111
30
0.000000000000000
11
-33.4319459325806
21
13.5882219507588
31
0.000000000000000
  0
LINE
  5
F102C9
330
F102CA
100
AcDbEntity
8
Geo
100
AcDbLine
10
-33.4319459325806
20
13.5882219507588
30
0.000000000000000
11
-33.3319459325806
21
13.5543206130056
31
0.000000000000000
  0
LINE
  5
F102CB
330
F102CC
100
AcDbEntity
8
Geo
100
AcDbLine
10
-33.3319459325806
20
13.5543206130056
30
0.000000000000000
11
-33.2319459325806
21
13.5193491947689
31
0.000000000000000
  0
LINE
  5
F102CD
330
F102CE
100
AcDbEntity
8
Geo
100
AcDbLine
10
-33.2319459325806
20
13.5193491947689
30
0.000000000000000
11
-33.1319459325806
21
13.4833145356491
31
0.000000000000000
  0
LINE
  5
F102CF
330
F102D0
100
AcDbEntity
8
Geo
100
AcDbLine
10
-33.1319459325806
20
13.4833145356491
30
0.000000000000000
11
-33.0319459325806
21
13.4462236831919
31
0.000000000000000
  0
LINE
  5
F102D1
330
F102D2
100
AcDbEntity
8
Geo
100
AcDbLine
10
-33.0319459325806
20
13.4462236831919
30
0.000000000000000
11
-32.9319459325806
21
13.4080838915099
31
0.000000000000000
  0
LINE
  5
F102D3
330
F102D4
100
AcDbEntity
8
Geo
100
AcDbLine
10
-32.9319459325806
20
13.4080838915099
30
0.000000000000000
11
-32.8319459325806
21
13.3689026198640
31
0.000000000000000
  0
LINE
  5
F102D5
330
F102D6
100
AcDbEntity
8
Geo
100
AcDbLine
10
-32.8319459325806
20
13.3689026198640
30
0.000000000000000
11
-32.7319459325806
21
13.3286875312045
31
0.000000000000000
  0
LINE
  5
F102D7
330
F102D8
100
AcDbEntity
8
Geo
100
AcDbLine
10
-32.7319459325806
20
13.3286875312045
30
0.000000000000000
11
-32.6319459325806
21
13.2874464906724
31
0.000000000000000
  0
LINE
  5
F102D9
330
F102DA
100
AcDbEntity
8
Geo
100
AcDbLine
10
-32.6319459325806
20
13.2874464906724
30
0.000000000000000
11
-32.5319459325806
21
13.2451875640611
31
0.000000000000000
  0
LINE
  5
F102DB
330
F102DC
100
AcDbEntity
8
Geo
100
AcDbLine
10
-32.5319459325806
20
13.2451875640611
30
0.000000000000000
11
-32.4319459325806
21
13.2019190162391
31
0.000000000000000
  0
LINE
  5
F102DD
330
F102DE
100
AcDbEntity
8
Geo
100
AcDbLine
10
-32.4319459325806
20
13.2019190162391
30
0.000000000000000
11
-32.3319459325806
21
13.1576493095333
31
0.000000000000000
  0
LINE
  5
F102DF
330
F102E0
100
AcDbEntity
8
Geo
100
AcDbLine
10
-40.3495335334685
20
14.0829143657793
30
0.000000000000000
11
-40.3319459325806
21
14.0828962171566
31
0.000000000000000
  0
LINE
  5
F102E1
330
F102E2
100
AcDbEntity
8
Geo
100
AcDbLine
10
-40.3319459325806
20
14.0828962171566
30
0.000000000000000
11
-40.2319459325806
21
14.0821031118296
31
0.000000000000000
  0
LINE
  5
F102E3
330
F102E4
100
AcDbEntity
8
Geo
100
AcDbLine
10
-40.2319459325806
20
14.0821031118296
30
0.000000000000000
11
-40.1319459325806
21
14.0801367039723
31
0.000000000000000
  0
LINE
  5
F102E5
330
F102E6
100
AcDbEntity
8
Geo
100
AcDbLine
10
-40.1319459325806
20
14.0801367039723
30
0.000000000000000
11
-40.0319459325806
21
14.0769973781687
31
0.000000000000000
  0
LINE
  5
F102E7
330
F102E8
100
AcDbEntity
8
Geo
100
AcDbLine
10
-40.0319459325806
20
14.0769973781687
30
0.000000000000000
11
-39.9319459325806
21
14.0726857483983
31
0.000000000000000
  0
LINE
  5
F102E9
330
F102EA
100
AcDbEntity
8
Geo
100
AcDbLine
10
-39.9319459325806
20
14.0726857483983
30
0.000000000000000
11
-39.8319459325806
21
14.0672026579160
31
0.000000000000000
  0
LINE
  5
F102EB
330
F102EC
100
AcDbEntity
8
Geo
100
AcDbLine
10
-39.8319459325806
20
14.0672026579160
30
0.000000000000000
11
-39.7319459325806
21
14.0605491790875
31
0.000000000000000
  0
LINE
  5
F102ED
330
F102EE
100
AcDbEntity
8
Geo
100
AcDbLine
10
-39.7319459325806
20
14.0605491790875
30
0.000000000000000
11
-39.6319459325806
21
14.0527266131794
31
0.000000000000000
  0
LINE
  5
F102EF
330
F102F0
100
AcDbEntity
8
Geo
100
AcDbLine
10
-39.6319459325806
20
14.0527266131794
30
0.000000000000000
11
-39.5319459325806
21
14.0437364901046
31
0.000000000000000
  0
LINE
  5
F102F1
330
F102F2
100
AcDbEntity
8
Geo
100
AcDbLine
10
-39.5319459325806
20
14.0437364901046
30
0.000000000000000
11
-39.4319459325806
21
14.0335805681231
31
0.000000000000000
  0
LINE
  5
F102F3
330
F102F4
100
AcDbEntity
8
Geo
100
AcDbLine
10
-39.4319459325806
20
14.0335805681231
30
0.000000000000000
11
-39.3319459325806
21
14.0222608334984
31
0.000000000000000
  0
LINE
  5
F102F5
330
F102F6
100
AcDbEntity
8
Geo
100
AcDbLine
10
-39.3319459325806
20
14.0222608334984
30
0.000000000000000
11
-39.2319459325806
21
14.0097795001087
31
0.000000000000000
  0
LINE
  5
F102F7
330
F102F8
100
AcDbEntity
8
Geo
100
AcDbLine
10
-39.2319459325806
20
14.0097795001087
30
0.000000000000000
11
-39.1319459325806
21
13.9961390090140
31
0.000000000000000
  0
LINE
  5
F102F9
330
F102FA
100
AcDbEntity
8
Geo
100
AcDbLine
10
-39.1319459325806
20
13.9961390090140
30
0.000000000000000
11
-39.0319459325806
21
13.9813420279789
31
0.000000000000000
  0
LINE
  5
F102FB
330
F102FC
100
AcDbEntity
8
Geo
100
AcDbLine
10
-39.0319459325806
20
13.9813420279789
30
0.000000000000000
11
-38.9319459325806
21
13.9653914509504
31
0.000000000000000
  0
LINE
  5
F102FD
330
F102FE
100
AcDbEntity
8
Geo
100
AcDbLine
10
-38.9319459325806
20
13.9653914509504
30
0.000000000000000
11
-38.8319459325806
21
13.9482903974925
31
0.000000000000000
  0
LINE
  5
F102FF
330
F10300
100
AcDbEntity
8
Geo
100
AcDbLine
10
-38.8319459325806
20
13.9482903974925
30
0.000000000000000
11
-38.7319459325806
21
13.9300422121756
31
0.000000000000000
  0
LINE
  5
F10301
330
F10302
100
AcDbEntity
8
Geo
100
AcDbLine
10
-38.7319459325806
20
13.9300422121756
30
0.000000000000000
11
-38.6319459325806
21
13.9106504639225
31
0.000000000000000
  0
LINE
  5
F10303
330
F10304
100
AcDbEntity
8
Geo
100
AcDbLine
10
-38.6319459325806
20
13.9106504639225
30
0.000000000000000
11
-38.5319459325806
21
13.8901189453107
31
0.000000000000000
  0
LINE
  5
F10305
330
F10306
100
AcDbEntity
8
Geo
100
AcDbLine
10
-38.5319459325806
20
13.8901189453107
30
0.000000000000000
11
-38.4319459325806
21
13.8684516718301
31
0.000000000000000
  0
LINE
  5
F10307
330
F10308
100
AcDbEntity
8
Geo
100
AcDbLine
10
-38.4319459325806
20
13.8684516718301
30
0.000000000000000
11
-38.3319459325806
21
13.8456528810982
31
0.000000000000000
  0
LINE
  5
F10309
330
F1030A
100
AcDbEntity
8
Geo
100
AcDbLine
10
-38.3319459325806
20
13.8456528810982
30
0.000000000000000
11
-38.2319459325806
21
13.8217270320310
31
0.000000000000000
  0
LINE
  5
F1030B
330
F1030C
100
AcDbEntity
8
Geo
100
AcDbLine
10
-38.2319459325806
20
13.8217270320310
30
0.000000000000000
11
-38.1319459325806
21
13.7966788039711
31
0.000000000000000
  0
LINE
  5
F1030D
330
F1030E
100
AcDbEntity
8
Geo
100
AcDbLine
10
-38.1319459325806
20
13.7966788039711
30
0.000000000000000
11
-38.0319459325806
21
13.7705130957724
31
0.000000000000000
  0
LINE
  5
F1030F
330
F10310
100
AcDbEntity
8
Geo
100
AcDbLine
10
-38.0319459325806
20
13.7705130957724
30
0.000000000000000
11
-37.9319459325806
21
13.7432350248421
31
0.000000000000000
  0
LINE
  5
F10311
330
F10312
100
AcDbEntity
8
Geo
100
AcDbLine
10
-37.9319459325806
20
13.7432350248421
30
0.000000000000000
11
-37.8319459325806
21
13.7148499261398
31
0.000000000000000
  0
LINE
  5
F10313
330
F10314
100
AcDbEntity
8
Geo
100
AcDbLine
10
-37.8319459325806
20
13.7148499261398
30
0.000000000000000
11
-37.7319459325806
21
13.6853633511342
31
0.000000000000000
  0
LINE
  5
F10315
330
F10316
100
AcDbEntity
8
Geo
100
AcDbLine
10
-37.7319459325806
20
13.6853633511342
30
0.000000000000000
11
-37.6319459325806
21
13.6547810667171
31
0.000000000000000
  0
LINE
  5
F10317
330
F10318
100
AcDbEntity
8
Geo
100
AcDbLine
10
-37.6319459325806
20
13.6547810667171
30
0.000000000000000
11
-37.5319459325806
21
13.6231090540759
31
0.000000000000000
  0
LINE
  5
F10319
330
F1031A
100
AcDbEntity
8
Geo
100
AcDbLine
10
-37.5319459325806
20
13.6231090540759
30
0.000000000000000
11
-37.4319459325806
21
13.5903535075236
31
0.000000000000000
  0
LINE
  5
F1031B
330
F1031C
100
AcDbEntity
8
Geo
100
AcDbLine
10
-37.4319459325806
20
13.5903535075236
30
0.000000000000000
11
-37.3319459325806
21
13.5565208332872
31
0.000000000000000
  0
LINE
  5
F1031D
330
F1031E
100
AcDbEntity
8
Geo
100
AcDbLine
10
-37.3319459325806
20
13.5565208332872
30
0.000000000000000
11
-37.2319459325806
21
13.5216176482551
31
0.000000000000000
  0
LINE
  5
F1031F
330
F10320
100
AcDbEntity
8
Geo
100
AcDbLine
10
-37.2319459325806
20
13.5216176482551
30
0.000000000000000
11
-37.1319459325806
21
13.4856507786829
31
0.000000000000000
  0
LINE
  5
F10321
330
F10322
100
AcDbEntity
8
Geo
100
AcDbLine
10
-37.1319459325806
20
13.4856507786829
30
0.000000000000000
11
-37.0319459325806
21
13.4486272588582
31
0.000000000000000
  0
LINE
  5
F10323
330
F10324
100
AcDbEntity
8
Geo
100
AcDbLine
10
-37.0319459325806
20
13.4486272588582
30
0.000000000000000
11
-36.9319459325806
21
13.4105543297248
31
0.000000000000000
  0
LINE
  5
F10325
330
F10326
100
AcDbEntity
8
Geo
100
AcDbLine
10
-36.9319459325806
20
13.4105543297248
30
0.000000000000000
11
-36.8319459325806
21
13.3714394374671
31
0.000000000000000
  0
LINE
  5
F10327
330
F10328
100
AcDbEntity
8
Geo
100
AcDbLine
10
-36.8319459325806
20
13.3714394374671
30
0.000000000000000
11
-36.7319459325806
21
13.3312902320529
31
0.000000000000000
  0
LINE
  5
F10329
330
F1032A
100
AcDbEntity
8
Geo
100
AcDbLine
10
-36.7319459325806
20
13.3312902320529
30
0.000000000000000
11
-36.6319459325806
21
13.2901145657380
31
0.000000000000000
  0
LINE
  5
F1032B
330
F1032C
100
AcDbEntity
8
Geo
100
AcDbLine
10
-36.6319459325806
20
13.2901145657380
30
0.000000000000000
11
-36.5319459325806
21
13.2479204915303
31
0.000000000000000
  0
LINE
  5
F1032D
330
F1032E
100
AcDbEntity
8
Geo
100
AcDbLine
10
-36.5319459325806
20
13.2479204915303
30
0.000000000000000
11
-36.4319459325806
21
13.2047162616143
31
0.000000000000000
  0
LINE
  5
F1032F
330
F10330
100
AcDbEntity
8
Geo
100
AcDbLine
10
-36.4319459325806
20
13.2047162616143
30
0.000000000000000
11
-36.3319459325806
21
13.1605103257381
31
0.000000000000000
  0
LINE
  5
F10331
330
F10332
100
AcDbEntity
8
Geo
100
AcDbLine
10
-36.3319459325806
20
13.1605103257381
30
0.000000000000000
11
-36.2319459325806
21
13.1153113295600
31
0.000000000000000
  0
LINE
  5
F10333
330
F10334
100
AcDbEntity
8
Geo
100
AcDbLine
10
-36.2319459325806
20
13.1153113295600
30
0.000000000000000
11
-36.1319459325806
21
13.0691281129580
31
0.000000000000000
  0
LINE
  5
F10335
330
F10336
100
AcDbEntity
8
Geo
100
AcDbLine
10
-36.1319459325806
20
13.0691281129580
30
0.000000000000000
11
-36.0319459325806
21
13.0219697083008
31
0.000000000000000
  0
LINE
  5
F10337
330
F10338
100
AcDbEntity
8
Geo
100
AcDbLine
10
-36.0319459325806
20
13.0219697083008
30
0.000000000000000
11
-35.9319459325806
21
12.9738453386813
31
0.000000000000000
  0
LINE
  5
F10339
330
F1033A
100
AcDbEntity
8
Geo
100
AcDbLine
10
-35.9319459325806
20
12.9738453386813
30
0.000000000000000
11
-35.8319459325806
21
12.9247644161131
31
0.000000000000000
  0
LINE
  5
F1033B
330
F1033C
100
AcDbEntity
8
Geo
100
AcDbLine
10
-35.8319459325806
20
12.9247644161131
30
0.000000000000000
11
-35.7319459325806
21
12.8747365396889
31
0.000000000000000
  0
LINE
  5
F1033D
330
F1033E
100
AcDbEntity
8
Geo
100
AcDbLine
10
-35.7319459325806
20
12.8747365396889
30
0.000000000000000
11
-35.6319459325806
21
12.8237714937042
31
0.000000000000000
  0
LINE
  5
F1033F
330
F10340
100
AcDbEntity
8
Geo
100
AcDbLine
10
-35.6319459325806
20
12.8237714937042
30
0.000000000000000
11
-35.5319459325806
21
12.7718792457427
31
0.000000000000000
  0
LINE
  5
F10341
330
F10342
100
AcDbEntity
8
Geo
100
AcDbLine
10
-35.5319459325806
20
12.7718792457427
30
0.000000000000000
11
-35.4319459325806
21
12.7190699447279
31
0.000000000000000
  0
LINE
  5
F10343
330
F10344
100
AcDbEntity
8
Geo
100
AcDbLine
10
-35.4319459325806
20
12.7190699447279
30
0.000000000000000
11
-35.3319459325806
21
12.6653539189371
31
0.000000000000000
  0
LINE
  5
F10345
330
F10346
100
AcDbEntity
8
Geo
100
AcDbLine
10
-35.3319459325806
20
12.6653539189371
30
0.000000000000000
11
-35.2319459325806
21
12.6107416739823
31
0.000000000000000
  0
LINE
  5
F10347
330
F10348
100
AcDbEntity
8
Geo
100
AcDbLine
10
-35.2319459325806
20
12.6107416739823
30
0.000000000000000
11
-35.1319459325806
21
12.5552438907553
31
0.000000000000000
  0
LINE
  5
F10349
330
F1034A
100
AcDbEntity
8
Geo
100
AcDbLine
10
-35.1319459325806
20
12.5552438907553
30
0.000000000000000
11
-35.0319459325806
21
12.4988714233385
31
0.000000000000000
  0
LINE
  5
F1034B
330
F1034C
100
AcDbEntity
8
Geo
100
AcDbLine
10
-35.0319459325806
20
12.4988714233385
30
0.000000000000000
11
-34.9319459325806
21
12.4416352968824
31
0.000000000000000
  0
LINE
  5
F1034D
330
F1034E
100
AcDbEntity
8
Geo
100
AcDbLine
10
-34.9319459325806
20
12.4416352968824
30
0.000000000000000
11
-34.8319459325806
21
12.3835467054491
31
0.000000000000000
  0
LINE
  5
F1034F
330
F10350
100
AcDbEntity
8
Geo
100
AcDbLine
10
-34.8319459325806
20
12.3835467054491
30
0.000000000000000
11
-34.7319459325806
21
12.3246170098234
31
0.000000000000000
  0
LINE
  5
F10351
330
F10352
100
AcDbEntity
8
Geo
100
AcDbLine
10
-34.7319459325806
20
12.3246170098234
30
0.000000000000000
11
-34.6319459325806
21
12.2648577352904
31
0.000000000000000
  0
LINE
  5
F10353
330
F10354
100
AcDbEntity
8
Geo
100
AcDbLine
10
-34.6319459325806
20
12.2648577352904
30
0.000000000000000
11
-34.5319459325806
21
12.2042805693816
31
0.000000000000000
  0
LINE
  5
F10355
330
F10356
100
AcDbEntity
8
Geo
100
AcDbLine
10
-34.5319459325806
20
12.2042805693816
30
0.000000000000000
11
-34.4319459325806
21
12.1428973595893
31
0.000000000000000
  0
LINE
  5
F10357
330
F10358
100
AcDbEntity
8
Geo
100
AcDbLine
10
-34.4319459325806
20
12.1428973595893
30
0.000000000000000
11
-34.3319459325806
21
12.0807201110493
31
0.000000000000000
  0
LINE
  5
F10359
330
F1035A
100
AcDbEntity
8
Geo
100
AcDbLine
10
-34.3319459325806
20
12.0807201110493
30
0.000000000000000
11
-34.2319459325806
21
12.0177609841929
31
0.000000000000000
  0
LINE
  5
F1035B
330
F1035C
100
AcDbEntity
8
Geo
100
AcDbLine
10
-34.2319459325806
20
12.0177609841929
30
0.000000000000000
11
-34.1319459325806
21
11.9540322923688
31
0.000000000000000
  0
LINE
  5
F1035D
330
F1035E
100
AcDbEntity
8
Geo
100
AcDbLine
10
-34.1319459325806
20
11.9540322923688
30
0.000000000000000
11
-34.0319459325806
21
11.8895464994348
31
0.000000000000000
  0
LINE
  5
F1035F
330
F10360
100
AcDbEntity
8
Geo
100
AcDbLine
10
-34.0319459325806
20
11.8895464994348
30
0.000000000000000
11
-33.9319459325806
21
11.8243162173201
31
0.000000000000000
  0
LINE
  5
F10361
330
F10362
100
AcDbEntity
8
Geo
100
AcDbLine
10
-33.9319459325806
20
11.8243162173201
30
0.000000000000000
11
-33.8319459325806
21
11.7583542035589
31
0.000000000000000
  0
LINE
  5
F10363
330
F10364
100
AcDbEntity
8
Geo
100
AcDbLine
10
-33.8319459325806
20
11.7583542035589
30
0.000000000000000
11
-33.7319459325806
21
11.6916733587951
31
0.000000000000000
  0
LINE
  5
F10365
330
F10366
100
AcDbEntity
8
Geo
100
AcDbLine
10
-33.7319459325806
20
11.6916733587951
30
0.000000000000000
11
-33.6319459325806
21
11.6242867242592
31
0.000000000000000
  0
LINE
  5
F10367
330
F10368
100
AcDbEntity
8
Geo
100
AcDbLine
10
-33.6319459325806
20
11.6242867242592
30
0.000000000000000
11
-33.5319459325806
21
11.5562074792180
31
0.000000000000000
  0
LINE
  5
F10369
330
F1036A
100
AcDbEntity
8
Geo
100
AcDbLine
10
-33.5319459325806
20
11.5562074792180
30
0.000000000000000
11
-33.4319459325806
21
11.4874489383969
31
0.000000000000000
  0
LINE
  5
F1036B
330
F1036C
100
AcDbEntity
8
Geo
100
AcDbLine
10
-33.4319459325806
20
11.4874489383969
30
0.000000000000000
11
-33.3319459325806
21
11.4180245493757
31
0.000000000000000
  0
LINE
  5
F1036D
330
F1036E
100
AcDbEntity
8
Geo
100
AcDbLine
10
-33.3319459325806
20
11.4180245493757
30
0.000000000000000
11
-33.2319459325806
21
11.3479478899589
31
0.000000000000000
  0
LINE
  5
F1036F
330
F10370
100
AcDbEntity
8
Geo
100
AcDbLine
10
-33.2319459325806
20
11.3479478899589
30
0.000000000000000
11
-33.1319459325806
21
11.2772326655198
31
0.000000000000000
  0
LINE
  5
F10371
330
F10372
100
AcDbEntity
8
Geo
100
AcDbLine
10
-33.1319459325806
20
11.2772326655198
30
0.000000000000000
11
-33.0319459325806
21
11.2058927063203
31
0.000000000000000
  0
LINE
  5
F10373
330
F10374
100
AcDbEntity
8
Geo
100
AcDbLine
10
-33.0319459325806
20
11.2058927063203
30
0.000000000000000
11
-32.9319459325806
21
11.1339419648061
31
0.000000000000000
  0
LINE
  5
F10375
330
F10376
100
AcDbEntity
8
Geo
100
AcDbLine
10
-32.9319459325806
20
11.1339419648061
30
0.000000000000000
11
-32.8319459325806
21
11.0613945128777
31
0.000000000000000
  0
LINE
  5
F10377
330
F10378
100
AcDbEntity
8
Geo
100
AcDbLine
10
-32.8319459325806
20
11.0613945128777
30
0.000000000000000
11
-32.7319459325806
21
10.9882645391382
31
0.000000000000000
  0
LINE
  5
F10379
330
F1037A
100
AcDbEntity
8
Geo
100
AcDbLine
10
-32.7319459325806
20
10.9882645391382
30
0.000000000000000
11
-32.6319459325806
21
10.9145663461188
31
0.000000000000000
  0
LINE
  5
F1037B
330
F1037C
100
AcDbEntity
8
Geo
100
AcDbLine
10
-32.6319459325806
20
10.9145663461188
30
0.000000000000000
11
-32.5319459325806
21
10.8403143474810
31
0.000000000000000
  0
LINE
  5
F1037D
330
F1037E
100
AcDbEntity
8
Geo
100
AcDbLine
10
-32.5319459325806
20
10.8403143474810
30
0.000000000000000
11
-32.4319459325806
21
10.7655230651980
31
0.000000000000000
  0
LINE
  5
F1037F
330
F10380
100
AcDbEntity
8
Geo
100
AcDbLine
10
-32.4319459325806
20
10.7655230651980
30
0.000000000000000
11
-32.3319459325806
21
10.6902071267143
31
0.000000000000000
  0
LINE
  5
F10381
330
F10382
100
AcDbEntity
8
Geo
100
AcDbLine
10
-51.3319459325806
20
12.7039714852971
30
0.000000000000000
11
-51.2319459325806
21
12.7771548558940
31
0.000000000000000
  0
LINE
  5
F10383
330
F10384
100
AcDbEntity
8
Geo
100
AcDbLine
10
-51.2319459325806
20
12.7771548558940
30
0.000000000000000
11
-51.1319459325805
21
12.8484693656403
31
0.000000000000000
  0
LINE
  5
F10385
330
F10386
100
AcDbEntity
8
Geo
100
AcDbLine
10
-51.1319459325805
20
12.8484693656403
30
0.000000000000000
11
-51.0319459325806
21
12.9179117355885
31
0.000000000000000
  0
LINE
  5
F10387
330
F10388
100
AcDbEntity
8
Geo
100
AcDbLine
10
-51.0319459325806
20
12.9179117355885
30
0.000000000000000
11
-50.9319459325806
21
12.9854744017973
31
0.000000000000000
  0
LINE
  5
F10389
330
F1038A
100
AcDbEntity
8
Geo
100
AcDbLine
10
-50.9319459325806
20
12.9854744017973
30
0.000000000000000
11
-50.8319459325806
21
12.9366220182210
31
0.000000000000000
  0
LINE
  5
F1038B
330
F1038C
100
AcDbEntity
8
Geo
100
AcDbLine
10
-50.8319459325806
20
12.9366220182210
30
0.000000000000000
11
-50.7319459325806
21
12.8868203617161
31
0.000000000000000
  0
LINE
  5
F1038D
330
F1038E
100
AcDbEntity
8
Geo
100
AcDbLine
10
-50.7319459325806
20
12.8868203617161
30
0.000000000000000
11
-50.6319459325805
21
12.8360791723346
31
0.000000000000000
  0
LINE
  5
F1038F
330
F10390
100
AcDbEntity
8
Geo
100
AcDbLine
10
-50.6319459325805
20
12.8360791723346
30
0.000000000000000
11
-50.5319459325806
21
12.7844083738792
31
0.000000000000000
  0
LINE
  5
F10391
330
F10392
100
AcDbEntity
8
Geo
100
AcDbLine
10
-50.5319459325806
20
12.7844083738792
30
0.000000000000000
11
-50.4319459325806
21
12.7318180719628
31
0.000000000000000
  0
LINE
  5
F10393
330
F10394
100
AcDbEntity
8
Geo
100
AcDbLine
10
-50.4319459325806
20
12.7318180719628
30
0.000000000000000
11
-50.3319459325806
21
12.6783185520316
31
0.000000000000000
  0
LINE
  5
F10395
330
F10396
100
AcDbEntity
8
Geo
100
AcDbLine
10
-50.3319459325806
20
12.6783185520316
30
0.000000000000000
11
-50.2319459325806
21
12.6239202773542
31
0.000000000000000
  0
LINE
  5
F10397
330
F10398
100
AcDbEntity
8
Geo
100
AcDbLine
10
-50.2319459325806
20
12.6239202773542
30
0.000000000000000
11
-50.1319459325805
21
12.5686338869746
31
0.000000000000000
  0
LINE
  5
F10399
330
F1039A
100
AcDbEntity
8
Geo
100
AcDbLine
10
-50.1319459325805
20
12.5686338869746
30
0.000000000000000
11
-50.0319459325806
21
12.5124701936318
31
0.000000000000000
  0
LINE
  5
F1039B
330
F1039C
100
AcDbEntity
8
Geo
100
AcDbLine
10
-50.0319459325806
20
12.5124701936318
30
0.000000000000000
11
-49.9319459325806
21
12.4554401816447
31
0.000000000000000
  0
LINE
  5
F1039D
330
F1039E
100
AcDbEntity
8
Geo
100
AcDbLine
10
-49.9319459325806
20
12.4554401816447
30
0.000000000000000
11
-49.8319459325806
21
12.3975550047644
31
0.000000000000000
  0
LINE
  5
F1039F
330
F103A0
100
AcDbEntity
8
Geo
100
AcDbLine
10
-49.8319459325806
20
12.3975550047644
30
0.000000000000000
11
-49.7319459325806
21
12.3388259839924
31
0.000000000000000
  0
LINE
  5
F103A1
330
F103A2
100
AcDbEntity
8
Geo
100
AcDbLine
10
-49.7319459325806
20
12.3388259839924
30
0.000000000000000
11
-49.6319459325805
21
12.2792646053664
31
0.000000000000000
  0
LINE
  5
F103A3
330
F103A4
100
AcDbEntity
8
Geo
100
AcDbLine
10
-49.6319459325805
20
12.2792646053664
30
0.000000000000000
11
-49.5319459325806
21
12.2188825177142
31
0.000000000000000
  0
LINE
  5
F103A5
330
F103A6
100
AcDbEntity
8
Geo
100
AcDbLine
10
-49.5319459325806
20
12.2188825177142
30
0.000000000000000
11
-49.4319459325806
21
12.1576915303752
31
0.000000000000000
  0
LINE
  5
F103A7
330
F103A8
100
AcDbEntity
8
Geo
100
AcDbLine
10
-49.4319459325806
20
12.1576915303752
30
0.000000000000000
11
-49.3319459325806
21
12.0957036108910
31
0.000000000000000
  0
LINE
  5
F103A9
330
F103AA
100
AcDbEntity
8
Geo
100
AcDbLine
10
-49.3319459325806
20
12.0957036108910
30
0.000000000000000
11
-49.2319459325806
21
12.0329308826644
31
0.000000000000000
  0
LINE
  5
F103AB
330
F103AC
100
AcDbEntity
8
Geo
100
AcDbLine
10
-49.2319459325806
20
12.0329308826644
30
0.000000000000000
11
-49.1319459325805
21
11.9693856225889
31
0.000000000000000
  0
LINE
  5
F103AD
330
F103AE
100
AcDbEntity
8
Geo
100
AcDbLine
10
-49.1319459325805
20
11.9693856225889
30
0.000000000000000
11
-49.0319459325806
21
11.9050802586474
31
0.000000000000000
  0
LINE
  5
F103AF
330
F103B0
100
AcDbEntity
8
Geo
100
AcDbLine
10
-49.0319459325806
20
11.9050802586474
30
0.000000000000000
11
-48.9319459325806
21
11.8400273674812
31
0.000000000000000
  0
LINE
  5
F103B1
330
F103B2
100
AcDbEntity
8
Geo
100
AcDbLine
10
-48.9319459325806
20
11.8400273674812
30
0.000000000000000
11
-48.8319459325806
21
11.7742396719310
31
0.000000000000000
  0
LINE
  5
F103B3
330
F103B4
100
AcDbEntity
8
Geo
100
AcDbLine
10
-48.8319459325806
20
11.7742396719310
30
0.000000000000000
11
-48.7319459325806
21
11.7077300385480
31
0.000000000000000
  0
LINE
  5
F103B5
330
F103B6
100
AcDbEntity
8
Geo
100
AcDbLine
10
-48.7319459325806
20
11.7077300385480
30
0.000000000000000
11
-48.6319459325805
21
11.6405114750779
31
0.000000000000000
  0
LINE
  5
F103B7
330
F103B8
100
AcDbEntity
8
Geo
100
AcDbLine
10
-48.6319459325805
20
11.6405114750779
30
0.000000000000000
11
-48.5319459325805
21
11.5725971279166
31
0.000000000000000
  0
LINE
  5
F103B9
330
F103BA
100
AcDbEntity
8
Geo
100
AcDbLine
10
-48.5319459325805
20
11.5725971279166
30
0.000000000000000
11
-48.4319459325806
21
11.5040002795393
31
0.000000000000000
  0
LINE
  5
F103BB
330
F103BC
100
AcDbEntity
8
Geo
100
AcDbLine
10
-48.4319459325806
20
11.5040002795393
30
0.000000000000000
11
-48.3319459325806
21
11.4347343459024
31
0.000000000000000
  0
LINE
  5
F103BD
330
F103BE
100
AcDbEntity
8
Geo
100
AcDbLine
10
-48.3319459325806
20
11.4347343459024
30
0.000000000000000
11
-48.2319459325806
21
11.3648128738203
31
0.000000000000000
  0
LINE
  5
F103BF
330
F103C0
100
AcDbEntity
8
Geo
100
AcDbLine
10
-48.2319459325806
20
11.3648128738203
30
0.000000000000000
11
-48.1319459325805
21
11.2942495383152
31
0.000000000000000
  0
LINE
  5
F103C1
330
F103C2
100
AcDbEntity
8
Geo
100
AcDbLine
10
-48.1319459325805
20
11.2942495383152
30
0.000000000000000
11
-48.0319459325805
21
11.2230581399431
31
0.000000000000000
  0
LINE
  5
F103C3
330
F103C4
100
AcDbEntity
8
Geo
100
AcDbLine
10
-48.0319459325805
20
11.2230581399431
30
0.000000000000000
11
-47.9319459325806
21
11.1512526020946
31
0.000000000000000
  0
LINE
  5
F103C5
330
F103C6
100
AcDbEntity
8
Geo
100
AcDbLine
10
-47.9319459325806
20
11.1512526020946
30
0.000000000000000
11
-47.8319459325806
21
11.0788469682717
31
0.000000000000000
  0
LINE
  5
F103C7
330
F103C8
100
AcDbEntity
8
Geo
100
AcDbLine
10
-47.8319459325806
20
11.0788469682717
30
0.000000000000000
11
-47.7319459325806
21
11.0058553993412
31
0.000000000000000
  0
LINE
  5
F103C9
330
F103CA
100
AcDbEntity
8
Geo
100
AcDbLine
10
-47.7319459325806
20
11.0058553993412
30
0.000000000000000
11
-47.6319459325805
21
10.9322921707655
31
0.000000000000000
  0
LINE
  5
F103CB
330
F103CC
100
AcDbEntity
8
Geo
100
AcDbLine
10
-47.6319459325805
20
10.9322921707655
30
0.000000000000000
11
-47.5319459325805
21
10.8581716698102
31
0.000000000000000
  0
LINE
  5
F103CD
330
F103CE
100
AcDbEntity
8
Geo
100
AcDbLine
10
-47.5319459325805
20
10.8581716698102
30
0.000000000000000
11
-47.4319459325805
21
10.7835083927305
31
0.000000000000000
  0
LINE
  5
F103CF
330
F103D0
100
AcDbEntity
8
Geo
100
AcDbLine
10
-47.4319459325805
20
10.7835083927305
30
0.000000000000000
11
-47.3319459325806
21
10.7083169419362
31
0.000000000000000
  0
LINE
  5
F103D1
330
F103D2
100
AcDbEntity
8
Geo
100
AcDbLine
10
-47.3319459325806
20
10.7083169419362
30
0.000000000000000
11
-47.2319459325806
21
10.6326120231354
31
0.000000000000000
  0
LINE
  5
F103D3
330
F103D4
100
AcDbEntity
8
Geo
100
AcDbLine
10
-47.2319459325806
20
10.6326120231354
30
0.000000000000000
11
-47.1319459325805
21
10.5564084424589
31
0.000000000000000
  0
LINE
  5
F103D5
330
F103D6
100
AcDbEntity
8
Geo
100
AcDbLine
10
-47.1319459325805
20
10.5564084424589
30
0.000000000000000
11
-47.0319459325806
21
10.4797211035642
31
0.000000000000000
  0
LINE
  5
F103D7
330
F103D8
100
AcDbEntity
8
Geo
100
AcDbLine
10
-47.0319459325806
20
10.4797211035642
30
0.000000000000000
11
-46.9319459325806
21
10.4025650047207
31
0.000000000000000
  0
LINE
  5
F103D9
330
F103DA
100
AcDbEntity
8
Geo
100
AcDbLine
10
-46.9319459325806
20
10.4025650047207
30
0.000000000000000
11
-46.8319459325806
21
10.3249552358761
31
0.000000000000000
  0
LINE
  5
F103DB
330
F103DC
100
AcDbEntity
8
Geo
100
AcDbLine
10
-46.8319459325806
20
10.3249552358761
30
0.000000000000000
11
-46.7319459325806
21
10.2469069757060
31
0.000000000000000
  0
LINE
  5
F103DD
330
F103DE
100
AcDbEntity
8
Geo
100
AcDbLine
10
-46.7319459325806
20
10.2469069757060
30
0.000000000000000
11
-46.6319459325805
21
10.1684354886444
31
0.000000000000000
  0
LINE
  5
F103DF
330
F103E0
100
AcDbEntity
8
Geo
100
AcDbLine
10
-46.6319459325805
20
10.1684354886444
30
0.000000000000000
11
-46.5319459325806
21
10.0895561218987
31
0.000000000000000
  0
LINE
  5
F103E1
330
F103E2
100
AcDbEntity
8
Geo
100
AcDbLine
10
-46.5319459325806
20
10.0895561218987
30
0.000000000000000
11
-46.4319459325806
21
10.0102843024483
31
0.000000000000000
  0
LINE
  5
F103E3
330
F103E4
100
AcDbEntity
8
Geo
100
AcDbLine
10
-46.4319459325806
20
10.0102843024483
30
0.000000000000000
11
-46.3319459325806
21
9.93063553402702
31
0.000000000000000
  0
LINE
  5
F103E5
330
F103E6
100
AcDbEntity
8
Geo
100
AcDbLine
10
-46.3319459325806
20
9.93063553402702
30
0.000000000000000
11
-46.2319459325806
21
9.85062539409146
31
0.000000000000000
  0
LINE
  5
F103E7
330
F103E8
100
AcDbEntity
8
Geo
100
AcDbLine
10
-46.2319459325806
20
9.85062539409146
30
0.000000000000000
11
-46.1319459325806
21
9.77026953077393
31
0.000000000000000
  0
LINE
  5
F103E9
330
F103EA
100
AcDbEntity
8
Geo
100
AcDbLine
10
-46.1319459325806
20
9.77026953077393
30
0.000000000000000
11
-46.0319459325806
21
9.68958365982233
31
0.000000000000000
  0
LINE
  5
F103EB
330
F103EC
100
AcDbEntity
8
Geo
100
AcDbLine
10
-46.0319459325806
20
9.68958365982233
30
0.000000000000000
11
-45.9319459325806
21
9.60858356152636
31
0.000000000000000
  0
LINE
  5
F103ED
330
F103EE
100
AcDbEntity
8
Geo
100
AcDbLine
10
-45.9319459325806
20
9.60858356152636
30
0.000000000000000
11
-45.8319459325806
21
9.52728507763137
31
0.000000000000000
  0
LINE
  5
F103EF
330
F103F0
100
AcDbEntity
8
Geo
100
AcDbLine
10
-45.8319459325806
20
9.52728507763137
30
0.000000000000000
11
-45.7319459325806
21
9.44570410823999
31
0.000000000000000
  0
LINE
  5
F103F1
330
F103F2
100
AcDbEntity
8
Geo
100
AcDbLine
10
-45.7319459325806
20
9.44570410823999
30
0.000000000000000
11
-45.6319459325806
21
9.36385660870251
31
0.000000000000000
  0
LINE
  5
F103F3
330
F103F4
100
AcDbEntity
8
Geo
100
AcDbLine
10
-45.6319459325806
20
9.36385660870251
30
0.000000000000000
11
-45.5319459325806
21
9.28175858649632
31
0.000000000000000
  0
LINE
  5
F103F5
330
F103F6
100
AcDbEntity
8
Geo
100
AcDbLine
10
-45.5319459325806
20
9.28175858649632
30
0.000000000000000
11
-45.4319459325806
21
9.19942609809527
31
0.000000000000000
  0
LINE
  5
F103F7
330
F103F8
100
AcDbEntity
8
Geo
100
AcDbLine
10
-45.4319459325806
20
9.19942609809527
30
0.000000000000000
11
-45.3319459325806
21
9.11687524582936
31
0.000000000000000
  0
LINE
  5
F103F9
330
F103FA
100
AcDbEntity
8
Geo
100
AcDbLine
10
-45.3319459325806
20
9.11687524582936
30
0.000000000000000
11
-45.2319459325806
21
9.03412217473553
31
0.000000000000000
  0
LINE
  5
F103FB
330
F103FC
100
AcDbEntity
8
Geo
100
AcDbLine
10
-45.2319459325806
20
9.03412217473553
30
0.000000000000000
11
-45.1319459325806
21
8.95118306940003
31
0.000000000000000
  0
LINE
  5
F103FD
330
F103FE
100
AcDbEntity
8
Geo
100
AcDbLine
10
-45.1319459325806
20
8.95118306940003
30
0.000000000000000
11
-45.0319459325806
21
8.86807415079309
31
0.000000000000000
  0
LINE
  5
F103FF
330
F10400
100
AcDbEntity
8
Geo
100
AcDbLine
10
-45.0319459325806
20
8.86807415079309
30
0.000000000000000
11
-44.9319459325806
21
8.78481167309652
31
0.000000000000000
  0
LINE
  5
F10401
330
F10402
100
AcDbEntity
8
Geo
100
AcDbLine
10
-44.9319459325806
20
8.78481167309652
30
0.000000000000000
11
-44.8319459325806
21
8.70141192052471
31
0.000000000000000
  0
LINE
  5
F10403
330
F10404
100
AcDbEntity
8
Geo
100
AcDbLine
10
-44.8319459325806
20
8.70141192052471
30
0.000000000000000
11
-44.7319459325806
21
8.61789120413985
31
0.000000000000000
  0
LINE
  5
F10405
330
F10406
100
AcDbEntity
8
Geo
100
AcDbLine
10
-44.7319459325806
20
8.61789120413985
30
0.000000000000000
11
-44.6319459325806
21
8.53426585866185
31
0.000000000000000
  0
LINE
  5
F10407
330
F10408
100
AcDbEntity
8
Geo
100
AcDbLine
10
-44.6319459325806
20
8.53426585866185
30
0.000000000000000
11
-44.5319459325806
21
8.45055223927365
31
0.000000000000000
  0
LINE
  5
F10409
330
F1040A
100
AcDbEntity
8
Geo
100
AcDbLine
10
-44.5319459325806
20
8.45055223927365
30
0.000000000000000
11
-44.4319459325806
21
8.36676671842253
31
0.000000000000000
  0
LINE
  5
F1040B
330
F1040C
100
AcDbEntity
8
Geo
100
AcDbLine
10
-44.4319459325806
20
8.36676671842253
30
0.000000000000000
11
-44.3319459325806
21
8.28292568261803
31
0.000000000000000
  0
LINE
  5
F1040D
330
F1040E
100
AcDbEntity
8
Geo
100
AcDbLine
10
-44.3319459325806
20
8.28292568261803
30
0.000000000000000
11
-44.2319459325806
21
8.19904552922712
31
0.000000000000000
  0
LINE
  5
F1040F
330
F10410
100
AcDbEntity
8
Geo
100
AcDbLine
10
-44.2319459325806
20
8.19904552922712
30
0.000000000000000
11
-44.1319459325806
21
8.11514266326729
31
0.000000000000000
  0
LINE
  5
F10411
330
F10412
100
AcDbEntity
8
Geo
100
AcDbLine
10
-44.1319459325806
20
8.11514266326729
30
0.000000000000000
11
-44.0319459325806
21
8.03123349419805
31
0.000000000000000
  0
LINE
  5
F10413
330
F10414
100
AcDbEntity
8
Geo
100
AcDbLine
10
-44.0319459325806
20
8.03123349419805
30
0.000000000000000
11
-43.9319459325806
21
7.94733443271168
31
0.000000000000000
  0
LINE
  5
F10415
330
F10416
100
AcDbEntity
8
Geo
100
AcDbLine
10
-43.9319459325806
20
7.94733443271168
30
0.000000000000000
11
-43.8319459325806
21
7.86346188752364
31
0.000000000000000
  0
LINE
  5
F10417
330
F10418
100
AcDbEntity
8
Geo
100
AcDbLine
10
-43.8319459325806
20
7.86346188752364
30
0.000000000000000
11
-43.7319459325806
21
7.77963226216341
31
0.000000000000000
  0
LINE
  5
F10419
330
F1041A
100
AcDbEntity
8
Geo
100
AcDbLine
10
-43.7319459325806
20
7.77963226216341
30
0.000000000000000
11
-43.6319459325806
21
7.69586195176636
31
0.000000000000000
  0
LINE
  5
F1041B
330
F1041C
100
AcDbEntity
8
Geo
100
AcDbLine
10
-43.6319459325806
20
7.69586195176636
30
0.000000000000000
11
-43.5319459325806
21
7.61216733986721
31
0.000000000000000
  0
LINE
  5
F1041D
330
F1041E
100
AcDbEntity
8
Geo
100
AcDbLine
10
-43.5319459325806
20
7.61216733986721
30
0.000000000000000
11
-43.4319459325806
21
7.52856479519581
31
0.000000000000000
  0
LINE
  5
F1041F
330
F10420
100
AcDbEntity
8
Geo
100
AcDbLine
10
-43.4319459325806
20
7.52856479519581
30
0.000000000000000
11
-43.3319459325806
21
7.44507066847579
31
0.000000000000000
  0
LINE
  5
F10421
330
F10422
100
AcDbEntity
8
Geo
100
AcDbLine
10
-43.3319459325806
20
7.44507066847579
30
0.000000000000000
11
-43.2319459325806
21
7.36170128922674
31
0.000000000000000
  0
LINE
  5
F10423
330
F10424
100
AcDbEntity
8
Geo
100
AcDbLine
10
-43.2319459325806
20
7.36170128922674
30
0.000000000000000
11
-43.1319459325806
21
7.27847296257054
31
0.000000000000000
  0
LINE
  5
F10425
330
F10426
100
AcDbEntity
8
Geo
100
AcDbLine
10
-43.1319459325806
20
7.27847296257054
30
0.000000000000000
11
-43.0319459325806
21
7.19540196604242
31
0.000000000000000
  0
LINE
  5
F10427
330
F10428
100
AcDbEntity
8
Geo
100
AcDbLine
10
-43.0319459325806
20
7.19540196604242
30
0.000000000000000
11
-42.9319459325806
21
7.11250454640749
31
0.000000000000000
  0
LINE
  5
F10429
330
F1042A
100
AcDbEntity
8
Geo
100
AcDbLine
10
-42.9319459325806
20
7.11250454640749
30
0.000000000000000
11
-42.8319459325806
21
7.02979691648325
31
0.000000000000000
  0
LINE
  5
F1042B
330
F1042C
100
AcDbEntity
8
Geo
100
AcDbLine
10
-42.8319459325806
20
7.02979691648325
30
0.000000000000000
11
-42.7319459325806
21
6.94729525196869
31
0.000000000000000
  0
LINE
  5
F1042D
330
F1042E
100
AcDbEntity
8
Geo
100
AcDbLine
10
-42.7319459325806
20
6.94729525196869
30
0.000000000000000
11
-42.6319459325806
21
6.86501568828078
31
0.000000000000000
  0
LINE
  5
F1042F
330
F10430
100
AcDbEntity
8
Geo
100
AcDbLine
10
-42.6319459325806
20
6.86501568828078
30
0.000000000000000
11
-42.5319459325806
21
6.78297431739865
31
0.000000000000000
  0
LINE
  5
F10431
330
F10432
100
AcDbEntity
8
Geo
100
AcDbLine
10
-42.5319459325806
20
6.78297431739865
30
0.000000000000000
11
-42.4319459325806
21
6.70118718471647
31
0.000000000000000
  0
LINE
  5
F10433
330
F10434
100
AcDbEntity
8
Geo
100
AcDbLine
10
-42.4319459325806
20
6.70118718471647
30
0.000000000000000
11
-42.3319459325806
21
6.61967028590528
31
0.000000000000000
  0
LINE
  5
F10435
330
F10436
100
AcDbEntity
8
Geo
100
AcDbLine
10
-42.3319459325806
20
6.61967028590528
30
0.000000000000000
11
-42.2319459325806
21
6.53843956378463
31
0.000000000000000
  0
LINE
  5
F10437
330
F10438
100
AcDbEntity
8
Geo
100
AcDbLine
10
-42.2319459325806
20
6.53843956378463
30
0.000000000000000
11
-42.1319459325806
21
6.45751090520454
31
0.000000000000000
  0
LINE
  5
F10439
330
F1043A
100
AcDbEntity
8
Geo
100
AcDbLine
10
-42.1319459325806
20
6.45751090520454
30
0.000000000000000
11
-42.0319459325806
21
6.37690013793836
31
0.000000000000000
  0
LINE
  5
F1043B
330
F1043C
100
AcDbEntity
8
Geo
100
AcDbLine
10
-42.0319459325806
20
6.37690013793836
30
0.000000000000000
11
-41.9319459325806
21
6.29662302758730
31
0.000000000000000
  0
LINE
  5
F1043D
330
F1043E
100
AcDbEntity
8
Geo
100
AcDbLine
10
-41.9319459325806
20
6.29662302758730
30
0.000000000000000
11
-41.8319459325806
21
6.21669527449696
31
0.000000000000000
  0
LINE
  5
F1043F
330
F10440
100
AcDbEntity
8
Geo
100
AcDbLine
10
-41.8319459325806
20
6.21669527449696
30
0.000000000000000
11
-41.7319459325806
21
6.13713251068675
31
0.000000000000000
  0
LINE
  5
F10441
330
F10442
100
AcDbEntity
8
Geo
100
AcDbLine
10
-41.7319459325806
20
6.13713251068675
30
0.000000000000000
11
-41.6319459325806
21
6.05795029679262
31
0.000000000000000
  0
LINE
  5
F10443
330
F10444
100
AcDbEntity
8
Geo
100
AcDbLine
10
-41.6319459325806
20
6.05795029679262
30
0.000000000000000
11
-41.5319459325806
21
5.97916411902377
31
0.000000000000000
  0
LINE
  5
F10445
330
F10446
100
AcDbEntity
8
Geo
100
AcDbLine
10
-41.5319459325806
20
5.97916411902377
30
0.000000000000000
11
-41.4319459325806
21
5.90078938613389
31
0.000000000000000
  0
LINE
  5
F10447
330
F10448
100
AcDbEntity
8
Geo
100
AcDbLine
10
-41.4319459325806
20
5.90078938613389
30
0.000000000000000
11
-41.3319459325806
21
5.82284142640756
31
0.000000000000000
  0
LINE
  5
F10449
330
F1044A
100
AcDbEntity
8
Geo
100
AcDbLine
10
-41.3319459325806
20
5.82284142640756
30
0.000000000000000
11
-41.2319459325806
21
5.74533548466242
31
0.000000000000000
  0
LINE
  5
F1044B
330
F1044C
100
AcDbEntity
8
Geo
100
AcDbLine
10
-41.2319459325806
20
5.74533548466242
30
0.000000000000000
11
-41.1319459325806
21
5.66828671926762
31
0.000000000000000
  0
LINE
  5
F1044D
330
F1044E
100
AcDbEntity
8
Geo
100
AcDbLine
10
-41.1319459325806
20
5.66828671926762
30
0.000000000000000
11
-41.0319459325806
21
5.59171019917916
31
0.000000000000000
  0
LINE
  5
F1044F
330
F10450
100
AcDbEntity
8
Geo
100
AcDbLine
10
-41.0319459325806
20
5.59171019917916
30
0.000000000000000
11
-40.9319459325806
21
5.51562090099283
31
0.000000000000000
  0
LINE
  5
F10451
330
F10452
100
AcDbEntity
8
Geo
100
AcDbLine
10
-40.9319459325806
20
5.51562090099283
30
0.000000000000000
11
-40.8319459325806
21
5.44003370601505
31
0.000000000000000
  0
LINE
  5
F10453
330
F10454
100
AcDbEntity
8
Geo
100
AcDbLine
10
-40.8319459325806
20
5.44003370601505
30
0.000000000000000
11
-40.7319459325806
21
5.36496339735249
31
0.000000000000000
  0
LINE
  5
F10455
330
F10456
100
AcDbEntity
8
Geo
100
AcDbLine
10
-40.7319459325806
20
5.36496339735249
30
0.000000000000000
11
-40.6319459325806
21
5.29042465702080
31
0.000000000000000
  0
LINE
  5
F10457
330
F10458
100
AcDbEntity
8
Geo
100
AcDbLine
10
-40.6319459325806
20
5.29042465702080
30
0.000000000000000
11
-40.5319459325806
21
5.21643206307318
31
0.000000000000000
  0
LINE
  5
F10459
330
F1045A
100
AcDbEntity
8
Geo
100
AcDbLine
10
-40.5319459325806
20
5.21643206307318
30
0.000000000000000
11
-40.4319459325806
21
5.14300008674921
31
0.000000000000000
  0
LINE
  5
F1045B
330
F1045C
100
AcDbEntity
8
Geo
100
AcDbLine
10
-40.4319459325806
20
5.14300008674921
30
0.000000000000000
11
-40.3319459325806
21
5.07014308964465
31
0.000000000000000
  0
LINE
  5
F1045D
330
F1045E
100
AcDbEntity
8
Geo
100
AcDbLine
10
-40.3319459325806
20
5.07014308964465
30
0.000000000000000
11
-40.2319459325806
21
4.99787532090261
31
0.000000000000000
  0
LINE
  5
F1045F
330
F10460
100
AcDbEntity
8
Geo
100
AcDbLine
10
-40.2319459325806
20
4.99787532090261
30
0.000000000000000
11
-40.1319459325806
21
4.92621091442679
31
0.000000000000000
  0
LINE
  5
F10461
330
F10462
100
AcDbEntity
8
Geo
100
AcDbLine
10
-40.1319459325806
20
4.92621091442679
30
0.000000000000000
11
-40.0319459325806
21
4.85516388611717
31
0.000000000000000
  0
LINE
  5
F10463
330
F10464
100
AcDbEntity
8
Geo
100
AcDbLine
10
-40.0319459325806
20
4.85516388611717
30
0.000000000000000
11
-39.9319459325806
21
4.78474813112884
31
0.000000000000000
  0
LINE
  5
F10465
330
F10466
100
AcDbEntity
8
Geo
100
AcDbLine
10
-39.9319459325806
20
4.78474813112884
30
0.000000000000000
11
-39.8319459325806
21
4.71497742115444
31
0.000000000000000
  0
LINE
  5
F10467
330
F10468
100
AcDbEntity
8
Geo
100
AcDbLine
10
-39.8319459325806
20
4.71497742115444
30
0.000000000000000
11
-39.7319459325806
21
4.64586540173074
31
0.000000000000000
  0
LINE
  5
F10469
330
F1046A
100
AcDbEntity
8
Geo
100
AcDbLine
10
-39.7319459325806
20
4.64586540173074
30
0.000000000000000
11
-39.6319459325806
21
4.57742558956985
31
0.000000000000000
  0
LINE
  5
F1046B
330
F1046C
100
AcDbEntity
8
Geo
100
AcDbLine
10
-39.6319459325806
20
4.57742558956985
30
0.000000000000000
11
-39.5319459325806
21
4.50967136991571
31
0.000000000000000
  0
LINE
  5
F1046D
330
F1046E
100
AcDbEntity
8
Geo
100
AcDbLine
10
-39.5319459325806
20
4.50967136991571
30
0.000000000000000
11
-39.4319459325806
21
4.44261599392622
31
0.000000000000000
  0
LINE
  5
F1046F
330
F10470
100
AcDbEntity
8
Geo
100
AcDbLine
10
-39.4319459325806
20
4.44261599392622
30
0.000000000000000
11
-39.3319459325806
21
4.37627257608163
31
0.000000000000000
  0
LINE
  5
F10471
330
F10472
100
AcDbEntity
8
Geo
100
AcDbLine
10
-39.3319459325806
20
4.37627257608163
30
0.000000000000000
11
-39.2319459325806
21
4.31065409161964
31
0.000000000000000
  0
LINE
  5
F10473
330
F10474
100
AcDbEntity
8
Geo
100
AcDbLine
10
-39.2319459325806
20
4.31065409161964
30
0.000000000000000
11
-39.1319459325806
21
4.24577337399777
31
0.000000000000000
  0
LINE
  5
F10475
330
F10476
100
AcDbEntity
8
Geo
100
AcDbLine
10
-39.1319459325806
20
4.24577337399777
30
0.000000000000000
11
-39.0319459325806
21
4.18164311238339
31
0.000000000000000
  0
LINE
  5
F10477
330
F10478
100
AcDbEntity
8
Geo
100
AcDbLine
10
-39.0319459325806
20
4.18164311238339
30
0.000000000000000
11
-38.9319459325806
21
4.11827584917206
31
0.000000000000000
  0
LINE
  5
F10479
330
F1047A
100
AcDbEntity
8
Geo
100
AcDbLine
10
-38.9319459325806
20
4.11827584917206
30
0.000000000000000
11
-38.8319459325806
21
4.05568397753447
31
0.000000000000000
  0
LINE
  5
F1047B
330
F1047C
100
AcDbEntity
8
Geo
100
AcDbLine
10
-38.8319459325806
20
4.05568397753447
30
0.000000000000000
11
-38.7319459325806
21
3.99387973899270
31
0.000000000000000
  0
LINE
  5
F1047D
330
F1047E
100
AcDbEntity
8
Geo
100
AcDbLine
10
-38.7319459325806
20
3.99387973899270
30
0.000000000000000
11
-38.6319459325806
21
3.93287522102598
31
0.000000000000000
  0
LINE
  5
F1047F
330
F10480
100
AcDbEntity
8
Geo
100
AcDbLine
10
-38.6319459325806
20
3.93287522102598
30
0.000000000000000
11
-38.5319459325806
21
3.87268235470673
31
0.000000000000000
  0
LINE
  5
F10481
330
F10482
100
AcDbEntity
8
Geo
100
AcDbLine
10
-38.5319459325806
20
3.87268235470673
30
0.000000000000000
11
-38.4319459325806
21
3.81331291236705
31
0.000000000000000
  0
LINE
  5
F10483
330
F10484
100
AcDbEntity
8
Geo
100
AcDbLine
10
-38.4319459325806
20
3.81331291236705
30
0.000000000000000
11
-38.3319459325806
21
3.75477850529638
31
0.000000000000000
  0
LINE
  5
F10485
330
F10486
100
AcDbEntity
8
Geo
100
AcDbLine
10
-38.3319459325806
20
3.75477850529638
30
0.000000000000000
11
-38.2319459325806
21
3.69709058147059
31
0.000000000000000
  0
LINE
  5
F10487
330
F10488
100
AcDbEntity
8
Geo
100
AcDbLine
10
-38.2319459325806
20
3.69709058147059
30
0.000000000000000
11
-38.1319459325806
21
3.64026042331298
31
0.000000000000000
  0
LINE
  5
F10489
330
F1048A
100
AcDbEntity
8
Geo
100
AcDbLine
10
-38.1319459325806
20
3.64026042331298
30
0.000000000000000
11
-38.0319459325806
21
3.58429914548776
31
0.000000000000000
  0
LINE
  5
F1048B
330
F1048C
100
AcDbEntity
8
Geo
100
AcDbLine
10
-38.0319459325806
20
3.58429914548776
30
0.000000000000000
11
-37.9319459325806
21
3.52921769272622
31
0.000000000000000
  0
LINE
  5
F1048D
330
F1048E
100
AcDbEntity
8
Geo
100
AcDbLine
10
-37.9319459325806
20
3.52921769272622
30
0.000000000000000
11
-37.8319459325806
21
3.47502683768624
31
0.000000000000000
  0
LINE
  5
F1048F
330
F10490
100
AcDbEntity
8
Geo
100
AcDbLine
10
-37.8319459325806
20
3.47502683768624
30
0.000000000000000
11
-37.7319459325806
21
3.42173717884540
31
0.000000000000000
  0
LINE
  5
F10491
330
F10492
100
AcDbEntity
8
Geo
100
AcDbLine
10
-37.7319459325806
20
3.42173717884540
30
0.000000000000000
11
-37.6319459325806
21
3.36935913842812
31
0.000000000000000
  0
LINE
  5
F10493
330
F10494
100
AcDbEntity
8
Geo
100
AcDbLine
10
-37.6319459325806
20
3.36935913842812
30
0.000000000000000
11
-37.5319459325806
21
3.31790296036737
31
0.000000000000000
  0
LINE
  5
F10495
330
F10496
100
AcDbEntity
8
Geo
100
AcDbLine
10
-37.5319459325806
20
3.31790296036737
30
0.000000000000000
11
-37.4319459325806
21
3.26737870830116
31
0.000000000000000
  0
LINE
  5
F10497
330
F10498
100
AcDbEntity
8
Geo
100
AcDbLine
10
-37.4319459325806
20
3.26737870830116
30
0.000000000000000
11
-37.3319459325806
21
3.21779626360435
31
0.000000000000000
  0
LINE
  5
F10499
330
F1049A
100
AcDbEntity
8
Geo
100
AcDbLine
10
-37.3319459325806
20
3.21779626360435
30
0.000000000000000
11
-37.2319459325806
21
3.16916532345604
31
0.000000000000000
  0
LINE
  5
F1049B
330
F1049C
100
AcDbEntity
8
Geo
100
AcDbLine
10
-37.2319459325806
20
3.16916532345604
30
0.000000000000000
11
-37.1319459325806
21
3.12149539894307
31
0.000000000000000
  0
LINE
  5
F1049D
330
F1049E
100
AcDbEntity
8
Geo
100
AcDbLine
10
-37.1319459325806
20
3.12149539894307
30
0.000000000000000
11
-37.0319459325806
21
3.07479581319987
31
0.000000000000000
  0
LINE
  5
F1049F
330
F104A0
100
AcDbEntity
8
Geo
100
AcDbLine
10
-37.0319459325806
20
3.07479581319987
30
0.000000000000000
11
-36.9319459325806
21
3.02907569958502
31
0.000000000000000
  0
LINE
  5
F104A1
330
F104A2
100
AcDbEntity
8
Geo
100
AcDbLine
10
-36.9319459325806
20
3.02907569958502
30
0.000000000000000
11
-36.8319459325806
21
2.98434399989504
31
0.000000000000000
  0
LINE
  5
F104A3
330
F104A4
100
AcDbEntity
8
Geo
100
AcDbLine
10
-36.8319459325806
20
2.98434399989504
30
0.000000000000000
11
-36.7319459325806
21
2.94060946261554
31
0.000000000000000
  0
LINE
  5
F104A5
330
F104A6
100
AcDbEntity
8
Geo
100
AcDbLine
10
-36.7319459325806
20
2.94060946261554
30
0.000000000000000
11
-36.6319459325806
21
2.89788064121022
31
0.000000000000000
  0
LINE
  5
F104A7
330
F104A8
100
AcDbEntity
8
Geo
100
AcDbLine
10
-36.6319459325806
20
2.89788064121022
30
0.000000000000000
11
-36.5319459325806
21
2.85616589244805
31
0.000000000000000
  0
LINE
  5
F104A9
330
F104AA
100
AcDbEntity
8
Geo
100
AcDbLine
10
-36.5319459325806
20
2.85616589244805
30
0.000000000000000
11
-36.4319459325806
21
2.81547337476884
31
0.000000000000000
  0
LINE
  5
F104AB
330
F104AC
100
AcDbEntity
8
Geo
100
AcDbLine
10
-36.4319459325806
20
2.81547337476884
30
0.000000000000000
11
-36.3319459325806
21
2.77581104668763
31
0.000000000000000
  0
LINE
  5
F104AD
330
F104AE
100
AcDbEntity
8
Geo
100
AcDbLine
10
-36.3319459325806
20
2.77581104668763
30
0.000000000000000
11
-36.2319459325806
21
2.73718666523824
31
0.000000000000000
  0
LINE
  5
F104AF
330
F104B0
100
AcDbEntity
8
Geo
100
AcDbLine
10
-36.2319459325806
20
2.73718666523824
30
0.000000000000000
11
-36.1319459325806
21
2.69960778445611
31
0.000000000000000
  0
LINE
  5
F104B1
330
F104B2
100
AcDbEntity
8
Geo
100
AcDbLine
10
-36.1319459325806
20
2.69960778445611
30
0.000000000000000
11
-36.0319459325806
21
2.66308175390095
31
0.000000000000000
  0
LINE
  5
F104B3
330
F104B4
100
AcDbEntity
8
Geo
100
AcDbLine
10
-36.0319459325806
20
2.66308175390095
30
0.000000000000000
11
-35.9319459325806
21
2.62761571721933
31
0.000000000000000
  0
LINE
  5
F104B5
330
F104B6
100
AcDbEntity
8
Geo
100
AcDbLine
10
-35.9319459325806
20
2.62761571721933
30
0.000000000000000
11
-35.8319459325806
21
2.59321661074754
31
0.000000000000000
  0
LINE
  5
F104B7
330
F104B8
100
AcDbEntity
8
Geo
100
AcDbLine
10
-35.8319459325806
20
2.59321661074754
30
0.000000000000000
11
-35.7319459325806
21
2.55989116215499
31
0.000000000000000
  0
LINE
  5
F104B9
330
F104BA
100
AcDbEntity
8
Geo
100
AcDbLine
10
-35.7319459325806
20
2.55989116215499
30
0.000000000000000
11
-35.6319459325806
21
2.52764588912846
31
0.000000000000000
  0
LINE
  5
F104BB
330
F104BC
100
AcDbEntity
8
Geo
100
AcDbLine
10
-35.6319459325806
20
2.52764588912846
30
0.000000000000000
11
-35.5319459325806
21
2.49648709809737
31
0.000000000000000
  0
LINE
  5
F104BD
330
F104BE
100
AcDbEntity
8
Geo
100
AcDbLine
10
-35.5319459325806
20
2.49648709809737
30
0.000000000000000
11
-35.4319459325806
21
2.46642088300040
31
0.000000000000000
  0
LINE
  5
F104BF
330
F104C0
100
AcDbEntity
8
Geo
100
AcDbLine
10
-35.4319459325806
20
2.46642088300040
30
0.000000000000000
11
-35.3319459325806
21
2.43745312409366
31
0.000000000000000
  0
LINE
  5
F104C1
330
F104C2
100
AcDbEntity
8
Geo
100
AcDbLine
10
-35.3319459325806
20
2.43745312409366
30
0.000000000000000
11
-35.2319459325806
21
2.40958948680064
31
0.000000000000000
  0
LINE
  5
F104C3
330
F104C4
100
AcDbEntity
8
Geo
100
AcDbLine
10
-35.2319459325806
20
2.40958948680064
30
0.000000000000000
11
-35.1319459325806
21
2.38283542060417
31
0.000000000000000
  0
LINE
  5
F104C5
330
F104C6
100
AcDbEntity
8
Geo
100
AcDbLine
10
-35.1319459325806
20
2.38283542060417
30
0.000000000000000
11
-35.0319459325806
21
2.35719615798067
31
0.000000000000000
  0
LINE
  5
F104C7
330
F104C8
100
AcDbEntity
8
Geo
100
AcDbLine
10
-35.0319459325806
20
2.35719615798067
30
0.000000000000000
11
-34.9319459325806
21
2.33267671337674
31
0.000000000000000
  0
LINE
  5
F104C9
330
F104CA
100
AcDbEntity
8
Geo
100
AcDbLine
10
-34.9319459325806
20
2.33267671337674
30
0.000000000000000
11
-34.8319459325806
21
2.30928188222851
31
0.000000000000000
  0
LINE
  5
F104CB
330
F104CC
100
AcDbEntity
8
Geo
100
AcDbLine
10
-34.8319459325806
20
2.30928188222851
30
0.000000000000000
11
-34.7319459325806
21
2.28701624002372
31
0.000000000000000
  0
LINE
  5
F104CD
330
F104CE
100
AcDbEntity
8
Geo
100
AcDbLine
10
-34.7319459325806
20
2.28701624002372
30
0.000000000000000
11
-34.6319459325806
21
2.26588414140688
31
0.000000000000000
  0
LINE
  5
F104CF
330
F104D0
100
AcDbEntity
8
Geo
100
AcDbLine
10
-34.6319459325806
20
2.26588414140688
30
0.000000000000000
11
-34.5319459325806
21
2.24588971932759
31
0.000000000000000
  0
LINE
  5
F104D1
330
F104D2
100
AcDbEntity
8
Geo
100
AcDbLine
10
-34.5319459325806
20
2.24588971932759
30
0.000000000000000
11
-34.4319459325806
21
2.22703688423227
31
0.000000000000000
  0
LINE
  5
F104D3
330
F104D4
100
AcDbEntity
8
Geo
100
AcDbLine
10
-34.4319459325806
20
2.22703688423227
30
0.000000000000000
11
-34.3319459325806
21
2.20932932329929
31
0.000000000000000
  0
LINE
  5
F104D5
330
F104D6
100
AcDbEntity
8
Geo
100
AcDbLine
10
-34.3319459325806
20
2.20932932329929
30
0.000000000000000
11
-34.2319459325806
21
2.19277049971792
31
0.000000000000000
  0
LINE
  5
F104D7
330
F104D8
100
AcDbEntity
8
Geo
100
AcDbLine
10
-34.2319459325806
20
2.19277049971792
30
0.000000000000000
11
-34.1319459325806
21
2.17736365201097
31
0.000000000000000
  0
LINE
  5
F104D9
330
F104DA
100
AcDbEntity
8
Geo
100
AcDbLine
10
-34.1319459325806
20
2.17736365201097
30
0.000000000000000
11
-34.0319459325806
21
2.16311179340143
31
0.000000000000000
  0
LINE
  5
F104DB
330
F104DC
100
AcDbEntity
8
Geo
100
AcDbLine
10
-34.0319459325806
20
2.16311179340143
30
0.000000000000000
11
-33.9319459325806
21
2.15001771122313
31
0.000000000000000
  0
LINE
  5
F104DD
330
F104DE
100
AcDbEntity
8
Geo
100
AcDbLine
10
-33.9319459325806
20
2.15001771122313
30
0.000000000000000
11
-33.8319459325806
21
2.13808396637561
31
0.000000000000000
  0
LINE
  5
F104DF
330
F104E0
100
AcDbEntity
8
Geo
100
AcDbLine
10
-33.8319459325806
20
2.13808396637561
30
0.000000000000000
11
-33.7319459325806
21
2.12731289282328
31
0.000000000000000
  0
LINE
  5
F104E1
330
F104E2
100
AcDbEntity
8
Geo
100
AcDbLine
10
-33.7319459325806
20
2.12731289282328
30
0.000000000000000
11
-33.6319459325806
21
2.11770659713896
31
0.000000000000000
  0
LINE
  5
F104E3
330
F104E4
100
AcDbEntity
8
Geo
100
AcDbLine
10
-33.6319459325806
20
2.11770659713896
30
0.000000000000000
11
-33.5319459325806
21
2.10926695809183
31
0.000000000000000
  0
LINE
  5
F104E5
330
F104E6
100
AcDbEntity
8
Geo
100
AcDbLine
10
-33.5319459325806
20
2.10926695809183
30
0.000000000000000
11
-33.4319459325806
21
2.10199562628005
31
0.000000000000000
  0
LINE
  5
F104E7
330
F104E8
100
AcDbEntity
8
Geo
100
AcDbLine
10
-33.4319459325806
20
2.10199562628005
30
0.000000000000000
11
-33.3319459325806
21
2.09589402380790
31
0.000000000000000
  0
LINE
  5
F104E9
330
F104EA
100
AcDbEntity
8
Geo
100
AcDbLine
10
-33.3319459325806
20
2.09589402380790
30
0.000000000000000
11
-33.2319459325806
21
2.09096334400767
31
0.000000000000000
  0
LINE
  5
F104EB
330
F104EC
100
AcDbEntity
8
Geo
100
AcDbLine
10
-33.2319459325806
20
2.09096334400767
30
0.000000000000000
11
-33.1319459325806
21
2.08720455120626
31
0.000000000000000
  0
LINE
  5
F104ED
330
F104EE
100
AcDbEntity
8
Geo
100
AcDbLine
10
-33.1319459325806
20
2.08720455120626
30
0.000000000000000
11
-33.0319459325806
21
2.08461838053658
31
0.000000000000000
  0
LINE
  5
F104EF
330
F104F0
100
AcDbEntity
8
Geo
100
AcDbLine
10
-33.0319459325806
20
2.08461838053658
30
0.000000000000000
11
-32.9319459325806
21
2.08320533779378
31
0.000000000000000
  0
LINE
  5
F104F1
330
F104F2
100
AcDbEntity
8
Geo
100
AcDbLine
10
-32.9319459325806
20
2.08320533779378
30
0.000000000000000
11
-32.8615248417385
21
2.08291436577929
31
0.000000000000000
  0
LINE
  5
F104F3
330
F104F4
100
AcDbEntity
8
Geo
100
AcDbLine
10
-51.3319459325806
20
3.03297467885903
30
0.000000000000000
11
-51.2319459325806
21
2.93569061089851
31
0.000000000000000
  0
LINE
  5
F104F5
330
F104F6
100
AcDbEntity
8
Geo
100
AcDbLine
10
-51.2319459325806
20
2.93569061089851
30
0.000000000000000
11
-51.1319459325805
21
2.83707658749716
31
0.000000000000000
  0
LINE
  5
F104F7
330
F104F8
100
AcDbEntity
8
Geo
100
AcDbLine
10
-51.1319459325805
20
2.83707658749716
30
0.000000000000000
11
-51.0319459325806
21
2.73717383200813
31
0.000000000000000
  0
LINE
  5
F104F9
330
F104FA
100
AcDbEntity
8
Geo
100
AcDbLine
10
-51.0319459325806
20
2.73717383200813
30
0.000000000000000
11
-50.9319459325806
21
2.63602442324253
31
0.000000000000000
  0
LINE
  5
F104FB
330
F104FC
100
AcDbEntity
8
Geo
100
AcDbLine
10
-50.9319459325806
20
2.63602442324253
30
0.000000000000000
11
-50.8319459325806
21
2.60136881722839
31
0.000000000000000
  0
LINE
  5
F104FD
330
F104FE
100
AcDbEntity
8
Geo
100
AcDbLine
10
-50.8319459325806
20
2.60136881722839
30
0.000000000000000
11
-50.7319459325806
21
2.56778527471051
31
0.000000000000000
  0
LINE
  5
F104FF
330
F10500
100
AcDbEntity
8
Geo
100
AcDbLine
10
-50.7319459325806
20
2.56778527471051
30
0.000000000000000
11
-50.6319459325805
21
2.53528036385285
31
0.000000000000000
  0
LINE
  5
F10501
330
F10502
100
AcDbEntity
8
Geo
100
AcDbLine
10
-50.6319459325805
20
2.53528036385285
30
0.000000000000000
11
-50.5319459325806
21
2.50386044186400
31
0.000000000000000
  0
LINE
  5
F10503
330
F10504
100
AcDbEntity
8
Geo
100
AcDbLine
10
-50.5319459325806
20
2.50386044186400
30
0.000000000000000
11
-50.4319459325806
21
2.47353165375382
31
0.000000000000000
  0
LINE
  5
F10505
330
F10506
100
AcDbEntity
8
Geo
100
AcDbLine
10
-50.4319459325806
20
2.47353165375382
30
0.000000000000000
11
-50.3319459325806
21
2.44429993113160
31
0.000000000000000
  0
LINE
  5
F10507
330
F10508
100
AcDbEntity
8
Geo
100
AcDbLine
10
-50.3319459325806
20
2.44429993113160
30
0.000000000000000
11
-50.2319459325806
21
2.41617099104604
31
0.000000000000000
  0
LINE
  5
F10509
330
F1050A
100
AcDbEntity
8
Geo
100
AcDbLine
10
-50.2319459325806
20
2.41617099104604
30
0.000000000000000
11
-50.1319459325805
21
2.38915033486707
31
0.000000000000000
  0
LINE
  5
F1050B
330
F1050C
100
AcDbEntity
8
Geo
100
AcDbLine
10
-50.1319459325805
20
2.38915033486707
30
0.000000000000000
11
-50.0319459325806
21
2.36324324720992
31
0.000000000000000
  0
LINE
  5
F1050D
330
F1050E
100
AcDbEntity
8
Geo
100
AcDbLine
10
-50.0319459325806
20
2.36324324720992
30
0.000000000000000
11
-49.9319459325806
21
2.33845479490160
31
0.000000000000000
  0
LINE
  5
F1050F
330
F10510
100
AcDbEntity
8
Geo
100
AcDbLine
10
-49.9319459325806
20
2.33845479490160
30
0.000000000000000
11
-49.8319459325806
21
2.31478982598989
31
0.000000000000000
  0
LINE
  5
F10511
330
F10512
100
AcDbEntity
8
Geo
100
AcDbLine
10
-49.8319459325806
20
2.31478982598989
30
0.000000000000000
11
-49.7319459325806
21
2.29225296879526
31
0.000000000000000
  0
LINE
  5
F10513
330
F10514
100
AcDbEntity
8
Geo
100
AcDbLine
10
-49.7319459325806
20
2.29225296879526
30
0.000000000000000
11
-49.6319459325805
21
2.27084863100557
31
0.000000000000000
  0
LINE
  5
F10515
330
F10516
100
AcDbEntity
8
Geo
100
AcDbLine
10
-49.6319459325805
20
2.27084863100557
30
0.000000000000000
11
-49.5319459325806
21
2.25058099881413
31
0.000000000000000
  0
LINE
  5
F10517
330
F10518
100
AcDbEntity
8
Geo
100
AcDbLine
10
-49.5319459325806
20
2.25058099881413
30
0.000000000000000
11
-49.4319459325806
21
2.23145403610090
31
0.000000000000000
  0
LINE
  5
F10519
330
F1051A
100
AcDbEntity
8
Geo
100
AcDbLine
10
-49.4319459325806
20
2.23145403610090
30
0.000000000000000
11
-49.3319459325806
21
2.21347148365731
31
0.000000000000000
  0
LINE
  5
F1051B
330
F1051C
100
AcDbEntity
8
Geo
100
AcDbLine
10
-49.3319459325806
20
2.21347148365731
30
0.000000000000000
11
-49.2319459325806
21
2.19663685845459
31
0.000000000000000
  0
LINE
  5
F1051D
330
F1051E
100
AcDbEntity
8
Geo
100
AcDbLine
10
-49.2319459325806
20
2.19663685845459
30
0.000000000000000
11
-49.1319459325805
21
2.18095345295597
31
0.000000000000000
  0
LINE
  5
F1051F
330
F10520
100
AcDbEntity
8
Geo
100
AcDbLine
10
-49.1319459325805
20
2.18095345295597
30
0.000000000000000
11
-49.0319459325806
21
2.16642433447273
31
0.000000000000000
  0
LINE
  5
F10521
330
F10522
100
AcDbEntity
8
Geo
100
AcDbLine
10
-49.0319459325806
20
2.16642433447273
30
0.000000000000000
11
-48.9319459325806
21
2.15305234456434
31
0.000000000000000
  0
LINE
  5
F10523
330
F10524
100
AcDbEntity
8
Geo
100
AcDbLine
10
-48.9319459325806
20
2.15305234456434
30
0.000000000000000
11
-48.8319459325806
21
2.14084009848265
31
0.000000000000000
  0
LINE
  5
F10525
330
F10526
100
AcDbEntity
8
Geo
100
AcDbLine
10
-48.8319459325806
20
2.14084009848265
30
0.000000000000000
11
-48.7319459325806
21
2.12978998466048
31
0.000000000000000
  0
LINE
  5
F10527
330
F10528
100
AcDbEntity
8
Geo
100
AcDbLine
10
-48.7319459325806
20
2.12978998466048
30
0.000000000000000
11
-48.6319459325805
21
2.11990416424445
31
0.000000000000000
  0
LINE
  5
F10529
330
F1052A
100
AcDbEntity
8
Geo
100
AcDbLine
10
-48.6319459325805
20
2.11990416424445
30
0.000000000000000
11
-48.5319459325805
21
2.11118457067233
31
0.000000000000000
  0
LINE
  5
F1052B
330
F1052C
100
AcDbEntity
8
Geo
100
AcDbLine
10
-48.5319459325805
20
2.11118457067233
30
0.000000000000000
11
-48.4319459325806
21
2.10363290929491
31
0.000000000000000
  0
LINE
  5
F1052D
330
F1052E
100
AcDbEntity
8
Geo
100
AcDbLine
10
-48.4319459325806
20
2.10363290929491
30
0.000000000000000
11
-48.3319459325806
21
2.09725065704243
31
0.000000000000000
  0
LINE
  5
F1052F
330
F10530
100
AcDbEntity
8
Geo
100
AcDbLine
10
-48.3319459325806
20
2.09725065704243
30
0.000000000000000
11
-48.2319459325806
21
2.09203906213580
31
0.000000000000000
  0
LINE
  5
F10531
330
F10532
100
AcDbEntity
8
Geo
100
AcDbLine
10
-48.2319459325806
20
2.09203906213580
30
0.000000000000000
11
-48.1319459325805
21
2.08799914384240
31
0.000000000000000
  0
LINE
  5
F10533
330
F10534
100
AcDbEntity
8
Geo
100
AcDbLine
10
-48.1319459325805
20
2.08799914384240
30
0.000000000000000
11
-48.0319459325805
21
2.08513169227680
31
0.000000000000000
  0
LINE
  5
F10535
330
F10536
100
AcDbEntity
8
Geo
100
AcDbLine
10
-48.0319459325805
20
2.08513169227680
30
0.000000000000000
11
-47.9319459325806
21
2.08343726824618
31
0.000000000000000
  0
LINE
  5
F10537
330
F10538
100
AcDbEntity
8
Geo
100
AcDbLine
10
-47.9319459325806
20
2.08343726824618
30
0.000000000000000
11
-47.8375420428884
21
2.08291436577929
31
0.000000000000000
  0
LINE
  5
F10539
330
F1053A
100
AcDbEntity
8
Geo
100
AcDbLine
10
-32.3319459325806
20
2.77330972187292
30
0.000000000000000
11
-32.2319459325806
21
2.73475198021940
31
0.000000000000000
  0
LINE
  5
F1053B
330
F1053C
100
AcDbEntity
8
Geo
100
AcDbLine
10
-32.2319459325806
20
2.73475198021940
30
0.000000000000000
11
-32.1319459325805
21
2.69724021540120
31
0.000000000000000
  0
LINE
  5
F1053D
330
F1053E
100
AcDbEntity
8
Geo
100
AcDbLine
10
-32.1319459325805
20
2.69724021540120
30
0.000000000000000
11
-32.0319459325805
21
2.66078176385172
31
0.000000000000000
  0
LINE
  5
F1053F
330
F10540
100
AcDbEntity
8
Geo
100
AcDbLine
10
-32.0319459325805
20
2.66078176385172
30
0.000000000000000
11
-31.9319459325805
21
2.62538375600072
31
0.000000000000000
  0
LINE
  5
F10541
330
F10542
100
AcDbEntity
8
Geo
100
AcDbLine
10
-31.9319459325805
20
2.62538375600072
30
0.000000000000000
11
-31.8319459325805
21
2.59105311488077
31
0.000000000000000
  0
LINE
  5
F10543
330
F10544
100
AcDbEntity
8
Geo
100
AcDbLine
10
-31.8319459325805
20
2.59105311488077
30
0.000000000000000
11
-31.7319459325805
21
2.55779655477950
31
0.000000000000000
  0
LINE
  5
F10545
330
F10546
100
AcDbEntity
8
Geo
100
AcDbLine
10
-31.7319459325805
20
2.55779655477950
30
0.000000000000000
11
-31.6319459325805
21
2.52562057995427
31
0.000000000000000
  0
LINE
  5
F10547
330
F10548
100
AcDbEntity
8
Geo
100
AcDbLine
10
-31.6319459325805
20
2.52562057995427
30
0.000000000000000
11
-31.5319459325805
21
2.49453148345522
31
0.000000000000000
  0
LINE
  5
F10549
330
F1054A
100
AcDbEntity
8
Geo
100
AcDbLine
10
-31.5319459325805
20
2.49453148345522
30
0.000000000000000
11
-31.4319459325805
21
2.46453534616279
31
0.000000000000000
  0
LINE
  5
F1054B
330
F1054C
100
AcDbEntity
8
Geo
100
AcDbLine
10
-31.4319459325805
20
2.46453534616279
30
0.000000000000000
11
-31.3319459325805
21
2.43563803625124
31
0.000000000000000
  0
LINE
  5
F1054D
330
F1054E
100
AcDbEntity
8
Geo
100
AcDbLine
10
-31.3319459325805
20
2.43563803625124
30
0.000000000000000
11
-31.2319459325805
21
2.40784520945438
31
0.000000000000000
  0
LINE
  5
F1054F
330
F10550
100
AcDbEntity
8
Geo
100
AcDbLine
10
-31.2319459325805
20
2.40784520945438
30
0.000000000000000
11
-31.1319459325805
21
2.38116231074213
31
0.000000000000000
  0
LINE
  5
F10551
330
F10552
100
AcDbEntity
8
Geo
100
AcDbLine
10
-31.1319459325805
20
2.38116231074213
30
0.000000000000000
11
-31.0319459325805
21
2.35559457831469
31
0.000000000000000
  0
LINE
  5
F10553
330
F10554
100
AcDbEntity
8
Geo
100
AcDbLine
10
-31.0319459325805
20
2.35559457831469
30
0.000000000000000
11
-30.9319459325805
21
2.33114705116384
31
0.000000000000000
  0
LINE
  5
F10555
330
F10556
100
AcDbEntity
8
Geo
100
AcDbLine
10
-30.9319459325805
20
2.33114705116384
30
0.000000000000000
11
-30.8319459325805
21
2.30782458179258
31
0.000000000000000
  0
LINE
  5
F10557
330
F10558
100
AcDbEntity
8
Geo
100
AcDbLine
10
-30.8319459325805
20
2.30782458179258
30
0.000000000000000
11
-30.7319459325805
21
2.28563185594254
31
0.000000000000000
  0
LINE
  5
F10559
330
F1055A
100
AcDbEntity
8
Geo
100
AcDbLine
10
-30.7319459325805
20
2.28563185594254
30
0.000000000000000
11
-30.6319459325805
21
2.26457342122425
31
0.000000000000000
  0
LINE
  5
F1055B
330
F1055C
100
AcDbEntity
8
Geo
100
AcDbLine
10
-30.6319459325805
20
2.26457342122425
30
0.000000000000000
11
-30.5319459325805
21
2.24465372619208
31
0.000000000000000
  0
LINE
  5
F1055D
330
F1055E
100
AcDbEntity
8
Geo
100
AcDbLine
10
-30.5319459325805
20
2.24465372619208
30
0.000000000000000
11
-30.4319459325805
21
2.22587717039547
31
0.000000000000000
  0
LINE
  5
F1055F
330
F10560
100
AcDbEntity
8
Geo
100
AcDbLine
10
-30.4319459325805
20
2.22587717039547
30
0.000000000000000
11
-30.3319459325805
21
2.20824816392913
31
0.000000000000000
  0
LINE
  5
F10561
330
F10562
100
AcDbEntity
8
Geo
100
AcDbLine
10
-30.3319459325805
20
2.20824816392913
30
0.000000000000000
11
-30.2319459325805
21
2.19177119156214
31
0.000000000000000
  0
LINE
  5
F10563
330
F10564
100
AcDbEntity
8
Geo
100
AcDbLine
10
-30.2319459325805
20
2.19177119156214
30
0.000000000000000
11
-30.1319459325805
21
2.17645087110793
31
0.000000000000000
  0
LINE
  5
F10565
330
F10566
100
AcDbEntity
8
Geo
100
AcDbLine
10
-30.1319459325805
20
2.17645087110793
30
0.000000000000000
11
-30.0319459325805
21
2.16229198766336
31
0.000000000000000
  0
LINE
  5
F10567
330
F10568
100
AcDbEntity
8
Geo
100
AcDbLine
10
-30.0319459325805
20
2.16229198766336
30
0.000000000000000
11
-29.9319459325805
21
2.14929947396096
31
0.000000000000000
  0
LINE
  5
F10569
330
F1056A
100
AcDbEntity
8
Geo
100
AcDbLine
10
-29.9319459325805
20
2.14929947396096
30
0.000000000000000
11
-29.8319459325805
21
2.13747829156805
31
0.000000000000000
  0
LINE
  5
F1056B
330
F1056C
100
AcDbEntity
8
Geo
100
AcDbLine
10
-29.8319459325805
20
2.13747829156805
30
0.000000000000000
11
-29.7319459325805
21
2.12683314729769
31
0.000000000000000
  0
LINE
  5
F1056D
330
F1056E
100
AcDbEntity
8
Geo
100
AcDbLine
10
-29.7319459325805
20
2.12683314729769
30
0.000000000000000
11
-29.6319459325805
21
2.11736795346534
31
0.000000000000000
  0
LINE
  5
F1056F
330
F10570
100
AcDbEntity
8
Geo
100
AcDbLine
10
-29.6319459325805
20
2.11736795346534
30
0.000000000000000
11
-29.5319459325805
21
2.10908490957452
31
0.000000000000000
  0
LINE
  5
F10571
330
F10572
100
AcDbEntity
8
Geo
100
AcDbLine
10
-29.5319459325805
20
2.10908490957452
30
0.000000000000000
11
-29.4319459325805
21
2.10198304779372
31
0.000000000000000
  0
LINE
  5
F10573
330
F10574
100
AcDbEntity
8
Geo
100
AcDbLine
10
-29.4319459325805
20
2.10198304779372
30
0.000000000000000
11
-29.3319459325805
21
2.09605604837345
31
0.000000000000000
  0
LINE
  5
F10575
330
F10576
100
AcDbEntity
8
Geo
100
AcDbLine
10
-29.3319459325805
20
2.09605604837345
30
0.000000000000000
11
-29.2319459325805
21
2.09128910066924
31
0.000000000000000
  0
LINE
  5
F10577
330
F10578
100
AcDbEntity
8
Geo
100
AcDbLine
10
-29.2319459325805
20
2.09128910066924
30
0.000000000000000
11
-29.1319459325805
21
2.08765457334340
31
0.000000000000000
  0
LINE
  5
F10579
330
F1057A
100
AcDbEntity
8
Geo
100
AcDbLine
10
-29.1319459325805
20
2.08765457334340
30
0.000000000000000
11
-29.0319459325805
21
2.08510628597502
31
0.000000000000000
  0
LINE
  5
F1057B
330
F1057C
100
AcDbEntity
8
Geo
100
AcDbLine
10
-29.0319459325805
20
2.08510628597502
30
0.000000000000000
11
-28.9319459325805
21
2.08357228154074
31
0.000000000000000
  0
LINE
  5
F1057D
330
F1057E
100
AcDbEntity
8
Geo
100
AcDbLine
10
-28.9319459325805
20
2.08357228154074
30
0.000000000000000
11
-28.8319459325805
21
2.08294624710705
31
0.000000000000000
  0
LINE
  5
F1057F
330
F10580
100
AcDbEntity
8
Geo
100
AcDbLine
10
-28.8319459325805
20
2.08294624710705
30
0.000000000000000
11
-28.8013370151980
21
2.08291436577929
31
0.000000000000000
  0
LINE
  5
F10581
330
F10582
100
AcDbEntity
8
Geo
100
AcDbLine
10
-27.9253709828561
20
2.08291436577929
30
0.000000000000000
11
-27.8319459325805
21
2.08468480739949
31
0.000000000000000
  0
LINE
  5
F10583
330
F10584
100
AcDbEntity
8
Geo
100
AcDbLine
10
-27.8319459325805
20
2.08468480739949
30
0.000000000000000
11
-27.7319459325805
21
2.09420787238026
31
0.000000000000000
  0
LINE
  5
F10585
330
F10586
100
AcDbEntity
8
Geo
100
AcDbLine
10
-27.7319459325805
20
2.09420787238026
30
0.000000000000000
11
-27.6319459325805
21
2.12065737433331
31
0.000000000000000
  0
LINE
  5
F10587
330
F10588
100
AcDbEntity
8
Geo
100
AcDbLine
10
-27.6319459325805
20
2.12065737433331
30
0.000000000000000
11
-27.5319459325805
21
2.18004073494075
31
0.000000000000000
  0
LINE
  5
F10589
330
F1058A
100
AcDbEntity
8
Geo
100
AcDbLine
10
-27.5319459325805
20
2.18004073494075
30
0.000000000000000
11
-27.4319459325805
21
2.29904577193938
31
0.000000000000000
  0
LINE
  5
F1058B
330
F1058C
100
AcDbEntity
8
Geo
100
AcDbLine
10
-27.4319459325805
20
2.29904577193938
30
0.000000000000000
11
-27.3319459325806
21
2.52030291382994
31
0.000000000000000
  0
LINE
  5
F1058D
330
F1058E
100
AcDbEntity
8
Geo
100
AcDbLine
10
-27.3319459325806
20
2.52030291382994
30
0.000000000000000
11
-27.3319459325806
21
2.87032035911605
31
0.000000000000000
  0
LINE
  5
F1058F
330
F10590
100
AcDbEntity
8
Geo
100
AcDbLine
10
-27.3319459325806
20
2.87032035911605
30
0.000000000000000
11
-27.3319459325806
21
2.86829473271810
31
0.000000000000000
  0
LINE
  5
F10591
330
F10592
100
AcDbEntity
8
Geo
100
AcDbLine
10
-27.3319459325806
20
2.86829473271810
30
0.000000000000000
11
-27.3319459325806
21
2.59199613760934
31
0.000000000000000
  0
LINE
  5
F10593
330
F10594
100
AcDbEntity
8
Geo
100
AcDbLine
10
-27.3319459325806
20
2.59199613760934
30
0.000000000000000
11
-27.4319459325805
21
2.91318590298948
31
0.000000000000000
  0
LINE
  5
F10595
330
F10596
100
AcDbEntity
8
Geo
100
AcDbLine
10
-27.4319459325805
20
2.91318590298948
30
0.000000000000000
11
-27.5319459325805
21
3.26940247923867
31
0.000000000000000
  0
LINE
  5
F10597
330
F10598
100
AcDbEntity
8
Geo
100
AcDbLine
10
-27.5319459325805
20
3.26940247923867
30
0.000000000000000
11
-27.6319459325805
21
3.64360117923473
31
0.000000000000000
  0
LINE
  5
F10599
330
F1059A
100
AcDbEntity
8
Geo
100
AcDbLine
10
-27.6319459325805
20
3.64360117923473
30
0.000000000000000
11
-27.7319459325805
21
4.02286914859924
31
0.000000000000000
  0
LINE
  5
F1059B
330
F1059C
100
AcDbEntity
8
Geo
100
AcDbLine
10
-27.7319459325805
20
4.02286914859924
30
0.000000000000000
11
-27.8319459325805
21
4.39774187748487
31
0.000000000000000
  0
LINE
  5
F1059D
330
F1059E
100
AcDbEntity
8
Geo
100
AcDbLine
10
-27.8319459325805
20
4.39774187748487
30
0.000000000000000
11
-27.9319459325805
21
4.76154957436762
31
0.000000000000000
  0
LINE
  5
F1059F
330
F105A0
100
AcDbEntity
8
Geo
100
AcDbLine
10
-27.9319459325805
20
4.76154957436762
30
0.000000000000000
11
-28.0319459325805
21
5.10983191048448
31
0.000000000000000
  0
LINE
  5
F105A1
330
F105A2
100
AcDbEntity
8
Geo
100
AcDbLine
10
-28.0319459325805
20
5.10983191048448
30
0.000000000000000
11
-28.1319459325805
21
5.43983660044999
31
0.000000000000000
  0
LINE
  5
F105A3
330
F105A4
100
AcDbEntity
8
Geo
100
AcDbLine
10
-28.1319459325805
20
5.43983660044999
30
0.000000000000000
11
-28.2319459325805
21
5.75010340485296
31
0.000000000000000
  0
LINE
  5
F105A5
330
F105A6
100
AcDbEntity
8
Geo
100
AcDbLine
10
-28.2319459325805
20
5.75010340485296
30
0.000000000000000
11
-28.3319459325805
21
6.04012750085646
31
0.000000000000000
  0
LINE
  5
F105A7
330
F105A8
100
AcDbEntity
8
Geo
100
AcDbLine
10
-28.3319459325805
20
6.04012750085646
30
0.000000000000000
11
-28.4319459325805
21
6.31009256802723
31
0.000000000000000
  0
LINE
  5
F105A9
330
F105AA
100
AcDbEntity
8
Geo
100
AcDbLine
10
-28.4319459325805
20
6.31009256802723
30
0.000000000000000
11
-28.5319459325805
21
6.56066281437491
31
0.000000000000000
  0
LINE
  5
F105AB
330
F105AC
100
AcDbEntity
8
Geo
100
AcDbLine
10
-28.5319459325805
20
6.56066281437491
30
0.000000000000000
11
-28.6319459325805
21
6.79282345958026
31
0.000000000000000
  0
LINE
  5
F105AD
330
F105AE
100
AcDbEntity
8
Geo
100
AcDbLine
10
-28.6319459325805
20
6.79282345958026
30
0.000000000000000
11
-28.7319459325805
21
7.00776020831522
31
0.000000000000000
  0
LINE
  5
F105AF
330
F105B0
100
AcDbEntity
8
Geo
100
AcDbLine
10
-28.7319459325805
20
7.00776020831522
30
0.000000000000000
11
-28.8319459325805
21
7.20676955842548
31
0.000000000000000
  0
LINE
  5
F105B1
330
F105B2
100
AcDbEntity
8
Geo
100
AcDbLine
10
-28.8319459325805
20
7.20676955842548
30
0.000000000000000
11
-28.9319459325805
21
7.39119314607930
31
0.000000000000000
  0
LINE
  5
F105B3
330
F105B4
100
AcDbEntity
8
Geo
100
AcDbLine
10
-28.9319459325805
20
7.39119314607930
30
0.000000000000000
11
-29.0319459325805
21
7.56237059785290
31
0.000000000000000
  0
LINE
  5
F105B5
330
F105B6
100
AcDbEntity
8
Geo
100
AcDbLine
10
-29.0319459325805
20
7.56237059785290
30
0.000000000000000
11
-29.1319459325805
21
7.72160647540599
31
0.000000000000000
  0
LINE
  5
F105B7
330
F105B8
100
AcDbEntity
8
Geo
100
AcDbLine
10
-29.1319459325805
20
7.72160647540599
30
0.000000000000000
11
-29.2319459325805
21
7.87014784219371
31
0.000000000000000
  0
LINE
  5
F105B9
330
F105BA
100
AcDbEntity
8
Geo
100
AcDbLine
10
-29.2319459325805
20
7.87014784219371
30
0.000000000000000
11
-29.3319459325805
21
8.00916975784347
31
0.000000000000000
  0
LINE
  5
F105BB
330
F105BC
100
AcDbEntity
8
Geo
100
AcDbLine
10
-29.3319459325805
20
8.00916975784347
30
0.000000000000000
11
-29.4319459325805
21
8.13976663070050
31
0.000000000000000
  0
LINE
  5
F105BD
330
F105BE
100
AcDbEntity
8
Geo
100
AcDbLine
10
-29.4319459325805
20
8.13976663070050
30
0.000000000000000
11
-29.5319459325805
21
8.26294785372915
31
0.000000000000000
  0
LINE
  5
F105BF
330
F105C0
100
AcDbEntity
8
Geo
100
AcDbLine
10
-29.5319459325805
20
8.26294785372915
30
0.000000000000000
11
-29.6319459325805
21
8.37963653524113
31
0.000000000000000
  0
LINE
  5
F105C1
330
F105C2
100
AcDbEntity
8
Geo
100
AcDbLine
10
-29.6319459325805
20
8.37963653524113
30
0.000000000000000
11
-29.7319459325805
21
8.49067043410485
31
0.000000000000000
  0
LINE
  5
F105C3
330
F105C4
100
AcDbEntity
8
Geo
100
AcDbLine
10
-29.7319459325805
20
8.49067043410485
30
0.000000000000000
11
-29.8319459325805
21
8.59680443698697
31
0.000000000000000
  0
LINE
  5
F105C5
330
F105C6
100
AcDbEntity
8
Geo
100
AcDbLine
10
-29.8319459325805
20
8.59680443698697
30
0.000000000000000
11
-29.9319459325805
21
8.69871408782626
31
0.000000000000000
  0
LINE
  5
F105C7
330
F105C8
100
AcDbEntity
8
Geo
100
AcDbLine
10
-29.9319459325805
20
8.69871408782626
30
0.000000000000000
11
-30.0319459325805
21
8.79699980949022
31
0.000000000000000
  0
LINE
  5
F105C9
330
F105CA
100
AcDbEntity
8
Geo
100
AcDbLine
10
-30.0319459325805
20
8.79699980949022
30
0.000000000000000
11
-30.1319459325805
21
8.89219155434947
31
0.000000000000000
  0
LINE
  5
F105CB
330
F105CC
100
AcDbEntity
8
Geo
100
AcDbLine
10
-30.1319459325805
20
8.89219155434947
30
0.000000000000000
11
-30.2319459325805
21
8.98475369218403
31
0.000000000000000
  0
LINE
  5
F105CD
330
F105CE
100
AcDbEntity
8
Geo
100
AcDbLine
10
-30.2319459325805
20
8.98475369218403
30
0.000000000000000
11
-30.3319459325805
21
9.07508999655114
31
0.000000000000000
  0
LINE
  5
F105CF
330
F105D0
100
AcDbEntity
8
Geo
100
AcDbLine
10
-30.3319459325805
20
9.07508999655114
30
0.000000000000000
11
-30.4319459325805
21
9.16354862924172
31
0.000000000000000
  0
LINE
  5
F105D1
330
F105D2
100
AcDbEntity
8
Geo
100
AcDbLine
10
-30.4319459325805
20
9.16354862924172
30
0.000000000000000
11
-30.5319459325805
21
9.25042705036995
31
0.000000000000000
  0
LINE
  5
F105D3
330
F105D4
100
AcDbEntity
8
Geo
100
AcDbLine
10
-30.5319459325805
20
9.25042705036995
30
0.000000000000000
11
-30.6319459325805
21
9.33597680174266
31
0.000000000000000
  0
LINE
  5
F105D5
330
F105D6
100
AcDbEntity
8
Geo
100
AcDbLine
10
-30.6319459325805
20
9.33597680174266
30
0.000000000000000
11
-30.7319459325805
21
9.42040812553233
31
0.000000000000000
  0
LINE
  5
F105D7
330
F105D8
100
AcDbEntity
8
Geo
100
AcDbLine
10
-30.7319459325805
20
9.42040812553233
30
0.000000000000000
11
-30.8319459325805
21
9.50389439050068
31
0.000000000000000
  0
LINE
  5
F105D9
330
F105DA
100
AcDbEntity
8
Geo
100
AcDbLine
10
-30.8319459325805
20
9.50389439050068
30
0.000000000000000
11
-30.9319459325805
21
9.58657630526229
31
0.000000000000000
  0
LINE
  5
F105DB
330
F105DC
100
AcDbEntity
8
Geo
100
AcDbLine
10
-30.9319459325805
20
9.58657630526229
30
0.000000000000000
11
-31.0319459325805
21
9.66856590321286
31
0.000000000000000
  0
LINE
  5
F105DD
330
F105DE
100
AcDbEntity
8
Geo
100
AcDbLine
10
-31.0319459325805
20
9.66856590321286
30
0.000000000000000
11
-31.1319459325805
21
9.74995028741977
31
0.000000000000000
  0
LINE
  5
F105DF
330
F105E0
100
AcDbEntity
8
Geo
100
AcDbLine
10
-31.1319459325805
20
9.74995028741977
30
0.000000000000000
11
-31.2319459325805
21
9.83079512645502
31
0.000000000000000
  0
LINE
  5
F105E1
330
F105E2
100
AcDbEntity
8
Geo
100
AcDbLine
10
-31.2319459325805
20
9.83079512645502
30
0.000000000000000
11
-31.3319459325805
21
9.91114789418602
31
0.000000000000000
  0
LINE
  5
F105E3
330
F105E4
100
AcDbEntity
8
Geo
100
AcDbLine
10
-31.3319459325805
20
9.91114789418602
30
0.000000000000000
11
-31.4319459325805
21
9.99104084817170
31
0.000000000000000
  0
LINE
  5
F105E5
330
F105E6
100
AcDbEntity
8
Geo
100
AcDbLine
10
-31.4319459325805
20
9.99104084817170
30
0.000000000000000
11
-31.5319459325805
21
10.0704937427098
31
0.000000000000000
  0
LINE
  5
F105E7
330
F105E8
100
AcDbEntity
8
Geo
100
AcDbLine
10
-31.5319459325805
20
10.0704937427098
30
0.000000000000000
11
-31.6319459325805
21
10.1495162738609
31
0.000000000000000
  0
LINE
  5
F105E9
330
F105EA
100
AcDbEntity
8
Geo
100
AcDbLine
10
-31.6319459325805
20
10.1495162738609
30
0.000000000000000
11
-31.7319459325805
21
10.2281102550079
31
0.000000000000000
  0
LINE
  5
F105EB
330
F105EC
100
AcDbEntity
8
Geo
100
AcDbLine
10
-31.7319459325805
20
10.2281102550079
30
0.000000000000000
11
-31.8319459325805
21
10.3062715227400
31
0.000000000000000
  0
LINE
  5
F105ED
330
F105EE
100
AcDbEntity
8
Geo
100
AcDbLine
10
-31.8319459325805
20
10.3062715227400
30
0.000000000000000
11
-31.9319459325805
21
10.3839915740954
31
0.000000000000000
  0
LINE
  5
F105EF
330
F105F0
100
AcDbEntity
8
Geo
100
AcDbLine
10
-31.9319459325805
20
10.3839915740954
30
0.000000000000000
11
-32.0319459325805
21
10.4612589374684
31
0.000000000000000
  0
LINE
  5
F105F1
330
F105F2
100
AcDbEntity
8
Geo
100
AcDbLine
10
-32.0319459325805
20
10.4612589374684
30
0.000000000000000
11
-32.1319459325805
21
10.5380602807749
31
0.000000000000000
  0
LINE
  5
F105F3
330
F105F4
100
AcDbEntity
8
Geo
100
AcDbLine
10
-32.1319459325805
20
10.5380602807749
30
0.000000000000000
11
-32.2319459325806
21
10.6143812617696
31
0.000000000000000
  0
LINE
  5
F105F5
330
F105F6
100
AcDbEntity
8
Geo
100
AcDbLine
10
-32.2319459325806
20
10.6143812617696
30
0.000000000000000
11
-32.3319459325806
21
10.6902071267143
31
0.000000000000000
  0
LINE
  5
F105F7
330
F105F8
100
AcDbEntity
8
Geo
100
AcDbLine
10
-32.3319459325806
20
13.1576493095333
30
0.000000000000000
11
-32.2319459325806
21
13.1123871020742
31
0.000000000000000
  0
LINE
  5
F105F9
330
F105FA
100
AcDbEntity
8
Geo
100
AcDbLine
10
-32.2319459325806
20
13.1123871020742
30
0.000000000000000
11
-32.1319459325805
21
13.0661412461024
31
0.000000000000000
  0
LINE
  5
F105FB
330
F105FC
100
AcDbEntity
8
Geo
100
AcDbLine
10
-32.1319459325805
20
13.0661412461024
30
0.000000000000000
11
-32.0319459325805
21
13.0189207862375
31
0.000000000000000
  0
LINE
  5
F105FD
330
F105FE
100
AcDbEntity
8
Geo
100
AcDbLine
10
-32.0319459325805
20
13.0189207862375
30
0.000000000000000
11
-31.9319459325805
21
12.9707349577091
31
0.000000000000000
  0
LINE
  5
F105FF
330
F10600
100
AcDbEntity
8
Geo
100
AcDbLine
10
-31.9319459325805
20
12.9707349577091
30
0.000000000000000
11
-31.8319459325805
21
12.9215931845522
31
0.000000000000000
  0
LINE
  5
F10601
330
F10602
100
AcDbEntity
8
Geo
100
AcDbLine
10
-31.8319459325805
20
12.9215931845522
30
0.000000000000000
11
-31.7319459325805
21
12.8715050777743
31
0.000000000000000
  0
LINE
  5
F10603
330
F10604
100
AcDbEntity
8
Geo
100
AcDbLine
10
-31.7319459325805
20
12.8715050777743
30
0.000000000000000
11
-31.6319459325805
21
12.8204804335234
31
0.000000000000000
  0
LINE
  5
F10605
330
F10606
100
AcDbEntity
8
Geo
100
AcDbLine
10
-31.6319459325805
20
12.8204804335234
30
0.000000000000000
11
-31.5319459325805
21
12.7685292313523
31
0.000000000000000
  0
LINE
  5
F10607
330
F10608
100
AcDbEntity
8
Geo
100
AcDbLine
10
-31.5319459325805
20
12.7685292313523
30
0.000000000000000
11
-31.4319459325805
21
12.7156616328165
31
0.000000000000000
  0
LINE
  5
F10609
330
F1060A
100
AcDbEntity
8
Geo
100
AcDbLine
10
-31.4319459325805
20
12.7156616328165
30
0.000000000000000
11
-31.3319459325805
21
12.6618879809528
31
0.000000000000000
  0
LINE
  5
F1060B
330
F1060C
100
AcDbEntity
8
Geo
100
AcDbLine
10
-31.3319459325805
20
12.6618879809528
30
0.000000000000000
11
-31.2319459325805
21
12.6072188017461
31
0.000000000000000
  0
LINE
  5
F1060D
330
F1060E
100
AcDbEntity
8
Geo
100
AcDbLine
10
-31.2319459325805
20
12.6072188017461
30
0.000000000000000
11
-31.1319459325805
21
12.5516648096725
31
0.000000000000000
  0
LINE
  5
F1060F
330
F10610
100
AcDbEntity
8
Geo
100
AcDbLine
10
-31.1319459325805
20
12.5516648096725
30
0.000000000000000
11
-31.0319459325805
21
12.4952369209997
31
0.000000000000000
  0
LINE
  5
F10611
330
F10612
100
AcDbEntity
8
Geo
100
AcDbLine
10
-31.0319459325805
20
12.4952369209997
30
0.000000000000000
11
-30.9319459325805
21
12.4379462810014
31
0.000000000000000
  0
LINE
  5
F10613
330
F10614
100
AcDbEntity
8
Geo
100
AcDbLine
10
-30.9319459325805
20
12.4379462810014
30
0.000000000000000
11
-30.8319459325805
21
12.3798043149426
31
0.000000000000000
  0
LINE
  5
F10615
330
F10616
100
AcDbEntity
8
Geo
100
AcDbLine
10
-30.8319459325805
20
12.3798043149426
30
0.000000000000000
11
-30.7319459325805
21
12.3208228180320
31
0.000000000000000
  0
LINE
  5
F10617
330
F10618
100
AcDbEntity
8
Geo
100
AcDbLine
10
-30.7319459325805
20
12.3208228180320
30
0.000000000000000
11
-30.6319459325805
21
12.2610141070414
31
0.000000000000000
  0
LINE
  5
F10619
330
F1061A
100
AcDbEntity
8
Geo
100
AcDbLine
10
-30.6319459325805
20
12.2610141070414
30
0.000000000000000
11
-30.5319459325805
21
12.2003912665690
31
0.000000000000000
  0
LINE
  5
F1061B
330
F1061C
100
AcDbEntity
8
Geo
100
AcDbLine
10
-30.5319459325805
20
12.2003912665690
30
0.000000000000000
11
-30.4319459325805
21
12.1389685367095
31
0.000000000000000
  0
LINE
  5
F1061D
330
F1061E
100
AcDbEntity
8
Geo
100
AcDbLine
10
-30.4319459325805
20
12.1389685367095
30
0.000000000000000
11
-30.3319459325805
21
12.0767619070362
31
0.000000000000000
  0
LINE
  5
F1061F
330
F10620
100
AcDbEntity
8
Geo
100
AcDbLine
10
-30.3319459325805
20
12.0767619070362
30
0.000000000000000
11
-30.2319459325805
21
12.0137900052778
31
0.000000000000000
  0
LINE
  5
F10621
330
F10622
100
AcDbEntity
8
Geo
100
AcDbLine
10
-30.2319459325805
20
12.0137900052778
30
0.000000000000000
11
-30.1319459325805
21
11.9500753989932
31
0.000000000000000
  0
LINE
  5
F10623
330
F10624
100
AcDbEntity
8
Geo
100
AcDbLine
10
-30.1319459325805
20
11.9500753989932
30
0.000000000000000
11
-30.0319459325805
21
11.8856464661486
31
0.000000000000000
  0
LINE
  5
F10625
330
F10626
100
AcDbEntity
8
Geo
100
AcDbLine
10
-30.0319459325805
20
11.8856464661486
30
0.000000000000000
11
-29.9319459325805
21
11.8205400371436
31
0.000000000000000
  0
LINE
  5
F10627
330
F10628
100
AcDbEntity
8
Geo
100
AcDbLine
10
-29.9319459325805
20
11.8205400371436
30
0.000000000000000
11
-29.8319459325805
21
11.7548050679690
31
0.000000000000000
  0
LINE
  5
F10629
330
F1062A
100
AcDbEntity
8
Geo
100
AcDbLine
10
-29.8319459325805
20
11.7548050679690
30
0.000000000000000
11
-29.7319459325805
21
11.6885076733157
31
0.000000000000000
  0
LINE
  5
F1062B
330
F1062C
100
AcDbEntity
8
Geo
100
AcDbLine
10
-29.7319459325805
20
11.6885076733157
30
0.000000000000000
11
-29.6319459325805
21
11.6217379310730
31
0.000000000000000
  0
LINE
  5
F1062D
330
F1062E
100
AcDbEntity
8
Geo
100
AcDbLine
10
-29.6319459325805
20
11.6217379310730
30
0.000000000000000
11
-29.5319459325805
21
11.5546189670589
31
0.000000000000000
  0
LINE
  5
F1062F
330
F10630
100
AcDbEntity
8
Geo
100
AcDbLine
10
-29.5319459325805
20
11.5546189670589
30
0.000000000000000
11
-29.4319459325805
21
11.4873189419501
31
0.000000000000000
  0
LINE
  5
F10631
330
F10632
100
AcDbEntity
8
Geo
100
AcDbLine
10
-29.4319459325805
20
11.4873189419501
30
0.000000000000000
11
-29.3319459325805
21
11.4200666914078
31
0.000000000000000
  0
LINE
  5
F10633
330
F10634
100
AcDbEntity
8
Geo
100
AcDbLine
10
-29.3319459325805
20
11.4200666914078
30
0.000000000000000
11
-29.2319459325805
21
11.3531719142487
31
0.000000000000000
  0
LINE
  5
F10635
330
F10636
100
AcDbEntity
8
Geo
100
AcDbLine
10
-29.2319459325805
20
11.3531719142487
30
0.000000000000000
11
-29.1319459325805
21
11.2870509589860
31
0.000000000000000
  0
LINE
  5
F10637
330
F10638
100
AcDbEntity
8
Geo
100
AcDbLine
10
-29.1319459325805
20
11.2870509589860
30
0.000000000000000
11
-29.0319459325805
21
11.2222594195482
31
0.000000000000000
  0
LINE
  5
F10639
330
F1063A
100
AcDbEntity
8
Geo
100
AcDbLine
10
-29.0319459325805
20
11.2222594195482
30
0.000000000000000
11
-28.9319459325805
21
11.1595329043701
31
0.000000000000000
  0
LINE
  5
F1063B
330
F1063C
100
AcDbEntity
8
Geo
100
AcDbLine
10
-28.9319459325805
20
11.1595329043701
30
0.000000000000000
11
-28.8319459325805
21
11.0998374684033
31
0.000000000000000
  0
LINE
  5
F1063D
330
F1063E
100
AcDbEntity
8
Geo
100
AcDbLine
10
-28.8319459325805
20
11.0998374684033
30
0.000000000000000
11
-28.7319459325805
21
11.0444312594213
31
0.000000000000000
  0
LINE
  5
F1063F
330
F10640
100
AcDbEntity
8
Geo
100
AcDbLine
10
-28.7319459325805
20
11.0444312594213
30
0.000000000000000
11
-28.6319459325805
21
10.9949388682598
31
0.000000000000000
  0
LINE
  5
F10641
330
F10642
100
AcDbEntity
8
Geo
100
AcDbLine
10
-28.6319459325805
20
10.9949388682598
30
0.000000000000000
11
-28.5319459325805
21
10.9534395845399
31
0.000000000000000
  0
LINE
  5
F10643
330
F10644
100
AcDbEntity
8
Geo
100
AcDbLine
10
-28.5319459325805
20
10.9534395845399
30
0.000000000000000
11
-28.4319459325805
21
10.9225700655144
31
0.000000000000000
  0
LINE
  5
F10645
330
F10646
100
AcDbEntity
8
Geo
100
AcDbLine
10
-28.4319459325805
20
10.9225700655144
30
0.000000000000000
11
-28.3319459325805
21
10.9056405062299
31
0.000000000000000
  0
LINE
  5
F10647
330
F10648
100
AcDbEntity
8
Geo
100
AcDbLine
10
-28.3319459325805
20
10.9056405062299
30
0.000000000000000
11
-28.2319459325805
21
10.9067606745635
31
0.000000000000000
  0
LINE
  5
F10649
330
F1064A
100
AcDbEntity
8
Geo
100
AcDbLine
10
-28.2319459325805
20
10.9067606745635
30
0.000000000000000
11
-28.1319459325805
21
10.9309670829194
31
0.000000000000000
  0
LINE
  5
F1064B
330
F1064C
100
AcDbEntity
8
Geo
100
AcDbLine
10
-28.1319459325805
20
10.9309670829194
30
0.000000000000000
11
-28.0319459325805
21
10.9843331591234
31
0.000000000000000
  0
LINE
  5
F1064D
330
F1064E
100
AcDbEntity
8
Geo
100
AcDbLine
10
-28.0319459325805
20
10.9843331591234
30
0.000000000000000
11
-27.9319459325805
21
11.0740269931857
31
0.000000000000000
  0
LINE
  5
F1064F
330
F10650
100
AcDbEntity
8
Geo
100
AcDbLine
10
-27.9319459325805
20
11.0740269931857
30
0.000000000000000
11
-27.8319459325805
21
11.2082496810723
31
0.000000000000000
  0
LINE
  5
F10651
330
F10652
100
AcDbEntity
8
Geo
100
AcDbLine
10
-27.8319459325805
20
11.2082496810723
30
0.000000000000000
11
-27.7319459325805
21
11.3959302898357
31
0.000000000000000
  0
LINE
  5
F10653
330
F10654
100
AcDbEntity
8
Geo
100
AcDbLine
10
-27.7319459325805
20
11.3959302898357
30
0.000000000000000
11
-27.6319459325805
21
11.6459523699013
31
0.000000000000000
  0
LINE
  5
F10655
330
F10656
100
AcDbEntity
8
Geo
100
AcDbLine
10
-27.6319459325805
20
11.6459523699013
30
0.000000000000000
11
-27.5319459325805
21
11.9655129146065
31
0.000000000000000
  0
LINE
  5
F10657
330
F10658
100
AcDbEntity
8
Geo
100
AcDbLine
10
-27.5319459325805
20
11.9655129146065
30
0.000000000000000
11
-27.4319459325805
21
12.3569297264919
31
0.000000000000000
  0
LINE
  5
F10659
330
F1065A
100
AcDbEntity
8
Geo
100
AcDbLine
10
-27.4319459325805
20
12.3569297264919
30
0.000000000000000
11
-27.3319459325806
21
12.8117866184692
31
0.000000000000000
  0
LINE
  5
F1065B
330
F1065C
100
AcDbEntity
8
Geo
100
AcDbLine
10
-27.3319459325806
20
12.8117866184692
30
0.000000000000000
11
-27.3319459325806
21
12.4616807740017
31
0.000000000000000
  0
LINE
  5
F1065D
330
F1065E
100
AcDbEntity
8
Geo
100
AcDbLine
10
-27.3319459325806
20
12.4616807740017
30
0.000000000000000
11
-27.3319459325806
21
12.4582192507050
31
0.000000000000000
  0
LINE
  5
F1065F
330
F10660
100
AcDbEntity
8
Geo
100
AcDbLine
10
-27.3319459325806
20
12.4582192507050
30
0.000000000000000
11
-27.3319459325806
21
12.9229767259859
31
0.000000000000000
  0
LINE
  5
F10661
330
F10662
100
AcDbEntity
8
Geo
100
AcDbLine
10
-27.3319459325806
20
12.9229767259859
30
0.000000000000000
11
-27.4319459325805
21
13.3050936552903
31
0.000000000000000
  0
LINE
  5
F10663
330
F10664
100
AcDbEntity
8
Geo
100
AcDbLine
10
-27.4319459325805
20
13.3050936552903
30
0.000000000000000
11
-27.5319459325805
21
13.5916982729144
31
0.000000000000000
  0
LINE
  5
F10665
330
F10666
100
AcDbEntity
8
Geo
100
AcDbLine
10
-27.5319459325805
20
13.5916982729144
30
0.000000000000000
11
-27.6319459325805
21
13.7981930530184
31
0.000000000000000
  0
LINE
  5
F10667
330
F10668
100
AcDbEntity
8
Geo
100
AcDbLine
10
-27.6319459325805
20
13.7981930530184
30
0.000000000000000
11
-27.7319459325805
21
13.9387734353070
31
0.000000000000000
  0
LINE
  5
F10669
330
F1066A
100
AcDbEntity
8
Geo
100
AcDbLine
10
-27.7319459325805
20
13.9387734353070
30
0.000000000000000
11
-27.8319459325805
21
14.0260649367769
31
0.000000000000000
  0
LINE
  5
F1066B
330
F1066C
100
AcDbEntity
8
Geo
100
AcDbLine
10
-27.8319459325805
20
14.0260649367769
30
0.000000000000000
11
-27.9319459325805
21
14.0709980534591
31
0.000000000000000
  0
LINE
  5
F1066D
330
F1066E
100
AcDbEntity
8
Geo
100
AcDbLine
10
-27.9319459325805
20
14.0709980534591
30
0.000000000000000
11
-28.0243577383030
21
14.0829143657793
31
0.000000000000000
  0
LINE
  5
F1066F
330
F10670
100
AcDbEntity
8
Geo
100
AcDbLine
10
-51.3319459325806
20
4.77860737301721
30
0.000000000000000
11
-51.2319459325806
21
4.67673217243910
31
0.000000000000000
  0
LINE
  5
F10671
330
F10672
100
AcDbEntity
8
Geo
100
AcDbLine
10
-51.2319459325806
20
4.67673217243910
30
0.000000000000000
11
-51.1319459325805
21
4.57293844498503
31
0.000000000000000
  0
LINE
  5
F10673
330
F10674
100
AcDbEntity
8
Geo
100
AcDbLine
10
-51.1319459325805
20
4.57293844498503
30
0.000000000000000
11
-51.0319459325806
21
4.46726251753440
31
0.000000000000000
  0
LINE
  5
F10675
330
F10676
100
AcDbEntity
8
Geo
100
AcDbLine
10
-51.0319459325806
20
4.46726251753440
30
0.000000000000000
11
-50.9319459325806
21
4.35974156060193
31
0.000000000000000
  0
LINE
  5
F10677
330
F10678
100
AcDbEntity
8
Geo
100
AcDbLine
10
-50.9319459325806
20
4.35974156060193
30
0.000000000000000
11
-50.8319459325806
21
4.29564357141226
31
0.000000000000000
  0
LINE
  5
F10679
330
F1067A
100
AcDbEntity
8
Geo
100
AcDbLine
10
-50.8319459325806
20
4.29564357141226
30
0.000000000000000
11
-50.7319459325806
21
4.23228628477318
31
0.000000000000000
  0
LINE
  5
F1067B
330
F1067C
100
AcDbEntity
8
Geo
100
AcDbLine
10
-50.7319459325806
20
4.23228628477318
30
0.000000000000000
11
-50.6319459325805
21
4.16968209190424
31
0.000000000000000
  0
LINE
  5
F1067D
330
F1067E
100
AcDbEntity
8
Geo
100
AcDbLine
10
-50.6319459325805
20
4.16968209190424
30
0.000000000000000
11
-50.5319459325806
21
4.10784323673723
31
0.000000000000000
  0
LINE
  5
F1067F
330
F10680
100
AcDbEntity
8
Geo
100
AcDbLine
10
-50.5319459325806
20
4.10784323673723
30
0.000000000000000
11
-50.4319459325806
21
4.04678181352161
31
0.000000000000000
  0
LINE
  5
F10681
330
F10682
100
AcDbEntity
8
Geo
100
AcDbLine
10
-50.4319459325806
20
4.04678181352161
30
0.000000000000000
11
-50.3319459325806
21
3.98650976445914
31
0.000000000000000
  0
LINE
  5
F10683
330
F10684
100
AcDbEntity
8
Geo
100
AcDbLine
10
-50.3319459325806
20
3.98650976445914
30
0.000000000000000
11
-50.2319459325806
21
3.92703887736824
31
0.000000000000000
  0
LINE
  5
F10685
330
F10686
100
AcDbEntity
8
Geo
100
AcDbLine
10
-50.2319459325806
20
3.92703887736824
30
0.000000000000000
11
-50.1319459325805
21
3.86838078337860
31
0.000000000000000
  0
LINE
  5
F10687
330
F10688
100
AcDbEntity
8
Geo
100
AcDbLine
10
-50.1319459325805
20
3.86838078337860
30
0.000000000000000
11
-50.0319459325806
21
3.81054695465637
31
0.000000000000000
  0
LINE
  5
F10689
330
F1068A
100
AcDbEntity
8
Geo
100
AcDbLine
10
-50.0319459325806
20
3.81054695465637
30
0.000000000000000
11
-49.9319459325806
21
3.75354870216050
31
0.000000000000000
  0
LINE
  5
F1068B
330
F1068C
100
AcDbEntity
8
Geo
100
AcDbLine
10
-49.9319459325806
20
3.75354870216050
30
0.000000000000000
11
-49.8319459325806
21
3.69739717343054
31
0.000000000000000
  0
LINE
  5
F1068D
330
F1068E
100
AcDbEntity
8
Geo
100
AcDbLine
10
-49.8319459325806
20
3.69739717343054
30
0.000000000000000
11
-49.7319459325806
21
3.64210335040647
31
0.000000000000000
  0
LINE
  5
F1068F
330
F10690
100
AcDbEntity
8
Geo
100
AcDbLine
10
-49.7319459325806
20
3.64210335040647
30
0.000000000000000
11
-49.6319459325805
21
3.58767804728088
31
0.000000000000000
  0
LINE
  5
F10691
330
F10692
100
AcDbEntity
8
Geo
100
AcDbLine
10
-49.6319459325805
20
3.58767804728088
30
0.000000000000000
11
-49.5319459325806
21
3.53413190838396
31
0.000000000000000
  0
LINE
  5
F10693
330
F10694
100
AcDbEntity
8
Geo
100
AcDbLine
10
-49.5319459325806
20
3.53413190838396
30
0.000000000000000
11
-49.4319459325806
21
3.48147540610170
31
0.000000000000000
  0
LINE
  5
F10695
330
F10696
100
AcDbEntity
8
Geo
100
AcDbLine
10
-49.4319459325806
20
3.48147540610170
30
0.000000000000000
11
-49.3319459325806
21
3.42971883882778
31
0.000000000000000
  0
LINE
  5
F10697
330
F10698
100
AcDbEntity
8
Geo
100
AcDbLine
10
-49.3319459325806
20
3.42971883882778
30
0.000000000000000
11
-49.2319459325806
21
3.37887232894938
31
0.000000000000000
  0
LINE
  5
F10699
330
F1069A
100
AcDbEntity
8
Geo
100
AcDbLine
10
-49.2319459325806
20
3.37887232894938
30
0.000000000000000
11
-49.1319459325805
21
3.32894582086753
31
0.000000000000000
  0
LINE
  5
F1069B
330
F1069C
100
AcDbEntity
8
Geo
100
AcDbLine
10
-49.1319459325805
20
3.32894582086753
30
0.000000000000000
11
-49.0319459325806
21
3.27994907905218
31
0.000000000000000
  0
LINE
  5
F1069D
330
F1069E
100
AcDbEntity
8
Geo
100
AcDbLine
10
-49.0319459325806
20
3.27994907905218
30
0.000000000000000
11
-48.9319459325806
21
3.23189168613251
31
0.000000000000000
  0
LINE
  5
F1069F
330
F106A0
100
AcDbEntity
8
Geo
100
AcDbLine
10
-48.9319459325806
20
3.23189168613251
30
0.000000000000000
11
-48.8319459325806
21
3.18478304102279
31
0.000000000000000
  0
LINE
  5
F106A1
330
F106A2
100
AcDbEntity
8
Geo
100
AcDbLine
10
-48.8319459325806
20
3.18478304102279
30
0.000000000000000
11
-48.7319459325806
21
3.13863235708417
31
0.000000000000000
  0
LINE
  5
F106A3
330
F106A4
100
AcDbEntity
8
Geo
100
AcDbLine
10
-48.7319459325806
20
3.13863235708417
30
0.000000000000000
11
-48.6319459325805
21
3.09344866032276
31
0.000000000000000
  0
LINE
  5
F106A5
330
F106A6
100
AcDbEntity
8
Geo
100
AcDbLine
10
-48.6319459325805
20
3.09344866032276
30
0.000000000000000
11
-48.5319459325805
21
3.04924078762433
31
0.000000000000000
  0
LINE
  5
F106A7
330
F106A8
100
AcDbEntity
8
Geo
100
AcDbLine
10
-48.5319459325805
20
3.04924078762433
30
0.000000000000000
11
-48.4319459325806
21
3.00601738502605
31
0.000000000000000
  0
LINE
  5
F106A9
330
F106AA
100
AcDbEntity
8
Geo
100
AcDbLine
10
-48.4319459325806
20
3.00601738502605
30
0.000000000000000
11
-48.3319459325806
21
2.96378690602552
31
0.000000000000000
  0
LINE
  5
F106AB
330
F106AC
100
AcDbEntity
8
Geo
100
AcDbLine
10
-48.3319459325806
20
2.96378690602552
30
0.000000000000000
11
-48.2319459325806
21
2.92255760992746
31
0.000000000000000
  0
LINE
  5
F106AD
330
F106AE
100
AcDbEntity
8
Geo
100
AcDbLine
10
-48.2319459325806
20
2.92255760992746
30
0.000000000000000
11
-48.1319459325805
21
2.88233756022835
31
0.000000000000000
  0
LINE
  5
F106AF
330
F106B0
100
AcDbEntity
8
Geo
100
AcDbLine
10
-48.1319459325805
20
2.88233756022835
30
0.000000000000000
11
-48.0319459325805
21
2.84313462303944
31
0.000000000000000
  0
LINE
  5
F106B1
330
F106B2
100
AcDbEntity
8
Geo
100
AcDbLine
10
-48.0319459325805
20
2.84313462303944
30
0.000000000000000
11
-47.9319459325806
21
2.80495646554831
31
0.000000000000000
  0
LINE
  5
F106B3
330
F106B4
100
AcDbEntity
8
Geo
100
AcDbLine
10
-47.9319459325806
20
2.80495646554831
30
0.000000000000000
11
-47.8319459325806
21
2.76781055451933
31
0.000000000000000
  0
LINE
  5
F106B5
330
F106B6
100
AcDbEntity
8
Geo
100
AcDbLine
10
-47.8319459325806
20
2.76781055451933
30
0.000000000000000
11
-47.7319459325806
21
2.73170415483334
31
0.000000000000000
  0
LINE
  5
F106B7
330
F106B8
100
AcDbEntity
8
Geo
100
AcDbLine
10
-47.7319459325806
20
2.73170415483334
30
0.000000000000000
11
-47.6319459325805
21
2.69664432806681
31
0.000000000000000
  0
LINE
  5
F106B9
330
F106BA
100
AcDbEntity
8
Geo
100
AcDbLine
10
-47.6319459325805
20
2.69664432806681
30
0.000000000000000
11
-47.5319459325805
21
2.66263793111077
31
0.000000000000000
  0
LINE
  5
F106BB
330
F106BC
100
AcDbEntity
8
Geo
100
AcDbLine
10
-47.5319459325805
20
2.66263793111077
30
0.000000000000000
11
-47.4319459325805
21
2.62969161482974
31
0.000000000000000
  0
LINE
  5
F106BD
330
F106BE
100
AcDbEntity
8
Geo
100
AcDbLine
10
-47.4319459325805
20
2.62969161482974
30
0.000000000000000
11
-47.3319459325806
21
2.59781182276098
31
0.000000000000000
  0
LINE
  5
F106BF
330
F106C0
100
AcDbEntity
8
Geo
100
AcDbLine
10
-47.3319459325806
20
2.59781182276098
30
0.000000000000000
11
-47.2319459325806
21
2.56700478985431
31
0.000000000000000
  0
LINE
  5
F106C1
330
F106C2
100
AcDbEntity
8
Geo
100
AcDbLine
10
-47.2319459325806
20
2.56700478985431
30
0.000000000000000
11
-47.1319459325805
21
2.53727654125265
31
0.000000000000000
  0
LINE
  5
F106C3
330
F106C4
100
AcDbEntity
8
Geo
100
AcDbLine
10
-47.1319459325805
20
2.53727654125265
30
0.000000000000000
11
-47.0319459325806
21
2.50863289111367
31
0.000000000000000
  0
LINE
  5
F106C5
330
F106C6
100
AcDbEntity
8
Geo
100
AcDbLine
10
-47.0319459325806
20
2.50863289111367
30
0.000000000000000
11
-46.9319459325806
21
2.48107944147269
31
0.000000000000000
  0
LINE
  5
F106C7
330
F106C8
100
AcDbEntity
8
Geo
100
AcDbLine
10
-46.9319459325806
20
2.48107944147269
30
0.000000000000000
11
-46.8319459325806
21
2.45462158114702
31
0.000000000000000
  0
LINE
  5
F106C9
330
F106CA
100
AcDbEntity
8
Geo
100
AcDbLine
10
-46.8319459325806
20
2.45462158114702
30
0.000000000000000
11
-46.7319459325806
21
2.42926448468205
31
0.000000000000000
  0
LINE
  5
F106CB
330
F106CC
100
AcDbEntity
8
Geo
100
AcDbLine
10
-46.7319459325806
20
2.42926448468205
30
0.000000000000000
11
-46.6319459325805
21
2.40501311133922
31
0.000000000000000
  0
LINE
  5
F106CD
330
F106CE
100
AcDbEntity
8
Geo
100
AcDbLine
10
-46.6319459325805
20
2.40501311133922
30
0.000000000000000
11
-46.5319459325806
21
2.38187220412612
31
0.000000000000000
  0
LINE
  5
F106CF
330
F106D0
100
AcDbEntity
8
Geo
100
AcDbLine
10
-46.5319459325806
20
2.38187220412612
30
0.000000000000000
11
-46.4319459325806
21
2.35984628886884
31
0.000000000000000
  0
LINE
  5
F106D1
330
F106D2
100
AcDbEntity
8
Geo
100
AcDbLine
10
-46.4319459325806
20
2.35984628886884
30
0.000000000000000
11
-46.3319459325806
21
2.33893967332684
31
0.000000000000000
  0
LINE
  5
F106D3
330
F106D4
100
AcDbEntity
8
Geo
100
AcDbLine
10
-46.3319459325806
20
2.33893967332684
30
0.000000000000000
11
-46.2319459325806
21
2.31915644635047
31
0.000000000000000
  0
LINE
  5
F106D5
330
F106D6
100
AcDbEntity
8
Geo
100
AcDbLine
10
-46.2319459325806
20
2.31915644635047
30
0.000000000000000
11
-46.1319459325806
21
2.30050047708124
31
0.000000000000000
  0
LINE
  5
F106D7
330
F106D8
100
AcDbEntity
8
Geo
100
AcDbLine
10
-46.1319459325806
20
2.30050047708124
30
0.000000000000000
11
-46.0319459325806
21
2.28297541419514
31
0.000000000000000
  0
LINE
  5
F106D9
330
F106DA
100
AcDbEntity
8
Geo
100
AcDbLine
10
-46.0319459325806
20
2.28297541419514
30
0.000000000000000
11
-45.9319459325806
21
2.26658468518904
31
0.000000000000000
  0
LINE
  5
F106DB
330
F106DC
100
AcDbEntity
8
Geo
100
AcDbLine
10
-45.9319459325806
20
2.26658468518904
30
0.000000000000000
11
-45.8319459325806
21
2.25133149571034
31
0.000000000000000
  0
LINE
  5
F106DD
330
F106DE
100
AcDbEntity
8
Geo
100
AcDbLine
10
-45.8319459325806
20
2.25133149571034
30
0.000000000000000
11
-45.7319459325806
21
2.23721882893003
31
0.000000000000000
  0
LINE
  5
F106DF
330
F106E0
100
AcDbEntity
8
Geo
100
AcDbLine
10
-45.7319459325806
20
2.23721882893003
30
0.000000000000000
11
-45.6319459325806
21
2.22424944495924
31
0.000000000000000
  0
LINE
  5
F106E1
330
F106E2
100
AcDbEntity
8
Geo
100
AcDbLine
10
-45.6319459325806
20
2.22424944495924
30
0.000000000000000
11
-45.5319459325806
21
2.21242588030944
31
0.000000000000000
  0
LINE
  5
F106E3
330
F106E4
100
AcDbEntity
8
Geo
100
AcDbLine
10
-45.5319459325806
20
2.21242588030944
30
0.000000000000000
11
-45.4319459325806
21
2.20175044739633
31
0.000000000000000
  0
LINE
  5
F106E5
330
F106E6
100
AcDbEntity
8
Geo
100
AcDbLine
10
-45.4319459325806
20
2.20175044739633
30
0.000000000000000
11
-45.3319459325806
21
2.19222523408762
31
0.000000000000000
  0
LINE
  5
F106E7
330
F106E8
100
AcDbEntity
8
Geo
100
AcDbLine
10
-45.3319459325806
20
2.19222523408762
30
0.000000000000000
11
-45.2319459325806
21
2.18385210329468
31
0.000000000000000
  0
LINE
  5
F106E9
330
F106EA
100
AcDbEntity
8
Geo
100
AcDbLine
10
-45.2319459325806
20
2.18385210329468
30
0.000000000000000
11
-45.1319459325806
21
2.17663269260818
31
0.000000000000000
  0
LINE
  5
F106EB
330
F106EC
100
AcDbEntity
8
Geo
100
AcDbLine
10
-45.1319459325806
20
2.17663269260818
30
0.000000000000000
11
-45.0319459325806
21
2.17056841397783
31
0.000000000000000
  0
LINE
  5
F106ED
330
F106EE
100
AcDbEntity
8
Geo
100
AcDbLine
10
-45.0319459325806
20
2.17056841397783
30
0.000000000000000
11
-44.9319459325806
21
2.16566045343623
31
0.000000000000000
  0
LINE
  5
F106EF
330
F106F0
100
AcDbEntity
8
Geo
100
AcDbLine
10
-44.9319459325806
20
2.16566045343623
30
0.000000000000000
11
-44.8319459325806
21
2.16190977086694
31
0.000000000000000
  0
LINE
  5
F106F1
330
F106F2
100
AcDbEntity
8
Geo
100
AcDbLine
10
-44.8319459325806
20
2.16190977086694
30
0.000000000000000
11
-44.7319459325806
21
2.15931709981668
31
0.000000000000000
  0
LINE
  5
F106F3
330
F106F4
100
AcDbEntity
8
Geo
100
AcDbLine
10
-44.7319459325806
20
2.15931709981668
30
0.000000000000000
11
-44.6319459325806
21
2.15788294735193
31
0.000000000000000
  0
LINE
  5
F106F5
330
F106F6
100
AcDbEntity
8
Geo
100
AcDbLine
10
-44.6319459325806
20
2.15788294735193
30
0.000000000000000
11
-44.5581856847734
21
2.08291436577929
31
0.000000000000000
  0
LINE
  5
F106F7
330
F106F8
100
AcDbEntity
8
Geo
100
AcDbLine
10
-37.0701769033913
20
14.0829143657793
30
0.000000000000000
11
-37.0319459325806
21
14.0081763421674
31
0.000000000000000
  0
LINE
  5
F106F9
330
F106FA
100
AcDbEntity
8
Geo
100
AcDbLine
10
-37.0319459325806
20
14.0081763421674
30
0.000000000000000
11
-36.9319459325806
21
14.0071538878100
31
0.000000000000000
  0
LINE
  5
F106FB
330
F106FC
100
AcDbEntity
8
Geo
100
AcDbLine
10
-36.9319459325806
20
14.0071538878100
30
0.000000000000000
11
-36.8319459325806
21
14.0049727892567
31
0.000000000000000
  0
LINE
  5
F106FD
330
F106FE
100
AcDbEntity
8
Geo
100
AcDbLine
10
-36.8319459325806
20
14.0049727892567
30
0.000000000000000
11
-36.7319459325806
21
14.0016334730798
31
0.000000000000000
  0
LINE
  5
F106FF
330
F10700
100
AcDbEntity
8
Geo
100
AcDbLine
10
-36.7319459325806
20
14.0016334730798
30
0.000000000000000
11
-36.6319459325806
21
13.9971365923724
31
0.000000000000000
  0
LINE
  5
F10701
330
F10702
100
AcDbEntity
8
Geo
100
AcDbLine
10
-36.6319459325806
20
13.9971365923724
30
0.000000000000000
11
-36.5319459325806
21
13.9914830266203
31
0.000000000000000
  0
LINE
  5
F10703
330
F10704
100
AcDbEntity
8
Geo
100
AcDbLine
10
-36.5319459325806
20
13.9914830266203
30
0.000000000000000
11
-36.4319459325806
21
13.9846738815302
31
0.000000000000000
  0
LINE
  5
F10705
330
F10706
100
AcDbEntity
8
Geo
100
AcDbLine
10
-36.4319459325806
20
13.9846738815302
30
0.000000000000000
11
-36.3319459325806
21
13.9767104888132
31
0.000000000000000
  0
LINE
  5
F10707
330
F10708
100
AcDbEntity
8
Geo
100
AcDbLine
10
-36.3319459325806
20
13.9767104888132
30
0.000000000000000
11
-36.2319459325806
21
13.9675944059249
31
0.000000000000000
  0
LINE
  5
F10709
330
F1070A
100
AcDbEntity
8
Geo
100
AcDbLine
10
-36.2319459325806
20
13.9675944059249
30
0.000000000000000
11
-36.1319459325806
21
13.9573274157602
31
0.000000000000000
  0
LINE
  5
F1070B
330
F1070C
100
AcDbEntity
8
Geo
100
AcDbLine
10
-36.1319459325806
20
13.9573274157602
30
0.000000000000000
11
-36.0319459325806
21
13.9459115263047
31
0.000000000000000
  0
LINE
  5
F1070D
330
F1070E
100
AcDbEntity
8
Geo
100
AcDbLine
10
-36.0319459325806
20
13.9459115263047
30
0.000000000000000
11
-35.9319459325806
21
13.9333489702423
31
0.000000000000000
  0
LINE
  5
F1070F
330
F10710
100
AcDbEntity
8
Geo
100
AcDbLine
10
-35.9319459325806
20
13.9333489702423
30
0.000000000000000
11
-35.8319459325806
21
13.9196422045185
31
0.000000000000000
  0
LINE
  5
F10711
330
F10712
100
AcDbEntity
8
Geo
100
AcDbLine
10
-35.8319459325806
20
13.9196422045185
30
0.000000000000000
11
-35.7319459325806
21
13.9047939098594
31
0.000000000000000
  0
LINE
  5
F10713
330
F10714
100
AcDbEntity
8
Geo
100
AcDbLine
10
-35.7319459325806
20
13.9047939098594
30
0.000000000000000
11
-35.6319459325806
21
13.8888069902480
31
0.000000000000000
  0
LINE
  5
F10715
330
F10716
100
AcDbEntity
8
Geo
100
AcDbLine
10
-35.6319459325806
20
13.8888069902480
30
0.000000000000000
11
-35.5319459325806
21
13.8716845723559
31
0.000000000000000
  0
LINE
  5
F10717
330
F10718
100
AcDbEntity
8
Geo
100
AcDbLine
10
-35.5319459325806
20
13.8716845723559
30
0.000000000000000
11
-35.4319459325806
21
13.8534300049319
31
0.000000000000000
  0
LINE
  5
F10719
330
F1071A
100
AcDbEntity
8
Geo
100
AcDbLine
10
-35.4319459325806
20
13.8534300049319
30
0.000000000000000
11
-35.3319459325806
21
13.8340468581472
31
0.000000000000000
  0
LINE
  5
F1071B
330
F1071C
100
AcDbEntity
8
Geo
100
AcDbLine
10
-35.3319459325806
20
13.8340468581472
30
0.000000000000000
11
-35.2319459325806
21
13.8135389228968
31
0.000000000000000
  0
LINE
  5
F1071D
330
F1071E
100
AcDbEntity
8
Geo
100
AcDbLine
10
-35.2319459325806
20
13.8135389228968
30
0.000000000000000
11
-35.1319459325806
21
13.7919102100584
31
0.000000000000000
  0
LINE
  5
F1071F
330
F10720
100
AcDbEntity
8
Geo
100
AcDbLine
10
-35.1319459325806
20
13.7919102100584
30
0.000000000000000
11
-35.0319459325806
21
13.7691649497078
31
0.000000000000000
  0
LINE
  5
F10721
330
F10722
100
AcDbEntity
8
Geo
100
AcDbLine
10
-35.0319459325806
20
13.7691649497078
30
0.000000000000000
11
-34.9319459325806
21
13.7453075902919
31
0.000000000000000
  0
LINE
  5
F10723
330
F10724
100
AcDbEntity
8
Geo
100
AcDbLine
10
-34.9319459325806
20
13.7453075902919
30
0.000000000000000
11
-34.8319459325806
21
13.7203427977581
31
0.000000000000000
  0
LINE
  5
F10725
330
F10726
100
AcDbEntity
8
Geo
100
AcDbLine
10
-34.8319459325806
20
13.7203427977581
30
0.000000000000000
11
-34.7319459325806
21
13.6942754546423
31
0.000000000000000
  0
LINE
  5
F10727
330
F10728
100
AcDbEntity
8
Geo
100
AcDbLine
10
-34.7319459325806
20
13.6942754546423
30
0.000000000000000
11
-34.6319459325806
21
13.6671106591138
31
0.000000000000000
  0
LINE
  5
F10729
330
F1072A
100
AcDbEntity
8
Geo
100
AcDbLine
10
-34.6319459325806
20
13.6671106591138
30
0.000000000000000
11
-34.5319459325806
21
13.6388537239782
31
0.000000000000000
  0
LINE
  5
F1072B
330
F1072C
100
AcDbEntity
8
Geo
100
AcDbLine
10
-34.5319459325806
20
13.6388537239782
30
0.000000000000000
11
-34.4319459325806
21
13.6095101756382
31
0.000000000000000
  0
LINE
  5
F1072D
330
F1072E
100
AcDbEntity
8
Geo
100
AcDbLine
10
-34.4319459325806
20
13.6095101756382
30
0.000000000000000
11
-34.3319459325806
21
13.5790857530130
31
0.000000000000000
  0
LINE
  5
F1072F
330
F10730
100
AcDbEntity
8
Geo
100
AcDbLine
10
-34.3319459325806
20
13.5790857530130
30
0.000000000000000
11
-34.2319459325806
21
13.5475864064159
31
0.000000000000000
  0
LINE
  5
F10731
330
F10732
100
AcDbEntity
8
Geo
100
AcDbLine
10
-34.2319459325806
20
13.5475864064159
30
0.000000000000000
11
-34.1319459325806
21
13.5150182963904
31
0.000000000000000
  0
LINE
  5
F10733
330
F10734
100
AcDbEntity
8
Geo
100
AcDbLine
10
-34.1319459325806
20
13.5150182963904
30
0.000000000000000
11
-34.0319459325806
21
13.4813877925052
31
0.000000000000000
  0
LINE
  5
F10735
330
F10736
100
AcDbEntity
8
Geo
100
AcDbLine
10
-34.0319459325806
20
13.4813877925052
30
0.000000000000000
11
-33.9319459325806
21
13.4467014721091
31
0.000000000000000
  0
LINE
  5
F10737
330
F10738
100
AcDbEntity
8
Geo
100
AcDbLine
10
-33.9319459325806
20
13.4467014721091
30
0.000000000000000
11
-33.8319459325806
21
13.4109661190436
31
0.000000000000000
  0
LINE
  5
F10739
330
F1073A
100
AcDbEntity
8
Geo
100
AcDbLine
10
-33.8319459325806
20
13.4109661190436
30
0.000000000000000
11
-33.7319459325806
21
13.3741887223173
31
0.000000000000000
  0
LINE
  5
F1073B
330
F1073C
100
AcDbEntity
8
Geo
100
AcDbLine
10
-33.7319459325806
20
13.3741887223173
30
0.000000000000000
11
-33.6319459325806
21
13.3363764747380
31
0.000000000000000
  0
LINE
  5
F1073D
330
F1073E
100
AcDbEntity
8
Geo
100
AcDbLine
10
-33.6319459325806
20
13.3363764747380
30
0.000000000000000
11
-33.5319459325806
21
13.2975367715067
31
0.000000000000000
  0
LINE
  5
F1073F
330
F10740
100
AcDbEntity
8
Geo
100
AcDbLine
10
-33.5319459325806
20
13.2975367715067
30
0.000000000000000
11
-33.4319459325806
21
13.2576772087706
31
0.000000000000000
  0
LINE
  5
F10741
330
F10742
100
AcDbEntity
8
Geo
100
AcDbLine
10
-33.4319459325806
20
13.2576772087706
30
0.000000000000000
11
-33.3319459325806
21
13.2168055821383
31
0.000000000000000
  0
LINE
  5
F10743
330
F10744
100
AcDbEntity
8
Geo
100
AcDbLine
10
-33.3319459325806
20
13.2168055821383
30
0.000000000000000
11
-33.2319459325806
21
13.1749298851543
31
0.000000000000000
  0
LINE
  5
F10745
330
F10746
100
AcDbEntity
8
Geo
100
AcDbLine
10
-33.2319459325806
20
13.1749298851543
30
0.000000000000000
11
-33.1319459325806
21
13.1320583077361
31
0.000000000000000
  0
LINE
  5
F10747
330
F10748
100
AcDbEntity
8
Geo
100
AcDbLine
10
-33.1319459325806
20
13.1320583077361
30
0.000000000000000
11
-33.0319459325806
21
13.0881992345725
31
0.000000000000000
  0
LINE
  5
F10749
330
F1074A
100
AcDbEntity
8
Geo
100
AcDbLine
10
-33.0319459325806
20
13.0881992345725
30
0.000000000000000
11
-32.9319459325806
21
13.0433612434836
31
0.000000000000000
  0
LINE
  5
F1074B
330
F1074C
100
AcDbEntity
8
Geo
100
AcDbLine
10
-32.9319459325806
20
13.0433612434836
30
0.000000000000000
11
-32.8319459325806
21
12.9975531037430
31
0.000000000000000
  0
LINE
  5
F1074D
330
F1074E
100
AcDbEntity
8
Geo
100
AcDbLine
10
-32.8319459325806
20
12.9975531037430
30
0.000000000000000
11
-32.7319459325806
21
12.9507837743632
31
0.000000000000000
  0
LINE
  5
F1074F
330
F10750
100
AcDbEntity
8
Geo
100
AcDbLine
10
-32.7319459325806
20
12.9507837743632
30
0.000000000000000
11
-32.6319459325806
21
12.9030624023430
31
0.000000000000000
  0
LINE
  5
F10751
330
F10752
100
AcDbEntity
8
Geo
100
AcDbLine
10
-32.6319459325806
20
12.9030624023430
30
0.000000000000000
11
-32.5319459325806
21
12.8543983208788
31
0.000000000000000
  0
LINE
  5
F10753
330
F10754
100
AcDbEntity
8
Geo
100
AcDbLine
10
-32.5319459325806
20
12.8543983208788
30
0.000000000000000
11
-32.4319459325806
21
12.8048010475391
31
0.000000000000000
  0
LINE
  5
F10755
330
F10756
100
AcDbEntity
8
Geo
100
AcDbLine
10
-32.4319459325806
20
12.8048010475391
30
0.000000000000000
11
-32.3319459325806
21
12.7542802824031
31
0.000000000000000
  0
LINE
  5
F10757
330
F10758
100
AcDbEntity
8
Geo
100
AcDbLine
10
-51.3319459325806
20
13.5725122797052
30
0.000000000000000
11
-51.2319459325806
21
13.6648103038790
31
0.000000000000000
  0
LINE
  5
F10759
330
F1075A
100
AcDbEntity
8
Geo
100
AcDbLine
10
-51.2319459325806
20
13.6648103038790
30
0.000000000000000
11
-51.1319459325805
21
13.7562703907107
31
0.000000000000000
  0
LINE
  5
F1075B
330
F1075C
100
AcDbEntity
8
Geo
100
AcDbLine
10
-51.1319459325805
20
13.7562703907107
30
0.000000000000000
11
-51.0319459325806
21
13.8468399424385
31
0.000000000000000
  0
LINE
  5
F1075D
330
F1075E
100
AcDbEntity
8
Geo
100
AcDbLine
10
-51.0319459325806
20
13.8468399424385
30
0.000000000000000
11
-50.9319459325806
21
13.9364662038007
31
0.000000000000000
  0
LINE
  5
F1075F
330
F10760
100
AcDbEntity
8
Geo
100
AcDbLine
10
-50.9319459325806
20
13.9364662038007
30
0.000000000000000
11
-50.8319459325806
21
13.9230336142157
31
0.000000000000000
  0
LINE
  5
F10761
330
F10762
100
AcDbEntity
8
Geo
100
AcDbLine
10
-50.8319459325806
20
13.9230336142157
30
0.000000000000000
11
-50.7319459325806
21
13.9084588324141
31
0.000000000000000
  0
LINE
  5
F10763
330
F10764
100
AcDbEntity
8
Geo
100
AcDbLine
10
-50.7319459325806
20
13.9084588324141
30
0.000000000000000
11
-50.6319459325805
21
13.8927447088862
31
0.000000000000000
  0
LINE
  5
F10765
330
F10766
100
AcDbEntity
8
Geo
100
AcDbLine
10
-50.6319459325805
20
13.8927447088862
30
0.000000000000000
11
-50.5319459325806
21
13.8758943169510
31
0.000000000000000
  0
LINE
  5
F10767
330
F10768
100
AcDbEntity
8
Geo
100
AcDbLine
10
-50.5319459325806
20
13.8758943169510
30
0.000000000000000
11
-50.4319459325806
21
13.8579109521552
31
0.000000000000000
  0
LINE
  5
F10769
330
F1076A
100
AcDbEntity
8
Geo
100
AcDbLine
10
-50.4319459325806
20
13.8579109521552
30
0.000000000000000
11
-50.3319459325806
21
13.8387981316290
31
0.000000000000000
  0
LINE
  5
F1076B
330
F1076C
100
AcDbEntity
8
Geo
100
AcDbLine
10
-50.3319459325806
20
13.8387981316290
30
0.000000000000000
11
-50.2319459325806
21
13.8185595933980
31
0.000000000000000
  0
LINE
  5
F1076D
330
F1076E
100
AcDbEntity
8
Geo
100
AcDbLine
10
-50.2319459325806
20
13.8185595933980
30
0.000000000000000
11
-50.1319459325805
21
13.7971992956520
31
0.000000000000000
  0
LINE
  5
F1076F
330
F10770
100
AcDbEntity
8
Geo
100
AcDbLine
10
-50.1319459325805
20
13.7971992956520
30
0.000000000000000
11
-50.0319459325806
21
13.7747214159710
31
0.000000000000000
  0
LINE
  5
F10771
330
F10772
100
AcDbEntity
8
Geo
100
AcDbLine
10
-50.0319459325806
20
13.7747214159710
30
0.000000000000000
11
-49.9319459325806
21
13.7511303505084
31
0.000000000000000
  0
LINE
  5
F10773
330
F10774
100
AcDbEntity
8
Geo
100
AcDbLine
10
-49.9319459325806
20
13.7511303505084
30
0.000000000000000
11
-49.8319459325806
21
13.7264307131308
31
0.000000000000000
  0
LINE
  5
F10775
330
F10776
100
AcDbEntity
8
Geo
100
AcDbLine
10
-49.8319459325806
20
13.7264307131308
30
0.000000000000000
11
-49.7319459325806
21
13.7006273345157
31
0.000000000000000
  0
LINE
  5
F10777
330
F10778
100
AcDbEntity
8
Geo
100
AcDbLine
10
-49.7319459325806
20
13.7006273345157
30
0.000000000000000
11
-49.6319459325805
21
13.6737252612072
31
0.000000000000000
  0
LINE
  5
F10779
330
F1077A
100
AcDbEntity
8
Geo
100
AcDbLine
10
-49.6319459325805
20
13.6737252612072
30
0.000000000000000
11
-49.5319459325806
21
13.6457297546284
31
0.000000000000000
  0
LINE
  5
F1077B
330
F1077C
100
AcDbEntity
8
Geo
100
AcDbLine
10
-49.5319459325806
20
13.6457297546284
30
0.000000000000000
11
-49.4319459325806
21
13.6166462900528
31
0.000000000000000
  0
LINE
  5
F1077D
330
F1077E
100
AcDbEntity
8
Geo
100
AcDbLine
10
-49.4319459325806
20
13.6166462900528
30
0.000000000000000
11
-49.3319459325806
21
13.5864805555331
31
0.000000000000000
  0
LINE
  5
F1077F
330
F10780
100
AcDbEntity
8
Geo
100
AcDbLine
10
-49.3319459325806
20
13.5864805555331
30
0.000000000000000
11
-49.2319459325806
21
13.5552384507891
31
0.000000000000000
  0
LINE
  5
F10781
330
F10782
100
AcDbEntity
8
Geo
100
AcDbLine
10
-49.2319459325806
20
13.5552384507891
30
0.000000000000000
11
-49.1319459325805
21
13.5229260860539
31
0.000000000000000
  0
LINE
  5
F10783
330
F10784
100
AcDbEntity
8
Geo
100
AcDbLine
10
-49.1319459325805
20
13.5229260860539
30
0.000000000000000
11
-49.0319459325806
21
13.4895497808783
31
0.000000000000000
  0
LINE
  5
F10785
330
F10786
100
AcDbEntity
8
Geo
100
AcDbLine
10
-49.0319459325806
20
13.4895497808783
30
0.000000000000000
11
-48.9319459325806
21
13.4551160628956
31
0.000000000000000
  0
LINE
  5
F10787
330
F10788
100
AcDbEntity
8
Geo
100
AcDbLine
10
-48.9319459325806
20
13.4551160628956
30
0.000000000000000
11
-48.8319459325806
21
13.4196316665443
31
0.000000000000000
  0
LINE
  5
F10789
330
F1078A
100
AcDbEntity
8
Geo
100
AcDbLine
10
-48.8319459325806
20
13.4196316665443
30
0.000000000000000
11
-48.7319459325806
21
13.3831035317516
31
0.000000000000000
  0
LINE
  5
F1078B
330
F1078C
100
AcDbEntity
8
Geo
100
AcDbLine
10
-48.7319459325806
20
13.3831035317516
30
0.000000000000000
11
-48.6319459325805
21
13.3455388025754
31
0.000000000000000
  0
LINE
  5
F1078D
330
F1078E
100
AcDbEntity
8
Geo
100
AcDbLine
10
-48.6319459325805
20
13.3455388025754
30
0.000000000000000
11
-48.5319459325805
21
13.3069448258078
31
0.000000000000000
  0
LINE
  5
F1078F
330
F10790
100
AcDbEntity
8
Geo
100
AcDbLine
10
-48.5319459325805
20
13.3069448258078
30
0.000000000000000
11
-48.4319459325806
21
13.2673291495377
31
0.000000000000000
  0
LINE
  5
F10791
330
F10792
100
AcDbEntity
8
Geo
100
AcDbLine
10
-48.4319459325806
20
13.2673291495377
30
0.000000000000000
11
-48.3319459325806
21
13.2266995216750
31
0.000000000000000
  0
LINE
  5
F10793
330
F10794
100
AcDbEntity
8
Geo
100
AcDbLine
10
-48.3319459325806
20
13.2266995216750
30
0.000000000000000
11
-48.2319459325806
21
13.1850638884349
31
0.000000000000000
  0
LINE
  5
F10795
330
F10796
100
AcDbEntity
8
Geo
100
AcDbLine
10
-48.2319459325806
20
13.1850638884349
30
0.000000000000000
11
-48.1319459325805
21
13.1424303927841
31
0.000000000000000
  0
LINE
  5
F10797
330
F10798
100
AcDbEntity
8
Geo
100
AcDbLine
10
-48.1319459325805
20
13.1424303927841
30
0.000000000000000
11
-48.0319459325805
21
13.0988073728480
31
0.000000000000000
  0
LINE
  5
F10799
330
F1079A
100
AcDbEntity
8
Geo
100
AcDbLine
10
-48.0319459325805
20
13.0988073728480
30
0.000000000000000
11
-47.9319459325806
21
13.0542033602801
31
0.000000000000000
  0
LINE
  5
F1079B
330
F1079C
100
AcDbEntity
8
Geo
100
AcDbLine
10
-47.9319459325806
20
13.0542033602801
30
0.000000000000000
11
-47.8319459325806
21
13.0086270785934
31
0.000000000000000
  0
LINE
  5
F1079D
330
F1079E
100
AcDbEntity
8
Geo
100
AcDbLine
10
-47.8319459325806
20
13.0086270785934
30
0.000000000000000
11
-47.7319459325806
21
12.9620874414541
31
0.000000000000000
  0
LINE
  5
F1079F
330
F107A0
100
AcDbEntity
8
Geo
100
AcDbLine
10
-47.7319459325806
20
12.9620874414541
30
0.000000000000000
11
-47.6319459325805
21
12.9145935509387
31
0.000000000000000
  0
LINE
  5
F107A1
330
F107A2
100
AcDbEntity
8
Geo
100
AcDbLine
10
-47.6319459325805
20
12.9145935509387
30
0.000000000000000
11
-47.5319459325805
21
12.8661546957533
31
0.000000000000000
  0
LINE
  5
F107A3
330
F107A4
100
AcDbEntity
8
Geo
100
AcDbLine
10
-47.5319459325805
20
12.8661546957533
30
0.000000000000000
11
-47.4319459325805
21
12.8167803494175
31
0.000000000000000
  0
LINE
  5
F107A5
330
F107A6
100
AcDbEntity
8
Geo
100
AcDbLine
10
-47.4319459325805
20
12.8167803494175
30
0.000000000000000
11
-47.3319459325806
21
12.7664801684111
31
0.000000000000000
  0
LINE
  5
F107A7
330
F107A8
100
AcDbEntity
8
Geo
100
AcDbLine
10
-47.3319459325806
20
12.7664801684111
30
0.000000000000000
11
-47.2319459325806
21
12.7152639902858
31
0.000000000000000
  0
LINE
  5
F107A9
330
F107AA
100
AcDbEntity
8
Geo
100
AcDbLine
10
-47.2319459325806
20
12.7152639902858
30
0.000000000000000
11
-47.1319459325805
21
12.6631418317413
31
0.000000000000000
  0
LINE
  5
F107AB
330
F107AC
100
AcDbEntity
8
Geo
100
AcDbLine
10
-47.1319459325805
20
12.6631418317413
30
0.000000000000000
11
-47.0319459325806
21
12.6101238866659
31
0.000000000000000
  0
LINE
  5
F107AD
330
F107AE
100
AcDbEntity
8
Geo
100
AcDbLine
10
-47.0319459325806
20
12.6101238866659
30
0.000000000000000
11
-46.9319459325806
21
12.5562205241431
31
0.000000000000000
  0
LINE
  5
F107AF
330
F107B0
100
AcDbEntity
8
Geo
100
AcDbLine
10
-46.9319459325806
20
12.5562205241431
30
0.000000000000000
11
-46.8319459325806
21
12.5014422864237
31
0.000000000000000
  0
LINE
  5
F107B1
330
F107B2
100
AcDbEntity
8
Geo
100
AcDbLine
10
-46.8319459325806
20
12.5014422864237
30
0.000000000000000
11
-46.7319459325806
21
12.4457998868636
31
0.000000000000000
  0
LINE
  5
F107B3
330
F107B4
100
AcDbEntity
8
Geo
100
AcDbLine
10
-46.7319459325806
20
12.4457998868636
30
0.000000000000000
11
-46.6319459325805
21
12.3893042078289
31
0.000000000000000
  0
LINE
  5
F107B5
330
F107B6
100
AcDbEntity
8
Geo
100
AcDbLine
10
-46.6319459325805
20
12.3893042078289
30
0.000000000000000
11
-46.5319459325806
21
12.3319662985674
31
0.000000000000000
  0
LINE
  5
F107B7
330
F107B8
100
AcDbEntity
8
Geo
100
AcDbLine
10
-46.5319459325806
20
12.3319662985674
30
0.000000000000000
11
-46.4319459325806
21
12.2737973730478
31
0.000000000000000
  0
LINE
  5
F107B9
330
F107BA
100
AcDbEntity
8
Geo
100
AcDbLine
10
-46.4319459325806
20
12.2737973730478
30
0.000000000000000
11
-46.3319459325806
21
12.2148088077662
31
0.000000000000000
  0
LINE
  5
F107BB
330
F107BC
100
AcDbEntity
8
Geo
100
AcDbLine
10
-46.3319459325806
20
12.2148088077662
30
0.000000000000000
11
-46.2319459325806
21
12.1550121395211
31
0.000000000000000
  0
LINE
  5
F107BD
330
F107BE
100
AcDbEntity
8
Geo
100
AcDbLine
10
-46.2319459325806
20
12.1550121395211
30
0.000000000000000
11
-46.1319459325806
21
12.0944190631576
31
0.000000000000000
  0
LINE
  5
F107BF
330
F107C0
100
AcDbEntity
8
Geo
100
AcDbLine
10
-46.1319459325806
20
12.0944190631576
30
0.000000000000000
11
-46.0319459325806
21
12.0330414292797
31
0.000000000000000
  0
LINE
  5
F107C1
330
F107C2
100
AcDbEntity
8
Geo
100
AcDbLine
10
-46.0319459325806
20
12.0330414292797
30
0.000000000000000
11
-45.9319459325806
21
11.9708912419325
31
0.000000000000000
  0
LINE
  5
F107C3
330
F107C4
100
AcDbEntity
8
Geo
100
AcDbLine
10
-45.9319459325806
20
11.9708912419325
30
0.000000000000000
11
-45.8319459325806
21
11.9079806562549
31
0.000000000000000
  0
LINE
  5
F107C5
330
F107C6
100
AcDbEntity
8
Geo
100
AcDbLine
10
-45.8319459325806
20
11.9079806562549
30
0.000000000000000
11
-45.7319459325806
21
11.8443219761020
31
0.000000000000000
  0
LINE
  5
F107C7
330
F107C8
100
AcDbEntity
8
Geo
100
AcDbLine
10
-45.7319459325806
20
11.8443219761020
30
0.000000000000000
11
-45.6319459325806
21
11.7799276516390
31
0.000000000000000
  0
LINE
  5
F107C9
330
F107CA
100
AcDbEntity
8
Geo
100
AcDbLine
10
-45.6319459325806
20
11.7799276516390
30
0.000000000000000
11
-45.5319459325806
21
11.7148102769060
31
0.000000000000000
  0
LINE
  5
F107CB
330
F107CC
100
AcDbEntity
8
Geo
100
AcDbLine
10
-45.5319459325806
20
11.7148102769060
30
0.000000000000000
11
-45.4319459325806
21
11.6489825873550
31
0.000000000000000
  0
LINE
  5
F107CD
330
F107CE
100
AcDbEntity
8
Geo
100
AcDbLine
10
-45.4319459325806
20
11.6489825873550
30
0.000000000000000
11
-45.3319459325806
21
11.5824574573592
31
0.000000000000000
  0
LINE
  5
F107CF
330
F107D0
100
AcDbEntity
8
Geo
100
AcDbLine
10
-45.3319459325806
20
11.5824574573592
30
0.000000000000000
11
-45.2319459325806
21
11.5152478976951
31
0.000000000000000
  0
LINE
  5
F107D1
330
F107D2
100
AcDbEntity
8
Geo
100
AcDbLine
10
-45.2319459325806
20
11.5152478976951
30
0.000000000000000
11
-45.1319459325806
21
11.4473670529975
31
0.000000000000000
  0
LINE
  5
F107D3
330
F107D4
100
AcDbEntity
8
Geo
100
AcDbLine
10
-45.1319459325806
20
11.4473670529975
30
0.000000000000000
11
-45.0319459325806
21
11.3788281991894
31
0.000000000000000
  0
LINE
  5
F107D5
330
F107D6
100
AcDbEntity
8
Geo
100
AcDbLine
10
-45.0319459325806
20
11.3788281991894
30
0.000000000000000
11
-44.9319459325806
21
11.3096447408850
31
0.000000000000000
  0
LINE
  5
F107D7
330
F107D8
100
AcDbEntity
8
Geo
100
AcDbLine
10
-44.9319459325806
20
11.3096447408850
30
0.000000000000000
11
-44.8319459325806
21
11.2398302087681
31
0.000000000000000
  0
LINE
  5
F107D9
330
F107DA
100
AcDbEntity
8
Geo
100
AcDbLine
10
-44.8319459325806
20
11.2398302087681
30
0.000000000000000
11
-44.7319459325806
21
11.1693982569461
31
0.000000000000000
  0
LINE
  5
F107DB
330
F107DC
100
AcDbEntity
8
Geo
100
AcDbLine
10
-44.7319459325806
20
11.1693982569461
30
0.000000000000000
11
-44.6319459325806
21
11.0983626602794
31
0.000000000000000
  0
LINE
  5
F107DD
330
F107DE
100
AcDbEntity
8
Geo
100
AcDbLine
10
-44.6319459325806
20
11.0983626602794
30
0.000000000000000
11
-44.5319459325806
21
11.0267373116874
31
0.000000000000000
  0
LINE
  5
F107DF
330
F107E0
100
AcDbEntity
8
Geo
100
AcDbLine
10
-44.5319459325806
20
11.0267373116874
30
0.000000000000000
11
-44.4319459325806
21
10.9545362194310
31
0.000000000000000
  0
LINE
  5
F107E1
330
F107E2
100
AcDbEntity
8
Geo
100
AcDbLine
10
-44.4319459325806
20
10.9545362194310
30
0.000000000000000
11
-44.3319459325806
21
10.8817735043738
31
0.000000000000000
  0
LINE
  5
F107E3
330
F107E4
100
AcDbEntity
8
Geo
100
AcDbLine
10
-44.3319459325806
20
10.8817735043738
30
0.000000000000000
11
-44.2319459325806
21
10.8084633972194
31
0.000000000000000
  0
LINE
  5
F107E5
330
F107E6
100
AcDbEntity
8
Geo
100
AcDbLine
10
-44.2319459325806
20
10.8084633972194
30
0.000000000000000
11
-44.1319459325806
21
10.7346202357288
31
0.000000000000000
  0
LINE
  5
F107E7
330
F107E8
100
AcDbEntity
8
Geo
100
AcDbLine
10
-44.1319459325806
20
10.7346202357288
30
0.000000000000000
11
-44.0319459325806
21
10.6602584619160
31
0.000000000000000
  0
LINE
  5
F107E9
330
F107EA
100
AcDbEntity
8
Geo
100
AcDbLine
10
-44.0319459325806
20
10.6602584619160
30
0.000000000000000
11
-43.9319459325806
21
10.5853926192237
31
0.000000000000000
  0
LINE
  5
F107EB
330
F107EC
100
AcDbEntity
8
Geo
100
AcDbLine
10
-43.9319459325806
20
10.5853926192237
30
0.000000000000000
11
-43.8319459325806
21
10.5100373496786
31
0.000000000000000
  0
LINE
  5
F107ED
330
F107EE
100
AcDbEntity
8
Geo
100
AcDbLine
10
-43.8319459325806
20
10.5100373496786
30
0.000000000000000
11
-43.7319459325806
21
10.4342073910284
31
0.000000000000000
  0
LINE
  5
F107EF
330
F107F0
100
AcDbEntity
8
Geo
100
AcDbLine
10
-43.7319459325806
20
10.4342073910284
30
0.000000000000000
11
-43.6319459325806
21
10.3579175738584
31
0.000000000000000
  0
LINE
  5
F107F1
330
F107F2
100
AcDbEntity
8
Geo
100
AcDbLine
10
-43.6319459325806
20
10.3579175738584
30
0.000000000000000
11
-43.5319459325806
21
10.2811828186921
31
0.000000000000000
  0
LINE
  5
F107F3
330
F107F4
100
AcDbEntity
8
Geo
100
AcDbLine
10
-43.5319459325806
20
10.2811828186921
30
0.000000000000000
11
-43.4319459325806
21
10.2040181330724
31
0.000000000000000
  0
LINE
  5
F107F5
330
F107F6
100
AcDbEntity
8
Geo
100
AcDbLine
10
-43.4319459325806
20
10.2040181330724
30
0.000000000000000
11
-43.3319459325806
21
10.1264386086266
31
0.000000000000000
  0
LINE
  5
F107F7
330
F107F8
100
AcDbEntity
8
Geo
100
AcDbLine
10
-43.3319459325806
20
10.1264386086266
30
0.000000000000000
11
-43.2319459325806
21
10.0484594181148
31
0.000000000000000
  0
LINE
  5
F107F9
330
F107FA
100
AcDbEntity
8
Geo
100
AcDbLine
10
-43.2319459325806
20
10.0484594181148
30
0.000000000000000
11
-43.1319459325806
21
9.97009581246279
31
0.000000000000000
  0
LINE
  5
F107FB
330
F107FC
100
AcDbEntity
8
Geo
100
AcDbLine
10
-43.1319459325806
20
9.97009581246279
30
0.000000000000000
11
-43.0319459325806
21
9.89136311777888
31
0.000000000000000
  0
LINE
  5
F107FD
330
F107FE
100
AcDbEntity
8
Geo
100
AcDbLine
10
-43.0319459325806
20
9.89136311777888
30
0.000000000000000
11
-42.9319459325806
21
9.81227673235672
31
0.000000000000000
  0
LINE
  5
F107FF
330
F10800
100
AcDbEntity
8
Geo
100
AcDbLine
10
-42.9319459325806
20
9.81227673235672
30
0.000000000000000
11
-42.8319459325806
21
9.73285212366366
31
0.000000000000000
  0
LINE
  5
F10801
330
F10802
100
AcDbEntity
8
Geo
100
AcDbLine
10
-42.8319459325806
20
9.73285212366366
30
0.000000000000000
11
-42.7319459325806
21
9.65310482531572
31
0.000000000000000
  0
LINE
  5
F10803
330
F10804
100
AcDbEntity
8
Geo
100
AcDbLine
10
-42.7319459325806
20
9.65310482531572
30
0.000000000000000
11
-42.6319459325806
21
9.57305043403952
31
0.000000000000000
  0
LINE
  5
F10805
330
F10806
100
AcDbEntity
8
Geo
100
AcDbLine
10
-42.6319459325806
20
9.57305043403952
30
0.000000000000000
11
-42.5319459325806
21
9.49270460662199
31
0.000000000000000
  0
LINE
  5
F10807
330
F10808
100
AcDbEntity
8
Geo
100
AcDbLine
10
-42.5319459325806
20
9.49270460662199
30
0.000000000000000
11
-42.4319459325806
21
9.41208305684820
31
0.000000000000000
  0
LINE
  5
F10809
330
F1080A
100
AcDbEntity
8
Geo
100
AcDbLine
10
-42.4319459325806
20
9.41208305684820
30
0.000000000000000
11
-42.3319459325806
21
9.33120155242815
31
0.000000000000000
  0
LINE
  5
F1080B
330
F1080C
100
AcDbEntity
8
Geo
100
AcDbLine
10
-42.3319459325806
20
9.33120155242815
30
0.000000000000000
11
-42.2319459325806
21
9.25007591191294
31
0.000000000000000
  0
LINE
  5
F1080D
330
F1080E
100
AcDbEntity
8
Geo
100
AcDbLine
10
-42.2319459325806
20
9.25007591191294
30
0.000000000000000
11
-42.1319459325806
21
9.16872200160105
31
0.000000000000000
  0
LINE
  5
F1080F
330
F10810
100
AcDbEntity
8
Geo
100
AcDbLine
10
-42.1319459325806
20
9.16872200160105
30
0.000000000000000
11
-42.0319459325806
21
9.08715573243526
31
0.000000000000000
  0
LINE
  5
F10811
330
F10812
100
AcDbEntity
8
Geo
100
AcDbLine
10
-42.0319459325806
20
9.08715573243526
30
0.000000000000000
11
-41.9319459325806
21
9.00539305689082
31
0.000000000000000
  0
LINE
  5
F10813
330
F10814
100
AcDbEntity
8
Geo
100
AcDbLine
10
-41.9319459325806
20
9.00539305689082
30
0.000000000000000
11
-41.8319459325806
21
8.92344996585551
31
0.000000000000000
  0
LINE
  5
F10815
330
F10816
100
AcDbEntity
8
Geo
100
AcDbLine
10
-41.8319459325806
20
8.92344996585551
30
0.000000000000000
11
-41.7319459325806
21
8.84134248550224
31
0.000000000000000
  0
LINE
  5
F10817
330
F10818
100
AcDbEntity
8
Geo
100
AcDbLine
10
-41.7319459325806
20
8.84134248550224
30
0.000000000000000
11
-41.6319459325806
21
8.75908667415463
31
0.000000000000000
  0
LINE
  5
F10819
330
F1081A
100
AcDbEntity
8
Geo
100
AcDbLine
10
-41.6319459325806
20
8.75908667415463
30
0.000000000000000
11
-41.5319459325806
21
8.67669861914645
31
0.000000000000000
  0
LINE
  5
F1081B
330
F1081C
100
AcDbEntity
8
Geo
100
AcDbLine
10
-41.5319459325806
20
8.67669861914645
30
0.000000000000000
11
-41.4319459325806
21
8.59419443367523
31
0.000000000000000
  0
LINE
  5
F1081D
330
F1081E
100
AcDbEntity
8
Geo
100
AcDbLine
10
-41.4319459325806
20
8.59419443367523
30
0.000000000000000
11
-41.3319459325806
21
8.51159025365096
31
0.000000000000000
  0
LINE
  5
F1081F
330
F10820
100
AcDbEntity
8
Geo
100
AcDbLine
10
-41.3319459325806
20
8.51159025365096
30
0.000000000000000
11
-41.2319459325806
21
8.42890223454025
31
0.000000000000000
  0
LINE
  5
F10821
330
F10822
100
AcDbEntity
8
Geo
100
AcDbLine
10
-41.2319459325806
20
8.42890223454025
30
0.000000000000000
11
-41.1319459325806
21
8.34614654820667
31
0.000000000000000
  0
LINE
  5
F10823
330
F10824
100
AcDbEntity
8
Geo
100
AcDbLine
10
-41.1319459325806
20
8.34614654820667
30
0.000000000000000
11
-41.0319459325806
21
8.26333937974797
31
0.000000000000000
  0
LINE
  5
F10825
330
F10826
100
AcDbEntity
8
Geo
100
AcDbLine
10
-41.0319459325806
20
8.26333937974797
30
0.000000000000000
11
-40.9319459325806
21
8.18049692433059
31
0.000000000000000
  0
LINE
  5
F10827
330
F10828
100
AcDbEntity
8
Geo
100
AcDbLine
10
-40.9319459325806
20
8.18049692433059
30
0.000000000000000
11
-40.8319459325806
21
8.09763538402228
31
0.000000000000000
  0
LINE
  5
F10829
330
F1082A
100
AcDbEntity
8
Geo
100
AcDbLine
10
-40.8319459325806
20
8.09763538402228
30
0.000000000000000
11
-40.7319459325806
21
8.01477096462337
31
0.000000000000000
  0
LINE
  5
F1082B
330
F1082C
100
AcDbEntity
8
Geo
100
AcDbLine
10
-40.7319459325806
20
8.01477096462337
30
0.000000000000000
11
-40.6319459325806
21
7.93191987249725
31
0.000000000000000
  0
LINE
  5
F1082D
330
F1082E
100
AcDbEntity
8
Geo
100
AcDbLine
10
-40.6319459325806
20
7.93191987249725
30
0.000000000000000
11
-40.5319459325806
21
7.84909831140084
31
0.000000000000000
  0
LINE
  5
F1082F
330
F10830
100
AcDbEntity
8
Geo
100
AcDbLine
10
-40.5319459325806
20
7.84909831140084
30
0.000000000000000
11
-40.4319459325806
21
7.76632247931543
31
0.000000000000000
  0
LINE
  5
F10831
330
F10832
100
AcDbEntity
8
Geo
100
AcDbLine
10
-40.4319459325806
20
7.76632247931543
30
0.000000000000000
11
-40.3319459325806
21
7.68360856527881
31
0.000000000000000
  0
LINE
  5
F10833
330
F10834
100
AcDbEntity
8
Geo
100
AcDbLine
10
-40.3319459325806
20
7.68360856527881
30
0.000000000000000
11
-40.2319459325806
21
7.60097274621901
31
0.000000000000000
  0
LINE
  5
F10835
330
F10836
100
AcDbEntity
8
Geo
100
AcDbLine
10
-40.2319459325806
20
7.60097274621901
30
0.000000000000000
11
-40.1319459325806
21
7.51843118379050
31
0.000000000000000
  0
LINE
  5
F10837
330
F10838
100
AcDbEntity
8
Geo
100
AcDbLine
10
-40.1319459325806
20
7.51843118379050
30
0.000000000000000
11
-40.0319459325806
21
7.43600002121332
31
0.000000000000000
  0
LINE
  5
F10839
330
F1083A
100
AcDbEntity
8
Geo
100
AcDbLine
10
-40.0319459325806
20
7.43600002121332
30
0.000000000000000
11
-39.9319459325806
21
7.35369538011587
31
0.000000000000000
  0
LINE
  5
F1083B
330
F1083C
100
AcDbEntity
8
Geo
100
AcDbLine
10
-39.9319459325806
20
7.35369538011587
30
0.000000000000000
11
-39.8319459325806
21
7.27153335738188
31
0.000000000000000
  0
LINE
  5
F1083D
330
F1083E
100
AcDbEntity
8
Geo
100
AcDbLine
10
-39.8319459325806
20
7.27153335738188
30
0.000000000000000
11
-39.7319459325806
21
7.18953002200219
31
0.000000000000000
  0
LINE
  5
F1083F
330
F10840
100
AcDbEntity
8
Geo
100
AcDbLine
10
-39.7319459325806
20
7.18953002200219
30
0.000000000000000
11
-39.6319459325806
21
7.10770141193212
31
0.000000000000000
  0
LINE
  5
F10841
330
F10842
100
AcDbEntity
8
Geo
100
AcDbLine
10
-39.6319459325806
20
7.10770141193212
30
0.000000000000000
11
-39.5319459325806
21
7.02606353095471
31
0.000000000000000
  0
LINE
  5
F10843
330
F10844
100
AcDbEntity
8
Geo
100
AcDbLine
10
-39.5319459325806
20
7.02606353095471
30
0.000000000000000
11
-39.4319459325806
21
6.94463234555083
31
0.000000000000000
  0
LINE
  5
F10845
330
F10846
100
AcDbEntity
8
Geo
100
AcDbLine
10
-39.4319459325806
20
6.94463234555083
30
0.000000000000000
11
-39.3319459325806
21
6.86342378177647
31
0.000000000000000
  0
LINE
  5
F10847
330
F10848
100
AcDbEntity
8
Geo
100
AcDbLine
10
-39.3319459325806
20
6.86342378177647
30
0.000000000000000
11
-39.2319459325806
21
6.78245372214800
31
0.000000000000000
  0
LINE
  5
F10849
330
F1084A
100
AcDbEntity
8
Geo
100
AcDbLine
10
-39.2319459325806
20
6.78245372214800
30
0.000000000000000
11
-39.1319459325806
21
6.70173800253585
31
0.000000000000000
  0
LINE
  5
F1084B
330
F1084C
100
AcDbEntity
8
Geo
100
AcDbLine
10
-39.1319459325806
20
6.70173800253585
30
0.000000000000000
11
-39.0319459325806
21
6.62129240906747
31
0.000000000000000
  0
LINE
  5
F1084D
330
F1084E
100
AcDbEntity
8
Geo
100
AcDbLine
10
-39.0319459325806
20
6.62129240906747
30
0.000000000000000
11
-38.9319459325806
21
6.54113267503987
31
0.000000000000000
  0
LINE
  5
F1084F
330
F10850
100
AcDbEntity
8
Geo
100
AcDbLine
10
-38.9319459325806
20
6.54113267503987
30
0.000000000000000
11
-38.8319459325806
21
6.46127447784257
31
0.000000000000000
  0
LINE
  5
F10851
330
F10852
100
AcDbEntity
8
Geo
100
AcDbLine
10
-38.8319459325806
20
6.46127447784257
30
0.000000000000000
11
-38.7319459325806
21
6.38173343589145
31
0.000000000000000
  0
LINE
  5
F10853
330
F10854
100
AcDbEntity
8
Geo
100
AcDbLine
10
-38.7319459325806
20
6.38173343589145
30
0.000000000000000
11
-38.6319459325806
21
6.30252510557418
31
0.000000000000000
  0
LINE
  5
F10855
330
F10856
100
AcDbEntity
8
Geo
100
AcDbLine
10
-38.6319459325806
20
6.30252510557418
30
0.000000000000000
11
-38.5319459325806
21
6.22366497820771
31
0.000000000000000
  0
LINE
  5
F10857
330
F10858
100
AcDbEntity
8
Geo
100
AcDbLine
10
-38.5319459325806
20
6.22366497820771
30
0.000000000000000
11
-38.4319459325806
21
6.14516847700857
31
0.000000000000000
  0
LINE
  5
F10859
330
F1085A
100
AcDbEntity
8
Geo
100
AcDbLine
10
-38.4319459325806
20
6.14516847700857
30
0.000000000000000
11
-38.3319459325806
21
6.06705095407640
31
0.000000000000000
  0
LINE
  5
F1085B
330
F1085C
100
AcDbEntity
8
Geo
100
AcDbLine
10
-38.3319459325806
20
6.06705095407640
30
0.000000000000000
11
-38.2319459325806
21
5.98932768739150
31
0.000000000000000
  0
LINE
  5
F1085D
330
F1085E
100
AcDbEntity
8
Geo
100
AcDbLine
10
-38.2319459325806
20
5.98932768739150
30
0.000000000000000
11
-38.1319459325806
21
5.91201387782671
31
0.000000000000000
  0
LINE
  5
F1085F
330
F10860
100
AcDbEntity
8
Geo
100
AcDbLine
10
-38.1319459325806
20
5.91201387782671
30
0.000000000000000
11
-38.0319459325806
21
5.83512464617458
31
0.000000000000000
  0
LINE
  5
F10861
330
F10862
100
AcDbEntity
8
Geo
100
AcDbLine
10
-38.0319459325806
20
5.83512464617458
30
0.000000000000000
11
-37.9319459325806
21
5.75867503019002
31
0.000000000000000
  0
LINE
  5
F10863
330
F10864
100
AcDbEntity
8
Geo
100
AcDbLine
10
-37.9319459325806
20
5.75867503019002
30
0.000000000000000
11
-37.8319459325806
21
5.68267998164929
31
0.000000000000000
  0
LINE
  5
F10865
330
F10866
100
AcDbEntity
8
Geo
100
AcDbLine
10
-37.8319459325806
20
5.68267998164929
30
0.000000000000000
11
-37.7319459325806
21
5.60715436342578
31
0.000000000000000
  0
LINE
  5
F10867
330
F10868
100
AcDbEntity
8
Geo
100
AcDbLine
10
-37.7319459325806
20
5.60715436342578
30
0.000000000000000
11
-37.6319459325806
21
5.53211294658315
31
0.000000000000000
  0
LINE
  5
F10869
330
F1086A
100
AcDbEntity
8
Geo
100
AcDbLine
10
-37.6319459325806
20
5.53211294658315
30
0.000000000000000
11
-37.5319459325806
21
5.45757040748649
31
0.000000000000000
  0
LINE
  5
F1086B
330
F1086C
100
AcDbEntity
8
Geo
100
AcDbLine
10
-37.5319459325806
20
5.45757040748649
30
0.000000000000000
11
-37.4319459325806
21
5.38354132493194
31
0.000000000000000
  0
LINE
  5
F1086D
330
F1086E
100
AcDbEntity
8
Geo
100
AcDbLine
10
-37.4319459325806
20
5.38354132493194
30
0.000000000000000
11
-37.3319459325806
21
5.31004017729543
31
0.000000000000000
  0
LINE
  5
F1086F
330
F10870
100
AcDbEntity
8
Geo
100
AcDbLine
10
-37.3319459325806
20
5.31004017729543
30
0.000000000000000
11
-37.2319459325806
21
5.23708133970101
31
0.000000000000000
  0
LINE
  5
F10871
330
F10872
100
AcDbEntity
8
Geo
100
AcDbLine
10
-37.2319459325806
20
5.23708133970101
30
0.000000000000000
11
-37.1319459325806
21
5.16467908120945
31
0.000000000000000
  0
LINE
  5
F10873
330
F10874
100
AcDbEntity
8
Geo
100
AcDbLine
10
-37.1319459325806
20
5.16467908120945
30
0.000000000000000
11
-37.0319459325806
21
5.09284756202751
31
0.000000000000000
  0
LINE
  5
F10875
330
F10876
100
AcDbEntity
8
Geo
100
AcDbLine
10
-37.0319459325806
20
5.09284756202751
30
0.000000000000000
11
-36.9319459325806
21
5.02160083073856
31
0.000000000000000
  0
LINE
  5
F10877
330
F10878
100
AcDbEntity
8
Geo
100
AcDbLine
10
-36.9319459325806
20
5.02160083073856
30
0.000000000000000
11
-36.8319459325806
21
4.95095282155498
31
0.000000000000000
  0
LINE
  5
F10879
330
F1087A
100
AcDbEntity
8
Geo
100
AcDbLine
10
-36.8319459325806
20
4.95095282155498
30
0.000000000000000
11
-36.7319459325806
21
4.88091735159295
31
0.000000000000000
  0
LINE
  5
F1087B
330
F1087C
100
AcDbEntity
8
Geo
100
AcDbLine
10
-36.7319459325806
20
4.88091735159295
30
0.000000000000000
11
-36.6319459325806
21
4.81150811817017
31
0.000000000000000
  0
LINE
  5
F1087D
330
F1087E
100
AcDbEntity
8
Geo
100
AcDbLine
10
-36.6319459325806
20
4.81150811817017
30
0.000000000000000
11
-36.5319459325806
21
4.74273869612693
31
0.000000000000000
  0
LINE
  5
F1087F
330
F10880
100
AcDbEntity
8
Geo
100
AcDbLine
10
-36.5319459325806
20
4.74273869612693
30
0.000000000000000
11
-36.4319459325806
21
4.67462253517124
31
0.000000000000000
  0
LINE
  5
F10881
330
F10882
100
AcDbEntity
8
Geo
100
AcDbLine
10
-36.4319459325806
20
4.67462253517124
30
0.000000000000000
11
-36.3319459325806
21
4.60717295724836
31
0.000000000000000
  0
LINE
  5
F10883
330
F10884
100
AcDbEntity
8
Geo
100
AcDbLine
10
-36.3319459325806
20
4.60717295724836
30
0.000000000000000
11
-36.2319459325806
21
4.54040315393529
31
0.000000000000000
  0
LINE
  5
F10885
330
F10886
100
AcDbEntity
8
Geo
100
AcDbLine
10
-36.2319459325806
20
4.54040315393529
30
0.000000000000000
11
-36.1319459325806
21
4.47432618386089
31
0.000000000000000
  0
LINE
  5
F10887
330
F10888
100
AcDbEntity
8
Geo
100
AcDbLine
10
-36.1319459325806
20
4.47432618386089
30
0.000000000000000
11
-36.0319459325806
21
4.40895497015183
31
0.000000000000000
  0
LINE
  5
F10889
330
F1088A
100
AcDbEntity
8
Geo
100
AcDbLine
10
-36.0319459325806
20
4.40895497015183
30
0.000000000000000
11
-35.9319459325806
21
4.34430229790519
31
0.000000000000000
  0
LINE
  5
F1088B
330
F1088C
100
AcDbEntity
8
Geo
100
AcDbLine
10
-35.9319459325806
20
4.34430229790519
30
0.000000000000000
11
-35.8319459325806
21
4.28038081168796
31
0.000000000000000
  0
LINE
  5
F1088D
330
F1088E
100
AcDbEntity
8
Geo
100
AcDbLine
10
-35.8319459325806
20
4.28038081168796
30
0.000000000000000
11
-35.7319459325806
21
4.21720301306403
31
0.000000000000000
  0
LINE
  5
F1088F
330
F10890
100
AcDbEntity
8
Geo
100
AcDbLine
10
-35.7319459325806
20
4.21720301306403
30
0.000000000000000
11
-35.6319459325806
21
4.15478125814923
31
0.000000000000000
  0
LINE
  5
F10891
330
F10892
100
AcDbEntity
8
Geo
100
AcDbLine
10
-35.6319459325806
20
4.15478125814923
30
0.000000000000000
11
-35.5319459325806
21
4.09312775519472
31
0.000000000000000
  0
LINE
  5
F10893
330
F10894
100
AcDbEntity
8
Geo
100
AcDbLine
10
-35.5319459325806
20
4.09312775519472
30
0.000000000000000
11
-35.4319459325806
21
4.03225456219936
31
0.000000000000000
  0
LINE
  5
F10895
330
F10896
100
AcDbEntity
8
Geo
100
AcDbLine
10
-35.4319459325806
20
4.03225456219936
30
0.000000000000000
11
-35.3319459325806
21
3.97217358455143
31
0.000000000000000
  0
LINE
  5
F10897
330
F10898
100
AcDbEntity
8
Geo
100
AcDbLine
10
-35.3319459325806
20
3.97217358455143
30
0.000000000000000
11
-35.2319459325806
21
3.91289657270019
31
0.000000000000000
  0
LINE
  5
F10899
330
F1089A
100
AcDbEntity
8
Geo
100
AcDbLine
10
-35.2319459325806
20
3.91289657270019
30
0.000000000000000
11
-35.1319459325806
21
3.85443511985783
31
0.000000000000000
  0
LINE
  5
F1089B
330
F1089C
100
AcDbEntity
8
Geo
100
AcDbLine
10
-35.1319459325806
20
3.85443511985783
30
0.000000000000000
11
-35.0319459325806
21
3.79680065973204
31
0.000000000000000
  0
LINE
  5
F1089D
330
F1089E
100
AcDbEntity
8
Geo
100
AcDbLine
10
-35.0319459325806
20
3.79680065973204
30
0.000000000000000
11
-34.9319459325806
21
3.74000446428988
31
0.000000000000000
  0
LINE
  5
F1089F
330
F108A0
100
AcDbEntity
8
Geo
100
AcDbLine
10
-34.9319459325806
20
3.74000446428988
30
0.000000000000000
11
-34.8319459325806
21
3.68405764155322
31
0.000000000000000
  0
LINE
  5
F108A1
330
F108A2
100
AcDbEntity
8
Geo
100
AcDbLine
10
-34.8319459325806
20
3.68405764155322
30
0.000000000000000
11
-34.7319459325806
21
3.62897113342628
31
0.000000000000000
  0
LINE
  5
F108A3
330
F108A4
100
AcDbEntity
8
Geo
100
AcDbLine
10
-34.7319459325806
20
3.62897113342628
30
0.000000000000000
11
-34.6319459325806
21
3.57475571355566
31
0.000000000000000
  0
LINE
  5
F108A5
330
F108A6
100
AcDbEntity
8
Geo
100
AcDbLine
10
-34.6319459325806
20
3.57475571355566
30
0.000000000000000
11
-34.5319459325806
21
3.52142198522323
31
0.000000000000000
  0
LINE
  5
F108A7
330
F108A8
100
AcDbEntity
8
Geo
100
AcDbLine
10
-34.5319459325806
20
3.52142198522323
30
0.000000000000000
11
-34.4319459325806
21
3.46898037927239
31
0.000000000000000
  0
LINE
  5
F108A9
330
F108AA
100
AcDbEntity
8
Geo
100
AcDbLine
10
-34.4319459325806
20
3.46898037927239
30
0.000000000000000
11
-34.3319459325806
21
3.41744115206807
31
0.000000000000000
  0
LINE
  5
F108AB
330
F108AC
100
AcDbEntity
8
Geo
100
AcDbLine
10
-34.3319459325806
20
3.41744115206807
30
0.000000000000000
11
-34.2319459325806
21
3.36681438349077
31
0.000000000000000
  0
LINE
  5
F108AD
330
F108AE
100
AcDbEntity
8
Geo
100
AcDbLine
10
-34.2319459325806
20
3.36681438349077
30
0.000000000000000
11
-34.1319459325806
21
3.31710997496519
31
0.000000000000000
  0
LINE
  5
F108AF
330
F108B0
100
AcDbEntity
8
Geo
100
AcDbLine
10
-34.1319459325806
20
3.31710997496519
30
0.000000000000000
11
-34.0319459325806
21
3.26833764752375
31
0.000000000000000
  0
LINE
  5
F108B1
330
F108B2
100
AcDbEntity
8
Geo
100
AcDbLine
10
-34.0319459325806
20
3.26833764752375
30
0.000000000000000
11
-33.9319459325806
21
3.22050693990537
31
0.000000000000000
  0
LINE
  5
F108B3
330
F108B4
100
AcDbEntity
8
Geo
100
AcDbLine
10
-33.9319459325806
20
3.22050693990537
30
0.000000000000000
11
-33.8319459325806
21
3.17362720668993
31
0.000000000000000
  0
LINE
  5
F108B5
330
F108B6
100
AcDbEntity
8
Geo
100
AcDbLine
10
-33.8319459325806
20
3.17362720668993
30
0.000000000000000
11
-33.7319459325806
21
3.12770761646870
31
0.000000000000000
  0
LINE
  5
F108B7
330
F108B8
100
AcDbEntity
8
Geo
100
AcDbLine
10
-33.7319459325806
20
3.12770761646870
30
0.000000000000000
11
-33.6319459325806
21
3.08275715005120
31
0.000000000000000
  0
LINE
  5
F108B9
330
F108BA
100
AcDbEntity
8
Geo
100
AcDbLine
10
-33.6319459325806
20
3.08275715005120
30
0.000000000000000
11
-33.5319459325806
21
3.03878459870874
31
0.000000000000000
  0
LINE
  5
F108BB
330
F108BC
100
AcDbEntity
8
Geo
100
AcDbLine
10
-33.5319459325806
20
3.03878459870874
30
0.000000000000000
11
-33.4319459325806
21
2.99579856245510
31
0.000000000000000
  0
LINE
  5
F108BD
330
F108BE
100
AcDbEntity
8
Geo
100
AcDbLine
10
-33.4319459325806
20
2.99579856245510
30
0.000000000000000
11
-33.3319459325806
21
2.95380744836449
31
0.000000000000000
  0
LINE
  5
F108BF
330
F108C0
100
AcDbEntity
8
Geo
100
AcDbLine
10
-33.3319459325806
20
2.95380744836449
30
0.000000000000000
11
-33.2319459325806
21
2.91281946892739
31
0.000000000000000
  0
LINE
  5
F108C1
330
F108C2
100
AcDbEntity
8
Geo
100
AcDbLine
10
-33.2319459325806
20
2.91281946892739
30
0.000000000000000
11
-33.1319459325806
21
2.87284264044433
31
0.000000000000000
  0
LINE
  5
F108C3
330
F108C4
100
AcDbEntity
8
Geo
100
AcDbLine
10
-33.1319459325806
20
2.87284264044433
30
0.000000000000000
11
-33.0319459325806
21
2.83388478145813
31
0.000000000000000
  0
LINE
  5
F108C5
330
F108C6
100
AcDbEntity
8
Geo
100
AcDbLine
10
-33.0319459325806
20
2.83388478145813
30
0.000000000000000
11
-32.9319459325806
21
2.79595351122473
31
0.000000000000000
  0
LINE
  5
F108C7
330
F108C8
100
AcDbEntity
8
Geo
100
AcDbLine
10
-32.9319459325806
20
2.79595351122473
30
0.000000000000000
11
-32.8319459325806
21
2.75905624822306
31
0.000000000000000
  0
LINE
  5
F108C9
330
F108CA
100
AcDbEntity
8
Geo
100
AcDbLine
10
-32.8319459325806
20
2.75905624822306
30
0.000000000000000
11
-32.7319459325806
21
2.72320020870417
31
0.000000000000000
  0
LINE
  5
F108CB
330
F108CC
100
AcDbEntity
8
Geo
100
AcDbLine
10
-32.7319459325806
20
2.72320020870417
30
0.000000000000000
11
-32.6319459325806
21
2.68839240527987
31
0.000000000000000
  0
LINE
  5
F108CD
330
F108CE
100
AcDbEntity
8
Geo
100
AcDbLine
10
-32.6319459325806
20
2.68839240527987
30
0.000000000000000
11
-32.5319459325806
21
2.65463964555125
31
0.000000000000000
  0
LINE
  5
F108CF
330
F108D0
100
AcDbEntity
8
Geo
100
AcDbLine
10
-32.5319459325806
20
2.65463964555125
30
0.000000000000000
11
-32.4319459325806
21
2.62194853077726
31
0.000000000000000
  0
LINE
  5
F108D1
330
F108D2
100
AcDbEntity
8
Geo
100
AcDbLine
10
-32.4319459325806
20
2.62194853077726
30
0.000000000000000
11
-32.3319459325806
21
2.59032545458366
31
0.000000000000000
  0
LINE
  5
F108D3
330
F108D4
100
AcDbEntity
8
Geo
100
AcDbLine
10
53.6680540674194
20
13.0829143657793
30
0.000000000000000
11
53.6680540674194
21
8.08291436577929
31
0.000000000000000
  0
LINE
  5
F108D5
330
F108D6
100
AcDbEntity
8
Geo
100
AcDbLine
10
-51.3319459325806
20
8.08291436577929
30
0.000000000000000
11
-51.3319459325806
21
2.48291436577929
31
0.000000000000000
  0
LINE
  5
F108D7
330
F108D8
100
AcDbEntity
8
Geo
100
AcDbLine
10
-51.3319459325806
20
2.48291436577929
30
0.000000000000000
11
-50.9319459325806
21
2.08291436577929
31
0.000000000000000
  0
LINE
  5
F108D9
330
F108DA
100
AcDbEntity
8
Geo
100
AcDbLine
10
-50.9319459325806
20
2.08291436577929
30
0.000000000000000
11
-27.3319459325806
21
2.08291436577929
31
0.000000000000000
  0
LINE
  5
F108DB
330
F108DC
100
AcDbEntity
8
Geo
100
AcDbLine
10
-27.3319459325806
20
2.08291436577929
30
0.000000000000000
11
-27.3319459325806
21
2.48291436577929
31
0.000000000000000
  0
LINE
  5
F108DD
330
F108DE
100
AcDbEntity
8
Geo
100
AcDbLine
10
-27.3319459325806
20
2.48291436577929
30
0.000000000000000
11
8.66805406741945
21
2.48291436577929
31
0.000000000000000
  0
LINE
  5
F108DF
330
F108E0
100
AcDbEntity
8
Geo
100
AcDbLine
10
8.66805406741945
20
2.48291436577929
30
0.000000000000000
11
9.06805406741945
21
2.08291436577929
31
0.000000000000000
  0
LINE
  5
F108E1
330
F108E2
100
AcDbEntity
8
Geo
100
AcDbLine
10
9.06805406741945
20
2.08291436577929
30
0.000000000000000
11
52.6680540674194
21
2.08291436577929
31
0.000000000000000
  0
LINE
  5
F108E3
330
F108E4
100
AcDbEntity
8
Geo
100
AcDbLine
10
52.6680540674194
20
2.08291436577929
30
0.000000000000000
11
53.6680540674194
21
3.08291436577929
31
0.000000000000000
  0
LINE
  5
F108E5
330
F108E6
100
AcDbEntity
8
Geo
100
AcDbLine
10
-51.3319459325806
20
13.6829143657793
30
0.000000000000000
11
-51.3319459325806
21
2.48291436577929
31
0.000000000000000
  0
LINE
  5
F108E7
330
F108E8
100
AcDbEntity
8
Geo
100
AcDbLine
10
-50.9319459325806
20
14.0829143657793
30
0.000000000000000
11
-50.9319459325806
21
2.08291436577929
31
0.000000000000000
  0
LINE
  5
F108E9
330
F108EA
100
AcDbEntity
8
Geo
100
AcDbLine
10
-50.9319459325806
20
14.0829143657793
30
0.000000000000000
11
-50.9319459325806
21
2.08291436577929
31
0.000000000000000
  0
LINE
  5
F108EB
330
F108EC
100
AcDbEntity
8
Geo
100
AcDbLine
10
-27.3319459325806
20
14.0829143657793
30
0.000000000000000
11
-27.3319459325806
21
2.08291436577929
31
0.000000000000000
  0
LINE
  5
F108ED
330
F108EE
100
AcDbEntity
8
Geo
100
AcDbLine
10
-27.3319459325806
20
13.6829143657793
30
0.000000000000000
11
-27.3319459325806
21
2.48291436577929
31
0.000000000000000
  0
LINE
  5
F108EF
330
F108F0
100
AcDbEntity
8
Geo
100
AcDbLine
10
8.66805406741945
20
13.6829143657793
30
0.000000000000000
11
8.66805406741945
21
2.48291436577929
31
0.000000000000000
  0
LINE
  5
F108F1
330
F108F2
100
AcDbEntity
8
Geo
100
AcDbLine
10
9.06805406741945
20
14.0829143657793
30
0.000000000000000
11
9.06805406741945
21
2.08291436577929
31
0.000000000000000
  0
LINE
  5
F108F3
330
F108F4
100
AcDbEntity
8
Geo
100
AcDbLine
10
9.06805406741945
20
14.0829143657793
30
0.000000000000000
11
9.06805406741945
21
2.08291436577929
31
0.000000000000000
  0
LINE
  5
F108F5
330
F108F6
100
AcDbEntity
8
Geo
100
AcDbLine
10
52.6680540674194
20
14.0829143657793
30
0.000000000000000
11
52.6680540674194
21
2.08291436577929
31
0.000000000000000
  0
LINE
  5
F108F7
330
F108F8
100
AcDbEntity
8
Geo
100
AcDbLine
10
53.6680540674194
20
13.0829143657793
30
0.000000000000000
11
53.6680540674194
21
3.08291436577929
31
0.000000000000000
  0
LINE
  5
F108F9
330
F108FA
100
AcDbEntity
8
Geo
 6
Dashdot
100
AcDbLine
10
-51.3319459325806
20
8.08291436577929
30
0.000000000000000
11
53.6680540674194
21
8.08291436577929
31
0.000000000000000
  0
LWPOLYLINE
  5
F108FB
330
F108FC
100
AcDbEntity
8
Rahmen
100
AcDbPolyline
90
   4
70
   1
43
   0.0
 10
-134.686843587821
 20
99.9258577514849
 10
143.335989083949
 20
99.9258577514849
 10
143.335989083949
 20
-100.222090960985
 10
-134.686843587821
 20
-100.222090960985
  0
TEXT
  5
F108FD
330
F108FE
 100
AcDbEntity
8
Text
100
AcDbText
10
-133.737149881000
20
-99.7220909609849
30
0.000000000000000
40
1.00000000000000
1
ISBESketcher - ©ISBE GmbH      lizensiert für: Schmid Werkzeuge
100
AcDbText
  0
LWPOLYLINE
  5
F108FF
330
F10900
100
AcDbEntity
8
Rahmen
100
AcDbPolyline
90
   4
70
   1
43
   0.0
 10
103.448853397478
 20
-97.1355864138175
 10
143.335989083949
 20
-97.1355864138175
 10
143.335989083949
 20
-100.222090960985
 10
103.448853397478
 20
-100.222090960985
  0
TEXT
  5
F10901
330
F10902
 100
AcDbEntity
8
Text
100
AcDbText
10
104.500000000000
20
-99.5432522735837
30
0.000000000000000
40
1.50000000000000
1
Ers. durch:
100
AcDbText
  0
TEXT
  5
F10903
330
F10904
 100
AcDbEntity
8
Text
100
AcDbText
10
0.000000000000000
20
0.500000000000000
30
0.000000000000000
40
1.50000000000000
1

100
AcDbText
  0
LWPOLYLINE
  5
F10905
330
F10906
100
AcDbEntity
8
Rahmen
100
AcDbPolyline
90
   4
70
   1
43
   0.0
 10
63.3242942843023
 20
-97.1355864138175
 10
103.448853397478
 20
-97.1355864138175
 10
103.448853397478
 20
-100.222090960985
 10
63.3242942843023
 20
-100.222090960985
  0
TEXT
  5
F10907
330
F10908
 100
AcDbEntity
8
Text
100
AcDbText
10
64.5000000000000
20
-99.5432522735837
30
0.000000000000000
40
1.50000000000000
1
Ers. für:
100
AcDbText
  0
TEXT
  5
F10909
330
F1090A
 100
AcDbEntity
8
Text
100
AcDbText
10
0.000000000000000
20
0.500000000000000
30
0.000000000000000
40
1.50000000000000
1

100
AcDbText
  0
LWPOLYLINE
  5
F1090B
330
F1090C
100
AcDbEntity
8
Rahmen
100
AcDbPolyline
90
   4
70
   1
43
   0.0
 10
130.040277188459
 20
-94.0490818666501
 10
143.335989083949
 20
-94.0490818666501
 10
143.335989083949
 20
-97.1355864138175
 10
130.040277188459
 20
-97.1355864138175
  0
TEXT
  5
F1090D
330
F1090E
 100
AcDbEntity
8
Text
100
AcDbText
10
131.166666666667
20
-96.5432522735837
30
0.000000000000000
40
1.50000000000000
1
Blätter
100
AcDbText
  0
TEXT
  5
F1090F
330
F10910
 100
AcDbEntity
8
Text
100
AcDbText
10
0.000000000000000
20
0.500000000000000
30
0.000000000000000
40
1.50000000000000
1

100
AcDbText
  0
LWPOLYLINE
  5
F10911
330
F10912
100
AcDbEntity
8
Rahmen
100
AcDbPolyline
90
   4
70
   1
43
   0.0
 10
130.040277188459
 20
-91.2000007461879
 10
143.335989083949
 20
-91.2000007461879
 10
143.335989083949
 20
-94.0490818666501
 10
130.040277188459
 20
-94.0490818666501
  0
TEXT
  5
F10913
330
F10914
 100
AcDbEntity
8
Text
100
AcDbText
10
131.166666666667
20
-93.5432522735837
30
0.000000000000000
40
1.50000000000000
1
Blatt
100
AcDbText
  0
TEXT
  5
F10915
330
F10916
 100
AcDbEntity
8
Text
100
AcDbText
10
0.000000000000000
20
0.500000000000000
30
0.000000000000000
40
1.50000000000000
1

100
AcDbText
  0
LWPOLYLINE
  5
F10917
330
F10918
100
AcDbEntity
8
Rahmen
100
AcDbPolyline
90
   4
70
   1
43
   0.0
 10
63.3242942843023
 20
-91.2000007461879
 10
130.040277188459
 20
-91.2000007461879
 10
130.040277188459
 20
-97.1355864138175
 10
63.3242942843023
 20
-97.1355864138175
  0
TEXT
  5
F10919
330
F1091A
 100
AcDbEntity
8
Text
100
AcDbText
10
64.5000000000000
20
-93.5432522735837
30
0.000000000000000
40
1.50000000000000
1
Datum:
100
AcDbText
  0
TEXT
  5
F1091B
330
F1091C
 100
AcDbEntity
8
Text
100
AcDbText
10
90.3041890989408
20
-96.5432522735837
30
0.000000000000000
40
1.50000000000000
1
24.03.2020
100
AcDbText
  0
LWPOLYLINE
  5
F1091D
330
F1091E
100
AcDbEntity
8
Rahmen
100
AcDbPolyline
90
   4
70
   1
43
   0.0
 10
63.3242942843023
 20
-85.0269916518531
 10
143.335989083949
 20
-85.0269916518531
 10
143.335989083949
 20
-91.2000007461879
 10
63.3242942843023
 20
-91.2000007461879
  0
TEXT
  5
F1091F
330
F10920
 100
AcDbEntity
8
Text
100
AcDbText
10
0.000000000000000
20
0.500000000000000
30
0.000000000000000
40
1.50000000000000
1

100
AcDbText
  0
TEXT
  5
F10921
330
F10922
 100
AcDbEntity
8
Text
100
AcDbText
10
72.5162428149736
20
-89.6596126470711
30
0.000000000000000
40
2.50000000000000
1
VHM-Alu-Schruppfräser 0152-12
100
AcDbText
  0
LWPOLYLINE
  5
F10923
330
F10924
100
AcDbEntity
8
Rahmen
100
AcDbPolyline
90
   4
70
   1
43
   0.0
 10
103.448853397478
 20
-79.0914059842235
 10
143.335989083949
 20
-79.0914059842235
 10
143.335989083949
 20
-85.0269916518531
 10
103.448853397478
 20
-85.0269916518531
  0
TEXT
  5
F10925
330
F10926
 100
AcDbEntity
8
Text
100
AcDbText
10
104.500000000000
20
-81.5432522735837
30
0.000000000000000
40
1.50000000000000
1
Zu bearb. Material:
100
AcDbText
  0
TEXT
  5
F10927
330
F10928
 100
AcDbEntity
8
Text
100
AcDbText
10
0.000000000000000
20
0.500000000000000
30
0.000000000000000
40
1.50000000000000
1

100
AcDbText
  0
LWPOLYLINE
  5
F10929
330
F1092A
100
AcDbEntity
8
Rahmen
100
AcDbPolyline
90
   4
70
   1
43
   0.0
 10
63.3242942843023
 20
-79.0914059842235
 10
103.448853397478
 20
-79.0914059842235
 10
103.448853397478
 20
-85.0269916518531
 10
63.3242942843023
 20
-85.0269916518531
  0
TEXT
  5
F1092B
330
F1092C
 100
AcDbEntity
8
Text
100
AcDbText
10
64.5000000000000
20
-81.5432522735837
30
0.000000000000000
40
1.50000000000000
1
Werkstoff:
100
AcDbText
  0
TEXT
  5
F1092D
330
F1092E
 100
AcDbEntity
8
Text
100
AcDbText
10
80.6509188795378
20
-84.5432522735837
30
0.000000000000000
40
1.50000000000000
1
VHM
100
AcDbText
  0
LWPOLYLINE
  5
F1092F
330
F10930
100
AcDbEntity
8
Rahmen
100
AcDbPolyline
90
   4
70
   1
43
   0.0
 10
103.448853397478
 20
-76.0049014370561
 10
143.335989083949
 20
-76.0049014370561
 10
143.335989083949
 20
-79.0914059842235
 10
103.448853397478
 20
-79.0914059842235
  0
TEXT
  5
F10931
330
F10932
 100
AcDbEntity
8
Text
100
AcDbText
10
0.000000000000000
20
0.500000000000000
30
0.000000000000000
40
1.50000000000000
1

100
AcDbText
  0
TEXT
  5
F10933
330
F10934
 100
AcDbEntity
8
Text
100
AcDbText
10
0.000000000000000
20
0.500000000000000
30
0.000000000000000
40
1.50000000000000
1

100
AcDbText
  0
LWPOLYLINE
  5
F10935
330
F10936
100
AcDbEntity
8
Rahmen
100
AcDbPolyline
90
   4
70
   1
43
   0.0
 10
63.3242942843023
 20
-76.0049014370561
 10
103.448853397478
 20
-76.0049014370561
 10
103.448853397478
 20
-79.0914059842235
 10
63.3242942843023
 20
-79.0914059842235
  0
TEXT
  5
F10937
330
F10938
 100
AcDbEntity
8
Text
100
AcDbText
10
64.5000000000000
20
-78.5432522735837
30
0.000000000000000
40
1.50000000000000
1
Maßstab:
100
AcDbText
  0
TEXT
  5
F10939
330
F1093A
 100
AcDbEntity
8
Text
100
AcDbText
10
88.8883423062430
20
-78.5432522735837
30
0.000000000000000
40
1.50000000000000
1
1 : 1
100
AcDbText
0
VIEWPORT
5
294
102
{ACAD_XDICTIONARY
360
58A
102
}
330
25D
100
AcDbEntity
67
1
8
0
60
1
100
AcDbViewport
10
0.0
20
0.0
30
0.0
40
10.0
41
10.0
68
-1
69
1
12
0.0
22
0.0
13
0.0
23
0.0
14
1.0
24
1.0
15
0.0
25
0.0
16
0.0
26
0.0
36
1.0
17
0.0
27
0.0
37
0.0
42
0.0
43
0.0
44
0.0
45
10.0
50
0.0
51
0.0000000000007958
72
100
90
32800
1

281
0
71
0
74
0
110
0.0
120
0.0
130
0.0
111
1.0
121
0.0
131
0.0
112
0.0
122
1.0
132
0.0
79
0
146
0.0
1001
VD_INVISIBLE_NOT_FOR_READ
1000
VD_INVISIBLE_NOT_FOR_READ
0
VIEWPORT
5
295
102
{ACAD_XDICTIONARY
360
58C
102
}
330
25D
100
AcDbEntity
67
1
8
0
60
1
100
AcDbViewport
10
0.0
20
0.0
30
0.0
40
10.0
41
10.0
68
0
69
2
12
0.0
22
0.0
13
0.0
23
0.0
14
1.0
24
1.0
15
0.0
25
0.0
16
0.0
26
0.0
36
1.0
17
0.0
27
0.0
37
0.0
42
0.0
43
0.0
44
0.0
45
10.0
50
0.0
51
0.0000000000007958
72
100
90
163872
1

281
0
71
0
74
0
110
0.0
120
0.0
130
0.0
111
1.0
121
0.0
131
0.0
112
0.0
122
1.0
132
0.0
79
0
146
0.0
1001
VD_INVISIBLE_NOT_FOR_READ
1000
VD_INVISIBLE_NOT_FOR_READ
0
ENDSEC
0
SECTION
2
OBJECTS
0
DICTIONARY
5
13
330
0
100
AcDbDictionary
281
1
3
ACAD_COLOR
350
FA7
3
ACAD_GROUP
350
14
3
ACAD_LAYOUT
350
FCF
3
ACAD_MATERIAL
350
F7A
3
ACAD_MLEADERSTYLE
350
FCD
3
ACAD_MLINESTYLE
350
16
3
ACAD_PLOTSETTINGS
350
17
3
ACAD_PLOTSTYLENAME
350
18
3
ACAD_SCALELIST
350
FAB
3
ACAD_TABLESTYLE
350
FA8
3
ACAD_VISUALSTYLE
350
F93
3
ACDB_RECOMPOSE_DATA
350
107E
3
AcDbVariableDictionary
350
FF0
3
DWGPROPS
350
107F
0
DICTIONARY
5
F10005
330
F10004
100
AcDbDictionary
280
1
281
1
3
ACAD_MTEXT_2008_RT
360
F10006
0
DICTIONARY
5
F10019
330
F10018
100
AcDbDictionary
280
1
281
1
3
ACAD_MTEXT_2008_RT
360
F1001A
0
DICTIONARY
5
F1001E
330
F1001D
100
AcDbDictionary
280
1
281
1
3
ACAD_MTEXT_2008_RT
360
F1001F
0
DICTIONARY
5
F10023
330
F10022
100
AcDbDictionary
280
1
281
1
3
ACAD_MTEXT_2008_RT
360
F10024
0
DICTIONARY
5
F1000A
330
F10009
100
AcDbDictionary
280
1
281
1
3
ACAD_MTEXT_2008_RT
360
F1000B
0
DICTIONARY
5
F1000F
330
F1000E
100
AcDbDictionary
280
1
281
1
3
ACAD_MTEXT_2008_RT
360
F10010
0
DICTIONARY
5
F10014
330
F10013
100
AcDbDictionary
280
1
281
1
3
ACAD_MTEXT_2008_RT
360
F10015
0
DICTIONARY
5
FA7
102
{ACAD_REACTORS
330
13
102
}
330
13
100
AcDbDictionary
281
1
0
DICTIONARY
5
14
330
13
100
AcDbDictionary
281
1
0
DICTIONARY
5
FCF
102
{ACAD_REACTORS
330
13
102
}
330
13
100
AcDbDictionary
281
1
3
Layout1
350
FD1
3
Model
350
FD0
0
DICTIONARY
5
F7A
102
{ACAD_REACTORS
330
13
102
}
330
13
100
AcDbDictionary
281
1
3
ByBlock
350
F83
3
ByLayer
350
F7B
3
Global
350
F8B
0
DICTIONARY
5
FCD
102
{ACAD_REACTORS
330
13
102
}
330
13
100
AcDbDictionary
281
1
3
Standard
350
FCE
0
DICTIONARY
5
16
330
13
100
AcDbDictionary
281
1
3
Standard
350
FAA
0
DICTIONARY
5
17
102
{ACAD_REACTORS
330
13
102
}
330
13
100
AcDbDictionary
281
1
0
ACDBDICTIONARYWDFLT
5
18
102
{ACAD_REACTORS
330
13
102
}
330
13
100
AcDbDictionary
281
1
3
Normal
350
19
100
AcDbDictionaryWithDefault
340
19
0
DICTIONARY
5
FAB
102
{ACAD_REACTORS
330
13
102
}
330
13
100
AcDbDictionary
281
1
3
A0
350
FAC
3
A1
350
FAD
3
A2
350
FAE
3
A3
350
FAF
3
A4
350
FB0
3
A5
350
FB1
3
A6
350
FB2
3
A7
350
FB3
3
A8
350
FB4
3
A9
350
FB5
3
B0
350
FB6
3
B1
350
FB7
3
B2
350
FB8
3
B3
350
FB9
3
B4
350
FBA
3
B5
350
FBB
3
B6
350
FBC
3
B7
350
FBD
3
B8
350
FBE
3
B9
350
FBF
3
C0
350
FC0
3
C1
350
FC1
3
C2
350
FC2
3
C3
350
FC3
3
C4
350
FC4
3
C5
350
FC5
3
C6
350
FC6
3
C7
350
FC7
3
C8
350
FC8
3
C9
350
FC9
3
D0
350
FCA
3
D1
350
FCB
3
D2
350
FCC
0
DICTIONARY
5
FA8
102
{ACAD_REACTORS
330
13
102
}
330
13
100
AcDbDictionary
281
1
3
Standard
350
FA9
0
DICTIONARY
5
F93
102
{ACAD_REACTORS
330
13
102
}
330
13
100
AcDbDictionary
281
1
3
2dWireframe
350
F99
3
3D Hidden
350
F9B
3
3dWireframe
350
F9A
3
Basic
350
F98
3
Brighten
350
F9F
3
ColorChange
350
FA3
3
Conceptual
350
F9C
3
Dim
350
F9E
3
EdgeColorOff
350
FA6
3
Facepattern
350
FA2
3
Flat
350
F94
3
FlatWithEdges
350
F95
3
Gouraud
350
F96
3
GouraudWithEdges
350
F97
3
JitterOff
350
FA4
3
Linepattern
350
FA1
3
OverhangOff
350
FA5
3
Realistic
350
F9D
3
Thicken
350
FA0
0
XRECORD
5
107E
102
{ACAD_REACTORS
330
13
102
}
330
13
100
AcDbXrecord
280
1
90
1
330
FA9
330
F10004
330
F10018
330
F1001D
330
F10022
330
F10009
330
F1000E
330
F10013
0
DICTIONARY
5
FF0
102
{ACAD_REACTORS
330
13
102
}
330
13
100
AcDbDictionary
281
1
3
CANNOSCALE
350
FF3
3
CMLEADERSTYLE
350
FF2
3
CTABLESTYLE
350
FF1
3
DIMASSOC
350
FF6
3
INDEXCTL
350
FF5
3
SORTENTS
350
FF4
3
XCLIPFRAME
350
1078
0
XRECORD
5
107F
102
{ACAD_REACTORS
330
13
102
}
330
13
100
AcDbXrecord
280
1
1
DWGPROPS COOKIE
2

3

4

6

7

8

9

300
=
301
=
302
=
303
=
304
=
305
=
306
=
307
=
308
=
309
=
40
0.0
41
0.0
42
0.0
1

90
0
0
XRECORD
5
F10006
102
{ACAD_REACTORS
330
F10005
102
}
330
F10005
100
AcDbXrecord
280
1
40
48458.0
1
0.4 x 45°
0
XRECORD
5
F1001A
102
{ACAD_REACTORS
330
F10019
102
}
330
F10019
100
AcDbXrecord
280
1
40
48458.0
1
24
0
XRECORD
5
F1001F
102
{ACAD_REACTORS
330
F1001E
102
}
330
F1001E
100
AcDbXrecord
280
1
40
48458.0
1
105
0
XRECORD
5
F10024
102
{ACAD_REACTORS
330
F10023
102
}
330
F10023
100
AcDbXrecord
280
1
40
48458.0
1
60
0
XRECORD
5
F1000B
102
{ACAD_REACTORS
330
F1000A
102
}
330
F1000A
100
AcDbXrecord
280
1
40
48458.0
1
Ø12
0
XRECORD
5
F10010
102
{ACAD_REACTORS
330
F1000F
102
}
330
F1000F
100
AcDbXrecord
280
1
40
48458.0
1
Ø11.2
0
LAYOUT
5
FD1
102
{ACAD_XDICTIONARY
360
10A9
102
}
102
{ACAD_REACTORS
330
FCF
102
}
330
FCF
100
AcDbPlotSettings
1

2
Microsoft XPS Document Writer
4

6

40
0.0
41
0.0
42
0.0
43
0.0
44
0.0
45
0.0
46
0.0
47
0.0
48
0.0
49
0.0
140
0.0
141
0.0
142
1.0
143
1.0
70
688
72
0
73
0
74
5
7

75
16
147
1.0
148
0.0
149
0.0
100
AcDbLayout
1
Layout1
70
1
71
1
10
0.0
20
0.0
11
12.0
21
9.0
12
0.0
22
0.0
32
0.0
14
1.000000000000000E+20
24
1.000000000000000E+20
34
1.000000000000000E+20
15
-1.000000000000000E+20
25
-1.000000000000000E+20
35
-1.000000000000000E+20
146
0.0
13
0.0
23
0.0
33
0.0
16
1.0
26
0.0
36
0.0
17
0.0
27
1.0
37
0.0
76
0
330
25D
0
LAYOUT
5
FD0
102
{ACAD_XDICTIONARY
360
10A7
102
}
102
{ACAD_REACTORS
330
FCF
102
}
330
FCF
100
AcDbPlotSettings
1

2
Microsoft XPS Document Writer
4

6

40
0.0
41
0.0
42
0.0
43
0.0
44
0.0
45
0.0
46
0.0
47
0.0
48
0.0
49
0.0
140
0.0
141
0.0
142
1.0
143
1.0
70
1712
72
0
73
0
74
0
7

75
0
147
1.0
148
0.0
149
0.0
100
AcDbLayout
1
Model
70
1
71
0
10
0.0
20
0.0
11
12.0
21
9.0
12
0.0
22
0.0
32
0.0
14
0.0
24
0.0
34
0.0
15
0.0
25
0.0
35
0.0
146
0.0
13
0.0
23
0.0
33
0.0
16
1.0
26
0.0
36
0.0
17
0.0
27
1.0
37
0.0
76
0
330
261
331
26B
0
MATERIAL
5
F83
102
{ACAD_XDICTIONARY
360
F84
102
}
102
{ACAD_REACTORS
330
F7A
102
}
330
F7A
100
AcDbMaterial
1
ByBlock
72
0
43
0.0208333333333333
43
0.0
43
0.0
43
0.0
43
0.0
43
0.0208333333333333
43
0.0
43
0.0
43
0.0
43
0.0
43
1.0
43
0.0
43
0.0
43
0.0
43
0.0
43
1.0
77
0
47
0.0208333333333333
47
0.0
47
0.0
47
0.0
47
0.0
47
0.0208333333333333
47
0.0
47
0.0
47
0.0
47
0.0
47
1.0
47
0.0
47
0.0
47
0.0
47
0.0
47
1.0
171
0
49
0.0208333333333333
49
0.0
49
0.0
49
0.0
49
0.0
49
0.0208333333333333
49
0.0
49
0.0
49
0.0
49
0.0
49
1.0
49
0.0
49
0.0
49
0.0
49
0.0
49
1.0
175
0
142
0.0208333333333333
142
0.0
142
0.0
142
0.0
142
0.0
142
0.0208333333333333
142
0.0
142
0.0
142
0.0
142
0.0
142
1.0
142
0.0
142
0.0
142
0.0
142
0.0
142
1.0
179
0
144
0.0208333333333333
144
0.0
144
0.0
144
0.0
144
0.0
144
0.0208333333333333
144
0.0
144
0.0
144
0.0
144
0.0
144
1.0
144
0.0
144
0.0
144
0.0
144
0.0
144
1.0
147
0.0208333333333333
147
0.0
147
0.0
147
0.0
147
0.0
147
0.0208333333333333
147
0.0
147
0.0
147
0.0
147
0.0
147
1.0
147
0.0
147
0.0
147
0.0
147
0.0
147
1.0
0
MATERIAL
5
F7B
102
{ACAD_XDICTIONARY
360
F7C
102
}
102
{ACAD_REACTORS
330
F7A
102
}
330
F7A
100
AcDbMaterial
1
ByLayer
72
0
43
0.0208333333333333
43
0.0
43
0.0
43
0.0
43
0.0
43
0.0208333333333333
43
0.0
43
0.0
43
0.0
43
0.0
43
1.0
43
0.0
43
0.0
43
0.0
43
0.0
43
1.0
77
0
47
0.0208333333333333
47
0.0
47
0.0
47
0.0
47
0.0
47
0.0208333333333333
47
0.0
47
0.0
47
0.0
47
0.0
47
1.0
47
0.0
47
0.0
47
0.0
47
0.0
47
1.0
171
0
49
0.0208333333333333
49
0.0
49
0.0
49
0.0
49
0.0
49
0.0208333333333333
49
0.0
49
0.0
49
0.0
49
0.0
49
1.0
49
0.0
49
0.0
49
0.0
49
0.0
49
1.0
175
0
142
0.0208333333333333
142
0.0
142
0.0
142
0.0
142
0.0
142
0.0208333333333333
142
0.0
142
0.0
142
0.0
142
0.0
142
1.0
142
0.0
142
0.0
142
0.0
142
0.0
142
1.0
179
0
144
0.0208333333333333
144
0.0
144
0.0
144
0.0
144
0.0
144
0.0208333333333333
144
0.0
144
0.0
144
0.0
144
0.0
144
1.0
144
0.0
144
0.0
144
0.0
144
0.0
144
1.0
147
0.0208333333333333
147
0.0
147
0.0
147
0.0
147
0.0
147
0.0208333333333333
147
0.0
147
0.0
147
0.0
147
0.0
147
1.0
147
0.0
147
0.0
147
0.0
147
0.0
147
1.0
0
MATERIAL
5
F8B
102
{ACAD_XDICTIONARY
360
F8C
102
}
102
{ACAD_REACTORS
330
F7A
102
}
330
F7A
100
AcDbMaterial
1
Global
72
0
43
0.0208333333333333
43
0.0
43
0.0
43
0.0
43
0.0
43
0.0208333333333333
43
0.0
43
0.0
43
0.0
43
0.0
43
1.0
43
0.0
43
0.0
43
0.0
43
0.0
43
1.0
77
0
47
0.0208333333333333
47
0.0
47
0.0
47
0.0
47
0.0
47
0.0208333333333333
47
0.0
47
0.0
47
0.0
47
0.0
47
1.0
47
0.0
47
0.0
47
0.0
47
0.0
47
1.0
171
0
49
0.0208333333333333
49
0.0
49
0.0
49
0.0
49
0.0
49
0.0208333333333333
49
0.0
49
0.0
49
0.0
49
0.0
49
1.0
49
0.0
49
0.0
49
0.0
49
0.0
49
1.0
175
0
142
0.0208333333333333
142
0.0
142
0.0
142
0.0
142
0.0
142
0.0208333333333333
142
0.0
142
0.0
142
0.0
142
0.0
142
1.0
142
0.0
142
0.0
142
0.0
142
0.0
142
1.0
179
0
144
0.0208333333333333
144
0.0
144
0.0
144
0.0
144
0.0
144
0.0208333333333333
144
0.0
144
0.0
144
0.0
144
0.0
144
1.0
144
0.0
144
0.0
144
0.0
144
0.0
144
1.0
147
0.0208333333333333
147
0.0
147
0.0
147
0.0
147
0.0
147
0.0208333333333333
147
0.0
147
0.0
147
0.0
147
0.0
147
1.0
147
0.0
147
0.0
147
0.0
147
0.0
147
1.0
0
MLEADERSTYLE
5
FCE
102
{ACAD_REACTORS
330
FCD
102
}
330
FCD
100
AcDbMLeaderStyle
170
2
171
1
172
0
90
2
40
0.0
41
0.0
173
1
91
-1056964608
340
256
92
-2
290
1
42
0.09
291
1
43
0.36
3
Standard
44
0.18
300

342
253
174
1
178
6
175
1
176
0
93
-1056964608
45
0.18
292
0
297
0
46
0.18
94
-1056964608
47
1.0
49
1.0
140
1.0
293
1
141
0.0
294
1
177
0
142
1.0
295
0
296
0
143
0.125
1001
ACAD_MLEADERVER
1070
2
0
MLINESTYLE
5
FAA
102
{ACAD_REACTORS
330
16
102
}
330
16
100
AcDbMlineStyle
2
STANDARD
70
0
3

62
256
51
90.0
52
90.0
71
2
49
0.5
62
256
6
BYLAYER
49
-0.5
62
256
6
BYLAYER
0
ACDBPLACEHOLDER
5
19
102
{ACAD_REACTORS
330
18
102
}
330
18
0
SCALE
5
FAC
102
{ACAD_REACTORS
330
FAB
102
}
330
FAB
100
AcDbScale
70
0
300
1:1
140
1.0
141
1.0
290
1
0
SCALE
5
FAD
102
{ACAD_REACTORS
330
FAB
102
}
330
FAB
100
AcDbScale
70
0
300
1:2
140
1.0
141
2.0
290
0
0
SCALE
5
FAE
102
{ACAD_REACTORS
330
FAB
102
}
330
FAB
100
AcDbScale
70
0
300
1:4
140
1.0
141
4.0
290
0
0
SCALE
5
FAF
102
{ACAD_REACTORS
330
FAB
102
}
330
FAB
100
AcDbScale
70
0
300
1:5
140
1.0
141
5.0
290
0
0
SCALE
5
FB0
102
{ACAD_REACTORS
330
FAB
102
}
330
FAB
100
AcDbScale
70
0
300
1:8
140
1.0
141
8.0
290
0
0
SCALE
5
FB1
102
{ACAD_REACTORS
330
FAB
102
}
330
FAB
100
AcDbScale
70
0
300
1:10
140
1.0
141
10.0
290
0
0
SCALE
5
FB2
102
{ACAD_REACTORS
330
FAB
102
}
330
FAB
100
AcDbScale
70
0
300
1:16
140
1.0
141
16.0
290
0
0
SCALE
5
FB3
102
{ACAD_REACTORS
330
FAB
102
}
330
FAB
100
AcDbScale
70
0
300
1:20
140
1.0
141
20.0
290
0
0
SCALE
5
FB4
102
{ACAD_REACTORS
330
FAB
102
}
330
FAB
100
AcDbScale
70
0
300
1:30
140
1.0
141
30.0
290
0
0
SCALE
5
FB5
102
{ACAD_REACTORS
330
FAB
102
}
330
FAB
100
AcDbScale
70
0
300
1:40
140
1.0
141
40.0
290
0
0
SCALE
5
FB6
102
{ACAD_REACTORS
330
FAB
102
}
330
FAB
100
AcDbScale
70
0
300
1:50
140
1.0
141
50.0
290
0
0
SCALE
5
FB7
102
{ACAD_REACTORS
330
FAB
102
}
330
FAB
100
AcDbScale
70
0
300
1:100
140
1.0
141
100.0
290
0
0
SCALE
5
FB8
102
{ACAD_REACTORS
330
FAB
102
}
330
FAB
100
AcDbScale
70
0
300
2:1
140
2.0
141
1.0
290
0
0
SCALE
5
FB9
102
{ACAD_REACTORS
330
FAB
102
}
330
FAB
100
AcDbScale
70
0
300
4:1
140
4.0
141
1.0
290
0
0
SCALE
5
FBA
102
{ACAD_REACTORS
330
FAB
102
}
330
FAB
100
AcDbScale
70
0
300
8:1
140
8.0
141
1.0
290
0
0
SCALE
5
FBB
102
{ACAD_REACTORS
330
FAB
102
}
330
FAB
100
AcDbScale
70
0
300
10:1
140
10.0
141
1.0
290
0
0
SCALE
5
FBC
102
{ACAD_REACTORS
330
FAB
102
}
330
FAB
100
AcDbScale
70
0
300
100:1
140
100.0
141
1.0
290
0
0
SCALE
5
FBD
102
{ACAD_REACTORS
330
FAB
102
}
330
FAB
100
AcDbScale
70
0
300
1/128" = 1'-0"
140
0.0078125
141
12.0
290
0
0
SCALE
5
FBE
102
{ACAD_REACTORS
330
FAB
102
}
330
FAB
100
AcDbScale
70
0
300
1/64" = 1'-0"
140
0.015625
141
12.0
290
0
0
SCALE
5
FBF
102
{ACAD_REACTORS
330
FAB
102
}
330
FAB
100
AcDbScale
70
0
300
1/32" = 1'-0"
140
0.03125
141
12.0
290
0
0
SCALE
5
FC0
102
{ACAD_REACTORS
330
FAB
102
}
330
FAB
100
AcDbScale
70
0
300
1/16" = 1'-0"
140
0.0625
141
12.0
290
0
0
SCALE
5
FC1
102
{ACAD_REACTORS
330
FAB
102
}
330
FAB
100
AcDbScale
70
0
300
3/32" = 1'-0"
140
0.09375
141
12.0
290
0
0
SCALE
5
FC2
102
{ACAD_REACTORS
330
FAB
102
}
330
FAB
100
AcDbScale
70
0
300
1/8" = 1'-0"
140
0.125
141
12.0
290
0
0
SCALE
5
FC3
102
{ACAD_REACTORS
330
FAB
102
}
330
FAB
100
AcDbScale
70
0
300
3/16" = 1'-0"
140
0.1875
141
12.0
290
0
0
SCALE
5
FC4
102
{ACAD_REACTORS
330
FAB
102
}
330
FAB
100
AcDbScale
70
0
300
1/4" = 1'-0"
140
0.25
141
12.0
290
0
0
SCALE
5
FC5
102
{ACAD_REACTORS
330
FAB
102
}
330
FAB
100
AcDbScale
70
0
300
3/8" = 1'-0"
140
0.375
141
12.0
290
0
0
SCALE
5
FC6
102
{ACAD_REACTORS
330
FAB
102
}
330
FAB
100
AcDbScale
70
0
300
1/2" = 1'-0"
140
0.5
141
12.0
290
0
0
SCALE
5
FC7
102
{ACAD_REACTORS
330
FAB
102
}
330
FAB
100
AcDbScale
70
0
300
3/4" = 1'-0"
140
0.75
141
12.0
290
0
0
SCALE
5
FC8
102
{ACAD_REACTORS
330
FAB
102
}
330
FAB
100
AcDbScale
70
0
300
1" = 1'-0"
140
1.0
141
12.0
290
0
0
SCALE
5
FC9
102
{ACAD_REACTORS
330
FAB
102
}
330
FAB
100
AcDbScale
70
0
300
1-1/2" = 1'-0"
140
1.5
141
12.0
290
0
0
SCALE
5
FCA
102
{ACAD_REACTORS
330
FAB
102
}
330
FAB
100
AcDbScale
70
0
300
3" = 1'-0"
140
3.0
141
12.0
290
0
0
SCALE
5
FCB
102
{ACAD_REACTORS
330
FAB
102
}
330
FAB
100
AcDbScale
70
0
300
6" = 1'-0"
140
6.0
141
12.0
290
0
0
SCALE
5
FCC
102
{ACAD_REACTORS
330
FAB
102
}
330
FAB
100
AcDbScale
70
0
300
1'-0" = 1'-0"
140
12.0
141
12.0
290
0
0
TABLESTYLE
5
FA9
102
{ACAD_XDICTIONARY
360
FF8
102
}
102
{ACAD_REACTORS
330
FA8
102
}
330
FA8
100
AcDbTableStyle
3
Standard
70
0
71
0
40
0.06
41
0.06
280
0
281
0
7
Standard
140
0.18
170
2
62
0
63
7
283
0
274
-2
284
1
64
0
275
-2
285
1
65
0
276
-2
286
1
66
0
277
-2
287
1
67
0
278
-2
288
1
68
0
279
-2
289
1
69
0
7
Standard
140
0.25
170
5
62
0
63
7
283
0
274
-2
284
1
64
0
275
-2
285
1
65
0
276
-2
286
1
66
0
277
-2
287
1
67
0
278
-2
288
1
68
0
279
-2
289
1
69
0
7
Standard
140
0.18
170
5
62
0
63
7
283
0
274
-2
284
1
64
0
275
-2
285
1
65
0
276
-2
286
1
66
0
277
-2
287
1
67
0
278
-2
288
1
68
0
279
-2
289
1
69
0
0
VISUALSTYLE
5
F99
102
{ACAD_XDICTIONARY
360
108A
102
}
102
{ACAD_REACTORS
330
F93
102
}
330
F93
100
AcDbVisualStyle
2

70
4
71
0
72
2
73
0
90
0
40
-0.6
41
-30.0
62
5
63
7
74
1
91
4
64
7
65
257
75
1
175
1
42
1.0
92
0
66
257
43
1.0
76
1
77
6
78
2
67
7
79
5
170
0
171
0
290
0
174
0
93
1
44
0.0
173
0
291
0
45
0.0
1001
ACAD
1000
AcDbSavedByObjectVersion
1070
0
0
VISUALSTYLE
5
F9B
102
{ACAD_XDICTIONARY
360
108E
102
}
102
{ACAD_REACTORS
330
F93
102
}
330
F93
100
AcDbVisualStyle
2

70
6
71
1
72
2
73
2
90
0
40
-0.6
41
-30.0
62
5
63
7
74
2
91
2
64
7
65
257
75
2
175
1
42
179.0
92
0
66
257
43
1.0
76
1
77
6
78
2
67
7
79
3
170
0
171
0
290
0
174
0
93
1
44
0.0
173
0
291
0
45
0.0
1001
ACAD
1000
AcDbSavedByObjectVersion
1070
0
0
VISUALSTYLE
5
F9A
102
{ACAD_XDICTIONARY
360
108C
102
}
102
{ACAD_REACTORS
330
F93
102
}
330
F93
100
AcDbVisualStyle
2

70
5
71
0
72
2
73
0
90
0
40
-0.6
41
-30.0
62
5
63
7
74
1
91
4
64
7
65
257
75
1
175
1
42
1.0
92
0
66
257
43
1.0
76
1
77
6
78
2
67
7
79
5
170
0
171
0
290
0
174
0
93
1
44
0.0
173
0
291
0
45
0.0
1001
ACAD
1000
AcDbSavedByObjectVersion
1070
0
0
VISUALSTYLE
5
F98
102
{ACAD_XDICTIONARY
360
1088
102
}
102
{ACAD_REACTORS
330
F93
102
}
330
F93
100
AcDbVisualStyle
2

70
7
71
1
72
0
73
1
90
0
40
-0.6
41
-30.0
62
5
63
7
74
0
91
4
64
7
65
257
75
1
175
1
42
1.0
92
8
66
7
43
1.0
76
1
77
6
78
2
67
7
79
5
170
0
171
0
290
0
174
0
93
1
44
0.0
173
0
291
1
45
0.0
1001
ACAD
1000
AcDbSavedByObjectVersion
1070
0
0
VISUALSTYLE
5
F9F
102
{ACAD_XDICTIONARY
360
1096
102
}
102
{ACAD_REACTORS
330
F93
102
}
330
F93
100
AcDbVisualStyle
2

70
12
71
2
72
2
73
0
90
0
40
-0.6
41
-30.0
62
5
63
7
74
1
91
4
64
7
65
257
75
1
175
1
42
1.0
92
8
66
7
43
1.0
76
1
77
6
78
2
67
7
79
5
170
0
171
0
290
0
174
0
93
1
44
50.0
173
0
291
1
45
0.0
1001
ACAD
1000
AcDbSavedByObjectVersion
1070
0
0
VISUALSTYLE
5
FA3
102
{ACAD_XDICTIONARY
360
109E
102
}
102
{ACAD_REACTORS
330
F93
102
}
330
F93
100
AcDbVisualStyle
2

70
16
71
2
72
2
73
3
90
0
40
-0.6
41
-30.0
62
5
63
8
74
1
91
4
64
7
65
257
75
1
175
1
42
1.0
92
8
66
8
43
1.0
76
1
77
6
78
2
67
7
79
5
170
0
171
0
290
0
174
0
93
1
44
0.0
173
0
291
1
45
0.0
1001
ACAD
1000
AcDbSavedByObjectVersion
1070
0
0
VISUALSTYLE
5
F9C
102
{ACAD_XDICTIONARY
360
1090
102
}
102
{ACAD_REACTORS
330
F93
102
}
330
F93
100
AcDbVisualStyle
2

70
9
71
3
72
2
73
0
90
0
40
-0.6
41
-30.0
62
5
63
7
74
2
91
2
64
7
65
257
75
1
175
1
42
179.0
92
8
66
7
43
1.0
76
1
77
6
78
2
67
7
79
3
170
0
171
0
290
0
174
0
93
1
44
0.0
173
0
291
0
45
0.0
1001
ACAD
1000
AcDbSavedByObjectVersion
1070
0
0
VISUALSTYLE
5
F9E
102
{ACAD_XDICTIONARY
360
1094
102
}
102
{ACAD_REACTORS
330
F93
102
}
330
F93
100
AcDbVisualStyle
2

70
11
71
2
72
2
73
0
90
0
40
-0.6
41
-30.0
62
5
63
7
74
1
91
4
64
7
65
257
75
1
175
1
42
1.0
92
8
66
7
43
1.0
76
1
77
6
78
2
67
7
79
5
170
0
171
0
290
0
174
0
93
1
44
-50.0
173
0
291
1
45
0.0
1001
ACAD
1000
AcDbSavedByObjectVersion
1070
0
0
VISUALSTYLE
5
FA6
102
{ACAD_XDICTIONARY
360
10A4
102
}
102
{ACAD_REACTORS
330
F93
102
}
330
F93
100
AcDbVisualStyle
2

70
22
71
2
72
2
73
0
90
0
40
-0.6
41
-30.0
62
5
63
7
74
1
91
4
64
7
65
257
75
1
175
1
42
1.0
92
8
66
7
43
1.0
76
1
77
6
78
2
67
7
79
5
170
0
171
0
290
0
174
0
93
1
44
0.0
173
0
291
1
45
0.0
1001
ACAD
1000
AcDbSavedByObjectVersion
1070
0
0
VISUALSTYLE
5
FA2
102
{ACAD_XDICTIONARY
360
109C
102
}
102
{ACAD_REACTORS
330
F93
102
}
330
F93
100
AcDbVisualStyle
2

70
15
71
2
72
2
73
0
90
0
40
-0.6
41
-30.0
62
5
63
7
74
1
91
4
64
7
65
257
75
1
175
1
42
1.0
92
8
66
7
43
1.0
76
1
77
6
78
2
67
7
79
5
170
0
171
0
290
0
174
0
93
1
44
0.0
173
0
291
1
45
0.0
1001
ACAD
1000
AcDbSavedByObjectVersion
1070
0
0
VISUALSTYLE
5
F94
102
{ACAD_XDICTIONARY
360
1080
102
}
102
{ACAD_REACTORS
330
F93
102
}
330
F93
100
AcDbVisualStyle
2

70
0
71
2
72
1
73
1
90
2
40
-0.6
41
30.0
62
5
63
7
74
0
91
4
64
7
65
257
75
1
175
1
42
1.0
92
8
66
7
43
1.0
76
1
77
6
78
2
67
7
79
5
170
0
171
0
290
0
174
0
93
13
44
0.0
173
0
291
1
45
0.0
1001
ACAD
1000
AcDbSavedByObjectVersion
1070
0
0
VISUALSTYLE
5
F95
102
{ACAD_XDICTIONARY
360
1082
102
}
102
{ACAD_REACTORS
330
F93
102
}
330
F93
100
AcDbVisualStyle
2

70
1
71
2
72
1
73
1
90
2
40
-0.6
41
30.0
62
5
63
7
74
1
91
4
64
7
65
257
75
1
175
1
42
1.0
92
0
66
257
43
1.0
76
1
77
6
78
2
67
7
79
5
170
0
171
0
290
0
174
0
93
13
44
0.0
173
0
291
1
45
0.0
1001
ACAD
1000
AcDbSavedByObjectVersion
1070
0
0
VISUALSTYLE
5
F96
102
{ACAD_XDICTIONARY
360
1084
102
}
102
{ACAD_REACTORS
330
F93
102
}
330
F93
100
AcDbVisualStyle
2

70
2
71
2
72
2
73
1
90
2
40
-0.6
41
30.0
62
5
63
7
74
0
91
4
64
7
65
257
75
1
175
1
42
1.0
92
0
66
7
43
1.0
76
1
77
6
78
2
67
7
79
5
170
0
171
0
290
0
174
0
93
13
44
0.0
173
0
291
1
45
0.0
1001
ACAD
1000
AcDbSavedByObjectVersion
1070
0
0
VISUALSTYLE
5
F97
102
{ACAD_XDICTIONARY
360
1086
102
}
102
{ACAD_REACTORS
330
F93
102
}
330
F93
100
AcDbVisualStyle
2

70
3
71
2
72
2
73
1
90
2
40
-0.6
41
30.0
62
5
63
7
74
1
91
4
64
7
65
257
75
1
175
1
42
1.0
92
0
66
257
43
1.0
76
1
77
6
78
2
67
7
79
5
170
0
171
0
290
0
174
0
93
13
44
0.0
173
0
291
1
45
0.0
1001
ACAD
1000
AcDbSavedByObjectVersion
1070
0
0
VISUALSTYLE
5
FA4
102
{ACAD_XDICTIONARY
360
10A0
102
}
102
{ACAD_REACTORS
330
F93
102
}
330
F93
100
AcDbVisualStyle
2

70
20
71
2
72
2
73
0
90
0
40
-0.6
41
-30.0
62
5
63
7
74
1
91
4
64
7
65
257
75
1
175
1
42
1.0
92
10
66
7
43
1.0
76
1
77
6
78
2
67
7
79
5
170
0
171
0
290
0
174
0
93
1
44
0.0
173
0
291
1
45
0.0
1001
ACAD
1000
AcDbSavedByObjectVersion
1070
0
0
VISUALSTYLE
5
FA1
102
{ACAD_XDICTIONARY
360
109A
102
}
102
{ACAD_REACTORS
330
F93
102
}
330
F93
100
AcDbVisualStyle
2

70
14
71
2
72
2
73
0
90
0
40
-0.6
41
-30.0
62
5
63
7
74
1
91
4
64
7
65
257
75
7
175
7
42
1.0
92
8
66
7
43
1.0
76
1
77
6
78
2
67
7
79
5
170
0
171
0
290
0
174
0
93
1
44
0.0
173
0
291
1
45
0.0
1001
ACAD
1000
AcDbSavedByObjectVersion
1070
0
0
VISUALSTYLE
5
FA5
102
{ACAD_XDICTIONARY
360
10A2
102
}
102
{ACAD_REACTORS
330
F93
102
}
330
F93
100
AcDbVisualStyle
2

70
21
71
2
72
2
73
0
90
0
40
-0.6
41
-30.0
62
5
63
7
74
1
91
4
64
7
65
257
75
1
175
1
42
1.0
92
9
66
7
43
1.0
76
1
77
6
78
2
67
7
79
5
170
0
171
0
290
0
174
0
93
1
44
0.0
173
0
291
1
45
0.0
1001
ACAD
1000
AcDbSavedByObjectVersion
1070
0
0
VISUALSTYLE
5
F9D
102
{ACAD_XDICTIONARY
360
1092
102
}
102
{ACAD_REACTORS
330
F93
102
}
330
F93
100
AcDbVisualStyle
2

70
8
71
2
72
2
73
0
90
0
40
-0.6
41
-30.0
62
5
63
7
74
1
91
0
64
7
65
257
75
1
175
1
42
1.0
92
8
66
8
43
1.0
76
1
77
6
78
2
67
7
79
5
170
0
171
0
290
0
174
0
93
13
44
0.0
173
0
291
0
45
0.0
1001
ACAD
1000
AcDbSavedByObjectVersion
1070
0
0
VISUALSTYLE
5
FA0
102
{ACAD_XDICTIONARY
360
1098
102
}
102
{ACAD_REACTORS
330
F93
102
}
330
F93
100
AcDbVisualStyle
2

70
13
71
2
72
2
73
0
90
0
40
-0.6
41
-30.0
62
5
63
7
74
1
91
4
64
7
65
257
75
1
175
1
42
1.0
92
12
66
7
43
1.0
76
1
77
6
78
2
67
7
79
5
170
0
171
0
290
0
174
0
93
1
44
0.0
173
0
291
1
45
0.0
1001
ACAD
1000
AcDbSavedByObjectVersion
1070
0
0
DICTIONARYVAR
5
FF3
102
{ACAD_REACTORS
330
FF0
102
}
330
FF0
100
DictionaryVariables
280
0
1
1:1
0
DICTIONARYVAR
5
FF2
102
{ACAD_REACTORS
330
FF0
102
}
330
FF0
100
DictionaryVariables
280
0
1
STANDARD
0
DICTIONARYVAR
5
FF1
102
{ACAD_REACTORS
330
FF0
102
}
330
FF0
100
DictionaryVariables
280
0
1
STANDARD
0
DICTIONARYVAR
5
FF6
102
{ACAD_REACTORS
330
FF0
102
}
330
FF0
100
DictionaryVariables
280
0
1
1
0
DICTIONARYVAR
5
FF5
102
{ACAD_REACTORS
330
FF0
102
}
330
FF0
100
DictionaryVariables
280
0
1
0
0
DICTIONARYVAR
5
FF4
102
{ACAD_REACTORS
330
FF0
102
}
330
FF0
100
DictionaryVariables
280
0
1
127
0
DICTIONARYVAR
5
1078
102
{ACAD_REACTORS
330
FF0
102
}
330
FF0
100
DictionaryVariables
280
0
1
2
0
DICTIONARY
5
10A9
330
FD1
100
AcDbDictionary
280
1
281
1
3
ACAD_XREC_ROUNDTRIP
360
10AA
0
DICTIONARY
5
10A7
330
FD0
100
AcDbDictionary
280
1
281
1
3
ACAD_XREC_ROUNDTRIP
360
10A8
0
DICTIONARY
5
F84
330
F83
100
AcDbDictionary
280
1
281
1
3
ACAD_XREC_ROUNDTRIP
360
FFF
3
BUMPTILE
360
F86
3
DIFFUSETILE
360
F85
3
OPACITYTILE
360
F89
3
REFLECTIONTILE
360
F88
3
REFRACTIONTILE
360
F8A
3
SPECULARTILE
360
F87
0
DICTIONARY
5
F7C
330
F7B
100
AcDbDictionary
280
1
281
1
3
ACAD_XREC_ROUNDTRIP
360
FFE
3
BUMPTILE
360
F7E
3
DIFFUSETILE
360
F7D
3
OPACITYTILE
360
F81
3
REFLECTIONTILE
360
F80
3
REFRACTIONTILE
360
F82
3
SPECULARTILE
360
F7F
0
DICTIONARY
5
F8C
330
F8B
100
AcDbDictionary
280
1
281
1
3
ACAD_XREC_ROUNDTRIP
360
1000
3
BUMPTILE
360
F8E
3
DIFFUSETILE
360
F8D
3
OPACITYTILE
360
F91
3
REFLECTIONTILE
360
F90
3
REFRACTIONTILE
360
F92
3
SPECULARTILE
360
F8F
0
DICTIONARY
5
FF8
330
FA9
100
AcDbDictionary
280
1
281
1
3
ACAD_ROUNDTRIP_2008_TABLESTYLE_CELLSTYLEMAP
360
1079
3
ACAD_XREC_ROUNDTRIP
360
10A6
0
DICTIONARY
5
108A
330
F99
100
AcDbDictionary
280
1
281
1
3
ACAD_XREC_ROUNDTRIP
360
108B
0
DICTIONARY
5
108E
330
F9B
100
AcDbDictionary
280
1
281
1
3
ACAD_XREC_ROUNDTRIP
360
108F
0
DICTIONARY
5
108C
330
F9A
100
AcDbDictionary
280
1
281
1
3
ACAD_XREC_ROUNDTRIP
360
108D
0
DICTIONARY
5
1088
330
F98
100
AcDbDictionary
280
1
281
1
3
ACAD_XREC_ROUNDTRIP
360
1089
0
DICTIONARY
5
1096
330
F9F
100
AcDbDictionary
280
1
281
1
3
ACAD_XREC_ROUNDTRIP
360
1097
0
DICTIONARY
5
109E
330
FA3
100
AcDbDictionary
280
1
281
1
3
ACAD_XREC_ROUNDTRIP
360
109F
0
DICTIONARY
5
1090
330
F9C
100
AcDbDictionary
280
1
281
1
3
ACAD_XREC_ROUNDTRIP
360
1091
0
DICTIONARY
5
1094
330
F9E
100
AcDbDictionary
280
1
281
1
3
ACAD_XREC_ROUNDTRIP
360
1095
0
DICTIONARY
5
10A4
330
FA6
100
AcDbDictionary
280
1
281
1
3
ACAD_XREC_ROUNDTRIP
360
10A5
0
DICTIONARY
5
109C
330
FA2
100
AcDbDictionary
280
1
281
1
3
ACAD_XREC_ROUNDTRIP
360
109D
0
DICTIONARY
5
1080
330
F94
100
AcDbDictionary
280
1
281
1
3
ACAD_XREC_ROUNDTRIP
360
1081
0
DICTIONARY
5
1082
330
F95
100
AcDbDictionary
280
1
281
1
3
ACAD_XREC_ROUNDTRIP
360
1083
0
DICTIONARY
5
1084
330
F96
100
AcDbDictionary
280
1
281
1
3
ACAD_XREC_ROUNDTRIP
360
1085
0
DICTIONARY
5
1086
330
F97
100
AcDbDictionary
280
1
281
1
3
ACAD_XREC_ROUNDTRIP
360
1087
0
DICTIONARY
5
10A0
330
FA4
100
AcDbDictionary
280
1
281
1
3
ACAD_XREC_ROUNDTRIP
360
10A1
0
DICTIONARY
5
109A
330
FA1
100
AcDbDictionary
280
1
281
1
3
ACAD_XREC_ROUNDTRIP
360
109B
0
DICTIONARY
5
10A2
330
FA5
100
AcDbDictionary
280
1
281
1
3
ACAD_XREC_ROUNDTRIP
360
10A3
0
DICTIONARY
5
1092
330
F9D
100
AcDbDictionary
280
1
281
1
3
ACAD_XREC_ROUNDTRIP
360
1093
0
DICTIONARY
5
1098
330
FA0
100
AcDbDictionary
280
1
281
1
3
ACAD_XREC_ROUNDTRIP
360
1099
0
XRECORD
5
10AA
102
{ACAD_REACTORS
330
10A9
102
}
330
10A9
100
AcDbXrecord
280
1
102
SHADEPLOT
70
0
102
SHADEPLOTRESLEVEL
70
2
102
SHADEPLOTCUSTOMDPI
70
300
0
XRECORD
5
10A8
102
{ACAD_REACTORS
330
10A7
102
}
330
10A7
100
AcDbXrecord
280
1
102
SHADEPLOT
70
0
102
SHADEPLOTRESLEVEL
70
2
102
SHADEPLOTCUSTOMDPI
70
300
0
XRECORD
5
FFF
102
{ACAD_REACTORS
330
F84
102
}
330
F84
100
AcDbXrecord
280
1
102
MATERIAL
148
0.0
149
0.0
149
0.0
93
0
94
127
282
0
72
0
77
0
171
0
175
0
179
0
273
0
0
XRECORD
5
F86
102
{ACAD_REACTORS
330
F84
102
}
330
F84
100
AcDbXrecord
280
1
270
1
271
1
0
XRECORD
5
F85
102
{ACAD_REACTORS
330
F84
102
}
330
F84
100
AcDbXrecord
280
1
270
1
271
1
0
XRECORD
5
F89
102
{ACAD_REACTORS
330
F84
102
}
330
F84
100
AcDbXrecord
280
1
270
1
271
1
0
XRECORD
5
F88
102
{ACAD_REACTORS
330
F84
102
}
330
F84
100
AcDbXrecord
280
1
270
1
271
1
0
XRECORD
5
F8A
102
{ACAD_REACTORS
330
F84
102
}
330
F84
100
AcDbXrecord
280
1
270
1
271
1
0
XRECORD
5
F87
102
{ACAD_REACTORS
330
F84
102
}
330
F84
100
AcDbXrecord
280
1
270
1
271
1
0
XRECORD
5
FFE
102
{ACAD_REACTORS
330
F7C
102
}
330
F7C
100
AcDbXrecord
280
1
102
MATERIAL
148
0.0
149
0.0
149
0.0
93
0
94
127
282
0
72
0
77
0
171
0
175
0
179
0
273
0
0
XRECORD
5
F7E
102
{ACAD_REACTORS
330
F7C
102
}
330
F7C
100
AcDbXrecord
280
1
270
1
271
1
0
XRECORD
5
F7D
102
{ACAD_REACTORS
330
F7C
102
}
330
F7C
100
AcDbXrecord
280
1
270
1
271
1
0
XRECORD
5
F81
102
{ACAD_REACTORS
330
F7C
102
}
330
F7C
100
AcDbXrecord
280
1
270
1
271
1
0
XRECORD
5
F80
102
{ACAD_REACTORS
330
F7C
102
}
330
F7C
100
AcDbXrecord
280
1
270
1
271
1
0
XRECORD
5
F82
102
{ACAD_REACTORS
330
F7C
102
}
330
F7C
100
AcDbXrecord
280
1
270
1
271
1
0
XRECORD
5
F7F
102
{ACAD_REACTORS
330
F7C
102
}
330
F7C
100
AcDbXrecord
280
1
270
1
271
1
0
XRECORD
5
1000
102
{ACAD_REACTORS
330
F8C
102
}
330
F8C
100
AcDbXrecord
280
1
102
MATERIAL
148
0.0
149
0.0
149
0.0
93
0
94
127
282
0
72
0
77
0
171
0
175
0
179
0
273
0
0
XRECORD
5
F8E
102
{ACAD_REACTORS
330
F8C
102
}
330
F8C
100
AcDbXrecord
280
1
270
1
271
1
0
XRECORD
5
F8D
102
{ACAD_REACTORS
330
F8C
102
}
330
F8C
100
AcDbXrecord
280
1
270
1
271
1
0
XRECORD
5
F91
102
{ACAD_REACTORS
330
F8C
102
}
330
F8C
100
AcDbXrecord
280
1
270
1
271
1
0
XRECORD
5
F90
102
{ACAD_REACTORS
330
F8C
102
}
330
F8C
100
AcDbXrecord
280
1
270
1
271
1
0
XRECORD
5
F92
102
{ACAD_REACTORS
330
F8C
102
}
330
F8C
100
AcDbXrecord
280
1
270
1
271
1
0
XRECORD
5
F8F
102
{ACAD_REACTORS
330
F8C
102
}
330
F8C
100
AcDbXrecord
280
1
270
1
271
1
0
CELLSTYLEMAP
5
1079
102
{ACAD_REACTORS
330
FF8
102
}
330
FF8
100
AcDbCellStyleMap
90
3
300
CELLSTYLE
1
TABLEFORMAT_BEGIN
90
5
170
1
91
0
92
32768
62
257
93
1
300
CONTENTFORMAT
1
CONTENTFORMAT_BEGIN
90
0
91
0
92
512
93
0
300

40
0.0
140
1.0
94
5
62
0
340
253
144
0.25
309
CONTENTFORMAT_END
171
1
301
MARGIN
1
CELLMARGIN_BEGIN
40
0.06
40
0.06
40
0.06
40
0.06
40
0.18
40
0.18
309
CELLMARGIN_END
94
6
95
1
302
GRIDFORMAT
1
GRIDFORMAT_BEGIN
90
0
91
1
62
0
92
-2
340
0
93
0
40
0.045
309
GRIDFORMAT_END
95
2
302
GRIDFORMAT
1
GRIDFORMAT_BEGIN
90
0
91
1
62
0
92
-2
340
0
93
0
40
0.045
309
GRIDFORMAT_END
95
4
302
GRIDFORMAT
1
GRIDFORMAT_BEGIN
90
0
91
1
62
0
92
-2
340
0
93
0
40
0.045
309
GRIDFORMAT_END
95
8
302
GRIDFORMAT
1
GRIDFORMAT_BEGIN
90
0
91
1
62
0
92
-2
340
0
93
0
40
0.045
309
GRIDFORMAT_END
95
16
302
GRIDFORMAT
1
GRIDFORMAT_BEGIN
90
0
91
1
62
0
92
-2
340
0
93
0
40
0.045
309
GRIDFORMAT_END
95
32
302
GRIDFORMAT
1
GRIDFORMAT_BEGIN
90
0
91
1
62
0
92
-2
340
0
93
0
40
0.045
309
GRIDFORMAT_END
309
TABLEFORMAT_END
1
CELLSTYLE_BEGIN
90
1
91
1
300
_TITLE
309
CELLSTYLE_END
300
CELLSTYLE
1
TABLEFORMAT_BEGIN
90
5
170
1
91
0
92
0
62
257
93
1
300
CONTENTFORMAT
1
CONTENTFORMAT_BEGIN
90
0
91
0
92
512
93
0
300

40
0.0
140
1.0
94
5
62
0
340
253
144
0.18
309
CONTENTFORMAT_END
171
1
301
MARGIN
1
CELLMARGIN_BEGIN
40
0.06
40
0.06
40
0.06
40
0.06
40
0.18
40
0.18
309
CELLMARGIN_END
94
6
95
1
302
GRIDFORMAT
1
GRIDFORMAT_BEGIN
90
0
91
1
62
0
92
-2
340
0
93
0
40
0.045
309
GRIDFORMAT_END
95
2
302
GRIDFORMAT
1
GRIDFORMAT_BEGIN
90
0
91
1
62
0
92
-2
340
0
93
0
40
0.045
309
GRIDFORMAT_END
95
4
302
GRIDFORMAT
1
GRIDFORMAT_BEGIN
90
0
91
1
62
0
92
-2
340
0
93
0
40
0.045
309
GRIDFORMAT_END
95
8
302
GRIDFORMAT
1
GRIDFORMAT_BEGIN
90
0
91
1
62
0
92
-2
340
0
93
0
40
0.045
309
GRIDFORMAT_END
95
16
302
GRIDFORMAT
1
GRIDFORMAT_BEGIN
90
0
91
1
62
0
92
-2
340
0
93
0
40
0.045
309
GRIDFORMAT_END
95
32
302
GRIDFORMAT
1
GRIDFORMAT_BEGIN
90
0
91
1
62
0
92
-2
340
0
93
0
40
0.045
309
GRIDFORMAT_END
309
TABLEFORMAT_END
1
CELLSTYLE_BEGIN
90
2
91
1
300
_HEADER
309
CELLSTYLE_END
300
CELLSTYLE
1
TABLEFORMAT_BEGIN
90
5
170
1
91
0
92
0
62
257
93
1
300
CONTENTFORMAT
1
CONTENTFORMAT_BEGIN
90
0
91
0
92
512
93
0
300

40
0.0
140
1.0
94
2
62
0
340
253
144
0.18
309
CONTENTFORMAT_END
171
1
301
MARGIN
1
CELLMARGIN_BEGIN
40
0.06
40
0.06
40
0.06
40
0.06
40
0.18
40
0.18
309
CELLMARGIN_END
94
6
95
1
302
GRIDFORMAT
1
GRIDFORMAT_BEGIN
90
0
91
1
62
0
92
-2
340
0
93
0
40
0.045
309
GRIDFORMAT_END
95
2
302
GRIDFORMAT
1
GRIDFORMAT_BEGIN
90
0
91
1
62
0
92
-2
340
0
93
0
40
0.045
309
GRIDFORMAT_END
95
4
302
GRIDFORMAT
1
GRIDFORMAT_BEGIN
90
0
91
1
62
0
92
-2
340
0
93
0
40
0.045
309
GRIDFORMAT_END
95
8
302
GRIDFORMAT
1
GRIDFORMAT_BEGIN
90
0
91
1
62
0
92
-2
340
0
93
0
40
0.045
309
GRIDFORMAT_END
95
16
302
GRIDFORMAT
1
GRIDFORMAT_BEGIN
90
0
91
1
62
0
92
-2
340
0
93
0
40
0.045
309
GRIDFORMAT_END
95
32
302
GRIDFORMAT
1
GRIDFORMAT_BEGIN
90
0
91
1
62
0
92
-2
340
0
93
0
40
0.045
309
GRIDFORMAT_END
309
TABLEFORMAT_END
1
CELLSTYLE_BEGIN
90
3
91
2
300
_DATA
309
CELLSTYLE_END
0
XRECORD
5
10A6
102
{ACAD_REACTORS
330
FF8
102
}
330
FF8
100
AcDbXrecord
280
1
102
ACAD_ROUNDTRIP_PRE2007_TABLESTYLE
90
512
91
0
1

92
512
93
0
2

94
512
95
0
3

0
XRECORD
5
108B
102
{ACAD_REACTORS
330
108A
102
}
330
108A
100
AcDbXrecord
280
1
102
RTVSPropertyOp0
70
1
102
RTVSPropertyOp1
70
1
102
RTVSPropertyOp2
70
1
102
RTVSPropertyOp3
70
1
102
RTVSPropertyOp4
70
1
102
RTVSPropertyOp5
70
1
102
RTVSPropertyOp6
70
1
102
RTVSPropertyOp7
70
1
102
RTVSPropertyOp8
70
1
102
RTVSPropertyOp9
70
1
102
RTVSPropertyOp10
70
1
102
RTVSPropertyOp11
70
1
102
RTVSPropertyOp12
70
1
102
RTVSPropertyOp13
70
1
102
RTVSPropertyOp14
70
1
102
RTVSPropertyOp15
70
1
102
RTVSPropertyOp16
70
1
102
RTVSPropertyOp17
70
1
102
RTVSPropertyOp18
70
1
102
RTVSPropertyOp19
70
1
102
RTVSPropertyOp20
70
1
102
RTVSPropertyOp21
70
1
102
RTVSPropertyOp22
70
1
102
RTVSPropertyOp23
70
1
102
RTVSPropertyOp24
70
1
102
RTVSPropertyOp25
70
1
102
RTVSPropertyOp26
70
1
102
RTVSPropertyOp27
70
1
0
XRECORD
5
108F
102
{ACAD_REACTORS
330
108E
102
}
330
108E
100
AcDbXrecord
280
1
102
RTVSPropertyOp0
70
1
102
RTVSPropertyOp1
70
1
102
RTVSPropertyOp2
70
1
102
RTVSPropertyOp3
70
1
102
RTVSPropertyOp4
70
1
102
RTVSPropertyOp5
70
1
102
RTVSPropertyOp6
70
1
102
RTVSPropertyOp7
70
1
102
RTVSPropertyOp8
70
1
102
RTVSPropertyOp9
70
1
102
RTVSPropertyOp10
70
1
102
RTVSPropertyOp11
70
1
102
RTVSPropertyOp12
70
1
102
RTVSPropertyOp13
70
1
102
RTVSPropertyOp14
70
1
102
RTVSPropertyOp15
70
1
102
RTVSPropertyOp16
70
1
102
RTVSPropertyOp17
70
1
102
RTVSPropertyOp18
70
1
102
RTVSPropertyOp19
70
1
102
RTVSPropertyOp20
70
1
102
RTVSPropertyOp21
70
1
102
RTVSPropertyOp22
70
1
102
RTVSPropertyOp23
70
1
102
RTVSPropertyOp24
70
1
102
RTVSPropertyOp25
70
1
102
RTVSPropertyOp26
70
1
102
RTVSPropertyOp27
70
1
0
XRECORD
5
108D
102
{ACAD_REACTORS
330
108C
102
}
330
108C
100
AcDbXrecord
280
1
102
RTVSPropertyOp0
70
1
102
RTVSPropertyOp1
70
1
102
RTVSPropertyOp2
70
1
102
RTVSPropertyOp3
70
1
102
RTVSPropertyOp4
70
1
102
RTVSPropertyOp5
70
1
102
RTVSPropertyOp6
70
1
102
RTVSPropertyOp7
70
1
102
RTVSPropertyOp8
70
1
102
RTVSPropertyOp9
70
1
102
RTVSPropertyOp10
70
1
102
RTVSPropertyOp11
70
1
102
RTVSPropertyOp12
70
1
102
RTVSPropertyOp13
70
1
102
RTVSPropertyOp14
70
1
102
RTVSPropertyOp15
70
1
102
RTVSPropertyOp16
70
1
102
RTVSPropertyOp17
70
1
102
RTVSPropertyOp18
70
1
102
RTVSPropertyOp19
70
1
102
RTVSPropertyOp20
70
1
102
RTVSPropertyOp21
70
1
102
RTVSPropertyOp22
70
1
102
RTVSPropertyOp23
70
1
102
RTVSPropertyOp24
70
1
102
RTVSPropertyOp25
70
1
102
RTVSPropertyOp26
70
1
102
RTVSPropertyOp27
70
1
0
XRECORD
5
1089
102
{ACAD_REACTORS
330
1088
102
}
330
1088
100
AcDbXrecord
280
1
102
RTVSPropertyOp0
70
1
102
RTVSPropertyOp1
70
1
102
RTVSPropertyOp2
70
1
102
RTVSPropertyOp3
70
1
102
RTVSPropertyOp4
70
1
102
RTVSPropertyOp5
70
1
102
RTVSPropertyOp6
70
1
102
RTVSPropertyOp7
70
1
102
RTVSPropertyOp8
70
1
102
RTVSPropertyOp9
70
1
102
RTVSPropertyOp10
70
1
102
RTVSPropertyOp11
70
1
102
RTVSPropertyOp12
70
1
102
RTVSPropertyOp13
70
1
102
RTVSPropertyOp14
70
1
102
RTVSPropertyOp15
70
1
102
RTVSPropertyOp16
70
1
102
RTVSPropertyOp17
70
1
102
RTVSPropertyOp18
70
1
102
RTVSPropertyOp19
70
1
102
RTVSPropertyOp20
70
1
102
RTVSPropertyOp21
70
1
102
RTVSPropertyOp22
70
1
102
RTVSPropertyOp23
70
1
102
RTVSPropertyOp24
70
1
102
RTVSPropertyOp25
70
1
102
RTVSPropertyOp26
70
1
102
RTVSPropertyOp27
70
1
0
XRECORD
5
1097
102
{ACAD_REACTORS
330
1096
102
}
330
1096
100
AcDbXrecord
280
1
102
RTVSPropertyOp0
70
1
102
RTVSPropertyOp1
70
1
102
RTVSPropertyOp2
70
1
102
RTVSPropertyOp3
70
1
102
RTVSPropertyOp4
70
1
102
RTVSPropertyOp5
70
1
102
RTVSPropertyOp6
70
1
102
RTVSPropertyOp7
70
1
102
RTVSPropertyOp8
70
1
102
RTVSPropertyOp9
70
1
102
RTVSPropertyOp10
70
1
102
RTVSPropertyOp11
70
1
102
RTVSPropertyOp12
70
1
102
RTVSPropertyOp13
70
1
102
RTVSPropertyOp14
70
1
102
RTVSPropertyOp15
70
1
102
RTVSPropertyOp16
70
1
102
RTVSPropertyOp17
70
1
102
RTVSPropertyOp18
70
1
102
RTVSPropertyOp19
70
1
102
RTVSPropertyOp20
70
1
102
RTVSPropertyOp21
70
1
102
RTVSPropertyOp22
70
1
102
RTVSPropertyOp23
70
1
102
RTVSPropertyOp24
70
1
102
RTVSPropertyOp25
70
1
102
RTVSPropertyOp26
70
1
102
RTVSPropertyOp27
70
1
0
XRECORD
5
109F
102
{ACAD_REACTORS
330
109E
102
}
330
109E
100
AcDbXrecord
280
1
102
RTVSPropertyOp0
70
1
102
RTVSPropertyOp1
70
1
102
RTVSPropertyOp2
70
1
102
RTVSPropertyOp3
70
1
102
RTVSPropertyOp4
70
1
102
RTVSPropertyOp5
70
1
102
RTVSPropertyOp6
70
1
102
RTVSPropertyOp7
70
1
102
RTVSPropertyOp8
70
1
102
RTVSPropertyOp9
70
1
102
RTVSPropertyOp10
70
1
102
RTVSPropertyOp11
70
1
102
RTVSPropertyOp12
70
1
102
RTVSPropertyOp13
70
1
102
RTVSPropertyOp14
70
1
102
RTVSPropertyOp15
70
1
102
RTVSPropertyOp16
70
1
102
RTVSPropertyOp17
70
1
102
RTVSPropertyOp18
70
1
102
RTVSPropertyOp19
70
1
102
RTVSPropertyOp20
70
1
102
RTVSPropertyOp21
70
1
102
RTVSPropertyOp22
70
1
102
RTVSPropertyOp23
70
1
102
RTVSPropertyOp24
70
1
102
RTVSPropertyOp25
70
1
102
RTVSPropertyOp26
70
1
102
RTVSPropertyOp27
70
1
0
XRECORD
5
1091
102
{ACAD_REACTORS
330
1090
102
}
330
1090
100
AcDbXrecord
280
1
102
RTVSPropertyOp0
70
1
102
RTVSPropertyOp1
70
1
102
RTVSPropertyOp2
70
1
102
RTVSPropertyOp3
70
1
102
RTVSPropertyOp4
70
1
102
RTVSPropertyOp5
70
1
102
RTVSPropertyOp6
70
1
102
RTVSPropertyOp7
70
1
102
RTVSPropertyOp8
70
1
102
RTVSPropertyOp9
70
1
102
RTVSPropertyOp10
70
1
102
RTVSPropertyOp11
70
1
102
RTVSPropertyOp12
70
1
102
RTVSPropertyOp13
70
1
102
RTVSPropertyOp14
70
1
102
RTVSPropertyOp15
70
1
102
RTVSPropertyOp16
70
1
102
RTVSPropertyOp17
70
1
102
RTVSPropertyOp18
70
1
102
RTVSPropertyOp19
70
1
102
RTVSPropertyOp20
70
1
102
RTVSPropertyOp21
70
1
102
RTVSPropertyOp22
70
1
102
RTVSPropertyOp23
70
1
102
RTVSPropertyOp24
70
1
102
RTVSPropertyOp25
70
1
102
RTVSPropertyOp26
70
1
102
RTVSPropertyOp27
70
1
0
XRECORD
5
1095
102
{ACAD_REACTORS
330
1094
102
}
330
1094
100
AcDbXrecord
280
1
102
RTVSPropertyOp0
70
1
102
RTVSPropertyOp1
70
1
102
RTVSPropertyOp2
70
1
102
RTVSPropertyOp3
70
1
102
RTVSPropertyOp4
70
1
102
RTVSPropertyOp5
70
1
102
RTVSPropertyOp6
70
1
102
RTVSPropertyOp7
70
1
102
RTVSPropertyOp8
70
1
102
RTVSPropertyOp9
70
1
102
RTVSPropertyOp10
70
1
102
RTVSPropertyOp11
70
1
102
RTVSPropertyOp12
70
1
102
RTVSPropertyOp13
70
1
102
RTVSPropertyOp14
70
1
102
RTVSPropertyOp15
70
1
102
RTVSPropertyOp16
70
1
102
RTVSPropertyOp17
70
1
102
RTVSPropertyOp18
70
1
102
RTVSPropertyOp19
70
1
102
RTVSPropertyOp20
70
1
102
RTVSPropertyOp21
70
1
102
RTVSPropertyOp22
70
1
102
RTVSPropertyOp23
70
1
102
RTVSPropertyOp24
70
1
102
RTVSPropertyOp25
70
1
102
RTVSPropertyOp26
70
1
102
RTVSPropertyOp27
70
1
0
XRECORD
5
10A5
102
{ACAD_REACTORS
330
10A4
102
}
330
10A4
100
AcDbXrecord
280
1
102
RTVSPropertyOp0
70
0
102
RTVSPropertyOp1
70
0
102
RTVSPropertyOp2
70
0
102
RTVSPropertyOp3
70
0
102
RTVSPropertyOp4
70
0
102
RTVSPropertyOp5
70
0
102
RTVSPropertyOp6
70
0
102
RTVSPropertyOp7
70
0
102
RTVSPropertyOp8
70
0
102
RTVSPropertyOp9
70
0
102
RTVSPropertyOp10
70
0
102
RTVSPropertyOp11
70
0
102
RTVSPropertyOp12
70
0
102
RTVSPropertyOp13
70
0
102
RTVSPropertyOp14
70
2
102
RTVSPropertyOp15
70
0
102
RTVSPropertyOp16
70
0
102
RTVSPropertyOp17
70
0
102
RTVSPropertyOp18
70
0
102
RTVSPropertyOp19
70
0
102
RTVSPropertyOp20
70
0
102
RTVSPropertyOp21
70
0
102
RTVSPropertyOp22
70
0
102
RTVSPropertyOp23
70
0
102
RTVSPropertyOp24
70
0
102
RTVSPropertyOp25
70
0
102
RTVSPropertyOp26
70
0
102
RTVSPropertyOp27
70
0
0
XRECORD
5
109D
102
{ACAD_REACTORS
330
109C
102
}
330
109C
100
AcDbXrecord
280
1
102
RTVSPropertyOp0
70
1
102
RTVSPropertyOp1
70
1
102
RTVSPropertyOp2
70
1
102
RTVSPropertyOp3
70
1
102
RTVSPropertyOp4
70
1
102
RTVSPropertyOp5
70
1
102
RTVSPropertyOp6
70
1
102
RTVSPropertyOp7
70
1
102
RTVSPropertyOp8
70
1
102
RTVSPropertyOp9
70
1
102
RTVSPropertyOp10
70
1
102
RTVSPropertyOp11
70
1
102
RTVSPropertyOp12
70
1
102
RTVSPropertyOp13
70
1
102
RTVSPropertyOp14
70
1
102
RTVSPropertyOp15
70
1
102
RTVSPropertyOp16
70
1
102
RTVSPropertyOp17
70
1
102
RTVSPropertyOp18
70
1
102
RTVSPropertyOp19
70
1
102
RTVSPropertyOp20
70
1
102
RTVSPropertyOp21
70
1
102
RTVSPropertyOp22
70
1
102
RTVSPropertyOp23
70
1
102
RTVSPropertyOp24
70
1
102
RTVSPropertyOp25
70
1
102
RTVSPropertyOp26
70
1
102
RTVSPropertyOp27
70
1
0
XRECORD
5
1081
102
{ACAD_REACTORS
330
1080
102
}
330
1080
100
AcDbXrecord
280
1
102
RTVSPropertyOp0
70
1
102
RTVSPropertyOp1
70
1
102
RTVSPropertyOp2
70
1
102
RTVSPropertyOp3
70
1
102
RTVSPropertyOp4
70
1
102
RTVSPropertyOp5
70
1
102
RTVSPropertyOp6
70
1
102
RTVSPropertyOp7
70
1
102
RTVSPropertyOp8
70
1
102
RTVSPropertyOp9
70
1
102
RTVSPropertyOp10
70
1
102
RTVSPropertyOp11
70
1
102
RTVSPropertyOp12
70
1
102
RTVSPropertyOp13
70
1
102
RTVSPropertyOp14
70
1
102
RTVSPropertyOp15
70
1
102
RTVSPropertyOp16
70
1
102
RTVSPropertyOp17
70
1
102
RTVSPropertyOp18
70
1
102
RTVSPropertyOp19
70
1
102
RTVSPropertyOp20
70
1
102
RTVSPropertyOp21
70
1
102
RTVSPropertyOp22
70
1
102
RTVSPropertyOp23
70
1
102
RTVSPropertyOp24
70
1
102
RTVSPropertyOp25
70
1
102
RTVSPropertyOp26
70
1
102
RTVSPropertyOp27
70
1
0
XRECORD
5
1083
102
{ACAD_REACTORS
330
1082
102
}
330
1082
100
AcDbXrecord
280
1
102
RTVSPropertyOp0
70
1
102
RTVSPropertyOp1
70
1
102
RTVSPropertyOp2
70
1
102
RTVSPropertyOp3
70
1
102
RTVSPropertyOp4
70
1
102
RTVSPropertyOp5
70
1
102
RTVSPropertyOp6
70
1
102
RTVSPropertyOp7
70
1
102
RTVSPropertyOp8
70
1
102
RTVSPropertyOp9
70
1
102
RTVSPropertyOp10
70
1
102
RTVSPropertyOp11
70
1
102
RTVSPropertyOp12
70
1
102
RTVSPropertyOp13
70
1
102
RTVSPropertyOp14
70
1
102
RTVSPropertyOp15
70
1
102
RTVSPropertyOp16
70
1
102
RTVSPropertyOp17
70
1
102
RTVSPropertyOp18
70
1
102
RTVSPropertyOp19
70
1
102
RTVSPropertyOp20
70
1
102
RTVSPropertyOp21
70
1
102
RTVSPropertyOp22
70
1
102
RTVSPropertyOp23
70
1
102
RTVSPropertyOp24
70
1
102
RTVSPropertyOp25
70
1
102
RTVSPropertyOp26
70
1
102
RTVSPropertyOp27
70
1
0
XRECORD
5
1085
102
{ACAD_REACTORS
330
1084
102
}
330
1084
100
AcDbXrecord
280
1
102
RTVSPropertyOp0
70
1
102
RTVSPropertyOp1
70
1
102
RTVSPropertyOp2
70
1
102
RTVSPropertyOp3
70
1
102
RTVSPropertyOp4
70
1
102
RTVSPropertyOp5
70
1
102
RTVSPropertyOp6
70
1
102
RTVSPropertyOp7
70
1
102
RTVSPropertyOp8
70
1
102
RTVSPropertyOp9
70
1
102
RTVSPropertyOp10
70
1
102
RTVSPropertyOp11
70
1
102
RTVSPropertyOp12
70
1
102
RTVSPropertyOp13
70
1
102
RTVSPropertyOp14
70
1
102
RTVSPropertyOp15
70
1
102
RTVSPropertyOp16
70
1
102
RTVSPropertyOp17
70
1
102
RTVSPropertyOp18
70
1
102
RTVSPropertyOp19
70
1
102
RTVSPropertyOp20
70
1
102
RTVSPropertyOp21
70
1
102
RTVSPropertyOp22
70
1
102
RTVSPropertyOp23
70
1
102
RTVSPropertyOp24
70
1
102
RTVSPropertyOp25
70
1
102
RTVSPropertyOp26
70
1
102
RTVSPropertyOp27
70
1
0
XRECORD
5
1087
102
{ACAD_REACTORS
330
1086
102
}
330
1086
100
AcDbXrecord
280
1
102
RTVSPropertyOp0
70
1
102
RTVSPropertyOp1
70
1
102
RTVSPropertyOp2
70
1
102
RTVSPropertyOp3
70
1
102
RTVSPropertyOp4
70
1
102
RTVSPropertyOp5
70
1
102
RTVSPropertyOp6
70
1
102
RTVSPropertyOp7
70
1
102
RTVSPropertyOp8
70
1
102
RTVSPropertyOp9
70
1
102
RTVSPropertyOp10
70
1
102
RTVSPropertyOp11
70
1
102
RTVSPropertyOp12
70
1
102
RTVSPropertyOp13
70
1
102
RTVSPropertyOp14
70
1
102
RTVSPropertyOp15
70
1
102
RTVSPropertyOp16
70
1
102
RTVSPropertyOp17
70
1
102
RTVSPropertyOp18
70
1
102
RTVSPropertyOp19
70
1
102
RTVSPropertyOp20
70
1
102
RTVSPropertyOp21
70
1
102
RTVSPropertyOp22
70
1
102
RTVSPropertyOp23
70
1
102
RTVSPropertyOp24
70
1
102
RTVSPropertyOp25
70
1
102
RTVSPropertyOp26
70
1
102
RTVSPropertyOp27
70
1
0
XRECORD
5
10A1
102
{ACAD_REACTORS
330
10A0
102
}
330
10A0
100
AcDbXrecord
280
1
102
RTVSPropertyOp0
70
0
102
RTVSPropertyOp1
70
0
102
RTVSPropertyOp2
70
0
102
RTVSPropertyOp3
70
0
102
RTVSPropertyOp4
70
0
102
RTVSPropertyOp5
70
0
102
RTVSPropertyOp6
70
0
102
RTVSPropertyOp7
70
0
102
RTVSPropertyOp8
70
0
102
RTVSPropertyOp9
70
0
102
RTVSPropertyOp10
70
0
102
RTVSPropertyOp11
70
0
102
RTVSPropertyOp12
70
0
102
RTVSPropertyOp13
70
0
102
RTVSPropertyOp14
70
2
102
RTVSPropertyOp15
70
0
102
RTVSPropertyOp16
70
0
102
RTVSPropertyOp17
70
0
102
RTVSPropertyOp18
70
0
102
RTVSPropertyOp19
70
0
102
RTVSPropertyOp20
70
0
102
RTVSPropertyOp21
70
0
102
RTVSPropertyOp22
70
0
102
RTVSPropertyOp23
70
0
102
RTVSPropertyOp24
70
0
102
RTVSPropertyOp25
70
0
102
RTVSPropertyOp26
70
0
102
RTVSPropertyOp27
70
0
0
XRECORD
5
109B
102
{ACAD_REACTORS
330
109A
102
}
330
109A
100
AcDbXrecord
280
1
102
RTVSPropertyOp0
70
1
102
RTVSPropertyOp1
70
1
102
RTVSPropertyOp2
70
1
102
RTVSPropertyOp3
70
1
102
RTVSPropertyOp4
70
1
102
RTVSPropertyOp5
70
1
102
RTVSPropertyOp6
70
1
102
RTVSPropertyOp7
70
1
102
RTVSPropertyOp8
70
1
102
RTVSPropertyOp9
70
1
102
RTVSPropertyOp10
70
1
102
RTVSPropertyOp11
70
1
102
RTVSPropertyOp12
70
1
102
RTVSPropertyOp13
70
1
102
RTVSPropertyOp14
70
1
102
RTVSPropertyOp15
70
1
102
RTVSPropertyOp16
70
1
102
RTVSPropertyOp17
70
1
102
RTVSPropertyOp18
70
1
102
RTVSPropertyOp19
70
1
102
RTVSPropertyOp20
70
1
102
RTVSPropertyOp21
70
1
102
RTVSPropertyOp22
70
1
102
RTVSPropertyOp23
70
1
102
RTVSPropertyOp24
70
1
102
RTVSPropertyOp25
70
1
102
RTVSPropertyOp26
70
1
102
RTVSPropertyOp27
70
1
0
XRECORD
5
10A3
102
{ACAD_REACTORS
330
10A2
102
}
330
10A2
100
AcDbXrecord
280
1
102
RTVSPropertyOp0
70
0
102
RTVSPropertyOp1
70
0
102
RTVSPropertyOp2
70
0
102
RTVSPropertyOp3
70
0
102
RTVSPropertyOp4
70
0
102
RTVSPropertyOp5
70
0
102
RTVSPropertyOp6
70
0
102
RTVSPropertyOp7
70
0
102
RTVSPropertyOp8
70
0
102
RTVSPropertyOp9
70
0
102
RTVSPropertyOp10
70
0
102
RTVSPropertyOp11
70
0
102
RTVSPropertyOp12
70
0
102
RTVSPropertyOp13
70
0
102
RTVSPropertyOp14
70
2
102
RTVSPropertyOp15
70
0
102
RTVSPropertyOp16
70
0
102
RTVSPropertyOp17
70
0
102
RTVSPropertyOp18
70
0
102
RTVSPropertyOp19
70
0
102
RTVSPropertyOp20
70
0
102
RTVSPropertyOp21
70
0
102
RTVSPropertyOp22
70
0
102
RTVSPropertyOp23
70
0
102
RTVSPropertyOp24
70
0
102
RTVSPropertyOp25
70
0
102
RTVSPropertyOp26
70
0
102
RTVSPropertyOp27
70
0
0
XRECORD
5
1093
102
{ACAD_REACTORS
330
1092
102
}
330
1092
100
AcDbXrecord
280
1
102
RTVSPropertyOp0
70
1
102
RTVSPropertyOp1
70
1
102
RTVSPropertyOp2
70
1
102
RTVSPropertyOp3
70
1
102
RTVSPropertyOp4
70
1
102
RTVSPropertyOp5
70
1
102
RTVSPropertyOp6
70
1
102
RTVSPropertyOp7
70
1
102
RTVSPropertyOp8
70
1
102
RTVSPropertyOp9
70
1
102
RTVSPropertyOp10
70
1
102
RTVSPropertyOp11
70
1
102
RTVSPropertyOp12
70
1
102
RTVSPropertyOp13
70
1
102
RTVSPropertyOp14
70
1
102
RTVSPropertyOp15
70
1
102
RTVSPropertyOp16
70
1
102
RTVSPropertyOp17
70
1
102
RTVSPropertyOp18
70
1
102
RTVSPropertyOp19
70
1
102
RTVSPropertyOp20
70
1
102
RTVSPropertyOp21
70
1
102
RTVSPropertyOp22
70
1
102
RTVSPropertyOp23
70
1
102
RTVSPropertyOp24
70
1
102
RTVSPropertyOp25
70
1
102
RTVSPropertyOp26
70
1
102
RTVSPropertyOp27
70
1
0
XRECORD
5
1099
102
{ACAD_REACTORS
330
1098
102
}
330
1098
100
AcDbXrecord
280
1
102
RTVSPropertyOp0
70
1
102
RTVSPropertyOp1
70
1
102
RTVSPropertyOp2
70
1
102
RTVSPropertyOp3
70
1
102
RTVSPropertyOp4
70
1
102
RTVSPropertyOp5
70
1
102
RTVSPropertyOp6
70
1
102
RTVSPropertyOp7
70
1
102
RTVSPropertyOp8
70
1
102
RTVSPropertyOp9
70
1
102
RTVSPropertyOp10
70
1
102
RTVSPropertyOp11
70
1
102
RTVSPropertyOp12
70
1
102
RTVSPropertyOp13
70
1
102
RTVSPropertyOp14
70
1
102
RTVSPropertyOp15
70
1
102
RTVSPropertyOp16
70
1
102
RTVSPropertyOp17
70
1
102
RTVSPropertyOp18
70
1
102
RTVSPropertyOp19
70
1
102
RTVSPropertyOp20
70
1
102
RTVSPropertyOp21
70
1
102
RTVSPropertyOp22
70
1
102
RTVSPropertyOp23
70
1
102
RTVSPropertyOp24
70
1
102
RTVSPropertyOp25
70
1
102
RTVSPropertyOp26
70
1
102
RTVSPropertyOp27
70
1
0
ENDSEC
0
EOF
