0
SECTION
2
HEADER
9
$ACADVER
1
AC1015
9
$ACADMAINTVER
70
20
9
$DWGCODEPAGE
3
ANSI_1252
9
$INSBASE
10
0.0
20
0.0
30
0.0
9
$EXTMIN
10
-150.000000000000
20
-105.000000000000
30
0.0
9
$EXTMAX
10
150.000000000000
20
105.000000000000
30
0.0
9
$LIMMIN
10
0.0
20
0.0
9
$LIMMAX
10
12.0
20
9.0
9
$ORTHOMODE
70
0
9
$REGENMODE
70
1
9
$FILLMODE
70
1
9
$QTEXTMODE
70
0
9
$MIRRTEXT
70
1
9
$LTSCALE
40
1.0
9
$ATTMODE
70
1
9
$TEXTSIZE
40
0.2
9
$TRACEWID
40
0.05
9
$TEXTSTYLE
7
Standard
9
$CLAYER
8
0
9
$CELTYPE
6
ByLayer
9
$CECOLOR
62
256
9
$CELTSCALE
40
1.0
9
$DISPSILH
70
0
9
$DIMSCALE
40
1.0
9
$DIMASZ
40
2.5
9
$DIMEXO
40
0.625
9
$DIMDLI
40
0.38
9
$DIMRND
40
0.0
9
$DIMDLE
40
0.0
9
$DIMEXE
40
1.25
9
$DIMTP
40
0.0
9
$DIMTM
40
0.000000001
9
$DIMTXT
40
2.5
9
$DIMCEN
40
0.09
9
$DIMTSZ
40
0.0
9
$DIMTOL
70
1
9
$DIMLIM
70
0
9
$DIMTIH
70
0
9
$DIMTOH
70
0
9
$DIMSE1
70
0
9
$DIMSE2
70
0
9
$DIMTAD
70
1
9
$DIMZIN
70
0
9
$DIMBLK
1
VDDIM_DEFAULT
9
$DIMASO
70
1
9
$DIMSHO
70
1
9
$DIMPOST
1

9
$DIMAPOST
1

9
$DIMALT
70
0
9
$DIMALTD
70
2
9
$DIMALTF
40
25.4
9
$DIMLFAC
40
1.00000000000000
9
$DIMTOFL
70
0
9
$DIMTVP
40
0.0
9
$DIMTIX
70
0
9
$DIMSOXD
70
0
9
$DIMSAH
70
0
9
$DIMBLK1
1

9
$DIMBLK2
1

9
$DIMSTYLE
2
BEM-ISBE
9
$DIMCLRD
70
0
9
$DIMCLRE
70
0
9
$DIMCLRT
70
0
9
$DIMTFAC
40
0.5
9
$DIMGAP
40
0.625
9
$DIMJUST
70
0
9
$DIMSD1
70
0
9
$DIMSD2
70
0
9
$DIMTOLJ
70
1
9
$DIMTZIN
70
0
9
$DIMALTZ
70
0
9
$DIMALTTZ
70
0
9
$DIMUPT
70
0
9
$DIMDEC
70
3
9
$DIMTDEC
70
3
9
$DIMALTU
70
2
9
$DIMALTTD
70
2
9
$DIMTXSTY
7
Standard
9
$DIMAUNIT
70
0
9
$DIMADEC
70
3
9
$DIMALTRND
40
0.0
9
$DIMAZIN
70
0
9
$DIMDSEP
70
46
9
$DIMATFIT
70
3
9
$DIMFRAC
70
0
9
$DIMLDRBLK
1

9
$DIMLUNIT
70
2
9
$DIMLWD
70
-2
9
$DIMLWE
70
-2
9
$DIMTMOVE
70
0
9
$LUNITS
70
2
9
$LUPREC
70
4
9
$SKETCHINC
40
0.1
9
$FILLETRAD
40
0.5
9
$AUNITS
70
0
9
$AUPREC
70
0
9
$MENU
1
.
9
$ELEVATION
40
0.0
9
$PELEVATION
40
0.0
9
$THICKNESS
40
0.0
9
$LIMCHECK
70
0
9
$CHAMFERA
40
0.5
9
$CHAMFERB
40
0.5
9
$CHAMFERC
40
1.0
9
$CHAMFERD
40
0.0
9
$SKPOLY
70
0
9
$TDCREATE
40
0.0
9
$TDUCREATE
40
0.0
9
$TDUPDATE
40
0.0
9
$TDUUPDATE
40
0.0
9
$TDINDWG
40
0.0
9
$TDUSRTIMER
40
0.0
9
$USRTIMER
70
1
9
$ANGBASE
50
0.0
9
$ANGDIR
70
0
9
$PDMODE
70
0
9
$PDSIZE
40
0.0
9
$PLINEWID
40
0.0
9
$SPLFRAME
70
0
9
$SPLINETYPE
70
6
9
$SPLINESEGS
70
8
9
$HANDSEED
5
10AB
9
$SURFTAB1
70
6
9
$SURFTAB2
70
6
9
$SURFTYPE
70
6
9
$SURFU
70
6
9
$SURFV
70
6
9
$UCSBASE
2

9
$UCSNAME
2

9
$UCSORG
10
0.0
20
0.0
30
0.0
9
$UCSXDIR
10
1.0
20
0.0
30
0.0
9
$UCSYDIR
10
0.0
20
1.0
30
0.0
9
$UCSORTHOREF
2

9
$UCSORTHOVIEW
70
0
9
$UCSORGTOP
10
0.0
20
0.0
30
0.0
9
$UCSORGBOTTOM
10
0.0
20
0.0
30
0.0
9
$UCSORGLEFT
10
0.0
20
0.0
30
0.0
9
$UCSORGRIGHT
10
0.0
20
0.0
30
0.0
9
$UCSORGFRONT
10
0.0
20
0.0
30
0.0
9
$UCSORGBACK
10
0.0
20
0.0
30
0.0
9
$PUCSBASE
2

9
$PUCSNAME
2

9
$PUCSORG
10
0.0
20
0.0
30
0.0
9
$PUCSXDIR
10
1.0
20
0.0
30
0.0
9
$PUCSYDIR
10
0.0
20
1.0
30
0.0
9
$PUCSORTHOREF
2

9
$PUCSORTHOVIEW
70
0
9
$PUCSORGTOP
10
0.0
20
0.0
30
0.0
9
$PUCSORGBOTTOM
10
0.0
20
0.0
30
0.0
9
$PUCSORGLEFT
10
0.0
20
0.0
30
0.0
9
$PUCSORGRIGHT
10
0.0
20
0.0
30
0.0
9
$PUCSORGFRONT
10
0.0
20
0.0
30
0.0
9
$PUCSORGBACK
10
0.0
20
0.0
30
0.0
9
$USERI1
70
0
9
$USERI2
70
0
9
$USERI3
70
0
9
$USERI4
70
0
9
$USERI5
70
0
9
$USERR1
40
0.0
9
$USERR2
40
0.0
9
$USERR3
40
0.0
9
$USERR4
40
0.0
9
$USERR5
40
0.0
9
$WORLDVIEW
70
1
9
$SHADEDGE
70
3
9
$SHADEDIF
70
70
9
$TILEMODE
70
1
9
$MAXACTVP
70
64
9
$PINSBASE
10
0.0
20
0.0
30
0.0
9
$PLIMCHECK
70
0
9
$PEXTMIN
10
1.000000000000000E+20
20
1.000000000000000E+20
30
1.000000000000000E+20
9
$PEXTMAX
10
-1.000000000000000E+20
20
-1.000000000000000E+20
30
-1.000000000000000E+20
9
$PLIMMIN
10
0.0
20
0.0
9
$PLIMMAX
10
12.0
20
9.0
9
$UNITMODE
70
0
9
$VISRETAIN
70
1
9
$PLINEGEN
70
0
9
$PSLTSCALE
70
1
9
$TREEDEPTH
70
3020
9
$CMLSTYLE
2
Standard
9
$CMLJUST
70
0
9
$CMLSCALE
40
1.0
9
$PROXYGRAPHICS
70
1
9
$MEASUREMENT
70
0
9
$CELWEIGHT
370
-1
9
$ENDCAPS
280
0
9
$JOINSTYLE
280
0
9
$LWDISPLAY
290
0
9
$INSUNITS
70
4
9
$HYPERLINKBASE
1

9
$STYLESHEET
1

9
$XEDIT
290
1
9
$CEPSNTYPE
380
0
9
$PSTYLEMODE
290
0
9
$FINGERPRINTGUID
2
{FAEB1C30-E019-11D5-929B-00C0DF256EC4}
9
$VERSIONGUID
2
{04C5C4E4-4947-4D90-8812-D401569E61F7}
9
$EXTNAMES
290
1
9
$PSVPSCALE
40
0.0
9
$OLESTARTUP
290
0
0
ENDSEC
0
SECTION
2
CLASSES
0
CLASS
1
ACDBDICTIONARYWDFLT
2
AcDbDictionaryWithDefault
3
ObjectDBX Classes
90
0
280
0
281
0
0
CLASS
1
ACDBPLACEHOLDER
2
AcDbPlaceHolder
3
ObjectDBX Classes
90
0
280
0
281
0
0
CLASS
1
LAYOUT
2
AcDbLayout
3
ObjectDBX Classes
90
0
280
0
281
0
0
CLASS
1
MATERIAL
2
AcDbMaterial
3
ObjectDBX Classes
90
1153
280
0
281
0
0
CLASS
1
VISUALSTYLE
2
AcDbVisualStyle
3
ObjectDBX Classes
90
4095
280
0
281
0
0
CLASS
1
TABLESTYLE
2
AcDbTableStyle
3
ObjectDBX Classes
90
4095
280
0
281
0
0
CLASS
1
SCALE
2
AcDbScale
3
ObjectDBX Classes
90
1153
280
0
281
0
0
CLASS
1
MLEADERSTYLE
2
AcDbMLeaderStyle
3
ACDB_MLEADERSTYLE_CLASS
90
4095
280
0
281
0
0
CLASS
1
DICTIONARYVAR
2
AcDbDictionaryVar
3
ObjectDBX Classes
90
0
280
0
281
0
0
CLASS
1
CELLSTYLEMAP
2
AcDbCellStyleMap
3
ObjectDBX Classes
90
1152
280
0
281
0
0
ENDSEC
0
SECTION
2
TABLES
0
TABLE
2
VPORT
5
24A
330
0
100
AcDbSymbolTable
70
1
0
VPORT
5
26B
330
24A
100
AcDbSymbolTableRecord
100
AcDbViewportTableRecord
2
*Active
70
0
10
0.0
20
0.0
11
1.0
21
1.0
12
0.000000000000000
22
0.000000000000000
13
0.0
23
0.0
14
10.0
24
10.0
15
10.0
25
10.0
16
0.0
26
0.0
36
1.0
17
0.0
27
0.0
37
0.0
40
210.000000000000
41
1.42857142857143
42
1.0
43
0.0
44
0.0
50
0.0
51
0.0000000000007958
71
0
72
100
73
1
74
3
75
0
76
0
77
0
78
1
281
0
65
1
110
0.0
120
0.0
130
0.0
111
1.0
121
0.0
131
0.0
112
0.0
122
1.0
132
0.0
79
0
146
0.0
0
ENDTAB
0
TABLE
2
LTYPE
5
247
330
0
100
AcDbSymbolTable
70
25
0
LTYPE
5
256
330
247
100
AcDbSymbolTableRecord
100
AcDbLinetypeTableRecord
2
ByBlock
70
0
3

72
65
73
0
40
0.0
0
LTYPE
5
257
330
247
100
AcDbSymbolTableRecord
100
AcDbLinetypeTableRecord
2
ByLayer
70
0
3

72
65
73
0
40
0.0
0
LTYPE
5
258
330
247
100
AcDbSymbolTableRecord
100
AcDbLinetypeTableRecord
2
Continuous
70
0
3
Solid line
72
65
73
0
40
0.0
0
LTYPE
5
273
330
247
100
AcDbSymbolTableRecord
100
AcDbLinetypeTableRecord
2
CENTER
70
0
3
Center ____ _ ____ _ ____ _ ____ _ ____ _ ____
72
65
73
4
40
2.0
49
1.25
74
0
49
-0.25
74
0
49
0.25
74
0
49
-0.25
74
0
0
LTYPE
5
274
330
247
100
AcDbSymbolTableRecord
100
AcDbLinetypeTableRecord
2
DASHDOT
70
0
3
Dashdot __ . __ . __ . __ . __ . __ . __ . __
72
65
73
4
40
1.0
49
0.5
74
0
49
-0.25
74
0
49
0.0
74
0
49
-0.25
74
0
0
LTYPE
5
275
330
247
100
AcDbSymbolTableRecord
100
AcDbLinetypeTableRecord
2
DASHED
70
0
3
Dashed __ __ __ __ __ __ __ __ __ __ __ __ __ _
72
65
73
2
40
0.75
49
0.5
74
0
49
-0.25
74
0
0
LTYPE
5
276
330
247
100
AcDbSymbolTableRecord
100
AcDbLinetypeTableRecord
2
HIDDEN
70
0
3
Hidden __ __ __ __ __ __ __ __ __ __ __ __ __ __
72
65
73
2
40
0.375
49
0.25
74
0
49
-0.125
74
0
0
LTYPE
5
277
330
247
100
AcDbSymbolTableRecord
100
AcDbLinetypeTableRecord
2
HIDDEN2
70
0
3
Hidden2 _ _ _ _ _ _ _ _ _ _ _ _ _ _ _ _ _
72
65
73
2
40
0.1875
49
0.125
74
0
49
-0.0625
74
0
0
LTYPE
5
278
330
247
100
AcDbSymbolTableRecord
100
AcDbLinetypeTableRecord
2
BORDER
70
0
3
Border __ __ . __ __ . __ __ . __ __ . __ __ .
72
65
73
6
40
1.75
49
0.5
74
0
49
-0.25
74
0
49
0.5
74
0
49
-0.25
74
0
49
0.0
74
0
49
-0.25
74
0
0
LTYPE
5
279
330
247
100
AcDbSymbolTableRecord
100
AcDbLinetypeTableRecord
2
BORDER2
70
0
3
Border2 __.__.__.__.__.__.__.__.__.__.__.
72
65
73
6
40
0.875
49
0.25
74
0
49
-0.125
74
0
49
0.25
74
0
49
-0.125
74
0
49
0.0
74
0
49
-0.125
74
0
0
LTYPE
5
27A
330
247
100
AcDbSymbolTableRecord
100
AcDbLinetypeTableRecord
2
BORDERX2
70
0
3
Borderx2  ____  ____  .  ____  ____  .  ___
72
65
73
6
40
3.5
49
1.0
74
0
49
-0.5
74
0
49
1.0
74
0
49
-0.5
74
0
49
0.0
74
0
49
-0.5
74
0
0
LTYPE
5
27B
330
247
100
AcDbSymbolTableRecord
100
AcDbLinetypeTableRecord
2
CENTER2
70
0
3
Center2  ___ _ ___ _ ___ _ ___ _ ___ _ ___
72
65
73
4
40
1.125
49
0.75
74
0
49
-0.125
74
0
49
0.125
74
0
49
-0.125
74
0
0
LTYPE
5
27C
330
247
100
AcDbSymbolTableRecord
100
AcDbLinetypeTableRecord
2
CENTERX2
70
0
3
Centerx2  ________  __  ________  __  _____
72
65
73
4
40
4.0
49
2.5
74
0
49
-0.5
74
0
49
0.5
74
0
49
-0.5
74
0
0
LTYPE
5
27D
330
247
100
AcDbSymbolTableRecord
100
AcDbLinetypeTableRecord
2
DASHDOT2
70
0
3
Dashdot2  _._._._._._._._._._._._._._._.
72
65
73
4
40
0.5
49
0.25
74
0
49
-0.125
74
0
49
0.0
74
0
49
-0.125
74
0
0
LTYPE
5
27E
330
247
100
AcDbSymbolTableRecord
100
AcDbLinetypeTableRecord
2
DASHDOTX2
70
0
3
Dashdotx2 ____  .  ____  .  ____  .  ___
72
65
73
4
40
2.0
49
1.0
74
0
49
-0.5
74
0
49
0.0
74
0
49
-0.5
74
0
0
LTYPE
5
27F
330
247
100
AcDbSymbolTableRecord
100
AcDbLinetypeTableRecord
2
DASHED2
70
0
3
Dashed2 _ _ _ _ _ _ _ _ _ _ _ _ _ _ _ _ _
72
65
73
2
40
0.375
49
0.25
74
0
49
-0.125
74
0
0
LTYPE
5
280
330
247
100
AcDbSymbolTableRecord
100
AcDbLinetypeTableRecord
2
DASHEDX2
70
0
3
Dashedx2 ____  ____  ____  ____  ____  ___
72
65
73
2
40
1.5
49
1.0
74
0
49
-0.5
74
0
0
LTYPE
5
281
330
247
100
AcDbSymbolTableRecord
100
AcDbLinetypeTableRecord
2
DIVIDE
70
0
3
Divide ____ . . ____ . . ____ . . ____ . . ____
72
65
73
6
40
1.25
49
0.5
74
0
49
-0.25
74
0
49
0.0
74
0
49
-0.25
74
0
49
0.0
74
0
49
-0.25
74
0
0
LTYPE
5
282
330
247
100
AcDbSymbolTableRecord
100
AcDbLinetypeTableRecord
2
DIVIDE2
70
0
3
Divide2 __..__..__..__..__..__..__..__.._
72
65
73
6
40
0.625
49
0.25
74
0
49
-0.125
74
0
49
0.0
74
0
49
-0.125
74
0
49
0.0
74
0
49
-0.125
74
0
0
LTYPE
5
283
330
247
100
AcDbSymbolTableRecord
100
AcDbLinetypeTableRecord
2
DIVIDEX2
70
0
3
Dividex2 ________  .  .  ________  .  .  _
72
65
73
6
40
2.5
49
1.0
74
0
49
-0.5
74
0
49
0.0
74
0
49
-0.5
74
0
49
0.0
74
0
49
-0.5
74
0
0
LTYPE
5
284
330
247
100
AcDbSymbolTableRecord
100
AcDbLinetypeTableRecord
2
DOT
70
0
3
Dot . . . . . . . . . . . . . . . . . . . . . . . .
72
65
73
2
40
0.25
49
0.0
74
0
49
-0.25
74
0
0
LTYPE
5
285
330
247
100
AcDbSymbolTableRecord
100
AcDbLinetypeTableRecord
2
DOT2
70
0
3
Dot2 ........................................
72
65
73
2
40
0.125
49
0.0
74
0
49
-0.125
74
0
0
LTYPE
5
286
330
247
100
AcDbSymbolTableRecord
100
AcDbLinetypeTableRecord
2
DOTX2
70
0
3
Dotx2 .  .  .  .  .  .  .  .  .  .  .  .  .  .
72
65
73
2
40
0.5
49
0.0
74
0
49
-0.5
74
0
0
LTYPE
5
287
330
247
100
AcDbSymbolTableRecord
100
AcDbLinetypeTableRecord
2
HIDDENX2
70
0
3
Hiddenx2 ____ ____ ____ ____ ____ ____ ____
72
65
73
2
40
0.75
49
0.5
74
0
49
-0.25
74
0
0
LTYPE
5
288
330
247
100
AcDbSymbolTableRecord
100
AcDbLinetypeTableRecord
2
PHANTOM
70
0
3
Phantom ______  __  __  ______  __  __  ______
72
65
73
6
40
2.5
49
1.25
74
0
49
-0.25
74
0
49
0.25
74
0
49
-0.25
74
0
49
0.25
74
0
49
-0.25
74
0
0
LTYPE
5
289
330
247
100
AcDbSymbolTableRecord
100
AcDbLinetypeTableRecord
2
PHANTOM2
70
0
3
Phantom2 ___ _ _ ___ _ _ ___ _ _ ___ _ _
72
65
73
6
40
1.25
49
0.625
74
0
49
-0.125
74
0
49
0.125
74
0
49
-0.125
74
0
49
0.125
74
0
49
-0.125
74
0
0
LTYPE
5
28A
330
247
100
AcDbSymbolTableRecord
100
AcDbLinetypeTableRecord
2
PHANTOMX2
70
0
3
Phantomx2 ____________    ____    ____   _
72
65
73
6
40
5.0
49
2.5
74
0
49
-0.5
74
0
49
0.5
74
0
49
-0.5
74
0
49
0.5
74
0
49
-0.5
74
0
0
ENDTAB
0
TABLE
2
LAYER
5
244
330
0
100
AcDbSymbolTable
70
6
0
LAYER
5
252
330
244
100
AcDbSymbolTableRecord
100
AcDbLayerTableRecord
2
0
70
0
62
7
6
Continuous
370
0
390
251
0
LAYER
5
23F
330
244
100
AcDbSymbolTableRecord
100
AcDbLayerTableRecord
2
Bemassung
70
0
 62
   7
6
Continuous
370
0
390
251
0
LAYER
5
240
330
244
100
AcDbSymbolTableRecord
100
AcDbLayerTableRecord
2
Rahmen
70
0
 62
   7
6
Continuous
370
0
390
251
0
LAYER
5
241
330
244
100
AcDbSymbolTableRecord
100
AcDbLayerTableRecord
2
Geo
70
0
 62
   7
6
Continuous
370
0
390
251
0
LAYER
5
33A
330
244
100
AcDbSymbolTableRecord
100
AcDbLayerTableRecord
2
Defpoints
70
0
62
7
6
Continuous
290
0
370
-3
390
251
0
LAYER
5
57E
330
244
100
AcDbSymbolTableRecord
100
AcDbLayerTableRecord
2
Text
70
0
 62
   7
6
Continuous
370
0
390
251
1001
AcAecLayerStandard
1000

1000

0
ENDTAB
0
TABLE
2
STYLE
5
245
330
0
100
AcDbSymbolTable
70
2
0
STYLE
5
253
330
245
100
AcDbSymbolTableRecord
100
AcDbTextStyleTableRecord
2
Standard
70
0
40
0.0
41
1.0
50
0.0
71
0
42
0.2
3
Arial
4

1001
ACAD
1000
Arial
1071
0
0
STYLE
5
132
330
245
100
AcDbSymbolTableRecord
100
AcDbTextStyleTableRecord
2
Beschriftung
70
0
40
0.0
41
1.0
50
0.0
71
0
42
0.2
3
Arial
4

1001
ACAD
1000
Arial
1071
0
1001
AcadAnnotative
1000
AnnotativeData
1070
1
1070
1
0
ENDTAB
0
TABLE
2
VIEW
5
248
330
0
100
AcDbSymbolTable
70
0
0
ENDTAB
0
TABLE
2
UCS
5
249
330
0
100
AcDbSymbolTable
70
0
0
ENDTAB
0
TABLE
2
APPID
5
24B
330
0
100
AcDbSymbolTable
70
13
0
APPID
5
254
330
24B
100
AcDbSymbolTableRecord
100
AcDbRegAppTableRecord
2
ACAD
70
0
0
APPID
5
26C
330
24B
100
AcDbSymbolTableRecord
100
AcDbRegAppTableRecord
2
VD_INVISIBLE_NOT_FOR_READ
70
0
0
APPID
5
26D
330
24B
100
AcDbSymbolTableRecord
100
AcDbRegAppTableRecord
2
VD_TEMPHATCH
70
0
0
APPID
5
26E
330
24B
100
AcDbSymbolTableRecord
100
AcDbRegAppTableRecord
2
VDEXTRAPARAM
70
0
0
APPID
5
26F
330
24B
100
AcDbSymbolTableRecord
100
AcDbRegAppTableRecord
2
PE_URL
70
0
0
APPID
5
270
330
24B
100
AcDbSymbolTableRecord
100
AcDbRegAppTableRecord
2
VD_UNKNOWN
70
0
0
APPID
5
28F
330
24B
100
AcDbSymbolTableRecord
100
AcDbRegAppTableRecord
2
AcadAnnotative
70
0
0
APPID
5
290
330
24B
100
AcDbSymbolTableRecord
100
AcDbRegAppTableRecord
2
ACAD_DSTYLE_DIMJAG
70
0
0
APPID
5
291
330
24B
100
AcDbSymbolTableRecord
100
AcDbRegAppTableRecord
2
ACAD_DSTYLE_DIMTALN
70
0
0
APPID
5
293
330
24B
100
AcDbSymbolTableRecord
100
AcDbRegAppTableRecord
2
ACAD_PSEXT
70
0
0
APPID
5
42A
330
24B
100
AcDbSymbolTableRecord
100
AcDbRegAppTableRecord
2
ACAD_MLEADERVER
70
0
0
APPID
5
532
330
24B
100
AcDbSymbolTableRecord
100
AcDbRegAppTableRecord
2
ACAD_EXEMPT_FROM_CAD_STANDARDS
70
0
0
APPID
5
57F
330
24B
100
AcDbSymbolTableRecord
100
AcDbRegAppTableRecord
2
AcAecLayerStandard
70
0
0
ENDTAB
0
TABLE
2
DIMSTYLE
5
24C
330
0
100
AcDbSymbolTable
70
3
100
AcDbDimStyleTable
71
2
340
27
340
269
0
DIMSTYLE
105
269
330
24C
100
AcDbSymbolTableRecord
100
AcDbDimStyleTableRecord
2
Standard
70
0
172
1
174
1
288
1
340
253
342
23C
0
DIMSTYLE
105
137
330
24C
100
AcDbSymbolTableRecord
100
AcDbDimStyleTableRecord
2
Beschriftung
70
0
41
2.5
42
0.625
44
1.25
73
0
74
0
77
1
140
2.5
147
0.625
172
1
174
1
271
2
288
1
340
253
342
23C
1001
AcadAnnotative
1000
AnnotativeData
1070
1
1070
1
1001
ACAD_DSTYLE_DIMJAG
1070
388
1040
1.5
1001
ACAD_DSTYLE_DIMTALN
1070
392
1070
0
0
DIMSTYLE
105
27
102
{ACAD_REACTORS
330
F10003
330
F10012
330
F10017
330
F1001C
330
F10021
330
F10008
330
F1000D
330
F10026
102
}
330
24C
100
AcDbSymbolTableRecord
100
AcDbDimStyleTableRecord
2
BEM-ISBE
70
0
41
2.5
42
0.625
44
1.25
48
0.000000001
71
1
73
0
74
0
77
1
140
2.5
144
1.00000000000000
146
0.5
147
0.625
171
 3
172
 1
179
 3
271
 3
272
 3
274
 3
340
253
342
23C
1001
ACAD_DSTYLE_DIMJAG
1070
388
1040
1.5
1001
ACAD_DSTYLE_DIMTALN
1070
392
1070
1
0
ENDTAB
0
TABLE
2
BLOCK_RECORD
5
243
330
0
100
AcDbSymbolTable
70
5
0
BLOCK_RECORD
5
261
330
243
100
AcDbSymbolTableRecord
100
AcDbBlockTableRecord
2
*Model_Space
340
FD0
0
BLOCK_RECORD
5
25D
330
243
100
AcDbSymbolTableRecord
100
AcDbBlockTableRecord
2
*Paper_Space
340
FD1
0
BLOCK_RECORD
5
265
330
243
100
AcDbSymbolTableRecord
100
AcDbBlockTableRecord
2
*Paper_Space0
340
0
0
BLOCK_RECORD
5
23C
330
243
100
AcDbSymbolTableRecord
100
AcDbBlockTableRecord
2
VDDIM_DEFAULT
340
0
102
{BLKREFS
102
}
0
BLOCK_RECORD
5
23E
330
243
100
AcDbSymbolTableRecord
100
AcDbBlockTableRecord
2
VDDIM_NONE
340
0
0
BLOCK_RECORD
5
F10002
330
243
100
AcDbSymbolTableRecord
100
AcDbBlockTableRecord
2
*D3
340
0
0
BLOCK_RECORD
5
F10011
330
243
100
AcDbSymbolTableRecord
100
AcDbBlockTableRecord
2
*D6
340
0
0
BLOCK_RECORD
5
F10016
330
243
100
AcDbSymbolTableRecord
100
AcDbBlockTableRecord
2
*D7
340
0
0
BLOCK_RECORD
5
F1001B
330
243
100
AcDbSymbolTableRecord
100
AcDbBlockTableRecord
2
*D8
340
0
0
BLOCK_RECORD
5
F10020
330
243
100
AcDbSymbolTableRecord
100
AcDbBlockTableRecord
2
*D9
340
0
0
BLOCK_RECORD
5
F10007
330
243
100
AcDbSymbolTableRecord
100
AcDbBlockTableRecord
2
*D4
340
0
0
BLOCK_RECORD
5
F1000C
330
243
100
AcDbSymbolTableRecord
100
AcDbBlockTableRecord
2
*D5
340
0
0
BLOCK_RECORD
5
F10025
330
243
100
AcDbSymbolTableRecord
100
AcDbBlockTableRecord
2
*D10
340
0
0
ENDTAB
0
ENDSEC
0
SECTION
2
BLOCKS
0
BLOCK
5
262
330
261
100
AcDbEntity
8
0
100
AcDbBlockBegin
2
*Model_Space
70
0
10
0.0
20
0.0
30
0.0
3
*Model_Space
1

0
ENDBLK
5
263
330
261
100
AcDbEntity
8
0
100
AcDbBlockEnd
0
BLOCK
5
25E
330
25D
100
AcDbEntity
67
1
8
0
100
AcDbBlockBegin
2
*Paper_Space
70
0
10
0.0
20
0.0
30
0.0
3
*Paper_Space
1

0
ENDBLK
5
25F
330
25D
100
AcDbEntity
67
1
8
0
100
AcDbBlockEnd
0
BLOCK
5
266
330
265
100
AcDbEntity
8
0
100
AcDbBlockBegin
2
*Paper_Space0
70
0
10
0.0
20
0.0
30
0.0
3
*Paper_Space0
1

0
VIEWPORT
5
296
102
{ACAD_XDICTIONARY
360
58E
102
}
330
265
100
AcDbEntity
8
0
60
1
100
AcDbViewport
10
0.0
20
0.0
30
0.0
40
10.0
41
10.0
69
0
12
0.0
22
0.0
13
0.0
23
0.0
14
1.0
24
1.0
15
0.0
25
0.0
16
0.0
26
0.0
36
1.0
17
0.0
27
0.0
37
0.0
42
0.0
43
0.0
44
0.0
45
10.0
50
0.0
51
0.0000000000007958
72
100
90
163872
1

281
0
71
0
74
0
110
0.0
120
0.0
130
0.0
111
1.0
121
0.0
131
0.0
112
0.0
122
1.0
132
0.0
79
0
146
0.0
1001
VD_INVISIBLE_NOT_FOR_READ
1000
VD_INVISIBLE_NOT_FOR_READ
0
VIEWPORT
5
297
102
{ACAD_XDICTIONARY
360
590
102
}
330
265
100
AcDbEntity
8
0
60
1
100
AcDbViewport
10
0.0
20
0.0
30
0.0
40
10.0
41
10.0
69
0
12
0.0
22
0.0
13
0.0
23
0.0
14
1.0
24
1.0
15
0.0
25
0.0
16
0.0
26
0.0
36
1.0
17
0.0
27
0.0
37
0.0
42
0.0
43
0.0
44
0.0
45
10.0
50
0.0
51
0.0000000000007958
72
100
90
163872
1

281
0
71
0
74
0
110
0.0
120
0.0
130
0.0
111
1.0
121
0.0
131
0.0
112
0.0
122
1.0
132
0.0
79
0
146
0.0
1001
VD_INVISIBLE_NOT_FOR_READ
1000
VD_INVISIBLE_NOT_FOR_READ
0
ENDBLK
5
267
330
265
100
AcDbEntity
8
0
100
AcDbBlockEnd
0
BLOCK
5
28B
330
23C
100
AcDbEntity
8
0
100
AcDbBlockBegin
2
VDDIM_DEFAULT
70
0
10
0.0
20
0.0
30
0.0
3
VDDIM_DEFAULT
1

0
LWPOLYLINE
5
23D
330
23C
100
AcDbEntity
8
0
6
Continuous
62
0
100
AcDbPolyline
90
4
70
0
43
0.0
10
0.0
20
0.0
10
-1.0
20
-0.1665
10
-1.0
20
0.1665
10
0.0
20
0.0
1001
VDEXTRAPARAM
1071
1
1071
0
1071
0
1040
1.0
1000

1000

1040
0.0
1040
0.0
0
HATCH
5
292
330
23C
100
AcDbEntity
8
0
6
Continuous
62
0
100
AcDbHatch
10
0.0
20
0.0
30
0.0
210
0.0
220
0.0
230
1.0
2
SOLID
70
1
71
0
91
1
92
2
72
0
73
1
93
3
10
0.0
20
0.0
10
-1.0
20
-0.1665
10
-1.0
20
0.1665
97
0
75
0
76
1
98
1
10
0.0
20
0.0
1001
VDEXTRAPARAM
1071
1
1071
0
1071
0
1040
1.0
1000

1000

1040
0.0
1040
0.0
1001
VD_TEMPHATCH
1000
VD_TEMPHATCH
0
ENDBLK
5
28C
330
23C
100
AcDbEntity
8
0
100
AcDbBlockEnd
0
BLOCK
5
28D
330
23E
100
AcDbEntity
8
0
100
AcDbBlockBegin
2
VDDIM_NONE
70
0
10
0.0
20
0.0
30
0.0
3
VDDIM_NONE
1

0
ENDBLK
5
28E
330
23E
100
AcDbEntity
8
0
100
AcDbBlockEnd
  0
BLOCK
  5
F1002A
330
F10002
100
AcDbEntity
  8
0
100
AcDbBlockBegin
  2
*D3
 70
     1
 10
0.0
 20
0.0
 30
0.0
  3
*D3
  1

  0
LINE
  5
F1002B
330
F10002
100
AcDbEntity
  8
Bemassung
 62
     0
370
    -2
100
AcDbLine
10
-32.7987244370549
20
-24.2269065947481
30
0.000000000000000
11
-32.7987244370549
21
40.7730934052519
31
0.000000000000000
  0
LINE
  5
F1002C
330
F10002
100
AcDbEntity
  8
Bemassung
 62
     0
370
    -2
100
AcDbLine
10
-32.6987244370549
20
-24.2269065947481
30
0.000000000000000
11
-32.6987244370549
21
4.77309340525191
31
0.000000000000000
  0
LINE
  5
F1002D
330
F10002
100
AcDbEntity
  8
Bemassung
 62
     0
370
    -2
100
AcDbLine
10
-47.6240649462022
20
-22.2269065947481
30
0.000000000000000
11
-32.6987244370549
21
-22.2269065947481
31
0.000000000000000
  0
INSERT
  5
F1002E
330
F10002
100
AcDbEntity
  8
Bemassung
 62
     0
370
    -2
100
AcDbBlockReference
  2
VDDIM_DEFAULT
10
-32.7987244370549
20
-22.2269065947481
30
0.000000000000000
 41
2.50000000000000
 42
2.50000000000000
 43
2.50000000000000
  0
INSERT
  5
F1002F
330
F10002
100
AcDbEntity
  8
Bemassung
 62
     0
370
    -2
100
AcDbBlockReference
  2
VDDIM_DEFAULT
10
-32.6987244370549
20
-22.2269065947481
30
0.000000000000000
 41
2.50000000000000
 42
2.50000000000000
 43
2.50000000000000
 50
180.000000000000
  0
MTEXT
  5
F10030
330
F10002
100
AcDbEntity
  8
Bemassung
 62
     0
100
AcDbMText
10
-34.0211634849493
20
-21.5602399280814
30
0.000000000000000
 40
2.50000000000000
 41
0.0
 71
     8
 72
     1
  1
0.1 x 45°
 11
1.00000000000000
 21
0.000000000000000
 31
0.0
 73
     1
 44
1.0
1001
ACAD
1000
MTEXTBEGIN
1070
73
1070
1
1070
44
1040
1.0
1070
74
1070
0
1000
MTEXTEND
  0
POINT
  5
F10031
330
F10002
100
AcDbEntity
  8
Bemassung
 62
     0
100
AcDbPoint
10
-32.7987244370549
20
-24.2269065947481
30
0.000000000000000
  0
POINT
  5
F10032
330
F10002
100
AcDbEntity
  8
Bemassung
 62
     0
100
AcDbPoint
10
-32.6987244370549
20
-24.2269065947481
30
0.000000000000000
  0
ENDBLK
  5
F10033
330
F10002
100
AcDbEntity
  8
0
100
AcDbBlockEnd
  0
BLOCK
  5
F10034
330
F10011
100
AcDbEntity
  8
0
100
AcDbBlockBegin
  2
*D6
 70
     1
 10
0.0
 20
0.0
 30
0.0
  3
*D6
  1

  0
LINE
  5
F10035
330
F10011
100
AcDbEntity
  8
Bemassung
 62
     0
370
    -2
100
AcDbLine
10
-32.7987244370549
20
-24.2269065947481
30
0.000000000000000
11
-32.7987244370549
21
40.7730934052519
31
0.000000000000000
  0
LINE
  5
F10036
330
F10011
100
AcDbEntity
  8
Bemassung
 62
     0
370
    -2
100
AcDbLine
10
1.20127556294513
20
4.47309340525191
30
0.000000000000000
11
1.20127556294513
21
14.7730934052519
31
0.000000000000000
  0
LINE
  5
F10037
330
F10011
100
AcDbEntity
  8
Bemassung
 62
     0
370
    -2
100
AcDbLine
10
-32.7987244370549
20
12.7730934052519
30
0.000000000000000
11
1.20127556294513
21
12.7730934052519
31
0.000000000000000
  0
INSERT
  5
F10038
330
F10011
100
AcDbEntity
  8
Bemassung
 62
     0
370
    -2
100
AcDbBlockReference
  2
VDDIM_DEFAULT
10
-32.7987244370549
20
12.7730934052519
30
0.000000000000000
 41
2.50000000000000
 42
2.50000000000000
 43
2.50000000000000
 50
180.000000000000
  0
INSERT
  5
F10039
330
F10011
100
AcDbEntity
  8
Bemassung
 62
     0
370
    -2
100
AcDbBlockReference
  2
VDDIM_DEFAULT
10
1.20127556294513
20
12.7730934052519
30
0.000000000000000
 41
2.50000000000000
 42
2.50000000000000
 43
2.50000000000000
  0
MTEXT
  5
F1003A
330
F10011
100
AcDbEntity
  8
Bemassung
 62
     0
100
AcDbMText
10
-15.7987244370549
20
13.4397600719186
30
0.000000000000000
 40
2.50000000000000
 41
0.0
 71
     8
 72
     1
  1
34
 11
1.00000000000000
 21
0.000000000000000
 31
0.0
 73
     1
 44
1.0
1001
ACAD
1000
MTEXTBEGIN
1070
73
1070
1
1070
44
1040
1.0
1070
74
1070
0
1000
MTEXTEND
  0
POINT
  5
F1003B
330
F10011
100
AcDbEntity
  8
Bemassung
 62
     0
100
AcDbPoint
10
-32.7987244370549
20
-24.2269065947481
30
0.000000000000000
  0
POINT
  5
F1003C
330
F10011
100
AcDbEntity
  8
Bemassung
 62
     0
100
AcDbPoint
10
1.20127556294513
20
4.47309340525191
30
0.000000000000000
  0
ENDBLK
  5
F1003D
330
F10011
100
AcDbEntity
  8
0
100
AcDbBlockEnd
  0
BLOCK
  5
F1003E
330
F10016
100
AcDbEntity
  8
0
100
AcDbBlockBegin
  2
*D7
 70
     1
 10
0.0
 20
0.0
 30
0.0
  3
*D7
  1

  0
LINE
  5
F1003F
330
F10016
100
AcDbEntity
  8
Bemassung
 62
     0
370
    -2
100
AcDbLine
10
-32.7987244370549
20
-24.2269065947481
30
0.000000000000000
11
-32.7987244370549
21
40.7730934052519
31
0.000000000000000
  0
LINE
  5
F10040
330
F10016
100
AcDbEntity
  8
Bemassung
 62
     0
370
    -2
100
AcDbLine
10
1.90127556294513
20
4.77309340525191
30
0.000000000000000
11
1.90127556294513
21
26.7730934052519
31
0.000000000000000
  0
LINE
  5
F10041
330
F10016
100
AcDbEntity
  8
Bemassung
 62
     0
370
    -2
100
AcDbLine
10
-32.7987244370549
20
24.7730934052519
30
0.000000000000000
11
1.90127556294513
21
24.7730934052519
31
0.000000000000000
  0
INSERT
  5
F10042
330
F10016
100
AcDbEntity
  8
Bemassung
 62
     0
370
    -2
100
AcDbBlockReference
  2
VDDIM_DEFAULT
10
-32.7987244370549
20
24.7730934052519
30
0.000000000000000
 41
2.50000000000000
 42
2.50000000000000
 43
2.50000000000000
 50
180.000000000000
  0
INSERT
  5
F10043
330
F10016
100
AcDbEntity
  8
Bemassung
 62
     0
370
    -2
100
AcDbBlockReference
  2
VDDIM_DEFAULT
10
1.90127556294513
20
24.7730934052519
30
0.000000000000000
 41
2.50000000000000
 42
2.50000000000000
 43
2.50000000000000
  0
MTEXT
  5
F10044
330
F10016
100
AcDbEntity
  8
Bemassung
 62
     0
100
AcDbMText
10
-15.4487244370549
20
25.4397600719186
30
0.000000000000000
 40
2.50000000000000
 41
0.0
 71
     8
 72
     1
  1
34.7
 11
1.00000000000000
 21
0.000000000000000
 31
0.0
 73
     1
 44
1.0
1001
ACAD
1000
MTEXTBEGIN
1070
73
1070
1
1070
44
1040
1.0
1070
74
1070
0
1000
MTEXTEND
  0
POINT
  5
F10045
330
F10016
100
AcDbEntity
  8
Bemassung
 62
     0
100
AcDbPoint
10
-32.7987244370549
20
-24.2269065947481
30
0.000000000000000
  0
POINT
  5
F10046
330
F10016
100
AcDbEntity
  8
Bemassung
 62
     0
100
AcDbPoint
10
1.90127556294513
20
4.77309340525191
30
0.000000000000000
  0
ENDBLK
  5
F10047
330
F10016
100
AcDbEntity
  8
0
100
AcDbBlockEnd
  0
BLOCK
  5
F10048
330
F1001B
100
AcDbEntity
  8
0
100
AcDbBlockBegin
  2
*D8
 70
     1
 10
0.0
 20
0.0
 30
0.0
  3
*D8
  1

  0
LINE
  5
F10049
330
F1001B
100
AcDbEntity
  8
Bemassung
 62
     0
370
    -2
100
AcDbLine
10
-7.79872443705487
20
-4.92690659474809
30
0.000000000000000
11
-7.79872443705487
21
-17.2269065947481
31
0.000000000000000
  0
LINE
  5
F1004A
330
F1001B
100
AcDbEntity
  8
Bemassung
 62
     0
370
    -2
100
AcDbLine
10
-32.7987244370549
20
-24.2269065947481
30
0.000000000000000
11
-32.7987244370549
21
40.7730934052519
31
0.000000000000000
  0
LINE
  5
F1004B
330
F1001B
100
AcDbEntity
  8
Bemassung
 62
     0
370
    -2
100
AcDbLine
10
-7.79872443705487
20
-15.2269065947481
30
0.000000000000000
11
-32.7987244370549
21
-15.2269065947481
31
0.000000000000000
  0
INSERT
  5
F1004C
330
F1001B
100
AcDbEntity
  8
Bemassung
 62
     0
370
    -2
100
AcDbBlockReference
  2
VDDIM_DEFAULT
10
-7.79872443705487
20
-15.2269065947481
30
0.000000000000000
 41
2.50000000000000
 42
2.50000000000000
 43
2.50000000000000
  0
INSERT
  5
F1004D
330
F1001B
100
AcDbEntity
  8
Bemassung
 62
     0
370
    -2
100
AcDbBlockReference
  2
VDDIM_DEFAULT
10
-32.7987244370549
20
-15.2269065947481
30
0.000000000000000
 41
2.50000000000000
 42
2.50000000000000
 43
2.50000000000000
 50
180.000000000000
  0
MTEXT
  5
F1004E
330
F1001B
100
AcDbEntity
  8
Bemassung
 62
     0
100
AcDbMText
10
-20.2987244370549
20
-14.5602399280814
30
0.000000000000000
 40
2.50000000000000
 41
0.0
 71
     8
 72
     1
  1
25
 11
1.00000000000000
 21
0.000000000000000
 31
0.0
 73
     1
 44
1.0
1001
ACAD
1000
MTEXTBEGIN
1070
73
1070
1
1070
44
1040
1.0
1070
74
1070
0
1000
MTEXTEND
  0
POINT
  5
F1004F
330
F1001B
100
AcDbEntity
  8
Bemassung
 62
     0
100
AcDbPoint
10
-7.79872443705487
20
-4.92690659474809
30
0.000000000000000
  0
POINT
  5
F10050
330
F1001B
100
AcDbEntity
  8
Bemassung
 62
     0
100
AcDbPoint
10
-32.7987244370549
20
-24.2269065947481
30
0.000000000000000
  0
ENDBLK
  5
F10051
330
F1001B
100
AcDbEntity
  8
0
100
AcDbBlockEnd
  0
BLOCK
  5
F10052
330
F10020
100
AcDbEntity
  8
0
100
AcDbBlockBegin
  2
*D9
 70
     1
 10
0.0
 20
0.0
 30
0.0
  3
*D9
  1

  0
LINE
  5
F10053
330
F10020
100
AcDbEntity
  8
Bemassung
 62
     0
370
    -2
100
AcDbLine
10
40.2012755629451
20
3.77309340525191
30
0.000000000000000
11
40.2012755629451
21
40.7730934052519
31
0.000000000000000
  0
LINE
  5
F10054
330
F10020
100
AcDbEntity
  8
Bemassung
 62
     0
370
    -2
100
AcDbLine
10
-32.7987244370549
20
-24.2269065947481
30
0.000000000000000
11
-32.7987244370549
21
40.7730934052519
31
0.000000000000000
  0
LINE
  5
F10055
330
F10020
100
AcDbEntity
  8
Bemassung
 62
     0
370
    -2
100
AcDbLine
10
40.2012755629451
20
38.7730934052519
30
0.000000000000000
11
-32.7987244370549
21
38.7730934052519
31
0.000000000000000
  0
INSERT
  5
F10056
330
F10020
100
AcDbEntity
  8
Bemassung
 62
     0
370
    -2
100
AcDbBlockReference
  2
VDDIM_DEFAULT
10
40.2012755629451
20
38.7730934052519
30
0.000000000000000
 41
2.50000000000000
 42
2.50000000000000
 43
2.50000000000000
  0
INSERT
  5
F10057
330
F10020
100
AcDbEntity
  8
Bemassung
 62
     0
370
    -2
100
AcDbBlockReference
  2
VDDIM_DEFAULT
10
-32.7987244370549
20
38.7730934052519
30
0.000000000000000
 41
2.50000000000000
 42
2.50000000000000
 43
2.50000000000000
 50
180.000000000000
  0
MTEXT
  5
F10058
330
F10020
100
AcDbEntity
  8
Bemassung
 62
     0
100
AcDbMText
10
3.70127556294513
20
39.4397600719186
30
0.000000000000000
 40
2.50000000000000
 41
0.0
 71
     8
 72
     1
  1
73
 11
1.00000000000000
 21
0.000000000000000
 31
0.0
 73
     1
 44
1.0
1001
ACAD
1000
MTEXTBEGIN
1070
73
1070
1
1070
44
1040
1.0
1070
74
1070
0
1000
MTEXTEND
  0
POINT
  5
F10059
330
F10020
100
AcDbEntity
  8
Bemassung
 62
     0
100
AcDbPoint
10
40.2012755629451
20
3.77309340525191
30
0.000000000000000
  0
POINT
  5
F1005A
330
F10020
100
AcDbEntity
  8
Bemassung
 62
     0
100
AcDbPoint
10
-32.7987244370549
20
-24.2269065947481
30
0.000000000000000
  0
ENDBLK
  5
F1005B
330
F10020
100
AcDbEntity
  8
0
100
AcDbBlockEnd
  0
BLOCK
  5
F1005C
330
F10007
100
AcDbEntity
  8
0
100
AcDbBlockBegin
  2
*D4
 70
     1
 10
0.0
 20
0.0
 30
0.0
  3
*D4
  1

  0
LINE
  5
F1005D
330
F10007
100
AcDbEntity
  8
Bemassung
 62
     0
370
    -2
100
AcDbLine
10
-32.6987244370549
20
-5.22690659474809
30
0.000000000000000
11
-44.7987244370549
21
-5.22690659474809
31
0.000000000000000
  0
LINE
  5
F1005E
330
F10007
100
AcDbEntity
  8
Bemassung
 62
     0
370
    -2
100
AcDbLine
10
-32.6987244370549
20
4.77309340525191
30
0.000000000000000
11
-44.7987244370549
21
4.77309340525191
31
0.000000000000000
  0
LINE
  5
F1005F
330
F10007
100
AcDbEntity
  8
Bemassung
 62
     0
370
    -2
100
AcDbLine
10
-42.7987244370549
20
-5.22690659474809
30
0.000000000000000
11
-42.7987244370549
21
4.77309340525191
31
0.000000000000000
  0
INSERT
  5
F10060
330
F10007
100
AcDbEntity
  8
Bemassung
 62
     0
370
    -2
100
AcDbBlockReference
  2
VDDIM_DEFAULT
10
-42.7987244370549
20
-5.22690659474809
30
0.000000000000000
 41
2.50000000000000
 42
2.50000000000000
 43
2.50000000000000
 50
90.0000000000000
  0
INSERT
  5
F10061
330
F10007
100
AcDbEntity
  8
Bemassung
 62
     0
370
    -2
100
AcDbBlockReference
  2
VDDIM_DEFAULT
10
-42.7987244370549
20
4.77309340525191
30
0.000000000000000
 41
2.50000000000000
 42
2.50000000000000
 43
2.50000000000000
 50
270.000000000000
  0
MTEXT
  5
F10062
330
F10007
100
AcDbEntity
  8
Bemassung
 62
     0
100
AcDbMText
10
-43.4653911037215
20
-1.19936170380336
30
0.000000000000000
 40
2.50000000000000
 41
0.0
 71
     8
 72
     1
  1
Ø10
 11
6.12323399573677e-17
 21
1.00000000000000
 31
0.0
 73
     1
 44
1.0
1001
ACAD
1000
MTEXTBEGIN
1070
73
1070
1
1070
44
1040
1.0
1070
74
1070
0
1000
MTEXTEND
  0
POINT
  5
F10063
330
F10007
100
AcDbEntity
  8
Bemassung
 62
     0
100
AcDbPoint
10
-32.6987244370549
20
-5.22690659474809
30
0.000000000000000
  0
POINT
  5
F10064
330
F10007
100
AcDbEntity
  8
Bemassung
 62
     0
100
AcDbPoint
10
-32.6987244370549
20
4.77309340525191
30
0.000000000000000
  0
ENDBLK
  5
F10065
330
F10007
100
AcDbEntity
  8
0
100
AcDbBlockEnd
  0
BLOCK
  5
F10066
330
F1000C
100
AcDbEntity
  8
0
100
AcDbBlockBegin
  2
*D5
 70
     1
 10
0.0
 20
0.0
 30
0.0
  3
*D5
  1

  0
LINE
  5
F10067
330
F1000C
100
AcDbEntity
  8
Bemassung
 62
     0
370
    -2
100
AcDbLine
10
-7.79872443705487
20
-4.92690659474809
30
0.000000000000000
11
0.201275562945128
21
-4.92690659474809
31
0.000000000000000
  0
LINE
  5
F10068
330
F1000C
100
AcDbEntity
  8
Bemassung
 62
     0
370
    -2
100
AcDbLine
10
-7.79872443705487
20
4.47309340525191
30
0.000000000000000
11
0.201275562945128
21
4.47309340525191
31
0.000000000000000
  0
LINE
  5
F10069
330
F1000C
100
AcDbEntity
  8
Bemassung
 62
     0
370
    -2
100
AcDbLine
10
-1.79872443705487
20
-23.6571996373392
30
0.000000000000000
11
-1.79872443705487
21
4.47309340525191
31
0.000000000000000
  0
INSERT
  5
F1006A
330
F1000C
100
AcDbEntity
  8
Bemassung
 62
     0
370
    -2
100
AcDbBlockReference
  2
VDDIM_DEFAULT
10
-1.79872443705487
20
-4.92690659474809
30
0.000000000000000
 41
2.50000000000000
 42
2.50000000000000
 43
2.50000000000000
 50
90.0000000000000
  0
INSERT
  5
F1006B
330
F1000C
100
AcDbEntity
  8
Bemassung
 62
     0
370
    -2
100
AcDbBlockReference
  2
VDDIM_DEFAULT
10
-1.79872443705487
20
4.47309340525191
30
0.000000000000000
 41
2.50000000000000
 42
2.50000000000000
 43
2.50000000000000
 50
270.000000000000
  0
MTEXT
  5
F1006C
330
F1000C
100
AcDbEntity
  8
Bemassung
 62
     0
100
AcDbMText
10
-2.46539110372154
20
-16.1055536397201
30
0.000000000000000
 40
2.50000000000000
 41
0.0
 71
     8
 72
     1
  1
Ø9.4
 11
6.12323399573677e-17
 21
1.00000000000000
 31
0.0
 73
     1
 44
1.0
1001
ACAD
1000
MTEXTBEGIN
1070
73
1070
1
1070
44
1040
1.0
1070
74
1070
0
1000
MTEXTEND
  0
POINT
  5
F1006D
330
F1000C
100
AcDbEntity
  8
Bemassung
 62
     0
100
AcDbPoint
10
-7.79872443705487
20
-4.92690659474809
30
0.000000000000000
  0
POINT
  5
F1006E
330
F1000C
100
AcDbEntity
  8
Bemassung
 62
     0
100
AcDbPoint
10
-7.79872443705487
20
4.47309340525191
30
0.000000000000000
  0
ENDBLK
  5
F1006F
330
F1000C
100
AcDbEntity
  8
0
100
AcDbBlockEnd
  0
BLOCK
  5
F10070
330
F10025
100
AcDbEntity
  8
0
100
AcDbBlockBegin
  2
*D10
 70
     1
 10
0.0
 20
0.0
 30
0.0
  3
*D10
  1

  0
LINE
  5
F10071
330
F10025
100
AcDbEntity
  8
Bemassung
 62
     0
370
    -2
100
AcDbLine
10
39.2012755629451
20
4.77309340525191
30
0.000000000000000
11
50.3504676865518
21
4.77309340525191
31
0.000000000000000
  0
LINE
  5
F10072
330
F10025
100
AcDbEntity
  8
Bemassung
 62
     0
370
    -2
100
AcDbLine
10
39.2012755629451
20
-5.22690659474809
30
0.000000000000000
11
50.3504676865518
21
-5.22690659474809
31
0.000000000000000
  0
LINE
  5
F10073
330
F10025
100
AcDbEntity
  8
Bemassung
 62
     0
370
    -2
100
AcDbLine
10
48.3504676865518
20
4.77309340525191
30
0.000000000000000
11
48.3504676865518
21
-5.22690659474809
31
0.000000000000000
  0
INSERT
  5
F10074
330
F10025
100
AcDbEntity
  8
Bemassung
 62
     0
370
    -2
100
AcDbBlockReference
  2
VDDIM_DEFAULT
10
48.3504676865518
20
4.77309340525191
30
0.000000000000000
 41
2.50000000000000
 42
2.50000000000000
 43
2.50000000000000
 50
270.000000000000
  0
INSERT
  5
F10075
330
F10025
100
AcDbEntity
  8
Bemassung
 62
     0
370
    -2
100
AcDbBlockReference
  2
VDDIM_DEFAULT
10
48.3504676865518
20
-5.22690659474809
30
0.000000000000000
 41
2.50000000000000
 42
2.50000000000000
 43
2.50000000000000
 50
90.0000000000000
  0
MTEXT
  5
F10076
330
F10025
100
AcDbEntity
  8
Bemassung
 62
     0
100
AcDbMText
10
47.6838010198852
20
-0.495698086633453
30
0.000000000000000
 40
2.50000000000000
 41
0.0
 71
     8
 72
     1
  1
Ø10
 11
6.12323399573677e-17
 21
1.00000000000000
 31
0.0
 73
     1
 44
1.0
1001
ACAD
1000
MTEXTBEGIN
1070
73
1070
1
1070
44
1040
1.0
1070
74
1070
0
1000
MTEXTEND
  0
POINT
  5
F10077
330
F10025
100
AcDbEntity
  8
Bemassung
 62
     0
100
AcDbPoint
10
39.2012755629451
20
4.77309340525191
30
0.000000000000000
  0
POINT
  5
F10078
330
F10025
100
AcDbEntity
  8
Bemassung
 62
     0
100
AcDbPoint
10
39.2012755629451
20
-5.22690659474809
30
0.000000000000000
  0
ENDBLK
  5
F10079
330
F10025
100
AcDbEntity
  8
0
100
AcDbBlockEnd
0
ENDSEC
0
SECTION
2
ENTITIES
  0
DIMENSION
  5
F10003
330
261
100
AcDbEntity
  8
Bemassung
100
AcDbDimension
  2
*D3
10
-32.6987244370549
20
-22.2269065947481
30
0.000000000000000
11
-34.0211634849493
21
-21.5602399280814
31
0.000000000000000
 70
32
 1
0.1 x 45°
 71
     8
  3
BEM-ISBE
100
AcDbAlignedDimension
13
-32.7987244370549
23
-24.2269065947481
33
0.000000000000000
14
-32.6987244370549
24
-24.2269065947481
34
0.000000000000000
100
AcDbRotatedDimension
1001
ACAD
1000
DSTYLE
1002
{
1070
284
1070
8
1070
78
1070
8
1070
144
1040
1.00000000000000
1070
147
1040
0.625
1070
 72
1070
 0
1070
 71
1070
 0
1002
}
  0
DIMENSION
  5
F10012
330
261
100
AcDbEntity
  8
Bemassung
100
AcDbDimension
  2
*D6
10
1.20127556294513
20
12.7730934052519
30
0.000000000000000
11
-15.7987244370549
21
13.4397600719186
31
0.000000000000000
 70
32
 1
34
 71
     8
  3
BEM-ISBE
100
AcDbAlignedDimension
13
-32.7987244370549
23
-24.2269065947481
33
0.000000000000000
14
1.20127556294513
24
4.47309340525191
34
0.000000000000000
100
AcDbRotatedDimension
1001
ACAD
1000
DSTYLE
1002
{
1070
284
1070
8
1070
78
1070
8
1070
144
1040
1.00000000000000
1070
147
1040
0.625
1070
 72
1070
 0
1070
 71
1070
 0
1002
}
  0
DIMENSION
  5
F10017
330
261
100
AcDbEntity
  8
Bemassung
100
AcDbDimension
  2
*D7
10
1.90127556294513
20
24.7730934052519
30
0.000000000000000
11
-15.4487244370549
21
25.4397600719186
31
0.000000000000000
 70
32
 1
34.7
 71
     8
  3
BEM-ISBE
100
AcDbAlignedDimension
13
-32.7987244370549
23
-24.2269065947481
33
0.000000000000000
14
1.90127556294513
24
4.77309340525191
34
0.000000000000000
100
AcDbRotatedDimension
1001
ACAD
1000
DSTYLE
1002
{
1070
284
1070
8
1070
78
1070
8
1070
144
1040
1.00000000000000
1070
147
1040
0.625
1070
 72
1070
 0
1070
 71
1070
 0
1002
}
  0
DIMENSION
  5
F1001C
330
261
100
AcDbEntity
  8
Bemassung
100
AcDbDimension
  2
*D8
10
-32.7987244370549
20
-15.2269065947481
30
0.000000000000000
11
-20.2987244370549
21
-14.5602399280814
31
0.000000000000000
 70
32
 1
25
 71
     8
  3
BEM-ISBE
100
AcDbAlignedDimension
13
-7.79872443705487
23
-4.92690659474809
33
0.000000000000000
14
-32.7987244370549
24
-24.2269065947481
34
0.000000000000000
100
AcDbRotatedDimension
1001
ACAD
1000
DSTYLE
1002
{
1070
284
1070
8
1070
78
1070
8
1070
144
1040
1.00000000000000
1070
147
1040
0.625
1070
 72
1070
 0
1070
 71
1070
 0
1002
}
  0
DIMENSION
  5
F10021
330
261
100
AcDbEntity
  8
Bemassung
100
AcDbDimension
  2
*D9
10
-32.7987244370549
20
38.7730934052519
30
0.000000000000000
11
3.70127556294513
21
39.4397600719186
31
0.000000000000000
 70
32
 1
73
 71
     8
  3
BEM-ISBE
100
AcDbAlignedDimension
13
40.2012755629451
23
3.77309340525191
33
0.000000000000000
14
-32.7987244370549
24
-24.2269065947481
34
0.000000000000000
100
AcDbRotatedDimension
1001
ACAD
1000
DSTYLE
1002
{
1070
284
1070
8
1070
78
1070
8
1070
144
1040
1.00000000000000
1070
147
1040
0.625
1070
 72
1070
 0
1070
 71
1070
 0
1002
}
  0
DIMENSION
  5
F10008
330
261
100
AcDbEntity
  8
Bemassung
100
AcDbDimension
  2
*D4
10
-42.7987244370549
20
4.77309340525191
30
0.000000000000000
11
-43.4653911037215
21
-1.19936170380336
31
0.000000000000000
 70
32
 1
Ø10
 71
     8
  3
BEM-ISBE
100
AcDbAlignedDimension
13
-32.6987244370549
23
-5.22690659474809
33
0.000000000000000
14
-32.6987244370549
24
4.77309340525191
34
0.000000000000000
50
90.0000000000000
100
AcDbRotatedDimension
1001
ACAD
1000
DSTYLE
1002
{
1070
284
1070
8
1070
78
1070
8
1070
144
1040
1.00000000000000
1070
147
1040
0.625
1070
 72
1070
 0
1070
 71
1070
 0
1002
}
  0
DIMENSION
  5
F1000D
330
261
100
AcDbEntity
  8
Bemassung
100
AcDbDimension
  2
*D5
10
-1.79872443705487
20
4.47309340525191
30
0.000000000000000
11
-2.46539110372154
21
-16.1055536397201
31
0.000000000000000
 70
32
 1
Ø9.4
 71
     8
  3
BEM-ISBE
100
AcDbAlignedDimension
13
-7.79872443705487
23
-4.92690659474809
33
0.000000000000000
14
-7.79872443705487
24
4.47309340525191
34
0.000000000000000
50
90.0000000000000
100
AcDbRotatedDimension
1001
ACAD
1000
DSTYLE
1002
{
1070
284
1070
8
1070
78
1070
8
1070
144
1040
1.00000000000000
1070
147
1040
0.625
1070
 72
1070
 0
1070
 71
1070
 0
1002
}
  0
DIMENSION
  5
F10026
330
261
100
AcDbEntity
  8
Bemassung
100
AcDbDimension
  2
*D10
10
48.3504676865518
20
-5.22690659474809
30
0.000000000000000
11
47.6838010198852
21
-0.495698086633453
31
0.000000000000000
 70
32
 1
Ø10
 71
     8
  3
BEM-ISBE
100
AcDbAlignedDimension
13
39.2012755629451
23
4.77309340525191
33
0.000000000000000
14
39.2012755629451
24
-5.22690659474809
34
0.000000000000000
50
90.0000000000000
100
AcDbRotatedDimension
1001
ACAD
1000
DSTYLE
1002
{
1070
284
1070
8
1070
78
1070
8
1070
144
1040
1.00000000000000
1070
147
1040
0.625
1070
 72
1070
 0
1070
 71
1070
 0
1002
}
  0
LINE
  5
F1007A
330
F1007B
100
AcDbEntity
8
Geo
100
AcDbLine
10
-32.7987244370549
20
-0.226906594748087
30
0.000000000000000
11
-32.7987244370549
21
4.67309340525191
31
0.000000000000000
  0
LINE
  5
F1007C
330
F1007D
100
AcDbEntity
8
Geo
100
AcDbLine
10
-32.7987244370549
20
4.67309340525191
30
0.000000000000000
11
-32.6987244370549
21
4.77309340525191
31
0.000000000000000
  0
LINE
  5
F1007E
330
F1007F
100
AcDbEntity
8
Geo
100
AcDbLine
10
-32.6987244370549
20
4.77309340525191
30
0.000000000000000
11
-7.79872443705487
21
4.77309340525191
31
0.000000000000000
  0
LINE
  5
F10080
330
F10081
100
AcDbEntity
8
Geo
100
AcDbLine
10
-7.79872443705487
20
4.77309340525191
30
0.000000000000000
11
-7.79872443705487
21
4.47309340525191
31
0.000000000000000
  0
LINE
  5
F10082
330
F10083
100
AcDbEntity
8
Geo
100
AcDbLine
10
-7.79872443705487
20
4.47309340525191
30
0.000000000000000
11
1.20127556294513
21
4.47309340525191
31
0.000000000000000
  0
LINE
  5
F10084
330
F10085
100
AcDbEntity
8
Geo
100
AcDbLine
10
1.20127556294513
20
4.47309340525191
30
0.000000000000000
11
1.90127556294513
21
4.77309340525191
31
0.000000000000000
  0
LINE
  5
F10086
330
F10087
100
AcDbEntity
8
Geo
100
AcDbLine
10
1.90127556294513
20
4.77309340525191
30
0.000000000000000
11
39.2012755629451
21
4.77309340525191
31
0.000000000000000
  0
LINE
  5
F10088
330
F10089
100
AcDbEntity
8
Geo
100
AcDbLine
10
39.2012755629451
20
4.77309340525191
30
0.000000000000000
11
40.2012755629451
21
3.77309340525191
31
0.000000000000000
  0
LINE
  5
F1008A
330
F1008B
100
AcDbEntity
8
Geo
100
AcDbLine
10
-32.7987244370549
20
4.67307324225931
30
0.000000000000000
11
-32.6987244370549
21
4.77209343858480
31
0.000000000000000
  0
LINE
  5
F1008C
330
F1008D
100
AcDbEntity
8
Geo
100
AcDbLine
10
-32.6987244370549
20
4.77209343858480
30
0.000000000000000
11
-32.6987244370549
21
4.77209343858480
31
0.000000000000000
  0
LINE
  5
F1008E
330
F1008F
100
AcDbEntity
8
Geo
100
AcDbLine
10
-32.6987244370549
20
4.77209343858480
30
0.000000000000000
11
-32.5987244370549
21
4.76909393855680
31
0.000000000000000
  0
LINE
  5
F10090
330
F10091
100
AcDbEntity
8
Geo
100
AcDbLine
10
-32.5987244370549
20
4.76909393855680
30
0.000000000000000
11
-32.4987244370549
21
4.76409610492793
31
0.000000000000000
  0
LINE
  5
F10092
330
F10093
100
AcDbEntity
8
Geo
100
AcDbLine
10
-32.4987244370549
20
4.76409610492793
30
0.000000000000000
11
-32.3987244370549
21
4.75710193676501
31
0.000000000000000
  0
LINE
  5
F10094
330
F10095
100
AcDbEntity
8
Geo
100
AcDbLine
10
-32.3987244370549
20
4.75710193676501
30
0.000000000000000
11
-32.2987244370549
21
4.74811423164204
31
0.000000000000000
  0
LINE
  5
F10096
330
F10097
100
AcDbEntity
8
Geo
100
AcDbLine
10
-32.2987244370549
20
4.74811423164204
30
0.000000000000000
11
-32.1987244370549
21
4.73713658452124
31
0.000000000000000
  0
LINE
  5
F10098
330
F10099
100
AcDbEntity
8
Geo
100
AcDbLine
10
-32.1987244370549
20
4.73713658452124
30
0.000000000000000
11
-32.0987244370549
21
4.72417338631510
31
0.000000000000000
  0
LINE
  5
F1009A
330
F1009B
100
AcDbEntity
8
Geo
100
AcDbLine
10
-32.0987244370549
20
4.72417338631510
30
0.000000000000000
11
-31.9987244370549
21
4.70922982213005
31
0.000000000000000
  0
LINE
  5
F1009C
330
F1009D
100
AcDbEntity
8
Geo
100
AcDbLine
10
-31.9987244370549
20
4.70922982213005
30
0.000000000000000
11
-31.8987244370549
21
4.69231186919252
31
0.000000000000000
  0
LINE
  5
F1009E
330
F1009F
100
AcDbEntity
8
Geo
100
AcDbLine
10
-31.8987244370549
20
4.69231186919252
30
0.000000000000000
11
-31.7987244370549
21
4.67342629445812
31
0.000000000000000
  0
LINE
  5
F100A0
330
F100A1
100
AcDbEntity
8
Geo
100
AcDbLine
10
-31.7987244370549
20
4.67342629445812
30
0.000000000000000
11
-31.6987244370549
21
4.65258065190494
31
0.000000000000000
  0
LINE
  5
F100A2
330
F100A3
100
AcDbEntity
8
Geo
100
AcDbLine
10
-31.6987244370549
20
4.65258065190494
30
0.000000000000000
11
-31.5987244370549
21
4.62978327951206
31
0.000000000000000
  0
LINE
  5
F100A4
330
F100A5
100
AcDbEntity
8
Geo
100
AcDbLine
10
-31.5987244370549
20
4.62978327951206
30
0.000000000000000
11
-31.4987244370549
21
4.60504329592448
31
0.000000000000000
  0
LINE
  5
F100A6
330
F100A7
100
AcDbEntity
8
Geo
100
AcDbLine
10
-31.4987244370549
20
4.60504329592448
30
0.000000000000000
11
-31.3987244370549
21
4.57837059680577
31
0.000000000000000
  0
LINE
  5
F100A8
330
F100A9
100
AcDbEntity
8
Geo
100
AcDbLine
10
-31.3987244370549
20
4.57837059680577
30
0.000000000000000
11
-31.2987244370549
21
4.54977585087994
31
0.000000000000000
  0
LINE
  5
F100AA
330
F100AB
100
AcDbEntity
8
Geo
100
AcDbLine
10
-31.2987244370549
20
4.54977585087994
30
0.000000000000000
11
-31.1987244370549
21
4.51927049566412
31
0.000000000000000
  0
LINE
  5
F100AC
330
F100AD
100
AcDbEntity
8
Geo
100
AcDbLine
10
-31.1987244370549
20
4.51927049566412
30
0.000000000000000
11
-31.0987244370549
21
4.48686673289365
31
0.000000000000000
  0
LINE
  5
F100AE
330
F100AF
100
AcDbEntity
8
Geo
100
AcDbLine
10
-31.0987244370549
20
4.48686673289365
30
0.000000000000000
11
-30.9987244370549
21
4.45257752364159
31
0.000000000000000
  0
LINE
  5
F100B0
330
F100B1
100
AcDbEntity
8
Geo
100
AcDbLine
10
-30.9987244370549
20
4.45257752364159
30
0.000000000000000
11
-30.8987244370549
21
4.41641658313447
31
0.000000000000000
  0
LINE
  5
F100B2
330
F100B3
100
AcDbEntity
8
Geo
100
AcDbLine
10
-30.8987244370549
20
4.41641658313447
30
0.000000000000000
11
-30.7987244370549
21
4.37839837526634
31
0.000000000000000
  0
LINE
  5
F100B4
330
F100B5
100
AcDbEntity
8
Geo
100
AcDbLine
10
-30.7987244370549
20
4.37839837526634
30
0.000000000000000
11
-30.6987244370549
21
4.33853810681346
31
0.000000000000000
  0
LINE
  5
F100B6
330
F100B7
100
AcDbEntity
8
Geo
100
AcDbLine
10
-30.6987244370549
20
4.33853810681346
30
0.000000000000000
11
-30.5987244370549
21
4.29685172135173
31
0.000000000000000
  0
LINE
  5
F100B8
330
F100B9
100
AcDbEntity
8
Geo
100
AcDbLine
10
-30.5987244370549
20
4.29685172135173
30
0.000000000000000
11
-30.4987244370549
21
4.25335589287954
31
0.000000000000000
  0
LINE
  5
F100BA
330
F100BB
100
AcDbEntity
8
Geo
100
AcDbLine
10
-30.4987244370549
20
4.25335589287954
30
0.000000000000000
11
-30.3987244370549
21
4.20806801914834
31
0.000000000000000
  0
LINE
  5
F100BC
330
F100BD
100
AcDbEntity
8
Geo
100
AcDbLine
10
-30.3987244370549
20
4.20806801914834
30
0.000000000000000
11
-30.2987244370549
21
4.16100621470378
31
0.000000000000000
  0
LINE
  5
F100BE
330
F100BF
100
AcDbEntity
8
Geo
100
AcDbLine
10
-30.2987244370549
20
4.16100621470378
30
0.000000000000000
11
-30.1987244370549
21
4.11218930364017
31
0.000000000000000
  0
LINE
  5
F100C0
330
F100C1
100
AcDbEntity
8
Geo
100
AcDbLine
10
-30.1987244370549
20
4.11218930364017
30
0.000000000000000
11
-30.0987244370549
21
4.06163681207104
31
0.000000000000000
  0
LINE
  5
F100C2
330
F100C3
100
AcDbEntity
8
Geo
100
AcDbLine
10
-30.0987244370549
20
4.06163681207104
30
0.000000000000000
11
-29.9987244370549
21
4.00936896031900
31
0.000000000000000
  0
LINE
  5
F100C4
330
F100C5
100
AcDbEntity
8
Geo
100
AcDbLine
10
-29.9987244370549
20
4.00936896031900
30
0.000000000000000
11
-29.8987244370549
21
3.95540665482785
31
0.000000000000000
  0
LINE
  5
F100C6
330
F100C7
100
AcDbEntity
8
Geo
100
AcDbLine
10
-29.8987244370549
20
3.95540665482785
30
0.000000000000000
11
-29.7987244370549
21
3.89977147980031
31
0.000000000000000
  0
LINE
  5
F100C8
330
F100C9
100
AcDbEntity
8
Geo
100
AcDbLine
10
-29.7987244370549
20
3.89977147980031
30
0.000000000000000
11
-29.6987244370549
21
3.84248568856459
31
0.000000000000000
  0
LINE
  5
F100CA
330
F100CB
100
AcDbEntity
8
Geo
100
AcDbLine
10
-29.6987244370549
20
3.84248568856459
30
0.000000000000000
11
-29.5987244370549
21
3.78357219467338
31
0.000000000000000
  0
LINE
  5
F100CC
330
F100CD
100
AcDbEntity
8
Geo
100
AcDbLine
10
-29.5987244370549
20
3.78357219467338
30
0.000000000000000
11
-29.4987244370549
21
3.72305456273874
31
0.000000000000000
  0
LINE
  5
F100CE
330
F100CF
100
AcDbEntity
8
Geo
100
AcDbLine
10
-29.4987244370549
20
3.72305456273874
30
0.000000000000000
11
-29.3987244370549
21
3.66095699900656
31
0.000000000000000
  0
LINE
  5
F100D0
330
F100D1
100
AcDbEntity
8
Geo
100
AcDbLine
10
-29.3987244370549
20
3.66095699900656
30
0.000000000000000
11
-29.2987244370549
21
3.59730434167436
31
0.000000000000000
  0
LINE
  5
F100D2
330
F100D3
100
AcDbEntity
8
Geo
100
AcDbLine
10
-29.2987244370549
20
3.59730434167436
30
0.000000000000000
11
-29.1987244370549
21
3.53212205095639
31
0.000000000000000
  0
LINE
  5
F100D4
330
F100D5
100
AcDbEntity
8
Geo
100
AcDbLine
10
-29.1987244370549
20
3.53212205095639
30
0.000000000000000
11
-29.0987244370549
21
3.46543619889986
31
0.000000000000000
  0
LINE
  5
F100D6
330
F100D7
100
AcDbEntity
8
Geo
100
AcDbLine
10
-29.0987244370549
20
3.46543619889986
30
0.000000000000000
11
-28.9987244370549
21
3.39727345895644
31
0.000000000000000
  0
LINE
  5
F100D8
330
F100D9
100
AcDbEntity
8
Geo
100
AcDbLine
10
-28.9987244370549
20
3.39727345895644
30
0.000000000000000
11
-28.8987244370549
21
3.32766109531330
31
0.000000000000000
  0
LINE
  5
F100DA
330
F100DB
100
AcDbEntity
8
Geo
100
AcDbLine
10
-28.8987244370549
20
3.32766109531330
30
0.000000000000000
11
-28.7987244370549
21
3.25662695198774
31
0.000000000000000
  0
LINE
  5
F100DC
330
F100DD
100
AcDbEntity
8
Geo
100
AcDbLine
10
-28.7987244370549
20
3.25662695198774
30
0.000000000000000
11
-28.6987244370549
21
3.18419944168998
31
0.000000000000000
  0
LINE
  5
F100DE
330
F100DF
100
AcDbEntity
8
Geo
100
AcDbLine
10
-28.6987244370549
20
3.18419944168998
30
0.000000000000000
11
-28.5987244370549
21
3.11040753445846
31
0.000000000000000
  0
LINE
  5
F100E0
330
F100E1
100
AcDbEntity
8
Geo
100
AcDbLine
10
-28.5987244370549
20
3.11040753445846
30
0.000000000000000
11
-28.4987244370549
21
3.03528074607218
31
0.000000000000000
  0
LINE
  5
F100E2
330
F100E3
100
AcDbEntity
8
Geo
100
AcDbLine
10
-28.4987244370549
20
3.03528074607218
30
0.000000000000000
11
-28.3987244370549
21
2.95884912624482
31
0.000000000000000
  0
LINE
  5
F100E4
330
F100E5
100
AcDbEntity
8
Geo
100
AcDbLine
10
-28.3987244370549
20
2.95884912624482
30
0.000000000000000
11
-28.2987244370549
21
2.88114324660524
31
0.000000000000000
  0
LINE
  5
F100E6
330
F100E7
100
AcDbEntity
8
Geo
100
AcDbLine
10
-28.2987244370549
20
2.88114324660524
30
0.000000000000000
11
-28.1987244370549
21
2.80219418846923
31
0.000000000000000
  0
LINE
  5
F100E8
330
F100E9
100
AcDbEntity
8
Geo
100
AcDbLine
10
-28.1987244370549
20
2.80219418846923
30
0.000000000000000
11
-28.0987244370549
21
2.72203353040741
31
0.000000000000000
  0
LINE
  5
F100EA
330
F100EB
100
AcDbEntity
8
Geo
100
AcDbLine
10
-28.0987244370549
20
2.72203353040741
30
0.000000000000000
11
-27.9987244370549
21
2.64069333561420
31
0.000000000000000
  0
LINE
  5
F100EC
330
F100ED
100
AcDbEntity
8
Geo
100
AcDbLine
10
-27.9987244370549
20
2.64069333561420
30
0.000000000000000
11
-27.8987244370549
21
2.55820613908301
31
0.000000000000000
  0
LINE
  5
F100EE
330
F100EF
100
AcDbEntity
8
Geo
100
AcDbLine
10
-27.8987244370549
20
2.55820613908301
30
0.000000000000000
11
-27.7987244370549
21
2.47460493459262
31
0.000000000000000
  0
LINE
  5
F100F0
330
F100F1
100
AcDbEntity
8
Geo
100
AcDbLine
10
-27.7987244370549
20
2.47460493459262
30
0.000000000000000
11
-27.6987244370549
21
2.38992316151017
31
0.000000000000000
  0
LINE
  5
F100F2
330
F100F3
100
AcDbEntity
8
Geo
100
AcDbLine
10
-27.6987244370549
20
2.38992316151017
30
0.000000000000000
11
-27.5987244370549
21
2.30419469141581
31
0.000000000000000
  0
LINE
  5
F100F4
330
F100F5
100
AcDbEntity
8
Geo
100
AcDbLine
10
-27.5987244370549
20
2.30419469141581
30
0.000000000000000
11
-27.4987244370549
21
2.21745381455456
31
0.000000000000000
  0
LINE
  5
F100F6
330
F100F7
100
AcDbEntity
8
Geo
100
AcDbLine
10
-27.4987244370549
20
2.21745381455456
30
0.000000000000000
11
-27.3987244370549
21
2.12973522612062
31
0.000000000000000
  0
LINE
  5
F100F8
330
F100F9
100
AcDbEntity
8
Geo
100
AcDbLine
10
-27.3987244370549
20
2.12973522612062
30
0.000000000000000
11
-27.2987244370549
21
2.04107401237981
31
0.000000000000000
  0
LINE
  5
F100FA
330
F100FB
100
AcDbEntity
8
Geo
100
AcDbLine
10
-27.2987244370549
20
2.04107401237981
30
0.000000000000000
11
-27.1987244370549
21
1.95150563663549
31
0.000000000000000
  0
LINE
  5
F100FC
330
F100FD
100
AcDbEntity
8
Geo
100
AcDbLine
10
-27.1987244370549
20
1.95150563663549
30
0.000000000000000
11
-27.0987244370549
21
1.86106592504372
31
0.000000000000000
  0
LINE
  5
F100FE
330
F100FF
100
AcDbEntity
8
Geo
100
AcDbLine
10
-27.0987244370549
20
1.86106592504372
30
0.000000000000000
11
-26.9987244370549
21
1.76979105228329
31
0.000000000000000
  0
LINE
  5
F10100
330
F10101
100
AcDbEntity
8
Geo
100
AcDbLine
10
-26.9987244370549
20
1.76979105228329
30
0.000000000000000
11
-26.8987244370549
21
1.67771752708634
31
0.000000000000000
  0
LINE
  5
F10102
330
F10103
100
AcDbEntity
8
Geo
100
AcDbLine
10
-26.8987244370549
20
1.67771752708634
30
0.000000000000000
11
-26.7987244370549
21
1.58488217763530
31
0.000000000000000
  0
LINE
  5
F10104
330
F10105
100
AcDbEntity
8
Geo
100
AcDbLine
10
-26.7987244370549
20
1.58488217763530
30
0.000000000000000
11
-26.6987244370549
21
1.49132213683217
31
0.000000000000000
  0
LINE
  5
F10106
330
F10107
100
AcDbEntity
8
Geo
100
AcDbLine
10
-26.6987244370549
20
1.49132213683217
30
0.000000000000000
11
-26.5987244370549
21
1.39707482744581
31
0.000000000000000
  0
LINE
  5
F10108
330
F10109
100
AcDbEntity
8
Geo
100
AcDbLine
10
-26.5987244370549
20
1.39707482744581
30
0.000000000000000
11
-26.4987244370549
21
1.30217794714338
31
0.000000000000000
  0
LINE
  5
F1010A
330
F1010B
100
AcDbEntity
8
Geo
100
AcDbLine
10
-26.4987244370549
20
1.30217794714338
30
0.000000000000000
11
-26.3987244370549
21
1.20666945341171
31
0.000000000000000
  0
LINE
  5
F1010C
330
F1010D
100
AcDbEntity
8
Geo
100
AcDbLine
10
-26.3987244370549
20
1.20666945341171
30
0.000000000000000
11
-26.2987244370549
21
1.11058754837487
31
0.000000000000000
  0
LINE
  5
F1010E
330
F1010F
100
AcDbEntity
8
Geo
100
AcDbLine
10
-26.2987244370549
20
1.11058754837487
30
0.000000000000000
11
-26.1987244370549
21
1.01397066351380
31
0.000000000000000
  0
LINE
  5
F10110
330
F10111
100
AcDbEntity
8
Geo
100
AcDbLine
10
-26.1987244370549
20
1.01397066351380
30
0.000000000000000
11
-26.0987244370549
21
0.916857444294236
31
0.000000000000000
  0
LINE
  5
F10112
330
F10113
100
AcDbEntity
8
Geo
100
AcDbLine
10
-26.0987244370549
20
0.916857444294236
30
0.000000000000000
11
-25.9987244370549
21
0.819286734709037
31
0.000000000000000
  0
LINE
  5
F10114
330
F10115
100
AcDbEntity
8
Geo
100
AcDbLine
10
-25.9987244370549
20
0.819286734709037
30
0.000000000000000
11
-25.8987244370549
21
0.721297561741113
31
0.000000000000000
  0
LINE
  5
F10116
330
F10117
100
AcDbEntity
8
Geo
100
AcDbLine
10
-25.8987244370549
20
0.721297561741113
30
0.000000000000000
11
-25.7987244370549
21
0.622929119753147
31
0.000000000000000
  0
LINE
  5
F10118
330
F10119
100
AcDbEntity
8
Geo
100
AcDbLine
10
-25.7987244370549
20
0.622929119753147
30
0.000000000000000
11
-25.6987244370549
21
0.524220754810372
31
0.000000000000000
  0
LINE
  5
F1011A
330
F1011B
100
AcDbEntity
8
Geo
100
AcDbLine
10
-25.6987244370549
20
0.524220754810372
30
0.000000000000000
11
-25.5987244370549
21
0.425211948942672
31
0.000000000000000
  0
LINE
  5
F1011C
330
F1011D
100
AcDbEntity
8
Geo
100
AcDbLine
10
-25.5987244370549
20
0.425211948942672
30
0.000000000000000
11
-25.4987244370549
21
0.325942304352293
31
0.000000000000000
  0
LINE
  5
F1011E
330
F1011F
100
AcDbEntity
8
Geo
100
AcDbLine
10
-25.4987244370549
20
0.325942304352293
30
0.000000000000000
11
-25.3987244370549
21
0.226451527573495
31
0.000000000000000
  0
LINE
  5
F10120
330
F10121
100
AcDbEntity
8
Geo
100
AcDbLine
10
-25.3987244370549
20
0.226451527573495
30
0.000000000000000
11
-25.2987244370549
21
0.126779413590462
31
0.000000000000000
  0
LINE
  5
F10122
330
F10123
100
AcDbEntity
8
Geo
100
AcDbLine
10
-25.2987244370549
20
0.126779413590462
30
0.000000000000000
11
-25.1987244370549
21
0.0269658299198445
31
0.000000000000000
  0
LINE
  5
F10124
330
F10125
100
AcDbEntity
8
Geo
100
AcDbLine
10
-25.1987244370549
20
0.0269658299198445
30
0.000000000000000
11
-25.0987244370549
21
-0.0729492993357196
31
0.000000000000000
  0
LINE
  5
F10126
330
F10127
100
AcDbEntity
8
Geo
100
AcDbLine
10
-25.0987244370549
20
-0.0729492993357196
30
0.000000000000000
11
-24.9987244370549
21
-0.172926009456712
31
0.000000000000000
  0
LINE
  5
F10128
330
F10129
100
AcDbEntity
8
Geo
100
AcDbLine
10
-24.9987244370549
20
-0.172926009456712
30
0.000000000000000
11
-24.8987244370549
21
-0.272924311092090
31
0.000000000000000
  0
LINE
  5
F1012A
330
F1012B
100
AcDbEntity
8
Geo
100
AcDbLine
10
-24.8987244370549
20
-0.272924311092090
30
0.000000000000000
11
-24.7987244370549
21
-0.372904206254491
31
0.000000000000000
  0
LINE
  5
F1012C
330
F1012D
100
AcDbEntity
8
Geo
100
AcDbLine
10
-24.7987244370549
20
-0.372904206254491
30
0.000000000000000
11
-24.6987244370549
21
-0.472825704318899
31
0.000000000000000
  0
LINE
  5
F1012E
330
F1012F
100
AcDbEntity
8
Geo
100
AcDbLine
10
-24.6987244370549
20
-0.472825704318899
30
0.000000000000000
11
-24.5987244370549
21
-0.572648838018356
31
0.000000000000000
  0
LINE
  5
F10130
330
F10131
100
AcDbEntity
8
Geo
100
AcDbLine
10
-24.5987244370549
20
-0.572648838018356
30
0.000000000000000
11
-24.4987244370549
21
-0.672333679430340
31
0.000000000000000
  0
LINE
  5
F10132
330
F10133
100
AcDbEntity
8
Geo
100
AcDbLine
10
-24.4987244370549
20
-0.672333679430340
30
0.000000000000000
11
-24.3987244370549
21
-0.771840355947399
31
0.000000000000000
  0
LINE
  5
F10134
330
F10135
100
AcDbEntity
8
Geo
100
AcDbLine
10
-24.3987244370549
20
-0.771840355947399
30
0.000000000000000
11
-24.2987244370549
21
-0.871129066225666
31
0.000000000000000
  0
LINE
  5
F10136
330
F10137
100
AcDbEntity
8
Geo
100
AcDbLine
10
-24.2987244370549
20
-0.871129066225666
30
0.000000000000000
11
-24.1987244370549
21
-0.970160096104860
31
0.000000000000000
  0
LINE
  5
F10138
330
F10139
100
AcDbEntity
8
Geo
100
AcDbLine
10
-24.1987244370549
20
-0.970160096104860
30
0.000000000000000
11
-24.0987244370549
21
-1.06889383449343
31
0.000000000000000
  0
LINE
  5
F1013A
330
F1013B
100
AcDbEntity
8
Geo
100
AcDbLine
10
-24.0987244370549
20
-1.06889383449343
30
0.000000000000000
11
-23.9987244370549
21
-1.16729078921244
31
0.000000000000000
  0
LINE
  5
F1013C
330
F1013D
100
AcDbEntity
8
Geo
100
AcDbLine
10
-23.9987244370549
20
-1.16729078921244
30
0.000000000000000
11
-23.8987244370549
21
-1.26531160279196
31
0.000000000000000
  0
LINE
  5
F1013E
330
F1013F
100
AcDbEntity
8
Geo
100
AcDbLine
10
-23.8987244370549
20
-1.26531160279196
30
0.000000000000000
11
-23.7987244370549
21
-1.36291706821347
31
0.000000000000000
  0
LINE
  5
F10140
330
F10141
100
AcDbEntity
8
Geo
100
AcDbLine
10
-23.7987244370549
20
-1.36291706821347
30
0.000000000000000
11
-23.6987244370549
21
-1.46006814459221
31
0.000000000000000
  0
LINE
  5
F10142
330
F10143
100
AcDbEntity
8
Geo
100
AcDbLine
10
-23.6987244370549
20
-1.46006814459221
30
0.000000000000000
11
-23.5987244370549
21
-1.55672597279294
31
0.000000000000000
  0
LINE
  5
F10144
330
F10145
100
AcDbEntity
8
Geo
100
AcDbLine
10
-23.5987244370549
20
-1.55672597279294
30
0.000000000000000
11
-23.4987244370549
21
-1.65285189097314
31
0.000000000000000
  0
LINE
  5
F10146
330
F10147
100
AcDbEntity
8
Geo
100
AcDbLine
10
-23.4987244370549
20
-1.65285189097314
30
0.000000000000000
11
-23.3987244370549
21
-1.74840745004720
31
0.000000000000000
  0
LINE
  5
F10148
330
F10149
100
AcDbEntity
8
Geo
100
AcDbLine
10
-23.3987244370549
20
-1.74840745004720
30
0.000000000000000
11
-23.2987244370549
21
-1.84335442906555
31
0.000000000000000
  0
LINE
  5
F1014A
330
F1014B
100
AcDbEntity
8
Geo
100
AcDbLine
10
-23.2987244370549
20
-1.84335442906555
30
0.000000000000000
11
-23.1987244370549
21
-1.93765485050253
31
0.000000000000000
  0
LINE
  5
F1014C
330
F1014D
100
AcDbEntity
8
Geo
100
AcDbLine
10
-23.1987244370549
20
-1.93765485050253
30
0.000000000000000
11
-23.0987244370549
21
-2.03127099544687
31
0.000000000000000
  0
LINE
  5
F1014E
330
F1014F
100
AcDbEntity
8
Geo
100
AcDbLine
10
-23.0987244370549
20
-2.03127099544687
30
0.000000000000000
11
-22.9987244370549
21
-2.12416541868881
31
0.000000000000000
  0
LINE
  5
F10150
330
F10151
100
AcDbEntity
8
Geo
100
AcDbLine
10
-22.9987244370549
20
-2.12416541868881
30
0.000000000000000
11
-22.8987244370549
21
-2.21630096369761
31
0.000000000000000
  0
LINE
  5
F10152
330
F10153
100
AcDbEntity
8
Geo
100
AcDbLine
10
-22.8987244370549
20
-2.21630096369761
30
0.000000000000000
11
-22.7987244370549
21
-2.30764077748374
31
0.000000000000000
  0
LINE
  5
F10154
330
F10155
100
AcDbEntity
8
Geo
100
AcDbLine
10
-22.7987244370549
20
-2.30764077748374
30
0.000000000000000
11
-22.6987244370549
21
-2.39814832533954
31
0.000000000000000
  0
LINE
  5
F10156
330
F10157
100
AcDbEntity
8
Geo
100
AcDbLine
10
-22.6987244370549
20
-2.39814832533954
30
0.000000000000000
11
-22.5987244370549
21
-2.48778740545259
31
0.000000000000000
  0
LINE
  5
F10158
330
F10159
100
AcDbEntity
8
Geo
100
AcDbLine
10
-22.5987244370549
20
-2.48778740545259
30
0.000000000000000
11
-22.4987244370549
21
-2.57652216338604
31
0.000000000000000
  0
LINE
  5
F1015A
330
F1015B
100
AcDbEntity
8
Geo
100
AcDbLine
10
-22.4987244370549
20
-2.57652216338604
30
0.000000000000000
11
-22.3987244370549
21
-2.66431710641983
31
0.000000000000000
  0
LINE
  5
F1015C
330
F1015D
100
AcDbEntity
8
Geo
100
AcDbLine
10
-22.3987244370549
20
-2.66431710641983
30
0.000000000000000
11
-22.2987244370549
21
-2.75113711774732
31
0.000000000000000
  0
LINE
  5
F1015E
330
F1015F
100
AcDbEntity
8
Geo
100
AcDbLine
10
-22.2987244370549
20
-2.75113711774732
30
0.000000000000000
11
-22.1987244370549
21
-2.83694747052157
31
0.000000000000000
  0
LINE
  5
F10160
330
F10161
100
AcDbEntity
8
Geo
100
AcDbLine
10
-22.1987244370549
20
-2.83694747052157
30
0.000000000000000
11
-22.0987244370549
21
-2.92171384174559
31
0.000000000000000
  0
LINE
  5
F10162
330
F10163
100
AcDbEntity
8
Geo
100
AcDbLine
10
-22.0987244370549
20
-2.92171384174559
30
0.000000000000000
11
-21.9987244370549
21
-3.00540232600110
31
0.000000000000000
  0
LINE
  5
F10164
330
F10165
100
AcDbEntity
8
Geo
100
AcDbLine
10
-21.9987244370549
20
-3.00540232600110
30
0.000000000000000
11
-21.8987244370549
21
-3.08797944901022
31
0.000000000000000
  0
LINE
  5
F10166
330
F10167
100
AcDbEntity
8
Geo
100
AcDbLine
10
-21.8987244370549
20
-3.08797944901022
30
0.000000000000000
11
-21.7987244370549
21
-3.16941218102477
31
0.000000000000000
  0
LINE
  5
F10168
330
F10169
100
AcDbEntity
8
Geo
100
AcDbLine
10
-21.7987244370549
20
-3.16941218102477
30
0.000000000000000
11
-21.6987244370549
21
-3.24966795003769
31
0.000000000000000
  0
LINE
  5
F1016A
330
F1016B
100
AcDbEntity
8
Geo
100
AcDbLine
10
-21.6987244370549
20
-3.24966795003769
30
0.000000000000000
11
-21.5987244370549
21
-3.32871465481144
31
0.000000000000000
  0
LINE
  5
F1016C
330
F1016D
100
AcDbEntity
8
Geo
100
AcDbLine
10
-21.5987244370549
20
-3.32871465481144
30
0.000000000000000
11
-21.4987244370549
21
-3.40652067771805
31
0.000000000000000
  0
LINE
  5
F1016E
330
F1016F
100
AcDbEntity
8
Geo
100
AcDbLine
10
-21.4987244370549
20
-3.40652067771805
30
0.000000000000000
11
-21.3987244370549
21
-3.48305489738577
31
0.000000000000000
  0
LINE
  5
F10170
330
F10171
100
AcDbEntity
8
Geo
100
AcDbLine
10
-21.3987244370549
20
-3.48305489738577
30
0.000000000000000
11
-21.2987244370549
21
-3.55828670114716
31
0.000000000000000
  0
LINE
  5
F10172
330
F10173
100
AcDbEntity
8
Geo
100
AcDbLine
10
-21.2987244370549
20
-3.55828670114716
30
0.000000000000000
11
-21.1987244370549
21
-3.63218599728381
31
0.000000000000000
  0
LINE
  5
F10174
330
F10175
100
AcDbEntity
8
Geo
100
AcDbLine
10
-21.1987244370549
20
-3.63218599728381
30
0.000000000000000
11
-21.0987244370549
21
-3.70472322706256
31
0.000000000000000
  0
LINE
  5
F10176
330
F10177
100
AcDbEntity
8
Geo
100
AcDbLine
10
-21.0987244370549
20
-3.70472322706256
30
0.000000000000000
11
-20.9987244370549
21
-3.77586937655865
31
0.000000000000000
  0
LINE
  5
F10178
330
F10179
100
AcDbEntity
8
Geo
100
AcDbLine
10
-20.9987244370549
20
-3.77586937655865
30
0.000000000000000
11
-20.8987244370549
21
-3.84559598826089
31
0.000000000000000
  0
LINE
  5
F1017A
330
F1017B
100
AcDbEntity
8
Geo
100
AcDbLine
10
-20.8987244370549
20
-3.84559598826089
30
0.000000000000000
11
-20.7987244370549
21
-3.91387517245427
31
0.000000000000000
  0
LINE
  5
F1017C
330
F1017D
100
AcDbEntity
8
Geo
100
AcDbLine
10
-20.7987244370549
20
-3.91387517245427
30
0.000000000000000
11
-20.6987244370549
21
-3.98067961837550
31
0.000000000000000
  0
LINE
  5
F1017E
330
F1017F
100
AcDbEntity
8
Geo
100
AcDbLine
10
-20.6987244370549
20
-3.98067961837550
30
0.000000000000000
11
-20.5987244370549
21
-4.04598260513692
31
0.000000000000000
  0
LINE
  5
F10180
330
F10181
100
AcDbEntity
8
Geo
100
AcDbLine
10
-20.5987244370549
20
-4.04598260513692
30
0.000000000000000
11
-20.4987244370549
21
-4.10975801241451
31
0.000000000000000
  0
LINE
  5
F10182
330
F10183
100
AcDbEntity
8
Geo
100
AcDbLine
10
-20.4987244370549
20
-4.10975801241451
30
0.000000000000000
11
-20.3987244370549
21
-4.17198033089571
31
0.000000000000000
  0
LINE
  5
F10184
330
F10185
100
AcDbEntity
8
Geo
100
AcDbLine
10
-20.3987244370549
20
-4.17198033089571
30
0.000000000000000
11
-20.2987244370549
21
-4.23262467248272
31
0.000000000000000
  0
LINE
  5
F10186
330
F10187
100
AcDbEntity
8
Geo
100
AcDbLine
10
-20.2987244370549
20
-4.23262467248272
30
0.000000000000000
11
-20.1987244370549
21
-4.29166678024750
31
0.000000000000000
  0
LINE
  5
F10188
330
F10189
100
AcDbEntity
8
Geo
100
AcDbLine
10
-20.1987244370549
20
-4.29166678024750
30
0.000000000000000
11
-20.0987244370549
21
-4.34908303813417
31
0.000000000000000
  0
LINE
  5
F1018A
330
F1018B
100
AcDbEntity
8
Geo
100
AcDbLine
10
-20.0987244370549
20
-4.34908303813417
30
0.000000000000000
11
-19.9987244370549
21
-4.40485048040509
31
0.000000000000000
  0
LINE
  5
F1018C
330
F1018D
100
AcDbEntity
8
Geo
100
AcDbLine
10
-19.9987244370549
20
-4.40485048040509
30
0.000000000000000
11
-19.8987244370549
21
-4.45894680082693
31
0.000000000000000
  0
LINE
  5
F1018E
330
F1018F
100
AcDbEntity
8
Geo
100
AcDbLine
10
-19.8987244370549
20
-4.45894680082693
30
0.000000000000000
11
-19.7987244370549
21
-4.51135036159279
31
0.000000000000000
  0
LINE
  5
F10190
330
F10191
100
AcDbEntity
8
Geo
100
AcDbLine
10
-19.7987244370549
20
-4.51135036159279
30
0.000000000000000
11
-19.6987244370549
21
-4.56204020197707
31
0.000000000000000
  0
LINE
  5
F10192
330
F10193
100
AcDbEntity
8
Geo
100
AcDbLine
10
-19.6987244370549
20
-4.56204020197707
30
0.000000000000000
11
-19.5987244370549
21
-4.61099604671947
31
0.000000000000000
  0
LINE
  5
F10194
330
F10195
100
AcDbEntity
8
Geo
100
AcDbLine
10
-19.5987244370549
20
-4.61099604671947
30
0.000000000000000
11
-19.4987244370549
21
-4.65819831413482
31
0.000000000000000
  0
LINE
  5
F10196
330
F10197
100
AcDbEntity
8
Geo
100
AcDbLine
10
-19.4987244370549
20
-4.65819831413482
30
0.000000000000000
11
-19.3987244370549
21
-4.70362812394552
31
0.000000000000000
  0
LINE
  5
F10198
330
F10199
100
AcDbEntity
8
Geo
100
AcDbLine
10
-19.3987244370549
20
-4.70362812394552
30
0.000000000000000
11
-19.2987244370549
21
-4.74726730483337
31
0.000000000000000
  0
LINE
  5
F1019A
330
F1019B
100
AcDbEntity
8
Geo
100
AcDbLine
10
-19.2987244370549
20
-4.74726730483337
30
0.000000000000000
11
-19.1987244370549
21
-4.78909840170785
31
0.000000000000000
  0
LINE
  5
F1019C
330
F1019D
100
AcDbEntity
8
Geo
100
AcDbLine
10
-19.1987244370549
20
-4.78909840170785
30
0.000000000000000
11
-19.0987244370549
21
-4.82910468268797
31
0.000000000000000
  0
LINE
  5
F1019E
330
F1019F
100
AcDbEntity
8
Geo
100
AcDbLine
10
-19.0987244370549
20
-4.82910468268797
30
0.000000000000000
11
-18.9987244370549
21
-4.86727014579473
31
0.000000000000000
  0
LINE
  5
F101A0
330
F101A1
100
AcDbEntity
8
Geo
100
AcDbLine
10
-18.9987244370549
20
-4.86727014579473
30
0.000000000000000
11
-18.8987244370549
21
-4.90357952535176
31
0.000000000000000
  0
LINE
  5
F101A2
330
F101A3
100
AcDbEntity
8
Geo
100
AcDbLine
10
-18.8987244370549
20
-4.90357952535176
30
0.000000000000000
11
-18.7987244370549
21
-4.93801829809136
31
0.000000000000000
  0
LINE
  5
F101A4
330
F101A5
100
AcDbEntity
8
Geo
100
AcDbLine
10
-18.7987244370549
20
-4.93801829809136
30
0.000000000000000
11
-18.6987244370549
21
-4.97057268896361
31
0.000000000000000
  0
LINE
  5
F101A6
330
F101A7
100
AcDbEntity
8
Geo
100
AcDbLine
10
-18.6987244370549
20
-4.97057268896361
30
0.000000000000000
11
-18.5987244370549
21
-5.00122967664620
31
0.000000000000000
  0
LINE
  5
F101A8
330
F101A9
100
AcDbEntity
8
Geo
100
AcDbLine
10
-18.5987244370549
20
-5.00122967664620
30
0.000000000000000
11
-18.4987244370549
21
-5.02997699875283
31
0.000000000000000
  0
LINE
  5
F101AA
330
F101AB
100
AcDbEntity
8
Geo
100
AcDbLine
10
-18.4987244370549
20
-5.02997699875283
30
0.000000000000000
11
-18.3987244370549
21
-5.05680315673795
31
0.000000000000000
  0
LINE
  5
F101AC
330
F101AD
100
AcDbEntity
8
Geo
100
AcDbLine
10
-18.3987244370549
20
-5.05680315673795
30
0.000000000000000
11
-18.2987244370549
21
-5.08169742049603
31
0.000000000000000
  0
LINE
  5
F101AE
330
F101AF
100
AcDbEntity
8
Geo
100
AcDbLine
10
-18.2987244370549
20
-5.08169742049603
30
0.000000000000000
11
-18.1987244370549
21
-5.10464983265349
31
0.000000000000000
  0
LINE
  5
F101B0
330
F101B1
100
AcDbEntity
8
Geo
100
AcDbLine
10
-18.1987244370549
20
-5.10464983265349
30
0.000000000000000
11
-18.0987244370549
21
-5.12565121255150
31
0.000000000000000
  0
LINE
  5
F101B2
330
F101B3
100
AcDbEntity
8
Geo
100
AcDbLine
10
-18.0987244370549
20
-5.12565121255150
30
0.000000000000000
11
-17.9987244370549
21
-5.14469315991811
31
0.000000000000000
  0
LINE
  5
F101B4
330
F101B5
100
AcDbEntity
8
Geo
100
AcDbLine
10
-17.9987244370549
20
-5.14469315991811
30
0.000000000000000
11
-17.8987244370549
21
-5.16176805822827
31
0.000000000000000
  0
LINE
  5
F101B6
330
F101B7
100
AcDbEntity
8
Geo
100
AcDbLine
10
-17.8987244370549
20
-5.16176805822827
30
0.000000000000000
11
-17.7987244370549
21
-5.17686907775031
31
0.000000000000000
  0
LINE
  5
F101B8
330
F101B9
100
AcDbEntity
8
Geo
100
AcDbLine
10
-17.7987244370549
20
-5.17686907775031
30
0.000000000000000
11
-17.6987244370549
21
-5.18999017827777
31
0.000000000000000
  0
LINE
  5
F101BA
330
F101BB
100
AcDbEntity
8
Geo
100
AcDbLine
10
-17.6987244370549
20
-5.18999017827777
30
0.000000000000000
11
-17.5987244370549
21
-5.20112611154538
31
0.000000000000000
  0
LINE
  5
F101BC
330
F101BD
100
AcDbEntity
8
Geo
100
AcDbLine
10
-17.5987244370549
20
-5.20112611154538
30
0.000000000000000
11
-17.4987244370549
21
-5.21027242332832
31
0.000000000000000
  0
LINE
  5
F101BE
330
F101BF
100
AcDbEntity
8
Geo
100
AcDbLine
10
-17.4987244370549
20
-5.21027242332832
30
0.000000000000000
11
-17.3987244370549
21
-5.21742545522381
31
0.000000000000000
  0
LINE
  5
F101C0
330
F101C1
100
AcDbEntity
8
Geo
100
AcDbLine
10
-17.3987244370549
20
-5.21742545522381
30
0.000000000000000
11
-17.2987244370549
21
-5.22258234611448
31
0.000000000000000
  0
LINE
  5
F101C2
330
F101C3
100
AcDbEntity
8
Geo
100
AcDbLine
10
-17.2987244370549
20
-5.22258234611448
30
0.000000000000000
11
-17.1987244370549
21
-5.22574103331273
31
0.000000000000000
  0
LINE
  5
F101C4
330
F101C5
100
AcDbEntity
8
Geo
100
AcDbLine
10
-17.1987244370549
20
-5.22574103331273
30
0.000000000000000
11
-17.0987244370549
21
-5.22690025338578
31
0.000000000000000
  0
LINE
  5
F101C6
330
F101C7
100
AcDbEntity
8
Geo
100
AcDbLine
10
-17.0987244370549
20
-5.22690025338578
30
0.000000000000000
11
-17.0907607583012
21
-5.22690659474809
31
0.000000000000000
  0
LINE
  5
F101C8
330
F101C9
100
AcDbEntity
8
Geo
100
AcDbLine
10
-32.7987244370549
20
-2.68907016064074
30
0.000000000000000
11
-32.6987244370549
21
-2.81300337840577
31
0.000000000000000
  0
LINE
  5
F101CA
330
F101CB
100
AcDbEntity
8
Geo
100
AcDbLine
10
-32.6987244370549
20
-2.81300337840577
30
0.000000000000000
11
-32.6987244370549
21
-2.81300337840577
31
0.000000000000000
  0
LINE
  5
F101CC
330
F101CD
100
AcDbEntity
8
Geo
100
AcDbLine
10
-32.6987244370549
20
-2.81300337840577
30
0.000000000000000
11
-32.5987244370549
21
-2.89806575783080
31
0.000000000000000
  0
LINE
  5
F101CE
330
F101CF
100
AcDbEntity
8
Geo
100
AcDbLine
10
-32.5987244370549
20
-2.89806575783080
30
0.000000000000000
11
-32.4987244370549
21
-2.98205970920558
31
0.000000000000000
  0
LINE
  5
F101D0
330
F101D1
100
AcDbEntity
8
Geo
100
AcDbLine
10
-32.4987244370549
20
-2.98205970920558
30
0.000000000000000
11
-32.3987244370549
21
-3.06495163606947
31
0.000000000000000
  0
LINE
  5
F101D2
330
F101D3
100
AcDbEntity
8
Geo
100
AcDbLine
10
-32.3987244370549
20
-3.06495163606947
30
0.000000000000000
11
-32.2987244370549
21
-3.14670838275692
31
0.000000000000000
  0
LINE
  5
F101D4
330
F101D5
100
AcDbEntity
8
Geo
100
AcDbLine
10
-32.2987244370549
20
-3.14670838275692
30
0.000000000000000
11
-32.1987244370549
21
-3.22729724765933
31
0.000000000000000
  0
LINE
  5
F101D6
330
F101D7
100
AcDbEntity
8
Geo
100
AcDbLine
10
-32.1987244370549
20
-3.22729724765933
30
0.000000000000000
11
-32.0987244370549
21
-3.30668599630526
31
0.000000000000000
  0
LINE
  5
F101D8
330
F101D9
100
AcDbEntity
8
Geo
100
AcDbLine
10
-32.0987244370549
20
-3.30668599630526
30
0.000000000000000
11
-31.9987244370549
21
-3.38484287425375
31
0.000000000000000
  0
LINE
  5
F101DA
330
F101DB
100
AcDbEntity
8
Geo
100
AcDbLine
10
-31.9987244370549
20
-3.38484287425375
30
0.000000000000000
11
-31.8987244370549
21
-3.46173661979568
31
0.000000000000000
  0
LINE
  5
F101DC
330
F101DD
100
AcDbEntity
8
Geo
100
AcDbLine
10
-31.8987244370549
20
-3.46173661979568
30
0.000000000000000
11
-31.7987244370549
21
-3.53733647645809
31
0.000000000000000
  0
LINE
  5
F101DE
330
F101DF
100
AcDbEntity
8
Geo
100
AcDbLine
10
-31.7987244370549
20
-3.53733647645809
30
0.000000000000000
11
-31.6987244370549
21
-3.61161220530629
31
0.000000000000000
  0
LINE
  5
F101E0
330
F101E1
100
AcDbEntity
8
Geo
100
AcDbLine
10
-31.6987244370549
20
-3.61161220530629
30
0.000000000000000
11
-31.5987244370549
21
-3.68453409703908
31
0.000000000000000
  0
LINE
  5
F101E2
330
F101E3
100
AcDbEntity
8
Geo
100
AcDbLine
10
-31.5987244370549
20
-3.68453409703908
30
0.000000000000000
11
-31.4987244370549
21
-3.75607298387203
31
0.000000000000000
  0
LINE
  5
F101E4
330
F101E5
100
AcDbEntity
8
Geo
100
AcDbLine
10
-31.4987244370549
20
-3.75607298387203
30
0.000000000000000
11
-31.3987244370549
21
-3.82620025120426
31
0.000000000000000
  0
LINE
  5
F101E6
330
F101E7
100
AcDbEntity
8
Geo
100
AcDbLine
10
-31.3987244370549
20
-3.82620025120426
30
0.000000000000000
11
-31.2987244370549
21
-3.89488784906385
31
0.000000000000000
  0
LINE
  5
F101E8
330
F101E9
100
AcDbEntity
8
Geo
100
AcDbLine
10
-31.2987244370549
20
-3.89488784906385
30
0.000000000000000
11
-31.1987244370549
21
-3.96210830332748
31
0.000000000000000
  0
LINE
  5
F101EA
330
F101EB
100
AcDbEntity
8
Geo
100
AcDbLine
10
-31.1987244370549
20
-3.96210830332748
30
0.000000000000000
11
-31.0987244370549
21
-4.02783472670970
31
0.000000000000000
  0
LINE
  5
F101EC
330
F101ED
100
AcDbEntity
8
Geo
100
AcDbLine
10
-31.0987244370549
20
-4.02783472670970
30
0.000000000000000
11
-30.9987244370549
21
-4.09204082951750
31
0.000000000000000
  0
LINE
  5
F101EE
330
F101EF
100
AcDbEntity
8
Geo
100
AcDbLine
10
-30.9987244370549
20
-4.09204082951750
30
0.000000000000000
11
-30.8987244370549
21
-4.15470093016583
31
0.000000000000000
  0
LINE
  5
F101F0
330
F101F1
100
AcDbEntity
8
Geo
100
AcDbLine
10
-30.8987244370549
20
-4.15470093016583
30
0.000000000000000
11
-30.7987244370549
21
-4.21578996544989
31
0.000000000000000
  0
LINE
  5
F101F2
330
F101F3
100
AcDbEntity
8
Geo
100
AcDbLine
10
-30.7987244370549
20
-4.21578996544989
30
0.000000000000000
11
-30.6987244370549
21
-4.27528350057007
31
0.000000000000000
  0
LINE
  5
F101F4
330
F101F5
100
AcDbEntity
8
Geo
100
AcDbLine
10
-30.6987244370549
20
-4.27528350057007
30
0.000000000000000
11
-30.5987244370549
21
-4.33315773890556
31
0.000000000000000
  0
LINE
  5
F101F6
330
F101F7
100
AcDbEntity
8
Geo
100
AcDbLine
10
-30.5987244370549
20
-4.33315773890556
30
0.000000000000000
11
-30.4987244370549
21
-4.38938953153267
31
0.000000000000000
  0
LINE
  5
F101F8
330
F101F9
100
AcDbEntity
8
Geo
100
AcDbLine
10
-30.4987244370549
20
-4.38938953153267
30
0.000000000000000
11
-30.3987244370549
21
-4.44395638648410
31
0.000000000000000
  0
LINE
  5
F101FA
330
F101FB
100
AcDbEntity
8
Geo
100
AcDbLine
10
-30.3987244370549
20
-4.44395638648410
30
0.000000000000000
11
-30.2987244370549
21
-4.49683647774541
31
0.000000000000000
  0
LINE
  5
F101FC
330
F101FD
100
AcDbEntity
8
Geo
100
AcDbLine
10
-30.2987244370549
20
-4.49683647774541
30
0.000000000000000
11
-30.1987244370549
21
-4.54800865398517
31
0.000000000000000
  0
LINE
  5
F101FE
330
F101FF
100
AcDbEntity
8
Geo
100
AcDbLine
10
-30.1987244370549
20
-4.54800865398517
30
0.000000000000000
11
-30.0987244370549
21
-4.59745244701516
31
0.000000000000000
  0
LINE
  5
F10200
330
F10201
100
AcDbEntity
8
Geo
100
AcDbLine
10
-30.0987244370549
20
-4.59745244701516
30
0.000000000000000
11
-29.9987244370549
21
-4.64514807997740
31
0.000000000000000
  0
LINE
  5
F10202
330
F10203
100
AcDbEntity
8
Geo
100
AcDbLine
10
-29.9987244370549
20
-4.64514807997740
30
0.000000000000000
11
-29.8987244370549
21
-4.69107647525466
31
0.000000000000000
  0
LINE
  5
F10204
330
F10205
100
AcDbEntity
8
Geo
100
AcDbLine
10
-29.8987244370549
20
-4.69107647525466
30
0.000000000000000
11
-29.7987244370549
21
-4.73521926210119
31
0.000000000000000
  0
LINE
  5
F10206
330
F10207
100
AcDbEntity
8
Geo
100
AcDbLine
10
-29.7987244370549
20
-4.73521926210119
30
0.000000000000000
11
-29.6987244370549
21
-4.77755878399081
31
0.000000000000000
  0
LINE
  5
F10208
330
F10209
100
AcDbEntity
8
Geo
100
AcDbLine
10
-29.6987244370549
20
-4.77755878399081
30
0.000000000000000
11
-29.5987244370549
21
-4.81807810567928
31
0.000000000000000
  0
LINE
  5
F1020A
330
F1020B
100
AcDbEntity
8
Geo
100
AcDbLine
10
-29.5987244370549
20
-4.81807810567928
30
0.000000000000000
11
-29.4987244370549
21
-4.85676101997819
31
0.000000000000000
  0
LINE
  5
F1020C
330
F1020D
100
AcDbEntity
8
Geo
100
AcDbLine
10
-29.4987244370549
20
-4.85676101997819
30
0.000000000000000
11
-29.3987244370549
21
-4.89359205423758
31
0.000000000000000
  0
LINE
  5
F1020E
330
F1020F
100
AcDbEntity
8
Geo
100
AcDbLine
10
-29.3987244370549
20
-4.89359205423758
30
0.000000000000000
11
-29.2987244370549
21
-4.92855647653481
31
0.000000000000000
  0
LINE
  5
F10210
330
F10211
100
AcDbEntity
8
Geo
100
AcDbLine
10
-29.2987244370549
20
-4.92855647653481
30
0.000000000000000
11
-29.1987244370549
21
-4.96164030156715
31
0.000000000000000
  0
LINE
  5
F10212
330
F10213
100
AcDbEntity
8
Geo
100
AcDbLine
10
-29.1987244370549
20
-4.96164030156715
30
0.000000000000000
11
-29.0987244370549
21
-4.99283029624571
31
0.000000000000000
  0
LINE
  5
F10214
330
F10215
100
AcDbEntity
8
Geo
100
AcDbLine
10
-29.0987244370549
20
-4.99283029624571
30
0.000000000000000
11
-28.9987244370549
21
-5.02211398498848
31
0.000000000000000
  0
LINE
  5
F10216
330
F10217
100
AcDbEntity
8
Geo
100
AcDbLine
10
-28.9987244370549
20
-5.02211398498848
30
0.000000000000000
11
-28.8987244370549
21
-5.04947965471039
31
0.000000000000000
  0
LINE
  5
F10218
330
F10219
100
AcDbEntity
8
Geo
100
AcDbLine
10
-28.8987244370549
20
-5.04947965471039
30
0.000000000000000
11
-28.7987244370549
21
-5.07491635950843
31
0.000000000000000
  0
LINE
  5
F1021A
330
F1021B
100
AcDbEntity
8
Geo
100
AcDbLine
10
-28.7987244370549
20
-5.07491635950843
30
0.000000000000000
11
-28.6987244370549
21
-5.09841392503984
31
0.000000000000000
  0
LINE
  5
F1021C
330
F1021D
100
AcDbEntity
8
Geo
100
AcDbLine
10
-28.6987244370549
20
-5.09841392503984
30
0.000000000000000
11
-28.5987244370549
21
-5.11996295259170
31
0.000000000000000
  0
LINE
  5
F1021E
330
F1021F
100
AcDbEntity
8
Geo
100
AcDbLine
10
-28.5987244370549
20
-5.11996295259170
30
0.000000000000000
11
-28.4987244370549
21
-5.13955482284030
31
0.000000000000000
  0
LINE
  5
F10220
330
F10221
100
AcDbEntity
8
Geo
100
AcDbLine
10
-28.4987244370549
20
-5.13955482284030
30
0.000000000000000
11
-28.3987244370549
21
-5.15718169929877
31
0.000000000000000
  0
LINE
  5
F10222
330
F10223
100
AcDbEntity
8
Geo
100
AcDbLine
10
-28.3987244370549
20
-5.15718169929877
30
0.000000000000000
11
-28.2987244370549
21
-5.17283653145154
31
0.000000000000000
  0
LINE
  5
F10224
330
F10225
100
AcDbEntity
8
Geo
100
AcDbLine
10
-28.2987244370549
20
-5.17283653145154
30
0.000000000000000
11
-28.1987244370549
21
-5.18651305757448
31
0.000000000000000
  0
LINE
  5
F10226
330
F10227
100
AcDbEntity
8
Geo
100
AcDbLine
10
-28.1987244370549
20
-5.18651305757448
30
0.000000000000000
11
-28.0987244370549
21
-5.19820580723950
31
0.000000000000000
  0
LINE
  5
F10228
330
F10229
100
AcDbEntity
8
Geo
100
AcDbLine
10
-28.0987244370549
20
-5.19820580723950
30
0.000000000000000
11
-27.9987244370549
21
-5.20791010350263
31
0.000000000000000
  0
LINE
  5
F1022A
330
F1022B
100
AcDbEntity
8
Geo
100
AcDbLine
10
-27.9987244370549
20
-5.20791010350263
30
0.000000000000000
11
-27.8987244370549
21
-5.21562206477475
31
0.000000000000000
  0
LINE
  5
F1022C
330
F1022D
100
AcDbEntity
8
Geo
100
AcDbLine
10
-27.8987244370549
20
-5.21562206477475
30
0.000000000000000
11
-27.7987244370549
21
-5.22133860637418
31
0.000000000000000
  0
LINE
  5
F1022E
330
F1022F
100
AcDbEntity
8
Geo
100
AcDbLine
10
-27.7987244370549
20
-5.22133860637418
30
0.000000000000000
11
-27.6987244370549
21
-5.22505744176049
31
0.000000000000000
  0
LINE
  5
F10230
330
F10231
100
AcDbEntity
8
Geo
100
AcDbLine
10
-27.6987244370549
20
-5.22505744176049
30
0.000000000000000
11
-27.5987244370549
21
-5.22677708344913
31
0.000000000000000
  0
LINE
  5
F10232
330
F10233
100
AcDbEntity
8
Geo
100
AcDbLine
10
-27.5987244370549
20
-5.22677708344913
30
0.000000000000000
11
-27.5627362506756
21
-5.22690659474809
31
0.000000000000000
  0
LINE
  5
F10234
330
F10235
100
AcDbEntity
8
Geo
100
AcDbLine
10
-22.3267495161146
20
4.77309340525191
30
0.000000000000000
11
-22.2987244370549
21
4.77301486826456
31
0.000000000000000
  0
LINE
  5
F10236
330
F10237
100
AcDbEntity
8
Geo
100
AcDbLine
10
-22.2987244370549
20
4.77301486826456
30
0.000000000000000
11
-22.1987244370549
21
4.77145446784330
31
0.000000000000000
  0
LINE
  5
F10238
330
F10239
100
AcDbEntity
8
Geo
100
AcDbLine
10
-22.1987244370549
20
4.77145446784330
30
0.000000000000000
11
-22.0987244370549
21
4.76789478964093
31
0.000000000000000
  0
LINE
  5
F1023A
330
F1023B
100
AcDbEntity
8
Geo
100
AcDbLine
10
-22.0987244370549
20
4.76789478964093
30
0.000000000000000
11
-21.9987244370549
21
4.76233725748127
31
0.000000000000000
  0
LINE
  5
F1023C
330
F1023D
100
AcDbEntity
8
Geo
100
AcDbLine
10
-21.9987244370549
20
4.76233725748127
30
0.000000000000000
11
-21.8987244370549
21
4.75478409430307
31
0.000000000000000
  0
LINE
  5
F1023E
330
F1023F
100
AcDbEntity
8
Geo
100
AcDbLine
10
-21.8987244370549
20
4.75478409430307
30
0.000000000000000
11
-21.7987244370549
21
4.74523832127092
31
0.000000000000000
  0
LINE
  5
F10240
330
F10241
100
AcDbEntity
8
Geo
100
AcDbLine
10
-21.7987244370549
20
4.74523832127092
30
0.000000000000000
11
-21.6987244370549
21
4.73370375656674
31
0.000000000000000
  0
LINE
  5
F10242
330
F10243
100
AcDbEntity
8
Geo
100
AcDbLine
10
-21.6987244370549
20
4.73370375656674
30
0.000000000000000
11
-21.5987244370549
21
4.72018501386262
31
0.000000000000000
  0
LINE
  5
F10244
330
F10245
100
AcDbEntity
8
Geo
100
AcDbLine
10
-21.5987244370549
20
4.72018501386262
30
0.000000000000000
11
-21.4987244370549
21
4.70468750047540
31
0.000000000000000
  0
LINE
  5
F10246
330
F10247
100
AcDbEntity
8
Geo
100
AcDbLine
10
-21.4987244370549
20
4.70468750047540
30
0.000000000000000
11
-21.3987244370549
21
4.68721741520381
31
0.000000000000000
  0
LINE
  5
F10248
330
F10249
100
AcDbEntity
8
Geo
100
AcDbLine
10
-21.3987244370549
20
4.68721741520381
30
0.000000000000000
11
-21.2987244370549
21
4.66778174584901
31
0.000000000000000
  0
LINE
  5
F1024A
330
F1024B
100
AcDbEntity
8
Geo
100
AcDbLine
10
-21.2987244370549
20
4.66778174584901
30
0.000000000000000
11
-21.1987244370549
21
4.64638826641961
31
0.000000000000000
  0
LINE
  5
F1024C
330
F1024D
100
AcDbEntity
8
Geo
100
AcDbLine
10
-21.1987244370549
20
4.64638826641961
30
0.000000000000000
11
-21.0987244370549
21
4.62304553402215
31
0.000000000000000
  0
LINE
  5
F1024E
330
F1024F
100
AcDbEntity
8
Geo
100
AcDbLine
10
-21.0987244370549
20
4.62304553402215
30
0.000000000000000
11
-20.9987244370549
21
4.59776288543834
31
0.000000000000000
  0
LINE
  5
F10250
330
F10251
100
AcDbEntity
8
Geo
100
AcDbLine
10
-20.9987244370549
20
4.59776288543834
30
0.000000000000000
11
-20.8987244370549
21
4.57055043339053
31
0.000000000000000
  0
LINE
  5
F10252
330
F10253
100
AcDbEntity
8
Geo
100
AcDbLine
10
-20.8987244370549
20
4.57055043339053
30
0.000000000000000
11
-20.7987244370549
21
4.54141906249670
31
0.000000000000000
  0
LINE
  5
F10254
330
F10255
100
AcDbEntity
8
Geo
100
AcDbLine
10
-20.7987244370549
20
4.54141906249670
30
0.000000000000000
11
-20.6987244370549
21
4.51038042491681
31
0.000000000000000
  0
LINE
  5
F10256
330
F10257
100
AcDbEntity
8
Geo
100
AcDbLine
10
-20.6987244370549
20
4.51038042491681
30
0.000000000000000
11
-20.5987244370549
21
4.47744693569203
31
0.000000000000000
  0
LINE
  5
F10258
330
F10259
100
AcDbEntity
8
Geo
100
AcDbLine
10
-20.5987244370549
20
4.47744693569203
30
0.000000000000000
11
-20.4987244370549
21
4.44263176777895
31
0.000000000000000
  0
LINE
  5
F1025A
330
F1025B
100
AcDbEntity
8
Geo
100
AcDbLine
10
-20.4987244370549
20
4.44263176777895
30
0.000000000000000
11
-20.3987244370549
21
4.40594884678055
31
0.000000000000000
  0
LINE
  5
F1025C
330
F1025D
100
AcDbEntity
8
Geo
100
AcDbLine
10
-20.3987244370549
20
4.40594884678055
30
0.000000000000000
11
-20.2987244370549
21
4.36741284537611
31
0.000000000000000
  0
LINE
  5
F1025E
330
F1025F
100
AcDbEntity
8
Geo
100
AcDbLine
10
-20.2987244370549
20
4.36741284537611
30
0.000000000000000
11
-20.1987244370549
21
4.32703917745240
31
0.000000000000000
  0
LINE
  5
F10260
330
F10261
100
AcDbEntity
8
Geo
100
AcDbLine
10
-20.1987244370549
20
4.32703917745240
30
0.000000000000000
11
-20.0987244370549
21
4.28484399193828
31
0.000000000000000
  0
LINE
  5
F10262
330
F10263
100
AcDbEntity
8
Geo
100
AcDbLine
10
-20.0987244370549
20
4.28484399193828
30
0.000000000000000
11
-19.9987244370549
21
4.24084416634535
31
0.000000000000000
  0
LINE
  5
F10264
330
F10265
100
AcDbEntity
8
Geo
100
AcDbLine
10
-19.9987244370549
20
4.24084416634535
30
0.000000000000000
11
-19.8987244370549
21
4.19505730001721
31
0.000000000000000
  0
LINE
  5
F10266
330
F10267
100
AcDbEntity
8
Geo
100
AcDbLine
10
-19.8987244370549
20
4.19505730001721
30
0.000000000000000
11
-19.7987244370549
21
4.14750170708989
31
0.000000000000000
  0
LINE
  5
F10268
330
F10269
100
AcDbEntity
8
Geo
100
AcDbLine
10
-19.7987244370549
20
4.14750170708989
30
0.000000000000000
11
-19.6987244370549
21
4.09819640916650
31
0.000000000000000
  0
LINE
  5
F1026A
330
F1026B
100
AcDbEntity
8
Geo
100
AcDbLine
10
-19.6987244370549
20
4.09819640916650
30
0.000000000000000
11
-19.5987244370549
21
4.04716112770882
31
0.000000000000000
  0
LINE
  5
F1026C
330
F1026D
100
AcDbEntity
8
Geo
100
AcDbLine
10
-19.5987244370549
20
4.04716112770882
30
0.000000000000000
11
-19.4987244370549
21
3.99441627614896
31
0.000000000000000
  0
LINE
  5
F1026E
330
F1026F
100
AcDbEntity
8
Geo
100
AcDbLine
10
-19.4987244370549
20
3.99441627614896
30
0.000000000000000
11
-19.3987244370549
21
3.93998295172430
31
0.000000000000000
  0
LINE
  5
F10270
330
F10271
100
AcDbEntity
8
Geo
100
AcDbLine
10
-19.3987244370549
20
3.93998295172430
30
0.000000000000000
11
-19.2987244370549
21
3.88388292703884
31
0.000000000000000
  0
LINE
  5
F10272
330
F10273
100
AcDbEntity
8
Geo
100
AcDbLine
10
-19.2987244370549
20
3.88388292703884
30
0.000000000000000
11
-19.1987244370549
21
3.82613864135446
31
0.000000000000000
  0
LINE
  5
F10274
330
F10275
100
AcDbEntity
8
Geo
100
AcDbLine
10
-19.1987244370549
20
3.82613864135446
30
0.000000000000000
11
-19.0987244370549
21
3.76677319161552
31
0.000000000000000
  0
LINE
  5
F10276
330
F10277
100
AcDbEntity
8
Geo
100
AcDbLine
10
-19.0987244370549
20
3.76677319161552
30
0.000000000000000
11
-18.9987244370549
21
3.70581032321039
31
0.000000000000000
  0
LINE
  5
F10278
330
F10279
100
AcDbEntity
8
Geo
100
AcDbLine
10
-18.9987244370549
20
3.70581032321039
30
0.000000000000000
11
-18.8987244370549
21
3.64327442047360
31
0.000000000000000
  0
LINE
  5
F1027A
330
F1027B
100
AcDbEntity
8
Geo
100
AcDbLine
10
-18.8987244370549
20
3.64327442047360
30
0.000000000000000
11
-18.7987244370549
21
3.57919049693245
31
0.000000000000000
  0
LINE
  5
F1027C
330
F1027D
100
AcDbEntity
8
Geo
100
AcDbLine
10
-18.7987244370549
20
3.57919049693245
30
0.000000000000000
11
-18.6987244370549
21
3.51358418530191
31
0.000000000000000
  0
LINE
  5
F1027E
330
F1027F
100
AcDbEntity
8
Geo
100
AcDbLine
10
-18.6987244370549
20
3.51358418530191
30
0.000000000000000
11
-18.5987244370549
21
3.44648172723190
31
0.000000000000000
  0
LINE
  5
F10280
330
F10281
100
AcDbEntity
8
Geo
100
AcDbLine
10
-18.5987244370549
20
3.44648172723190
30
0.000000000000000
11
-18.4987244370549
21
3.37790996281095
31
0.000000000000000
  0
LINE
  5
F10282
330
F10283
100
AcDbEntity
8
Geo
100
AcDbLine
10
-18.4987244370549
20
3.37790996281095
30
0.000000000000000
11
-18.3987244370549
21
3.30789631983056
31
0.000000000000000
  0
LINE
  5
F10284
330
F10285
100
AcDbEntity
8
Geo
100
AcDbLine
10
-18.3987244370549
20
3.30789631983056
30
0.000000000000000
11
-18.2987244370549
21
3.23646880281441
31
0.000000000000000
  0
LINE
  5
F10286
330
F10287
100
AcDbEntity
8
Geo
100
AcDbLine
10
-18.2987244370549
20
3.23646880281441
30
0.000000000000000
11
-18.1987244370549
21
3.16365598181696
31
0.000000000000000
  0
LINE
  5
F10288
330
F10289
100
AcDbEntity
8
Geo
100
AcDbLine
10
-18.1987244370549
20
3.16365598181696
30
0.000000000000000
11
-18.0987244370549
21
3.08948698099579
31
0.000000000000000
  0
LINE
  5
F1028A
330
F1028B
100
AcDbEntity
8
Geo
100
AcDbLine
10
-18.0987244370549
20
3.08948698099579
30
0.000000000000000
11
-17.9987244370549
21
3.01399146696231
31
0.000000000000000
  0
LINE
  5
F1028C
330
F1028D
100
AcDbEntity
8
Geo
100
AcDbLine
10
-17.9987244370549
20
3.01399146696231
30
0.000000000000000
11
-17.8987244370549
21
2.93719963691554
31
0.000000000000000
  0
LINE
  5
F1028E
330
F1028F
100
AcDbEntity
8
Geo
100
AcDbLine
10
-17.8987244370549
20
2.93719963691554
30
0.000000000000000
11
-17.7987244370549
21
2.85914220656362
31
0.000000000000000
  0
LINE
  5
F10290
330
F10291
100
AcDbEntity
8
Geo
100
AcDbLine
10
-17.7987244370549
20
2.85914220656362
30
0.000000000000000
11
-17.6987244370549
21
2.77985039783796
31
0.000000000000000
  0
LINE
  5
F10292
330
F10293
100
AcDbEntity
8
Geo
100
AcDbLine
10
-17.6987244370549
20
2.77985039783796
30
0.000000000000000
11
-17.5987244370549
21
2.69935592640481
31
0.000000000000000
  0
LINE
  5
F10294
330
F10295
100
AcDbEntity
8
Geo
100
AcDbLine
10
-17.5987244370549
20
2.69935592640481
30
0.000000000000000
11
-17.4987244370549
21
2.61769098897952
31
0.000000000000000
  0
LINE
  5
F10296
330
F10297
100
AcDbEntity
8
Geo
100
AcDbLine
10
-17.4987244370549
20
2.61769098897952
30
0.000000000000000
11
-17.3987244370549
21
2.53488825044820
31
0.000000000000000
  0
LINE
  5
F10298
330
F10299
100
AcDbEntity
8
Geo
100
AcDbLine
10
-17.3987244370549
20
2.53488825044820
30
0.000000000000000
11
-17.2987244370549
21
2.45098083080224
31
0.000000000000000
  0
LINE
  5
F1029A
330
F1029B
100
AcDbEntity
8
Geo
100
AcDbLine
10
-17.2987244370549
20
2.45098083080224
30
0.000000000000000
11
-17.1987244370549
21
2.36600229189075
31
0.000000000000000
  0
LINE
  5
F1029C
330
F1029D
100
AcDbEntity
8
Geo
100
AcDbLine
10
-17.1987244370549
20
2.36600229189075
30
0.000000000000000
11
-17.0987244370549
21
2.27998662399626
31
0.000000000000000
  0
LINE
  5
F1029E
330
F1029F
100
AcDbEntity
8
Geo
100
AcDbLine
10
-17.0987244370549
20
2.27998662399626
30
0.000000000000000
11
-16.9987244370549
21
2.19296823223907
31
0.000000000000000
  0
LINE
  5
F102A0
330
F102A1
100
AcDbEntity
8
Geo
100
AcDbLine
10
-16.9987244370549
20
2.19296823223907
30
0.000000000000000
11
-16.8987244370549
21
2.10498192281566
31
0.000000000000000
  0
LINE
  5
F102A2
330
F102A3
100
AcDbEntity
8
Geo
100
AcDbLine
10
-16.8987244370549
20
2.10498192281566
30
0.000000000000000
11
-16.7987244370549
21
2.01606288907665
31
0.000000000000000
  0
LINE
  5
F102A4
330
F102A5
100
AcDbEntity
8
Geo
100
AcDbLine
10
-16.7987244370549
20
2.01606288907665
30
0.000000000000000
11
-16.6987244370549
21
1.92624669744997
31
0.000000000000000
  0
LINE
  5
F102A6
330
F102A7
100
AcDbEntity
8
Geo
100
AcDbLine
10
-16.6987244370549
20
1.92624669744997
30
0.000000000000000
11
-16.5987244370549
21
1.83556927321474
31
0.000000000000000
  0
LINE
  5
F102A8
330
F102A9
100
AcDbEntity
8
Geo
100
AcDbLine
10
-16.5987244370549
20
1.83556927321474
30
0.000000000000000
11
-16.4987244370549
21
1.74406688613163
31
0.000000000000000
  0
LINE
  5
F102AA
330
F102AB
100
AcDbEntity
8
Geo
100
AcDbLine
10
-16.4987244370549
20
1.74406688613163
30
0.000000000000000
11
-16.3987244370549
21
1.65177613593547
31
0.000000000000000
  0
LINE
  5
F102AC
330
F102AD
100
AcDbEntity
8
Geo
100
AcDbLine
10
-16.3987244370549
20
1.65177613593547
30
0.000000000000000
11
-16.2987244370549
21
1.55873393769581
31
0.000000000000000
  0
LINE
  5
F102AE
330
F102AF
100
AcDbEntity
8
Geo
100
AcDbLine
10
-16.2987244370549
20
1.55873393769581
30
0.000000000000000
11
-16.1987244370549
21
1.46497750705139
31
0.000000000000000
  0
LINE
  5
F102B0
330
F102B1
100
AcDbEntity
8
Geo
100
AcDbLine
10
-16.1987244370549
20
1.46497750705139
30
0.000000000000000
11
-16.0987244370549
21
1.37054434532440
31
0.000000000000000
  0
LINE
  5
F102B2
330
F102B3
100
AcDbEntity
8
Geo
100
AcDbLine
10
-16.0987244370549
20
1.37054434532440
30
0.000000000000000
11
-15.9987244370549
21
1.27547222452045
31
0.000000000000000
  0
LINE
  5
F102B4
330
F102B5
100
AcDbEntity
8
Geo
100
AcDbLine
10
-15.9987244370549
20
1.27547222452045
30
0.000000000000000
11
-15.8987244370549
21
1.17979917222024
31
0.000000000000000
  0
LINE
  5
F102B6
330
F102B7
100
AcDbEntity
8
Geo
100
AcDbLine
10
-15.8987244370549
20
1.17979917222024
30
0.000000000000000
11
-15.7987244370549
21
1.08356345636907
31
0.000000000000000
  0
LINE
  5
F102B8
330
F102B9
100
AcDbEntity
8
Geo
100
AcDbLine
10
-15.7987244370549
20
1.08356345636907
30
0.000000000000000
11
-15.6987244370549
21
0.986803569970153
31
0.000000000000000
  0
LINE
  5
F102BA
330
F102BB
100
AcDbEntity
8
Geo
100
AcDbLine
10
-15.6987244370549
20
0.986803569970153
30
0.000000000000000
11
-15.5987244370549
21
0.889558215687937
31
0.000000000000000
  0
LINE
  5
F102BC
330
F102BD
100
AcDbEntity
8
Geo
100
AcDbLine
10
-15.5987244370549
20
0.889558215687937
30
0.000000000000000
11
-15.4987244370549
21
0.791866290367544
31
0.000000000000000
  0
LINE
  5
F102BE
330
F102BF
100
AcDbEntity
8
Geo
100
AcDbLine
10
-15.4987244370549
20
0.791866290367544
30
0.000000000000000
11
-15.3987244370549
21
0.693766869476563
31
0.000000000000000
  0
LINE
  5
F102C0
330
F102C1
100
AcDbEntity
8
Geo
100
AcDbLine
10
-15.3987244370549
20
0.693766869476563
30
0.000000000000000
11
-15.2987244370549
21
0.595299191475374
31
0.000000000000000
  0
LINE
  5
F102C2
330
F102C3
100
AcDbEntity
8
Geo
100
AcDbLine
10
-15.2987244370549
20
0.595299191475374
30
0.000000000000000
11
-15.1987244370549
21
0.496502642122294
31
0.000000000000000
  0
LINE
  5
F102C4
330
F102C5
100
AcDbEntity
8
Geo
100
AcDbLine
10
-15.1987244370549
20
0.496502642122294
30
0.000000000000000
11
-15.0987244370549
21
0.397416738719792
31
0.000000000000000
  0
LINE
  5
F102C6
330
F102C7
100
AcDbEntity
8
Geo
100
AcDbLine
10
-15.0987244370549
20
0.397416738719792
30
0.000000000000000
11
-14.9987244370549
21
0.298081114308105
31
0.000000000000000
  0
LINE
  5
F102C8
330
F102C9
100
AcDbEntity
8
Geo
100
AcDbLine
10
-14.9987244370549
20
0.298081114308105
30
0.000000000000000
11
-14.8987244370549
21
0.198535501812537
31
0.000000000000000
  0
LINE
  5
F102CA
330
F102CB
100
AcDbEntity
8
Geo
100
AcDbLine
10
-14.8987244370549
20
0.198535501812537
30
0.000000000000000
11
-14.7987244370549
21
0.0988197181508312
31
0.000000000000000
  0
LINE
  5
F102CC
330
F102CD
100
AcDbEntity
8
Geo
100
AcDbLine
10
-14.7987244370549
20
0.0988197181508312
30
0.000000000000000
11
-14.6987244370549
21
-0.00102635169307486
31
0.000000000000000
  0
LINE
  5
F102CE
330
F102CF
100
AcDbEntity
8
Geo
100
AcDbLine
10
-14.6987244370549
20
-0.00102635169307486
30
0.000000000000000
11
-14.5987244370549
21
-0.100962770622506
31
0.000000000000000
  0
LINE
  5
F102D0
330
F102D1
100
AcDbEntity
8
Geo
100
AcDbLine
10
-14.5987244370549
20
-0.100962770622506
30
0.000000000000000
11
-14.4987244370549
21
-0.200949565402360
31
0.000000000000000
  0
LINE
  5
F102D2
330
F102D3
100
AcDbEntity
8
Geo
100
AcDbLine
10
-14.4987244370549
20
-0.200949565402360
30
0.000000000000000
11
-14.3987244370549
21
-0.300946742647862
31
0.000000000000000
  0
LINE
  5
F102D4
330
F102D5
100
AcDbEntity
8
Geo
100
AcDbLine
10
-14.3987244370549
20
-0.300946742647862
30
0.000000000000000
11
-14.2987244370549
21
-0.400914304821394
31
0.000000000000000
  0
LINE
  5
F102D6
330
F102D7
100
AcDbEntity
8
Geo
100
AcDbLine
10
-14.2987244370549
20
-0.400914304821394
30
0.000000000000000
11
-14.1987244370549
21
-0.500812266230967
31
0.000000000000000
  0
LINE
  5
F102D8
330
F102D9
100
AcDbEntity
8
Geo
100
AcDbLine
10
-14.1987244370549
20
-0.500812266230967
30
0.000000000000000
11
-14.0987244370549
21
-0.600600669023976
31
0.000000000000000
  0
LINE
  5
F102DA
330
F102DB
100
AcDbEntity
8
Geo
100
AcDbLine
10
-14.0987244370549
20
-0.600600669023976
30
0.000000000000000
11
-13.9987244370549
21
-0.700239599169794
31
0.000000000000000
  0
LINE
  5
F102DC
330
F102DD
100
AcDbEntity
8
Geo
100
AcDbLine
10
-13.9987244370549
20
-0.700239599169794
30
0.000000000000000
11
-13.8987244370549
21
-0.799689202424867
31
0.000000000000000
  0
LINE
  5
F102DE
330
F102DF
100
AcDbEntity
8
Geo
100
AcDbLine
10
-13.8987244370549
20
-0.799689202424867
30
0.000000000000000
11
-13.7987244370549
21
-0.898909700273867
31
0.000000000000000
  0
LINE
  5
F102E0
330
F102E1
100
AcDbEntity
8
Geo
100
AcDbLine
10
-13.7987244370549
20
-0.898909700273867
30
0.000000000000000
11
-13.6987244370549
21
-0.997861405840580
31
0.000000000000000
  0
LINE
  5
F102E2
330
F102E3
100
AcDbEntity
8
Geo
100
AcDbLine
10
-13.6987244370549
20
-0.997861405840580
30
0.000000000000000
11
-13.5987244370549
21
-1.09650473976212
31
0.000000000000000
  0
LINE
  5
F102E4
330
F102E5
100
AcDbEntity
8
Geo
100
AcDbLine
10
-13.5987244370549
20
-1.09650473976212
30
0.000000000000000
11
-13.4987244370549
21
-1.19480024602013
31
0.000000000000000
  0
LINE
  5
F102E6
330
F102E7
100
AcDbEntity
8
Geo
100
AcDbLine
10
-13.4987244370549
20
-1.19480024602013
30
0.000000000000000
11
-13.3987244370549
21
-1.29270860772272
31
0.000000000000000
  0
LINE
  5
F102E8
330
F102E9
100
AcDbEntity
8
Geo
100
AcDbLine
10
-13.3987244370549
20
-1.29270860772272
30
0.000000000000000
11
-13.2987244370549
21
-1.39019066283062
31
0.000000000000000
  0
LINE
  5
F102EA
330
F102EB
100
AcDbEntity
8
Geo
100
AcDbLine
10
-13.2987244370549
20
-1.39019066283062
30
0.000000000000000
11
-13.1987244370549
21
-1.48720741982153
31
0.000000000000000
  0
LINE
  5
F102EC
330
F102ED
100
AcDbEntity
8
Geo
100
AcDbLine
10
-13.1987244370549
20
-1.48720741982153
30
0.000000000000000
11
-13.0987244370549
21
-1.58372007328621
31
0.000000000000000
  0
LINE
  5
F102EE
330
F102EF
100
AcDbEntity
8
Geo
100
AcDbLine
10
-13.0987244370549
20
-1.58372007328621
30
0.000000000000000
11
-12.9987244370549
21
-1.67969001945007
31
0.000000000000000
  0
LINE
  5
F102F0
330
F102F1
100
AcDbEntity
8
Geo
100
AcDbLine
10
-12.9987244370549
20
-1.67969001945007
30
0.000000000000000
11
-12.8987244370549
21
-1.77507887161424
31
0.000000000000000
  0
LINE
  5
F102F2
330
F102F3
100
AcDbEntity
8
Geo
100
AcDbLine
10
-25.1192763694006
20
4.77309340525191
30
0.000000000000000
11
-25.0987244370549
21
4.77305116975427
31
0.000000000000000
  0
LINE
  5
F102F4
330
F102F5
100
AcDbEntity
8
Geo
100
AcDbLine
10
-25.0987244370549
20
4.77305116975427
30
0.000000000000000
11
-24.9987244370549
21
4.77164021426790
31
0.000000000000000
  0
LINE
  5
F102F6
330
F102F7
100
AcDbEntity
8
Geo
100
AcDbLine
10
-24.9987244370549
20
4.77164021426790
30
0.000000000000000
11
-24.8987244370549
21
4.76822990670433
31
0.000000000000000
  0
LINE
  5
F102F8
330
F102F9
100
AcDbEntity
8
Geo
100
AcDbLine
10
-24.8987244370549
20
4.76822990670433
30
0.000000000000000
11
-24.7987244370549
21
4.76282161114111
31
0.000000000000000
  0
LINE
  5
F102FA
330
F102FB
100
AcDbEntity
8
Geo
100
AcDbLine
10
-24.7987244370549
20
4.76282161114111
30
0.000000000000000
11
-24.6987244370549
21
4.75541749082435
31
0.000000000000000
  0
LINE
  5
F102FC
330
F102FD
100
AcDbEntity
8
Geo
100
AcDbLine
10
-24.6987244370549
20
4.75541749082435
30
0.000000000000000
11
-24.5987244370549
21
4.74602050730347
31
0.000000000000000
  0
LINE
  5
F102FE
330
F102FF
100
AcDbEntity
8
Geo
100
AcDbLine
10
-24.5987244370549
20
4.74602050730347
30
0.000000000000000
11
-24.4987244370549
21
4.73463441924658
31
0.000000000000000
  0
LINE
  5
F10300
330
F10301
100
AcDbEntity
8
Geo
100
AcDbLine
10
-24.4987244370549
20
4.73463441924658
30
0.000000000000000
11
-24.3987244370549
21
4.72126378093709
31
0.000000000000000
  0
LINE
  5
F10302
330
F10303
100
AcDbEntity
8
Geo
100
AcDbLine
10
-24.3987244370549
20
4.72126378093709
30
0.000000000000000
11
-24.2987244370549
21
4.70591394045205
31
0.000000000000000
  0
LINE
  5
F10304
330
F10305
100
AcDbEntity
8
Geo
100
AcDbLine
10
-24.2987244370549
20
4.70591394045205
30
0.000000000000000
11
-24.1987244370549
21
4.68859103752299
31
0.000000000000000
  0
LINE
  5
F10306
330
F10307
100
AcDbEntity
8
Geo
100
AcDbLine
10
-24.1987244370549
20
4.68859103752299
30
0.000000000000000
11
-24.0987244370549
21
4.66930200108012
31
0.000000000000000
  0
LINE
  5
F10308
330
F10309
100
AcDbEntity
8
Geo
100
AcDbLine
10
-24.0987244370549
20
4.66930200108012
30
0.000000000000000
11
-23.9987244370549
21
4.64805454648083
31
0.000000000000000
  0
LINE
  5
F1030A
330
F1030B
100
AcDbEntity
8
Geo
100
AcDbLine
10
-23.9987244370549
20
4.64805454648083
30
0.000000000000000
11
-23.8987244370549
21
4.62485717242366
31
0.000000000000000
  0
LINE
  5
F1030C
330
F1030D
100
AcDbEntity
8
Geo
100
AcDbLine
10
-23.8987244370549
20
4.62485717242366
30
0.000000000000000
11
-23.7987244370549
21
4.59971915754894
31
0.000000000000000
  0
LINE
  5
F1030E
330
F1030F
100
AcDbEntity
8
Geo
100
AcDbLine
10
-23.7987244370549
20
4.59971915754894
30
0.000000000000000
11
-23.6987244370549
21
4.57265055672746
31
0.000000000000000
  0
LINE
  5
F10310
330
F10311
100
AcDbEntity
8
Geo
100
AcDbLine
10
-23.6987244370549
20
4.57265055672746
30
0.000000000000000
11
-23.5987244370549
21
4.54366219703863
31
0.000000000000000
  0
LINE
  5
F10312
330
F10313
100
AcDbEntity
8
Geo
100
AcDbLine
10
-23.5987244370549
20
4.54366219703863
30
0.000000000000000
11
-23.4987244370549
21
4.51276567343982
31
0.000000000000000
  0
LINE
  5
F10314
330
F10315
100
AcDbEntity
8
Geo
100
AcDbLine
10
-23.4987244370549
20
4.51276567343982
30
0.000000000000000
11
-23.3987244370549
21
4.47997334412853
31
0.000000000000000
  0
LINE
  5
F10316
330
F10317
100
AcDbEntity
8
Geo
100
AcDbLine
10
-23.3987244370549
20
4.47997334412853
30
0.000000000000000
11
-23.2987244370549
21
4.44529832559924
31
0.000000000000000
  0
LINE
  5
F10318
330
F10319
100
AcDbEntity
8
Geo
100
AcDbLine
10
-23.2987244370549
20
4.44529832559924
30
0.000000000000000
11
-23.1987244370549
21
4.40875448739706
31
0.000000000000000
  0
LINE
  5
F1031A
330
F1031B
100
AcDbEntity
8
Geo
100
AcDbLine
10
-23.1987244370549
20
4.40875448739706
30
0.000000000000000
11
-23.0987244370549
21
4.37035644657000
31
0.000000000000000
  0
LINE
  5
F1031C
330
F1031D
100
AcDbEntity
8
Geo
100
AcDbLine
10
-23.0987244370549
20
4.37035644657000
30
0.000000000000000
11
-22.9987244370549
21
4.33011956182244
31
0.000000000000000
  0
LINE
  5
F1031E
330
F1031F
100
AcDbEntity
8
Geo
100
AcDbLine
10
-22.9987244370549
20
4.33011956182244
30
0.000000000000000
11
-22.8987244370549
21
4.28805992737179
31
0.000000000000000
  0
LINE
  5
F10320
330
F10321
100
AcDbEntity
8
Geo
100
AcDbLine
10
-22.8987244370549
20
4.28805992737179
30
0.000000000000000
11
-22.7987244370549
21
4.24419436651104
31
0.000000000000000
  0
LINE
  5
F10322
330
F10323
100
AcDbEntity
8
Geo
100
AcDbLine
10
-22.7987244370549
20
4.24419436651104
30
0.000000000000000
11
-22.6987244370549
21
4.19854042487968
31
0.000000000000000
  0
LINE
  5
F10324
330
F10325
100
AcDbEntity
8
Geo
100
AcDbLine
10
-22.6987244370549
20
4.19854042487968
30
0.000000000000000
11
-22.5987244370549
21
4.15111636344563
31
0.000000000000000
  0
LINE
  5
F10326
330
F10327
100
AcDbEntity
8
Geo
100
AcDbLine
10
-22.5987244370549
20
4.15111636344563
30
0.000000000000000
11
-22.4987244370549
21
4.10194115120117
31
0.000000000000000
  0
LINE
  5
F10328
330
F10329
100
AcDbEntity
8
Geo
100
AcDbLine
10
-22.4987244370549
20
4.10194115120117
30
0.000000000000000
11
-22.3987244370549
21
4.05103445757553
31
0.000000000000000
  0
LINE
  5
F1032A
330
F1032B
100
AcDbEntity
8
Geo
100
AcDbLine
10
-22.3987244370549
20
4.05103445757553
30
0.000000000000000
11
-22.2987244370549
21
3.99841664456742
31
0.000000000000000
  0
LINE
  5
F1032C
330
F1032D
100
AcDbEntity
8
Geo
100
AcDbLine
10
-22.2987244370549
20
3.99841664456742
30
0.000000000000000
11
-22.1987244370549
21
3.94410875860047
31
0.000000000000000
  0
LINE
  5
F1032E
330
F1032F
100
AcDbEntity
8
Geo
100
AcDbLine
10
-22.1987244370549
20
3.94410875860047
30
0.000000000000000
11
-22.0987244370549
21
3.88813252210497
31
0.000000000000000
  0
LINE
  5
F10330
330
F10331
100
AcDbEntity
8
Geo
100
AcDbLine
10
-22.0987244370549
20
3.88813252210497
30
0.000000000000000
11
-21.9987244370549
21
3.83051032482920
31
0.000000000000000
  0
LINE
  5
F10332
330
F10333
100
AcDbEntity
8
Geo
100
AcDbLine
10
-21.9987244370549
20
3.83051032482920
30
0.000000000000000
11
-21.8987244370549
21
3.77126521488376
31
0.000000000000000
  0
LINE
  5
F10334
330
F10335
100
AcDbEntity
8
Geo
100
AcDbLine
10
-21.8987244370549
20
3.77126521488376
30
0.000000000000000
11
-21.7987244370549
21
3.71042088952272
31
0.000000000000000
  0
LINE
  5
F10336
330
F10337
100
AcDbEntity
8
Geo
100
AcDbLine
10
-21.7987244370549
20
3.71042088952272
30
0.000000000000000
11
-21.6987244370549
21
3.64800168566497
31
0.000000000000000
  0
LINE
  5
F10338
330
F10339
100
AcDbEntity
8
Geo
100
AcDbLine
10
-21.6987244370549
20
3.64800168566497
30
0.000000000000000
11
-21.5987244370549
21
3.58403257015981
31
0.000000000000000
  0
LINE
  5
F1033A
330
F1033B
100
AcDbEntity
8
Geo
100
AcDbLine
10
-21.5987244370549
20
3.58403257015981
30
0.000000000000000
11
-21.4987244370549
21
3.51853912980053
31
0.000000000000000
  0
LINE
  5
F1033C
330
F1033D
100
AcDbEntity
8
Geo
100
AcDbLine
10
-21.4987244370549
20
3.51853912980053
30
0.000000000000000
11
-21.3987244370549
21
3.45154756109004
31
0.000000000000000
  0
LINE
  5
F1033E
330
F1033F
100
AcDbEntity
8
Geo
100
AcDbLine
10
-21.3987244370549
20
3.45154756109004
30
0.000000000000000
11
-21.2987244370549
21
3.38308465976261
31
0.000000000000000
  0
LINE
  5
F10340
330
F10341
100
AcDbEntity
8
Geo
100
AcDbLine
10
-21.2987244370549
20
3.38308465976261
30
0.000000000000000
11
-21.1987244370549
21
3.31317781006596
31
0.000000000000000
  0
LINE
  5
F10342
330
F10343
100
AcDbEntity
8
Geo
100
AcDbLine
10
-21.1987244370549
20
3.31317781006596
30
0.000000000000000
11
-21.0987244370549
21
3.24185497380788
31
0.000000000000000
  0
LINE
  5
F10344
330
F10345
100
AcDbEntity
8
Geo
100
AcDbLine
10
-21.0987244370549
20
3.24185497380788
30
0.000000000000000
11
-20.9987244370549
21
3.16914467917191
31
0.000000000000000
  0
LINE
  5
F10346
330
F10347
100
AcDbEntity
8
Geo
100
AcDbLine
10
-20.9987244370549
20
3.16914467917191
30
0.000000000000000
11
-20.8987244370549
21
3.09507600930646
31
0.000000000000000
  0
LINE
  5
F10348
330
F10349
100
AcDbEntity
8
Geo
100
AcDbLine
10
-20.8987244370549
20
3.09507600930646
30
0.000000000000000
11
-20.7987244370549
21
3.01967859069189
31
0.000000000000000
  0
LINE
  5
F1034A
330
F1034B
100
AcDbEntity
8
Geo
100
AcDbLine
10
-20.7987244370549
20
3.01967859069189
30
0.000000000000000
11
-20.6987244370549
21
2.94298258129037
31
0.000000000000000
  0
LINE
  5
F1034C
330
F1034D
100
AcDbEntity
8
Geo
100
AcDbLine
10
-20.6987244370549
20
2.94298258129037
30
0.000000000000000
11
-20.5987244370549
21
2.86501865848307
31
0.000000000000000
  0
LINE
  5
F1034E
330
F1034F
100
AcDbEntity
8
Geo
100
AcDbLine
10
-20.5987244370549
20
2.86501865848307
30
0.000000000000000
11
-20.4987244370549
21
2.78581800679959
31
0.000000000000000
  0
LINE
  5
F10350
330
F10351
100
AcDbEntity
8
Geo
100
AcDbLine
10
-20.4987244370549
20
2.78581800679959
30
0.000000000000000
11
-20.3987244370549
21
2.70541230544462
31
0.000000000000000
  0
LINE
  5
F10352
330
F10353
100
AcDbEntity
8
Geo
100
AcDbLine
10
-20.3987244370549
20
2.70541230544462
30
0.000000000000000
11
-20.2987244370549
21
2.62383371562663
31
0.000000000000000
  0
LINE
  5
F10354
330
F10355
100
AcDbEntity
8
Geo
100
AcDbLine
10
-20.2987244370549
20
2.62383371562663
30
0.000000000000000
11
-20.1987244370549
21
2.54111486769386
31
0.000000000000000
  0
LINE
  5
F10356
330
F10357
100
AcDbEntity
8
Geo
100
AcDbLine
10
-20.1987244370549
20
2.54111486769386
30
0.000000000000000
11
-20.0987244370549
21
2.45728884808257
31
0.000000000000000
  0
LINE
  5
F10358
330
F10359
100
AcDbEntity
8
Geo
100
AcDbLine
10
-20.0987244370549
20
2.45728884808257
30
0.000000000000000
11
-19.9987244370549
21
2.37238918608295
31
0.000000000000000
  0
LINE
  5
F1035A
330
F1035B
100
AcDbEntity
8
Geo
100
AcDbLine
10
-19.9987244370549
20
2.37238918608295
30
0.000000000000000
11
-19.8987244370549
21
2.28644984042781
31
0.000000000000000
  0
LINE
  5
F1035C
330
F1035D
100
AcDbEntity
8
Geo
100
AcDbLine
10
-19.8987244370549
20
2.28644984042781
30
0.000000000000000
11
-19.7987244370549
21
2.19950518570957
31
0.000000000000000
  0
LINE
  5
F1035E
330
F1035F
100
AcDbEntity
8
Geo
100
AcDbLine
10
-19.7987244370549
20
2.19950518570957
30
0.000000000000000
11
-19.6987244370549
21
2.11158999863087
31
0.000000000000000
  0
LINE
  5
F10360
330
F10361
100
AcDbEntity
8
Geo
100
AcDbLine
10
-19.6987244370549
20
2.11158999863087
30
0.000000000000000
11
-19.5987244370549
21
2.02273944409437
31
0.000000000000000
  0
LINE
  5
F10362
330
F10363
100
AcDbEntity
8
Geo
100
AcDbLine
10
-19.5987244370549
20
2.02273944409437
30
0.000000000000000
11
-19.4987244370549
21
1.93298906113720
31
0.000000000000000
  0
LINE
  5
F10364
330
F10365
100
AcDbEntity
8
Geo
100
AcDbLine
10
-19.4987244370549
20
1.93298906113720
30
0.000000000000000
11
-19.3987244370549
21
1.84237474871591
31
0.000000000000000
  0
LINE
  5
F10366
330
F10367
100
AcDbEntity
8
Geo
100
AcDbLine
10
-19.3987244370549
20
1.84237474871591
30
0.000000000000000
11
-19.2987244370549
21
1.75093275134727
31
0.000000000000000
  0
LINE
  5
F10368
330
F10369
100
AcDbEntity
8
Geo
100
AcDbLine
10
-19.2987244370549
20
1.75093275134727
30
0.000000000000000
11
-19.1987244370549
21
1.65869964461105
31
0.000000000000000
  0
LINE
  5
F1036A
330
F1036B
100
AcDbEntity
8
Geo
100
AcDbLine
10
-19.1987244370549
20
1.65869964461105
30
0.000000000000000
11
-19.0987244370549
21
1.56571232052015
31
0.000000000000000
  0
LINE
  5
F1036C
330
F1036D
100
AcDbEntity
8
Geo
100
AcDbLine
10
-19.0987244370549
20
1.56571232052015
30
0.000000000000000
11
-18.9987244370549
21
1.47200797276442
31
0.000000000000000
  0
LINE
  5
F1036E
330
F1036F
100
AcDbEntity
8
Geo
100
AcDbLine
10
-18.9987244370549
20
1.47200797276442
30
0.000000000000000
11
-18.8987244370549
21
1.37762408183358
31
0.000000000000000
  0
LINE
  5
F10370
330
F10371
100
AcDbEntity
8
Geo
100
AcDbLine
10
-18.8987244370549
20
1.37762408183358
30
0.000000000000000
11
-18.7987244370549
21
1.28259840002556
31
0.000000000000000
  0
LINE
  5
F10372
330
F10373
100
AcDbEntity
8
Geo
100
AcDbLine
10
-18.7987244370549
20
1.28259840002556
30
0.000000000000000
11
-18.6987244370549
21
1.18696893634609
31
0.000000000000000
  0
LINE
  5
F10374
330
F10375
100
AcDbEntity
8
Geo
100
AcDbLine
10
-18.6987244370549
20
1.18696893634609
30
0.000000000000000
11
-18.5987244370549
21
1.09077394130561
31
0.000000000000000
  0
LINE
  5
F10376
330
F10377
100
AcDbEntity
8
Geo
100
AcDbLine
10
-18.5987244370549
20
1.09077394130561
30
0.000000000000000
11
-18.4987244370549
21
0.994051891619551
31
0.000000000000000
  0
LINE
  5
F10378
330
F10379
100
AcDbEntity
8
Geo
100
AcDbLine
10
-18.4987244370549
20
0.994051891619551
30
0.000000000000000
11
-18.3987244370549
21
0.896841474818171
31
0.000000000000000
  0
LINE
  5
F1037A
330
F1037B
100
AcDbEntity
8
Geo
100
AcDbLine
10
-18.3987244370549
20
0.896841474818171
30
0.000000000000000
11
-18.2987244370549
21
0.799181573772073
31
0.000000000000000
  0
LINE
  5
F1037C
330
F1037D
100
AcDbEntity
8
Geo
100
AcDbLine
10
-18.2987244370549
20
0.799181573772073
30
0.000000000000000
11
-18.1987244370549
21
0.701111251139560
31
0.000000000000000
  0
LINE
  5
F1037E
330
F1037F
100
AcDbEntity
8
Geo
100
AcDbLine
10
-18.1987244370549
20
0.701111251139560
30
0.000000000000000
11
-18.0987244370549
21
0.602669733742098
31
0.000000000000000
  0
LINE
  5
F10380
330
F10381
100
AcDbEntity
8
Geo
100
AcDbLine
10
-18.0987244370549
20
0.602669733742098
30
0.000000000000000
11
-17.9987244370549
21
0.503896396874110
31
0.000000000000000
  0
LINE
  5
F10382
330
F10383
100
AcDbEntity
8
Geo
100
AcDbLine
10
-17.9987244370549
20
0.503896396874110
30
0.000000000000000
11
-17.8987244370549
21
0.404830748553384
31
0.000000000000000
  0
LINE
  5
F10384
330
F10385
100
AcDbEntity
8
Geo
100
AcDbLine
10
-17.8987244370549
20
0.404830748553384
30
0.000000000000000
11
-17.7987244370549
21
0.305512413718389
31
0.000000000000000
  0
LINE
  5
F10386
330
F10387
100
AcDbEntity
8
Geo
100
AcDbLine
10
-17.7987244370549
20
0.305512413718389
30
0.000000000000000
11
-17.6987244370549
21
0.205981118378833
31
0.000000000000000
  0
LINE
  5
F10388
330
F10389
100
AcDbEntity
8
Geo
100
AcDbLine
10
-17.6987244370549
20
0.205981118378833
30
0.000000000000000
11
-17.5987244370549
21
0.106276673725785
31
0.000000000000000
  0
LINE
  5
F1038A
330
F1038B
100
AcDbEntity
8
Geo
100
AcDbLine
10
-17.5987244370549
20
0.106276673725785
30
0.000000000000000
11
-17.4987244370549
21
0.00643896020773216
31
0.000000000000000
  0
LINE
  5
F1038C
330
F1038D
100
AcDbEntity
8
Geo
100
AcDbLine
10
-17.4987244370549
20
0.00643896020773216
30
0.000000000000000
11
-17.3987244370549
21
-0.0934920884210705
31
0.000000000000000
  0
LINE
  5
F1038E
330
F1038F
100
AcDbEntity
8
Geo
100
AcDbLine
10
-17.3987244370549
20
-0.0934920884210705
30
0.000000000000000
11
-17.2987244370549
21
-0.193476501073568
31
0.000000000000000
  0
LINE
  5
F10390
330
F10391
100
AcDbEntity
8
Geo
100
AcDbLine
10
-17.2987244370549
20
-0.193476501073568
30
0.000000000000000
11
-17.1987244370549
21
-0.293474285317806
31
0.000000000000000
  0
LINE
  5
F10392
330
F10393
100
AcDbEntity
8
Geo
100
AcDbLine
10
-17.1987244370549
20
-0.293474285317806
30
0.000000000000000
11
-17.0987244370549
21
-0.393445443373373
31
0.000000000000000
  0
LINE
  5
F10394
330
F10395
100
AcDbEntity
8
Geo
100
AcDbLine
10
-17.0987244370549
20
-0.393445443373373
30
0.000000000000000
11
-16.9987244370549
21
-0.493349988109979
31
0.000000000000000
  0
LINE
  5
F10396
330
F10397
100
AcDbEntity
8
Geo
100
AcDbLine
10
-16.9987244370549
20
-0.493349988109979
30
0.000000000000000
11
-16.8987244370549
21
-0.593147959041772
31
0.000000000000000
  0
LINE
  5
F10398
330
F10399
100
AcDbEntity
8
Geo
100
AcDbLine
10
-16.8987244370549
20
-0.593147959041772
30
0.000000000000000
11
-16.7987244370549
21
-0.692799438311000
31
0.000000000000000
  0
LINE
  5
F1039A
330
F1039B
100
AcDbEntity
8
Geo
100
AcDbLine
10
-16.7987244370549
20
-0.692799438311000
30
0.000000000000000
11
-16.6987244370549
21
-0.792264566654624
31
0.000000000000000
  0
LINE
  5
F1039C
330
F1039D
100
AcDbEntity
8
Geo
100
AcDbLine
10
-16.6987244370549
20
-0.792264566654624
30
0.000000000000000
11
-16.5987244370549
21
-0.891503559347494
31
0.000000000000000
  0
LINE
  5
F1039E
330
F1039F
100
AcDbEntity
8
Geo
100
AcDbLine
10
-16.5987244370549
20
-0.891503559347494
30
0.000000000000000
11
-16.4987244370549
21
-0.990476722115699
31
0.000000000000000
  0
LINE
  5
F103A0
330
F103A1
100
AcDbEntity
8
Geo
100
AcDbLine
10
-16.4987244370549
20
-0.990476722115699
30
0.000000000000000
11
-16.3987244370549
21
-1.08914446701376
31
0.000000000000000
  0
LINE
  5
F103A2
330
F103A3
100
AcDbEntity
8
Geo
100
AcDbLine
10
-16.3987244370549
20
-1.08914446701376
30
0.000000000000000
11
-16.2987244370549
21
-1.18746732825926
31
0.000000000000000
  0
LINE
  5
F103A4
330
F103A5
100
AcDbEntity
8
Geo
100
AcDbLine
10
-16.2987244370549
20
-1.18746732825926
30
0.000000000000000
11
-16.1987244370549
21
-1.28540597801866
31
0.000000000000000
  0
LINE
  5
F103A6
330
F103A7
100
AcDbEntity
8
Geo
100
AcDbLine
10
-16.1987244370549
20
-1.28540597801866
30
0.000000000000000
11
-16.0987244370549
21
-1.38292124213790
31
0.000000000000000
  0
LINE
  5
F103A8
330
F103A9
100
AcDbEntity
8
Geo
100
AcDbLine
10
-16.0987244370549
20
-1.38292124213790
30
0.000000000000000
11
-15.9987244370549
21
-1.47997411581149
31
0.000000000000000
  0
LINE
  5
F103AA
330
F103AB
100
AcDbEntity
8
Geo
100
AcDbLine
10
-15.9987244370549
20
-1.47997411581149
30
0.000000000000000
11
-15.8987244370549
21
-1.57652577918401
31
0.000000000000000
  0
LINE
  5
F103AC
330
F103AD
100
AcDbEntity
8
Geo
100
AcDbLine
10
-15.8987244370549
20
-1.57652577918401
30
0.000000000000000
11
-15.7987244370549
21
-1.67253761287744
31
0.000000000000000
  0
LINE
  5
F103AE
330
F103AF
100
AcDbEntity
8
Geo
100
AcDbLine
10
-15.7987244370549
20
-1.67253761287744
30
0.000000000000000
11
-15.6987244370549
21
-1.76797121343844
31
0.000000000000000
  0
LINE
  5
F103B0
330
F103B1
100
AcDbEntity
8
Geo
100
AcDbLine
10
-15.6987244370549
20
-1.76797121343844
30
0.000000000000000
11
-15.5987244370549
21
-1.86278840869921
31
0.000000000000000
  0
LINE
  5
F103B2
330
F103B3
100
AcDbEntity
8
Geo
100
AcDbLine
10
-15.5987244370549
20
-1.86278840869921
30
0.000000000000000
11
-15.4987244370549
21
-1.95695127304588
31
0.000000000000000
  0
LINE
  5
F103B4
330
F103B5
100
AcDbEntity
8
Geo
100
AcDbLine
10
-15.4987244370549
20
-1.95695127304588
30
0.000000000000000
11
-15.3987244370549
21
-2.05042214258817
31
0.000000000000000
  0
LINE
  5
F103B6
330
F103B7
100
AcDbEntity
8
Geo
100
AcDbLine
10
-15.3987244370549
20
-2.05042214258817
30
0.000000000000000
11
-15.2987244370549
21
-2.14316363022455
31
0.000000000000000
  0
LINE
  5
F103B8
330
F103B9
100
AcDbEntity
8
Geo
100
AcDbLine
10
-15.2987244370549
20
-2.14316363022455
30
0.000000000000000
11
-15.1987244370549
21
-2.23513864059649
31
0.000000000000000
  0
LINE
  5
F103BA
330
F103BB
100
AcDbEntity
8
Geo
100
AcDbLine
10
-15.1987244370549
20
-2.23513864059649
30
0.000000000000000
11
-15.0987244370549
21
-2.32631038492617
31
0.000000000000000
  0
LINE
  5
F103BC
330
F103BD
100
AcDbEntity
8
Geo
100
AcDbLine
10
-15.0987244370549
20
-2.32631038492617
30
0.000000000000000
11
-14.9987244370549
21
-2.41664239573144
31
0.000000000000000
  0
LINE
  5
F103BE
330
F103BF
100
AcDbEntity
8
Geo
100
AcDbLine
10
-14.9987244370549
20
-2.41664239573144
30
0.000000000000000
11
-14.8987244370549
21
-2.50609854141242
31
0.000000000000000
  0
LINE
  5
F103C0
330
F103C1
100
AcDbEntity
8
Geo
100
AcDbLine
10
-14.8987244370549
20
-2.50609854141242
30
0.000000000000000
11
-14.7987244370549
21
-2.59464304070354
31
0.000000000000000
  0
LINE
  5
F103C2
330
F103C3
100
AcDbEntity
8
Geo
100
AcDbLine
10
-14.7987244370549
20
-2.59464304070354
30
0.000000000000000
11
-14.6987244370549
21
-2.68224047698569
31
0.000000000000000
  0
LINE
  5
F103C4
330
F103C5
100
AcDbEntity
8
Geo
100
AcDbLine
10
-14.6987244370549
20
-2.68224047698569
30
0.000000000000000
11
-14.5987244370549
21
-2.76885581245228
31
0.000000000000000
  0
LINE
  5
F103C6
330
F103C7
100
AcDbEntity
8
Geo
100
AcDbLine
10
-14.5987244370549
20
-2.76885581245228
30
0.000000000000000
11
-14.4987244370549
21
-2.85445440212400
31
0.000000000000000
  0
LINE
  5
F103C8
330
F103C9
100
AcDbEntity
8
Geo
100
AcDbLine
10
-14.4987244370549
20
-2.85445440212400
30
0.000000000000000
11
-14.3987244370549
21
-2.93900200770628
31
0.000000000000000
  0
LINE
  5
F103CA
330
F103CB
100
AcDbEntity
8
Geo
100
AcDbLine
10
-14.3987244370549
20
-2.93900200770628
30
0.000000000000000
11
-14.2987244370549
21
-3.02246481128416
31
0.000000000000000
  0
LINE
  5
F103CC
330
F103CD
100
AcDbEntity
8
Geo
100
AcDbLine
10
-14.2987244370549
20
-3.02246481128416
30
0.000000000000000
11
-14.1987244370549
21
-3.10480942884903
31
0.000000000000000
  0
LINE
  5
F103CE
330
F103CF
100
AcDbEntity
8
Geo
100
AcDbLine
10
-14.1987244370549
20
-3.10480942884903
30
0.000000000000000
11
-14.0987244370549
21
-3.18600292365180
31
0.000000000000000
  0
LINE
  5
F103D0
330
F103D1
100
AcDbEntity
8
Geo
100
AcDbLine
10
-14.0987244370549
20
-3.18600292365180
30
0.000000000000000
11
-13.9987244370549
21
-3.26601281937709
31
0.000000000000000
  0
LINE
  5
F103D2
330
F103D3
100
AcDbEntity
8
Geo
100
AcDbLine
10
-13.9987244370549
20
-3.26601281937709
30
0.000000000000000
11
-13.8987244370549
21
-3.34480711313341
31
0.000000000000000
  0
LINE
  5
F103D4
330
F103D5
100
AcDbEntity
8
Geo
100
AcDbLine
10
-13.8987244370549
20
-3.34480711313341
30
0.000000000000000
11
-13.7987244370549
21
-3.42235428825382
31
0.000000000000000
  0
LINE
  5
F103D6
330
F103D7
100
AcDbEntity
8
Geo
100
AcDbLine
10
-13.7987244370549
20
-3.42235428825382
30
0.000000000000000
11
-13.6987244370549
21
-3.49862332690224
31
0.000000000000000
  0
LINE
  5
F103D8
330
F103D9
100
AcDbEntity
8
Geo
100
AcDbLine
10
-13.6987244370549
20
-3.49862332690224
30
0.000000000000000
11
-13.5987244370549
21
-3.57358372248010
31
0.000000000000000
  0
LINE
  5
F103DA
330
F103DB
100
AcDbEntity
8
Geo
100
AcDbLine
10
-13.5987244370549
20
-3.57358372248010
30
0.000000000000000
11
-13.4987244370549
21
-3.64720549182864
31
0.000000000000000
  0
LINE
  5
F103DC
330
F103DD
100
AcDbEntity
8
Geo
100
AcDbLine
10
-13.4987244370549
20
-3.64720549182864
30
0.000000000000000
11
-13.3987244370549
21
-3.71945918722172
31
0.000000000000000
  0
LINE
  5
F103DE
330
F103DF
100
AcDbEntity
8
Geo
100
AcDbLine
10
-13.3987244370549
20
-3.71945918722172
30
0.000000000000000
11
-13.2987244370549
21
-3.79031590814456
31
0.000000000000000
  0
LINE
  5
F103E0
330
F103E1
100
AcDbEntity
8
Geo
100
AcDbLine
10
-13.2987244370549
20
-3.79031590814456
30
0.000000000000000
11
-13.1987244370549
21
-3.85974731285353
31
0.000000000000000
  0
LINE
  5
F103E2
330
F103E3
100
AcDbEntity
8
Geo
100
AcDbLine
10
-13.1987244370549
20
-3.85974731285353
30
0.000000000000000
11
-13.0987244370549
21
-3.92772562971248
31
0.000000000000000
  0
LINE
  5
F103E4
330
F103E5
100
AcDbEntity
8
Geo
100
AcDbLine
10
-13.0987244370549
20
-3.92772562971248
30
0.000000000000000
11
-12.9987244370549
21
-3.99422366830105
31
0.000000000000000
  0
LINE
  5
F103E6
330
F103E7
100
AcDbEntity
8
Geo
100
AcDbLine
10
-12.9987244370549
20
-3.99422366830105
30
0.000000000000000
11
-12.8987244370549
21
-4.05921483029042
31
0.000000000000000
  0
LINE
  5
F103E8
330
F103E9
100
AcDbEntity
8
Geo
100
AcDbLine
10
-32.7987244370549
20
3.89753895039578
30
0.000000000000000
11
-32.6987244370549
21
3.95949747250688
31
0.000000000000000
  0
LINE
  5
F103EA
330
F103EB
100
AcDbEntity
8
Geo
100
AcDbLine
10
-32.6987244370549
20
3.95949747250688
30
0.000000000000000
11
-32.6987244370549
21
3.95949747250688
31
0.000000000000000
  0
LINE
  5
F103EC
330
F103ED
100
AcDbEntity
8
Geo
100
AcDbLine
10
-32.6987244370549
20
3.95949747250688
30
0.000000000000000
11
-32.5987244370549
21
3.90398655317081
31
0.000000000000000
  0
LINE
  5
F103EE
330
F103EF
100
AcDbEntity
8
Geo
100
AcDbLine
10
-32.5987244370549
20
3.90398655317081
30
0.000000000000000
11
-32.4987244370549
21
3.84682333165342
31
0.000000000000000
  0
LINE
  5
F103F0
330
F103F1
100
AcDbEntity
8
Geo
100
AcDbLine
10
-32.4987244370549
20
3.84682333165342
30
0.000000000000000
11
-32.3987244370549
21
3.78803067248114
31
0.000000000000000
  0
LINE
  5
F103F2
330
F103F3
100
AcDbEntity
8
Geo
100
AcDbLine
10
-32.3987244370549
20
3.78803067248114
30
0.000000000000000
11
-32.2987244370549
21
3.72763209193374
31
0.000000000000000
  0
LINE
  5
F103F4
330
F103F5
100
AcDbEntity
8
Geo
100
AcDbLine
10
-32.2987244370549
20
3.72763209193374
30
0.000000000000000
11
-32.1987244370549
21
3.66565174863816
31
0.000000000000000
  0
LINE
  5
F103F6
330
F103F7
100
AcDbEntity
8
Geo
100
AcDbLine
10
-32.1987244370549
20
3.66565174863816
30
0.000000000000000
11
-32.0987244370549
21
3.60211443390531
31
0.000000000000000
  0
LINE
  5
F103F8
330
F103F9
100
AcDbEntity
8
Geo
100
AcDbLine
10
-32.0987244370549
20
3.60211443390531
30
0.000000000000000
11
-31.9987244370549
21
3.53704556181393
31
0.000000000000000
  0
LINE
  5
F103FA
330
F103FB
100
AcDbEntity
8
Geo
100
AcDbLine
10
-31.9987244370549
20
3.53704556181393
30
0.000000000000000
11
-31.8987244370549
21
3.47047115904528
31
0.000000000000000
  0
LINE
  5
F103FC
330
F103FD
100
AcDbEntity
8
Geo
100
AcDbLine
10
-31.8987244370549
20
3.47047115904528
30
0.000000000000000
11
-31.7987244370549
21
3.40241785447283
31
0.000000000000000
  0
LINE
  5
F103FE
330
F103FF
100
AcDbEntity
8
Geo
100
AcDbLine
10
-31.7987244370549
20
3.40241785447283
30
0.000000000000000
11
-31.6987244370549
21
3.33291286851104
31
0.000000000000000
  0
LINE
  5
F10400
330
F10401
100
AcDbEntity
8
Geo
100
AcDbLine
10
-31.6987244370549
20
3.33291286851104
30
0.000000000000000
11
-31.5987244370549
21
3.26198400222757
31
0.000000000000000
  0
LINE
  5
F10402
330
F10403
100
AcDbEntity
8
Geo
100
AcDbLine
10
-31.5987244370549
20
3.26198400222757
30
0.000000000000000
11
-31.4987244370549
21
3.18965962622323
31
0.000000000000000
  0
LINE
  5
F10404
330
F10405
100
AcDbEntity
8
Geo
100
AcDbLine
10
-31.4987244370549
20
3.18965962622323
30
0.000000000000000
11
-31.3987244370549
21
3.11596866928411
31
0.000000000000000
  0
LINE
  5
F10406
330
F10407
100
AcDbEntity
8
Geo
100
AcDbLine
10
-31.3987244370549
20
3.11596866928411
30
0.000000000000000
11
-31.2987244370549
21
3.04094060681046
31
0.000000000000000
  0
LINE
  5
F10408
330
F10409
100
AcDbEntity
8
Geo
100
AcDbLine
10
-31.2987244370549
20
3.04094060681046
30
0.000000000000000
11
-31.1987244370549
21
2.96460544902690
31
0.000000000000000
  0
LINE
  5
F1040A
330
F1040B
100
AcDbEntity
8
Geo
100
AcDbLine
10
-31.1987244370549
20
2.96460544902690
30
0.000000000000000
11
-31.0987244370549
21
2.88699372897875
31
0.000000000000000
  0
LINE
  5
F1040C
330
F1040D
100
AcDbEntity
8
Geo
100
AcDbLine
10
-31.0987244370549
20
2.88699372897875
30
0.000000000000000
11
-30.9987244370549
21
2.80813649031923
31
0.000000000000000
  0
LINE
  5
F1040E
330
F1040F
100
AcDbEntity
8
Geo
100
AcDbLine
10
-30.9987244370549
20
2.80813649031923
30
0.000000000000000
11
-30.8987244370549
21
2.72806527489239
31
0.000000000000000
  0
LINE
  5
F10410
330
F10411
100
AcDbEntity
8
Geo
100
AcDbLine
10
-30.8987244370549
20
2.72806527489239
30
0.000000000000000
11
-30.7987244370549
21
2.64681211011678
31
0.000000000000000
  0
LINE
  5
F10412
330
F10413
100
AcDbEntity
8
Geo
100
AcDbLine
10
-30.7987244370549
20
2.64681211011678
30
0.000000000000000
11
-30.6987244370549
21
2.56440949617498
31
0.000000000000000
  0
LINE
  5
F10414
330
F10415
100
AcDbEntity
8
Geo
100
AcDbLine
10
-30.6987244370549
20
2.56440949617498
30
0.000000000000000
11
-30.5987244370549
21
2.48089039301385
31
0.000000000000000
  0
LINE
  5
F10416
330
F10417
100
AcDbEntity
8
Geo
100
AcDbLine
10
-30.5987244370549
20
2.48089039301385
30
0.000000000000000
11
-30.4987244370549
21
2.39628820716110
31
0.000000000000000
  0
LINE
  5
F10418
330
F10419
100
AcDbEntity
8
Geo
100
AcDbLine
10
-30.4987244370549
20
2.39628820716110
30
0.000000000000000
11
-30.3987244370549
21
2.31063677836304
31
0.000000000000000
  0
LINE
  5
F1041A
330
F1041B
100
AcDbEntity
8
Geo
100
AcDbLine
10
-30.3987244370549
20
2.31063677836304
30
0.000000000000000
11
-30.2987244370549
21
2.22397036604921
31
0.000000000000000
  0
LINE
  5
F1041C
330
F1041D
100
AcDbEntity
8
Geo
100
AcDbLine
10
-30.2987244370549
20
2.22397036604921
30
0.000000000000000
11
-30.1987244370549
21
2.13632363562898
31
0.000000000000000
  0
LINE
  5
F1041E
330
F1041F
100
AcDbEntity
8
Geo
100
AcDbLine
10
-30.1987244370549
20
2.13632363562898
30
0.000000000000000
11
-30.0987244370549
21
2.04773164462591
31
0.000000000000000
  0
LINE
  5
F10420
330
F10421
100
AcDbEntity
8
Geo
100
AcDbLine
10
-30.0987244370549
20
2.04773164462591
30
0.000000000000000
11
-29.9987244370549
21
1.95822982865520
31
0.000000000000000
  0
LINE
  5
F10422
330
F10423
100
AcDbEntity
8
Geo
100
AcDbLine
10
-29.9987244370549
20
1.95822982865520
30
0.000000000000000
11
-29.8987244370549
21
1.86785398724989
31
0.000000000000000
  0
LINE
  5
F10424
330
F10425
100
AcDbEntity
8
Geo
100
AcDbLine
10
-29.8987244370549
20
1.86785398724989
30
0.000000000000000
11
-29.7987244370549
21
1.77664026954155
31
0.000000000000000
  0
LINE
  5
F10426
330
F10427
100
AcDbEntity
8
Geo
100
AcDbLine
10
-29.7987244370549
20
1.77664026954155
30
0.000000000000000
11
-29.6987244370549
21
1.68462515980110
31
0.000000000000000
  0
LINE
  5
F10428
330
F10429
100
AcDbEntity
8
Geo
100
AcDbLine
10
-29.6987244370549
20
1.68462515980110
30
0.000000000000000
11
-29.5987244370549
21
1.59184546284558
31
0.000000000000000
  0
LINE
  5
F1042A
330
F1042B
100
AcDbEntity
8
Geo
100
AcDbLine
10
-29.5987244370549
20
1.59184546284558
30
0.000000000000000
11
-29.4987244370549
21
1.49833828931673
31
0.000000000000000
  0
LINE
  5
F1042C
330
F1042D
100
AcDbEntity
8
Geo
100
AcDbLine
10
-29.4987244370549
20
1.49833828931673
30
0.000000000000000
11
-29.3987244370549
21
1.40414104083720
31
0.000000000000000
  0
LINE
  5
F1042E
330
F1042F
100
AcDbEntity
8
Geo
100
AcDbLine
10
-29.3987244370549
20
1.40414104083720
30
0.000000000000000
11
-29.2987244370549
21
1.30929139505046
31
0.000000000000000
  0
LINE
  5
F10430
330
F10431
100
AcDbEntity
8
Geo
100
AcDbLine
10
-29.2987244370549
20
1.30929139505046
30
0.000000000000000
11
-29.1987244370549
21
1.21382729055016
31
0.000000000000000
  0
LINE
  5
F10432
330
F10433
100
AcDbEntity
8
Geo
100
AcDbLine
10
-29.1987244370549
20
1.21382729055016
30
0.000000000000000
11
-29.0987244370549
21
1.11778691170527
31
0.000000000000000
  0
LINE
  5
F10434
330
F10435
100
AcDbEntity
8
Geo
100
AcDbLine
10
-29.0987244370549
20
1.11778691170527
30
0.000000000000000
11
-28.9987244370549
21
1.02120867338681
31
0.000000000000000
  0
LINE
  5
F10436
330
F10437
100
AcDbEntity
8
Geo
100
AcDbLine
10
-28.9987244370549
20
1.02120867338681
30
0.000000000000000
11
-28.8987244370549
21
0.924131205602413
31
0.000000000000000
  0
LINE
  5
F10438
330
F10439
100
AcDbEntity
8
Geo
100
AcDbLine
10
-28.8987244370549
20
0.924131205602413
30
0.000000000000000
11
-28.7987244370549
21
0.826593338044839
31
0.000000000000000
  0
LINE
  5
F1043A
330
F1043B
100
AcDbEntity
8
Geo
100
AcDbLine
10
-28.7987244370549
20
0.826593338044839
30
0.000000000000000
11
-28.6987244370549
21
0.728634084560626
31
0.000000000000000
  0
LINE
  5
F1043C
330
F1043D
100
AcDbEntity
8
Geo
100
AcDbLine
10
-28.6987244370549
20
0.728634084560626
30
0.000000000000000
11
-28.5987244370549
21
0.630292627545063
31
0.000000000000000
  0
LINE
  5
F1043E
330
F1043F
100
AcDbEntity
8
Geo
100
AcDbLine
10
-28.5987244370549
20
0.630292627545063
30
0.000000000000000
11
-28.4987244370549
21
0.531608302269753
31
0.000000000000000
  0
LINE
  5
F10440
330
F10441
100
AcDbEntity
8
Geo
100
AcDbLine
10
-28.4987244370549
20
0.531608302269753
30
0.000000000000000
11
-28.3987244370549
21
0.432620581149032
31
0.000000000000000
  0
LINE
  5
F10442
330
F10443
100
AcDbEntity
8
Geo
100
AcDbLine
10
-28.3987244370549
20
0.432620581149032
30
0.000000000000000
11
-28.2987244370549
21
0.333369057951532
31
0.000000000000000
  0
LINE
  5
F10444
330
F10445
100
AcDbEntity
8
Geo
100
AcDbLine
10
-28.2987244370549
20
0.333369057951532
30
0.000000000000000
11
-28.1987244370549
21
0.233893431963194
31
0.000000000000000
  0
LINE
  5
F10446
330
F10447
100
AcDbEntity
8
Geo
100
AcDbLine
10
-28.1987244370549
20
0.233893431963194
30
0.000000000000000
11
-28.0987244370549
21
0.134233492108090
31
0.000000000000000
  0
LINE
  5
F10448
330
F10449
100
AcDbEntity
8
Geo
100
AcDbLine
10
-28.0987244370549
20
0.134233492108090
30
0.000000000000000
11
-27.9987244370549
21
0.0344291010333801
31
0.000000000000000
  0
LINE
  5
F1044A
330
F1044B
100
AcDbEntity
8
Geo
100
AcDbLine
10
-27.9987244370549
20
0.0344291010333801
30
0.000000000000000
11
-27.8987244370549
21
-0.0654798208352125
31
0.000000000000000
  0
LINE
  5
F1044C
330
F1044D
100
AcDbEntity
8
Geo
100
AcDbLine
10
-27.8987244370549
20
-0.0654798208352125
30
0.000000000000000
11
-27.7987244370549
21
-0.165453311261042
31
0.000000000000000
  0
LINE
  5
F1044E
330
F1044F
100
AcDbEntity
8
Geo
100
AcDbLine
10
-27.7987244370549
20
-0.165453311261042
30
0.000000000000000
11
-27.6987244370549
21
-0.265451382180900
31
0.000000000000000
  0
LINE
  5
F10450
330
F10451
100
AcDbEntity
8
Geo
100
AcDbLine
10
-27.6987244370549
20
-0.265451382180900
30
0.000000000000000
11
-27.5987244370549
21
-0.365434035699709
31
0.000000000000000
  0
LINE
  5
F10452
330
F10453
100
AcDbEntity
8
Geo
100
AcDbLine
10
-27.5987244370549
20
-0.365434035699709
30
0.000000000000000
11
-27.4987244370549
21
-0.465361280089143
31
0.000000000000000
  0
LINE
  5
F10454
330
F10455
100
AcDbEntity
8
Geo
100
AcDbLine
10
-27.4987244370549
20
-0.465361280089143
30
0.000000000000000
11
-27.3987244370549
21
-0.565193145783796
31
0.000000000000000
  0
LINE
  5
F10456
330
F10457
100
AcDbEntity
8
Geo
100
AcDbLine
10
-27.3987244370549
20
-0.565193145783796
30
0.000000000000000
11
-27.2987244370549
21
-0.664889701368461
31
0.000000000000000
  0
LINE
  5
F10458
330
F10459
100
AcDbEntity
8
Geo
100
AcDbLine
10
-27.2987244370549
20
-0.664889701368461
30
0.000000000000000
11
-27.1987244370549
21
-0.764411069550175
31
0.000000000000000
  0
LINE
  5
F1045A
330
F1045B
100
AcDbEntity
8
Geo
100
AcDbLine
10
-27.1987244370549
20
-0.764411069550175
30
0.000000000000000
11
-27.0987244370549
21
-0.863717443108599
31
0.000000000000000
  0
LINE
  5
F1045C
330
F1045D
100
AcDbEntity
8
Geo
100
AcDbLine
10
-27.0987244370549
20
-0.863717443108599
30
0.000000000000000
11
-26.9987244370549
21
-0.962769100818377
31
0.000000000000000
  0
LINE
  5
F1045E
330
F1045F
100
AcDbEntity
8
Geo
100
AcDbLine
10
-26.9987244370549
20
-0.962769100818377
30
0.000000000000000
11
-26.8987244370549
21
-1.06152642333710
31
0.000000000000000
  0
LINE
  5
F10460
330
F10461
100
AcDbEntity
8
Geo
100
AcDbLine
10
-26.8987244370549
20
-1.06152642333710
30
0.000000000000000
11
-26.7987244370549
21
-1.15994990905250
31
0.000000000000000
  0
LINE
  5
F10462
330
F10463
100
AcDbEntity
8
Geo
100
AcDbLine
10
-26.7987244370549
20
-1.15994990905250
30
0.000000000000000
11
-26.6987244370549
21
-1.25800018988258
31
0.000000000000000
  0
LINE
  5
F10464
330
F10465
100
AcDbEntity
8
Geo
100
AcDbLine
10
-26.6987244370549
20
-1.25800018988258
30
0.000000000000000
11
-26.5987244370549
21
-1.35563804702235
31
0.000000000000000
  0
LINE
  5
F10466
330
F10467
100
AcDbEntity
8
Geo
100
AcDbLine
10
-26.5987244370549
20
-1.35563804702235
30
0.000000000000000
11
-26.4987244370549
21
-1.45282442663076
31
0.000000000000000
  0
LINE
  5
F10468
330
F10469
100
AcDbEntity
8
Geo
100
AcDbLine
10
-26.4987244370549
20
-1.45282442663076
30
0.000000000000000
11
-26.3987244370549
21
-1.54952045545177
31
0.000000000000000
  0
LINE
  5
F1046A
330
F1046B
100
AcDbEntity
8
Geo
100
AcDbLine
10
-26.3987244370549
20
-1.54952045545177
30
0.000000000000000
11
-26.2987244370549
21
-1.64568745636311
31
0.000000000000000
  0
LINE
  5
F1046C
330
F1046D
100
AcDbEntity
8
Geo
100
AcDbLine
10
-26.2987244370549
20
-1.64568745636311
30
0.000000000000000
11
-26.1987244370549
21
-1.74128696384664
31
0.000000000000000
  0
LINE
  5
F1046E
330
F1046F
100
AcDbEntity
8
Geo
100
AcDbLine
10
-26.1987244370549
20
-1.74128696384664
30
0.000000000000000
11
-26.0987244370549
21
-1.83628073937399
31
0.000000000000000
  0
LINE
  5
F10470
330
F10471
100
AcDbEntity
8
Geo
100
AcDbLine
10
-26.0987244370549
20
-1.83628073937399
30
0.000000000000000
11
-25.9987244370549
21
-1.93063078670153
31
0.000000000000000
  0
LINE
  5
F10472
330
F10473
100
AcDbEntity
8
Geo
100
AcDbLine
10
-25.9987244370549
20
-1.93063078670153
30
0.000000000000000
11
-25.8987244370549
21
-2.02429936706831
31
0.000000000000000
  0
LINE
  5
F10474
330
F10475
100
AcDbEntity
8
Geo
100
AcDbLine
10
-25.8987244370549
20
-2.02429936706831
30
0.000000000000000
11
-25.7987244370549
21
-2.11724901429108
31
0.000000000000000
  0
LINE
  5
F10476
330
F10477
100
AcDbEntity
8
Geo
100
AcDbLine
10
-25.7987244370549
20
-2.11724901429108
30
0.000000000000000
11
-25.6987244370549
21
-2.20944254975025
31
0.000000000000000
  0
LINE
  5
F10478
330
F10479
100
AcDbEntity
8
Geo
100
AcDbLine
10
-25.6987244370549
20
-2.20944254975025
30
0.000000000000000
11
-25.5987244370549
21
-2.30084309726089
31
0.000000000000000
  0
LINE
  5
F1047A
330
F1047B
100
AcDbEntity
8
Geo
100
AcDbLine
10
-25.5987244370549
20
-2.30084309726089
30
0.000000000000000
11
-25.4987244370549
21
-2.39141409782265
31
0.000000000000000
  0
LINE
  5
F1047C
330
F1047D
100
AcDbEntity
8
Geo
100
AcDbLine
10
-25.4987244370549
20
-2.39141409782265
30
0.000000000000000
11
-25.3987244370549
21
-2.48111932424288
31
0.000000000000000
  0
LINE
  5
F1047E
330
F1047F
100
AcDbEntity
8
Geo
100
AcDbLine
10
-25.3987244370549
20
-2.48111932424288
30
0.000000000000000
11
-25.2987244370549
21
-2.56992289562709
31
0.000000000000000
  0
LINE
  5
F10480
330
F10481
100
AcDbEntity
8
Geo
100
AcDbLine
10
-25.2987244370549
20
-2.56992289562709
30
0.000000000000000
11
-25.1987244370549
21
-2.65778929173075
31
0.000000000000000
  0
LINE
  5
F10482
330
F10483
100
AcDbEntity
8
Geo
100
AcDbLine
10
-25.1987244370549
20
-2.65778929173075
30
0.000000000000000
11
-25.0987244370549
21
-2.74468336716695
31
0.000000000000000
  0
LINE
  5
F10484
330
F10485
100
AcDbEntity
8
Geo
100
AcDbLine
10
-25.0987244370549
20
-2.74468336716695
30
0.000000000000000
11
-24.9987244370549
21
-2.83057036546409
31
0.000000000000000
  0
LINE
  5
F10486
330
F10487
100
AcDbEntity
8
Geo
100
AcDbLine
10
-24.9987244370549
20
-2.83057036546409
30
0.000000000000000
11
-24.8987244370549
21
-2.91541593296800
31
0.000000000000000
  0
LINE
  5
F10488
330
F10489
100
AcDbEntity
8
Geo
100
AcDbLine
10
-24.8987244370549
20
-2.91541593296800
30
0.000000000000000
11
-24.7987244370549
21
-2.99918613258294
31
0.000000000000000
  0
LINE
  5
F1048A
330
F1048B
100
AcDbEntity
8
Geo
100
AcDbLine
10
-24.7987244370549
20
-2.99918613258294
30
0.000000000000000
11
-24.6987244370549
21
-3.08184745734598
31
0.000000000000000
  0
LINE
  5
F1048C
330
F1048D
100
AcDbEntity
8
Geo
100
AcDbLine
10
-24.6987244370549
20
-3.08184745734598
30
0.000000000000000
11
-24.5987244370549
21
-3.16336684382934
31
0.000000000000000
  0
LINE
  5
F1048E
330
F1048F
100
AcDbEntity
8
Geo
100
AcDbLine
10
-24.5987244370549
20
-3.16336684382934
30
0.000000000000000
11
-24.4987244370549
21
-3.24371168536536
31
0.000000000000000
  0
LINE
  5
F10490
330
F10491
100
AcDbEntity
8
Geo
100
AcDbLine
10
-24.4987244370549
20
-3.24371168536536
30
0.000000000000000
11
-24.3987244370549
21
-3.32284984508866
31
0.000000000000000
  0
LINE
  5
F10492
330
F10493
100
AcDbEntity
8
Geo
100
AcDbLine
10
-24.3987244370549
20
-3.32284984508866
30
0.000000000000000
11
-24.2987244370549
21
-3.40074966879052
31
0.000000000000000
  0
LINE
  5
F10494
330
F10495
100
AcDbEntity
8
Geo
100
AcDbLine
10
-24.2987244370549
20
-3.40074966879052
30
0.000000000000000
11
-24.1987244370549
21
-3.47737999758011
31
0.000000000000000
  0
LINE
  5
F10496
330
F10497
100
AcDbEntity
8
Geo
100
AcDbLine
10
-24.1987244370549
20
-3.47737999758011
30
0.000000000000000
11
-24.0987244370549
21
-3.55271018034763
31
0.000000000000000
  0
LINE
  5
F10498
330
F10499
100
AcDbEntity
8
Geo
100
AcDbLine
10
-24.0987244370549
20
-3.55271018034763
30
0.000000000000000
11
-23.9987244370549
21
-3.62671008602436
31
0.000000000000000
  0
LINE
  5
F1049A
330
F1049B
100
AcDbEntity
8
Geo
100
AcDbLine
10
-23.9987244370549
20
-3.62671008602436
30
0.000000000000000
11
-23.8987244370549
21
-3.69935011563470
31
0.000000000000000
  0
LINE
  5
F1049C
330
F1049D
100
AcDbEntity
8
Geo
100
AcDbLine
10
-23.8987244370549
20
-3.69935011563470
30
0.000000000000000
11
-23.7987244370549
21
-3.77060121413531
31
0.000000000000000
  0
LINE
  5
F1049E
330
F1049F
100
AcDbEntity
8
Geo
100
AcDbLine
10
-23.7987244370549
20
-3.77060121413531
30
0.000000000000000
11
-23.6987244370549
21
-3.84043488203679
31
0.000000000000000
  0
LINE
  5
F104A0
330
F104A1
100
AcDbEntity
8
Geo
100
AcDbLine
10
-23.6987244370549
20
-3.84043488203679
30
0.000000000000000
11
-23.5987244370549
21
-3.90882318680310
31
0.000000000000000
  0
LINE
  5
F104A2
330
F104A3
100
AcDbEntity
8
Geo
100
AcDbLine
10
-23.5987244370549
20
-3.90882318680310
30
0.000000000000000
11
-23.4987244370549
21
-3.97573877402415
31
0.000000000000000
  0
LINE
  5
F104A4
330
F104A5
100
AcDbEntity
8
Geo
100
AcDbLine
10
-23.4987244370549
20
-3.97573877402415
30
0.000000000000000
11
-23.3987244370549
21
-4.04115487835725
31
0.000000000000000
  0
LINE
  5
F104A6
330
F104A7
100
AcDbEntity
8
Geo
100
AcDbLine
10
-23.3987244370549
20
-4.04115487835725
30
0.000000000000000
11
-23.2987244370549
21
-4.10504533423288
31
0.000000000000000
  0
LINE
  5
F104A8
330
F104A9
100
AcDbEntity
8
Geo
100
AcDbLine
10
-23.2987244370549
20
-4.10504533423288
30
0.000000000000000
11
-23.1987244370549
21
-4.16738458632053
31
0.000000000000000
  0
LINE
  5
F104AA
330
F104AB
100
AcDbEntity
8
Geo
100
AcDbLine
10
-23.1987244370549
20
-4.16738458632053
30
0.000000000000000
11
-23.0987244370549
21
-4.22814769975057
31
0.000000000000000
  0
LINE
  5
F104AC
330
F104AD
100
AcDbEntity
8
Geo
100
AcDbLine
10
-23.0987244370549
20
-4.22814769975057
30
0.000000000000000
11
-22.9987244370549
21
-4.28731037008777
31
0.000000000000000
  0
LINE
  5
F104AE
330
F104AF
100
AcDbEntity
8
Geo
100
AcDbLine
10
-22.9987244370549
20
-4.28731037008777
30
0.000000000000000
11
-22.8987244370549
21
-4.34484893305284
31
0.000000000000000
  0
LINE
  5
F104B0
330
F104B1
100
AcDbEntity
8
Geo
100
AcDbLine
10
-22.8987244370549
20
-4.34484893305284
30
0.000000000000000
11
-22.7987244370549
21
-4.40074037398774
31
0.000000000000000
  0
LINE
  5
F104B2
330
F104B3
100
AcDbEntity
8
Geo
100
AcDbLine
10
-22.7987244370549
20
-4.40074037398774
30
0.000000000000000
11
-22.6987244370549
21
-4.45496233706133
31
0.000000000000000
  0
LINE
  5
F104B4
330
F104B5
100
AcDbEntity
8
Geo
100
AcDbLine
10
-22.6987244370549
20
-4.45496233706133
30
0.000000000000000
11
-22.5987244370549
21
-4.50749313421132
31
0.000000000000000
  0
LINE
  5
F104B6
330
F104B7
100
AcDbEntity
8
Geo
100
AcDbLine
10
-22.5987244370549
20
-4.50749313421132
30
0.000000000000000
11
-22.4987244370549
21
-4.55831175381924
31
0.000000000000000
  0
LINE
  5
F104B8
330
F104B9
100
AcDbEntity
8
Geo
100
AcDbLine
10
-22.4987244370549
20
-4.55831175381924
30
0.000000000000000
11
-22.3987244370549
21
-4.60739786911484
31
0.000000000000000
  0
LINE
  5
F104BA
330
F104BB
100
AcDbEntity
8
Geo
100
AcDbLine
10
-22.3987244370549
20
-4.60739786911484
30
0.000000000000000
11
-22.2987244370549
21
-4.65473184630646
31
0.000000000000000
  0
LINE
  5
F104BC
330
F104BD
100
AcDbEntity
8
Geo
100
AcDbLine
10
-22.2987244370549
20
-4.65473184630646
30
0.000000000000000
11
-22.1987244370549
21
-4.70029475243435
31
0.000000000000000
  0
LINE
  5
F104BE
330
F104BF
100
AcDbEntity
8
Geo
100
AcDbLine
10
-22.1987244370549
20
-4.70029475243435
30
0.000000000000000
11
-22.0987244370549
21
-4.74406836294354
31
0.000000000000000
  0
LINE
  5
F104C0
330
F104C1
100
AcDbEntity
8
Geo
100
AcDbLine
10
-22.0987244370549
20
-4.74406836294354
30
0.000000000000000
11
-21.9987244370549
21
-4.78603516897347
31
0.000000000000000
  0
LINE
  5
F104C2
330
F104C3
100
AcDbEntity
8
Geo
100
AcDbLine
10
-21.9987244370549
20
-4.78603516897347
30
0.000000000000000
11
-21.8987244370549
21
-4.82617838436128
31
0.000000000000000
  0
LINE
  5
F104C4
330
F104C5
100
AcDbEntity
8
Geo
100
AcDbLine
10
-21.8987244370549
20
-4.82617838436128
30
0.000000000000000
11
-21.7987244370549
21
-4.86448195235605
31
0.000000000000000
  0
LINE
  5
F104C6
330
F104C7
100
AcDbEntity
8
Geo
100
AcDbLine
10
-21.7987244370549
20
-4.86448195235605
30
0.000000000000000
11
-21.6987244370549
21
-4.90093055204129
31
0.000000000000000
  0
LINE
  5
F104C8
330
F104C9
100
AcDbEntity
8
Geo
100
AcDbLine
10
-21.6987244370549
20
-4.90093055204129
30
0.000000000000000
11
-21.5987244370549
21
-4.93550960446310
31
0.000000000000000
  0
LINE
  5
F104CA
330
F104CB
100
AcDbEntity
8
Geo
100
AcDbLine
10
-21.5987244370549
20
-4.93550960446310
30
0.000000000000000
11
-21.4987244370549
21
-4.96820527846157
31
0.000000000000000
  0
LINE
  5
F104CC
330
F104CD
100
AcDbEntity
8
Geo
100
AcDbLine
10
-21.4987244370549
20
-4.96820527846157
30
0.000000000000000
11
-21.3987244370549
21
-4.99900449620302
31
0.000000000000000
  0
LINE
  5
F104CE
330
F104CF
100
AcDbEntity
8
Geo
100
AcDbLine
10
-21.3987244370549
20
-4.99900449620302
30
0.000000000000000
11
-21.2987244370549
21
-5.02789493841101
31
0.000000000000000
  0
LINE
  5
F104D0
330
F104D1
100
AcDbEntity
8
Geo
100
AcDbLine
10
-21.2987244370549
20
-5.02789493841101
30
0.000000000000000
11
-21.1987244370549
21
-5.05486504929386
31
0.000000000000000
  0
LINE
  5
F104D2
330
F104D3
100
AcDbEntity
8
Geo
100
AcDbLine
10
-21.1987244370549
20
-5.05486504929386
30
0.000000000000000
11
-21.0987244370549
21
-5.07990404116682
31
0.000000000000000
  0
LINE
  5
F104D4
330
F104D5
100
AcDbEntity
8
Geo
100
AcDbLine
10
-21.0987244370549
20
-5.07990404116682
30
0.000000000000000
11
-20.9987244370549
21
-5.10300189876697
31
0.000000000000000
  0
LINE
  5
F104D6
330
F104D7
100
AcDbEntity
8
Geo
100
AcDbLine
10
-20.9987244370549
20
-5.10300189876697
30
0.000000000000000
11
-20.8987244370549
21
-5.12414938325926
31
0.000000000000000
  0
LINE
  5
F104D8
330
F104D9
100
AcDbEntity
8
Geo
100
AcDbLine
10
-20.8987244370549
20
-5.12414938325926
30
0.000000000000000
11
-20.7987244370549
21
-5.14333803593184
31
0.000000000000000
  0
LINE
  5
F104DA
330
F104DB
100
AcDbEntity
8
Geo
100
AcDbLine
10
-20.7987244370549
20
-5.14333803593184
30
0.000000000000000
11
-20.6987244370549
21
-5.16056018157950
31
0.000000000000000
  0
LINE
  5
F104DC
330
F104DD
100
AcDbEntity
8
Geo
100
AcDbLine
10
-20.6987244370549
20
-5.16056018157950
30
0.000000000000000
11
-20.5987244370549
21
-5.17580893157359
31
0.000000000000000
  0
LINE
  5
F104DE
330
F104DF
100
AcDbEntity
8
Geo
100
AcDbLine
10
-20.5987244370549
20
-5.17580893157359
30
0.000000000000000
11
-20.4987244370549
21
-5.18907818661744
31
0.000000000000000
  0
LINE
  5
F104E0
330
F104E1
100
AcDbEntity
8
Geo
100
AcDbLine
10
-20.4987244370549
20
-5.18907818661744
30
0.000000000000000
11
-20.3987244370549
21
-5.20036263918594
31
0.000000000000000
  0
LINE
  5
F104E2
330
F104E3
100
AcDbEntity
8
Geo
100
AcDbLine
10
-20.3987244370549
20
-5.20036263918594
30
0.000000000000000
11
-20.2987244370549
21
-5.20965777564853
31
0.000000000000000
  0
LINE
  5
F104E4
330
F104E5
100
AcDbEntity
8
Geo
100
AcDbLine
10
-20.2987244370549
20
-5.20965777564853
30
0.000000000000000
11
-20.1987244370549
21
-5.21695987807456
31
0.000000000000000
  0
LINE
  5
F104E6
330
F104E7
100
AcDbEntity
8
Geo
100
AcDbLine
10
-20.1987244370549
20
-5.21695987807456
30
0.000000000000000
11
-20.0987244370549
21
-5.22226602572042
31
0.000000000000000
  0
LINE
  5
F104E8
330
F104E9
100
AcDbEntity
8
Geo
100
AcDbLine
10
-20.0987244370549
20
-5.22226602572042
30
0.000000000000000
11
-19.9987244370549
21
-5.22557409619779
31
0.000000000000000
  0
LINE
  5
F104EA
330
F104EB
100
AcDbEntity
8
Geo
100
AcDbLine
10
-19.9987244370549
20
-5.22557409619779
30
0.000000000000000
11
-19.8987244370549
21
-5.22688276632259
31
0.000000000000000
  0
LINE
  5
F104EC
330
F104ED
100
AcDbEntity
8
Geo
100
AcDbLine
10
-19.8987244370549
20
-5.22688276632259
30
0.000000000000000
11
-19.8832873707090
21
-5.22690659474809
31
0.000000000000000
  0
LINE
  5
F104EE
330
F104EF
100
AcDbEntity
8
Geo
100
AcDbLine
10
-32.7987244370549
20
-4.58024518911016
30
0.000000000000000
11
-32.6987244370549
21
-4.68770566741182
31
0.000000000000000
  0
LINE
  5
F104F0
330
F104F1
100
AcDbEntity
8
Geo
100
AcDbLine
10
-32.6987244370549
20
-4.68770566741182
30
0.000000000000000
11
-32.6987244370549
21
-4.68770566741182
31
0.000000000000000
  0
LINE
  5
F104F2
330
F104F3
100
AcDbEntity
8
Geo
100
AcDbLine
10
-32.6987244370549
20
-4.68770566741182
30
0.000000000000000
11
-32.5987244370549
21
-4.73198251562838
31
0.000000000000000
  0
LINE
  5
F104F4
330
F104F5
100
AcDbEntity
8
Geo
100
AcDbLine
10
-32.5987244370549
20
-4.73198251562838
30
0.000000000000000
11
-32.4987244370549
21
-4.77445739354347
31
0.000000000000000
  0
LINE
  5
F104F6
330
F104F7
100
AcDbEntity
8
Geo
100
AcDbLine
10
-32.4987244370549
20
-4.77445739354347
30
0.000000000000000
11
-32.3987244370549
21
-4.81511331177225
31
0.000000000000000
  0
LINE
  5
F104F8
330
F104F9
100
AcDbEntity
8
Geo
100
AcDbLine
10
-32.3987244370549
20
-4.81511331177225
30
0.000000000000000
11
-32.2987244370549
21
-4.85393400848948
31
0.000000000000000
  0
LINE
  5
F104FA
330
F104FB
100
AcDbEntity
8
Geo
100
AcDbLine
10
-32.2987244370549
20
-4.85393400848948
30
0.000000000000000
11
-32.1987244370549
21
-4.89090395593410
31
0.000000000000000
  0
LINE
  5
F104FC
330
F104FD
100
AcDbEntity
8
Geo
100
AcDbLine
10
-32.1987244370549
20
-4.89090395593410
30
0.000000000000000
11
-32.0987244370549
21
-4.92600836662005
31
0.000000000000000
  0
LINE
  5
F104FE
330
F104FF
100
AcDbEntity
8
Geo
100
AcDbLine
10
-32.0987244370549
20
-4.92600836662005
30
0.000000000000000
11
-31.9987244370549
21
-4.95923319925110
31
0.000000000000000
  0
LINE
  5
F10500
330
F10501
100
AcDbEntity
8
Geo
100
AcDbLine
10
-31.9987244370549
20
-4.95923319925110
30
0.000000000000000
11
-31.8987244370549
21
-4.99056516433720
31
0.000000000000000
  0
LINE
  5
F10502
330
F10503
100
AcDbEntity
8
Geo
100
AcDbLine
10
-31.8987244370549
20
-4.99056516433720
30
0.000000000000000
11
-31.7987244370549
21
-5.01999172951006
31
0.000000000000000
  0
LINE
  5
F10504
330
F10505
100
AcDbEntity
8
Geo
100
AcDbLine
10
-31.7987244370549
20
-5.01999172951006
30
0.000000000000000
11
-31.6987244370549
21
-5.04750112453597
31
0.000000000000000
  0
LINE
  5
F10506
330
F10507
100
AcDbEntity
8
Geo
100
AcDbLine
10
-31.6987244370549
20
-5.04750112453597
30
0.000000000000000
11
-31.5987244370549
21
-5.07308234602370
31
0.000000000000000
  0
LINE
  5
F10508
330
F10509
100
AcDbEntity
8
Geo
100
AcDbLine
10
-31.5987244370549
20
-5.07308234602370
30
0.000000000000000
11
-31.4987244370549
21
-5.09672516182573
31
0.000000000000000
  0
LINE
  5
F1050A
330
F1050B
100
AcDbEntity
8
Geo
100
AcDbLine
10
-31.4987244370549
20
-5.09672516182573
30
0.000000000000000
11
-31.3987244370549
21
-5.11842011513098
31
0.000000000000000
  0
LINE
  5
F1050C
330
F1050D
100
AcDbEntity
8
Geo
100
AcDbLine
10
-31.3987244370549
20
-5.11842011513098
30
0.000000000000000
11
-31.2987244370549
21
-5.13815852824739
31
0.000000000000000
  0
LINE
  5
F1050E
330
F1050F
100
AcDbEntity
8
Geo
100
AcDbLine
10
-31.2987244370549
20
-5.13815852824739
30
0.000000000000000
11
-31.1987244370549
21
-5.15593250607288
31
0.000000000000000
  0
LINE
  5
F10510
330
F10511
100
AcDbEntity
8
Geo
100
AcDbLine
10
-31.1987244370549
20
-5.15593250607288
30
0.000000000000000
11
-31.0987244370549
21
-5.17173493925332
31
0.000000000000000
  0
LINE
  5
F10512
330
F10513
100
AcDbEntity
8
Geo
100
AcDbLine
10
-31.0987244370549
20
-5.17173493925332
30
0.000000000000000
11
-30.9987244370549
21
-5.18555950702612
31
0.000000000000000
  0
LINE
  5
F10514
330
F10515
100
AcDbEntity
8
Geo
100
AcDbLine
10
-30.9987244370549
20
-5.18555950702612
30
0.000000000000000
11
-30.8987244370549
21
-5.19740067974849
31
0.000000000000000
  0
LINE
  5
F10516
330
F10517
100
AcDbEntity
8
Geo
100
AcDbLine
10
-30.8987244370549
20
-5.19740067974849
30
0.000000000000000
11
-30.7987244370549
21
-5.20725372110924
31
0.000000000000000
  0
LINE
  5
F10518
330
F10519
100
AcDbEntity
8
Geo
100
AcDbLine
10
-30.7987244370549
20
-5.20725372110924
30
0.000000000000000
11
-30.6987244370549
21
-5.21511469002319
31
0.000000000000000
  0
LINE
  5
F1051A
330
F1051B
100
AcDbEntity
8
Geo
100
AcDbLine
10
-30.6987244370549
20
-5.21511469002319
30
0.000000000000000
11
-30.5987244370549
21
-5.22098044220758
31
0.000000000000000
  0
LINE
  5
F1051C
330
F1051D
100
AcDbEntity
8
Geo
100
AcDbLine
10
-30.5987244370549
20
-5.22098044220758
30
0.000000000000000
11
-30.4987244370549
21
-5.22484863143975
31
0.000000000000000
  0
LINE
  5
F1051E
330
F1051F
100
AcDbEntity
8
Geo
100
AcDbLine
10
-30.4987244370549
20
-5.22484863143975
30
0.000000000000000
11
-30.3987244370549
21
-5.22671771049558
31
0.000000000000000
  0
LINE
  5
F10520
330
F10521
100
AcDbEntity
8
Geo
100
AcDbLine
10
-30.3987244370549
20
-5.22671771049558
30
0.000000000000000
11
-30.3552632700210
21
-5.22690659474809
31
0.000000000000000
  0
LINE
  5
F10522
330
F10523
100
AcDbEntity
8
Geo
100
AcDbLine
10
-14.6473002637497
20
4.77309340525191
30
0.000000000000000
11
-14.5987244370549
21
4.77285744647476
31
0.000000000000000
  0
LINE
  5
F10524
330
F10525
100
AcDbEntity
8
Geo
100
AcDbLine
10
-14.5987244370549
20
4.77285744647476
30
0.000000000000000
11
-14.4987244370549
21
4.77088609146060
31
0.000000000000000
  0
LINE
  5
F10526
330
F10527
100
AcDbEntity
8
Geo
100
AcDbLine
10
-14.4987244370549
20
4.77088609146060
30
0.000000000000000
11
-14.3987244370549
21
4.76691568600830
31
0.000000000000000
  0
LINE
  5
F10528
330
F10529
100
AcDbEntity
8
Geo
100
AcDbLine
10
-14.3987244370549
20
4.76691568600830
30
0.000000000000000
11
-14.2987244370549
21
4.76094781822711
31
0.000000000000000
  0
LINE
  5
F1052A
330
F1052B
100
AcDbEntity
8
Geo
100
AcDbLine
10
-14.2987244370549
20
4.76094781822711
30
0.000000000000000
11
-14.1987244370549
21
4.75298487518457
31
0.000000000000000
  0
LINE
  5
F1052C
330
F1052D
100
AcDbEntity
8
Geo
100
AcDbLine
10
-14.1987244370549
20
4.75298487518457
30
0.000000000000000
11
-14.0987244370549
21
4.74303004195173
31
0.000000000000000
  0
LINE
  5
F1052E
330
F1052F
100
AcDbEntity
8
Geo
100
AcDbLine
10
-14.0987244370549
20
4.74303004195173
30
0.000000000000000
11
-13.9987244370549
21
4.73108730032914
31
0.000000000000000
  0
LINE
  5
F10530
330
F10531
100
AcDbEntity
8
Geo
100
AcDbLine
10
-13.9987244370549
20
4.73108730032914
30
0.000000000000000
11
-13.8987244370549
21
4.71716142725422
31
0.000000000000000
  0
LINE
  5
F10532
330
F10533
100
AcDbEntity
8
Geo
100
AcDbLine
10
-13.8987244370549
20
4.71716142725422
30
0.000000000000000
11
-13.7987244370549
21
4.70125799289054
31
0.000000000000000
  0
LINE
  5
F10534
330
F10535
100
AcDbEntity
8
Geo
100
AcDbLine
10
-13.7987244370549
20
4.70125799289054
30
0.000000000000000
11
-13.6987244370549
21
4.68338335839978
31
0.000000000000000
  0
LINE
  5
F10536
330
F10537
100
AcDbEntity
8
Geo
100
AcDbLine
10
-13.6987244370549
20
4.68338335839978
30
0.000000000000000
11
-13.5987244370549
21
4.66354467339742
31
0.000000000000000
  0
LINE
  5
F10538
330
F10539
100
AcDbEntity
8
Geo
100
AcDbLine
10
-13.5987244370549
20
4.66354467339742
30
0.000000000000000
11
-13.4987244370549
21
4.64174987309295
31
0.000000000000000
  0
LINE
  5
F1053A
330
F1053B
100
AcDbEntity
8
Geo
100
AcDbLine
10
-13.4987244370549
20
4.64174987309295
30
0.000000000000000
11
-13.3987244370549
21
4.61800767511590
31
0.000000000000000
  0
LINE
  5
F1053C
330
F1053D
100
AcDbEntity
8
Geo
100
AcDbLine
10
-13.3987244370549
20
4.61800767511590
30
0.000000000000000
11
-13.2987244370549
21
4.59232757602890
31
0.000000000000000
  0
LINE
  5
F1053E
330
F1053F
100
AcDbEntity
8
Geo
100
AcDbLine
10
-13.2987244370549
20
4.59232757602890
30
0.000000000000000
11
-13.1987244370549
21
4.56471984752918
31
0.000000000000000
  0
LINE
  5
F10540
330
F10541
100
AcDbEntity
8
Geo
100
AcDbLine
10
-13.1987244370549
20
4.56471984752918
30
0.000000000000000
11
-13.0987244370549
21
4.53519553234006
31
0.000000000000000
  0
LINE
  5
F10542
330
F10543
100
AcDbEntity
8
Geo
100
AcDbLine
10
-13.0987244370549
20
4.53519553234006
30
0.000000000000000
11
-12.9987244370549
21
4.50376643979395
31
0.000000000000000
  0
LINE
  5
F10544
330
F10545
100
AcDbEntity
8
Geo
100
AcDbLine
10
-12.9987244370549
20
4.50376643979395
30
0.000000000000000
11
-12.8987244370549
21
4.47044514110882
31
0.000000000000000
  0
LINE
  5
F10546
330
F10547
100
AcDbEntity
8
Geo
100
AcDbLine
10
-9.67920582627427
20
-5.22690659474809
30
0.000000000000000
11
-9.69872443705481
21
-5.22681625134753
31
0.000000000000000
  0
LINE
  5
F10548
330
F10549
100
AcDbEntity
8
Geo
100
AcDbLine
10
-9.69872443705481
20
-5.22681625134753
30
0.000000000000000
11
-9.79872443705482
21
-5.22380862880622
31
0.000000000000000
  0
LINE
  5
F1054A
330
F1054B
100
AcDbEntity
8
Geo
100
AcDbLine
10
-9.79872443705482
20
-5.22380862880622
30
0.000000000000000
11
-9.89872443705482
21
-5.21699194017565
31
0.000000000000000
  0
LINE
  5
F1054C
330
F1054D
100
AcDbEntity
8
Geo
100
AcDbLine
10
-9.89872443705482
20
-5.21699194017565
30
0.000000000000000
11
-9.99872443705482
21
-5.20687865668379
31
0.000000000000000
  0
LINE
  5
F1054E
330
F1054F
100
AcDbEntity
8
Geo
100
AcDbLine
10
-9.99872443705482
20
-5.20687865668379
30
0.000000000000000
11
-10.0987244370548
21
-5.19387255936383
31
0.000000000000000
  0
LINE
  5
F10550
330
F10551
100
AcDbEntity
8
Geo
100
AcDbLine
10
-10.0987244370548
20
-5.19387255936383
30
0.000000000000000
11
-10.1987244370548
21
-5.17828838654660
31
0.000000000000000
  0
LINE
  5
F10552
330
F10553
100
AcDbEntity
8
Geo
100
AcDbLine
10
-10.1987244370548
20
-5.17828838654660
30
0.000000000000000
11
-10.2987244370548
21
-5.16036835651921
31
0.000000000000000
  0
LINE
  5
F10554
330
F10555
100
AcDbEntity
8
Geo
100
AcDbLine
10
-10.2987244370548
20
-5.16036835651921
30
0.000000000000000
11
-10.3987244370548
21
-5.14029601713916
31
0.000000000000000
  0
LINE
  5
F10556
330
F10557
100
AcDbEntity
8
Geo
100
AcDbLine
10
-10.3987244370548
20
-5.14029601713916
30
0.000000000000000
11
-10.4987244370548
21
-5.11820782401233
31
0.000000000000000
  0
LINE
  5
F10558
330
F10559
100
AcDbEntity
8
Geo
100
AcDbLine
10
-10.4987244370548
20
-5.11820782401233
30
0.000000000000000
11
-10.5987244370548
21
-5.09420279750134
31
0.000000000000000
  0
LINE
  5
F1055A
330
F1055B
100
AcDbEntity
8
Geo
100
AcDbLine
10
-10.5987244370548
20
-5.09420279750134
30
0.000000000000000
11
-10.6987244370548
21
-5.06835055955546
31
0.000000000000000
  0
LINE
  5
F1055C
330
F1055D
100
AcDbEntity
8
Geo
100
AcDbLine
10
-10.6987244370548
20
-5.06835055955546
30
0.000000000000000
11
-10.7987244370548
21
-5.04069800599668
31
0.000000000000000
  0
LINE
  5
F1055E
330
F1055F
100
AcDbEntity
8
Geo
100
AcDbLine
10
-10.7987244370548
20
-5.04069800599668
30
0.000000000000000
11
-10.8987244370548
21
-5.01127482938514
31
0.000000000000000
  0
LINE
  5
F10560
330
F10561
100
AcDbEntity
8
Geo
100
AcDbLine
10
-10.8987244370548
20
-5.01127482938514
30
0.000000000000000
11
-10.9987244370548
21
-4.98009807224756
31
0.000000000000000
  0
LINE
  5
F10562
330
F10563
100
AcDbEntity
8
Geo
100
AcDbLine
10
-10.9987244370548
20
-4.98009807224756
30
0.000000000000000
11
-11.0987244370548
21
-4.94717586022747
31
0.000000000000000
  0
LINE
  5
F10564
330
F10565
100
AcDbEntity
8
Geo
100
AcDbLine
10
-11.0987244370548
20
-4.94717586022747
30
0.000000000000000
11
-11.1987244370548
21
-4.91251043931350
31
0.000000000000000
  0
LINE
  5
F10566
330
F10567
100
AcDbEntity
8
Geo
100
AcDbLine
10
-11.1987244370548
20
-4.91251043931350
30
0.000000000000000
11
-11.2987244370548
21
-4.87610062029936
31
0.000000000000000
  0
LINE
  5
F10568
330
F10569
100
AcDbEntity
8
Geo
100
AcDbLine
10
-11.2987244370548
20
-4.87610062029936
30
0.000000000000000
11
-11.3987244370548
21
-4.83794371653686
31
0.000000000000000
  0
LINE
  5
F1056A
330
F1056B
100
AcDbEntity
8
Geo
100
AcDbLine
10
-11.3987244370548
20
-4.83794371653686
30
0.000000000000000
11
-11.4987244370548
21
-4.79803704735145
31
0.000000000000000
  0
LINE
  5
F1056C
330
F1056D
100
AcDbEntity
8
Geo
100
AcDbLine
10
-11.4987244370548
20
-4.79803704735145
30
0.000000000000000
11
-11.5987244370548
21
-4.75637906869638
31
0.000000000000000
  0
LINE
  5
F1056E
330
F1056F
100
AcDbEntity
8
Geo
100
AcDbLine
10
-11.5987244370548
20
-4.75637906869638
30
0.000000000000000
11
-11.6987244370548
21
-4.71297018425093
31
0.000000000000000
  0
LINE
  5
F10570
330
F10571
100
AcDbEntity
8
Geo
100
AcDbLine
10
-11.6987244370548
20
-4.71297018425093
30
0.000000000000000
11
-11.7987244370548
21
-4.66781328378042
31
0.000000000000000
  0
LINE
  5
F10572
330
F10573
100
AcDbEntity
8
Geo
100
AcDbLine
10
-11.7987244370548
20
-4.66781328378042
30
0.000000000000000
11
-11.8987244370548
21
-4.62091405077605
31
0.000000000000000
  0
LINE
  5
F10574
330
F10575
100
AcDbEntity
8
Geo
100
AcDbLine
10
-11.8987244370548
20
-4.62091405077605
30
0.000000000000000
11
-11.9987244370548
21
-4.57228107783102
31
0.000000000000000
  0
LINE
  5
F10576
330
F10577
100
AcDbEntity
8
Geo
100
AcDbLine
10
-11.9987244370548
20
-4.57228107783102
30
0.000000000000000
11
-12.0987244370548
21
-4.52192582558268
31
0.000000000000000
  0
LINE
  5
F10578
330
F10579
100
AcDbEntity
8
Geo
100
AcDbLine
10
-12.0987244370548
20
-4.52192582558268
30
0.000000000000000
11
-12.1987244370548
21
-4.46986245910389
31
0.000000000000000
  0
LINE
  5
F1057A
330
F1057B
100
AcDbEntity
8
Geo
100
AcDbLine
10
-12.1987244370548
20
-4.46986245910389
30
0.000000000000000
11
-12.2987244370549
21
-4.41610759414493
31
0.000000000000000
  0
LINE
  5
F1057C
330
F1057D
100
AcDbEntity
8
Geo
100
AcDbLine
10
-12.2987244370549
20
-4.41610759414493
30
0.000000000000000
11
-12.3987244370549
21
-4.36067998444143
31
0.000000000000000
  0
LINE
  5
F1057E
330
F1057F
100
AcDbEntity
8
Geo
100
AcDbLine
10
-12.3987244370549
20
-4.36067998444143
30
0.000000000000000
11
-12.4987244370549
21
-4.30360018027691
31
0.000000000000000
  0
LINE
  5
F10580
330
F10581
100
AcDbEntity
8
Geo
100
AcDbLine
10
-12.4987244370549
20
-4.30360018027691
30
0.000000000000000
11
-12.5987244370549
21
-4.24489018752115
31
0.000000000000000
  0
LINE
  5
F10582
330
F10583
100
AcDbEntity
8
Geo
100
AcDbLine
10
-12.5987244370549
20
-4.24489018752115
30
0.000000000000000
11
-12.6987244370549
21
-4.18457315538420
31
0.000000000000000
  0
LINE
  5
F10584
330
F10585
100
AcDbEntity
8
Geo
100
AcDbLine
10
-12.6987244370549
20
-4.18457315538420
30
0.000000000000000
11
-12.8987244370549
21
-4.05921483029042
31
0.000000000000000
  0
LINE
  5
F10586
330
F10587
100
AcDbEntity
8
Geo
100
AcDbLine
10
-11.8547732071068
20
4.77309340525191
30
0.000000000000000
11
-11.7987244370548
21
4.77277925990723
31
0.000000000000000
  0
LINE
  5
F10588
330
F10589
100
AcDbEntity
8
Geo
100
AcDbLine
10
-11.7987244370548
20
4.77277925990723
30
0.000000000000000
11
-11.6987244370548
21
4.77065847581536
31
0.000000000000000
  0
LINE
  5
F1058A
330
F1058B
100
AcDbEntity
8
Geo
100
AcDbLine
10
-11.6987244370548
20
4.77065847581536
30
0.000000000000000
11
-11.5987244370548
21
4.76653873566255
31
0.000000000000000
  0
LINE
  5
F1058C
330
F1058D
100
AcDbEntity
8
Geo
100
AcDbLine
10
-11.5987244370548
20
4.76653873566255
30
0.000000000000000
11
-11.4987244370548
21
4.76042169429719
31
0.000000000000000
  0
LINE
  5
F1058E
330
F1058F
100
AcDbEntity
8
Geo
100
AcDbLine
10
-11.4987244370548
20
4.76042169429719
30
0.000000000000000
11
-11.3987244370548
21
4.75230981639721
31
0.000000000000000
  0
LINE
  5
F10590
330
F10591
100
AcDbEntity
8
Geo
100
AcDbLine
10
-11.3987244370548
20
4.75230981639721
30
0.000000000000000
11
-11.2987244370548
21
4.74220638862987
31
0.000000000000000
  0
LINE
  5
F10592
330
F10593
100
AcDbEntity
8
Geo
100
AcDbLine
10
-11.2987244370548
20
4.74220638862987
30
0.000000000000000
11
-11.1987244370548
21
4.73011554382032
31
0.000000000000000
  0
LINE
  5
F10594
330
F10595
100
AcDbEntity
8
Geo
100
AcDbLine
10
-11.1987244370548
20
4.73011554382032
30
0.000000000000000
11
-11.0987244370548
21
4.71604230616380
31
0.000000000000000
  0
LINE
  5
F10596
330
F10597
100
AcDbEntity
8
Geo
100
AcDbLine
10
-11.0987244370548
20
4.71604230616380
30
0.000000000000000
11
-10.9987244370548
21
4.69999267163423
31
0.000000000000000
  0
LINE
  5
F10598
330
F10599
100
AcDbEntity
8
Geo
100
AcDbLine
10
-10.9987244370548
20
4.69999267163423
30
0.000000000000000
11
-10.8987244370548
21
4.68197374504707
31
0.000000000000000
  0
LINE
  5
F1059A
330
F1059B
100
AcDbEntity
8
Geo
100
AcDbLine
10
-10.8987244370548
20
4.68197374504707
30
0.000000000000000
11
-10.7987244370548
21
4.66199396539943
31
0.000000000000000
  0
LINE
  5
F1059C
330
F1059D
100
AcDbEntity
8
Geo
100
AcDbLine
10
-10.7987244370548
20
4.66199396539943
30
0.000000000000000
11
-10.6987244370548
21
4.64006346493990
31
0.000000000000000
  0
LINE
  5
F1059E
330
F1059F
100
AcDbEntity
8
Geo
100
AcDbLine
10
-10.6987244370548
20
4.64006346493990
30
0.000000000000000
11
-10.5987244370548
21
4.61619462585672
31
0.000000000000000
  0
LINE
  5
F105A0
330
F105A1
100
AcDbEntity
8
Geo
100
AcDbLine
10
-10.5987244370548
20
4.61619462585672
30
0.000000000000000
11
-10.4987244370548
21
4.59040292260008
31
0.000000000000000
  0
LINE
  5
F105A2
330
F105A3
100
AcDbEntity
8
Geo
100
AcDbLine
10
-10.4987244370548
20
4.59040292260008
30
0.000000000000000
11
-10.3987244370548
21
4.56270816888154
31
0.000000000000000
  0
LINE
  5
F105A4
330
F105A5
100
AcDbEntity
8
Geo
100
AcDbLine
10
-10.3987244370548
20
4.56270816888154
30
0.000000000000000
11
-10.2987244370548
21
4.53313632762828
31
0.000000000000000
  0
LINE
  5
F105A6
330
F105A7
100
AcDbEntity
8
Geo
100
AcDbLine
10
-10.2987244370548
20
4.53313632762828
30
0.000000000000000
11
-10.1987244370548
21
4.50172209094396
31
0.000000000000000
  0
LINE
  5
F105A8
330
F105A9
100
AcDbEntity
8
Geo
100
AcDbLine
10
-10.1987244370548
20
4.50172209094396
30
0.000000000000000
11
-10.0987244370548
21
4.46851249667372
31
0.000000000000000
  0
LINE
  5
F105AA
330
F105AB
100
AcDbEntity
8
Geo
100
AcDbLine
10
-10.0987244370548
20
4.46851249667372
30
0.000000000000000
11
-9.99872443705482
21
4.43357191940077
31
0.000000000000000
  0
LINE
  5
F105AC
330
F105AD
100
AcDbEntity
8
Geo
100
AcDbLine
10
-9.99872443705482
20
4.43357191940077
30
0.000000000000000
11
-9.89872443705482
21
4.39698885683592
31
0.000000000000000
  0
LINE
  5
F105AE
330
F105AF
100
AcDbEntity
8
Geo
100
AcDbLine
10
-9.89872443705482
20
4.39698885683592
30
0.000000000000000
11
-9.79872443705482
21
4.35888502653600
31
0.000000000000000
  0
LINE
  5
F105B0
330
F105B1
100
AcDbEntity
8
Geo
100
AcDbLine
10
-9.79872443705482
20
4.35888502653600
30
0.000000000000000
11
-9.69872443705481
21
4.31942738940294
31
0.000000000000000
  0
LINE
  5
F105B2
330
F105B3
100
AcDbEntity
8
Geo
100
AcDbLine
10
-9.69872443705481
20
4.31942738940294
30
0.000000000000000
11
-9.59872443705481
21
4.27884381847248
31
0.000000000000000
  0
LINE
  5
F105B4
330
F105B5
100
AcDbEntity
8
Geo
100
AcDbLine
10
-9.59872443705481
20
4.27884381847248
30
0.000000000000000
11
-9.49872443705481
21
4.23744322113322
31
0.000000000000000
  0
LINE
  5
F105B6
330
F105B7
100
AcDbEntity
8
Geo
100
AcDbLine
10
-9.49872443705481
20
4.23744322113322
30
0.000000000000000
11
-9.39872443705481
21
4.19564097773145
31
0.000000000000000
  0
LINE
  5
F105B8
330
F105B9
100
AcDbEntity
8
Geo
100
AcDbLine
10
-9.39872443705481
20
4.19564097773145
30
0.000000000000000
11
-9.29872443705481
21
4.15399054240068
31
0.000000000000000
  0
LINE
  5
F105BA
330
F105BB
100
AcDbEntity
8
Geo
100
AcDbLine
10
-9.29872443705481
20
4.15399054240068
30
0.000000000000000
11
-9.19872443705481
21
4.11322190288695
31
0.000000000000000
  0
LINE
  5
F105BC
330
F105BD
100
AcDbEntity
8
Geo
100
AcDbLine
10
-9.19872443705481
20
4.11322190288695
30
0.000000000000000
11
-9.09872443705481
21
4.07428721933587
31
0.000000000000000
  0
LINE
  5
F105BE
330
F105BF
100
AcDbEntity
8
Geo
100
AcDbLine
10
-9.09872443705481
20
4.07428721933587
30
0.000000000000000
11
-8.99872443705480
21
4.03841320527549
31
0.000000000000000
  0
LINE
  5
F105C0
330
F105C1
100
AcDbEntity
8
Geo
100
AcDbLine
10
-8.99872443705480
20
4.03841320527549
30
0.000000000000000
11
-8.89872443705480
21
4.00715843483986
31
0.000000000000000
  0
LINE
  5
F105C2
330
F105C3
100
AcDbEntity
8
Geo
100
AcDbLine
10
-8.89872443705480
20
4.00715843483986
30
0.000000000000000
11
-8.79872443705480
21
3.98247136882749
31
0.000000000000000
  0
LINE
  5
F105C4
330
F105C5
100
AcDbEntity
8
Geo
100
AcDbLine
10
-8.79872443705480
20
3.98247136882749
30
0.000000000000000
11
-8.69872443705480
21
3.96674085469613
31
0.000000000000000
  0
LINE
  5
F105C6
330
F105C7
100
AcDbEntity
8
Geo
100
AcDbLine
10
-8.69872443705480
20
3.96674085469613
30
0.000000000000000
11
-8.59872443705480
21
3.96282413007163
31
0.000000000000000
  0
LINE
  5
F105C8
330
F105C9
100
AcDbEntity
8
Geo
100
AcDbLine
10
-8.59872443705480
20
3.96282413007163
30
0.000000000000000
11
-8.49872443705480
21
3.97402622113690
31
0.000000000000000
  0
LINE
  5
F105CA
330
F105CB
100
AcDbEntity
8
Geo
100
AcDbLine
10
-8.49872443705480
20
3.97402622113690
30
0.000000000000000
11
-8.39872443705480
21
4.00398622784821
31
0.000000000000000
  0
LINE
  5
F105CC
330
F105CD
100
AcDbEntity
8
Geo
100
AcDbLine
10
-8.39872443705480
20
4.00398622784821
30
0.000000000000000
11
-8.29872443705479
21
4.05639569835880
31
0.000000000000000
  0
LINE
  5
F105CE
330
F105CF
100
AcDbEntity
8
Geo
100
AcDbLine
10
-8.29872443705479
20
4.05639569835880
30
0.000000000000000
11
-8.19872443705479
21
4.13442487969415
31
0.000000000000000
  0
LINE
  5
F105D0
330
F105D1
100
AcDbEntity
8
Geo
100
AcDbLine
10
-8.19872443705479
20
4.13442487969415
30
0.000000000000000
11
-8.09872443705479
21
4.23965365753038
31
0.000000000000000
  0
LINE
  5
F105D2
330
F105D3
100
AcDbEntity
8
Geo
100
AcDbLine
10
-8.09872443705479
20
4.23965365753038
30
0.000000000000000
11
-7.99872443705479
21
4.37018296636414
31
0.000000000000000
  0
LINE
  5
F105D4
330
F105D5
100
AcDbEntity
8
Geo
100
AcDbLine
10
-7.99872443705479
20
4.37018296636414
30
0.000000000000000
11
-7.89872443705479
21
4.51743203283882
31
0.000000000000000
  0
LINE
  5
F105D6
330
F105D7
100
AcDbEntity
8
Geo
100
AcDbLine
10
-7.89872443705479
20
4.51743203283882
30
0.000000000000000
11
-7.79872443705487
21
4.66092961243349
31
0.000000000000000
  0
LINE
  5
F105D8
330
F105D9
100
AcDbEntity
8
Geo
100
AcDbLine
10
-7.79872443705487
20
4.66092961243349
30
0.000000000000000
11
-7.79872443705487
21
4.35858836400600
31
0.000000000000000
  0
LINE
  5
F105DA
330
F105DB
100
AcDbEntity
8
Geo
100
AcDbLine
10
-7.79872443705487
20
4.35858836400600
30
0.000000000000000
11
-7.79872443705487
21
4.36108327815480
31
0.000000000000000
  0
LINE
  5
F105DC
330
F105DD
100
AcDbEntity
8
Geo
100
AcDbLine
10
-7.79872443705487
20
4.36108327815480
30
0.000000000000000
11
-7.79872443705487
21
4.69096812535516
31
0.000000000000000
  0
LINE
  5
F105DE
330
F105DF
100
AcDbEntity
8
Geo
100
AcDbLine
10
-7.79872443705487
20
4.69096812535516
30
0.000000000000000
11
-7.89872443705479
21
4.76467177892626
31
0.000000000000000
  0
LINE
  5
F105E0
330
F105E1
100
AcDbEntity
8
Geo
100
AcDbLine
10
-7.89872443705479
20
4.76467177892626
30
0.000000000000000
11
-7.94990636114478
21
4.77309340525191
31
0.000000000000000
  0
LINE
  5
F105E2
330
F105E3
100
AcDbEntity
8
Geo
100
AcDbLine
10
-12.8987244370549
20
-1.77507887161424
30
0.000000000000000
11
-12.6987244370549
21
-1.96396092455842
31
0.000000000000000
  0
LINE
  5
F105E4
330
F105E5
100
AcDbEntity
8
Geo
100
AcDbLine
10
-12.6987244370549
20
-1.96396092455842
30
0.000000000000000
11
-12.5987244370549
21
-2.05737857503565
31
0.000000000000000
  0
LINE
  5
F105E6
330
F105E7
100
AcDbEntity
8
Geo
100
AcDbLine
10
-12.5987244370549
20
-2.05737857503565
30
0.000000000000000
11
-12.4987244370549
21
-2.15006406112673
31
0.000000000000000
  0
LINE
  5
F105E8
330
F105E9
100
AcDbEntity
8
Geo
100
AcDbLine
10
-12.4987244370549
20
-2.15006406112673
30
0.000000000000000
11
-12.3987244370549
21
-2.24198030987283
31
0.000000000000000
  0
LINE
  5
F105EA
330
F105EB
100
AcDbEntity
8
Geo
100
AcDbLine
10
-12.3987244370549
20
-2.24198030987283
30
0.000000000000000
11
-12.2987244370549
21
-2.33309055599784
31
0.000000000000000
  0
LINE
  5
F105EC
330
F105ED
100
AcDbEntity
8
Geo
100
AcDbLine
10
-12.2987244370549
20
-2.33309055599784
30
0.000000000000000
11
-12.1987244370548
21
-2.42335835660167
31
0.000000000000000
  0
LINE
  5
F105EE
330
F105EF
100
AcDbEntity
8
Geo
100
AcDbLine
10
-12.1987244370548
20
-2.42335835660167
30
0.000000000000000
11
-12.0987244370548
21
-2.51274760568063
31
0.000000000000000
  0
LINE
  5
F105F0
330
F105F1
100
AcDbEntity
8
Geo
100
AcDbLine
10
-12.0987244370548
20
-2.51274760568063
30
0.000000000000000
11
-11.9987244370548
21
-2.60122254836878
31
0.000000000000000
  0
LINE
  5
F105F2
330
F105F3
100
AcDbEntity
8
Geo
100
AcDbLine
10
-11.9987244370548
20
-2.60122254836878
30
0.000000000000000
11
-11.8987244370548
21
-2.68874779464947
31
0.000000000000000
  0
LINE
  5
F105F4
330
F105F5
100
AcDbEntity
8
Geo
100
AcDbLine
10
-11.8987244370548
20
-2.68874779464947
30
0.000000000000000
11
-11.7987244370548
21
-2.77528833200793
31
0.000000000000000
  0
LINE
  5
F105F6
330
F105F7
100
AcDbEntity
8
Geo
100
AcDbLine
10
-11.7987244370548
20
-2.77528833200793
30
0.000000000000000
11
-11.6987244370548
21
-2.86080953601313
31
0.000000000000000
  0
LINE
  5
F105F8
330
F105F9
100
AcDbEntity
8
Geo
100
AcDbLine
10
-11.6987244370548
20
-2.86080953601313
30
0.000000000000000
11
-11.5987244370548
21
-2.94527717704301
31
0.000000000000000
  0
LINE
  5
F105FA
330
F105FB
100
AcDbEntity
8
Geo
100
AcDbLine
10
-11.5987244370548
20
-2.94527717704301
30
0.000000000000000
11
-11.4987244370548
21
-3.02865742020076
31
0.000000000000000
  0
LINE
  5
F105FC
330
F105FD
100
AcDbEntity
8
Geo
100
AcDbLine
10
-11.4987244370548
20
-3.02865742020076
30
0.000000000000000
11
-11.3987244370548
21
-3.11091681379934
31
0.000000000000000
  0
LINE
  5
F105FE
330
F105FF
100
AcDbEntity
8
Geo
100
AcDbLine
10
-11.3987244370548
20
-3.11091681379934
30
0.000000000000000
11
-11.2987244370548
21
-3.19202225950365
31
0.000000000000000
  0
LINE
  5
F10600
330
F10601
100
AcDbEntity
8
Geo
100
AcDbLine
10
-11.2987244370548
20
-3.19202225950365
30
0.000000000000000
11
-11.1987244370548
21
-3.27194095420404
31
0.000000000000000
  0
LINE
  5
F10602
330
F10603
100
AcDbEntity
8
Geo
100
AcDbLine
10
-11.1987244370548
20
-3.27194095420404
30
0.000000000000000
11
-11.0987244370548
21
-3.35064028985333
31
0.000000000000000
  0
LINE
  5
F10604
330
F10605
100
AcDbEntity
8
Geo
100
AcDbLine
10
-11.0987244370548
20
-3.35064028985333
30
0.000000000000000
11
-10.9987244370548
21
-3.42808769276300
31
0.000000000000000
  0
LINE
  5
F10606
330
F10607
100
AcDbEntity
8
Geo
100
AcDbLine
10
-10.9987244370548
20
-3.42808769276300
30
0.000000000000000
11
-10.8987244370548
21
-3.50425037818701
31
0.000000000000000
  0
LINE
  5
F10608
330
F10609
100
AcDbEntity
8
Geo
100
AcDbLine
10
-10.8987244370548
20
-3.50425037818701
30
0.000000000000000
11
-10.7987244370548
21
-3.57909498944627
31
0.000000000000000
  0
LINE
  5
F1060A
330
F1060B
100
AcDbEntity
8
Geo
100
AcDbLine
10
-10.7987244370548
20
-3.57909498944627
30
0.000000000000000
11
-10.6987244370548
21
-3.65258708344860
31
0.000000000000000
  0
LINE
  5
F1060C
330
F1060D
100
AcDbEntity
8
Geo
100
AcDbLine
10
-10.6987244370548
20
-3.65258708344860
30
0.000000000000000
11
-10.5987244370548
21
-3.72469041640950
31
0.000000000000000
  0
LINE
  5
F1060E
330
F1060F
100
AcDbEntity
8
Geo
100
AcDbLine
10
-10.5987244370548
20
-3.72469041640950
30
0.000000000000000
11
-10.4987244370548
21
-3.79536597513655
31
0.000000000000000
  0
LINE
  5
F10610
330
F10611
100
AcDbEntity
8
Geo
100
AcDbLine
10
-10.4987244370548
20
-3.79536597513655
30
0.000000000000000
11
-10.3987244370548
21
-3.86457069075638
31
0.000000000000000
  0
LINE
  5
F10612
330
F10613
100
AcDbEntity
8
Geo
100
AcDbLine
10
-10.3987244370548
20
-3.86457069075638
30
0.000000000000000
11
-10.2987244370548
21
-3.93225576365649
31
0.000000000000000
  0
LINE
  5
F10614
330
F10615
100
AcDbEntity
8
Geo
100
AcDbLine
10
-10.2987244370548
20
-3.93225576365649
30
0.000000000000000
11
-10.1987244370548
21
-3.99836452111275
31
0.000000000000000
  0
LINE
  5
F10616
330
F10617
100
AcDbEntity
8
Geo
100
AcDbLine
10
-10.1987244370548
20
-3.99836452111275
30
0.000000000000000
11
-10.0987244370548
21
-4.06282972289050
31
0.000000000000000
  0
LINE
  5
F10618
330
F10619
100
AcDbEntity
8
Geo
100
AcDbLine
10
-10.0987244370548
20
-4.06282972289050
30
0.000000000000000
11
-9.99872443705482
21
-4.12557022499694
31
0.000000000000000
  0
LINE
  5
F1061A
330
F1061B
100
AcDbEntity
8
Geo
100
AcDbLine
10
-9.99872443705482
20
-4.12557022499694
30
0.000000000000000
11
-9.89872443705482
21
-4.18648690689407
31
0.000000000000000
  0
LINE
  5
F1061C
330
F1061D
100
AcDbEntity
8
Geo
100
AcDbLine
10
-9.89872443705482
20
-4.18648690689407
30
0.000000000000000
11
-9.79872443705482
21
-4.24545776050031
31
0.000000000000000
  0
LINE
  5
F1061E
330
F1061F
100
AcDbEntity
8
Geo
100
AcDbLine
10
-9.79872443705482
20
-4.24545776050031
30
0.000000000000000
11
-9.69872443705481
21
-4.30233202512123
31
0.000000000000000
  0
LINE
  5
F10620
330
F10621
100
AcDbEntity
8
Geo
100
AcDbLine
10
-9.69872443705481
20
-4.30233202512123
30
0.000000000000000
11
-9.59872443705481
21
-4.35692322126311
31
0.000000000000000
  0
LINE
  5
F10622
330
F10623
100
AcDbEntity
8
Geo
100
AcDbLine
10
-9.59872443705481
20
-4.35692322126311
30
0.000000000000000
11
-9.49872443705481
21
-4.40900087052945
31
0.000000000000000
  0
LINE
  5
F10624
330
F10625
100
AcDbEntity
8
Geo
100
AcDbLine
10
-9.49872443705481
20
-4.40900087052945
30
0.000000000000000
11
-9.39872443705481
21
-4.45828055842125
31
0.000000000000000
  0
LINE
  5
F10626
330
F10627
100
AcDbEntity
8
Geo
100
AcDbLine
10
-9.39872443705481
20
-4.45828055842125
30
0.000000000000000
11
-9.29872443705481
21
-4.50441175222734
31
0.000000000000000
  0
LINE
  5
F10628
330
F10629
100
AcDbEntity
8
Geo
100
AcDbLine
10
-9.29872443705481
20
-4.50441175222734
30
0.000000000000000
11
-9.19872443705481
21
-4.54696234773769
31
0.000000000000000
  0
LINE
  5
F1062A
330
F1062B
100
AcDbEntity
8
Geo
100
AcDbLine
10
-9.19872443705481
20
-4.54696234773769
30
0.000000000000000
11
-9.09872443705481
21
-4.58539816192771
31
0.000000000000000
  0
LINE
  5
F1062C
330
F1062D
100
AcDbEntity
8
Geo
100
AcDbLine
10
-9.09872443705481
20
-4.58539816192771
30
0.000000000000000
11
-8.99872443705480
21
-4.61905432447816
31
0.000000000000000
  0
LINE
  5
F1062E
330
F1062F
100
AcDbEntity
8
Geo
100
AcDbLine
10
-8.99872443705480
20
-4.61905432447816
30
0.000000000000000
11
-8.89872443705480
21
-4.64709346692136
31
0.000000000000000
  0
LINE
  5
F10630
330
F10631
100
AcDbEntity
8
Geo
100
AcDbLine
10
-8.89872443705480
20
-4.64709346692136
30
0.000000000000000
11
-8.79872443705480
21
-4.66844235581414
31
0.000000000000000
  0
LINE
  5
F10632
330
F10633
100
AcDbEntity
8
Geo
100
AcDbLine
10
-8.79872443705480
20
-4.66844235581414
30
0.000000000000000
11
-8.69872443705480
21
-4.68169359363870
31
0.000000000000000
  0
LINE
  5
F10634
330
F10635
100
AcDbEntity
8
Geo
100
AcDbLine
10
-8.69872443705480
20
-4.68169359363870
30
0.000000000000000
11
-8.59872443705480
21
-4.68495145523383
31
0.000000000000000
  0
LINE
  5
F10636
330
F10637
100
AcDbEntity
8
Geo
100
AcDbLine
10
-8.59872443705480
20
-4.68495145523383
30
0.000000000000000
11
-8.49872443705480
21
-4.67558990223700
31
0.000000000000000
  0
LINE
  5
F10638
330
F10639
100
AcDbEntity
8
Geo
100
AcDbLine
10
-8.49872443705480
20
-4.67558990223700
30
0.000000000000000
11
-8.39872443705480
21
-4.64987536623633
31
0.000000000000000
  0
LINE
  5
F1063A
330
F1063B
100
AcDbEntity
8
Geo
100
AcDbLine
10
-8.39872443705480
20
-4.64987536623633
30
0.000000000000000
11
-8.29872443705479
21
-4.60238653944138
31
0.000000000000000
  0
LINE
  5
F1063C
330
F1063D
100
AcDbEntity
8
Geo
100
AcDbLine
10
-8.29872443705479
20
-4.60238653944138
30
0.000000000000000
11
-8.19872443705479
21
-4.52513952748617
31
0.000000000000000
  0
LINE
  5
F1063E
330
F1063F
100
AcDbEntity
8
Geo
100
AcDbLine
10
-8.19872443705479
20
-4.52513952748617
30
0.000000000000000
11
-8.09872443705479
21
-4.40630584226056
31
0.000000000000000
  0
LINE
  5
F10640
330
F10641
100
AcDbEntity
8
Geo
100
AcDbLine
10
-8.09872443705479
20
-4.40630584226056
30
0.000000000000000
11
-7.99872443705479
21
-4.22841223079521
31
0.000000000000000
  0
LINE
  5
F10642
330
F10643
100
AcDbEntity
8
Geo
100
AcDbLine
10
-7.99872443705479
20
-4.22841223079521
30
0.000000000000000
11
-7.89872443705479
21
-3.96598418640442
31
0.000000000000000
  0
LINE
  5
F10644
330
F10645
100
AcDbEntity
8
Geo
100
AcDbLine
10
-7.89872443705479
20
-3.96598418640442
30
0.000000000000000
11
-7.79872443705487
21
-3.58285151199272
31
0.000000000000000
  0
LINE
  5
F10646
330
F10647
100
AcDbEntity
8
Geo
100
AcDbLine
10
-7.79872443705487
20
-3.58285151199272
30
0.000000000000000
11
-7.79872443705487
21
-3.41264174897322
31
0.000000000000000
  0
LINE
  5
F10648
330
F10649
100
AcDbEntity
8
Geo
100
AcDbLine
10
-7.79872443705487
20
-3.41264174897322
30
0.000000000000000
11
-7.79872443705487
21
-3.40422576080346
31
0.000000000000000
  0
LINE
  5
F1064A
330
F1064B
100
AcDbEntity
8
Geo
100
AcDbLine
10
-7.79872443705487
20
-3.40422576080346
30
0.000000000000000
11
-7.79872443705487
21
-3.46743283523942
31
0.000000000000000
  0
LINE
  5
F1064C
330
F1064D
100
AcDbEntity
8
Geo
100
AcDbLine
10
-7.79872443705487
20
-3.46743283523942
30
0.000000000000000
11
-7.89872443705479
21
-2.97391083806054
31
0.000000000000000
  0
LINE
  5
F1064E
330
F1064F
100
AcDbEntity
8
Geo
100
AcDbLine
10
-7.89872443705479
20
-2.97391083806054
30
0.000000000000000
11
-7.99872443705479
21
-2.48346341077988
31
0.000000000000000
  0
LINE
  5
F10650
330
F10651
100
AcDbEntity
8
Geo
100
AcDbLine
10
-7.99872443705479
20
-2.48346341077988
30
0.000000000000000
11
-8.09872443705479
21
-2.00726910125198
31
0.000000000000000
  0
LINE
  5
F10652
330
F10653
100
AcDbEntity
8
Geo
100
AcDbLine
10
-8.09872443705479
20
-2.00726910125198
30
0.000000000000000
11
-8.19872443705479
21
-1.55276773580530
31
0.000000000000000
  0
LINE
  5
F10654
330
F10655
100
AcDbEntity
8
Geo
100
AcDbLine
10
-8.19872443705479
20
-1.55276773580530
30
0.000000000000000
11
-8.29872443705479
21
-1.12450092143385
31
0.000000000000000
  0
LINE
  5
F10656
330
F10657
100
AcDbEntity
8
Geo
100
AcDbLine
10
-8.29872443705479
20
-1.12450092143385
30
0.000000000000000
11
-8.39872443705480
21
-0.724830793164262
31
0.000000000000000
  0
LINE
  5
F10658
330
F10659
100
AcDbEntity
8
Geo
100
AcDbLine
10
-8.39872443705480
20
-0.724830793164262
30
0.000000000000000
11
-8.49872443705480
21
-0.354530343454967
31
0.000000000000000
  0
LINE
  5
F1065A
330
F1065B
100
AcDbEntity
8
Geo
100
AcDbLine
10
-8.49872443705480
20
-0.354530343454967
30
0.000000000000000
11
-8.59872443705480
21
-0.0132531892223211
31
0.000000000000000
  0
LINE
  5
F1065C
330
F1065D
100
AcDbEntity
8
Geo
100
AcDbLine
10
-8.59872443705480
20
-0.0132531892223211
30
0.000000000000000
11
-8.69872443705480
21
0.300102396838467
31
0.000000000000000
  0
LINE
  5
F1065E
330
F1065F
100
AcDbEntity
8
Geo
100
AcDbLine
10
-8.69872443705480
20
0.300102396838467
30
0.000000000000000
11
-8.79872443705480
21
0.587118038108123
31
0.000000000000000
  0
LINE
  5
F10660
330
F10661
100
AcDbEntity
8
Geo
100
AcDbLine
10
-8.79872443705480
20
0.587118038108123
30
0.000000000000000
11
-8.89872443705480
21
0.849651561283407
31
0.000000000000000
  0
LINE
  5
F10662
330
F10663
100
AcDbEntity
8
Geo
100
AcDbLine
10
-8.89872443705480
20
0.849651561283407
30
0.000000000000000
11
-8.99872443705480
21
1.08968990582476
31
0.000000000000000
  0
LINE
  5
F10664
330
F10665
100
AcDbEntity
8
Geo
100
AcDbLine
10
-8.99872443705480
20
1.08968990582476
30
0.000000000000000
11
-9.09872443705481
21
1.30924570307229
31
0.000000000000000
  0
LINE
  5
F10666
330
F10667
100
AcDbEntity
8
Geo
100
AcDbLine
10
-9.09872443705481
20
1.30924570307229
30
0.000000000000000
11
-9.19872443705481
21
1.51028689322161
31
0.000000000000000
  0
LINE
  5
F10668
330
F10669
100
AcDbEntity
8
Geo
100
AcDbLine
10
-9.19872443705481
20
1.51028689322161
30
0.000000000000000
11
-9.29872443705481
21
1.69469088262584
31
0.000000000000000
  0
LINE
  5
F1066A
330
F1066B
100
AcDbEntity
8
Geo
100
AcDbLine
10
-9.29872443705481
20
1.69469088262584
30
0.000000000000000
11
-9.39872443705481
21
1.86421660102156
31
0.000000000000000
  0
LINE
  5
F1066C
330
F1066D
100
AcDbEntity
8
Geo
100
AcDbLine
10
-9.39872443705481
20
1.86421660102156
30
0.000000000000000
11
-9.49872443705481
21
2.02048936718040
31
0.000000000000000
  0
LINE
  5
F1066E
330
F1066F
100
AcDbEntity
8
Geo
100
AcDbLine
10
-9.49872443705481
20
2.02048936718040
30
0.000000000000000
11
-9.59872443705481
21
2.16499472434208
31
0.000000000000000
  0
LINE
  5
F10670
330
F10671
100
AcDbEntity
8
Geo
100
AcDbLine
10
-9.59872443705481
20
2.16499472434208
30
0.000000000000000
11
-9.69872443705481
21
2.29907839649270
31
0.000000000000000
  0
LINE
  5
F10672
330
F10673
100
AcDbEntity
8
Geo
100
AcDbLine
10
-9.69872443705481
20
2.29907839649270
30
0.000000000000000
11
-9.79872443705482
21
2.42395028345202
31
0.000000000000000
  0
LINE
  5
F10674
330
F10675
100
AcDbEntity
8
Geo
100
AcDbLine
10
-9.79872443705482
20
2.42395028345202
30
0.000000000000000
11
-9.89872443705482
21
2.54069099722386
31
0.000000000000000
  0
LINE
  5
F10676
330
F10677
100
AcDbEntity
8
Geo
100
AcDbLine
10
-9.89872443705482
20
2.54069099722386
30
0.000000000000000
11
-9.99872443705482
21
2.65025988091569
31
0.000000000000000
  0
LINE
  5
F10678
330
F10679
100
AcDbEntity
8
Geo
100
AcDbLine
10
-9.99872443705482
20
2.65025988091569
30
0.000000000000000
11
-10.0987244370548
21
2.75350377638193
31
0.000000000000000
  0
LINE
  5
F1067A
330
F1067B
100
AcDbEntity
8
Geo
100
AcDbLine
10
-10.0987244370548
20
2.75350377638193
30
0.000000000000000
11
-10.1987244370548
21
2.85116604380661
31
0.000000000000000
  0
LINE
  5
F1067C
330
F1067D
100
AcDbEntity
8
Geo
100
AcDbLine
10
-10.1987244370548
20
2.85116604380661
30
0.000000000000000
11
-10.2987244370548
21
2.94389550686489
31
0.000000000000000
  0
LINE
  5
F1067E
330
F1067F
100
AcDbEntity
8
Geo
100
AcDbLine
10
-10.2987244370548
20
2.94389550686489
30
0.000000000000000
11
-10.3987244370548
21
3.03225511760804
31
0.000000000000000
  0
LINE
  5
F10680
330
F10681
100
AcDbEntity
8
Geo
100
AcDbLine
10
-10.3987244370548
20
3.03225511760804
30
0.000000000000000
11
-10.4987244370548
21
3.11673021880281
31
0.000000000000000
  0
LINE
  5
F10682
330
F10683
100
AcDbEntity
8
Geo
100
AcDbLine
10
-10.4987244370548
20
3.11673021880281
30
0.000000000000000
11
-10.5987244370548
21
3.19773633809732
31
0.000000000000000
  0
LINE
  5
F10684
330
F10685
100
AcDbEntity
8
Geo
100
AcDbLine
10
-10.5987244370548
20
3.19773633809732
30
0.000000000000000
11
-10.6987244370548
21
3.27562648564024
31
0.000000000000000
  0
LINE
  5
F10686
330
F10687
100
AcDbEntity
8
Geo
100
AcDbLine
10
-10.6987244370548
20
3.27562648564024
30
0.000000000000000
11
-10.7987244370548
21
3.35069795031578
31
0.000000000000000
  0
LINE
  5
F10688
330
F10689
100
AcDbEntity
8
Geo
100
AcDbLine
10
-10.7987244370548
20
3.35069795031578
30
0.000000000000000
11
-10.8987244370548
21
3.42319860377822
31
0.000000000000000
  0
LINE
  5
F1068A
330
F1068B
100
AcDbEntity
8
Geo
100
AcDbLine
10
-10.8987244370548
20
3.42319860377822
30
0.000000000000000
11
-10.9987244370548
21
3.49333272906051
31
0.000000000000000
  0
LINE
  5
F1068C
330
F1068D
100
AcDbEntity
8
Geo
100
AcDbLine
10
-10.9987244370548
20
3.49333272906051
30
0.000000000000000
11
-11.0987244370548
21
3.56126639392889
31
0.000000000000000
  0
LINE
  5
F1068E
330
F1068F
100
AcDbEntity
8
Geo
100
AcDbLine
10
-11.0987244370548
20
3.56126639392889
30
0.000000000000000
11
-11.1987244370548
21
3.62713238995910
31
0.000000000000000
  0
LINE
  5
F10690
330
F10691
100
AcDbEntity
8
Geo
100
AcDbLine
10
-11.1987244370548
20
3.62713238995910
30
0.000000000000000
11
-11.2987244370548
21
3.69103475764275
31
0.000000000000000
  0
LINE
  5
F10692
330
F10693
100
AcDbEntity
8
Geo
100
AcDbLine
10
-11.2987244370548
20
3.69103475764275
30
0.000000000000000
11
-11.3987244370548
21
3.75305291646806
31
0.000000000000000
  0
LINE
  5
F10694
330
F10695
100
AcDbEntity
8
Geo
100
AcDbLine
10
-11.3987244370548
20
3.75305291646806
30
0.000000000000000
11
-11.4987244370548
21
3.81324541737003
31
0.000000000000000
  0
LINE
  5
F10696
330
F10697
100
AcDbEntity
8
Geo
100
AcDbLine
10
-11.4987244370548
20
3.81324541737003
30
0.000000000000000
11
-11.5987244370548
21
3.87165333353571
31
0.000000000000000
  0
LINE
  5
F10698
330
F10699
100
AcDbEntity
8
Geo
100
AcDbLine
10
-11.5987244370548
20
3.87165333353571
30
0.000000000000000
11
-11.6987244370548
21
3.92830330447024
31
0.000000000000000
  0
LINE
  5
F1069A
330
F1069B
100
AcDbEntity
8
Geo
100
AcDbLine
10
-11.6987244370548
20
3.92830330447024
30
0.000000000000000
11
-11.7987244370548
21
3.98321024756889
31
0.000000000000000
  0
LINE
  5
F1069C
330
F1069D
100
AcDbEntity
8
Geo
100
AcDbLine
10
-11.7987244370548
20
3.98321024756889
30
0.000000000000000
11
-11.8987244370548
21
4.03637975122453
31
0.000000000000000
  0
LINE
  5
F1069E
330
F1069F
100
AcDbEntity
8
Geo
100
AcDbLine
10
-11.8987244370548
20
4.03637975122453
30
0.000000000000000
11
-11.9987244370548
21
4.08781016370691
31
0.000000000000000
  0
LINE
  5
F106A0
330
F106A1
100
AcDbEntity
8
Geo
100
AcDbLine
10
-11.9987244370548
20
4.08781016370691
30
0.000000000000000
11
-12.0987244370548
21
4.13749439262923
31
0.000000000000000
  0
LINE
  5
F106A2
330
F106A3
100
AcDbEntity
8
Geo
100
AcDbLine
10
-12.0987244370548
20
4.13749439262923
30
0.000000000000000
11
-12.1987244370548
21
4.18542143070230
31
0.000000000000000
  0
LINE
  5
F106A4
330
F106A5
100
AcDbEntity
8
Geo
100
AcDbLine
10
-12.1987244370548
20
4.18542143070230
30
0.000000000000000
11
-12.2987244370549
21
4.23157762459252
31
0.000000000000000
  0
LINE
  5
F106A6
330
F106A7
100
AcDbEntity
8
Geo
100
AcDbLine
10
-12.2987244370549
20
4.23157762459252
30
0.000000000000000
11
-12.3987244370549
21
4.27594770497296
31
0.000000000000000
  0
LINE
  5
F106A8
330
F106A9
100
AcDbEntity
8
Geo
100
AcDbLine
10
-12.3987244370549
20
4.27594770497296
30
0.000000000000000
11
-12.4987244370549
21
4.31851559721778
31
0.000000000000000
  0
LINE
  5
F106AA
330
F106AB
100
AcDbEntity
8
Geo
100
AcDbLine
10
-12.4987244370549
20
4.31851559721778
30
0.000000000000000
11
-12.5987244370549
21
4.35926503357778
31
0.000000000000000
  0
LINE
  5
F106AC
330
F106AD
100
AcDbEntity
8
Geo
100
AcDbLine
10
-12.5987244370549
20
4.35926503357778
30
0.000000000000000
11
-12.6987244370549
21
4.39817998903830
31
0.000000000000000
  0
LINE
  5
F106AE
330
F106AF
100
AcDbEntity
8
Geo
100
AcDbLine
10
-12.6987244370549
20
4.39817998903830
30
0.000000000000000
11
-12.8987244370549
21
4.47044514110882
31
0.000000000000000
  0
LINE
  5
F106B0
330
F106B1
100
AcDbEntity
8
Geo
100
AcDbLine
10
-32.7987244370549
20
-3.07116880485828
30
0.000000000000000
11
-32.6987244370549
21
-3.18952155049403
31
0.000000000000000
  0
LINE
  5
F106B2
330
F106B3
100
AcDbEntity
8
Geo
100
AcDbLine
10
-32.6987244370549
20
-3.18952155049403
30
0.000000000000000
11
-32.6987244370549
21
-3.18952155049403
31
0.000000000000000
  0
LINE
  5
F106B4
330
F106B5
100
AcDbEntity
8
Geo
100
AcDbLine
10
-32.6987244370549
20
-3.18952155049403
30
0.000000000000000
11
-32.5987244370549
21
-3.26792927819918
31
0.000000000000000
  0
LINE
  5
F106B6
330
F106B7
100
AcDbEntity
8
Geo
100
AcDbLine
10
-32.5987244370549
20
-3.26792927819918
30
0.000000000000000
11
-32.4987244370549
21
-3.34512063737737
31
0.000000000000000
  0
LINE
  5
F106B8
330
F106B9
100
AcDbEntity
8
Geo
100
AcDbLine
10
-32.4987244370549
20
-3.34512063737737
30
0.000000000000000
11
-32.3987244370549
21
-3.42106475251415
31
0.000000000000000
  0
LINE
  5
F106BA
330
F106BB
100
AcDbEntity
8
Geo
100
AcDbLine
10
-32.3987244370549
20
-3.42106475251415
30
0.000000000000000
11
-32.2987244370549
21
-3.49573124697602
31
0.000000000000000
  0
LINE
  5
F106BC
330
F106BD
100
AcDbEntity
8
Geo
100
AcDbLine
10
-32.2987244370549
20
-3.49573124697602
30
0.000000000000000
11
-32.1987244370549
21
-3.56909025516075
31
0.000000000000000
  0
LINE
  5
F106BE
330
F106BF
100
AcDbEntity
8
Geo
100
AcDbLine
10
-32.1987244370549
20
-3.56909025516075
30
0.000000000000000
11
-32.0987244370549
21
-3.64111243444318
31
0.000000000000000
  0
LINE
  5
F106C0
330
F106C1
100
AcDbEntity
8
Geo
100
AcDbLine
10
-32.0987244370549
20
-3.64111243444318
30
0.000000000000000
11
-31.9987244370549
21
-3.71176897691186
31
0.000000000000000
  0
LINE
  5
F106C2
330
F106C3
100
AcDbEntity
8
Geo
100
AcDbLine
10
-31.9987244370549
20
-3.71176897691186
30
0.000000000000000
11
-31.8987244370549
21
-3.78103162089189
31
0.000000000000000
  0
LINE
  5
F106C4
330
F106C5
100
AcDbEntity
8
Geo
100
AcDbLine
10
-31.8987244370549
20
-3.78103162089189
30
0.000000000000000
11
-31.7987244370549
21
-3.84887266224916
31
0.000000000000000
  0
LINE
  5
F106C6
330
F106C7
100
AcDbEntity
8
Geo
100
AcDbLine
10
-31.7987244370549
20
-3.84887266224916
30
0.000000000000000
11
-31.6987244370549
21
-3.91526496547167
31
0.000000000000000
  0
LINE
  5
F106C8
330
F106C9
100
AcDbEntity
8
Geo
100
AcDbLine
10
-31.6987244370549
20
-3.91526496547167
30
0.000000000000000
11
-31.5987244370549
21
-3.98018197452334
31
0.000000000000000
  0
LINE
  5
F106CA
330
F106CB
100
AcDbEntity
8
Geo
100
AcDbLine
10
-31.5987244370549
20
-3.98018197452334
30
0.000000000000000
11
-31.4987244370549
21
-4.04359772346611
31
0.000000000000000
  0
LINE
  5
F106CC
330
F106CD
100
AcDbEntity
8
Geo
100
AcDbLine
10
-31.4987244370549
20
-4.04359772346611
30
0.000000000000000
11
-31.3987244370549
21
-4.10548684684593
31
0.000000000000000
  0
LINE
  5
F106CE
330
F106CF
100
AcDbEntity
8
Geo
100
AcDbLine
10
-31.3987244370549
20
-4.10548684684593
30
0.000000000000000
11
-31.2987244370549
21
-4.16582458983862
31
0.000000000000000
  0
LINE
  5
F106D0
330
F106D1
100
AcDbEntity
8
Geo
100
AcDbLine
10
-31.2987244370549
20
-4.16582458983862
30
0.000000000000000
11
-31.1987244370549
21
-4.22458681815149
31
0.000000000000000
  0
LINE
  5
F106D2
330
F106D3
100
AcDbEntity
8
Geo
100
AcDbLine
10
-31.1987244370549
20
-4.22458681815149
30
0.000000000000000
11
-31.0987244370549
21
-4.28175002767668
31
0.000000000000000
  0
LINE
  5
F106D4
330
F106D5
100
AcDbEntity
8
Geo
100
AcDbLine
10
-31.0987244370549
20
-4.28175002767668
30
0.000000000000000
11
-30.9987244370549
21
-4.33729135389257
31
0.000000000000000
  0
LINE
  5
F106D6
330
F106D7
100
AcDbEntity
8
Geo
100
AcDbLine
10
-30.9987244370549
20
-4.33729135389257
30
0.000000000000000
11
-30.8987244370549
21
-4.39118858100919
31
0.000000000000000
  0
LINE
  5
F106D8
330
F106D9
100
AcDbEntity
8
Geo
100
AcDbLine
10
-30.8987244370549
20
-4.39118858100919
30
0.000000000000000
11
-30.7987244370549
21
-4.44342015085433
31
0.000000000000000
  0
LINE
  5
F106DA
330
F106DB
100
AcDbEntity
8
Geo
100
AcDbLine
10
-30.7987244370549
20
-4.44342015085433
30
0.000000000000000
11
-30.6987244370549
21
-4.49396517149645
31
0.000000000000000
  0
LINE
  5
F106DC
330
F106DD
100
AcDbEntity
8
Geo
100
AcDbLine
10
-30.6987244370549
20
-4.49396517149645
30
0.000000000000000
11
-30.5987244370549
21
-4.54280342560124
31
0.000000000000000
  0
LINE
  5
F106DE
330
F106DF
100
AcDbEntity
8
Geo
100
AcDbLine
10
-30.5987244370549
20
-4.54280342560124
30
0.000000000000000
11
-30.4987244370549
21
-4.58991537851821
31
0.000000000000000
  0
LINE
  5
F106E0
330
F106E1
100
AcDbEntity
8
Geo
100
AcDbLine
10
-30.4987244370549
20
-4.58991537851821
30
0.000000000000000
11
-30.3987244370549
21
-4.63528218609434
31
0.000000000000000
  0
LINE
  5
F106E2
330
F106E3
100
AcDbEntity
8
Geo
100
AcDbLine
10
-30.3987244370549
20
-4.63528218609434
30
0.000000000000000
11
-30.2987244370549
21
-4.67888570221149
31
0.000000000000000
  0
LINE
  5
F106E4
330
F106E5
100
AcDbEntity
8
Geo
100
AcDbLine
10
-30.2987244370549
20
-4.67888570221149
30
0.000000000000000
11
-30.1987244370549
21
-4.72070848604459
31
0.000000000000000
  0
LINE
  5
F106E6
330
F106E7
100
AcDbEntity
8
Geo
100
AcDbLine
10
-30.1987244370549
20
-4.72070848604459
30
0.000000000000000
11
-30.0987244370549
21
-4.76073380903773
31
0.000000000000000
  0
LINE
  5
F106E8
330
F106E9
100
AcDbEntity
8
Geo
100
AcDbLine
10
-30.0987244370549
20
-4.76073380903773
30
0.000000000000000
11
-29.9987244370549
21
-4.79894566159537
31
0.000000000000000
  0
LINE
  5
F106EA
330
F106EB
100
AcDbEntity
8
Geo
100
AcDbLine
10
-29.9987244370549
20
-4.79894566159537
30
0.000000000000000
11
-29.8987244370549
21
-4.83532875948599
31
0.000000000000000
  0
LINE
  5
F106EC
330
F106ED
100
AcDbEntity
8
Geo
100
AcDbLine
10
-29.8987244370549
20
-4.83532875948599
30
0.000000000000000
11
-29.7987244370549
21
-4.86986854995551
31
0.000000000000000
  0
LINE
  5
F106EE
330
F106EF
100
AcDbEntity
8
Geo
100
AcDbLine
10
-29.7987244370549
20
-4.86986854995551
30
0.000000000000000
11
-29.6987244370549
21
-4.90255121754829
31
0.000000000000000
  0
LINE
  5
F106F0
330
F106F1
100
AcDbEntity
8
Geo
100
AcDbLine
10
-29.6987244370549
20
-4.90255121754829
30
0.000000000000000
11
-29.5987244370549
21
-4.93336368963305
31
0.000000000000000
  0
LINE
  5
F106F2
330
F106F3
100
AcDbEntity
8
Geo
100
AcDbLine
10
-29.5987244370549
20
-4.93336368963305
30
0.000000000000000
11
-29.4987244370549
21
-4.96229364163178
31
0.000000000000000
  0
LINE
  5
F106F4
330
F106F5
100
AcDbEntity
8
Geo
100
AcDbLine
10
-29.4987244370549
20
-4.96229364163178
30
0.000000000000000
11
-29.3987244370549
21
-4.98932950194940
31
0.000000000000000
  0
LINE
  5
F106F6
330
F106F7
100
AcDbEntity
8
Geo
100
AcDbLine
10
-29.3987244370549
20
-4.98932950194940
30
0.000000000000000
11
-29.2987244370549
21
-5.01446045660228
31
0.000000000000000
  0
LINE
  5
F106F8
330
F106F9
100
AcDbEntity
8
Geo
100
AcDbLine
10
-29.2987244370549
20
-5.01446045660228
30
0.000000000000000
11
-29.1987244370549
21
-5.03767645354361
31
0.000000000000000
  0
LINE
  5
F106FA
330
F106FB
100
AcDbEntity
8
Geo
100
AcDbLine
10
-29.1987244370549
20
-5.03767645354361
30
0.000000000000000
11
-29.0987244370549
21
-5.05896820668416
31
0.000000000000000
  0
LINE
  5
F106FC
330
F106FD
100
AcDbEntity
8
Geo
100
AcDbLine
10
-29.0987244370549
20
-5.05896820668416
30
0.000000000000000
11
-28.9987244370549
21
-5.07832719960657
31
0.000000000000000
  0
LINE
  5
F106FE
330
F106FF
100
AcDbEntity
8
Geo
100
AcDbLine
10
-28.9987244370549
20
-5.07832719960657
30
0.000000000000000
11
-28.8987244370549
21
-5.09574568897178
31
0.000000000000000
  0
LINE
  5
F10700
330
F10701
100
AcDbEntity
8
Geo
100
AcDbLine
10
-28.8987244370549
20
-5.09574568897178
30
0.000000000000000
11
-28.7987244370549
21
-5.11121670761629
31
0.000000000000000
  0
LINE
  5
F10702
330
F10703
100
AcDbEntity
8
Geo
100
AcDbLine
10
-28.7987244370549
20
-5.11121670761629
30
0.000000000000000
11
-28.6987244370549
21
-5.12473406733892
31
0.000000000000000
  0
LINE
  5
F10704
330
F10705
100
AcDbEntity
8
Geo
100
AcDbLine
10
-28.6987244370549
20
-5.12473406733892
30
0.000000000000000
11
-28.5987244370549
21
-5.13629236137601
31
0.000000000000000
  0
LINE
  5
F10706
330
F10707
100
AcDbEntity
8
Geo
100
AcDbLine
10
-28.5987244370549
20
-5.13629236137601
30
0.000000000000000
11
-28.4987244370549
21
-5.14588696656405
31
0.000000000000000
  0
LINE
  5
F10708
330
F10709
100
AcDbEntity
8
Geo
100
AcDbLine
10
-28.4987244370549
20
-5.14588696656405
30
0.000000000000000
11
-28.3987244370549
21
-5.15351404518890
31
0.000000000000000
  0
LINE
  5
F1070A
330
F1070B
100
AcDbEntity
8
Geo
100
AcDbLine
10
-28.3987244370549
20
-5.15351404518890
30
0.000000000000000
11
-28.2987244370549
21
-5.15917054652079
31
0.000000000000000
  0
LINE
  5
F1070C
330
F1070D
100
AcDbEntity
8
Geo
100
AcDbLine
10
-28.2987244370549
20
-5.15917054652079
30
0.000000000000000
11
-28.1987244370549
21
-5.16285420803462
31
0.000000000000000
  0
LINE
  5
F1070E
330
F1070F
100
AcDbEntity
8
Geo
100
AcDbLine
10
-28.1987244370549
20
-5.16285420803462
30
0.000000000000000
11
-28.0987244370549
21
-5.16456355631489
31
0.000000000000000
  0
LINE
  5
F10710
330
F10711
100
AcDbEntity
8
Geo
100
AcDbLine
10
-28.0987244370549
20
-5.16456355631489
30
0.000000000000000
11
-28.0621740401703
21
-5.22690659474809
31
0.000000000000000
  0
LINE
  5
F10712
330
F10713
100
AcDbEntity
8
Geo
100
AcDbLine
10
-22.8261872987095
20
4.77309340525191
30
0.000000000000000
11
-22.7987244370549
21
4.71080781514500
31
0.000000000000000
  0
LINE
  5
F10714
330
F10715
100
AcDbEntity
8
Geo
100
AcDbLine
10
-22.7987244370549
20
4.71080781514500
30
0.000000000000000
11
-22.6987244370549
21
4.70927793263870
31
0.000000000000000
  0
LINE
  5
F10716
330
F10717
100
AcDbEntity
8
Geo
100
AcDbLine
10
-22.6987244370549
20
4.70927793263870
30
0.000000000000000
11
-22.5987244370549
21
4.70577364213637
31
0.000000000000000
  0
LINE
  5
F10718
330
F10719
100
AcDbEntity
8
Geo
100
AcDbLine
10
-22.5987244370549
20
4.70577364213637
30
0.000000000000000
11
-22.4987244370549
21
4.70029634530747
31
0.000000000000000
  0
LINE
  5
F1071A
330
F1071B
100
AcDbEntity
8
Geo
100
AcDbLine
10
-22.4987244370549
20
4.70029634530747
30
0.000000000000000
11
-22.3987244370549
21
4.69284823299772
31
0.000000000000000
  0
LINE
  5
F1071C
330
F1071D
100
AcDbEntity
8
Geo
100
AcDbLine
10
-22.3987244370549
20
4.69284823299772
30
0.000000000000000
11
-22.2987244370549
21
4.68343228435273
31
0.000000000000000
  0
LINE
  5
F1071E
330
F1071F
100
AcDbEntity
8
Geo
100
AcDbLine
10
-22.2987244370549
20
4.68343228435273
30
0.000000000000000
11
-22.1987244370549
21
4.67205226562639
31
0.000000000000000
  0
LINE
  5
F10720
330
F10721
100
AcDbEntity
8
Geo
100
AcDbLine
10
-22.1987244370549
20
4.67205226562639
30
0.000000000000000
11
-22.0987244370549
21
4.65871272867450
31
0.000000000000000
  0
LINE
  5
F10722
330
F10723
100
AcDbEntity
8
Geo
100
AcDbLine
10
-22.0987244370549
20
4.65871272867450
30
0.000000000000000
11
-21.9987244370549
21
4.64341900913396
31
0.000000000000000
  0
LINE
  5
F10724
330
F10725
100
AcDbEntity
8
Geo
100
AcDbLine
10
-21.9987244370549
20
4.64341900913396
30
0.000000000000000
11
-21.8987244370549
21
4.62617722428868
31
0.000000000000000
  0
LINE
  5
F10726
330
F10727
100
AcDbEntity
8
Geo
100
AcDbLine
10
-21.8987244370549
20
4.62617722428868
30
0.000000000000000
11
-21.7987244370549
21
4.60699427062270
31
0.000000000000000
  0
LINE
  5
F10728
330
F10729
100
AcDbEntity
8
Geo
100
AcDbLine
10
-21.7987244370549
20
4.60699427062270
30
0.000000000000000
11
-21.6987244370549
21
4.58587782106173
31
0.000000000000000
  0
LINE
  5
F1072A
330
F1072B
100
AcDbEntity
8
Geo
100
AcDbLine
10
-21.6987244370549
20
4.58587782106173
30
0.000000000000000
11
-21.5987244370549
21
4.56283632190404
31
0.000000000000000
  0
LINE
  5
F1072C
330
F1072D
100
AcDbEntity
8
Geo
100
AcDbLine
10
-21.5987244370549
20
4.56283632190404
30
0.000000000000000
11
-21.4987244370549
21
4.53787898944207
31
0.000000000000000
  0
LINE
  5
F1072E
330
F1072F
100
AcDbEntity
8
Geo
100
AcDbLine
10
-21.4987244370549
20
4.53787898944207
30
0.000000000000000
11
-21.3987244370549
21
4.51101580627605
31
0.000000000000000
  0
LINE
  5
F10730
330
F10731
100
AcDbEntity
8
Geo
100
AcDbLine
10
-21.3987244370549
20
4.51101580627605
30
0.000000000000000
11
-21.2987244370549
21
4.48225751732108
31
0.000000000000000
  0
LINE
  5
F10732
330
F10733
100
AcDbEntity
8
Geo
100
AcDbLine
10
-21.2987244370549
20
4.48225751732108
30
0.000000000000000
11
-21.1987244370549
21
4.45161562550930
31
0.000000000000000
  0
LINE
  5
F10734
330
F10735
100
AcDbEntity
8
Geo
100
AcDbLine
10
-21.1987244370549
20
4.45161562550930
30
0.000000000000000
11
-21.0987244370549
21
4.41910238718889
31
0.000000000000000
  0
LINE
  5
F10736
330
F10737
100
AcDbEntity
8
Geo
100
AcDbLine
10
-21.0987244370549
20
4.41910238718889
30
0.000000000000000
11
-20.9987244370549
21
4.38473080722165
31
0.000000000000000
  0
LINE
  5
F10738
330
F10739
100
AcDbEntity
8
Geo
100
AcDbLine
10
-20.9987244370549
20
4.38473080722165
30
0.000000000000000
11
-20.8987244370549
21
4.34851463378131
31
0.000000000000000
  0
LINE
  5
F1073A
330
F1073B
100
AcDbEntity
8
Geo
100
AcDbLine
10
-20.8987244370549
20
4.34851463378131
30
0.000000000000000
11
-20.7987244370549
21
4.31046835285436
31
0.000000000000000
  0
LINE
  5
F1073C
330
F1073D
100
AcDbEntity
8
Geo
100
AcDbLine
10
-20.7987244370549
20
4.31046835285436
30
0.000000000000000
11
-20.6987244370549
21
4.27060718244590
31
0.000000000000000
  0
LINE
  5
F1073E
330
F1073F
100
AcDbEntity
8
Geo
100
AcDbLine
10
-20.6987244370549
20
4.27060718244590
30
0.000000000000000
11
-20.5987244370549
21
4.22894706649261
31
0.000000000000000
  0
LINE
  5
F10740
330
F10741
100
AcDbEntity
8
Geo
100
AcDbLine
10
-20.5987244370549
20
4.22894706649261
30
0.000000000000000
11
-20.4987244370549
21
4.18550466848541
31
0.000000000000000
  0
LINE
  5
F10742
330
F10743
100
AcDbEntity
8
Geo
100
AcDbLine
10
-20.4987244370549
20
4.18550466848541
30
0.000000000000000
11
-20.3987244370549
21
4.14029736480428
31
0.000000000000000
  0
LINE
  5
F10744
330
F10745
100
AcDbEntity
8
Geo
100
AcDbLine
10
-20.3987244370549
20
4.14029736480428
30
0.000000000000000
11
-20.2987244370549
21
4.09334323776794
31
0.000000000000000
  0
LINE
  5
F10746
330
F10747
100
AcDbEntity
8
Geo
100
AcDbLine
10
-20.2987244370549
20
4.09334323776794
30
0.000000000000000
11
-20.1987244370549
21
4.04466106840117
31
0.000000000000000
  0
LINE
  5
F10748
330
F10749
100
AcDbEntity
8
Geo
100
AcDbLine
10
-20.1987244370549
20
4.04466106840117
30
0.000000000000000
11
-20.0987244370549
21
3.99427032892260
31
0.000000000000000
  0
LINE
  5
F1074A
330
F1074B
100
AcDbEntity
8
Geo
100
AcDbLine
10
-20.0987244370549
20
3.99427032892260
30
0.000000000000000
11
-19.9987244370549
21
3.94219117495618
31
0.000000000000000
  0
LINE
  5
F1074C
330
F1074D
100
AcDbEntity
8
Geo
100
AcDbLine
10
-19.9987244370549
20
3.94219117495618
30
0.000000000000000
11
-19.8987244370549
21
3.88844443746910
31
0.000000000000000
  0
LINE
  5
F1074E
330
F1074F
100
AcDbEntity
8
Geo
100
AcDbLine
10
-19.8987244370549
20
3.88844443746910
30
0.000000000000000
11
-19.7987244370549
21
3.83305161443976
31
0.000000000000000
  0
LINE
  5
F10750
330
F10751
100
AcDbEntity
8
Geo
100
AcDbLine
10
-19.7987244370549
20
3.83305161443976
30
0.000000000000000
11
-19.6987244370549
21
3.77603486225879
31
0.000000000000000
  0
LINE
  5
F10752
330
F10753
100
AcDbEntity
8
Geo
100
AcDbLine
10
-19.6987244370549
20
3.77603486225879
30
0.000000000000000
11
-19.5987244370549
21
3.71741698686686
31
0.000000000000000
  0
LINE
  5
F10754
330
F10755
100
AcDbEntity
8
Geo
100
AcDbLine
10
-19.5987244370549
20
3.71741698686686
30
0.000000000000000
11
-19.4987244370549
21
3.65722143463256
31
0.000000000000000
  0
LINE
  5
F10756
330
F10757
100
AcDbEntity
8
Geo
100
AcDbLine
10
-19.4987244370549
20
3.65722143463256
30
0.000000000000000
11
-19.3987244370549
21
3.59547228297420
31
0.000000000000000
  0
LINE
  5
F10758
330
F10759
100
AcDbEntity
8
Geo
100
AcDbLine
10
-19.3987244370549
20
3.59547228297420
30
0.000000000000000
11
-19.2987244370549
21
3.53219423072911
31
0.000000000000000
  0
LINE
  5
F1075A
330
F1075B
100
AcDbEntity
8
Geo
100
AcDbLine
10
-19.2987244370549
20
3.53219423072911
30
0.000000000000000
11
-19.1987244370549
21
3.46741258827452
31
0.000000000000000
  0
LINE
  5
F1075C
330
F1075D
100
AcDbEntity
8
Geo
100
AcDbLine
10
-19.1987244370549
20
3.46741258827452
30
0.000000000000000
11
-19.0987244370549
21
3.40115326740365
31
0.000000000000000
  0
LINE
  5
F1075E
330
F1075F
100
AcDbEntity
8
Geo
100
AcDbLine
10
-19.0987244370549
20
3.40115326740365
30
0.000000000000000
11
-18.9987244370549
21
3.33344277096140
31
0.000000000000000
  0
LINE
  5
F10760
330
F10761
100
AcDbEntity
8
Geo
100
AcDbLine
10
-18.9987244370549
20
3.33344277096140
30
0.000000000000000
11
-18.8987244370549
21
3.26430818224356
31
0.000000000000000
  0
LINE
  5
F10762
330
F10763
100
AcDbEntity
8
Geo
100
AcDbLine
10
-18.8987244370549
20
3.26430818224356
30
0.000000000000000
11
-18.7987244370549
21
3.19377715416383
31
0.000000000000000
  0
LINE
  5
F10764
330
F10765
100
AcDbEntity
8
Geo
100
AcDbLine
10
-18.7987244370549
20
3.19377715416383
30
0.000000000000000
11
-18.6987244370549
21
3.12187789819305
31
0.000000000000000
  0
LINE
  5
F10766
330
F10767
100
AcDbEntity
8
Geo
100
AcDbLine
10
-18.6987244370549
20
3.12187789819305
30
0.000000000000000
11
-18.5987244370549
21
3.04863917307495
31
0.000000000000000
  0
LINE
  5
F10768
330
F10769
100
AcDbEntity
8
Geo
100
AcDbLine
10
-18.5987244370549
20
3.04863917307495
30
0.000000000000000
11
-18.4987244370549
21
2.97409027332309
31
0.000000000000000
  0
LINE
  5
F1076A
330
F1076B
100
AcDbEntity
8
Geo
100
AcDbLine
10
-18.4987244370549
20
2.97409027332309
30
0.000000000000000
11
-18.3987244370549
21
2.89826101750339
31
0.000000000000000
  0
LINE
  5
F1076C
330
F1076D
100
AcDbEntity
8
Geo
100
AcDbLine
10
-18.3987244370549
20
2.89826101750339
30
0.000000000000000
11
-18.2987244370549
21
2.82118173630713
31
0.000000000000000
  0
LINE
  5
F1076E
330
F1076F
100
AcDbEntity
8
Geo
100
AcDbLine
10
-18.2987244370549
20
2.82118173630713
30
0.000000000000000
11
-18.1987244370549
21
2.74288326041909
31
0.000000000000000
  0
LINE
  5
F10770
330
F10771
100
AcDbEntity
8
Geo
100
AcDbLine
10
-18.1987244370549
20
2.74288326041909
30
0.000000000000000
11
-18.0987244370549
21
2.66339690818565
31
0.000000000000000
  0
LINE
  5
F10772
330
F10773
100
AcDbEntity
8
Geo
100
AcDbLine
10
-18.0987244370549
20
2.66339690818565
30
0.000000000000000
11
-17.9987244370549
21
2.58275447308791
31
0.000000000000000
  0
LINE
  5
F10774
330
F10775
100
AcDbEntity
8
Geo
100
AcDbLine
10
-17.9987244370549
20
2.58275447308791
30
0.000000000000000
11
-17.8987244370549
21
2.50098821102467
31
0.000000000000000
  0
LINE
  5
F10776
330
F10777
100
AcDbEntity
8
Geo
100
AcDbLine
10
-17.8987244370549
20
2.50098821102467
30
0.000000000000000
11
-17.7987244370549
21
2.41813082741058
31
0.000000000000000
  0
LINE
  5
F10778
330
F10779
100
AcDbEntity
8
Geo
100
AcDbLine
10
-17.7987244370549
20
2.41813082741058
30
0.000000000000000
11
-17.6987244370549
21
2.33421546409431
31
0.000000000000000
  0
LINE
  5
F1077A
330
F1077B
100
AcDbEntity
8
Geo
100
AcDbLine
10
-17.6987244370549
20
2.33421546409431
30
0.000000000000000
11
-17.5987244370549
21
2.24927568610235
31
0.000000000000000
  0
LINE
  5
F1077C
330
F1077D
100
AcDbEntity
8
Geo
100
AcDbLine
10
-17.5987244370549
20
2.24927568610235
30
0.000000000000000
11
-17.4987244370549
21
2.16334546821337
31
0.000000000000000
  0
LINE
  5
F1077E
330
F1077F
100
AcDbEntity
8
Geo
100
AcDbLine
10
-17.4987244370549
20
2.16334546821337
30
0.000000000000000
11
-17.3987244370549
21
2.07645918136881
31
0.000000000000000
  0
LINE
  5
F10780
330
F10781
100
AcDbEntity
8
Geo
100
AcDbLine
10
-17.3987244370549
20
2.07645918136881
30
0.000000000000000
11
-17.2987244370549
21
1.98865157892494
31
0.000000000000000
  0
LINE
  5
F10782
330
F10783
100
AcDbEntity
8
Geo
100
AcDbLine
10
-17.2987244370549
20
1.98865157892494
30
0.000000000000000
11
-17.1987244370549
21
1.89995778275197
31
0.000000000000000
  0
LINE
  5
F10784
330
F10785
100
AcDbEntity
8
Geo
100
AcDbLine
10
-17.1987244370549
20
1.89995778275197
30
0.000000000000000
11
-17.0987244370549
21
1.81041326918583
31
0.000000000000000
  0
LINE
  5
F10786
330
F10787
100
AcDbEntity
8
Geo
100
AcDbLine
10
-17.0987244370549
20
1.81041326918583
30
0.000000000000000
11
-16.9987244370549
21
1.72005385483801
31
0.000000000000000
  0
LINE
  5
F10788
330
F10789
100
AcDbEntity
8
Geo
100
AcDbLine
10
-16.9987244370549
20
1.72005385483801
30
0.000000000000000
11
-16.8987244370549
21
1.62891568226948
31
0.000000000000000
  0
LINE
  5
F1078A
330
F1078B
100
AcDbEntity
8
Geo
100
AcDbLine
10
-16.8987244370549
20
1.62891568226948
30
0.000000000000000
11
-16.7987244370549
21
1.53703520553412
31
0.000000000000000
  0
LINE
  5
F1078C
330
F1078D
100
AcDbEntity
8
Geo
100
AcDbLine
10
-16.7987244370549
20
1.53703520553412
30
0.000000000000000
11
-16.6987244370549
21
1.44444917559755
31
0.000000000000000
  0
LINE
  5
F1078E
330
F1078F
100
AcDbEntity
8
Geo
100
AcDbLine
10
-16.6987244370549
20
1.44444917559755
30
0.000000000000000
11
-16.5987244370549
21
1.35119462563728
31
0.000000000000000
  0
LINE
  5
F10790
330
F10791
100
AcDbEntity
8
Geo
100
AcDbLine
10
-16.5987244370549
20
1.35119462563728
30
0.000000000000000
11
-16.4987244370549
21
1.25730885622994
31
0.000000000000000
  0
LINE
  5
F10792
330
F10793
100
AcDbEntity
8
Geo
100
AcDbLine
10
-16.4987244370549
20
1.25730885622994
30
0.000000000000000
11
-16.3987244370549
21
1.16282942043147
31
0.000000000000000
  0
LINE
  5
F10794
330
F10795
100
AcDbEntity
8
Geo
100
AcDbLine
10
-16.3987244370549
20
1.16282942043147
30
0.000000000000000
11
-16.2987244370549
21
1.06779410875650
31
0.000000000000000
  0
LINE
  5
F10796
330
F10797
100
AcDbEntity
8
Geo
100
AcDbLine
10
-16.2987244370549
20
1.06779410875650
30
0.000000000000000
11
-16.1987244370549
21
0.972240934062580
31
0.000000000000000
  0
LINE
  5
F10798
330
F10799
100
AcDbEntity
8
Geo
100
AcDbLine
10
-16.1987244370549
20
0.972240934062580
30
0.000000000000000
11
-16.0987244370549
21
0.876208116345552
31
0.000000000000000
  0
LINE
  5
F1079A
330
F1079B
100
AcDbEntity
8
Geo
100
AcDbLine
10
-16.0987244370549
20
0.876208116345552
30
0.000000000000000
11
-15.9987244370549
21
0.779734067452084
31
0.000000000000000
  0
LINE
  5
F1079C
330
F1079D
100
AcDbEntity
8
Geo
100
AcDbLine
10
-15.9987244370549
20
0.779734067452084
30
0.000000000000000
11
-15.8987244370549
21
0.682857375715436
31
0.000000000000000
  0
LINE
  5
F1079E
330
F1079F
100
AcDbEntity
8
Geo
100
AcDbLine
10
-15.8987244370549
20
0.682857375715436
30
0.000000000000000
11
-15.7987244370549
21
0.585616790520625
31
0.000000000000000
  0
LINE
  5
F107A0
330
F107A1
100
AcDbEntity
8
Geo
100
AcDbLine
10
-15.7987244370549
20
0.585616790520625
30
0.000000000000000
11
-15.6987244370549
21
0.488051206805208
31
0.000000000000000
  0
LINE
  5
F107A2
330
F107A3
100
AcDbEntity
8
Geo
100
AcDbLine
10
-15.6987244370549
20
0.488051206805208
30
0.000000000000000
11
-15.5987244370549
21
0.390199649501813
31
0.000000000000000
  0
LINE
  5
F107A4
330
F107A5
100
AcDbEntity
8
Geo
100
AcDbLine
10
-15.5987244370549
20
0.390199649501813
30
0.000000000000000
11
-15.4987244370549
21
0.292101257928692
31
0.000000000000000
  0
LINE
  5
F107A6
330
F107A7
100
AcDbEntity
8
Geo
100
AcDbLine
10
-15.4987244370549
20
0.292101257928692
30
0.000000000000000
11
-15.3987244370549
21
0.193795270134512
31
0.000000000000000
  0
LINE
  5
F107A8
330
F107A9
100
AcDbEntity
8
Geo
100
AcDbLine
10
-15.3987244370549
20
0.193795270134512
30
0.000000000000000
11
-15.2987244370549
21
0.0953210072036623
31
0.000000000000000
  0
LINE
  5
F107AA
330
F107AB
100
AcDbEntity
8
Geo
100
AcDbLine
10
-15.2987244370549
20
0.0953210072036623
30
0.000000000000000
11
-15.1987244370549
21
-0.00328214247165681
31
0.000000000000000
  0
LINE
  5
F107AC
330
F107AD
100
AcDbEntity
8
Geo
100
AcDbLine
10
-15.1987244370549
20
-0.00328214247165681
30
0.000000000000000
11
-15.0987244370549
21
-0.101974738946267
31
0.000000000000000
  0
LINE
  5
F107AE
330
F107AF
100
AcDbEntity
8
Geo
100
AcDbLine
10
-15.0987244370549
20
-0.101974738946267
30
0.000000000000000
11
-14.9987244370549
21
-0.200717306497462
31
0.000000000000000
  0
LINE
  5
F107B0
330
F107B1
100
AcDbEntity
8
Geo
100
AcDbLine
10
-14.9987244370549
20
-0.200717306497462
30
0.000000000000000
11
-14.8987244370549
21
-0.299470349414772
31
0.000000000000000
  0
LINE
  5
F107B2
330
F107B3
100
AcDbEntity
8
Geo
100
AcDbLine
10
-14.8987244370549
20
-0.299470349414772
30
0.000000000000000
11
-14.7987244370549
21
-0.398194367797718
31
0.000000000000000
  0
LINE
  5
F107B4
330
F107B5
100
AcDbEntity
8
Geo
100
AcDbLine
10
-14.7987244370549
20
-0.398194367797718
30
0.000000000000000
11
-14.6987244370549
21
-0.496849873355252
31
0.000000000000000
  0
LINE
  5
F107B6
330
F107B7
100
AcDbEntity
8
Geo
100
AcDbLine
10
-14.6987244370549
20
-0.496849873355252
30
0.000000000000000
11
-14.5987244370549
21
-0.595397405200538
31
0.000000000000000
  0
LINE
  5
F107B8
330
F107B9
100
AcDbEntity
8
Geo
100
AcDbLine
10
-14.5987244370549
20
-0.595397405200538
30
0.000000000000000
11
-14.4987244370549
21
-0.693797545634789
31
0.000000000000000
  0
LINE
  5
F107BA
330
F107BB
100
AcDbEntity
8
Geo
100
AcDbLine
10
-14.4987244370549
20
-0.693797545634789
30
0.000000000000000
11
-14.3987244370549
21
-0.792010935913814
31
0.000000000000000
  0
LINE
  5
F107BC
330
F107BD
100
AcDbEntity
8
Geo
100
AcDbLine
10
-14.3987244370549
20
-0.792010935913814
30
0.000000000000000
11
-14.2987244370549
21
-0.889998291990997
31
0.000000000000000
  0
LINE
  5
F107BE
330
F107BF
100
AcDbEntity
8
Geo
100
AcDbLine
10
-14.2987244370549
20
-0.889998291990997
30
0.000000000000000
11
-14.1987244370549
21
-0.987720420230388
31
0.000000000000000
  0
LINE
  5
F107C0
330
F107C1
100
AcDbEntity
8
Geo
100
AcDbLine
10
-14.1987244370549
20
-0.987720420230388
30
0.000000000000000
11
-14.0987244370549
21
-1.08513823308364
31
0.000000000000000
  0
LINE
  5
F107C2
330
F107C3
100
AcDbEntity
8
Geo
100
AcDbLine
10
-14.0987244370549
20
-1.08513823308364
30
0.000000000000000
11
-13.9987244370549
21
-1.18221276472448
31
0.000000000000000
  0
LINE
  5
F107C4
330
F107C5
100
AcDbEntity
8
Geo
100
AcDbLine
10
-13.9987244370549
20
-1.18221276472448
30
0.000000000000000
11
-13.8987244370549
21
-1.27890518663459
31
0.000000000000000
  0
LINE
  5
F107C6
330
F107C7
100
AcDbEntity
8
Geo
100
AcDbLine
10
-13.8987244370549
20
-1.27890518663459
30
0.000000000000000
11
-13.7987244370549
21
-1.37517682313440
31
0.000000000000000
  0
LINE
  5
F107C8
330
F107C9
100
AcDbEntity
8
Geo
100
AcDbLine
10
-13.7987244370549
20
-1.37517682313440
30
0.000000000000000
11
-13.6987244370549
21
-1.47098916685292
31
0.000000000000000
  0
LINE
  5
F107CA
330
F107CB
100
AcDbEntity
8
Geo
100
AcDbLine
10
-13.6987244370549
20
-1.47098916685292
30
0.000000000000000
11
-13.5987244370549
21
-1.56630389413015
31
0.000000000000000
  0
LINE
  5
F107CC
330
F107CD
100
AcDbEntity
8
Geo
100
AcDbLine
10
-13.5987244370549
20
-1.56630389413015
30
0.000000000000000
11
-13.4987244370549
21
-1.66108288034601
31
0.000000000000000
  0
LINE
  5
F107CE
330
F107CF
100
AcDbEntity
8
Geo
100
AcDbLine
10
-13.4987244370549
20
-1.66108288034601
30
0.000000000000000
11
-13.3987244370549
21
-1.75528821516973
31
0.000000000000000
  0
LINE
  5
F107D0
330
F107D1
100
AcDbEntity
8
Geo
100
AcDbLine
10
-13.3987244370549
20
-1.75528821516973
30
0.000000000000000
11
-13.2987244370549
21
-1.84888221772344
31
0.000000000000000
  0
LINE
  5
F107D2
330
F107D3
100
AcDbEntity
8
Geo
100
AcDbLine
10
-13.2987244370549
20
-1.84888221772344
30
0.000000000000000
11
-13.1987244370549
21
-1.94182745165400
31
0.000000000000000
  0
LINE
  5
F107D4
330
F107D5
100
AcDbEntity
8
Geo
100
AcDbLine
10
-13.1987244370549
20
-1.94182745165400
30
0.000000000000000
11
-13.0987244370549
21
-2.03408674010711
31
0.000000000000000
  0
LINE
  5
F107D6
330
F107D7
100
AcDbEntity
8
Geo
100
AcDbLine
10
-13.0987244370549
20
-2.03408674010711
30
0.000000000000000
11
-12.9987244370549
21
-2.12562318059749
31
0.000000000000000
  0
LINE
  5
F107D8
330
F107D9
100
AcDbEntity
8
Geo
100
AcDbLine
10
-12.9987244370549
20
-2.12562318059749
30
0.000000000000000
11
-12.8987244370549
21
-2.21640015976942
31
0.000000000000000
  0
LINE
  5
F107DA
330
F107DB
100
AcDbEntity
8
Geo
100
AcDbLine
10
-32.7987244370549
20
4.58483692283713
30
0.000000000000000
11
-32.6987244370549
21
4.67543929298553
31
0.000000000000000
  0
LINE
  5
F107DC
330
F107DD
100
AcDbEntity
8
Geo
100
AcDbLine
10
-32.6987244370549
20
4.67543929298553
30
0.000000000000000
11
-32.6987244370549
21
4.67543929298553
31
0.000000000000000
  0
LINE
  5
F107DE
330
F107DF
100
AcDbEntity
8
Geo
100
AcDbLine
10
-32.6987244370549
20
4.67543929298553
30
0.000000000000000
11
-32.5987244370549
21
4.66264839656127
31
0.000000000000000
  0
LINE
  5
F107E0
330
F107E1
100
AcDbEntity
8
Geo
100
AcDbLine
10
-32.5987244370549
20
4.66264839656127
30
0.000000000000000
11
-32.4987244370549
21
4.64790174333367
31
0.000000000000000
  0
LINE
  5
F107E2
330
F107E3
100
AcDbEntity
8
Geo
100
AcDbLine
10
-32.4987244370549
20
4.64790174333367
30
0.000000000000000
11
-32.3987244370549
21
4.63120523176742
31
0.000000000000000
  0
LINE
  5
F107E4
330
F107E5
100
AcDbEntity
8
Geo
100
AcDbLine
10
-32.3987244370549
20
4.63120523176742
30
0.000000000000000
11
-32.2987244370549
21
4.61256554024453
31
0.000000000000000
  0
LINE
  5
F107E6
330
F107E7
100
AcDbEntity
8
Geo
100
AcDbLine
10
-32.2987244370549
20
4.61256554024453
30
0.000000000000000
11
-32.1987244370549
21
4.59199012439307
31
0.000000000000000
  0
LINE
  5
F107E8
330
F107E9
100
AcDbEntity
8
Geo
100
AcDbLine
10
-32.1987244370549
20
4.59199012439307
30
0.000000000000000
11
-32.0987244370549
21
4.56948721410506
31
0.000000000000000
  0
LINE
  5
F107EA
330
F107EB
100
AcDbEntity
8
Geo
100
AcDbLine
10
-32.0987244370549
20
4.56948721410506
30
0.000000000000000
11
-31.9987244370549
21
4.54506581024457
31
0.000000000000000
  0
LINE
  5
F107EC
330
F107ED
100
AcDbEntity
8
Geo
100
AcDbLine
10
-31.9987244370549
20
4.54506581024457
30
0.000000000000000
11
-31.8987244370549
21
4.51873568104753
31
0.000000000000000
  0
LINE
  5
F107EE
330
F107EF
100
AcDbEntity
8
Geo
100
AcDbLine
10
-31.8987244370549
20
4.51873568104753
30
0.000000000000000
11
-31.7987244370549
21
4.49050735821456
31
0.000000000000000
  0
LINE
  5
F107F0
330
F107F1
100
AcDbEntity
8
Geo
100
AcDbLine
10
-31.7987244370549
20
4.49050735821456
30
0.000000000000000
11
-31.6987244370549
21
4.46039213269842
31
0.000000000000000
  0
LINE
  5
F107F2
330
F107F3
100
AcDbEntity
8
Geo
100
AcDbLine
10
-31.6987244370549
20
4.46039213269842
30
0.000000000000000
11
-31.5987244370549
21
4.42840205018779
31
0.000000000000000
  0
LINE
  5
F107F4
330
F107F5
100
AcDbEntity
8
Geo
100
AcDbLine
10
-31.5987244370549
20
4.42840205018779
30
0.000000000000000
11
-31.4987244370549
21
4.39454990628913
31
0.000000000000000
  0
LINE
  5
F107F6
330
F107F7
100
AcDbEntity
8
Geo
100
AcDbLine
10
-31.4987244370549
20
4.39454990628913
30
0.000000000000000
11
-31.3987244370549
21
4.35884924140866
31
0.000000000000000
  0
LINE
  5
F107F8
330
F107F9
100
AcDbEntity
8
Geo
100
AcDbLine
10
-31.3987244370549
20
4.35884924140866
30
0.000000000000000
11
-31.2987244370549
21
4.32131433533633
31
0.000000000000000
  0
LINE
  5
F107FA
330
F107FB
100
AcDbEntity
8
Geo
100
AcDbLine
10
-31.2987244370549
20
4.32131433533633
30
0.000000000000000
11
-31.1987244370549
21
4.28196020153409
31
0.000000000000000
  0
LINE
  5
F107FC
330
F107FD
100
AcDbEntity
8
Geo
100
AcDbLine
10
-31.1987244370549
20
4.28196020153409
30
0.000000000000000
11
-31.0987244370549
21
4.24080258113076
31
0.000000000000000
  0
LINE
  5
F107FE
330
F107FF
100
AcDbEntity
8
Geo
100
AcDbLine
10
-31.0987244370549
20
4.24080258113076
30
0.000000000000000
11
-30.9987244370549
21
4.19785793662575
31
0.000000000000000
  0
LINE
  5
F10800
330
F10801
100
AcDbEntity
8
Geo
100
AcDbLine
10
-30.9987244370549
20
4.19785793662575
30
0.000000000000000
11
-30.8987244370549
21
4.15314344530426
31
0.000000000000000
  0
LINE
  5
F10802
330
F10803
100
AcDbEntity
8
Geo
100
AcDbLine
10
-30.8987244370549
20
4.15314344530426
30
0.000000000000000
11
-30.7987244370549
21
4.10667699236663
31
0.000000000000000
  0
LINE
  5
F10804
330
F10805
100
AcDbEntity
8
Geo
100
AcDbLine
10
-30.7987244370549
20
4.10667699236663
30
0.000000000000000
11
-30.6987244370549
21
4.05847716377451
31
0.000000000000000
  0
LINE
  5
F10806
330
F10807
100
AcDbEntity
8
Geo
100
AcDbLine
10
-30.6987244370549
20
4.05847716377451
30
0.000000000000000
11
-30.5987244370549
21
4.00856323881666
31
0.000000000000000
  0
LINE
  5
F10808
330
F10809
100
AcDbEntity
8
Geo
100
AcDbLine
10
-30.5987244370549
20
4.00856323881666
30
0.000000000000000
11
-30.4987244370549
21
3.95695518239757
31
0.000000000000000
  0
LINE
  5
F1080A
330
F1080B
100
AcDbEntity
8
Geo
100
AcDbLine
10
-30.4987244370549
20
3.95695518239757
30
0.000000000000000
11
-30.3987244370549
21
3.90367363705170
31
0.000000000000000
  0
LINE
  5
F1080C
330
F1080D
100
AcDbEntity
8
Geo
100
AcDbLine
10
-30.3987244370549
20
3.90367363705170
30
0.000000000000000
11
-30.2987244370549
21
3.84873991468677
31
0.000000000000000
  0
LINE
  5
F1080E
330
F1080F
100
AcDbEntity
8
Geo
100
AcDbLine
10
-30.2987244370549
20
3.84873991468677
30
0.000000000000000
11
-30.1987244370549
21
3.79217598805931
31
0.000000000000000
  0
LINE
  5
F10810
330
F10811
100
AcDbEntity
8
Geo
100
AcDbLine
10
-30.1987244370549
20
3.79217598805931
30
0.000000000000000
11
-30.0987244370549
21
3.73400448198577
31
0.000000000000000
  0
LINE
  5
F10812
330
F10813
100
AcDbEntity
8
Geo
100
AcDbLine
10
-30.0987244370549
20
3.73400448198577
30
0.000000000000000
11
-29.9987244370549
21
3.67424866429298
31
0.000000000000000
  0
LINE
  5
F10814
330
F10815
100
AcDbEntity
8
Geo
100
AcDbLine
10
-29.9987244370549
20
3.67424866429298
30
0.000000000000000
11
-29.8987244370549
21
3.61293243651128
31
0.000000000000000
  0
LINE
  5
F10816
330
F10817
100
AcDbEntity
8
Geo
100
AcDbLine
10
-29.8987244370549
20
3.61293243651128
30
0.000000000000000
11
-29.7987244370549
21
3.55008032431426
31
0.000000000000000
  0
LINE
  5
F10818
330
F10819
100
AcDbEntity
8
Geo
100
AcDbLine
10
-29.7987244370549
20
3.55008032431426
30
0.000000000000000
11
-29.6987244370549
21
3.48571746770876
31
0.000000000000000
  0
LINE
  5
F1081A
330
F1081B
100
AcDbEntity
8
Geo
100
AcDbLine
10
-29.6987244370549
20
3.48571746770876
30
0.000000000000000
11
-29.5987244370549
21
3.41986961097927
31
0.000000000000000
  0
LINE
  5
F1081C
330
F1081D
100
AcDbEntity
8
Geo
100
AcDbLine
10
-29.5987244370549
20
3.41986961097927
30
0.000000000000000
11
-29.4987244370549
21
3.35256309239053
31
0.000000000000000
  0
LINE
  5
F1081E
330
F1081F
100
AcDbEntity
8
Geo
100
AcDbLine
10
-29.4987244370549
20
3.35256309239053
30
0.000000000000000
11
-29.3987244370549
21
3.28382483365256
31
0.000000000000000
  0
LINE
  5
F10820
330
F10821
100
AcDbEntity
8
Geo
100
AcDbLine
10
-29.3987244370549
20
3.28382483365256
30
0.000000000000000
11
-29.2987244370549
21
3.21368232915235
31
0.000000000000000
  0
LINE
  5
F10822
330
F10823
100
AcDbEntity
8
Geo
100
AcDbLine
10
-29.2987244370549
20
3.21368232915235
30
0.000000000000000
11
-29.1987244370549
21
3.14216363495650
31
0.000000000000000
  0
LINE
  5
F10824
330
F10825
100
AcDbEntity
8
Geo
100
AcDbLine
10
-29.1987244370549
20
3.14216363495650
30
0.000000000000000
11
-29.0987244370549
21
3.06929735758909
31
0.000000000000000
  0
LINE
  5
F10826
330
F10827
100
AcDbEntity
8
Geo
100
AcDbLine
10
-29.0987244370549
20
3.06929735758909
30
0.000000000000000
11
-28.9987244370549
21
2.99511264258956
31
0.000000000000000
  0
LINE
  5
F10828
330
F10829
100
AcDbEntity
8
Geo
100
AcDbLine
10
-28.9987244370549
20
2.99511264258956
30
0.000000000000000
11
-28.8987244370549
21
2.91963916285477
31
0.000000000000000
  0
LINE
  5
F1082A
330
F1082B
100
AcDbEntity
8
Geo
100
AcDbLine
10
-28.8987244370549
20
2.91963916285477
30
0.000000000000000
11
-28.7987244370549
21
2.84290710677032
31
0.000000000000000
  0
LINE
  5
F1082C
330
F1082D
100
AcDbEntity
8
Geo
100
AcDbLine
10
-28.7987244370549
20
2.84290710677032
30
0.000000000000000
11
-28.6987244370549
21
2.76494716613558
31
0.000000000000000
  0
LINE
  5
F1082E
330
F1082F
100
AcDbEntity
8
Geo
100
AcDbLine
10
-28.6987244370549
20
2.76494716613558
30
0.000000000000000
11
-28.5987244370549
21
2.68579052388733
31
0.000000000000000
  0
LINE
  5
F10830
330
F10831
100
AcDbEntity
8
Geo
100
AcDbLine
10
-28.5987244370549
20
2.68579052388733
30
0.000000000000000
11
-28.4987244370549
21
2.60546884162707
31
0.000000000000000
  0
LINE
  5
F10832
330
F10833
100
AcDbEntity
8
Geo
100
AcDbLine
10
-28.4987244370549
20
2.60546884162707
30
0.000000000000000
11
-28.3987244370549
21
2.52401424695676
31
0.000000000000000
  0
LINE
  5
F10834
330
F10835
100
AcDbEntity
8
Geo
100
AcDbLine
10
-28.3987244370549
20
2.52401424695676
30
0.000000000000000
11
-28.2987244370549
21
2.44145932062822
31
0.000000000000000
  0
LINE
  5
F10836
330
F10837
100
AcDbEntity
8
Geo
100
AcDbLine
10
-28.2987244370549
20
2.44145932062822
30
0.000000000000000
11
-28.1987244370549
21
2.35783708351127
31
0.000000000000000
  0
LINE
  5
F10838
330
F10839
100
AcDbEntity
8
Geo
100
AcDbLine
10
-28.1987244370549
20
2.35783708351127
30
0.000000000000000
11
-28.0987244370549
21
2.27318098338581
31
0.000000000000000
  0
LINE
  5
F1083A
330
F1083B
100
AcDbEntity
8
Geo
100
AcDbLine
10
-28.0987244370549
20
2.27318098338581
30
0.000000000000000
11
-27.9987244370549
21
2.18752488156315
31
0.000000000000000
  0
LINE
  5
F1083C
330
F1083D
100
AcDbEntity
8
Geo
100
AcDbLine
10
-27.9987244370549
20
2.18752488156315
30
0.000000000000000
11
-27.8987244370549
21
2.10090303934196
31
0.000000000000000
  0
LINE
  5
F1083E
330
F1083F
100
AcDbEntity
8
Geo
100
AcDbLine
10
-27.8987244370549
20
2.10090303934196
30
0.000000000000000
11
-27.7987244370549
21
2.01335010430418
31
0.000000000000000
  0
LINE
  5
F10840
330
F10841
100
AcDbEntity
8
Geo
100
AcDbLine
10
-27.7987244370549
20
2.01335010430418
30
0.000000000000000
11
-27.6987244370549
21
1.92490109645647
31
0.000000000000000
  0
LINE
  5
F10842
330
F10843
100
AcDbEntity
8
Geo
100
AcDbLine
10
-27.6987244370549
20
1.92490109645647
30
0.000000000000000
11
-27.5987244370549
21
1.83559139422267
31
0.000000000000000
  0
LINE
  5
F10844
330
F10845
100
AcDbEntity
8
Geo
100
AcDbLine
10
-27.5987244370549
20
1.83559139422267
30
0.000000000000000
11
-27.4987244370549
21
1.74545672029288
31
0.000000000000000
  0
LINE
  5
F10846
330
F10847
100
AcDbEntity
8
Geo
100
AcDbLine
10
-27.4987244370549
20
1.74545672029288
30
0.000000000000000
11
-27.3987244370549
21
1.65453312733490
31
0.000000000000000
  0
LINE
  5
F10848
330
F10849
100
AcDbEntity
8
Geo
100
AcDbLine
10
-27.3987244370549
20
1.65453312733490
30
0.000000000000000
11
-27.2987244370549
21
1.56285698357362
31
0.000000000000000
  0
LINE
  5
F1084A
330
F1084B
100
AcDbEntity
8
Geo
100
AcDbLine
10
-27.2987244370549
20
1.56285698357362
30
0.000000000000000
11
-27.1987244370549
21
1.47046495824421
31
0.000000000000000
  0
LINE
  5
F1084C
330
F1084D
100
AcDbEntity
8
Geo
100
AcDbLine
10
-27.1987244370549
20
1.47046495824421
30
0.000000000000000
11
-27.0987244370549
21
1.37739400692492
31
0.000000000000000
  0
LINE
  5
F1084E
330
F1084F
100
AcDbEntity
8
Geo
100
AcDbLine
10
-27.0987244370549
20
1.37739400692492
30
0.000000000000000
11
-26.9987244370549
21
1.28368135675534
31
0.000000000000000
  0
LINE
  5
F10850
330
F10851
100
AcDbEntity
8
Geo
100
AcDbLine
10
-26.9987244370549
20
1.28368135675534
30
0.000000000000000
11
-26.8987244370549
21
1.18936449154608
31
0.000000000000000
  0
LINE
  5
F10852
330
F10853
100
AcDbEntity
8
Geo
100
AcDbLine
10
-26.8987244370549
20
1.18936449154608
30
0.000000000000000
11
-26.7987244370549
21
1.09448113678565
31
0.000000000000000
  0
LINE
  5
F10854
330
F10855
100
AcDbEntity
8
Geo
100
AcDbLine
10
-26.7987244370549
20
1.09448113678565
30
0.000000000000000
11
-26.6987244370549
21
0.999069244550885
31
0.000000000000000
  0
LINE
  5
F10856
330
F10857
100
AcDbEntity
8
Geo
100
AcDbLine
10
-26.6987244370549
20
0.999069244550885
30
0.000000000000000
11
-26.5987244370549
21
0.903166978326523
31
0.000000000000000
  0
LINE
  5
F10858
330
F10859
100
AcDbEntity
8
Geo
100
AcDbLine
10
-26.5987244370549
20
0.903166978326523
30
0.000000000000000
11
-26.4987244370549
21
0.806812697740378
31
0.000000000000000
  0
LINE
  5
F1085A
330
F1085B
100
AcDbEntity
8
Geo
100
AcDbLine
10
-26.4987244370549
20
0.806812697740378
30
0.000000000000000
11
-26.3987244370549
21
0.710044943219978
31
0.000000000000000
  0
LINE
  5
F1085C
330
F1085D
100
AcDbEntity
8
Geo
100
AcDbLine
10
-26.3987244370549
20
0.710044943219978
30
0.000000000000000
11
-26.2987244370549
21
0.612902420576911
31
0.000000000000000
  0
LINE
  5
F1085E
330
F1085F
100
AcDbEntity
8
Geo
100
AcDbLine
10
-26.2987244370549
20
0.612902420576911
30
0.000000000000000
11
-26.1987244370549
21
0.515423985525019
31
0.000000000000000
  0
LINE
  5
F10860
330
F10861
100
AcDbEntity
8
Geo
100
AcDbLine
10
-26.1987244370549
20
0.515423985525019
30
0.000000000000000
11
-26.0987244370549
21
0.417648628138626
31
0.000000000000000
  0
LINE
  5
F10862
330
F10863
100
AcDbEntity
8
Geo
100
AcDbLine
10
-26.0987244370549
20
0.417648628138626
30
0.000000000000000
11
-25.9987244370549
21
0.319615457257034
31
0.000000000000000
  0
LINE
  5
F10864
330
F10865
100
AcDbEntity
8
Geo
100
AcDbLine
10
-25.9987244370549
20
0.319615457257034
30
0.000000000000000
11
-25.8987244370549
21
0.221363684841504
31
0.000000000000000
  0
LINE
  5
F10866
330
F10867
100
AcDbEntity
8
Geo
100
AcDbLine
10
-25.8987244370549
20
0.221363684841504
30
0.000000000000000
11
-25.7987244370549
21
0.122932610290995
31
0.000000000000000
  0
LINE
  5
F10868
330
F10869
100
AcDbEntity
8
Geo
100
AcDbLine
10
-25.7987244370549
20
0.122932610290995
30
0.000000000000000
11
-25.6987244370549
21
0.0243616047229303
31
0.000000000000000
  0
LINE
  5
F1086A
330
F1086B
100
AcDbEntity
8
Geo
100
AcDbLine
10
-25.6987244370549
20
0.0243616047229303
30
0.000000000000000
11
-25.5987244370549
21
-0.0743099047747241
31
0.000000000000000
  0
LINE
  5
F1086C
330
F1086D
100
AcDbEntity
8
Geo
100
AcDbLine
10
-25.5987244370549
20
-0.0743099047747241
30
0.000000000000000
11
-25.4987244370549
21
-0.173042450913773
31
0.000000000000000
  0
LINE
  5
F1086E
330
F1086F
100
AcDbEntity
8
Geo
100
AcDbLine
10
-25.4987244370549
20
-0.173042450913773
30
0.000000000000000
11
-25.3987244370549
21
-0.271796541992176
31
0.000000000000000
  0
LINE
  5
F10870
330
F10871
100
AcDbEntity
8
Geo
100
AcDbLine
10
-25.3987244370549
20
-0.271796541992176
30
0.000000000000000
11
-25.2987244370549
21
-0.370532677690206
31
0.000000000000000
  0
LINE
  5
F10872
330
F10873
100
AcDbEntity
8
Geo
100
AcDbLine
10
-25.2987244370549
20
-0.370532677690206
30
0.000000000000000
11
-25.1987244370549
21
-0.469211364870049
31
0.000000000000000
  0
LINE
  5
F10874
330
F10875
100
AcDbEntity
8
Geo
100
AcDbLine
10
-25.1987244370549
20
-0.469211364870049
30
0.000000000000000
11
-25.0987244370549
21
-0.567793133372530
31
0.000000000000000
  0
LINE
  5
F10876
330
F10877
100
AcDbEntity
8
Geo
100
AcDbLine
10
-25.0987244370549
20
-0.567793133372530
30
0.000000000000000
11
-24.9987244370549
21
-0.666238551804654
31
0.000000000000000
  0
LINE
  5
F10878
330
F10879
100
AcDbEntity
8
Geo
100
AcDbLine
10
-24.9987244370549
20
-0.666238551804654
30
0.000000000000000
11
-24.8987244370549
21
-0.764508243311637
31
0.000000000000000
  0
LINE
  5
F1087A
330
F1087B
100
AcDbEntity
8
Geo
100
AcDbLine
10
-24.8987244370549
20
-0.764508243311637
30
0.000000000000000
11
-24.7987244370549
21
-0.862562901327121
31
0.000000000000000
  0
LINE
  5
F1087C
330
F1087D
100
AcDbEntity
8
Geo
100
AcDbLine
10
-24.7987244370549
20
-0.862562901327121
30
0.000000000000000
11
-24.6987244370549
21
-0.960363305295277
31
0.000000000000000
  0
LINE
  5
F1087E
330
F1087F
100
AcDbEntity
8
Geo
100
AcDbLine
10
-24.6987244370549
20
-0.960363305295277
30
0.000000000000000
11
-24.5987244370549
21
-1.05787033635851
31
0.000000000000000
  0
LINE
  5
F10880
330
F10881
100
AcDbEntity
8
Geo
100
AcDbLine
10
-24.5987244370549
20
-1.05787033635851
30
0.000000000000000
11
-24.4987244370549
21
-1.15504499300446
31
0.000000000000000
  0
LINE
  5
F10882
330
F10883
100
AcDbEntity
8
Geo
100
AcDbLine
10
-24.4987244370549
20
-1.15504499300446
30
0.000000000000000
11
-24.3987244370549
21
-1.25184840666613
31
0.000000000000000
  0
LINE
  5
F10884
330
F10885
100
AcDbEntity
8
Geo
100
AcDbLine
10
-24.3987244370549
20
-1.25184840666613
30
0.000000000000000
11
-24.2987244370549
21
-1.34824185726874
31
0.000000000000000
  0
LINE
  5
F10886
330
F10887
100
AcDbEntity
8
Geo
100
AcDbLine
10
-24.2987244370549
20
-1.34824185726874
30
0.000000000000000
11
-24.1987244370549
21
-1.44418678871727
31
0.000000000000000
  0
LINE
  5
F10888
330
F10889
100
AcDbEntity
8
Geo
100
AcDbLine
10
-24.1987244370549
20
-1.44418678871727
30
0.000000000000000
11
-24.0987244370549
21
-1.53964482431841
31
0.000000000000000
  0
LINE
  5
F1088A
330
F1088B
100
AcDbEntity
8
Geo
100
AcDbLine
10
-24.0987244370549
20
-1.53964482431841
30
0.000000000000000
11
-23.9987244370549
21
-1.63457778213066
31
0.000000000000000
  0
LINE
  5
F1088C
330
F1088D
100
AcDbEntity
8
Geo
100
AcDbLine
10
-23.9987244370549
20
-1.63457778213066
30
0.000000000000000
11
-23.8987244370549
21
-1.72894769023665
31
0.000000000000000
  0
LINE
  5
F1088E
330
F1088F
100
AcDbEntity
8
Geo
100
AcDbLine
10
-23.8987244370549
20
-1.72894769023665
30
0.000000000000000
11
-23.7987244370549
21
-1.82271680193140
31
0.000000000000000
  0
LINE
  5
F10890
330
F10891
100
AcDbEntity
8
Geo
100
AcDbLine
10
-23.7987244370549
20
-1.82271680193140
30
0.000000000000000
11
-23.6987244370549
21
-1.91584761082046
31
0.000000000000000
  0
LINE
  5
F10892
330
F10893
100
AcDbEntity
8
Geo
100
AcDbLine
10
-23.6987244370549
20
-1.91584761082046
30
0.000000000000000
11
-23.5987244370549
21
-2.00830286582201
31
0.000000000000000
  0
LINE
  5
F10894
330
F10895
100
AcDbEntity
8
Geo
100
AcDbLine
10
-23.5987244370549
20
-2.00830286582201
30
0.000000000000000
11
-23.4987244370549
21
-2.10004558606676
31
0.000000000000000
  0
LINE
  5
F10896
330
F10897
100
AcDbEntity
8
Geo
100
AcDbLine
10
-23.4987244370549
20
-2.10004558606676
30
0.000000000000000
11
-23.3987244370549
21
-2.19103907568983
31
0.000000000000000
  0
LINE
  5
F10898
330
F10899
100
AcDbEntity
8
Geo
100
AcDbLine
10
-23.3987244370549
20
-2.19103907568983
30
0.000000000000000
11
-23.2987244370549
21
-2.28124693850861
31
0.000000000000000
  0
LINE
  5
F1089A
330
F1089B
100
AcDbEntity
8
Geo
100
AcDbLine
10
-23.2987244370549
20
-2.28124693850861
30
0.000000000000000
11
-23.1987244370549
21
-2.37063309258073
31
0.000000000000000
  0
LINE
  5
F1089C
330
F1089D
100
AcDbEntity
8
Geo
100
AcDbLine
10
-23.1987244370549
20
-2.37063309258073
30
0.000000000000000
11
-23.0987244370549
21
-2.45916178463636
31
0.000000000000000
  0
LINE
  5
F1089E
330
F1089F
100
AcDbEntity
8
Geo
100
AcDbLine
10
-23.0987244370549
20
-2.45916178463636
30
0.000000000000000
11
-22.9987244370549
21
-2.54679760437903
31
0.000000000000000
  0
LINE
  5
F108A0
330
F108A1
100
AcDbEntity
8
Geo
100
AcDbLine
10
-22.9987244370549
20
-2.54679760437903
30
0.000000000000000
11
-22.8987244370549
21
-2.63350549864932
31
0.000000000000000
  0
LINE
  5
F108A2
330
F108A3
100
AcDbEntity
8
Geo
100
AcDbLine
10
-22.8987244370549
20
-2.63350549864932
30
0.000000000000000
11
-22.7987244370549
21
-2.71925078544560
31
0.000000000000000
  0
LINE
  5
F108A4
330
F108A5
100
AcDbEntity
8
Geo
100
AcDbLine
10
-22.7987244370549
20
-2.71925078544560
30
0.000000000000000
11
-22.6987244370549
21
-2.80399916779642
31
0.000000000000000
  0
LINE
  5
F108A6
330
F108A7
100
AcDbEntity
8
Geo
100
AcDbLine
10
-22.6987244370549
20
-2.80399916779642
30
0.000000000000000
11
-22.5987244370549
21
-2.88771674747880
31
0.000000000000000
  0
LINE
  5
F108A8
330
F108A9
100
AcDbEntity
8
Geo
100
AcDbLine
10
-22.5987244370549
20
-2.88771674747880
30
0.000000000000000
11
-22.4987244370549
21
-2.97037003857708
31
0.000000000000000
  0
LINE
  5
F108AA
330
F108AB
100
AcDbEntity
8
Geo
100
AcDbLine
10
-22.4987244370549
20
-2.97037003857708
30
0.000000000000000
11
-22.3987244370549
21
-3.05192598087686
31
0.000000000000000
  0
LINE
  5
F108AC
330
F108AD
100
AcDbEntity
8
Geo
100
AcDbLine
10
-22.3987244370549
20
-3.05192598087686
30
0.000000000000000
11
-22.2987244370549
21
-3.13235195308860
31
0.000000000000000
  0
LINE
  5
F108AE
330
F108AF
100
AcDbEntity
8
Geo
100
AcDbLine
10
-22.2987244370549
20
-3.13235195308860
30
0.000000000000000
11
-22.1987244370549
21
-3.21161578589577
31
0.000000000000000
  0
LINE
  5
F108B0
330
F108B1
100
AcDbEntity
8
Geo
100
AcDbLine
10
-22.1987244370549
20
-3.21161578589577
30
0.000000000000000
11
-22.0987244370549
21
-3.28968577482207
31
0.000000000000000
  0
LINE
  5
F108B2
330
F108B3
100
AcDbEntity
8
Geo
100
AcDbLine
10
-22.0987244370549
20
-3.28968577482207
30
0.000000000000000
11
-21.9987244370549
21
-3.36653069291285
31
0.000000000000000
  0
LINE
  5
F108B4
330
F108B5
100
AcDbEntity
8
Geo
100
AcDbLine
10
-21.9987244370549
20
-3.36653069291285
30
0.000000000000000
11
-21.8987244370549
21
-3.44211980322545
31
0.000000000000000
  0
LINE
  5
F108B6
330
F108B7
100
AcDbEntity
8
Geo
100
AcDbLine
10
-21.8987244370549
20
-3.44211980322545
30
0.000000000000000
11
-21.7987244370549
21
-3.51642287112361
31
0.000000000000000
  0
LINE
  5
F108B8
330
F108B9
100
AcDbEntity
8
Geo
100
AcDbLine
10
-21.7987244370549
20
-3.51642287112361
30
0.000000000000000
11
-21.6987244370549
21
-3.58941017637085
31
0.000000000000000
  0
LINE
  5
F108BA
330
F108BB
100
AcDbEntity
8
Geo
100
AcDbLine
10
-21.6987244370549
20
-3.58941017637085
30
0.000000000000000
11
-21.5987244370549
21
-3.66105252501822
31
0.000000000000000
  0
LINE
  5
F108BC
330
F108BD
100
AcDbEntity
8
Geo
100
AcDbLine
10
-21.5987244370549
20
-3.66105252501822
30
0.000000000000000
11
-21.4987244370549
21
-3.73132126108149
31
0.000000000000000
  0
LINE
  5
F108BE
330
F108BF
100
AcDbEntity
8
Geo
100
AcDbLine
10
-21.4987244370549
20
-3.73132126108149
30
0.000000000000000
11
-21.3987244370549
21
-3.80018827800313
31
0.000000000000000
  0
LINE
  5
F108C0
330
F108C1
100
AcDbEntity
8
Geo
100
AcDbLine
10
-21.3987244370549
20
-3.80018827800313
30
0.000000000000000
11
-21.2987244370549
21
-3.86762602989459
31
0.000000000000000
  0
LINE
  5
F108C2
330
F108C3
100
AcDbEntity
8
Geo
100
AcDbLine
10
-21.2987244370549
20
-3.86762602989459
30
0.000000000000000
11
-21.1987244370549
21
-3.93360754255426
31
0.000000000000000
  0
LINE
  5
F108C4
330
F108C5
100
AcDbEntity
8
Geo
100
AcDbLine
10
-21.1987244370549
20
-3.93360754255426
30
0.000000000000000
11
-21.0987244370549
21
-3.99810642425684
31
0.000000000000000
  0
LINE
  5
F108C6
330
F108C7
100
AcDbEntity
8
Geo
100
AcDbLine
10
-21.0987244370549
20
-3.99810642425684
30
0.000000000000000
11
-20.9987244370549
21
-4.06109687630960
31
0.000000000000000
  0
LINE
  5
F108C8
330
F108C9
100
AcDbEntity
8
Geo
100
AcDbLine
10
-20.9987244370549
20
-4.06109687630960
30
0.000000000000000
11
-20.8987244370549
21
-4.12255370337160
31
0.000000000000000
  0
LINE
  5
F108CA
330
F108CB
100
AcDbEntity
8
Geo
100
AcDbLine
10
-20.8987244370549
20
-4.12255370337160
30
0.000000000000000
11
-20.7987244370549
21
-4.18245232353142
31
0.000000000000000
  0
LINE
  5
F108CC
330
F108CD
100
AcDbEntity
8
Geo
100
AcDbLine
10
-20.7987244370549
20
-4.18245232353142
30
0.000000000000000
11
-20.6987244370549
21
-4.24076877813963
31
0.000000000000000
  0
LINE
  5
F108CE
330
F108CF
100
AcDbEntity
8
Geo
100
AcDbLine
10
-20.6987244370549
20
-4.24076877813963
30
0.000000000000000
11
-20.5987244370549
21
-4.29747974139193
31
0.000000000000000
  0
LINE
  5
F108D0
330
F108D1
100
AcDbEntity
8
Geo
100
AcDbLine
10
-20.5987244370549
20
-4.29747974139193
30
0.000000000000000
11
-20.4987244370549
21
-4.35256252965916
31
0.000000000000000
  0
LINE
  5
F108D2
330
F108D3
100
AcDbEntity
8
Geo
100
AcDbLine
10
-20.4987244370549
20
-4.35256252965916
30
0.000000000000000
11
-20.3987244370549
21
-4.40599511056043
31
0.000000000000000
  0
LINE
  5
F108D4
330
F108D5
100
AcDbEntity
8
Geo
100
AcDbLine
10
-20.3987244370549
20
-4.40599511056043
30
0.000000000000000
11
-20.2987244370549
21
-4.45775611177582
31
0.000000000000000
  0
LINE
  5
F108D6
330
F108D7
100
AcDbEntity
8
Geo
100
AcDbLine
10
-20.2987244370549
20
-4.45775611177582
30
0.000000000000000
11
-20.1987244370549
21
-4.50782482959498
31
0.000000000000000
  0
LINE
  5
F108D8
330
F108D9
100
AcDbEntity
8
Geo
100
AcDbLine
10
-20.1987244370549
20
-4.50782482959498
30
0.000000000000000
11
-20.0987244370549
21
-4.55618123719834
31
0.000000000000000
  0
LINE
  5
F108DA
330
F108DB
100
AcDbEntity
8
Geo
100
AcDbLine
10
-20.0987244370549
20
-4.55618123719834
30
0.000000000000000
11
-19.9987244370549
21
-4.60280599266761
31
0.000000000000000
  0
LINE
  5
F108DC
330
F108DD
100
AcDbEntity
8
Geo
100
AcDbLine
10
-19.9987244370549
20
-4.60280599266761
30
0.000000000000000
11
-19.8987244370549
21
-4.64768044672227
31
0.000000000000000
  0
LINE
  5
F108DE
330
F108DF
100
AcDbEntity
8
Geo
100
AcDbLine
10
-19.8987244370549
20
-4.64768044672227
30
0.000000000000000
11
-19.7987244370549
21
-4.69078665017900
31
0.000000000000000
  0
LINE
  5
F108E0
330
F108E1
100
AcDbEntity
8
Geo
100
AcDbLine
10
-19.7987244370549
20
-4.69078665017900
30
0.000000000000000
11
-19.6987244370549
21
-4.73210736113117
31
0.000000000000000
  0
LINE
  5
F108E2
330
F108E3
100
AcDbEntity
8
Geo
100
AcDbLine
10
-19.6987244370549
20
-4.73210736113117
30
0.000000000000000
11
-19.5987244370549
21
-4.77162605184532
31
0.000000000000000
  0
LINE
  5
F108E4
330
F108E5
100
AcDbEntity
8
Geo
100
AcDbLine
10
-19.5987244370549
20
-4.77162605184532
30
0.000000000000000
11
-19.4987244370549
21
-4.80932691537209
31
0.000000000000000
  0
LINE
  5
F108E6
330
F108E7
100
AcDbEntity
8
Geo
100
AcDbLine
10
-19.4987244370549
20
-4.80932691537209
30
0.000000000000000
11
-19.3987244370549
21
-4.84519487186873
31
0.000000000000000
  0
LINE
  5
F108E8
330
F108E9
100
AcDbEntity
8
Geo
100
AcDbLine
10
-19.3987244370549
20
-4.84519487186873
30
0.000000000000000
11
-19.2987244370549
21
-4.87921557463088
31
0.000000000000000
  0
LINE
  5
F108EA
330
F108EB
100
AcDbEntity
8
Geo
100
AcDbLine
10
-19.2987244370549
20
-4.87921557463088
30
0.000000000000000
11
-19.1987244370549
21
-4.91137541583103
31
0.000000000000000
  0
LINE
  5
F108EC
330
F108ED
100
AcDbEntity
8
Geo
100
AcDbLine
10
-19.1987244370549
20
-4.91137541583103
30
0.000000000000000
11
-19.0987244370549
21
-4.94166153196150
31
0.000000000000000
  0
LINE
  5
F108EE
330
F108EF
100
AcDbEntity
8
Geo
100
AcDbLine
10
-19.0987244370549
20
-4.94166153196150
30
0.000000000000000
11
-18.9987244370549
21
-4.97006180897965
31
0.000000000000000
  0
LINE
  5
F108F0
330
F108F1
100
AcDbEntity
8
Geo
100
AcDbLine
10
-18.9987244370549
20
-4.97006180897965
30
0.000000000000000
11
-18.8987244370549
21
-4.99656488715333
31
0.000000000000000
  0
LINE
  5
F108F2
330
F108F3
100
AcDbEntity
8
Geo
100
AcDbLine
10
-18.8987244370549
20
-4.99656488715333
30
0.000000000000000
11
-18.7987244370549
21
-5.02116016560465
31
0.000000000000000
  0
LINE
  5
F108F4
330
F108F5
100
AcDbEntity
8
Geo
100
AcDbLine
10
-18.7987244370549
20
-5.02116016560465
30
0.000000000000000
11
-18.6987244370549
21
-5.04383780655015
31
0.000000000000000
  0
LINE
  5
F108F6
330
F108F7
100
AcDbEntity
8
Geo
100
AcDbLine
10
-18.6987244370549
20
-5.04383780655015
30
0.000000000000000
11
-18.5987244370549
21
-5.06458873923583
31
0.000000000000000
  0
LINE
  5
F108F8
330
F108F9
100
AcDbEntity
8
Geo
100
AcDbLine
10
-18.5987244370549
20
-5.06458873923583
30
0.000000000000000
11
-18.4987244370549
21
-5.08340466356527
31
0.000000000000000
  0
LINE
  5
F108FA
330
F108FB
100
AcDbEntity
8
Geo
100
AcDbLine
10
-18.4987244370549
20
-5.08340466356527
30
0.000000000000000
11
-18.3987244370549
21
-5.10027805341964
31
0.000000000000000
  0
LINE
  5
F108FC
330
F108FD
100
AcDbEntity
8
Geo
100
AcDbLine
10
-18.3987244370549
20
-5.10027805341964
30
0.000000000000000
11
-18.2987244370549
21
-5.11520215966796
31
0.000000000000000
  0
LINE
  5
F108FE
330
F108FF
100
AcDbEntity
8
Geo
100
AcDbLine
10
-18.2987244370549
20
-5.11520215966796
30
0.000000000000000
11
-18.1987244370549
21
-5.12817101286671
31
0.000000000000000
  0
LINE
  5
F10900
330
F10901
100
AcDbEntity
8
Geo
100
AcDbLine
10
-18.1987244370549
20
-5.12817101286671
30
0.000000000000000
11
-18.0987244370549
21
-5.13917942564753
31
0.000000000000000
  0
LINE
  5
F10902
330
F10903
100
AcDbEntity
8
Geo
100
AcDbLine
10
-18.0987244370549
20
-5.13917942564753
30
0.000000000000000
11
-17.9987244370549
21
-5.14822299479210
31
0.000000000000000
  0
LINE
  5
F10904
330
F10905
100
AcDbEntity
8
Geo
100
AcDbLine
10
-17.9987244370549
20
-5.14822299479210
30
0.000000000000000
11
-17.8987244370549
21
-5.15529810299333
31
0.000000000000000
  0
LINE
  5
F10906
330
F10907
100
AcDbEntity
8
Geo
100
AcDbLine
10
-17.8987244370549
20
-5.15529810299333
30
0.000000000000000
11
-17.7987244370549
21
-5.16040192030226
31
0.000000000000000
  0
LINE
  5
F10908
330
F10909
100
AcDbEntity
8
Geo
100
AcDbLine
10
-17.7987244370549
20
-5.16040192030226
30
0.000000000000000
11
-17.6987244370549
21
-5.16353240526004
31
0.000000000000000
  0
LINE
  5
F1090A
330
F1090B
100
AcDbEntity
8
Geo
100
AcDbLine
10
-17.6987244370549
20
-5.16353240526004
30
0.000000000000000
11
-17.5987244370549
21
-5.16468830571441
31
0.000000000000000
  0
LINE
  5
F1090C
330
F1090D
100
AcDbEntity
8
Geo
100
AcDbLine
10
-17.5987244370549
20
-5.16468830571441
30
0.000000000000000
11
-17.5901985128251
21
-5.22690659474809
31
0.000000000000000
  0
LINE
  5
F1090E
330
F1090F
100
AcDbEntity
8
Geo
100
AcDbLine
10
40.2012755629451
20
3.77309340525191
30
0.000000000000000
11
40.2012755629451
21
-0.226906594748087
31
0.000000000000000
  0
LINE
  5
F10910
330
F10911
100
AcDbEntity
8
Geo
100
AcDbLine
10
-32.7987244370549
20
-0.226906594748087
30
0.000000000000000
11
-32.7987244370549
21
-5.12690659474809
31
0.000000000000000
  0
LINE
  5
F10912
330
F10913
100
AcDbEntity
8
Geo
100
AcDbLine
10
-32.7987244370549
20
-5.12690659474809
30
0.000000000000000
11
-32.6987244370549
21
-5.22690659474809
31
0.000000000000000
  0
LINE
  5
F10914
330
F10915
100
AcDbEntity
8
Geo
100
AcDbLine
10
-32.6987244370549
20
-5.22690659474809
30
0.000000000000000
11
-7.79872443705487
21
-5.22690659474809
31
0.000000000000000
  0
LINE
  5
F10916
330
F10917
100
AcDbEntity
8
Geo
100
AcDbLine
10
-7.79872443705487
20
-5.22690659474809
30
0.000000000000000
11
-7.79872443705487
21
-4.92690659474809
31
0.000000000000000
  0
LINE
  5
F10918
330
F10919
100
AcDbEntity
8
Geo
100
AcDbLine
10
-7.79872443705487
20
-4.92690659474809
30
0.000000000000000
11
1.20127556294513
21
-4.92690659474809
31
0.000000000000000
  0
LINE
  5
F1091A
330
F1091B
100
AcDbEntity
8
Geo
100
AcDbLine
10
1.20127556294513
20
-4.92690659474809
30
0.000000000000000
11
1.90127556294513
21
-5.22690659474809
31
0.000000000000000
  0
LINE
  5
F1091C
330
F1091D
100
AcDbEntity
8
Geo
100
AcDbLine
10
1.90127556294513
20
-5.22690659474809
30
0.000000000000000
11
39.2012755629451
21
-5.22690659474809
31
0.000000000000000
  0
LINE
  5
F1091E
330
F1091F
100
AcDbEntity
8
Geo
100
AcDbLine
10
39.2012755629451
20
-5.22690659474809
30
0.000000000000000
11
40.2012755629451
21
-4.22690659474809
31
0.000000000000000
  0
LINE
  5
F10920
330
F10921
100
AcDbEntity
8
Geo
100
AcDbLine
10
-32.7987244370549
20
4.67309340525191
30
0.000000000000000
11
-32.7987244370549
21
-5.12690659474809
31
0.000000000000000
  0
LINE
  5
F10922
330
F10923
100
AcDbEntity
8
Geo
100
AcDbLine
10
-32.6987244370549
20
4.77309340525191
30
0.000000000000000
11
-32.6987244370549
21
-5.22690659474809
31
0.000000000000000
  0
LINE
  5
F10924
330
F10925
100
AcDbEntity
8
Geo
100
AcDbLine
10
-32.6987244370549
20
4.77309340525191
30
0.000000000000000
11
-32.6987244370549
21
-5.22690659474809
31
0.000000000000000
  0
LINE
  5
F10926
330
F10927
100
AcDbEntity
8
Geo
100
AcDbLine
10
-7.79872443705487
20
4.77309340525191
30
0.000000000000000
11
-7.79872443705487
21
-5.22690659474809
31
0.000000000000000
  0
LINE
  5
F10928
330
F10929
100
AcDbEntity
8
Geo
100
AcDbLine
10
-7.79872443705487
20
4.47309340525191
30
0.000000000000000
11
-7.79872443705487
21
-4.92690659474809
31
0.000000000000000
  0
LINE
  5
F1092A
330
F1092B
100
AcDbEntity
8
Geo
100
AcDbLine
10
1.20127556294513
20
4.47309340525191
30
0.000000000000000
11
1.20127556294513
21
-4.92690659474809
31
0.000000000000000
  0
LINE
  5
F1092C
330
F1092D
100
AcDbEntity
8
Geo
100
AcDbLine
10
1.90127556294513
20
4.77309340525191
30
0.000000000000000
11
1.90127556294513
21
-5.22690659474809
31
0.000000000000000
  0
LINE
  5
F1092E
330
F1092F
100
AcDbEntity
8
Geo
100
AcDbLine
10
1.90127556294513
20
4.77309340525191
30
0.000000000000000
11
1.90127556294513
21
-5.22690659474809
31
0.000000000000000
  0
LINE
  5
F10930
330
F10931
100
AcDbEntity
8
Geo
100
AcDbLine
10
39.2012755629451
20
4.77309340525191
30
0.000000000000000
11
39.2012755629451
21
-5.22690659474809
31
0.000000000000000
  0
LINE
  5
F10932
330
F10933
100
AcDbEntity
8
Geo
100
AcDbLine
10
40.2012755629451
20
3.77309340525191
30
0.000000000000000
11
40.2012755629451
21
-4.22690659474809
31
0.000000000000000
  0
LINE
  5
F10934
330
F10935
100
AcDbEntity
8
Geo
 6
Dashdot
100
AcDbLine
10
-32.7987244370549
20
-0.226906594748087
30
0.000000000000000
11
40.2012755629451
21
-0.226906594748087
31
0.000000000000000
  0
LWPOLYLINE
  5
F10936
330
F10937
100
AcDbEntity
8
Rahmen
100
AcDbPolyline
90
   4
70
   1
43
   0.0
 10
-134.551964256381
 20
99.8175837058594
 10
143.369538051220
 20
99.8175837058594
 10
143.369538051220
 20
-100.054640836308
 10
-134.551964256381
 20
-100.054640836308
  0
TEXT
  5
F10938
330
F10939
 100
AcDbEntity
8
Text
100
AcDbText
10
-133.519566402340
20
-99.5546408363083
30
0.000000000000000
40
1.00000000000000
1
ISBESketcher - ©ISBE GmbH      lizensiert für: Schmid Werkzeuge
100
AcDbText
  0
LWPOLYLINE
  5
F1093A
330
F1093B
100
AcDbEntity
8
Rahmen
100
AcDbPolyline
90
   4
70
   1
43
   0.0
 10
103.312501314464
 20
-97.1639268449960
 10
143.369538051220
 20
-97.1639268449960
 10
143.369538051220
 20
-100.054640836308
 10
103.312501314464
 20
-100.054640836308
  0
TEXT
  5
F1093C
330
F1093D
 100
AcDbEntity
8
Text
100
AcDbText
10
104.500000000000
20
-99.5485967810602
30
0.000000000000000
40
1.50000000000000
1
Ers. durch:
100
AcDbText
  0
TEXT
  5
F1093E
330
F1093F
 100
AcDbEntity
8
Text
100
AcDbText
10
0.000000000000000
20
0.500000000000000
30
0.000000000000000
40
1.50000000000000
1

100
AcDbText
  0
LWPOLYLINE
  5
F10940
330
F10941
100
AcDbEntity
8
Rahmen
100
AcDbPolyline
90
   4
70
   1
43
   0.0
 10
63.4619441485149
 20
-97.1639268449960
 10
103.312501314464
 20
-97.1639268449960
 10
103.312501314464
 20
-100.054640836308
 10
63.4619441485149
 20
-100.054640836308
  0
TEXT
  5
F10942
330
F10943
 100
AcDbEntity
8
Text
100
AcDbText
10
64.5000000000000
20
-99.5485967810602
30
0.000000000000000
40
1.50000000000000
1
Ers. für:
100
AcDbText
  0
TEXT
  5
F10944
330
F10945
 100
AcDbEntity
8
Text
100
AcDbText
10
0.000000000000000
20
0.500000000000000
30
0.000000000000000
40
1.50000000000000
1

100
AcDbText
  0
LWPOLYLINE
  5
F10946
330
F10947
100
AcDbEntity
8
Rahmen
100
AcDbPolyline
90
   4
70
   1
43
   0.0
 10
130.154845519507
 20
-94.0667332828756
 10
143.369538051220
 20
-94.0667332828756
 10
143.369538051220
 20
-97.1639268449960
 10
130.154845519507
 20
-97.1639268449960
  0
TEXT
  5
F10948
330
F10949
 100
AcDbEntity
8
Text
100
AcDbText
10
131.166666666667
20
-96.5485967810602
30
0.000000000000000
40
1.50000000000000
1
Blätter
100
AcDbText
  0
TEXT
  5
F1094A
330
F1094B
 100
AcDbEntity
8
Text
100
AcDbText
10
0.000000000000000
20
0.500000000000000
30
0.000000000000000
40
1.50000000000000
1

100
AcDbText
  0
LWPOLYLINE
  5
F1094C
330
F1094D
100
AcDbEntity
8
Rahmen
100
AcDbPolyline
90
   4
70
   1
43
   0.0
 10
130.154845519507
 20
-91.1760192915633
 10
143.369538051220
 20
-91.1760192915633
 10
143.369538051220
 20
-94.0667332828756
 10
130.154845519507
 20
-94.0667332828756
  0
TEXT
  5
F1094E
330
F1094F
 100
AcDbEntity
8
Text
100
AcDbText
10
131.166666666667
20
-93.5485967810602
30
0.000000000000000
40
1.50000000000000
1
Blatt
100
AcDbText
  0
TEXT
  5
F10950
330
F10951
 100
AcDbEntity
8
Text
100
AcDbText
10
0.000000000000000
20
0.500000000000000
30
0.000000000000000
40
1.50000000000000
1

100
AcDbText
  0
LWPOLYLINE
  5
F10952
330
F10953
100
AcDbEntity
8
Rahmen
100
AcDbPolyline
90
   4
70
   1
43
   0.0
 10
63.4619441485149
 20
-91.1760192915633
 10
130.154845519507
 20
-91.1760192915633
 10
130.154845519507
 20
-97.1639268449960
 10
63.4619441485149
 20
-97.1639268449960
  0
TEXT
  5
F10954
330
F10955
 100
AcDbEntity
8
Text
100
AcDbText
10
64.5000000000000
20
-93.5485967810602
30
0.000000000000000
40
1.50000000000000
1
Datum:
100
AcDbText
  0
TEXT
  5
F10956
330
F10957
 100
AcDbEntity
8
Text
100
AcDbText
10
90.3292268528806
20
-96.5485967810602
30
0.000000000000000
40
1.50000000000000
1
10.03.2021
100
AcDbText
  0
LWPOLYLINE
  5
F10958
330
F10959
100
AcDbEntity
8
Rahmen
100
AcDbPolyline
90
   4
70
   1
43
   0.0
 10
63.4619441485149
 20
-85.1881117381305
 10
143.369538051220
 20
-85.1881117381305
 10
143.369538051220
 20
-91.1760192915633
 10
63.4619441485149
 20
-91.1760192915633
  0
TEXT
  5
F1095A
330
F1095B
 100
AcDbEntity
8
Text
100
AcDbText
10
0.000000000000000
20
0.500000000000000
30
0.000000000000000
40
1.50000000000000
1

100
AcDbText
  0
TEXT
  5
F1095C
330
F1095D
 100
AcDbEntity
8
Text
100
AcDbText
10
63.9591621902633
20
-89.6444215163630
30
0.000000000000000
40
2.50000000000000
1
VHM-HPC-Alu-Schruppfräser 0191-100-b
100
AcDbText
  0
LWPOLYLINE
  5
F1095E
330
F1095F
100
AcDbEntity
8
Rahmen
100
AcDbPolyline
90
   4
70
   1
43
   0.0
 10
103.312501314464
 20
-79.2002041846978
 10
143.369538051220
 20
-79.2002041846978
 10
143.369538051220
 20
-85.1881117381305
 10
103.312501314464
 20
-85.1881117381305
  0
TEXT
  5
F10960
330
F10961
 100
AcDbEntity
8
Text
100
AcDbText
10
104.500000000000
20
-81.5485967810602
30
0.000000000000000
40
1.50000000000000
1
Zu bearb. Material:
100
AcDbText
  0
TEXT
  5
F10962
330
F10963
 100
AcDbEntity
8
Text
100
AcDbText
10
0.000000000000000
20
0.500000000000000
30
0.000000000000000
40
1.50000000000000
1

100
AcDbText
  0
LWPOLYLINE
  5
F10964
330
F10965
100
AcDbEntity
8
Rahmen
100
AcDbPolyline
90
   4
70
   1
43
   0.0
 10
63.4619441485149
 20
-79.2002041846978
 10
103.312501314464
 20
-79.2002041846978
 10
103.312501314464
 20
-85.1881117381305
 10
63.4619441485149
 20
-85.1881117381305
  0
TEXT
  5
F10966
330
F10967
 100
AcDbEntity
8
Text
100
AcDbText
10
64.5000000000000
20
-81.5485967810602
30
0.000000000000000
40
1.50000000000000
1
Werkstoff:
100
AcDbText
  0
TEXT
  5
F10968
330
F10969
 100
AcDbEntity
8
Text
100
AcDbText
10
80.8157655794957
20
-84.5485967810602
30
0.000000000000000
40
1.50000000000000
1
VHM
100
AcDbText
  0
LWPOLYLINE
  5
F1096A
330
F1096B
100
AcDbEntity
8
Rahmen
100
AcDbPolyline
90
   4
70
   1
43
   0.0
 10
103.312501314464
 20
-76.1030106225775
 10
143.369538051220
 20
-76.1030106225775
 10
143.369538051220
 20
-79.2002041846978
 10
103.312501314464
 20
-79.2002041846978
  0
TEXT
  5
F1096C
330
F1096D
 100
AcDbEntity
8
Text
100
AcDbText
10
0.000000000000000
20
0.500000000000000
30
0.000000000000000
40
1.50000000000000
1

100
AcDbText
  0
TEXT
  5
F1096E
330
F1096F
 100
AcDbEntity
8
Text
100
AcDbText
10
0.000000000000000
20
0.500000000000000
30
0.000000000000000
40
1.50000000000000
1

100
AcDbText
  0
LWPOLYLINE
  5
F10970
330
F10971
100
AcDbEntity
8
Rahmen
100
AcDbPolyline
90
   4
70
   1
43
   0.0
 10
63.4619441485149
 20
-76.1030106225775
 10
103.312501314464
 20
-76.1030106225775
 10
103.312501314464
 20
-79.2002041846978
 10
63.4619441485149
 20
-79.2002041846978
  0
TEXT
  5
F10972
330
F10973
 100
AcDbEntity
8
Text
100
AcDbText
10
64.5000000000000
20
-78.5485967810602
30
0.000000000000000
40
1.50000000000000
1
Maßstab:
100
AcDbText
  0
TEXT
  5
F10974
330
F10975
 100
AcDbEntity
8
Text
100
AcDbText
10
89.0222451503037
20
-78.5485967810602
30
0.000000000000000
40
1.50000000000000
1
1 : 1
100
AcDbText
0
VIEWPORT
5
294
102
{ACAD_XDICTIONARY
360
58A
102
}
330
25D
100
AcDbEntity
67
1
8
0
60
1
100
AcDbViewport
10
0.0
20
0.0
30
0.0
40
10.0
41
10.0
68
-1
69
1
12
0.0
22
0.0
13
0.0
23
0.0
14
1.0
24
1.0
15
0.0
25
0.0
16
0.0
26
0.0
36
1.0
17
0.0
27
0.0
37
0.0
42
0.0
43
0.0
44
0.0
45
10.0
50
0.0
51
0.0000000000007958
72
100
90
32800
1

281
0
71
0
74
0
110
0.0
120
0.0
130
0.0
111
1.0
121
0.0
131
0.0
112
0.0
122
1.0
132
0.0
79
0
146
0.0
1001
VD_INVISIBLE_NOT_FOR_READ
1000
VD_INVISIBLE_NOT_FOR_READ
0
VIEWPORT
5
295
102
{ACAD_XDICTIONARY
360
58C
102
}
330
25D
100
AcDbEntity
67
1
8
0
60
1
100
AcDbViewport
10
0.0
20
0.0
30
0.0
40
10.0
41
10.0
68
0
69
2
12
0.0
22
0.0
13
0.0
23
0.0
14
1.0
24
1.0
15
0.0
25
0.0
16
0.0
26
0.0
36
1.0
17
0.0
27
0.0
37
0.0
42
0.0
43
0.0
44
0.0
45
10.0
50
0.0
51
0.0000000000007958
72
100
90
163872
1

281
0
71
0
74
0
110
0.0
120
0.0
130
0.0
111
1.0
121
0.0
131
0.0
112
0.0
122
1.0
132
0.0
79
0
146
0.0
1001
VD_INVISIBLE_NOT_FOR_READ
1000
VD_INVISIBLE_NOT_FOR_READ
0
ENDSEC
0
SECTION
2
OBJECTS
0
DICTIONARY
5
13
330
0
100
AcDbDictionary
281
1
3
ACAD_COLOR
350
FA7
3
ACAD_GROUP
350
14
3
ACAD_LAYOUT
350
FCF
3
ACAD_MATERIAL
350
F7A
3
ACAD_MLEADERSTYLE
350
FCD
3
ACAD_MLINESTYLE
350
16
3
ACAD_PLOTSETTINGS
350
17
3
ACAD_PLOTSTYLENAME
350
18
3
ACAD_SCALELIST
350
FAB
3
ACAD_TABLESTYLE
350
FA8
3
ACAD_VISUALSTYLE
350
F93
3
ACDB_RECOMPOSE_DATA
350
107E
3
AcDbVariableDictionary
350
FF0
3
DWGPROPS
350
107F
0
DICTIONARY
5
F10005
330
F10004
100
AcDbDictionary
280
1
281
1
3
ACAD_MTEXT_2008_RT
360
F10006
0
DICTIONARY
5
F10014
330
F10013
100
AcDbDictionary
280
1
281
1
3
ACAD_MTEXT_2008_RT
360
F10015
0
DICTIONARY
5
F10019
330
F10018
100
AcDbDictionary
280
1
281
1
3
ACAD_MTEXT_2008_RT
360
F1001A
0
DICTIONARY
5
F1001E
330
F1001D
100
AcDbDictionary
280
1
281
1
3
ACAD_MTEXT_2008_RT
360
F1001F
0
DICTIONARY
5
F10023
330
F10022
100
AcDbDictionary
280
1
281
1
3
ACAD_MTEXT_2008_RT
360
F10024
0
DICTIONARY
5
F1000A
330
F10009
100
AcDbDictionary
280
1
281
1
3
ACAD_MTEXT_2008_RT
360
F1000B
0
DICTIONARY
5
F1000F
330
F1000E
100
AcDbDictionary
280
1
281
1
3
ACAD_MTEXT_2008_RT
360
F10010
0
DICTIONARY
5
F10028
330
F10027
100
AcDbDictionary
280
1
281
1
3
ACAD_MTEXT_2008_RT
360
F10029
0
DICTIONARY
5
FA7
102
{ACAD_REACTORS
330
13
102
}
330
13
100
AcDbDictionary
281
1
0
DICTIONARY
5
14
330
13
100
AcDbDictionary
281
1
0
DICTIONARY
5
FCF
102
{ACAD_REACTORS
330
13
102
}
330
13
100
AcDbDictionary
281
1
3
Layout1
350
FD1
3
Model
350
FD0
0
DICTIONARY
5
F7A
102
{ACAD_REACTORS
330
13
102
}
330
13
100
AcDbDictionary
281
1
3
ByBlock
350
F83
3
ByLayer
350
F7B
3
Global
350
F8B
0
DICTIONARY
5
FCD
102
{ACAD_REACTORS
330
13
102
}
330
13
100
AcDbDictionary
281
1
3
Standard
350
FCE
0
DICTIONARY
5
16
330
13
100
AcDbDictionary
281
1
3
Standard
350
FAA
0
DICTIONARY
5
17
102
{ACAD_REACTORS
330
13
102
}
330
13
100
AcDbDictionary
281
1
0
ACDBDICTIONARYWDFLT
5
18
102
{ACAD_REACTORS
330
13
102
}
330
13
100
AcDbDictionary
281
1
3
Normal
350
19
100
AcDbDictionaryWithDefault
340
19
0
DICTIONARY
5
FAB
102
{ACAD_REACTORS
330
13
102
}
330
13
100
AcDbDictionary
281
1
3
A0
350
FAC
3
A1
350
FAD
3
A2
350
FAE
3
A3
350
FAF
3
A4
350
FB0
3
A5
350
FB1
3
A6
350
FB2
3
A7
350
FB3
3
A8
350
FB4
3
A9
350
FB5
3
B0
350
FB6
3
B1
350
FB7
3
B2
350
FB8
3
B3
350
FB9
3
B4
350
FBA
3
B5
350
FBB
3
B6
350
FBC
3
B7
350
FBD
3
B8
350
FBE
3
B9
350
FBF
3
C0
350
FC0
3
C1
350
FC1
3
C2
350
FC2
3
C3
350
FC3
3
C4
350
FC4
3
C5
350
FC5
3
C6
350
FC6
3
C7
350
FC7
3
C8
350
FC8
3
C9
350
FC9
3
D0
350
FCA
3
D1
350
FCB
3
D2
350
FCC
0
DICTIONARY
5
FA8
102
{ACAD_REACTORS
330
13
102
}
330
13
100
AcDbDictionary
281
1
3
Standard
350
FA9
0
DICTIONARY
5
F93
102
{ACAD_REACTORS
330
13
102
}
330
13
100
AcDbDictionary
281
1
3
2dWireframe
350
F99
3
3D Hidden
350
F9B
3
3dWireframe
350
F9A
3
Basic
350
F98
3
Brighten
350
F9F
3
ColorChange
350
FA3
3
Conceptual
350
F9C
3
Dim
350
F9E
3
EdgeColorOff
350
FA6
3
Facepattern
350
FA2
3
Flat
350
F94
3
FlatWithEdges
350
F95
3
Gouraud
350
F96
3
GouraudWithEdges
350
F97
3
JitterOff
350
FA4
3
Linepattern
350
FA1
3
OverhangOff
350
FA5
3
Realistic
350
F9D
3
Thicken
350
FA0
0
XRECORD
5
107E
102
{ACAD_REACTORS
330
13
102
}
330
13
100
AcDbXrecord
280
1
90
1
330
FA9
330
F10004
330
F10013
330
F10018
330
F1001D
330
F10022
330
F10009
330
F1000E
330
F10027
0
DICTIONARY
5
FF0
102
{ACAD_REACTORS
330
13
102
}
330
13
100
AcDbDictionary
281
1
3
CANNOSCALE
350
FF3
3
CMLEADERSTYLE
350
FF2
3
CTABLESTYLE
350
FF1
3
DIMASSOC
350
FF6
3
INDEXCTL
350
FF5
3
SORTENTS
350
FF4
3
XCLIPFRAME
350
1078
0
XRECORD
5
107F
102
{ACAD_REACTORS
330
13
102
}
330
13
100
AcDbXrecord
280
1
1
DWGPROPS COOKIE
2

3

4

6

7

8

9

300
=
301
=
302
=
303
=
304
=
305
=
306
=
307
=
308
=
309
=
40
0.0
41
0.0
42
0.0
1

90
0
0
XRECORD
5
F10006
102
{ACAD_REACTORS
330
F10005
102
}
330
F10005
100
AcDbXrecord
280
1
40
48458.0
1
0.1 x 45°
0
XRECORD
5
F10015
102
{ACAD_REACTORS
330
F10014
102
}
330
F10014
100
AcDbXrecord
280
1
40
48458.0
1
34
0
XRECORD
5
F1001A
102
{ACAD_REACTORS
330
F10019
102
}
330
F10019
100
AcDbXrecord
280
1
40
48458.0
1
34.7
0
XRECORD
5
F1001F
102
{ACAD_REACTORS
330
F1001E
102
}
330
F1001E
100
AcDbXrecord
280
1
40
48458.0
1
25
0
XRECORD
5
F10024
102
{ACAD_REACTORS
330
F10023
102
}
330
F10023
100
AcDbXrecord
280
1
40
48458.0
1
73
0
XRECORD
5
F1000B
102
{ACAD_REACTORS
330
F1000A
102
}
330
F1000A
100
AcDbXrecord
280
1
40
48458.0
1
Ø10
0
XRECORD
5
F10010
102
{ACAD_REACTORS
330
F1000F
102
}
330
F1000F
100
AcDbXrecord
280
1
40
48458.0
1
Ø9.4
0
XRECORD
5
F10029
102
{ACAD_REACTORS
330
F10028
102
}
330
F10028
100
AcDbXrecord
280
1
40
48458.0
1
Ø10
0
LAYOUT
5
FD1
102
{ACAD_XDICTIONARY
360
10A9
102
}
102
{ACAD_REACTORS
330
FCF
102
}
330
FCF
100
AcDbPlotSettings
1

2
Microsoft XPS Document Writer
4

6

40
0.0
41
0.0
42
0.0
43
0.0
44
0.0
45
0.0
46
0.0
47
0.0
48
0.0
49
0.0
140
0.0
141
0.0
142
1.0
143
1.0
70
688
72
0
73
0
74
5
7

75
16
147
1.0
148
0.0
149
0.0
100
AcDbLayout
1
Layout1
70
1
71
1
10
0.0
20
0.0
11
12.0
21
9.0
12
0.0
22
0.0
32
0.0
14
1.000000000000000E+20
24
1.000000000000000E+20
34
1.000000000000000E+20
15
-1.000000000000000E+20
25
-1.000000000000000E+20
35
-1.000000000000000E+20
146
0.0
13
0.0
23
0.0
33
0.0
16
1.0
26
0.0
36
0.0
17
0.0
27
1.0
37
0.0
76
0
330
25D
0
LAYOUT
5
FD0
102
{ACAD_XDICTIONARY
360
10A7
102
}
102
{ACAD_REACTORS
330
FCF
102
}
330
FCF
100
AcDbPlotSettings
1

2
Microsoft XPS Document Writer
4

6

40
0.0
41
0.0
42
0.0
43
0.0
44
0.0
45
0.0
46
0.0
47
0.0
48
0.0
49
0.0
140
0.0
141
0.0
142
1.0
143
1.0
70
1712
72
0
73
0
74
0
7

75
0
147
1.0
148
0.0
149
0.0
100
AcDbLayout
1
Model
70
1
71
0
10
0.0
20
0.0
11
12.0
21
9.0
12
0.0
22
0.0
32
0.0
14
0.0
24
0.0
34
0.0
15
0.0
25
0.0
35
0.0
146
0.0
13
0.0
23
0.0
33
0.0
16
1.0
26
0.0
36
0.0
17
0.0
27
1.0
37
0.0
76
0
330
261
331
26B
0
MATERIAL
5
F83
102
{ACAD_XDICTIONARY
360
F84
102
}
102
{ACAD_REACTORS
330
F7A
102
}
330
F7A
100
AcDbMaterial
1
ByBlock
72
0
43
0.0208333333333333
43
0.0
43
0.0
43
0.0
43
0.0
43
0.0208333333333333
43
0.0
43
0.0
43
0.0
43
0.0
43
1.0
43
0.0
43
0.0
43
0.0
43
0.0
43
1.0
77
0
47
0.0208333333333333
47
0.0
47
0.0
47
0.0
47
0.0
47
0.0208333333333333
47
0.0
47
0.0
47
0.0
47
0.0
47
1.0
47
0.0
47
0.0
47
0.0
47
0.0
47
1.0
171
0
49
0.0208333333333333
49
0.0
49
0.0
49
0.0
49
0.0
49
0.0208333333333333
49
0.0
49
0.0
49
0.0
49
0.0
49
1.0
49
0.0
49
0.0
49
0.0
49
0.0
49
1.0
175
0
142
0.0208333333333333
142
0.0
142
0.0
142
0.0
142
0.0
142
0.0208333333333333
142
0.0
142
0.0
142
0.0
142
0.0
142
1.0
142
0.0
142
0.0
142
0.0
142
0.0
142
1.0
179
0
144
0.0208333333333333
144
0.0
144
0.0
144
0.0
144
0.0
144
0.0208333333333333
144
0.0
144
0.0
144
0.0
144
0.0
144
1.0
144
0.0
144
0.0
144
0.0
144
0.0
144
1.0
147
0.0208333333333333
147
0.0
147
0.0
147
0.0
147
0.0
147
0.0208333333333333
147
0.0
147
0.0
147
0.0
147
0.0
147
1.0
147
0.0
147
0.0
147
0.0
147
0.0
147
1.0
0
MATERIAL
5
F7B
102
{ACAD_XDICTIONARY
360
F7C
102
}
102
{ACAD_REACTORS
330
F7A
102
}
330
F7A
100
AcDbMaterial
1
ByLayer
72
0
43
0.0208333333333333
43
0.0
43
0.0
43
0.0
43
0.0
43
0.0208333333333333
43
0.0
43
0.0
43
0.0
43
0.0
43
1.0
43
0.0
43
0.0
43
0.0
43
0.0
43
1.0
77
0
47
0.0208333333333333
47
0.0
47
0.0
47
0.0
47
0.0
47
0.0208333333333333
47
0.0
47
0.0
47
0.0
47
0.0
47
1.0
47
0.0
47
0.0
47
0.0
47
0.0
47
1.0
171
0
49
0.0208333333333333
49
0.0
49
0.0
49
0.0
49
0.0
49
0.0208333333333333
49
0.0
49
0.0
49
0.0
49
0.0
49
1.0
49
0.0
49
0.0
49
0.0
49
0.0
49
1.0
175
0
142
0.0208333333333333
142
0.0
142
0.0
142
0.0
142
0.0
142
0.0208333333333333
142
0.0
142
0.0
142
0.0
142
0.0
142
1.0
142
0.0
142
0.0
142
0.0
142
0.0
142
1.0
179
0
144
0.0208333333333333
144
0.0
144
0.0
144
0.0
144
0.0
144
0.0208333333333333
144
0.0
144
0.0
144
0.0
144
0.0
144
1.0
144
0.0
144
0.0
144
0.0
144
0.0
144
1.0
147
0.0208333333333333
147
0.0
147
0.0
147
0.0
147
0.0
147
0.0208333333333333
147
0.0
147
0.0
147
0.0
147
0.0
147
1.0
147
0.0
147
0.0
147
0.0
147
0.0
147
1.0
0
MATERIAL
5
F8B
102
{ACAD_XDICTIONARY
360
F8C
102
}
102
{ACAD_REACTORS
330
F7A
102
}
330
F7A
100
AcDbMaterial
1
Global
72
0
43
0.0208333333333333
43
0.0
43
0.0
43
0.0
43
0.0
43
0.0208333333333333
43
0.0
43
0.0
43
0.0
43
0.0
43
1.0
43
0.0
43
0.0
43
0.0
43
0.0
43
1.0
77
0
47
0.0208333333333333
47
0.0
47
0.0
47
0.0
47
0.0
47
0.0208333333333333
47
0.0
47
0.0
47
0.0
47
0.0
47
1.0
47
0.0
47
0.0
47
0.0
47
0.0
47
1.0
171
0
49
0.0208333333333333
49
0.0
49
0.0
49
0.0
49
0.0
49
0.0208333333333333
49
0.0
49
0.0
49
0.0
49
0.0
49
1.0
49
0.0
49
0.0
49
0.0
49
0.0
49
1.0
175
0
142
0.0208333333333333
142
0.0
142
0.0
142
0.0
142
0.0
142
0.0208333333333333
142
0.0
142
0.0
142
0.0
142
0.0
142
1.0
142
0.0
142
0.0
142
0.0
142
0.0
142
1.0
179
0
144
0.0208333333333333
144
0.0
144
0.0
144
0.0
144
0.0
144
0.0208333333333333
144
0.0
144
0.0
144
0.0
144
0.0
144
1.0
144
0.0
144
0.0
144
0.0
144
0.0
144
1.0
147
0.0208333333333333
147
0.0
147
0.0
147
0.0
147
0.0
147
0.0208333333333333
147
0.0
147
0.0
147
0.0
147
0.0
147
1.0
147
0.0
147
0.0
147
0.0
147
0.0
147
1.0
0
MLEADERSTYLE
5
FCE
102
{ACAD_REACTORS
330
FCD
102
}
330
FCD
100
AcDbMLeaderStyle
170
2
171
1
172
0
90
2
40
0.0
41
0.0
173
1
91
-1056964608
340
256
92
-2
290
1
42
0.09
291
1
43
0.36
3
Standard
44
0.18
300

342
253
174
1
178
6
175
1
176
0
93
-1056964608
45
0.18
292
0
297
0
46
0.18
94
-1056964608
47
1.0
49
1.0
140
1.0
293
1
141
0.0
294
1
177
0
142
1.0
295
0
296
0
143
0.125
1001
ACAD_MLEADERVER
1070
2
0
MLINESTYLE
5
FAA
102
{ACAD_REACTORS
330
16
102
}
330
16
100
AcDbMlineStyle
2
STANDARD
70
0
3

62
256
51
90.0
52
90.0
71
2
49
0.5
62
256
6
BYLAYER
49
-0.5
62
256
6
BYLAYER
0
ACDBPLACEHOLDER
5
19
102
{ACAD_REACTORS
330
18
102
}
330
18
0
SCALE
5
FAC
102
{ACAD_REACTORS
330
FAB
102
}
330
FAB
100
AcDbScale
70
0
300
1:1
140
1.0
141
1.0
290
1
0
SCALE
5
FAD
102
{ACAD_REACTORS
330
FAB
102
}
330
FAB
100
AcDbScale
70
0
300
1:2
140
1.0
141
2.0
290
0
0
SCALE
5
FAE
102
{ACAD_REACTORS
330
FAB
102
}
330
FAB
100
AcDbScale
70
0
300
1:4
140
1.0
141
4.0
290
0
0
SCALE
5
FAF
102
{ACAD_REACTORS
330
FAB
102
}
330
FAB
100
AcDbScale
70
0
300
1:5
140
1.0
141
5.0
290
0
0
SCALE
5
FB0
102
{ACAD_REACTORS
330
FAB
102
}
330
FAB
100
AcDbScale
70
0
300
1:8
140
1.0
141
8.0
290
0
0
SCALE
5
FB1
102
{ACAD_REACTORS
330
FAB
102
}
330
FAB
100
AcDbScale
70
0
300
1:10
140
1.0
141
10.0
290
0
0
SCALE
5
FB2
102
{ACAD_REACTORS
330
FAB
102
}
330
FAB
100
AcDbScale
70
0
300
1:16
140
1.0
141
16.0
290
0
0
SCALE
5
FB3
102
{ACAD_REACTORS
330
FAB
102
}
330
FAB
100
AcDbScale
70
0
300
1:20
140
1.0
141
20.0
290
0
0
SCALE
5
FB4
102
{ACAD_REACTORS
330
FAB
102
}
330
FAB
100
AcDbScale
70
0
300
1:30
140
1.0
141
30.0
290
0
0
SCALE
5
FB5
102
{ACAD_REACTORS
330
FAB
102
}
330
FAB
100
AcDbScale
70
0
300
1:40
140
1.0
141
40.0
290
0
0
SCALE
5
FB6
102
{ACAD_REACTORS
330
FAB
102
}
330
FAB
100
AcDbScale
70
0
300
1:50
140
1.0
141
50.0
290
0
0
SCALE
5
FB7
102
{ACAD_REACTORS
330
FAB
102
}
330
FAB
100
AcDbScale
70
0
300
1:100
140
1.0
141
100.0
290
0
0
SCALE
5
FB8
102
{ACAD_REACTORS
330
FAB
102
}
330
FAB
100
AcDbScale
70
0
300
2:1
140
2.0
141
1.0
290
0
0
SCALE
5
FB9
102
{ACAD_REACTORS
330
FAB
102
}
330
FAB
100
AcDbScale
70
0
300
4:1
140
4.0
141
1.0
290
0
0
SCALE
5
FBA
102
{ACAD_REACTORS
330
FAB
102
}
330
FAB
100
AcDbScale
70
0
300
8:1
140
8.0
141
1.0
290
0
0
SCALE
5
FBB
102
{ACAD_REACTORS
330
FAB
102
}
330
FAB
100
AcDbScale
70
0
300
10:1
140
10.0
141
1.0
290
0
0
SCALE
5
FBC
102
{ACAD_REACTORS
330
FAB
102
}
330
FAB
100
AcDbScale
70
0
300
100:1
140
100.0
141
1.0
290
0
0
SCALE
5
FBD
102
{ACAD_REACTORS
330
FAB
102
}
330
FAB
100
AcDbScale
70
0
300
1/128" = 1'-0"
140
0.0078125
141
12.0
290
0
0
SCALE
5
FBE
102
{ACAD_REACTORS
330
FAB
102
}
330
FAB
100
AcDbScale
70
0
300
1/64" = 1'-0"
140
0.015625
141
12.0
290
0
0
SCALE
5
FBF
102
{ACAD_REACTORS
330
FAB
102
}
330
FAB
100
AcDbScale
70
0
300
1/32" = 1'-0"
140
0.03125
141
12.0
290
0
0
SCALE
5
FC0
102
{ACAD_REACTORS
330
FAB
102
}
330
FAB
100
AcDbScale
70
0
300
1/16" = 1'-0"
140
0.0625
141
12.0
290
0
0
SCALE
5
FC1
102
{ACAD_REACTORS
330
FAB
102
}
330
FAB
100
AcDbScale
70
0
300
3/32" = 1'-0"
140
0.09375
141
12.0
290
0
0
SCALE
5
FC2
102
{ACAD_REACTORS
330
FAB
102
}
330
FAB
100
AcDbScale
70
0
300
1/8" = 1'-0"
140
0.125
141
12.0
290
0
0
SCALE
5
FC3
102
{ACAD_REACTORS
330
FAB
102
}
330
FAB
100
AcDbScale
70
0
300
3/16" = 1'-0"
140
0.1875
141
12.0
290
0
0
SCALE
5
FC4
102
{ACAD_REACTORS
330
FAB
102
}
330
FAB
100
AcDbScale
70
0
300
1/4" = 1'-0"
140
0.25
141
12.0
290
0
0
SCALE
5
FC5
102
{ACAD_REACTORS
330
FAB
102
}
330
FAB
100
AcDbScale
70
0
300
3/8" = 1'-0"
140
0.375
141
12.0
290
0
0
SCALE
5
FC6
102
{ACAD_REACTORS
330
FAB
102
}
330
FAB
100
AcDbScale
70
0
300
1/2" = 1'-0"
140
0.5
141
12.0
290
0
0
SCALE
5
FC7
102
{ACAD_REACTORS
330
FAB
102
}
330
FAB
100
AcDbScale
70
0
300
3/4" = 1'-0"
140
0.75
141
12.0
290
0
0
SCALE
5
FC8
102
{ACAD_REACTORS
330
FAB
102
}
330
FAB
100
AcDbScale
70
0
300
1" = 1'-0"
140
1.0
141
12.0
290
0
0
SCALE
5
FC9
102
{ACAD_REACTORS
330
FAB
102
}
330
FAB
100
AcDbScale
70
0
300
1-1/2" = 1'-0"
140
1.5
141
12.0
290
0
0
SCALE
5
FCA
102
{ACAD_REACTORS
330
FAB
102
}
330
FAB
100
AcDbScale
70
0
300
3" = 1'-0"
140
3.0
141
12.0
290
0
0
SCALE
5
FCB
102
{ACAD_REACTORS
330
FAB
102
}
330
FAB
100
AcDbScale
70
0
300
6" = 1'-0"
140
6.0
141
12.0
290
0
0
SCALE
5
FCC
102
{ACAD_REACTORS
330
FAB
102
}
330
FAB
100
AcDbScale
70
0
300
1'-0" = 1'-0"
140
12.0
141
12.0
290
0
0
TABLESTYLE
5
FA9
102
{ACAD_XDICTIONARY
360
FF8
102
}
102
{ACAD_REACTORS
330
FA8
102
}
330
FA8
100
AcDbTableStyle
3
Standard
70
0
71
0
40
0.06
41
0.06
280
0
281
0
7
Standard
140
0.18
170
2
62
0
63
7
283
0
274
-2
284
1
64
0
275
-2
285
1
65
0
276
-2
286
1
66
0
277
-2
287
1
67
0
278
-2
288
1
68
0
279
-2
289
1
69
0
7
Standard
140
0.25
170
5
62
0
63
7
283
0
274
-2
284
1
64
0
275
-2
285
1
65
0
276
-2
286
1
66
0
277
-2
287
1
67
0
278
-2
288
1
68
0
279
-2
289
1
69
0
7
Standard
140
0.18
170
5
62
0
63
7
283
0
274
-2
284
1
64
0
275
-2
285
1
65
0
276
-2
286
1
66
0
277
-2
287
1
67
0
278
-2
288
1
68
0
279
-2
289
1
69
0
0
VISUALSTYLE
5
F99
102
{ACAD_XDICTIONARY
360
108A
102
}
102
{ACAD_REACTORS
330
F93
102
}
330
F93
100
AcDbVisualStyle
2

70
4
71
0
72
2
73
0
90
0
40
-0.6
41
-30.0
62
5
63
7
74
1
91
4
64
7
65
257
75
1
175
1
42
1.0
92
0
66
257
43
1.0
76
1
77
6
78
2
67
7
79
5
170
0
171
0
290
0
174
0
93
1
44
0.0
173
0
291
0
45
0.0
1001
ACAD
1000
AcDbSavedByObjectVersion
1070
0
0
VISUALSTYLE
5
F9B
102
{ACAD_XDICTIONARY
360
108E
102
}
102
{ACAD_REACTORS
330
F93
102
}
330
F93
100
AcDbVisualStyle
2

70
6
71
1
72
2
73
2
90
0
40
-0.6
41
-30.0
62
5
63
7
74
2
91
2
64
7
65
257
75
2
175
1
42
179.0
92
0
66
257
43
1.0
76
1
77
6
78
2
67
7
79
3
170
0
171
0
290
0
174
0
93
1
44
0.0
173
0
291
0
45
0.0
1001
ACAD
1000
AcDbSavedByObjectVersion
1070
0
0
VISUALSTYLE
5
F9A
102
{ACAD_XDICTIONARY
360
108C
102
}
102
{ACAD_REACTORS
330
F93
102
}
330
F93
100
AcDbVisualStyle
2

70
5
71
0
72
2
73
0
90
0
40
-0.6
41
-30.0
62
5
63
7
74
1
91
4
64
7
65
257
75
1
175
1
42
1.0
92
0
66
257
43
1.0
76
1
77
6
78
2
67
7
79
5
170
0
171
0
290
0
174
0
93
1
44
0.0
173
0
291
0
45
0.0
1001
ACAD
1000
AcDbSavedByObjectVersion
1070
0
0
VISUALSTYLE
5
F98
102
{ACAD_XDICTIONARY
360
1088
102
}
102
{ACAD_REACTORS
330
F93
102
}
330
F93
100
AcDbVisualStyle
2

70
7
71
1
72
0
73
1
90
0
40
-0.6
41
-30.0
62
5
63
7
74
0
91
4
64
7
65
257
75
1
175
1
42
1.0
92
8
66
7
43
1.0
76
1
77
6
78
2
67
7
79
5
170
0
171
0
290
0
174
0
93
1
44
0.0
173
0
291
1
45
0.0
1001
ACAD
1000
AcDbSavedByObjectVersion
1070
0
0
VISUALSTYLE
5
F9F
102
{ACAD_XDICTIONARY
360
1096
102
}
102
{ACAD_REACTORS
330
F93
102
}
330
F93
100
AcDbVisualStyle
2

70
12
71
2
72
2
73
0
90
0
40
-0.6
41
-30.0
62
5
63
7
74
1
91
4
64
7
65
257
75
1
175
1
42
1.0
92
8
66
7
43
1.0
76
1
77
6
78
2
67
7
79
5
170
0
171
0
290
0
174
0
93
1
44
50.0
173
0
291
1
45
0.0
1001
ACAD
1000
AcDbSavedByObjectVersion
1070
0
0
VISUALSTYLE
5
FA3
102
{ACAD_XDICTIONARY
360
109E
102
}
102
{ACAD_REACTORS
330
F93
102
}
330
F93
100
AcDbVisualStyle
2

70
16
71
2
72
2
73
3
90
0
40
-0.6
41
-30.0
62
5
63
8
74
1
91
4
64
7
65
257
75
1
175
1
42
1.0
92
8
66
8
43
1.0
76
1
77
6
78
2
67
7
79
5
170
0
171
0
290
0
174
0
93
1
44
0.0
173
0
291
1
45
0.0
1001
ACAD
1000
AcDbSavedByObjectVersion
1070
0
0
VISUALSTYLE
5
F9C
102
{ACAD_XDICTIONARY
360
1090
102
}
102
{ACAD_REACTORS
330
F93
102
}
330
F93
100
AcDbVisualStyle
2

70
9
71
3
72
2
73
0
90
0
40
-0.6
41
-30.0
62
5
63
7
74
2
91
2
64
7
65
257
75
1
175
1
42
179.0
92
8
66
7
43
1.0
76
1
77
6
78
2
67
7
79
3
170
0
171
0
290
0
174
0
93
1
44
0.0
173
0
291
0
45
0.0
1001
ACAD
1000
AcDbSavedByObjectVersion
1070
0
0
VISUALSTYLE
5
F9E
102
{ACAD_XDICTIONARY
360
1094
102
}
102
{ACAD_REACTORS
330
F93
102
}
330
F93
100
AcDbVisualStyle
2

70
11
71
2
72
2
73
0
90
0
40
-0.6
41
-30.0
62
5
63
7
74
1
91
4
64
7
65
257
75
1
175
1
42
1.0
92
8
66
7
43
1.0
76
1
77
6
78
2
67
7
79
5
170
0
171
0
290
0
174
0
93
1
44
-50.0
173
0
291
1
45
0.0
1001
ACAD
1000
AcDbSavedByObjectVersion
1070
0
0
VISUALSTYLE
5
FA6
102
{ACAD_XDICTIONARY
360
10A4
102
}
102
{ACAD_REACTORS
330
F93
102
}
330
F93
100
AcDbVisualStyle
2

70
22
71
2
72
2
73
0
90
0
40
-0.6
41
-30.0
62
5
63
7
74
1
91
4
64
7
65
257
75
1
175
1
42
1.0
92
8
66
7
43
1.0
76
1
77
6
78
2
67
7
79
5
170
0
171
0
290
0
174
0
93
1
44
0.0
173
0
291
1
45
0.0
1001
ACAD
1000
AcDbSavedByObjectVersion
1070
0
0
VISUALSTYLE
5
FA2
102
{ACAD_XDICTIONARY
360
109C
102
}
102
{ACAD_REACTORS
330
F93
102
}
330
F93
100
AcDbVisualStyle
2

70
15
71
2
72
2
73
0
90
0
40
-0.6
41
-30.0
62
5
63
7
74
1
91
4
64
7
65
257
75
1
175
1
42
1.0
92
8
66
7
43
1.0
76
1
77
6
78
2
67
7
79
5
170
0
171
0
290
0
174
0
93
1
44
0.0
173
0
291
1
45
0.0
1001
ACAD
1000
AcDbSavedByObjectVersion
1070
0
0
VISUALSTYLE
5
F94
102
{ACAD_XDICTIONARY
360
1080
102
}
102
{ACAD_REACTORS
330
F93
102
}
330
F93
100
AcDbVisualStyle
2

70
0
71
2
72
1
73
1
90
2
40
-0.6
41
30.0
62
5
63
7
74
0
91
4
64
7
65
257
75
1
175
1
42
1.0
92
8
66
7
43
1.0
76
1
77
6
78
2
67
7
79
5
170
0
171
0
290
0
174
0
93
13
44
0.0
173
0
291
1
45
0.0
1001
ACAD
1000
AcDbSavedByObjectVersion
1070
0
0
VISUALSTYLE
5
F95
102
{ACAD_XDICTIONARY
360
1082
102
}
102
{ACAD_REACTORS
330
F93
102
}
330
F93
100
AcDbVisualStyle
2

70
1
71
2
72
1
73
1
90
2
40
-0.6
41
30.0
62
5
63
7
74
1
91
4
64
7
65
257
75
1
175
1
42
1.0
92
0
66
257
43
1.0
76
1
77
6
78
2
67
7
79
5
170
0
171
0
290
0
174
0
93
13
44
0.0
173
0
291
1
45
0.0
1001
ACAD
1000
AcDbSavedByObjectVersion
1070
0
0
VISUALSTYLE
5
F96
102
{ACAD_XDICTIONARY
360
1084
102
}
102
{ACAD_REACTORS
330
F93
102
}
330
F93
100
AcDbVisualStyle
2

70
2
71
2
72
2
73
1
90
2
40
-0.6
41
30.0
62
5
63
7
74
0
91
4
64
7
65
257
75
1
175
1
42
1.0
92
0
66
7
43
1.0
76
1
77
6
78
2
67
7
79
5
170
0
171
0
290
0
174
0
93
13
44
0.0
173
0
291
1
45
0.0
1001
ACAD
1000
AcDbSavedByObjectVersion
1070
0
0
VISUALSTYLE
5
F97
102
{ACAD_XDICTIONARY
360
1086
102
}
102
{ACAD_REACTORS
330
F93
102
}
330
F93
100
AcDbVisualStyle
2

70
3
71
2
72
2
73
1
90
2
40
-0.6
41
30.0
62
5
63
7
74
1
91
4
64
7
65
257
75
1
175
1
42
1.0
92
0
66
257
43
1.0
76
1
77
6
78
2
67
7
79
5
170
0
171
0
290
0
174
0
93
13
44
0.0
173
0
291
1
45
0.0
1001
ACAD
1000
AcDbSavedByObjectVersion
1070
0
0
VISUALSTYLE
5
FA4
102
{ACAD_XDICTIONARY
360
10A0
102
}
102
{ACAD_REACTORS
330
F93
102
}
330
F93
100
AcDbVisualStyle
2

70
20
71
2
72
2
73
0
90
0
40
-0.6
41
-30.0
62
5
63
7
74
1
91
4
64
7
65
257
75
1
175
1
42
1.0
92
10
66
7
43
1.0
76
1
77
6
78
2
67
7
79
5
170
0
171
0
290
0
174
0
93
1
44
0.0
173
0
291
1
45
0.0
1001
ACAD
1000
AcDbSavedByObjectVersion
1070
0
0
VISUALSTYLE
5
FA1
102
{ACAD_XDICTIONARY
360
109A
102
}
102
{ACAD_REACTORS
330
F93
102
}
330
F93
100
AcDbVisualStyle
2

70
14
71
2
72
2
73
0
90
0
40
-0.6
41
-30.0
62
5
63
7
74
1
91
4
64
7
65
257
75
7
175
7
42
1.0
92
8
66
7
43
1.0
76
1
77
6
78
2
67
7
79
5
170
0
171
0
290
0
174
0
93
1
44
0.0
173
0
291
1
45
0.0
1001
ACAD
1000
AcDbSavedByObjectVersion
1070
0
0
VISUALSTYLE
5
FA5
102
{ACAD_XDICTIONARY
360
10A2
102
}
102
{ACAD_REACTORS
330
F93
102
}
330
F93
100
AcDbVisualStyle
2

70
21
71
2
72
2
73
0
90
0
40
-0.6
41
-30.0
62
5
63
7
74
1
91
4
64
7
65
257
75
1
175
1
42
1.0
92
9
66
7
43
1.0
76
1
77
6
78
2
67
7
79
5
170
0
171
0
290
0
174
0
93
1
44
0.0
173
0
291
1
45
0.0
1001
ACAD
1000
AcDbSavedByObjectVersion
1070
0
0
VISUALSTYLE
5
F9D
102
{ACAD_XDICTIONARY
360
1092
102
}
102
{ACAD_REACTORS
330
F93
102
}
330
F93
100
AcDbVisualStyle
2

70
8
71
2
72
2
73
0
90
0
40
-0.6
41
-30.0
62
5
63
7
74
1
91
0
64
7
65
257
75
1
175
1
42
1.0
92
8
66
8
43
1.0
76
1
77
6
78
2
67
7
79
5
170
0
171
0
290
0
174
0
93
13
44
0.0
173
0
291
0
45
0.0
1001
ACAD
1000
AcDbSavedByObjectVersion
1070
0
0
VISUALSTYLE
5
FA0
102
{ACAD_XDICTIONARY
360
1098
102
}
102
{ACAD_REACTORS
330
F93
102
}
330
F93
100
AcDbVisualStyle
2

70
13
71
2
72
2
73
0
90
0
40
-0.6
41
-30.0
62
5
63
7
74
1
91
4
64
7
65
257
75
1
175
1
42
1.0
92
12
66
7
43
1.0
76
1
77
6
78
2
67
7
79
5
170
0
171
0
290
0
174
0
93
1
44
0.0
173
0
291
1
45
0.0
1001
ACAD
1000
AcDbSavedByObjectVersion
1070
0
0
DICTIONARYVAR
5
FF3
102
{ACAD_REACTORS
330
FF0
102
}
330
FF0
100
DictionaryVariables
280
0
1
1:1
0
DICTIONARYVAR
5
FF2
102
{ACAD_REACTORS
330
FF0
102
}
330
FF0
100
DictionaryVariables
280
0
1
STANDARD
0
DICTIONARYVAR
5
FF1
102
{ACAD_REACTORS
330
FF0
102
}
330
FF0
100
DictionaryVariables
280
0
1
STANDARD
0
DICTIONARYVAR
5
FF6
102
{ACAD_REACTORS
330
FF0
102
}
330
FF0
100
DictionaryVariables
280
0
1
1
0
DICTIONARYVAR
5
FF5
102
{ACAD_REACTORS
330
FF0
102
}
330
FF0
100
DictionaryVariables
280
0
1
0
0
DICTIONARYVAR
5
FF4
102
{ACAD_REACTORS
330
FF0
102
}
330
FF0
100
DictionaryVariables
280
0
1
127
0
DICTIONARYVAR
5
1078
102
{ACAD_REACTORS
330
FF0
102
}
330
FF0
100
DictionaryVariables
280
0
1
2
0
DICTIONARY
5
10A9
330
FD1
100
AcDbDictionary
280
1
281
1
3
ACAD_XREC_ROUNDTRIP
360
10AA
0
DICTIONARY
5
10A7
330
FD0
100
AcDbDictionary
280
1
281
1
3
ACAD_XREC_ROUNDTRIP
360
10A8
0
DICTIONARY
5
F84
330
F83
100
AcDbDictionary
280
1
281
1
3
ACAD_XREC_ROUNDTRIP
360
FFF
3
BUMPTILE
360
F86
3
DIFFUSETILE
360
F85
3
OPACITYTILE
360
F89
3
REFLECTIONTILE
360
F88
3
REFRACTIONTILE
360
F8A
3
SPECULARTILE
360
F87
0
DICTIONARY
5
F7C
330
F7B
100
AcDbDictionary
280
1
281
1
3
ACAD_XREC_ROUNDTRIP
360
FFE
3
BUMPTILE
360
F7E
3
DIFFUSETILE
360
F7D
3
OPACITYTILE
360
F81
3
REFLECTIONTILE
360
F80
3
REFRACTIONTILE
360
F82
3
SPECULARTILE
360
F7F
0
DICTIONARY
5
F8C
330
F8B
100
AcDbDictionary
280
1
281
1
3
ACAD_XREC_ROUNDTRIP
360
1000
3
BUMPTILE
360
F8E
3
DIFFUSETILE
360
F8D
3
OPACITYTILE
360
F91
3
REFLECTIONTILE
360
F90
3
REFRACTIONTILE
360
F92
3
SPECULARTILE
360
F8F
0
DICTIONARY
5
FF8
330
FA9
100
AcDbDictionary
280
1
281
1
3
ACAD_ROUNDTRIP_2008_TABLESTYLE_CELLSTYLEMAP
360
1079
3
ACAD_XREC_ROUNDTRIP
360
10A6
0
DICTIONARY
5
108A
330
F99
100
AcDbDictionary
280
1
281
1
3
ACAD_XREC_ROUNDTRIP
360
108B
0
DICTIONARY
5
108E
330
F9B
100
AcDbDictionary
280
1
281
1
3
ACAD_XREC_ROUNDTRIP
360
108F
0
DICTIONARY
5
108C
330
F9A
100
AcDbDictionary
280
1
281
1
3
ACAD_XREC_ROUNDTRIP
360
108D
0
DICTIONARY
5
1088
330
F98
100
AcDbDictionary
280
1
281
1
3
ACAD_XREC_ROUNDTRIP
360
1089
0
DICTIONARY
5
1096
330
F9F
100
AcDbDictionary
280
1
281
1
3
ACAD_XREC_ROUNDTRIP
360
1097
0
DICTIONARY
5
109E
330
FA3
100
AcDbDictionary
280
1
281
1
3
ACAD_XREC_ROUNDTRIP
360
109F
0
DICTIONARY
5
1090
330
F9C
100
AcDbDictionary
280
1
281
1
3
ACAD_XREC_ROUNDTRIP
360
1091
0
DICTIONARY
5
1094
330
F9E
100
AcDbDictionary
280
1
281
1
3
ACAD_XREC_ROUNDTRIP
360
1095
0
DICTIONARY
5
10A4
330
FA6
100
AcDbDictionary
280
1
281
1
3
ACAD_XREC_ROUNDTRIP
360
10A5
0
DICTIONARY
5
109C
330
FA2
100
AcDbDictionary
280
1
281
1
3
ACAD_XREC_ROUNDTRIP
360
109D
0
DICTIONARY
5
1080
330
F94
100
AcDbDictionary
280
1
281
1
3
ACAD_XREC_ROUNDTRIP
360
1081
0
DICTIONARY
5
1082
330
F95
100
AcDbDictionary
280
1
281
1
3
ACAD_XREC_ROUNDTRIP
360
1083
0
DICTIONARY
5
1084
330
F96
100
AcDbDictionary
280
1
281
1
3
ACAD_XREC_ROUNDTRIP
360
1085
0
DICTIONARY
5
1086
330
F97
100
AcDbDictionary
280
1
281
1
3
ACAD_XREC_ROUNDTRIP
360
1087
0
DICTIONARY
5
10A0
330
FA4
100
AcDbDictionary
280
1
281
1
3
ACAD_XREC_ROUNDTRIP
360
10A1
0
DICTIONARY
5
109A
330
FA1
100
AcDbDictionary
280
1
281
1
3
ACAD_XREC_ROUNDTRIP
360
109B
0
DICTIONARY
5
10A2
330
FA5
100
AcDbDictionary
280
1
281
1
3
ACAD_XREC_ROUNDTRIP
360
10A3
0
DICTIONARY
5
1092
330
F9D
100
AcDbDictionary
280
1
281
1
3
ACAD_XREC_ROUNDTRIP
360
1093
0
DICTIONARY
5
1098
330
FA0
100
AcDbDictionary
280
1
281
1
3
ACAD_XREC_ROUNDTRIP
360
1099
0
XRECORD
5
10AA
102
{ACAD_REACTORS
330
10A9
102
}
330
10A9
100
AcDbXrecord
280
1
102
SHADEPLOT
70
0
102
SHADEPLOTRESLEVEL
70
2
102
SHADEPLOTCUSTOMDPI
70
300
0
XRECORD
5
10A8
102
{ACAD_REACTORS
330
10A7
102
}
330
10A7
100
AcDbXrecord
280
1
102
SHADEPLOT
70
0
102
SHADEPLOTRESLEVEL
70
2
102
SHADEPLOTCUSTOMDPI
70
300
0
XRECORD
5
FFF
102
{ACAD_REACTORS
330
F84
102
}
330
F84
100
AcDbXrecord
280
1
102
MATERIAL
148
0.0
149
0.0
149
0.0
93
0
94
127
282
0
72
0
77
0
171
0
175
0
179
0
273
0
0
XRECORD
5
F86
102
{ACAD_REACTORS
330
F84
102
}
330
F84
100
AcDbXrecord
280
1
270
1
271
1
0
XRECORD
5
F85
102
{ACAD_REACTORS
330
F84
102
}
330
F84
100
AcDbXrecord
280
1
270
1
271
1
0
XRECORD
5
F89
102
{ACAD_REACTORS
330
F84
102
}
330
F84
100
AcDbXrecord
280
1
270
1
271
1
0
XRECORD
5
F88
102
{ACAD_REACTORS
330
F84
102
}
330
F84
100
AcDbXrecord
280
1
270
1
271
1
0
XRECORD
5
F8A
102
{ACAD_REACTORS
330
F84
102
}
330
F84
100
AcDbXrecord
280
1
270
1
271
1
0
XRECORD
5
F87
102
{ACAD_REACTORS
330
F84
102
}
330
F84
100
AcDbXrecord
280
1
270
1
271
1
0
XRECORD
5
FFE
102
{ACAD_REACTORS
330
F7C
102
}
330
F7C
100
AcDbXrecord
280
1
102
MATERIAL
148
0.0
149
0.0
149
0.0
93
0
94
127
282
0
72
0
77
0
171
0
175
0
179
0
273
0
0
XRECORD
5
F7E
102
{ACAD_REACTORS
330
F7C
102
}
330
F7C
100
AcDbXrecord
280
1
270
1
271
1
0
XRECORD
5
F7D
102
{ACAD_REACTORS
330
F7C
102
}
330
F7C
100
AcDbXrecord
280
1
270
1
271
1
0
XRECORD
5
F81
102
{ACAD_REACTORS
330
F7C
102
}
330
F7C
100
AcDbXrecord
280
1
270
1
271
1
0
XRECORD
5
F80
102
{ACAD_REACTORS
330
F7C
102
}
330
F7C
100
AcDbXrecord
280
1
270
1
271
1
0
XRECORD
5
F82
102
{ACAD_REACTORS
330
F7C
102
}
330
F7C
100
AcDbXrecord
280
1
270
1
271
1
0
XRECORD
5
F7F
102
{ACAD_REACTORS
330
F7C
102
}
330
F7C
100
AcDbXrecord
280
1
270
1
271
1
0
XRECORD
5
1000
102
{ACAD_REACTORS
330
F8C
102
}
330
F8C
100
AcDbXrecord
280
1
102
MATERIAL
148
0.0
149
0.0
149
0.0
93
0
94
127
282
0
72
0
77
0
171
0
175
0
179
0
273
0
0
XRECORD
5
F8E
102
{ACAD_REACTORS
330
F8C
102
}
330
F8C
100
AcDbXrecord
280
1
270
1
271
1
0
XRECORD
5
F8D
102
{ACAD_REACTORS
330
F8C
102
}
330
F8C
100
AcDbXrecord
280
1
270
1
271
1
0
XRECORD
5
F91
102
{ACAD_REACTORS
330
F8C
102
}
330
F8C
100
AcDbXrecord
280
1
270
1
271
1
0
XRECORD
5
F90
102
{ACAD_REACTORS
330
F8C
102
}
330
F8C
100
AcDbXrecord
280
1
270
1
271
1
0
XRECORD
5
F92
102
{ACAD_REACTORS
330
F8C
102
}
330
F8C
100
AcDbXrecord
280
1
270
1
271
1
0
XRECORD
5
F8F
102
{ACAD_REACTORS
330
F8C
102
}
330
F8C
100
AcDbXrecord
280
1
270
1
271
1
0
CELLSTYLEMAP
5
1079
102
{ACAD_REACTORS
330
FF8
102
}
330
FF8
100
AcDbCellStyleMap
90
3
300
CELLSTYLE
1
TABLEFORMAT_BEGIN
90
5
170
1
91
0
92
32768
62
257
93
1
300
CONTENTFORMAT
1
CONTENTFORMAT_BEGIN
90
0
91
0
92
512
93
0
300

40
0.0
140
1.0
94
5
62
0
340
253
144
0.25
309
CONTENTFORMAT_END
171
1
301
MARGIN
1
CELLMARGIN_BEGIN
40
0.06
40
0.06
40
0.06
40
0.06
40
0.18
40
0.18
309
CELLMARGIN_END
94
6
95
1
302
GRIDFORMAT
1
GRIDFORMAT_BEGIN
90
0
91
1
62
0
92
-2
340
0
93
0
40
0.045
309
GRIDFORMAT_END
95
2
302
GRIDFORMAT
1
GRIDFORMAT_BEGIN
90
0
91
1
62
0
92
-2
340
0
93
0
40
0.045
309
GRIDFORMAT_END
95
4
302
GRIDFORMAT
1
GRIDFORMAT_BEGIN
90
0
91
1
62
0
92
-2
340
0
93
0
40
0.045
309
GRIDFORMAT_END
95
8
302
GRIDFORMAT
1
GRIDFORMAT_BEGIN
90
0
91
1
62
0
92
-2
340
0
93
0
40
0.045
309
GRIDFORMAT_END
95
16
302
GRIDFORMAT
1
GRIDFORMAT_BEGIN
90
0
91
1
62
0
92
-2
340
0
93
0
40
0.045
309
GRIDFORMAT_END
95
32
302
GRIDFORMAT
1
GRIDFORMAT_BEGIN
90
0
91
1
62
0
92
-2
340
0
93
0
40
0.045
309
GRIDFORMAT_END
309
TABLEFORMAT_END
1
CELLSTYLE_BEGIN
90
1
91
1
300
_TITLE
309
CELLSTYLE_END
300
CELLSTYLE
1
TABLEFORMAT_BEGIN
90
5
170
1
91
0
92
0
62
257
93
1
300
CONTENTFORMAT
1
CONTENTFORMAT_BEGIN
90
0
91
0
92
512
93
0
300

40
0.0
140
1.0
94
5
62
0
340
253
144
0.18
309
CONTENTFORMAT_END
171
1
301
MARGIN
1
CELLMARGIN_BEGIN
40
0.06
40
0.06
40
0.06
40
0.06
40
0.18
40
0.18
309
CELLMARGIN_END
94
6
95
1
302
GRIDFORMAT
1
GRIDFORMAT_BEGIN
90
0
91
1
62
0
92
-2
340
0
93
0
40
0.045
309
GRIDFORMAT_END
95
2
302
GRIDFORMAT
1
GRIDFORMAT_BEGIN
90
0
91
1
62
0
92
-2
340
0
93
0
40
0.045
309
GRIDFORMAT_END
95
4
302
GRIDFORMAT
1
GRIDFORMAT_BEGIN
90
0
91
1
62
0
92
-2
340
0
93
0
40
0.045
309
GRIDFORMAT_END
95
8
302
GRIDFORMAT
1
GRIDFORMAT_BEGIN
90
0
91
1
62
0
92
-2
340
0
93
0
40
0.045
309
GRIDFORMAT_END
95
16
302
GRIDFORMAT
1
GRIDFORMAT_BEGIN
90
0
91
1
62
0
92
-2
340
0
93
0
40
0.045
309
GRIDFORMAT_END
95
32
302
GRIDFORMAT
1
GRIDFORMAT_BEGIN
90
0
91
1
62
0
92
-2
340
0
93
0
40
0.045
309
GRIDFORMAT_END
309
TABLEFORMAT_END
1
CELLSTYLE_BEGIN
90
2
91
1
300
_HEADER
309
CELLSTYLE_END
300
CELLSTYLE
1
TABLEFORMAT_BEGIN
90
5
170
1
91
0
92
0
62
257
93
1
300
CONTENTFORMAT
1
CONTENTFORMAT_BEGIN
90
0
91
0
92
512
93
0
300

40
0.0
140
1.0
94
2
62
0
340
253
144
0.18
309
CONTENTFORMAT_END
171
1
301
MARGIN
1
CELLMARGIN_BEGIN
40
0.06
40
0.06
40
0.06
40
0.06
40
0.18
40
0.18
309
CELLMARGIN_END
94
6
95
1
302
GRIDFORMAT
1
GRIDFORMAT_BEGIN
90
0
91
1
62
0
92
-2
340
0
93
0
40
0.045
309
GRIDFORMAT_END
95
2
302
GRIDFORMAT
1
GRIDFORMAT_BEGIN
90
0
91
1
62
0
92
-2
340
0
93
0
40
0.045
309
GRIDFORMAT_END
95
4
302
GRIDFORMAT
1
GRIDFORMAT_BEGIN
90
0
91
1
62
0
92
-2
340
0
93
0
40
0.045
309
GRIDFORMAT_END
95
8
302
GRIDFORMAT
1
GRIDFORMAT_BEGIN
90
0
91
1
62
0
92
-2
340
0
93
0
40
0.045
309
GRIDFORMAT_END
95
16
302
GRIDFORMAT
1
GRIDFORMAT_BEGIN
90
0
91
1
62
0
92
-2
340
0
93
0
40
0.045
309
GRIDFORMAT_END
95
32
302
GRIDFORMAT
1
GRIDFORMAT_BEGIN
90
0
91
1
62
0
92
-2
340
0
93
0
40
0.045
309
GRIDFORMAT_END
309
TABLEFORMAT_END
1
CELLSTYLE_BEGIN
90
3
91
2
300
_DATA
309
CELLSTYLE_END
0
XRECORD
5
10A6
102
{ACAD_REACTORS
330
FF8
102
}
330
FF8
100
AcDbXrecord
280
1
102
ACAD_ROUNDTRIP_PRE2007_TABLESTYLE
90
512
91
0
1

92
512
93
0
2

94
512
95
0
3

0
XRECORD
5
108B
102
{ACAD_REACTORS
330
108A
102
}
330
108A
100
AcDbXrecord
280
1
102
RTVSPropertyOp0
70
1
102
RTVSPropertyOp1
70
1
102
RTVSPropertyOp2
70
1
102
RTVSPropertyOp3
70
1
102
RTVSPropertyOp4
70
1
102
RTVSPropertyOp5
70
1
102
RTVSPropertyOp6
70
1
102
RTVSPropertyOp7
70
1
102
RTVSPropertyOp8
70
1
102
RTVSPropertyOp9
70
1
102
RTVSPropertyOp10
70
1
102
RTVSPropertyOp11
70
1
102
RTVSPropertyOp12
70
1
102
RTVSPropertyOp13
70
1
102
RTVSPropertyOp14
70
1
102
RTVSPropertyOp15
70
1
102
RTVSPropertyOp16
70
1
102
RTVSPropertyOp17
70
1
102
RTVSPropertyOp18
70
1
102
RTVSPropertyOp19
70
1
102
RTVSPropertyOp20
70
1
102
RTVSPropertyOp21
70
1
102
RTVSPropertyOp22
70
1
102
RTVSPropertyOp23
70
1
102
RTVSPropertyOp24
70
1
102
RTVSPropertyOp25
70
1
102
RTVSPropertyOp26
70
1
102
RTVSPropertyOp27
70
1
0
XRECORD
5
108F
102
{ACAD_REACTORS
330
108E
102
}
330
108E
100
AcDbXrecord
280
1
102
RTVSPropertyOp0
70
1
102
RTVSPropertyOp1
70
1
102
RTVSPropertyOp2
70
1
102
RTVSPropertyOp3
70
1
102
RTVSPropertyOp4
70
1
102
RTVSPropertyOp5
70
1
102
RTVSPropertyOp6
70
1
102
RTVSPropertyOp7
70
1
102
RTVSPropertyOp8
70
1
102
RTVSPropertyOp9
70
1
102
RTVSPropertyOp10
70
1
102
RTVSPropertyOp11
70
1
102
RTVSPropertyOp12
70
1
102
RTVSPropertyOp13
70
1
102
RTVSPropertyOp14
70
1
102
RTVSPropertyOp15
70
1
102
RTVSPropertyOp16
70
1
102
RTVSPropertyOp17
70
1
102
RTVSPropertyOp18
70
1
102
RTVSPropertyOp19
70
1
102
RTVSPropertyOp20
70
1
102
RTVSPropertyOp21
70
1
102
RTVSPropertyOp22
70
1
102
RTVSPropertyOp23
70
1
102
RTVSPropertyOp24
70
1
102
RTVSPropertyOp25
70
1
102
RTVSPropertyOp26
70
1
102
RTVSPropertyOp27
70
1
0
XRECORD
5
108D
102
{ACAD_REACTORS
330
108C
102
}
330
108C
100
AcDbXrecord
280
1
102
RTVSPropertyOp0
70
1
102
RTVSPropertyOp1
70
1
102
RTVSPropertyOp2
70
1
102
RTVSPropertyOp3
70
1
102
RTVSPropertyOp4
70
1
102
RTVSPropertyOp5
70
1
102
RTVSPropertyOp6
70
1
102
RTVSPropertyOp7
70
1
102
RTVSPropertyOp8
70
1
102
RTVSPropertyOp9
70
1
102
RTVSPropertyOp10
70
1
102
RTVSPropertyOp11
70
1
102
RTVSPropertyOp12
70
1
102
RTVSPropertyOp13
70
1
102
RTVSPropertyOp14
70
1
102
RTVSPropertyOp15
70
1
102
RTVSPropertyOp16
70
1
102
RTVSPropertyOp17
70
1
102
RTVSPropertyOp18
70
1
102
RTVSPropertyOp19
70
1
102
RTVSPropertyOp20
70
1
102
RTVSPropertyOp21
70
1
102
RTVSPropertyOp22
70
1
102
RTVSPropertyOp23
70
1
102
RTVSPropertyOp24
70
1
102
RTVSPropertyOp25
70
1
102
RTVSPropertyOp26
70
1
102
RTVSPropertyOp27
70
1
0
XRECORD
5
1089
102
{ACAD_REACTORS
330
1088
102
}
330
1088
100
AcDbXrecord
280
1
102
RTVSPropertyOp0
70
1
102
RTVSPropertyOp1
70
1
102
RTVSPropertyOp2
70
1
102
RTVSPropertyOp3
70
1
102
RTVSPropertyOp4
70
1
102
RTVSPropertyOp5
70
1
102
RTVSPropertyOp6
70
1
102
RTVSPropertyOp7
70
1
102
RTVSPropertyOp8
70
1
102
RTVSPropertyOp9
70
1
102
RTVSPropertyOp10
70
1
102
RTVSPropertyOp11
70
1
102
RTVSPropertyOp12
70
1
102
RTVSPropertyOp13
70
1
102
RTVSPropertyOp14
70
1
102
RTVSPropertyOp15
70
1
102
RTVSPropertyOp16
70
1
102
RTVSPropertyOp17
70
1
102
RTVSPropertyOp18
70
1
102
RTVSPropertyOp19
70
1
102
RTVSPropertyOp20
70
1
102
RTVSPropertyOp21
70
1
102
RTVSPropertyOp22
70
1
102
RTVSPropertyOp23
70
1
102
RTVSPropertyOp24
70
1
102
RTVSPropertyOp25
70
1
102
RTVSPropertyOp26
70
1
102
RTVSPropertyOp27
70
1
0
XRECORD
5
1097
102
{ACAD_REACTORS
330
1096
102
}
330
1096
100
AcDbXrecord
280
1
102
RTVSPropertyOp0
70
1
102
RTVSPropertyOp1
70
1
102
RTVSPropertyOp2
70
1
102
RTVSPropertyOp3
70
1
102
RTVSPropertyOp4
70
1
102
RTVSPropertyOp5
70
1
102
RTVSPropertyOp6
70
1
102
RTVSPropertyOp7
70
1
102
RTVSPropertyOp8
70
1
102
RTVSPropertyOp9
70
1
102
RTVSPropertyOp10
70
1
102
RTVSPropertyOp11
70
1
102
RTVSPropertyOp12
70
1
102
RTVSPropertyOp13
70
1
102
RTVSPropertyOp14
70
1
102
RTVSPropertyOp15
70
1
102
RTVSPropertyOp16
70
1
102
RTVSPropertyOp17
70
1
102
RTVSPropertyOp18
70
1
102
RTVSPropertyOp19
70
1
102
RTVSPropertyOp20
70
1
102
RTVSPropertyOp21
70
1
102
RTVSPropertyOp22
70
1
102
RTVSPropertyOp23
70
1
102
RTVSPropertyOp24
70
1
102
RTVSPropertyOp25
70
1
102
RTVSPropertyOp26
70
1
102
RTVSPropertyOp27
70
1
0
XRECORD
5
109F
102
{ACAD_REACTORS
330
109E
102
}
330
109E
100
AcDbXrecord
280
1
102
RTVSPropertyOp0
70
1
102
RTVSPropertyOp1
70
1
102
RTVSPropertyOp2
70
1
102
RTVSPropertyOp3
70
1
102
RTVSPropertyOp4
70
1
102
RTVSPropertyOp5
70
1
102
RTVSPropertyOp6
70
1
102
RTVSPropertyOp7
70
1
102
RTVSPropertyOp8
70
1
102
RTVSPropertyOp9
70
1
102
RTVSPropertyOp10
70
1
102
RTVSPropertyOp11
70
1
102
RTVSPropertyOp12
70
1
102
RTVSPropertyOp13
70
1
102
RTVSPropertyOp14
70
1
102
RTVSPropertyOp15
70
1
102
RTVSPropertyOp16
70
1
102
RTVSPropertyOp17
70
1
102
RTVSPropertyOp18
70
1
102
RTVSPropertyOp19
70
1
102
RTVSPropertyOp20
70
1
102
RTVSPropertyOp21
70
1
102
RTVSPropertyOp22
70
1
102
RTVSPropertyOp23
70
1
102
RTVSPropertyOp24
70
1
102
RTVSPropertyOp25
70
1
102
RTVSPropertyOp26
70
1
102
RTVSPropertyOp27
70
1
0
XRECORD
5
1091
102
{ACAD_REACTORS
330
1090
102
}
330
1090
100
AcDbXrecord
280
1
102
RTVSPropertyOp0
70
1
102
RTVSPropertyOp1
70
1
102
RTVSPropertyOp2
70
1
102
RTVSPropertyOp3
70
1
102
RTVSPropertyOp4
70
1
102
RTVSPropertyOp5
70
1
102
RTVSPropertyOp6
70
1
102
RTVSPropertyOp7
70
1
102
RTVSPropertyOp8
70
1
102
RTVSPropertyOp9
70
1
102
RTVSPropertyOp10
70
1
102
RTVSPropertyOp11
70
1
102
RTVSPropertyOp12
70
1
102
RTVSPropertyOp13
70
1
102
RTVSPropertyOp14
70
1
102
RTVSPropertyOp15
70
1
102
RTVSPropertyOp16
70
1
102
RTVSPropertyOp17
70
1
102
RTVSPropertyOp18
70
1
102
RTVSPropertyOp19
70
1
102
RTVSPropertyOp20
70
1
102
RTVSPropertyOp21
70
1
102
RTVSPropertyOp22
70
1
102
RTVSPropertyOp23
70
1
102
RTVSPropertyOp24
70
1
102
RTVSPropertyOp25
70
1
102
RTVSPropertyOp26
70
1
102
RTVSPropertyOp27
70
1
0
XRECORD
5
1095
102
{ACAD_REACTORS
330
1094
102
}
330
1094
100
AcDbXrecord
280
1
102
RTVSPropertyOp0
70
1
102
RTVSPropertyOp1
70
1
102
RTVSPropertyOp2
70
1
102
RTVSPropertyOp3
70
1
102
RTVSPropertyOp4
70
1
102
RTVSPropertyOp5
70
1
102
RTVSPropertyOp6
70
1
102
RTVSPropertyOp7
70
1
102
RTVSPropertyOp8
70
1
102
RTVSPropertyOp9
70
1
102
RTVSPropertyOp10
70
1
102
RTVSPropertyOp11
70
1
102
RTVSPropertyOp12
70
1
102
RTVSPropertyOp13
70
1
102
RTVSPropertyOp14
70
1
102
RTVSPropertyOp15
70
1
102
RTVSPropertyOp16
70
1
102
RTVSPropertyOp17
70
1
102
RTVSPropertyOp18
70
1
102
RTVSPropertyOp19
70
1
102
RTVSPropertyOp20
70
1
102
RTVSPropertyOp21
70
1
102
RTVSPropertyOp22
70
1
102
RTVSPropertyOp23
70
1
102
RTVSPropertyOp24
70
1
102
RTVSPropertyOp25
70
1
102
RTVSPropertyOp26
70
1
102
RTVSPropertyOp27
70
1
0
XRECORD
5
10A5
102
{ACAD_REACTORS
330
10A4
102
}
330
10A4
100
AcDbXrecord
280
1
102
RTVSPropertyOp0
70
0
102
RTVSPropertyOp1
70
0
102
RTVSPropertyOp2
70
0
102
RTVSPropertyOp3
70
0
102
RTVSPropertyOp4
70
0
102
RTVSPropertyOp5
70
0
102
RTVSPropertyOp6
70
0
102
RTVSPropertyOp7
70
0
102
RTVSPropertyOp8
70
0
102
RTVSPropertyOp9
70
0
102
RTVSPropertyOp10
70
0
102
RTVSPropertyOp11
70
0
102
RTVSPropertyOp12
70
0
102
RTVSPropertyOp13
70
0
102
RTVSPropertyOp14
70
2
102
RTVSPropertyOp15
70
0
102
RTVSPropertyOp16
70
0
102
RTVSPropertyOp17
70
0
102
RTVSPropertyOp18
70
0
102
RTVSPropertyOp19
70
0
102
RTVSPropertyOp20
70
0
102
RTVSPropertyOp21
70
0
102
RTVSPropertyOp22
70
0
102
RTVSPropertyOp23
70
0
102
RTVSPropertyOp24
70
0
102
RTVSPropertyOp25
70
0
102
RTVSPropertyOp26
70
0
102
RTVSPropertyOp27
70
0
0
XRECORD
5
109D
102
{ACAD_REACTORS
330
109C
102
}
330
109C
100
AcDbXrecord
280
1
102
RTVSPropertyOp0
70
1
102
RTVSPropertyOp1
70
1
102
RTVSPropertyOp2
70
1
102
RTVSPropertyOp3
70
1
102
RTVSPropertyOp4
70
1
102
RTVSPropertyOp5
70
1
102
RTVSPropertyOp6
70
1
102
RTVSPropertyOp7
70
1
102
RTVSPropertyOp8
70
1
102
RTVSPropertyOp9
70
1
102
RTVSPropertyOp10
70
1
102
RTVSPropertyOp11
70
1
102
RTVSPropertyOp12
70
1
102
RTVSPropertyOp13
70
1
102
RTVSPropertyOp14
70
1
102
RTVSPropertyOp15
70
1
102
RTVSPropertyOp16
70
1
102
RTVSPropertyOp17
70
1
102
RTVSPropertyOp18
70
1
102
RTVSPropertyOp19
70
1
102
RTVSPropertyOp20
70
1
102
RTVSPropertyOp21
70
1
102
RTVSPropertyOp22
70
1
102
RTVSPropertyOp23
70
1
102
RTVSPropertyOp24
70
1
102
RTVSPropertyOp25
70
1
102
RTVSPropertyOp26
70
1
102
RTVSPropertyOp27
70
1
0
XRECORD
5
1081
102
{ACAD_REACTORS
330
1080
102
}
330
1080
100
AcDbXrecord
280
1
102
RTVSPropertyOp0
70
1
102
RTVSPropertyOp1
70
1
102
RTVSPropertyOp2
70
1
102
RTVSPropertyOp3
70
1
102
RTVSPropertyOp4
70
1
102
RTVSPropertyOp5
70
1
102
RTVSPropertyOp6
70
1
102
RTVSPropertyOp7
70
1
102
RTVSPropertyOp8
70
1
102
RTVSPropertyOp9
70
1
102
RTVSPropertyOp10
70
1
102
RTVSPropertyOp11
70
1
102
RTVSPropertyOp12
70
1
102
RTVSPropertyOp13
70
1
102
RTVSPropertyOp14
70
1
102
RTVSPropertyOp15
70
1
102
RTVSPropertyOp16
70
1
102
RTVSPropertyOp17
70
1
102
RTVSPropertyOp18
70
1
102
RTVSPropertyOp19
70
1
102
RTVSPropertyOp20
70
1
102
RTVSPropertyOp21
70
1
102
RTVSPropertyOp22
70
1
102
RTVSPropertyOp23
70
1
102
RTVSPropertyOp24
70
1
102
RTVSPropertyOp25
70
1
102
RTVSPropertyOp26
70
1
102
RTVSPropertyOp27
70
1
0
XRECORD
5
1083
102
{ACAD_REACTORS
330
1082
102
}
330
1082
100
AcDbXrecord
280
1
102
RTVSPropertyOp0
70
1
102
RTVSPropertyOp1
70
1
102
RTVSPropertyOp2
70
1
102
RTVSPropertyOp3
70
1
102
RTVSPropertyOp4
70
1
102
RTVSPropertyOp5
70
1
102
RTVSPropertyOp6
70
1
102
RTVSPropertyOp7
70
1
102
RTVSPropertyOp8
70
1
102
RTVSPropertyOp9
70
1
102
RTVSPropertyOp10
70
1
102
RTVSPropertyOp11
70
1
102
RTVSPropertyOp12
70
1
102
RTVSPropertyOp13
70
1
102
RTVSPropertyOp14
70
1
102
RTVSPropertyOp15
70
1
102
RTVSPropertyOp16
70
1
102
RTVSPropertyOp17
70
1
102
RTVSPropertyOp18
70
1
102
RTVSPropertyOp19
70
1
102
RTVSPropertyOp20
70
1
102
RTVSPropertyOp21
70
1
102
RTVSPropertyOp22
70
1
102
RTVSPropertyOp23
70
1
102
RTVSPropertyOp24
70
1
102
RTVSPropertyOp25
70
1
102
RTVSPropertyOp26
70
1
102
RTVSPropertyOp27
70
1
0
XRECORD
5
1085
102
{ACAD_REACTORS
330
1084
102
}
330
1084
100
AcDbXrecord
280
1
102
RTVSPropertyOp0
70
1
102
RTVSPropertyOp1
70
1
102
RTVSPropertyOp2
70
1
102
RTVSPropertyOp3
70
1
102
RTVSPropertyOp4
70
1
102
RTVSPropertyOp5
70
1
102
RTVSPropertyOp6
70
1
102
RTVSPropertyOp7
70
1
102
RTVSPropertyOp8
70
1
102
RTVSPropertyOp9
70
1
102
RTVSPropertyOp10
70
1
102
RTVSPropertyOp11
70
1
102
RTVSPropertyOp12
70
1
102
RTVSPropertyOp13
70
1
102
RTVSPropertyOp14
70
1
102
RTVSPropertyOp15
70
1
102
RTVSPropertyOp16
70
1
102
RTVSPropertyOp17
70
1
102
RTVSPropertyOp18
70
1
102
RTVSPropertyOp19
70
1
102
RTVSPropertyOp20
70
1
102
RTVSPropertyOp21
70
1
102
RTVSPropertyOp22
70
1
102
RTVSPropertyOp23
70
1
102
RTVSPropertyOp24
70
1
102
RTVSPropertyOp25
70
1
102
RTVSPropertyOp26
70
1
102
RTVSPropertyOp27
70
1
0
XRECORD
5
1087
102
{ACAD_REACTORS
330
1086
102
}
330
1086
100
AcDbXrecord
280
1
102
RTVSPropertyOp0
70
1
102
RTVSPropertyOp1
70
1
102
RTVSPropertyOp2
70
1
102
RTVSPropertyOp3
70
1
102
RTVSPropertyOp4
70
1
102
RTVSPropertyOp5
70
1
102
RTVSPropertyOp6
70
1
102
RTVSPropertyOp7
70
1
102
RTVSPropertyOp8
70
1
102
RTVSPropertyOp9
70
1
102
RTVSPropertyOp10
70
1
102
RTVSPropertyOp11
70
1
102
RTVSPropertyOp12
70
1
102
RTVSPropertyOp13
70
1
102
RTVSPropertyOp14
70
1
102
RTVSPropertyOp15
70
1
102
RTVSPropertyOp16
70
1
102
RTVSPropertyOp17
70
1
102
RTVSPropertyOp18
70
1
102
RTVSPropertyOp19
70
1
102
RTVSPropertyOp20
70
1
102
RTVSPropertyOp21
70
1
102
RTVSPropertyOp22
70
1
102
RTVSPropertyOp23
70
1
102
RTVSPropertyOp24
70
1
102
RTVSPropertyOp25
70
1
102
RTVSPropertyOp26
70
1
102
RTVSPropertyOp27
70
1
0
XRECORD
5
10A1
102
{ACAD_REACTORS
330
10A0
102
}
330
10A0
100
AcDbXrecord
280
1
102
RTVSPropertyOp0
70
0
102
RTVSPropertyOp1
70
0
102
RTVSPropertyOp2
70
0
102
RTVSPropertyOp3
70
0
102
RTVSPropertyOp4
70
0
102
RTVSPropertyOp5
70
0
102
RTVSPropertyOp6
70
0
102
RTVSPropertyOp7
70
0
102
RTVSPropertyOp8
70
0
102
RTVSPropertyOp9
70
0
102
RTVSPropertyOp10
70
0
102
RTVSPropertyOp11
70
0
102
RTVSPropertyOp12
70
0
102
RTVSPropertyOp13
70
0
102
RTVSPropertyOp14
70
2
102
RTVSPropertyOp15
70
0
102
RTVSPropertyOp16
70
0
102
RTVSPropertyOp17
70
0
102
RTVSPropertyOp18
70
0
102
RTVSPropertyOp19
70
0
102
RTVSPropertyOp20
70
0
102
RTVSPropertyOp21
70
0
102
RTVSPropertyOp22
70
0
102
RTVSPropertyOp23
70
0
102
RTVSPropertyOp24
70
0
102
RTVSPropertyOp25
70
0
102
RTVSPropertyOp26
70
0
102
RTVSPropertyOp27
70
0
0
XRECORD
5
109B
102
{ACAD_REACTORS
330
109A
102
}
330
109A
100
AcDbXrecord
280
1
102
RTVSPropertyOp0
70
1
102
RTVSPropertyOp1
70
1
102
RTVSPropertyOp2
70
1
102
RTVSPropertyOp3
70
1
102
RTVSPropertyOp4
70
1
102
RTVSPropertyOp5
70
1
102
RTVSPropertyOp6
70
1
102
RTVSPropertyOp7
70
1
102
RTVSPropertyOp8
70
1
102
RTVSPropertyOp9
70
1
102
RTVSPropertyOp10
70
1
102
RTVSPropertyOp11
70
1
102
RTVSPropertyOp12
70
1
102
RTVSPropertyOp13
70
1
102
RTVSPropertyOp14
70
1
102
RTVSPropertyOp15
70
1
102
RTVSPropertyOp16
70
1
102
RTVSPropertyOp17
70
1
102
RTVSPropertyOp18
70
1
102
RTVSPropertyOp19
70
1
102
RTVSPropertyOp20
70
1
102
RTVSPropertyOp21
70
1
102
RTVSPropertyOp22
70
1
102
RTVSPropertyOp23
70
1
102
RTVSPropertyOp24
70
1
102
RTVSPropertyOp25
70
1
102
RTVSPropertyOp26
70
1
102
RTVSPropertyOp27
70
1
0
XRECORD
5
10A3
102
{ACAD_REACTORS
330
10A2
102
}
330
10A2
100
AcDbXrecord
280
1
102
RTVSPropertyOp0
70
0
102
RTVSPropertyOp1
70
0
102
RTVSPropertyOp2
70
0
102
RTVSPropertyOp3
70
0
102
RTVSPropertyOp4
70
0
102
RTVSPropertyOp5
70
0
102
RTVSPropertyOp6
70
0
102
RTVSPropertyOp7
70
0
102
RTVSPropertyOp8
70
0
102
RTVSPropertyOp9
70
0
102
RTVSPropertyOp10
70
0
102
RTVSPropertyOp11
70
0
102
RTVSPropertyOp12
70
0
102
RTVSPropertyOp13
70
0
102
RTVSPropertyOp14
70
2
102
RTVSPropertyOp15
70
0
102
RTVSPropertyOp16
70
0
102
RTVSPropertyOp17
70
0
102
RTVSPropertyOp18
70
0
102
RTVSPropertyOp19
70
0
102
RTVSPropertyOp20
70
0
102
RTVSPropertyOp21
70
0
102
RTVSPropertyOp22
70
0
102
RTVSPropertyOp23
70
0
102
RTVSPropertyOp24
70
0
102
RTVSPropertyOp25
70
0
102
RTVSPropertyOp26
70
0
102
RTVSPropertyOp27
70
0
0
XRECORD
5
1093
102
{ACAD_REACTORS
330
1092
102
}
330
1092
100
AcDbXrecord
280
1
102
RTVSPropertyOp0
70
1
102
RTVSPropertyOp1
70
1
102
RTVSPropertyOp2
70
1
102
RTVSPropertyOp3
70
1
102
RTVSPropertyOp4
70
1
102
RTVSPropertyOp5
70
1
102
RTVSPropertyOp6
70
1
102
RTVSPropertyOp7
70
1
102
RTVSPropertyOp8
70
1
102
RTVSPropertyOp9
70
1
102
RTVSPropertyOp10
70
1
102
RTVSPropertyOp11
70
1
102
RTVSPropertyOp12
70
1
102
RTVSPropertyOp13
70
1
102
RTVSPropertyOp14
70
1
102
RTVSPropertyOp15
70
1
102
RTVSPropertyOp16
70
1
102
RTVSPropertyOp17
70
1
102
RTVSPropertyOp18
70
1
102
RTVSPropertyOp19
70
1
102
RTVSPropertyOp20
70
1
102
RTVSPropertyOp21
70
1
102
RTVSPropertyOp22
70
1
102
RTVSPropertyOp23
70
1
102
RTVSPropertyOp24
70
1
102
RTVSPropertyOp25
70
1
102
RTVSPropertyOp26
70
1
102
RTVSPropertyOp27
70
1
0
XRECORD
5
1099
102
{ACAD_REACTORS
330
1098
102
}
330
1098
100
AcDbXrecord
280
1
102
RTVSPropertyOp0
70
1
102
RTVSPropertyOp1
70
1
102
RTVSPropertyOp2
70
1
102
RTVSPropertyOp3
70
1
102
RTVSPropertyOp4
70
1
102
RTVSPropertyOp5
70
1
102
RTVSPropertyOp6
70
1
102
RTVSPropertyOp7
70
1
102
RTVSPropertyOp8
70
1
102
RTVSPropertyOp9
70
1
102
RTVSPropertyOp10
70
1
102
RTVSPropertyOp11
70
1
102
RTVSPropertyOp12
70
1
102
RTVSPropertyOp13
70
1
102
RTVSPropertyOp14
70
1
102
RTVSPropertyOp15
70
1
102
RTVSPropertyOp16
70
1
102
RTVSPropertyOp17
70
1
102
RTVSPropertyOp18
70
1
102
RTVSPropertyOp19
70
1
102
RTVSPropertyOp20
70
1
102
RTVSPropertyOp21
70
1
102
RTVSPropertyOp22
70
1
102
RTVSPropertyOp23
70
1
102
RTVSPropertyOp24
70
1
102
RTVSPropertyOp25
70
1
102
RTVSPropertyOp26
70
1
102
RTVSPropertyOp27
70
1
0
ENDSEC
0
EOF
