0
SECTION
2
HEADER
9
$ACADVER
1
AC1015
9
$ACADMAINTVER
70
20
9
$DWGCODEPAGE
3
ANSI_1252
9
$INSBASE
10
0.0
20
0.0
30
0.0
9
$EXTMIN
10
-150.000000000000
20
-105.000000000000
30
0.0
9
$EXTMAX
10
150.000000000000
20
105.000000000000
30
0.0
9
$LIMMIN
10
0.0
20
0.0
9
$LIMMAX
10
12.0
20
9.0
9
$ORTHOMODE
70
0
9
$REGENMODE
70
1
9
$FILLMODE
70
1
9
$QTEXTMODE
70
0
9
$MIRRTEXT
70
1
9
$LTSCALE
40
1.0
9
$ATTMODE
70
1
9
$TEXTSIZE
40
0.2
9
$TRACEWID
40
0.05
9
$TEXTSTYLE
7
Standard
9
$CLAYER
8
0
9
$CELTYPE
6
ByLayer
9
$CECOLOR
62
256
9
$CELTSCALE
40
1.0
9
$DISPSILH
70
0
9
$DIMSCALE
40
1.0
9
$DIMASZ
40
2.5
9
$DIMEXO
40
0.625
9
$DIMDLI
40
0.38
9
$DIMRND
40
0.0
9
$DIMDLE
40
0.0
9
$DIMEXE
40
1.25
9
$DIMTP
40
0.0
9
$DIMTM
40
0.000000001
9
$DIMTXT
40
2.5
9
$DIMCEN
40
0.09
9
$DIMTSZ
40
0.0
9
$DIMTOL
70
1
9
$DIMLIM
70
0
9
$DIMTIH
70
0
9
$DIMTOH
70
0
9
$DIMSE1
70
0
9
$DIMSE2
70
0
9
$DIMTAD
70
1
9
$DIMZIN
70
0
9
$DIMBLK
1
VDDIM_DEFAULT
9
$DIMASO
70
1
9
$DIMSHO
70
1
9
$DIMPOST
1

9
$DIMAPOST
1

9
$DIMALT
70
0
9
$DIMALTD
70
2
9
$DIMALTF
40
25.4
9
$DIMLFAC
40
1.00000000000000
9
$DIMTOFL
70
0
9
$DIMTVP
40
0.0
9
$DIMTIX
70
0
9
$DIMSOXD
70
0
9
$DIMSAH
70
0
9
$DIMBLK1
1

9
$DIMBLK2
1

9
$DIMSTYLE
2
BEM-ISBE
9
$DIMCLRD
70
0
9
$DIMCLRE
70
0
9
$DIMCLRT
70
0
9
$DIMTFAC
40
0.5
9
$DIMGAP
40
0.625
9
$DIMJUST
70
0
9
$DIMSD1
70
0
9
$DIMSD2
70
0
9
$DIMTOLJ
70
1
9
$DIMTZIN
70
0
9
$DIMALTZ
70
0
9
$DIMALTTZ
70
0
9
$DIMUPT
70
0
9
$DIMDEC
70
3
9
$DIMTDEC
70
3
9
$DIMALTU
70
2
9
$DIMALTTD
70
2
9
$DIMTXSTY
7
Standard
9
$DIMAUNIT
70
0
9
$DIMADEC
70
3
9
$DIMALTRND
40
0.0
9
$DIMAZIN
70
0
9
$DIMDSEP
70
46
9
$DIMATFIT
70
3
9
$DIMFRAC
70
0
9
$DIMLDRBLK
1

9
$DIMLUNIT
70
2
9
$DIMLWD
70
-2
9
$DIMLWE
70
-2
9
$DIMTMOVE
70
0
9
$LUNITS
70
2
9
$LUPREC
70
4
9
$SKETCHINC
40
0.1
9
$FILLETRAD
40
0.5
9
$AUNITS
70
0
9
$AUPREC
70
0
9
$MENU
1
.
9
$ELEVATION
40
0.0
9
$PELEVATION
40
0.0
9
$THICKNESS
40
0.0
9
$LIMCHECK
70
0
9
$CHAMFERA
40
0.5
9
$CHAMFERB
40
0.5
9
$CHAMFERC
40
1.0
9
$CHAMFERD
40
0.0
9
$SKPOLY
70
0
9
$TDCREATE
40
0.0
9
$TDUCREATE
40
0.0
9
$TDUPDATE
40
0.0
9
$TDUUPDATE
40
0.0
9
$TDINDWG
40
0.0
9
$TDUSRTIMER
40
0.0
9
$USRTIMER
70
1
9
$ANGBASE
50
0.0
9
$ANGDIR
70
0
9
$PDMODE
70
0
9
$PDSIZE
40
0.0
9
$PLINEWID
40
0.0
9
$SPLFRAME
70
0
9
$SPLINETYPE
70
6
9
$SPLINESEGS
70
8
9
$HANDSEED
5
10AB
9
$SURFTAB1
70
6
9
$SURFTAB2
70
6
9
$SURFTYPE
70
6
9
$SURFU
70
6
9
$SURFV
70
6
9
$UCSBASE
2

9
$UCSNAME
2

9
$UCSORG
10
0.0
20
0.0
30
0.0
9
$UCSXDIR
10
1.0
20
0.0
30
0.0
9
$UCSYDIR
10
0.0
20
1.0
30
0.0
9
$UCSORTHOREF
2

9
$UCSORTHOVIEW
70
0
9
$UCSORGTOP
10
0.0
20
0.0
30
0.0
9
$UCSORGBOTTOM
10
0.0
20
0.0
30
0.0
9
$UCSORGLEFT
10
0.0
20
0.0
30
0.0
9
$UCSORGRIGHT
10
0.0
20
0.0
30
0.0
9
$UCSORGFRONT
10
0.0
20
0.0
30
0.0
9
$UCSORGBACK
10
0.0
20
0.0
30
0.0
9
$PUCSBASE
2

9
$PUCSNAME
2

9
$PUCSORG
10
0.0
20
0.0
30
0.0
9
$PUCSXDIR
10
1.0
20
0.0
30
0.0
9
$PUCSYDIR
10
0.0
20
1.0
30
0.0
9
$PUCSORTHOREF
2

9
$PUCSORTHOVIEW
70
0
9
$PUCSORGTOP
10
0.0
20
0.0
30
0.0
9
$PUCSORGBOTTOM
10
0.0
20
0.0
30
0.0
9
$PUCSORGLEFT
10
0.0
20
0.0
30
0.0
9
$PUCSORGRIGHT
10
0.0
20
0.0
30
0.0
9
$PUCSORGFRONT
10
0.0
20
0.0
30
0.0
9
$PUCSORGBACK
10
0.0
20
0.0
30
0.0
9
$USERI1
70
0
9
$USERI2
70
0
9
$USERI3
70
0
9
$USERI4
70
0
9
$USERI5
70
0
9
$USERR1
40
0.0
9
$USERR2
40
0.0
9
$USERR3
40
0.0
9
$USERR4
40
0.0
9
$USERR5
40
0.0
9
$WORLDVIEW
70
1
9
$SHADEDGE
70
3
9
$SHADEDIF
70
70
9
$TILEMODE
70
1
9
$MAXACTVP
70
64
9
$PINSBASE
10
0.0
20
0.0
30
0.0
9
$PLIMCHECK
70
0
9
$PEXTMIN
10
1.000000000000000E+20
20
1.000000000000000E+20
30
1.000000000000000E+20
9
$PEXTMAX
10
-1.000000000000000E+20
20
-1.000000000000000E+20
30
-1.000000000000000E+20
9
$PLIMMIN
10
0.0
20
0.0
9
$PLIMMAX
10
12.0
20
9.0
9
$UNITMODE
70
0
9
$VISRETAIN
70
1
9
$PLINEGEN
70
0
9
$PSLTSCALE
70
1
9
$TREEDEPTH
70
3020
9
$CMLSTYLE
2
Standard
9
$CMLJUST
70
0
9
$CMLSCALE
40
1.0
9
$PROXYGRAPHICS
70
1
9
$MEASUREMENT
70
0
9
$CELWEIGHT
370
-1
9
$ENDCAPS
280
0
9
$JOINSTYLE
280
0
9
$LWDISPLAY
290
0
9
$INSUNITS
70
4
9
$HYPERLINKBASE
1

9
$STYLESHEET
1

9
$XEDIT
290
1
9
$CEPSNTYPE
380
0
9
$PSTYLEMODE
290
0
9
$FINGERPRINTGUID
2
{FAEB1C30-E019-11D5-929B-00C0DF256EC4}
9
$VERSIONGUID
2
{04C5C4E4-4947-4D90-8812-D401569E61F7}
9
$EXTNAMES
290
1
9
$PSVPSCALE
40
0.0
9
$OLESTARTUP
290
0
0
ENDSEC
0
SECTION
2
CLASSES
0
CLASS
1
ACDBDICTIONARYWDFLT
2
AcDbDictionaryWithDefault
3
ObjectDBX Classes
90
0
280
0
281
0
0
CLASS
1
ACDBPLACEHOLDER
2
AcDbPlaceHolder
3
ObjectDBX Classes
90
0
280
0
281
0
0
CLASS
1
LAYOUT
2
AcDbLayout
3
ObjectDBX Classes
90
0
280
0
281
0
0
CLASS
1
MATERIAL
2
AcDbMaterial
3
ObjectDBX Classes
90
1153
280
0
281
0
0
CLASS
1
VISUALSTYLE
2
AcDbVisualStyle
3
ObjectDBX Classes
90
4095
280
0
281
0
0
CLASS
1
TABLESTYLE
2
AcDbTableStyle
3
ObjectDBX Classes
90
4095
280
0
281
0
0
CLASS
1
SCALE
2
AcDbScale
3
ObjectDBX Classes
90
1153
280
0
281
0
0
CLASS
1
MLEADERSTYLE
2
AcDbMLeaderStyle
3
ACDB_MLEADERSTYLE_CLASS
90
4095
280
0
281
0
0
CLASS
1
DICTIONARYVAR
2
AcDbDictionaryVar
3
ObjectDBX Classes
90
0
280
0
281
0
0
CLASS
1
CELLSTYLEMAP
2
AcDbCellStyleMap
3
ObjectDBX Classes
90
1152
280
0
281
0
0
ENDSEC
0
SECTION
2
TABLES
0
TABLE
2
VPORT
5
24A
330
0
100
AcDbSymbolTable
70
1
0
VPORT
5
26B
330
24A
100
AcDbSymbolTableRecord
100
AcDbViewportTableRecord
2
*Active
70
0
10
0.0
20
0.0
11
1.0
21
1.0
12
0.000000000000000
22
0.000000000000000
13
0.0
23
0.0
14
10.0
24
10.0
15
10.0
25
10.0
16
0.0
26
0.0
36
1.0
17
0.0
27
0.0
37
0.0
40
210.000000000000
41
1.42857142857143
42
1.0
43
0.0
44
0.0
50
0.0
51
0.0000000000007958
71
0
72
100
73
1
74
3
75
0
76
0
77
0
78
1
281
0
65
1
110
0.0
120
0.0
130
0.0
111
1.0
121
0.0
131
0.0
112
0.0
122
1.0
132
0.0
79
0
146
0.0
0
ENDTAB
0
TABLE
2
LTYPE
5
247
330
0
100
AcDbSymbolTable
70
25
0
LTYPE
5
256
330
247
100
AcDbSymbolTableRecord
100
AcDbLinetypeTableRecord
2
ByBlock
70
0
3

72
65
73
0
40
0.0
0
LTYPE
5
257
330
247
100
AcDbSymbolTableRecord
100
AcDbLinetypeTableRecord
2
ByLayer
70
0
3

72
65
73
0
40
0.0
0
LTYPE
5
258
330
247
100
AcDbSymbolTableRecord
100
AcDbLinetypeTableRecord
2
Continuous
70
0
3
Solid line
72
65
73
0
40
0.0
0
LTYPE
5
273
330
247
100
AcDbSymbolTableRecord
100
AcDbLinetypeTableRecord
2
CENTER
70
0
3
Center ____ _ ____ _ ____ _ ____ _ ____ _ ____
72
65
73
4
40
2.0
49
1.25
74
0
49
-0.25
74
0
49
0.25
74
0
49
-0.25
74
0
0
LTYPE
5
274
330
247
100
AcDbSymbolTableRecord
100
AcDbLinetypeTableRecord
2
DASHDOT
70
0
3
Dashdot __ . __ . __ . __ . __ . __ . __ . __
72
65
73
4
40
1.0
49
0.5
74
0
49
-0.25
74
0
49
0.0
74
0
49
-0.25
74
0
0
LTYPE
5
275
330
247
100
AcDbSymbolTableRecord
100
AcDbLinetypeTableRecord
2
DASHED
70
0
3
Dashed __ __ __ __ __ __ __ __ __ __ __ __ __ _
72
65
73
2
40
0.75
49
0.5
74
0
49
-0.25
74
0
0
LTYPE
5
276
330
247
100
AcDbSymbolTableRecord
100
AcDbLinetypeTableRecord
2
HIDDEN
70
0
3
Hidden __ __ __ __ __ __ __ __ __ __ __ __ __ __
72
65
73
2
40
0.375
49
0.25
74
0
49
-0.125
74
0
0
LTYPE
5
277
330
247
100
AcDbSymbolTableRecord
100
AcDbLinetypeTableRecord
2
HIDDEN2
70
0
3
Hidden2 _ _ _ _ _ _ _ _ _ _ _ _ _ _ _ _ _
72
65
73
2
40
0.1875
49
0.125
74
0
49
-0.0625
74
0
0
LTYPE
5
278
330
247
100
AcDbSymbolTableRecord
100
AcDbLinetypeTableRecord
2
BORDER
70
0
3
Border __ __ . __ __ . __ __ . __ __ . __ __ .
72
65
73
6
40
1.75
49
0.5
74
0
49
-0.25
74
0
49
0.5
74
0
49
-0.25
74
0
49
0.0
74
0
49
-0.25
74
0
0
LTYPE
5
279
330
247
100
AcDbSymbolTableRecord
100
AcDbLinetypeTableRecord
2
BORDER2
70
0
3
Border2 __.__.__.__.__.__.__.__.__.__.__.
72
65
73
6
40
0.875
49
0.25
74
0
49
-0.125
74
0
49
0.25
74
0
49
-0.125
74
0
49
0.0
74
0
49
-0.125
74
0
0
LTYPE
5
27A
330
247
100
AcDbSymbolTableRecord
100
AcDbLinetypeTableRecord
2
BORDERX2
70
0
3
Borderx2  ____  ____  .  ____  ____  .  ___
72
65
73
6
40
3.5
49
1.0
74
0
49
-0.5
74
0
49
1.0
74
0
49
-0.5
74
0
49
0.0
74
0
49
-0.5
74
0
0
LTYPE
5
27B
330
247
100
AcDbSymbolTableRecord
100
AcDbLinetypeTableRecord
2
CENTER2
70
0
3
Center2  ___ _ ___ _ ___ _ ___ _ ___ _ ___
72
65
73
4
40
1.125
49
0.75
74
0
49
-0.125
74
0
49
0.125
74
0
49
-0.125
74
0
0
LTYPE
5
27C
330
247
100
AcDbSymbolTableRecord
100
AcDbLinetypeTableRecord
2
CENTERX2
70
0
3
Centerx2  ________  __  ________  __  _____
72
65
73
4
40
4.0
49
2.5
74
0
49
-0.5
74
0
49
0.5
74
0
49
-0.5
74
0
0
LTYPE
5
27D
330
247
100
AcDbSymbolTableRecord
100
AcDbLinetypeTableRecord
2
DASHDOT2
70
0
3
Dashdot2  _._._._._._._._._._._._._._._.
72
65
73
4
40
0.5
49
0.25
74
0
49
-0.125
74
0
49
0.0
74
0
49
-0.125
74
0
0
LTYPE
5
27E
330
247
100
AcDbSymbolTableRecord
100
AcDbLinetypeTableRecord
2
DASHDOTX2
70
0
3
Dashdotx2 ____  .  ____  .  ____  .  ___
72
65
73
4
40
2.0
49
1.0
74
0
49
-0.5
74
0
49
0.0
74
0
49
-0.5
74
0
0
LTYPE
5
27F
330
247
100
AcDbSymbolTableRecord
100
AcDbLinetypeTableRecord
2
DASHED2
70
0
3
Dashed2 _ _ _ _ _ _ _ _ _ _ _ _ _ _ _ _ _
72
65
73
2
40
0.375
49
0.25
74
0
49
-0.125
74
0
0
LTYPE
5
280
330
247
100
AcDbSymbolTableRecord
100
AcDbLinetypeTableRecord
2
DASHEDX2
70
0
3
Dashedx2 ____  ____  ____  ____  ____  ___
72
65
73
2
40
1.5
49
1.0
74
0
49
-0.5
74
0
0
LTYPE
5
281
330
247
100
AcDbSymbolTableRecord
100
AcDbLinetypeTableRecord
2
DIVIDE
70
0
3
Divide ____ . . ____ . . ____ . . ____ . . ____
72
65
73
6
40
1.25
49
0.5
74
0
49
-0.25
74
0
49
0.0
74
0
49
-0.25
74
0
49
0.0
74
0
49
-0.25
74
0
0
LTYPE
5
282
330
247
100
AcDbSymbolTableRecord
100
AcDbLinetypeTableRecord
2
DIVIDE2
70
0
3
Divide2 __..__..__..__..__..__..__..__.._
72
65
73
6
40
0.625
49
0.25
74
0
49
-0.125
74
0
49
0.0
74
0
49
-0.125
74
0
49
0.0
74
0
49
-0.125
74
0
0
LTYPE
5
283
330
247
100
AcDbSymbolTableRecord
100
AcDbLinetypeTableRecord
2
DIVIDEX2
70
0
3
Dividex2 ________  .  .  ________  .  .  _
72
65
73
6
40
2.5
49
1.0
74
0
49
-0.5
74
0
49
0.0
74
0
49
-0.5
74
0
49
0.0
74
0
49
-0.5
74
0
0
LTYPE
5
284
330
247
100
AcDbSymbolTableRecord
100
AcDbLinetypeTableRecord
2
DOT
70
0
3
Dot . . . . . . . . . . . . . . . . . . . . . . . .
72
65
73
2
40
0.25
49
0.0
74
0
49
-0.25
74
0
0
LTYPE
5
285
330
247
100
AcDbSymbolTableRecord
100
AcDbLinetypeTableRecord
2
DOT2
70
0
3
Dot2 ........................................
72
65
73
2
40
0.125
49
0.0
74
0
49
-0.125
74
0
0
LTYPE
5
286
330
247
100
AcDbSymbolTableRecord
100
AcDbLinetypeTableRecord
2
DOTX2
70
0
3
Dotx2 .  .  .  .  .  .  .  .  .  .  .  .  .  .
72
65
73
2
40
0.5
49
0.0
74
0
49
-0.5
74
0
0
LTYPE
5
287
330
247
100
AcDbSymbolTableRecord
100
AcDbLinetypeTableRecord
2
HIDDENX2
70
0
3
Hiddenx2 ____ ____ ____ ____ ____ ____ ____
72
65
73
2
40
0.75
49
0.5
74
0
49
-0.25
74
0
0
LTYPE
5
288
330
247
100
AcDbSymbolTableRecord
100
AcDbLinetypeTableRecord
2
PHANTOM
70
0
3
Phantom ______  __  __  ______  __  __  ______
72
65
73
6
40
2.5
49
1.25
74
0
49
-0.25
74
0
49
0.25
74
0
49
-0.25
74
0
49
0.25
74
0
49
-0.25
74
0
0
LTYPE
5
289
330
247
100
AcDbSymbolTableRecord
100
AcDbLinetypeTableRecord
2
PHANTOM2
70
0
3
Phantom2 ___ _ _ ___ _ _ ___ _ _ ___ _ _
72
65
73
6
40
1.25
49
0.625
74
0
49
-0.125
74
0
49
0.125
74
0
49
-0.125
74
0
49
0.125
74
0
49
-0.125
74
0
0
LTYPE
5
28A
330
247
100
AcDbSymbolTableRecord
100
AcDbLinetypeTableRecord
2
PHANTOMX2
70
0
3
Phantomx2 ____________    ____    ____   _
72
65
73
6
40
5.0
49
2.5
74
0
49
-0.5
74
0
49
0.5
74
0
49
-0.5
74
0
49
0.5
74
0
49
-0.5
74
0
0
ENDTAB
0
TABLE
2
LAYER
5
244
330
0
100
AcDbSymbolTable
70
6
0
LAYER
5
252
330
244
100
AcDbSymbolTableRecord
100
AcDbLayerTableRecord
2
0
70
0
62
7
6
Continuous
370
0
390
251
0
LAYER
5
23F
330
244
100
AcDbSymbolTableRecord
100
AcDbLayerTableRecord
2
Bemassung
70
0
 62
   7
6
Continuous
370
0
390
251
0
LAYER
5
240
330
244
100
AcDbSymbolTableRecord
100
AcDbLayerTableRecord
2
Rahmen
70
0
 62
   7
6
Continuous
370
0
390
251
0
LAYER
5
241
330
244
100
AcDbSymbolTableRecord
100
AcDbLayerTableRecord
2
Geo
70
0
 62
   7
6
Continuous
370
0
390
251
0
LAYER
5
33A
330
244
100
AcDbSymbolTableRecord
100
AcDbLayerTableRecord
2
Defpoints
70
0
62
7
6
Continuous
290
0
370
-3
390
251
0
LAYER
5
57E
330
244
100
AcDbSymbolTableRecord
100
AcDbLayerTableRecord
2
Text
70
0
 62
   7
6
Continuous
370
0
390
251
1001
AcAecLayerStandard
1000

1000

0
ENDTAB
0
TABLE
2
STYLE
5
245
330
0
100
AcDbSymbolTable
70
2
0
STYLE
5
253
330
245
100
AcDbSymbolTableRecord
100
AcDbTextStyleTableRecord
2
Standard
70
0
40
0.0
41
1.0
50
0.0
71
0
42
0.2
3
Arial
4

1001
ACAD
1000
Arial
1071
0
0
STYLE
5
132
330
245
100
AcDbSymbolTableRecord
100
AcDbTextStyleTableRecord
2
Beschriftung
70
0
40
0.0
41
1.0
50
0.0
71
0
42
0.2
3
Arial
4

1001
ACAD
1000
Arial
1071
0
1001
AcadAnnotative
1000
AnnotativeData
1070
1
1070
1
0
ENDTAB
0
TABLE
2
VIEW
5
248
330
0
100
AcDbSymbolTable
70
0
0
ENDTAB
0
TABLE
2
UCS
5
249
330
0
100
AcDbSymbolTable
70
0
0
ENDTAB
0
TABLE
2
APPID
5
24B
330
0
100
AcDbSymbolTable
70
13
0
APPID
5
254
330
24B
100
AcDbSymbolTableRecord
100
AcDbRegAppTableRecord
2
ACAD
70
0
0
APPID
5
26C
330
24B
100
AcDbSymbolTableRecord
100
AcDbRegAppTableRecord
2
VD_INVISIBLE_NOT_FOR_READ
70
0
0
APPID
5
26D
330
24B
100
AcDbSymbolTableRecord
100
AcDbRegAppTableRecord
2
VD_TEMPHATCH
70
0
0
APPID
5
26E
330
24B
100
AcDbSymbolTableRecord
100
AcDbRegAppTableRecord
2
VDEXTRAPARAM
70
0
0
APPID
5
26F
330
24B
100
AcDbSymbolTableRecord
100
AcDbRegAppTableRecord
2
PE_URL
70
0
0
APPID
5
270
330
24B
100
AcDbSymbolTableRecord
100
AcDbRegAppTableRecord
2
VD_UNKNOWN
70
0
0
APPID
5
28F
330
24B
100
AcDbSymbolTableRecord
100
AcDbRegAppTableRecord
2
AcadAnnotative
70
0
0
APPID
5
290
330
24B
100
AcDbSymbolTableRecord
100
AcDbRegAppTableRecord
2
ACAD_DSTYLE_DIMJAG
70
0
0
APPID
5
291
330
24B
100
AcDbSymbolTableRecord
100
AcDbRegAppTableRecord
2
ACAD_DSTYLE_DIMTALN
70
0
0
APPID
5
293
330
24B
100
AcDbSymbolTableRecord
100
AcDbRegAppTableRecord
2
ACAD_PSEXT
70
0
0
APPID
5
42A
330
24B
100
AcDbSymbolTableRecord
100
AcDbRegAppTableRecord
2
ACAD_MLEADERVER
70
0
0
APPID
5
532
330
24B
100
AcDbSymbolTableRecord
100
AcDbRegAppTableRecord
2
ACAD_EXEMPT_FROM_CAD_STANDARDS
70
0
0
APPID
5
57F
330
24B
100
AcDbSymbolTableRecord
100
AcDbRegAppTableRecord
2
AcAecLayerStandard
70
0
0
ENDTAB
0
TABLE
2
DIMSTYLE
5
24C
330
0
100
AcDbSymbolTable
70
3
100
AcDbDimStyleTable
71
2
340
27
340
269
0
DIMSTYLE
105
269
330
24C
100
AcDbSymbolTableRecord
100
AcDbDimStyleTableRecord
2
Standard
70
0
172
1
174
1
288
1
340
253
342
23C
0
DIMSTYLE
105
137
330
24C
100
AcDbSymbolTableRecord
100
AcDbDimStyleTableRecord
2
Beschriftung
70
0
41
2.5
42
0.625
44
1.25
73
0
74
0
77
1
140
2.5
147
0.625
172
1
174
1
271
2
288
1
340
253
342
23C
1001
AcadAnnotative
1000
AnnotativeData
1070
1
1070
1
1001
ACAD_DSTYLE_DIMJAG
1070
388
1040
1.5
1001
ACAD_DSTYLE_DIMTALN
1070
392
1070
0
0
DIMSTYLE
105
27
102
{ACAD_REACTORS
330
F10003
330
F10012
330
F10017
330
F1001C
330
F10021
330
F10008
330
F1000D
330
F10026
102
}
330
24C
100
AcDbSymbolTableRecord
100
AcDbDimStyleTableRecord
2
BEM-ISBE
70
0
41
2.5
42
0.625
44
1.25
48
0.000000001
71
1
73
0
74
0
77
1
140
2.5
144
1.00000000000000
146
0.5
147
0.625
171
 3
172
 1
179
 3
271
 3
272
 3
274
 3
340
253
342
23C
1001
ACAD_DSTYLE_DIMJAG
1070
388
1040
1.5
1001
ACAD_DSTYLE_DIMTALN
1070
392
1070
1
0
ENDTAB
0
TABLE
2
BLOCK_RECORD
5
243
330
0
100
AcDbSymbolTable
70
5
0
BLOCK_RECORD
5
261
330
243
100
AcDbSymbolTableRecord
100
AcDbBlockTableRecord
2
*Model_Space
340
FD0
0
BLOCK_RECORD
5
25D
330
243
100
AcDbSymbolTableRecord
100
AcDbBlockTableRecord
2
*Paper_Space
340
FD1
0
BLOCK_RECORD
5
265
330
243
100
AcDbSymbolTableRecord
100
AcDbBlockTableRecord
2
*Paper_Space0
340
0
0
BLOCK_RECORD
5
23C
330
243
100
AcDbSymbolTableRecord
100
AcDbBlockTableRecord
2
VDDIM_DEFAULT
340
0
102
{BLKREFS
102
}
0
BLOCK_RECORD
5
23E
330
243
100
AcDbSymbolTableRecord
100
AcDbBlockTableRecord
2
VDDIM_NONE
340
0
0
BLOCK_RECORD
5
F10002
330
243
100
AcDbSymbolTableRecord
100
AcDbBlockTableRecord
2
*D3
340
0
0
BLOCK_RECORD
5
F10011
330
243
100
AcDbSymbolTableRecord
100
AcDbBlockTableRecord
2
*D6
340
0
0
BLOCK_RECORD
5
F10016
330
243
100
AcDbSymbolTableRecord
100
AcDbBlockTableRecord
2
*D7
340
0
0
BLOCK_RECORD
5
F1001B
330
243
100
AcDbSymbolTableRecord
100
AcDbBlockTableRecord
2
*D8
340
0
0
BLOCK_RECORD
5
F10020
330
243
100
AcDbSymbolTableRecord
100
AcDbBlockTableRecord
2
*D9
340
0
0
BLOCK_RECORD
5
F10007
330
243
100
AcDbSymbolTableRecord
100
AcDbBlockTableRecord
2
*D4
340
0
0
BLOCK_RECORD
5
F1000C
330
243
100
AcDbSymbolTableRecord
100
AcDbBlockTableRecord
2
*D5
340
0
0
BLOCK_RECORD
5
F10025
330
243
100
AcDbSymbolTableRecord
100
AcDbBlockTableRecord
2
*D10
340
0
0
ENDTAB
0
ENDSEC
0
SECTION
2
BLOCKS
0
BLOCK
5
262
330
261
100
AcDbEntity
8
0
100
AcDbBlockBegin
2
*Model_Space
70
0
10
0.0
20
0.0
30
0.0
3
*Model_Space
1

0
ENDBLK
5
263
330
261
100
AcDbEntity
8
0
100
AcDbBlockEnd
0
BLOCK
5
25E
330
25D
100
AcDbEntity
67
1
8
0
100
AcDbBlockBegin
2
*Paper_Space
70
0
10
0.0
20
0.0
30
0.0
3
*Paper_Space
1

0
ENDBLK
5
25F
330
25D
100
AcDbEntity
67
1
8
0
100
AcDbBlockEnd
0
BLOCK
5
266
330
265
100
AcDbEntity
8
0
100
AcDbBlockBegin
2
*Paper_Space0
70
0
10
0.0
20
0.0
30
0.0
3
*Paper_Space0
1

0
VIEWPORT
5
296
102
{ACAD_XDICTIONARY
360
58E
102
}
330
265
100
AcDbEntity
8
0
60
1
100
AcDbViewport
10
0.0
20
0.0
30
0.0
40
10.0
41
10.0
69
0
12
0.0
22
0.0
13
0.0
23
0.0
14
1.0
24
1.0
15
0.0
25
0.0
16
0.0
26
0.0
36
1.0
17
0.0
27
0.0
37
0.0
42
0.0
43
0.0
44
0.0
45
10.0
50
0.0
51
0.0000000000007958
72
100
90
163872
1

281
0
71
0
74
0
110
0.0
120
0.0
130
0.0
111
1.0
121
0.0
131
0.0
112
0.0
122
1.0
132
0.0
79
0
146
0.0
1001
VD_INVISIBLE_NOT_FOR_READ
1000
VD_INVISIBLE_NOT_FOR_READ
0
VIEWPORT
5
297
102
{ACAD_XDICTIONARY
360
590
102
}
330
265
100
AcDbEntity
8
0
60
1
100
AcDbViewport
10
0.0
20
0.0
30
0.0
40
10.0
41
10.0
69
0
12
0.0
22
0.0
13
0.0
23
0.0
14
1.0
24
1.0
15
0.0
25
0.0
16
0.0
26
0.0
36
1.0
17
0.0
27
0.0
37
0.0
42
0.0
43
0.0
44
0.0
45
10.0
50
0.0
51
0.0000000000007958
72
100
90
163872
1

281
0
71
0
74
0
110
0.0
120
0.0
130
0.0
111
1.0
121
0.0
131
0.0
112
0.0
122
1.0
132
0.0
79
0
146
0.0
1001
VD_INVISIBLE_NOT_FOR_READ
1000
VD_INVISIBLE_NOT_FOR_READ
0
ENDBLK
5
267
330
265
100
AcDbEntity
8
0
100
AcDbBlockEnd
0
BLOCK
5
28B
330
23C
100
AcDbEntity
8
0
100
AcDbBlockBegin
2
VDDIM_DEFAULT
70
0
10
0.0
20
0.0
30
0.0
3
VDDIM_DEFAULT
1

0
LWPOLYLINE
5
23D
330
23C
100
AcDbEntity
8
0
6
Continuous
62
0
100
AcDbPolyline
90
4
70
0
43
0.0
10
0.0
20
0.0
10
-1.0
20
-0.1665
10
-1.0
20
0.1665
10
0.0
20
0.0
1001
VDEXTRAPARAM
1071
1
1071
0
1071
0
1040
1.0
1000

1000

1040
0.0
1040
0.0
0
HATCH
5
292
330
23C
100
AcDbEntity
8
0
6
Continuous
62
0
100
AcDbHatch
10
0.0
20
0.0
30
0.0
210
0.0
220
0.0
230
1.0
2
SOLID
70
1
71
0
91
1
92
2
72
0
73
1
93
3
10
0.0
20
0.0
10
-1.0
20
-0.1665
10
-1.0
20
0.1665
97
0
75
0
76
1
98
1
10
0.0
20
0.0
1001
VDEXTRAPARAM
1071
1
1071
0
1071
0
1040
1.0
1000

1000

1040
0.0
1040
0.0
1001
VD_TEMPHATCH
1000
VD_TEMPHATCH
0
ENDBLK
5
28C
330
23C
100
AcDbEntity
8
0
100
AcDbBlockEnd
0
BLOCK
5
28D
330
23E
100
AcDbEntity
8
0
100
AcDbBlockBegin
2
VDDIM_NONE
70
0
10
0.0
20
0.0
30
0.0
3
VDDIM_NONE
1

0
ENDBLK
5
28E
330
23E
100
AcDbEntity
8
0
100
AcDbBlockEnd
  0
BLOCK
  5
F1002A
330
F10002
100
AcDbEntity
  8
0
100
AcDbBlockBegin
  2
*D3
 70
     1
 10
0.0
 20
0.0
 30
0.0
  3
*D3
  1

  0
LINE
  5
F1002B
330
F10002
100
AcDbEntity
  8
Bemassung
 62
     0
370
    -2
100
AcDbLine
10
-36.0044168192477
20
-19.8536507018727
30
0.000000000000000
11
-36.0044168192477
21
50.1463492981273
31
0.000000000000000
  0
LINE
  5
F1002C
330
F10002
100
AcDbEntity
  8
Bemassung
 62
     0
370
    -2
100
AcDbLine
10
-35.8544168192477
20
-19.8536507018727
30
0.000000000000000
11
-35.8544168192477
21
10.1463492981273
31
0.000000000000000
  0
LINE
  5
F1002D
330
F10002
100
AcDbEntity
  8
Bemassung
 62
     0
370
    -2
100
AcDbLine
10
-52.9986187401625
20
-17.8536507018727
30
0.000000000000000
11
-35.8544168192477
21
-17.8536507018727
31
0.000000000000000
  0
INSERT
  5
F1002E
330
F10002
100
AcDbEntity
  8
Bemassung
 62
     0
370
    -2
100
AcDbBlockReference
  2
VDDIM_DEFAULT
10
-36.0044168192477
20
-17.8536507018727
30
0.000000000000000
 41
2.50000000000000
 42
2.50000000000000
 43
2.50000000000000
  0
INSERT
  5
F1002F
330
F10002
100
AcDbEntity
  8
Bemassung
 62
     0
370
    -2
100
AcDbBlockReference
  2
VDDIM_DEFAULT
10
-35.8544168192477
20
-17.8536507018727
30
0.000000000000000
 41
2.50000000000000
 42
2.50000000000000
 43
2.50000000000000
 50
180.000000000000
  0
MTEXT
  5
F10030
330
F10002
100
AcDbEntity
  8
Bemassung
 62
     0
100
AcDbMText
10
-37.2268558671420
20
-17.1869840352061
30
0.000000000000000
 40
2.50000000000000
 41
0.0
 71
     8
 72
     1
  1
0.15 x 45°
 11
1.00000000000000
 21
0.000000000000000
 31
0.0
 73
     1
 44
1.0
1001
ACAD
1000
MTEXTBEGIN
1070
73
1070
1
1070
44
1040
1.0
1070
74
1070
0
1000
MTEXTEND
  0
POINT
  5
F10031
330
F10002
100
AcDbEntity
  8
Bemassung
 62
     0
100
AcDbPoint
10
-36.0044168192477
20
-19.8536507018727
30
0.000000000000000
  0
POINT
  5
F10032
330
F10002
100
AcDbEntity
  8
Bemassung
 62
     0
100
AcDbPoint
10
-35.8544168192477
20
-19.8536507018727
30
0.000000000000000
  0
ENDBLK
  5
F10033
330
F10002
100
AcDbEntity
  8
0
100
AcDbBlockEnd
  0
BLOCK
  5
F10034
330
F10011
100
AcDbEntity
  8
0
100
AcDbBlockBegin
  2
*D6
 70
     1
 10
0.0
 20
0.0
 30
0.0
  3
*D6
  1

  0
LINE
  5
F10035
330
F10011
100
AcDbEntity
  8
Bemassung
 62
     0
370
    -2
100
AcDbLine
10
-36.0044168192477
20
-19.8536507018727
30
0.000000000000000
11
-36.0044168192477
21
50.1463492981273
31
0.000000000000000
  0
LINE
  5
F10036
330
F10011
100
AcDbEntity
  8
Bemassung
 62
     0
370
    -2
100
AcDbLine
10
1.99558318075233
20
9.84634929812726
30
0.000000000000000
11
1.99558318075233
21
24.1463492981273
31
0.000000000000000
  0
LINE
  5
F10037
330
F10011
100
AcDbEntity
  8
Bemassung
 62
     0
370
    -2
100
AcDbLine
10
-36.0044168192477
20
22.1463492981273
30
0.000000000000000
11
1.99558318075233
21
22.1463492981273
31
0.000000000000000
  0
INSERT
  5
F10038
330
F10011
100
AcDbEntity
  8
Bemassung
 62
     0
370
    -2
100
AcDbBlockReference
  2
VDDIM_DEFAULT
10
-36.0044168192477
20
22.1463492981273
30
0.000000000000000
 41
2.50000000000000
 42
2.50000000000000
 43
2.50000000000000
 50
180.000000000000
  0
INSERT
  5
F10039
330
F10011
100
AcDbEntity
  8
Bemassung
 62
     0
370
    -2
100
AcDbBlockReference
  2
VDDIM_DEFAULT
10
1.99558318075233
20
22.1463492981273
30
0.000000000000000
 41
2.50000000000000
 42
2.50000000000000
 43
2.50000000000000
  0
MTEXT
  5
F1003A
330
F10011
100
AcDbEntity
  8
Bemassung
 62
     0
100
AcDbMText
10
-17.0044168192477
20
22.8130159647939
30
0.000000000000000
 40
2.50000000000000
 41
0.0
 71
     8
 72
     1
  1
38
 11
1.00000000000000
 21
0.000000000000000
 31
0.0
 73
     1
 44
1.0
1001
ACAD
1000
MTEXTBEGIN
1070
73
1070
1
1070
44
1040
1.0
1070
74
1070
0
1000
MTEXTEND
  0
POINT
  5
F1003B
330
F10011
100
AcDbEntity
  8
Bemassung
 62
     0
100
AcDbPoint
10
-36.0044168192477
20
-19.8536507018727
30
0.000000000000000
  0
POINT
  5
F1003C
330
F10011
100
AcDbEntity
  8
Bemassung
 62
     0
100
AcDbPoint
10
1.99558318075233
20
9.84634929812726
30
0.000000000000000
  0
ENDBLK
  5
F1003D
330
F10011
100
AcDbEntity
  8
0
100
AcDbBlockEnd
  0
BLOCK
  5
F1003E
330
F10016
100
AcDbEntity
  8
0
100
AcDbBlockBegin
  2
*D7
 70
     1
 10
0.0
 20
0.0
 30
0.0
  3
*D7
  1

  0
LINE
  5
F1003F
330
F10016
100
AcDbEntity
  8
Bemassung
 62
     0
370
    -2
100
AcDbLine
10
-36.0044168192477
20
-19.8536507018727
30
0.000000000000000
11
-36.0044168192477
21
50.1463492981273
31
0.000000000000000
  0
LINE
  5
F10040
330
F10016
100
AcDbEntity
  8
Bemassung
 62
     0
370
    -2
100
AcDbLine
10
2.49558318075233
20
10.1463492981273
30
0.000000000000000
11
2.49558318075233
21
37.1463492981273
31
0.000000000000000
  0
LINE
  5
F10041
330
F10016
100
AcDbEntity
  8
Bemassung
 62
     0
370
    -2
100
AcDbLine
10
-36.0044168192477
20
35.1463492981273
30
0.000000000000000
11
2.49558318075233
21
35.1463492981273
31
0.000000000000000
  0
INSERT
  5
F10042
330
F10016
100
AcDbEntity
  8
Bemassung
 62
     0
370
    -2
100
AcDbBlockReference
  2
VDDIM_DEFAULT
10
-36.0044168192477
20
35.1463492981273
30
0.000000000000000
 41
2.50000000000000
 42
2.50000000000000
 43
2.50000000000000
 50
180.000000000000
  0
INSERT
  5
F10043
330
F10016
100
AcDbEntity
  8
Bemassung
 62
     0
370
    -2
100
AcDbBlockReference
  2
VDDIM_DEFAULT
10
2.49558318075233
20
35.1463492981273
30
0.000000000000000
 41
2.50000000000000
 42
2.50000000000000
 43
2.50000000000000
  0
MTEXT
  5
F10044
330
F10016
100
AcDbEntity
  8
Bemassung
 62
     0
100
AcDbMText
10
-16.7544168192477
20
35.8130159647939
30
0.000000000000000
 40
2.50000000000000
 41
0.0
 71
     8
 72
     1
  1
38.5
 11
1.00000000000000
 21
0.000000000000000
 31
0.0
 73
     1
 44
1.0
1001
ACAD
1000
MTEXTBEGIN
1070
73
1070
1
1070
44
1040
1.0
1070
74
1070
0
1000
MTEXTEND
  0
POINT
  5
F10045
330
F10016
100
AcDbEntity
  8
Bemassung
 62
     0
100
AcDbPoint
10
-36.0044168192477
20
-19.8536507018727
30
0.000000000000000
  0
POINT
  5
F10046
330
F10016
100
AcDbEntity
  8
Bemassung
 62
     0
100
AcDbPoint
10
2.49558318075233
20
10.1463492981273
30
0.000000000000000
  0
ENDBLK
  5
F10047
330
F10016
100
AcDbEntity
  8
0
100
AcDbBlockEnd
  0
BLOCK
  5
F10048
330
F1001B
100
AcDbEntity
  8
0
100
AcDbBlockBegin
  2
*D8
 70
     1
 10
0.0
 20
0.0
 30
0.0
  3
*D8
  1

  0
LINE
  5
F10049
330
F1001B
100
AcDbEntity
  8
Bemassung
 62
     0
370
    -2
100
AcDbLine
10
-8.00441681924767
20
-1.55365070187274
30
0.000000000000000
11
-8.00441681924767
21
-12.8536507018727
31
0.000000000000000
  0
LINE
  5
F1004A
330
F1001B
100
AcDbEntity
  8
Bemassung
 62
     0
370
    -2
100
AcDbLine
10
-36.0044168192477
20
-19.8536507018727
30
0.000000000000000
11
-36.0044168192477
21
50.1463492981273
31
0.000000000000000
  0
LINE
  5
F1004B
330
F1001B
100
AcDbEntity
  8
Bemassung
 62
     0
370
    -2
100
AcDbLine
10
-8.00441681924767
20
-10.8536507018727
30
0.000000000000000
11
-36.0044168192477
21
-10.8536507018727
31
0.000000000000000
  0
INSERT
  5
F1004C
330
F1001B
100
AcDbEntity
  8
Bemassung
 62
     0
370
    -2
100
AcDbBlockReference
  2
VDDIM_DEFAULT
10
-8.00441681924767
20
-10.8536507018727
30
0.000000000000000
 41
2.50000000000000
 42
2.50000000000000
 43
2.50000000000000
  0
INSERT
  5
F1004D
330
F1001B
100
AcDbEntity
  8
Bemassung
 62
     0
370
    -2
100
AcDbBlockReference
  2
VDDIM_DEFAULT
10
-36.0044168192477
20
-10.8536507018727
30
0.000000000000000
 41
2.50000000000000
 42
2.50000000000000
 43
2.50000000000000
 50
180.000000000000
  0
MTEXT
  5
F1004E
330
F1001B
100
AcDbEntity
  8
Bemassung
 62
     0
100
AcDbMText
10
-22.0044168192477
20
-10.1869840352061
30
0.000000000000000
 40
2.50000000000000
 41
0.0
 71
     8
 72
     1
  1
28
 11
1.00000000000000
 21
0.000000000000000
 31
0.0
 73
     1
 44
1.0
1001
ACAD
1000
MTEXTBEGIN
1070
73
1070
1
1070
44
1040
1.0
1070
74
1070
0
1000
MTEXTEND
  0
POINT
  5
F1004F
330
F1001B
100
AcDbEntity
  8
Bemassung
 62
     0
100
AcDbPoint
10
-8.00441681924767
20
-1.55365070187274
30
0.000000000000000
  0
POINT
  5
F10050
330
F1001B
100
AcDbEntity
  8
Bemassung
 62
     0
100
AcDbPoint
10
-36.0044168192477
20
-19.8536507018727
30
0.000000000000000
  0
ENDBLK
  5
F10051
330
F1001B
100
AcDbEntity
  8
0
100
AcDbBlockEnd
  0
BLOCK
  5
F10052
330
F10020
100
AcDbEntity
  8
0
100
AcDbBlockBegin
  2
*D9
 70
     1
 10
0.0
 20
0.0
 30
0.0
  3
*D9
  1

  0
LINE
  5
F10053
330
F10020
100
AcDbEntity
  8
Bemassung
 62
     0
370
    -2
100
AcDbLine
10
46.9955831807523
20
9.14634929812726
30
0.000000000000000
11
46.9955831807523
21
50.1463492981273
31
0.000000000000000
  0
LINE
  5
F10054
330
F10020
100
AcDbEntity
  8
Bemassung
 62
     0
370
    -2
100
AcDbLine
10
-36.0044168192477
20
-19.8536507018727
30
0.000000000000000
11
-36.0044168192477
21
50.1463492981273
31
0.000000000000000
  0
LINE
  5
F10055
330
F10020
100
AcDbEntity
  8
Bemassung
 62
     0
370
    -2
100
AcDbLine
10
46.9955831807523
20
48.1463492981273
30
0.000000000000000
11
-36.0044168192477
21
48.1463492981273
31
0.000000000000000
  0
INSERT
  5
F10056
330
F10020
100
AcDbEntity
  8
Bemassung
 62
     0
370
    -2
100
AcDbBlockReference
  2
VDDIM_DEFAULT
10
46.9955831807523
20
48.1463492981273
30
0.000000000000000
 41
2.50000000000000
 42
2.50000000000000
 43
2.50000000000000
  0
INSERT
  5
F10057
330
F10020
100
AcDbEntity
  8
Bemassung
 62
     0
370
    -2
100
AcDbBlockReference
  2
VDDIM_DEFAULT
10
-36.0044168192477
20
48.1463492981273
30
0.000000000000000
 41
2.50000000000000
 42
2.50000000000000
 43
2.50000000000000
 50
180.000000000000
  0
MTEXT
  5
F10058
330
F10020
100
AcDbEntity
  8
Bemassung
 62
     0
100
AcDbMText
10
5.49558318075233
20
48.8130159647939
30
0.000000000000000
 40
2.50000000000000
 41
0.0
 71
     8
 72
     1
  1
83
 11
1.00000000000000
 21
0.000000000000000
 31
0.0
 73
     1
 44
1.0
1001
ACAD
1000
MTEXTBEGIN
1070
73
1070
1
1070
44
1040
1.0
1070
74
1070
0
1000
MTEXTEND
  0
POINT
  5
F10059
330
F10020
100
AcDbEntity
  8
Bemassung
 62
     0
100
AcDbPoint
10
46.9955831807523
20
9.14634929812726
30
0.000000000000000
  0
POINT
  5
F1005A
330
F10020
100
AcDbEntity
  8
Bemassung
 62
     0
100
AcDbPoint
10
-36.0044168192477
20
-19.8536507018727
30
0.000000000000000
  0
ENDBLK
  5
F1005B
330
F10020
100
AcDbEntity
  8
0
100
AcDbBlockEnd
  0
BLOCK
  5
F1005C
330
F10007
100
AcDbEntity
  8
0
100
AcDbBlockBegin
  2
*D4
 70
     1
 10
0.0
 20
0.0
 30
0.0
  3
*D4
  1

  0
LINE
  5
F1005D
330
F10007
100
AcDbEntity
  8
Bemassung
 62
     0
370
    -2
100
AcDbLine
10
-35.8544168192477
20
-1.85365070187274
30
0.000000000000000
11
-48.0044168192477
21
-1.85365070187274
31
0.000000000000000
  0
LINE
  5
F1005E
330
F10007
100
AcDbEntity
  8
Bemassung
 62
     0
370
    -2
100
AcDbLine
10
-35.8544168192477
20
10.1463492981273
30
0.000000000000000
11
-48.0044168192477
21
10.1463492981273
31
0.000000000000000
  0
LINE
  5
F1005F
330
F10007
100
AcDbEntity
  8
Bemassung
 62
     0
370
    -2
100
AcDbLine
10
-46.0044168192477
20
-1.85365070187274
30
0.000000000000000
11
-46.0044168192477
21
10.1463492981273
31
0.000000000000000
  0
INSERT
  5
F10060
330
F10007
100
AcDbEntity
  8
Bemassung
 62
     0
370
    -2
100
AcDbBlockReference
  2
VDDIM_DEFAULT
10
-46.0044168192477
20
-1.85365070187274
30
0.000000000000000
 41
2.50000000000000
 42
2.50000000000000
 43
2.50000000000000
 50
90.0000000000000
  0
INSERT
  5
F10061
330
F10007
100
AcDbEntity
  8
Bemassung
 62
     0
370
    -2
100
AcDbBlockReference
  2
VDDIM_DEFAULT
10
-46.0044168192477
20
10.1463492981273
30
0.000000000000000
 41
2.50000000000000
 42
2.50000000000000
 43
2.50000000000000
 50
270.000000000000
  0
MTEXT
  5
F10062
330
F10007
100
AcDbEntity
  8
Bemassung
 62
     0
100
AcDbMText
10
-46.6710834859143
20
3.82423600567714
30
0.000000000000000
 40
2.50000000000000
 41
0.0
 71
     8
 72
     1
  1
Ø12
 11
6.12323399573677e-17
 21
1.00000000000000
 31
0.0
 73
     1
 44
1.0
1001
ACAD
1000
MTEXTBEGIN
1070
73
1070
1
1070
44
1040
1.0
1070
74
1070
0
1000
MTEXTEND
  0
POINT
  5
F10063
330
F10007
100
AcDbEntity
  8
Bemassung
 62
     0
100
AcDbPoint
10
-35.8544168192477
20
-1.85365070187274
30
0.000000000000000
  0
POINT
  5
F10064
330
F10007
100
AcDbEntity
  8
Bemassung
 62
     0
100
AcDbPoint
10
-35.8544168192477
20
10.1463492981273
30
0.000000000000000
  0
ENDBLK
  5
F10065
330
F10007
100
AcDbEntity
  8
0
100
AcDbBlockEnd
  0
BLOCK
  5
F10066
330
F1000C
100
AcDbEntity
  8
0
100
AcDbBlockBegin
  2
*D5
 70
     1
 10
0.0
 20
0.0
 30
0.0
  3
*D5
  1

  0
LINE
  5
F10067
330
F1000C
100
AcDbEntity
  8
Bemassung
 62
     0
370
    -2
100
AcDbLine
10
-8.00441681924767
20
-1.55365070187274
30
0.000000000000000
11
1.99558318075233
21
-1.55365070187274
31
0.000000000000000
  0
LINE
  5
F10068
330
F1000C
100
AcDbEntity
  8
Bemassung
 62
     0
370
    -2
100
AcDbLine
10
-8.00441681924767
20
9.84634929812726
30
0.000000000000000
11
1.99558318075233
21
9.84634929812726
31
0.000000000000000
  0
LINE
  5
F10069
330
F1000C
100
AcDbEntity
  8
Bemassung
 62
     0
370
    -2
100
AcDbLine
10
-0.00441681924766613
20
-23.7436959943465
30
0.000000000000000
11
-0.00441681924766613
21
9.84634929812726
31
0.000000000000000
  0
INSERT
  5
F1006A
330
F1000C
100
AcDbEntity
  8
Bemassung
 62
     0
370
    -2
100
AcDbBlockReference
  2
VDDIM_DEFAULT
10
-0.00441681924766613
20
-1.55365070187274
30
0.000000000000000
 41
2.50000000000000
 42
2.50000000000000
 43
2.50000000000000
 50
90.0000000000000
  0
INSERT
  5
F1006B
330
F1000C
100
AcDbEntity
  8
Bemassung
 62
     0
370
    -2
100
AcDbBlockReference
  2
VDDIM_DEFAULT
10
-0.00441681924766613
20
9.84634929812726
30
0.000000000000000
 41
2.50000000000000
 42
2.50000000000000
 43
2.50000000000000
 50
270.000000000000
  0
MTEXT
  5
F1006C
330
F1000C
100
AcDbEntity
  8
Bemassung
 62
     0
100
AcDbMText
10
-0.671083485914333
20
-13.9394079505080
30
0.000000000000000
 40
2.50000000000000
 41
0.0
 71
     8
 72
     1
  1
Ø11.4
 11
6.12323399573677e-17
 21
1.00000000000000
 31
0.0
 73
     1
 44
1.0
1001
ACAD
1000
MTEXTBEGIN
1070
73
1070
1
1070
44
1040
1.0
1070
74
1070
0
1000
MTEXTEND
  0
POINT
  5
F1006D
330
F1000C
100
AcDbEntity
  8
Bemassung
 62
     0
100
AcDbPoint
10
-8.00441681924767
20
-1.55365070187274
30
0.000000000000000
  0
POINT
  5
F1006E
330
F1000C
100
AcDbEntity
  8
Bemassung
 62
     0
100
AcDbPoint
10
-8.00441681924767
20
9.84634929812726
30
0.000000000000000
  0
ENDBLK
  5
F1006F
330
F1000C
100
AcDbEntity
  8
0
100
AcDbBlockEnd
  0
BLOCK
  5
F10070
330
F10025
100
AcDbEntity
  8
0
100
AcDbBlockBegin
  2
*D10
 70
     1
 10
0.0
 20
0.0
 30
0.0
  3
*D10
  1

  0
LINE
  5
F10071
330
F10025
100
AcDbEntity
  8
Bemassung
 62
     0
370
    -2
100
AcDbLine
10
45.9955831807523
20
10.1463492981273
30
0.000000000000000
11
62.1447753043590
21
10.1463492981273
31
0.000000000000000
  0
LINE
  5
F10072
330
F10025
100
AcDbEntity
  8
Bemassung
 62
     0
370
    -2
100
AcDbLine
10
45.9955831807523
20
-1.85365070187274
30
0.000000000000000
11
62.1447753043590
21
-1.85365070187274
31
0.000000000000000
  0
LINE
  5
F10073
330
F10025
100
AcDbEntity
  8
Bemassung
 62
     0
370
    -2
100
AcDbLine
10
60.1447753043590
20
10.1463492981273
30
0.000000000000000
11
60.1447753043590
21
-1.85365070187274
31
0.000000000000000
  0
INSERT
  5
F10074
330
F10025
100
AcDbEntity
  8
Bemassung
 62
     0
370
    -2
100
AcDbBlockReference
  2
VDDIM_DEFAULT
10
60.1447753043590
20
10.1463492981273
30
0.000000000000000
 41
2.50000000000000
 42
2.50000000000000
 43
2.50000000000000
 50
270.000000000000
  0
INSERT
  5
F10075
330
F10025
100
AcDbEntity
  8
Bemassung
 62
     0
370
    -2
100
AcDbBlockReference
  2
VDDIM_DEFAULT
10
60.1447753043590
20
-1.85365070187274
30
0.000000000000000
 41
2.50000000000000
 42
2.50000000000000
 43
2.50000000000000
 50
90.0000000000000
  0
MTEXT
  5
F10076
330
F10025
100
AcDbEntity
  8
Bemassung
 62
     0
100
AcDbMText
10
59.4781086376924
20
4.04909225828706
30
0.000000000000000
 40
2.50000000000000
 41
0.0
 71
     8
 72
     1
  1
Ø12
 11
6.12323399573677e-17
 21
1.00000000000000
 31
0.0
 73
     1
 44
1.0
1001
ACAD
1000
MTEXTBEGIN
1070
73
1070
1
1070
44
1040
1.0
1070
74
1070
0
1000
MTEXTEND
  0
POINT
  5
F10077
330
F10025
100
AcDbEntity
  8
Bemassung
 62
     0
100
AcDbPoint
10
45.9955831807523
20
10.1463492981273
30
0.000000000000000
  0
POINT
  5
F10078
330
F10025
100
AcDbEntity
  8
Bemassung
 62
     0
100
AcDbPoint
10
45.9955831807523
20
-1.85365070187274
30
0.000000000000000
  0
ENDBLK
  5
F10079
330
F10025
100
AcDbEntity
  8
0
100
AcDbBlockEnd
0
ENDSEC
0
SECTION
2
ENTITIES
  0
DIMENSION
  5
F10003
330
261
100
AcDbEntity
  8
Bemassung
100
AcDbDimension
  2
*D3
10
-35.8544168192477
20
-17.8536507018727
30
0.000000000000000
11
-37.2268558671420
21
-17.1869840352061
31
0.000000000000000
 70
32
 1
0.15 x 45°
 71
     8
  3
BEM-ISBE
100
AcDbAlignedDimension
13
-36.0044168192477
23
-19.8536507018727
33
0.000000000000000
14
-35.8544168192477
24
-19.8536507018727
34
0.000000000000000
100
AcDbRotatedDimension
1001
ACAD
1000
DSTYLE
1002
{
1070
284
1070
8
1070
78
1070
8
1070
144
1040
1.00000000000000
1070
147
1040
0.625
1070
 72
1070
 0
1070
 71
1070
 0
1002
}
  0
DIMENSION
  5
F10012
330
261
100
AcDbEntity
  8
Bemassung
100
AcDbDimension
  2
*D6
10
1.99558318075233
20
22.1463492981273
30
0.000000000000000
11
-17.0044168192477
21
22.8130159647939
31
0.000000000000000
 70
32
 1
38
 71
     8
  3
BEM-ISBE
100
AcDbAlignedDimension
13
-36.0044168192477
23
-19.8536507018727
33
0.000000000000000
14
1.99558318075233
24
9.84634929812726
34
0.000000000000000
100
AcDbRotatedDimension
1001
ACAD
1000
DSTYLE
1002
{
1070
284
1070
8
1070
78
1070
8
1070
144
1040
1.00000000000000
1070
147
1040
0.625
1070
 72
1070
 0
1070
 71
1070
 0
1002
}
  0
DIMENSION
  5
F10017
330
261
100
AcDbEntity
  8
Bemassung
100
AcDbDimension
  2
*D7
10
2.49558318075233
20
35.1463492981273
30
0.000000000000000
11
-16.7544168192477
21
35.8130159647939
31
0.000000000000000
 70
32
 1
38.5
 71
     8
  3
BEM-ISBE
100
AcDbAlignedDimension
13
-36.0044168192477
23
-19.8536507018727
33
0.000000000000000
14
2.49558318075233
24
10.1463492981273
34
0.000000000000000
100
AcDbRotatedDimension
1001
ACAD
1000
DSTYLE
1002
{
1070
284
1070
8
1070
78
1070
8
1070
144
1040
1.00000000000000
1070
147
1040
0.625
1070
 72
1070
 0
1070
 71
1070
 0
1002
}
  0
DIMENSION
  5
F1001C
330
261
100
AcDbEntity
  8
Bemassung
100
AcDbDimension
  2
*D8
10
-36.0044168192477
20
-10.8536507018727
30
0.000000000000000
11
-22.0044168192477
21
-10.1869840352061
31
0.000000000000000
 70
32
 1
28
 71
     8
  3
BEM-ISBE
100
AcDbAlignedDimension
13
-8.00441681924767
23
-1.55365070187274
33
0.000000000000000
14
-36.0044168192477
24
-19.8536507018727
34
0.000000000000000
100
AcDbRotatedDimension
1001
ACAD
1000
DSTYLE
1002
{
1070
284
1070
8
1070
78
1070
8
1070
144
1040
1.00000000000000
1070
147
1040
0.625
1070
 72
1070
 0
1070
 71
1070
 0
1002
}
  0
DIMENSION
  5
F10021
330
261
100
AcDbEntity
  8
Bemassung
100
AcDbDimension
  2
*D9
10
-36.0044168192477
20
48.1463492981273
30
0.000000000000000
11
5.49558318075233
21
48.8130159647939
31
0.000000000000000
 70
32
 1
83
 71
     8
  3
BEM-ISBE
100
AcDbAlignedDimension
13
46.9955831807523
23
9.14634929812726
33
0.000000000000000
14
-36.0044168192477
24
-19.8536507018727
34
0.000000000000000
100
AcDbRotatedDimension
1001
ACAD
1000
DSTYLE
1002
{
1070
284
1070
8
1070
78
1070
8
1070
144
1040
1.00000000000000
1070
147
1040
0.625
1070
 72
1070
 0
1070
 71
1070
 0
1002
}
  0
DIMENSION
  5
F10008
330
261
100
AcDbEntity
  8
Bemassung
100
AcDbDimension
  2
*D4
10
-46.0044168192477
20
10.1463492981273
30
0.000000000000000
11
-46.6710834859143
21
3.82423600567714
31
0.000000000000000
 70
32
 1
Ø12
 71
     8
  3
BEM-ISBE
100
AcDbAlignedDimension
13
-35.8544168192477
23
-1.85365070187274
33
0.000000000000000
14
-35.8544168192477
24
10.1463492981273
34
0.000000000000000
50
90.0000000000000
100
AcDbRotatedDimension
1001
ACAD
1000
DSTYLE
1002
{
1070
284
1070
8
1070
78
1070
8
1070
144
1040
1.00000000000000
1070
147
1040
0.625
1070
 72
1070
 0
1070
 71
1070
 0
1002
}
  0
DIMENSION
  5
F1000D
330
261
100
AcDbEntity
  8
Bemassung
100
AcDbDimension
  2
*D5
10
-0.00441681924766613
20
9.84634929812726
30
0.000000000000000
11
-0.671083485914333
21
-13.9394079505080
31
0.000000000000000
 70
32
 1
Ø11.4
 71
     8
  3
BEM-ISBE
100
AcDbAlignedDimension
13
-8.00441681924767
23
-1.55365070187274
33
0.000000000000000
14
-8.00441681924767
24
9.84634929812726
34
0.000000000000000
50
90.0000000000000
100
AcDbRotatedDimension
1001
ACAD
1000
DSTYLE
1002
{
1070
284
1070
8
1070
78
1070
8
1070
144
1040
1.00000000000000
1070
147
1040
0.625
1070
 72
1070
 0
1070
 71
1070
 0
1002
}
  0
DIMENSION
  5
F10026
330
261
100
AcDbEntity
  8
Bemassung
100
AcDbDimension
  2
*D10
10
60.1447753043590
20
-1.85365070187274
30
0.000000000000000
11
59.4781086376924
21
4.04909225828706
31
0.000000000000000
 70
32
 1
Ø12
 71
     8
  3
BEM-ISBE
100
AcDbAlignedDimension
13
45.9955831807523
23
10.1463492981273
33
0.000000000000000
14
45.9955831807523
24
-1.85365070187274
34
0.000000000000000
50
90.0000000000000
100
AcDbRotatedDimension
1001
ACAD
1000
DSTYLE
1002
{
1070
284
1070
8
1070
78
1070
8
1070
144
1040
1.00000000000000
1070
147
1040
0.625
1070
 72
1070
 0
1070
 71
1070
 0
1002
}
  0
LINE
  5
F1007A
330
F1007B
100
AcDbEntity
8
Geo
100
AcDbLine
10
-36.0044168192477
20
4.14634929812726
30
0.000000000000000
11
-36.0044168192477
21
9.99634929812726
31
0.000000000000000
  0
LINE
  5
F1007C
330
F1007D
100
AcDbEntity
8
Geo
100
AcDbLine
10
-36.0044168192477
20
9.99634929812726
30
0.000000000000000
11
-35.8544168192477
21
10.1463492981273
31
0.000000000000000
  0
LINE
  5
F1007E
330
F1007F
100
AcDbEntity
8
Geo
100
AcDbLine
10
-35.8544168192477
20
10.1463492981273
30
0.000000000000000
11
-8.00441681924767
21
10.1463492981273
31
0.000000000000000
  0
LINE
  5
F10080
330
F10081
100
AcDbEntity
8
Geo
100
AcDbLine
10
-8.00441681924767
20
10.1463492981273
30
0.000000000000000
11
-8.00441681924767
21
9.84634929812726
31
0.000000000000000
  0
LINE
  5
F10082
330
F10083
100
AcDbEntity
8
Geo
100
AcDbLine
10
-8.00441681924767
20
9.84634929812726
30
0.000000000000000
11
1.99558318075233
21
9.84634929812726
31
0.000000000000000
  0
LINE
  5
F10084
330
F10085
100
AcDbEntity
8
Geo
100
AcDbLine
10
1.99558318075233
20
9.84634929812726
30
0.000000000000000
11
2.49558318075233
21
10.1463492981273
31
0.000000000000000
  0
LINE
  5
F10086
330
F10087
100
AcDbEntity
8
Geo
100
AcDbLine
10
2.49558318075233
20
10.1463492981273
30
0.000000000000000
11
45.9955831807523
21
10.1463492981273
31
0.000000000000000
  0
LINE
  5
F10088
330
F10089
100
AcDbEntity
8
Geo
100
AcDbLine
10
45.9955831807523
20
10.1463492981273
30
0.000000000000000
11
46.9955831807523
21
9.14634929812726
31
0.000000000000000
  0
LINE
  5
F1008A
330
F1008B
100
AcDbEntity
8
Geo
100
AcDbLine
10
-36.0044168192477
20
9.99631129466547
30
0.000000000000000
11
-35.9044168192477
21
10.0954016570703
31
0.000000000000000
  0
LINE
  5
F1008C
330
F1008D
100
AcDbEntity
8
Geo
100
AcDbLine
10
-35.9044168192477
20
10.0954016570703
30
0.000000000000000
11
-35.9044168192477
21
10.0954016570703
31
0.000000000000000
  0
LINE
  5
F1008E
330
F1008F
100
AcDbEntity
8
Geo
100
AcDbLine
10
-35.9044168192477
20
10.0954016570703
30
0.000000000000000
11
-35.8044168192477
21
10.1430162734245
31
0.000000000000000
  0
LINE
  5
F10090
330
F10091
100
AcDbEntity
8
Geo
100
AcDbLine
10
-35.8044168192477
20
10.1430162734245
30
0.000000000000000
11
-35.7044168192477
21
10.1388508604971
31
0.000000000000000
  0
LINE
  5
F10092
330
F10093
100
AcDbEntity
8
Geo
100
AcDbLine
10
-35.7044168192477
20
10.1388508604971
30
0.000000000000000
11
-35.6044168192477
21
10.1330209023340
31
0.000000000000000
  0
LINE
  5
F10094
330
F10095
100
AcDbEntity
8
Geo
100
AcDbLine
10
-35.6044168192477
20
10.1330209023340
30
0.000000000000000
11
-35.5044168192477
21
10.1255280183306
31
0.000000000000000
  0
LINE
  5
F10096
330
F10097
100
AcDbEntity
8
Geo
100
AcDbLine
10
-35.5044168192477
20
10.1255280183306
30
0.000000000000000
11
-35.4044168192477
21
10.1163742897954
31
0.000000000000000
  0
LINE
  5
F10098
330
F10099
100
AcDbEntity
8
Geo
100
AcDbLine
10
-35.4044168192477
20
10.1163742897954
30
0.000000000000000
11
-35.3044168192477
21
10.1055622593719
31
0.000000000000000
  0
LINE
  5
F1009A
330
F1009B
100
AcDbEntity
8
Geo
100
AcDbLine
10
-35.3044168192477
20
10.1055622593719
30
0.000000000000000
11
-35.2044168192477
21
10.0930949303323
31
0.000000000000000
  0
LINE
  5
F1009C
330
F1009D
100
AcDbEntity
8
Geo
100
AcDbLine
10
-35.2044168192477
20
10.0930949303323
30
0.000000000000000
11
-35.1044168192477
21
10.0789757657435
31
0.000000000000000
  0
LINE
  5
F1009E
330
F1009F
100
AcDbEntity
8
Geo
100
AcDbLine
10
-35.1044168192477
20
10.0789757657435
30
0.000000000000000
11
-35.0044168192477
21
10.0632086875048
31
0.000000000000000
  0
LINE
  5
F100A0
330
F100A1
100
AcDbEntity
8
Geo
100
AcDbLine
10
-35.0044168192477
20
10.0632086875048
30
0.000000000000000
11
-34.9044168192477
21
10.0457980752588
31
0.000000000000000
  0
LINE
  5
F100A2
330
F100A3
100
AcDbEntity
8
Geo
100
AcDbLine
10
-34.9044168192477
20
10.0457980752588
30
0.000000000000000
11
-34.8044168192477
21
10.0267487651747
31
0.000000000000000
  0
LINE
  5
F100A4
330
F100A5
100
AcDbEntity
8
Geo
100
AcDbLine
10
-34.8044168192477
20
10.0267487651747
30
0.000000000000000
11
-34.7044168192477
21
10.0060660486051
31
0.000000000000000
  0
LINE
  5
F100A6
330
F100A7
100
AcDbEntity
8
Geo
100
AcDbLine
10
-34.7044168192477
20
10.0060660486051
30
0.000000000000000
11
-34.6044168192477
21
9.98375567061597
31
0.000000000000000
  0
LINE
  5
F100A8
330
F100A9
100
AcDbEntity
8
Geo
100
AcDbLine
10
-34.6044168192477
20
9.98375567061597
30
0.000000000000000
11
-34.5044168192477
21
9.95982382839113
31
0.000000000000000
  0
LINE
  5
F100AA
330
F100AB
100
AcDbEntity
8
Geo
100
AcDbLine
10
-34.5044168192477
20
9.95982382839113
30
0.000000000000000
11
-34.4044168192477
21
9.93427716951065
31
0.000000000000000
  0
LINE
  5
F100AC
330
F100AD
100
AcDbEntity
8
Geo
100
AcDbLine
10
-34.4044168192477
20
9.93427716951065
30
0.000000000000000
11
-34.3044168192477
21
9.90712279010438
31
0.000000000000000
  0
LINE
  5
F100AE
330
F100AF
100
AcDbEntity
8
Geo
100
AcDbLine
10
-34.3044168192477
20
9.90712279010438
30
0.000000000000000
11
-34.2044168192477
21
9.87836823288090
31
0.000000000000000
  0
LINE
  5
F100B0
330
F100B1
100
AcDbEntity
8
Geo
100
AcDbLine
10
-34.2044168192477
20
9.87836823288090
30
0.000000000000000
11
-34.1044168192477
21
9.84802148503232
31
0.000000000000000
  0
LINE
  5
F100B2
330
F100B3
100
AcDbEntity
8
Geo
100
AcDbLine
10
-34.1044168192477
20
9.84802148503232
30
0.000000000000000
11
-34.0044168192477
21
9.81609097601569
31
0.000000000000000
  0
LINE
  5
F100B4
330
F100B5
100
AcDbEntity
8
Geo
100
AcDbLine
10
-34.0044168192477
20
9.81609097601569
30
0.000000000000000
11
-33.9044168192477
21
9.78258557521153
31
0.000000000000000
  0
LINE
  5
F100B6
330
F100B7
100
AcDbEntity
8
Geo
100
AcDbLine
10
-33.9044168192477
20
9.78258557521153
30
0.000000000000000
11
-33.8044168192477
21
9.74751458946020
31
0.000000000000000
  0
LINE
  5
F100B8
330
F100B9
100
AcDbEntity
8
Geo
100
AcDbLine
10
-33.8044168192477
20
9.74751458946020
30
0.000000000000000
11
-33.7044168192477
21
9.71088776047666
31
0.000000000000000
  0
LINE
  5
F100BA
330
F100BB
100
AcDbEntity
8
Geo
100
AcDbLine
10
-33.7044168192477
20
9.71088776047666
30
0.000000000000000
11
-33.6044168192477
21
9.67271526214457
31
0.000000000000000
  0
LINE
  5
F100BC
330
F100BD
100
AcDbEntity
8
Geo
100
AcDbLine
10
-33.6044168192477
20
9.67271526214457
30
0.000000000000000
11
-33.5044168192477
21
9.63300769769024
31
0.000000000000000
  0
LINE
  5
F100BE
330
F100BF
100
AcDbEntity
8
Geo
100
AcDbLine
10
-33.5044168192477
20
9.63300769769024
30
0.000000000000000
11
-33.4044168192477
21
9.59177609673737
31
0.000000000000000
  0
LINE
  5
F100C0
330
F100C1
100
AcDbEntity
8
Geo
100
AcDbLine
10
-33.4044168192477
20
9.59177609673737
30
0.000000000000000
11
-33.3044168192477
21
9.54903191224332
31
0.000000000000000
  0
LINE
  5
F100C2
330
F100C3
100
AcDbEntity
8
Geo
100
AcDbLine
10
-33.3044168192477
20
9.54903191224332
30
0.000000000000000
11
-33.2044168192477
21
9.50478701731784
31
0.000000000000000
  0
LINE
  5
F100C4
330
F100C5
100
AcDbEntity
8
Geo
100
AcDbLine
10
-33.2044168192477
20
9.50478701731784
30
0.000000000000000
11
-33.1044168192477
21
9.45905370192501
31
0.000000000000000
  0
LINE
  5
F100C6
330
F100C7
100
AcDbEntity
8
Geo
100
AcDbLine
10
-33.1044168192477
20
9.45905370192501
30
0.000000000000000
11
-33.0044168192477
21
9.41184466946950
31
0.000000000000000
  0
LINE
  5
F100C8
330
F100C9
100
AcDbEntity
8
Geo
100
AcDbLine
10
-33.0044168192477
20
9.41184466946950
30
0.000000000000000
11
-32.9044168192477
21
9.36317303326787
31
0.000000000000000
  0
LINE
  5
F100CA
330
F100CB
100
AcDbEntity
8
Geo
100
AcDbLine
10
-32.9044168192477
20
9.36317303326787
30
0.000000000000000
11
-32.8044168192477
21
9.31305231290612
31
0.000000000000000
  0
LINE
  5
F100CC
330
F100CD
100
AcDbEntity
8
Geo
100
AcDbLine
10
-32.8044168192477
20
9.31305231290612
30
0.000000000000000
11
-32.7044168192477
21
9.26149643048430
31
0.000000000000000
  0
LINE
  5
F100CE
330
F100CF
100
AcDbEntity
8
Geo
100
AcDbLine
10
-32.7044168192477
20
9.26149643048430
30
0.000000000000000
11
-32.6044168192477
21
9.20851970674934
31
0.000000000000000
  0
LINE
  5
F100D0
330
F100D1
100
AcDbEntity
8
Geo
100
AcDbLine
10
-32.6044168192477
20
9.20851970674934
30
0.000000000000000
11
-32.5044168192477
21
9.15413685711720
31
0.000000000000000
  0
LINE
  5
F100D2
330
F100D3
100
AcDbEntity
8
Geo
100
AcDbLine
10
-32.5044168192477
20
9.15413685711720
30
0.000000000000000
11
-32.4044168192477
21
9.09836298758533
31
0.000000000000000
  0
LINE
  5
F100D4
330
F100D5
100
AcDbEntity
8
Geo
100
AcDbLine
10
-32.4044168192477
20
9.09836298758533
30
0.000000000000000
11
-32.3044168192477
21
9.04121359053663
31
0.000000000000000
  0
LINE
  5
F100D6
330
F100D7
100
AcDbEntity
8
Geo
100
AcDbLine
10
-32.3044168192477
20
9.04121359053663
30
0.000000000000000
11
-32.2044168192477
21
8.98270454043615
31
0.000000000000000
  0
LINE
  5
F100D8
330
F100D9
100
AcDbEntity
8
Geo
100
AcDbLine
10
-32.2044168192477
20
8.98270454043615
30
0.000000000000000
11
-32.1044168192477
21
8.92285208942159
31
0.000000000000000
  0
LINE
  5
F100DA
330
F100DB
100
AcDbEntity
8
Geo
100
AcDbLine
10
-32.1044168192477
20
8.92285208942159
30
0.000000000000000
11
-32.0044168192477
21
8.86167286278895
31
0.000000000000000
  0
LINE
  5
F100DC
330
F100DD
100
AcDbEntity
8
Geo
100
AcDbLine
10
-32.0044168192477
20
8.86167286278895
30
0.000000000000000
11
-31.9044168192477
21
8.79918385437445
31
0.000000000000000
  0
LINE
  5
F100DE
330
F100DF
100
AcDbEntity
8
Geo
100
AcDbLine
10
-31.9044168192477
20
8.79918385437445
30
0.000000000000000
11
-31.8044168192477
21
8.73540242183419
31
0.000000000000000
  0
LINE
  5
F100E0
330
F100E1
100
AcDbEntity
8
Geo
100
AcDbLine
10
-31.8044168192477
20
8.73540242183419
30
0.000000000000000
11
-31.7044168192477
21
8.67034628182265
31
0.000000000000000
  0
LINE
  5
F100E2
330
F100E3
100
AcDbEntity
8
Geo
100
AcDbLine
10
-31.7044168192477
20
8.67034628182265
30
0.000000000000000
11
-31.6044168192477
21
8.60403350507153
31
0.000000000000000
  0
LINE
  5
F100E4
330
F100E5
100
AcDbEntity
8
Geo
100
AcDbLine
10
-31.6044168192477
20
8.60403350507153
30
0.000000000000000
11
-31.5044168192477
21
8.53648251137019
31
0.000000000000000
  0
LINE
  5
F100E6
330
F100E7
100
AcDbEntity
8
Geo
100
AcDbLine
10
-31.5044168192477
20
8.53648251137019
30
0.000000000000000
11
-31.4044168192477
21
8.46771206444920
31
0.000000000000000
  0
LINE
  5
F100E8
330
F100E9
100
AcDbEntity
8
Geo
100
AcDbLine
10
-31.4044168192477
20
8.46771206444920
30
0.000000000000000
11
-31.3044168192477
21
8.39774126676830
31
0.000000000000000
  0
LINE
  5
F100EA
330
F100EB
100
AcDbEntity
8
Geo
100
AcDbLine
10
-31.3044168192477
20
8.39774126676830
30
0.000000000000000
11
-31.2044168192477
21
8.32658955421025
31
0.000000000000000
  0
LINE
  5
F100EC
330
F100ED
100
AcDbEntity
8
Geo
100
AcDbLine
10
-31.2044168192477
20
8.32658955421025
30
0.000000000000000
11
-31.1044168192477
21
8.25427669068217
31
0.000000000000000
  0
LINE
  5
F100EE
330
F100EF
100
AcDbEntity
8
Geo
100
AcDbLine
10
-31.1044168192477
20
8.25427669068217
30
0.000000000000000
11
-31.0044168192477
21
8.18082276262560
31
0.000000000000000
  0
LINE
  5
F100F0
330
F100F1
100
AcDbEntity
8
Geo
100
AcDbLine
10
-31.0044168192477
20
8.18082276262560
30
0.000000000000000
11
-30.9044168192477
21
8.10624817343716
31
0.000000000000000
  0
LINE
  5
F100F2
330
F100F3
100
AcDbEntity
8
Geo
100
AcDbLine
10
-30.9044168192477
20
8.10624817343716
30
0.000000000000000
11
-30.8044168192477
21
8.03057363780098
31
0.000000000000000
  0
LINE
  5
F100F4
330
F100F5
100
AcDbEntity
8
Geo
100
AcDbLine
10
-30.8044168192477
20
8.03057363780098
30
0.000000000000000
11
-30.7044168192477
21
7.95382017593483
31
0.000000000000000
  0
LINE
  5
F100F6
330
F100F7
100
AcDbEntity
8
Geo
100
AcDbLine
10
-30.7044168192477
20
7.95382017593483
30
0.000000000000000
11
-30.6044168192477
21
7.87600910775125
31
0.000000000000000
  0
LINE
  5
F100F8
330
F100F9
100
AcDbEntity
8
Geo
100
AcDbLine
10
-30.6044168192477
20
7.87600910775125
30
0.000000000000000
11
-30.5044168192477
21
7.79716204693553
31
0.000000000000000
  0
LINE
  5
F100FA
330
F100FB
100
AcDbEntity
8
Geo
100
AcDbLine
10
-30.5044168192477
20
7.79716204693553
30
0.000000000000000
11
-30.4044168192477
21
7.71730089494203
31
0.000000000000000
  0
LINE
  5
F100FC
330
F100FD
100
AcDbEntity
8
Geo
100
AcDbLine
10
-30.4044168192477
20
7.71730089494203
30
0.000000000000000
11
-30.3044168192477
21
7.63644783491057
31
0.000000000000000
  0
LINE
  5
F100FE
330
F100FF
100
AcDbEntity
8
Geo
100
AcDbLine
10
-30.3044168192477
20
7.63644783491057
30
0.000000000000000
11
-30.2044168192477
21
7.55462532550460
31
0.000000000000000
  0
LINE
  5
F10100
330
F10101
100
AcDbEntity
8
Geo
100
AcDbLine
10
-30.2044168192477
20
7.55462532550460
30
0.000000000000000
11
-30.1044168192477
21
7.47185609467284
31
0.000000000000000
  0
LINE
  5
F10102
330
F10103
100
AcDbEntity
8
Geo
100
AcDbLine
10
-30.1044168192477
20
7.47185609467284
30
0.000000000000000
11
-30.0044168192477
21
7.38816313333610
31
0.000000000000000
  0
LINE
  5
F10104
330
F10105
100
AcDbEntity
8
Geo
100
AcDbLine
10
-30.0044168192477
20
7.38816313333610
30
0.000000000000000
11
-29.9044168192477
21
7.30356968900106
31
0.000000000000000
  0
LINE
  5
F10106
330
F10107
100
AcDbEntity
8
Geo
100
AcDbLine
10
-29.9044168192477
20
7.30356968900106
30
0.000000000000000
11
-29.8044168192477
21
7.21809925930275
31
0.000000000000000
  0
LINE
  5
F10108
330
F10109
100
AcDbEntity
8
Geo
100
AcDbLine
10
-29.8044168192477
20
7.21809925930275
30
0.000000000000000
11
-29.7044168192477
21
7.13177558547763
31
0.000000000000000
  0
LINE
  5
F1010A
330
F1010B
100
AcDbEntity
8
Geo
100
AcDbLine
10
-29.7044168192477
20
7.13177558547763
30
0.000000000000000
11
-29.6044168192477
21
7.04462264576893
31
0.000000000000000
  0
LINE
  5
F1010C
330
F1010D
100
AcDbEntity
8
Geo
100
AcDbLine
10
-29.6044168192477
20
7.04462264576893
30
0.000000000000000
11
-29.5044168192477
21
6.95666464876617
31
0.000000000000000
  0
LINE
  5
F1010E
330
F1010F
100
AcDbEntity
8
Geo
100
AcDbLine
10
-29.5044168192477
20
6.95666464876617
30
0.000000000000000
11
-29.4044168192477
21
6.86792602668073
31
0.000000000000000
  0
LINE
  5
F10110
330
F10111
100
AcDbEntity
8
Geo
100
AcDbLine
10
-29.4044168192477
20
6.86792602668073
30
0.000000000000000
11
-29.3044168192477
21
6.77843142855927
31
0.000000000000000
  0
LINE
  5
F10112
330
F10113
100
AcDbEntity
8
Geo
100
AcDbLine
10
-29.3044168192477
20
6.77843142855927
30
0.000000000000000
11
-29.2044168192477
21
6.68820571343694
31
0.000000000000000
  0
LINE
  5
F10114
330
F10115
100
AcDbEntity
8
Geo
100
AcDbLine
10
-29.2044168192477
20
6.68820571343694
30
0.000000000000000
11
-29.1044168192477
21
6.59727394343221
31
0.000000000000000
  0
LINE
  5
F10116
330
F10117
100
AcDbEntity
8
Geo
100
AcDbLine
10
-29.1044168192477
20
6.59727394343221
30
0.000000000000000
11
-29.0044168192477
21
6.50566137678542
31
0.000000000000000
  0
LINE
  5
F10118
330
F10119
100
AcDbEntity
8
Geo
100
AcDbLine
10
-29.0044168192477
20
6.50566137678542
30
0.000000000000000
11
-28.9044168192477
21
6.41339346084266
31
0.000000000000000
  0
LINE
  5
F1011A
330
F1011B
100
AcDbEntity
8
Geo
100
AcDbLine
10
-28.9044168192477
20
6.41339346084266
30
0.000000000000000
11
-28.8044168192477
21
6.32049582498731
31
0.000000000000000
  0
LINE
  5
F1011C
330
F1011D
100
AcDbEntity
8
Geo
100
AcDbLine
10
-28.8044168192477
20
6.32049582498731
30
0.000000000000000
11
-28.7044168192477
21
6.22699427352089
31
0.000000000000000
  0
LINE
  5
F1011E
330
F1011F
100
AcDbEntity
8
Geo
100
AcDbLine
10
-28.7044168192477
20
6.22699427352089
30
0.000000000000000
11
-28.6044168192477
21
6.13291477849537
31
0.000000000000000
  0
LINE
  5
F10120
330
F10121
100
AcDbEntity
8
Geo
100
AcDbLine
10
-28.6044168192477
20
6.13291477849537
30
0.000000000000000
11
-28.5044168192477
21
6.03828347249888
31
0.000000000000000
  0
LINE
  5
F10122
330
F10123
100
AcDbEntity
8
Geo
100
AcDbLine
10
-28.5044168192477
20
6.03828347249888
30
0.000000000000000
11
-28.4044168192477
21
5.94312664139684
31
0.000000000000000
  0
LINE
  5
F10124
330
F10125
100
AcDbEntity
8
Geo
100
AcDbLine
10
-28.4044168192477
20
5.94312664139684
30
0.000000000000000
11
-28.3044168192477
21
5.84747071703046
31
0.000000000000000
  0
LINE
  5
F10126
330
F10127
100
AcDbEntity
8
Geo
100
AcDbLine
10
-28.3044168192477
20
5.84747071703046
30
0.000000000000000
11
-28.2044168192477
21
5.75134226987480
31
0.000000000000000
  0
LINE
  5
F10128
330
F10129
100
AcDbEntity
8
Geo
100
AcDbLine
10
-28.2044168192477
20
5.75134226987480
30
0.000000000000000
11
-28.1044168192477
21
5.65476800165816
31
0.000000000000000
  0
LINE
  5
F1012A
330
F1012B
100
AcDbEntity
8
Geo
100
AcDbLine
10
-28.1044168192477
20
5.65476800165816
30
0.000000000000000
11
-28.0044168192477
21
5.55777473794521
31
0.000000000000000
  0
LINE
  5
F1012C
330
F1012D
100
AcDbEntity
8
Geo
100
AcDbLine
10
-28.0044168192477
20
5.55777473794521
30
0.000000000000000
11
-27.9044168192477
21
5.46038942068552
31
0.000000000000000
  0
LINE
  5
F1012E
330
F1012F
100
AcDbEntity
8
Geo
100
AcDbLine
10
-27.9044168192477
20
5.46038942068552
30
0.000000000000000
11
-27.8044168192477
21
5.36263910072994
31
0.000000000000000
  0
LINE
  5
F10130
330
F10131
100
AcDbEntity
8
Geo
100
AcDbLine
10
-27.8044168192477
20
5.36263910072994
30
0.000000000000000
11
-27.7044168192477
21
5.26455093031657
31
0.000000000000000
  0
LINE
  5
F10132
330
F10133
100
AcDbEntity
8
Geo
100
AcDbLine
10
-27.7044168192477
20
5.26455093031657
30
0.000000000000000
11
-27.6044168192477
21
5.16615215552872
31
0.000000000000000
  0
LINE
  5
F10134
330
F10135
100
AcDbEntity
8
Geo
100
AcDbLine
10
-27.6044168192477
20
5.16615215552872
30
0.000000000000000
11
-27.5044168192477
21
5.06747010872669
31
0.000000000000000
  0
LINE
  5
F10136
330
F10137
100
AcDbEntity
8
Geo
100
AcDbLine
10
-27.5044168192477
20
5.06747010872669
30
0.000000000000000
11
-27.4044168192477
21
4.96853220095561
31
0.000000000000000
  0
LINE
  5
F10138
330
F10139
100
AcDbEntity
8
Geo
100
AcDbLine
10
-27.4044168192477
20
4.96853220095561
30
0.000000000000000
11
-27.3044168192477
21
4.86936591433148
31
0.000000000000000
  0
LINE
  5
F1013A
330
F1013B
100
AcDbEntity
8
Geo
100
AcDbLine
10
-27.3044168192477
20
4.86936591433148
30
0.000000000000000
11
-27.2044168192477
21
4.76999879440738
31
0.000000000000000
  0
LINE
  5
F1013C
330
F1013D
100
AcDbEntity
8
Geo
100
AcDbLine
10
-27.2044168192477
20
4.76999879440738
30
0.000000000000000
11
-27.1044168192477
21
4.67045844252215
31
0.000000000000000
  0
LINE
  5
F1013E
330
F1013F
100
AcDbEntity
8
Geo
100
AcDbLine
10
-27.1044168192477
20
4.67045844252215
30
0.000000000000000
11
-27.0044168192477
21
4.57077250813349
31
0.000000000000000
  0
LINE
  5
F10140
330
F10141
100
AcDbEntity
8
Geo
100
AcDbLine
10
-27.0044168192477
20
4.57077250813349
30
0.000000000000000
11
-26.9044168192477
21
4.47096868113776
31
0.000000000000000
  0
LINE
  5
F10142
330
F10143
100
AcDbEntity
8
Geo
100
AcDbLine
10
-26.9044168192477
20
4.47096868113776
30
0.000000000000000
11
-26.8044168192477
21
4.37107468417848
31
0.000000000000000
  0
LINE
  5
F10144
330
F10145
100
AcDbEntity
8
Geo
100
AcDbLine
10
-26.8044168192477
20
4.37107468417848
30
0.000000000000000
11
-26.7044168192477
21
4.27111826494583
31
0.000000000000000
  0
LINE
  5
F10146
330
F10147
100
AcDbEntity
8
Geo
100
AcDbLine
10
-26.7044168192477
20
4.27111826494583
30
0.000000000000000
11
-26.6044168192477
21
4.17112718846911
31
0.000000000000000
  0
LINE
  5
F10148
330
F10149
100
AcDbEntity
8
Geo
100
AcDbLine
10
-26.6044168192477
20
4.17112718846911
30
0.000000000000000
11
-26.5044168192477
21
4.07112922940439
31
0.000000000000000
  0
LINE
  5
F1014A
330
F1014B
100
AcDbEntity
8
Geo
100
AcDbLine
10
-26.5044168192477
20
4.07112922940439
30
0.000000000000000
11
-26.4044168192477
21
3.97115216431955
31
0.000000000000000
  0
LINE
  5
F1014C
330
F1014D
100
AcDbEntity
8
Geo
100
AcDbLine
10
-26.4044168192477
20
3.97115216431955
30
0.000000000000000
11
-26.3044168192477
21
3.87122376397869
31
0.000000000000000
  0
LINE
  5
F1014E
330
F1014F
100
AcDbEntity
8
Geo
100
AcDbLine
10
-26.3044168192477
20
3.87122376397869
30
0.000000000000000
11
-26.2044168192477
21
3.77137178562826
31
0.000000000000000
  0
LINE
  5
F10150
330
F10151
100
AcDbEntity
8
Geo
100
AcDbLine
10
-26.2044168192477
20
3.77137178562826
30
0.000000000000000
11
-26.1044168192477
21
3.67162396528688
31
0.000000000000000
  0
LINE
  5
F10152
330
F10153
100
AcDbEntity
8
Geo
100
AcDbLine
10
-26.1044168192477
20
3.67162396528688
30
0.000000000000000
11
-26.0044168192477
21
3.57200801004103
31
0.000000000000000
  0
LINE
  5
F10154
330
F10155
100
AcDbEntity
8
Geo
100
AcDbLine
10
-26.0044168192477
20
3.57200801004103
30
0.000000000000000
11
-25.9044168192477
21
3.47255159034886
31
0.000000000000000
  0
LINE
  5
F10156
330
F10157
100
AcDbEntity
8
Geo
100
AcDbLine
10
-25.9044168192477
20
3.47255159034886
30
0.000000000000000
11
-25.8044168192477
21
3.37328233235413
31
0.000000000000000
  0
LINE
  5
F10158
330
F10159
100
AcDbEntity
8
Geo
100
AcDbLine
10
-25.8044168192477
20
3.37328233235413
30
0.000000000000000
11
-25.7044168192477
21
3.27422781021242
31
0.000000000000000
  0
LINE
  5
F1015A
330
F1015B
100
AcDbEntity
8
Geo
100
AcDbLine
10
-25.7044168192477
20
3.27422781021242
30
0.000000000000000
11
-25.6044168192477
21
3.17541553843185
31
0.000000000000000
  0
LINE
  5
F1015C
330
F1015D
100
AcDbEntity
8
Geo
100
AcDbLine
10
-25.6044168192477
20
3.17541553843185
30
0.000000000000000
11
-25.5044168192477
21
3.07687296423033
31
0.000000000000000
  0
LINE
  5
F1015E
330
F1015F
100
AcDbEntity
8
Geo
100
AcDbLine
10
-25.5044168192477
20
3.07687296423033
30
0.000000000000000
11
-25.4044168192477
21
2.97862745991151
31
0.000000000000000
  0
LINE
  5
F10160
330
F10161
100
AcDbEntity
8
Geo
100
AcDbLine
10
-25.4044168192477
20
2.97862745991151
30
0.000000000000000
11
-25.3044168192477
21
2.88070631526155
31
0.000000000000000
  0
LINE
  5
F10162
330
F10163
100
AcDbEntity
8
Geo
100
AcDbLine
10
-25.3044168192477
20
2.88070631526155
30
0.000000000000000
11
-25.2044168192477
21
2.78313672996876
31
0.000000000000000
  0
LINE
  5
F10164
330
F10165
100
AcDbEntity
8
Geo
100
AcDbLine
10
-25.2044168192477
20
2.78313672996876
30
0.000000000000000
11
-25.1044168192477
21
2.68594580606836
31
0.000000000000000
  0
LINE
  5
F10166
330
F10167
100
AcDbEntity
8
Geo
100
AcDbLine
10
-25.1044168192477
20
2.68594580606836
30
0.000000000000000
11
-25.0044168192477
21
2.58916054041428
31
0.000000000000000
  0
LINE
  5
F10168
330
F10169
100
AcDbEntity
8
Geo
100
AcDbLine
10
-25.0044168192477
20
2.58916054041428
30
0.000000000000000
11
-24.9044168192477
21
2.49280781718021
31
0.000000000000000
  0
LINE
  5
F1016A
330
F1016B
100
AcDbEntity
8
Geo
100
AcDbLine
10
-24.9044168192477
20
2.49280781718021
30
0.000000000000000
11
-24.8044168192477
21
2.39691440039193
31
0.000000000000000
  0
LINE
  5
F1016C
330
F1016D
100
AcDbEntity
8
Geo
100
AcDbLine
10
-24.8044168192477
20
2.39691440039193
30
0.000000000000000
11
-24.7044168192477
21
2.30150692649308
31
0.000000000000000
  0
LINE
  5
F1016E
330
F1016F
100
AcDbEntity
8
Geo
100
AcDbLine
10
-24.7044168192477
20
2.30150692649308
30
0.000000000000000
11
-24.6044168192477
21
2.20661189694626
31
0.000000000000000
  0
LINE
  5
F10170
330
F10171
100
AcDbEntity
8
Geo
100
AcDbLine
10
-24.6044168192477
20
2.20661189694626
30
0.000000000000000
11
-24.5044168192477
21
2.11225567087175
31
0.000000000000000
  0
LINE
  5
F10172
330
F10173
100
AcDbEntity
8
Geo
100
AcDbLine
10
-24.5044168192477
20
2.11225567087175
30
0.000000000000000
11
-24.4044168192477
21
2.01846445772562
31
0.000000000000000
  0
LINE
  5
F10174
330
F10175
100
AcDbEntity
8
Geo
100
AcDbLine
10
-24.4044168192477
20
2.01846445772562
30
0.000000000000000
11
-24.3044168192477
21
1.92526431001956
31
0.000000000000000
  0
LINE
  5
F10176
330
F10177
100
AcDbEntity
8
Geo
100
AcDbLine
10
-24.3044168192477
20
1.92526431001956
30
0.000000000000000
11
-24.2044168192477
21
1.83268111608422
31
0.000000000000000
  0
LINE
  5
F10178
330
F10179
100
AcDbEntity
8
Geo
100
AcDbLine
10
-24.2044168192477
20
1.83268111608422
30
0.000000000000000
11
-24.1044168192477
21
1.74074059287816
31
0.000000000000000
  0
LINE
  5
F1017A
330
F1017B
100
AcDbEntity
8
Geo
100
AcDbLine
10
-24.1044168192477
20
1.74074059287816
30
0.000000000000000
11
-24.0044168192477
21
1.64946827884443
31
0.000000000000000
  0
LINE
  5
F1017C
330
F1017D
100
AcDbEntity
8
Geo
100
AcDbLine
10
-24.0044168192477
20
1.64946827884443
30
0.000000000000000
11
-23.9044168192477
21
1.55888952681671
31
0.000000000000000
  0
LINE
  5
F1017E
330
F1017F
100
AcDbEntity
8
Geo
100
AcDbLine
10
-23.9044168192477
20
1.55888952681671
30
0.000000000000000
11
-23.8044168192477
21
1.46902949697703
31
0.000000000000000
  0
LINE
  5
F10180
330
F10181
100
AcDbEntity
8
Geo
100
AcDbLine
10
-23.8044168192477
20
1.46902949697703
30
0.000000000000000
11
-23.7044168192477
21
1.37991314986701
31
0.000000000000000
  0
LINE
  5
F10182
330
F10183
100
AcDbEntity
8
Geo
100
AcDbLine
10
-23.7044168192477
20
1.37991314986701
30
0.000000000000000
11
-23.6044168192477
21
1.29156523945447
31
0.000000000000000
  0
LINE
  5
F10184
330
F10185
100
AcDbEntity
8
Geo
100
AcDbLine
10
-23.6044168192477
20
1.29156523945447
30
0.000000000000000
11
-23.5044168192477
21
1.20401030625758
31
0.000000000000000
  0
LINE
  5
F10186
330
F10187
100
AcDbEntity
8
Geo
100
AcDbLine
10
-23.5044168192477
20
1.20401030625758
30
0.000000000000000
11
-23.4044168192477
21
1.11727267052814
31
0.000000000000000
  0
LINE
  5
F10188
330
F10189
100
AcDbEntity
8
Geo
100
AcDbLine
10
-23.4044168192477
20
1.11727267052814
30
0.000000000000000
11
-23.3044168192477
21
1.03137642549612
31
0.000000000000000
  0
LINE
  5
F1018A
330
F1018B
100
AcDbEntity
8
Geo
100
AcDbLine
10
-23.3044168192477
20
1.03137642549612
30
0.000000000000000
11
-23.2044168192477
21
0.946345430677283
31
0.000000000000000
  0
LINE
  5
F1018C
330
F1018D
100
AcDbEntity
8
Geo
100
AcDbLine
10
-23.2044168192477
20
0.946345430677283
30
0.000000000000000
11
-23.1044168192477
21
0.862203305245658
31
0.000000000000000
  0
LINE
  5
F1018E
330
F1018F
100
AcDbEntity
8
Geo
100
AcDbLine
10
-23.1044168192477
20
0.862203305245658
30
0.000000000000000
11
-23.0044168192477
21
0.778973421472836
31
0.000000000000000
  0
LINE
  5
F10190
330
F10191
100
AcDbEntity
8
Geo
100
AcDbLine
10
-23.0044168192477
20
0.778973421472836
30
0.000000000000000
11
-22.9044168192477
21
0.696678898235808
31
0.000000000000000
  0
LINE
  5
F10192
330
F10193
100
AcDbEntity
8
Geo
100
AcDbLine
10
-22.9044168192477
20
0.696678898235808
30
0.000000000000000
11
-22.8044168192477
21
0.615342594595210
31
0.000000000000000
  0
LINE
  5
F10194
330
F10195
100
AcDbEntity
8
Geo
100
AcDbLine
10
-22.8044168192477
20
0.615342594595210
30
0.000000000000000
11
-22.7044168192477
21
0.534987103445731
31
0.000000000000000
  0
LINE
  5
F10196
330
F10197
100
AcDbEntity
8
Geo
100
AcDbLine
10
-22.7044168192477
20
0.534987103445731
30
0.000000000000000
11
-22.6044168192477
21
0.455634745240447
31
0.000000000000000
  0
LINE
  5
F10198
330
F10199
100
AcDbEntity
8
Geo
100
AcDbLine
10
-22.6044168192477
20
0.455634745240447
30
0.000000000000000
11
-22.5044168192477
21
0.377307561790851
31
0.000000000000000
  0
LINE
  5
F1019A
330
F1019B
100
AcDbEntity
8
Geo
100
AcDbLine
10
-22.5044168192477
20
0.377307561790851
30
0.000000000000000
11
-22.4044168192477
21
0.300027310144256
31
0.000000000000000
  0
LINE
  5
F1019C
330
F1019D
100
AcDbEntity
8
Geo
100
AcDbLine
10
-22.4044168192477
20
0.300027310144256
30
0.000000000000000
11
-22.3044168192477
21
0.223815456540321
31
0.000000000000000
  0
LINE
  5
F1019E
330
F1019F
100
AcDbEntity
8
Geo
100
AcDbLine
10
-22.3044168192477
20
0.223815456540321
30
0.000000000000000
11
-22.2044168192477
21
0.148693170448340
31
0.000000000000000
  0
LINE
  5
F101A0
330
F101A1
100
AcDbEntity
8
Geo
100
AcDbLine
10
-22.2044168192477
20
0.148693170448340
30
0.000000000000000
11
-22.1044168192477
21
0.0746813186869693
31
0.000000000000000
  0
LINE
  5
F101A2
330
F101A3
100
AcDbEntity
8
Geo
100
AcDbLine
10
-22.1044168192477
20
0.0746813186869693
30
0.000000000000000
11
-22.0044168192477
21
0.00180045962802744
31
0.000000000000000
  0
LINE
  5
F101A4
330
F101A5
100
AcDbEntity
8
Geo
100
AcDbLine
10
-22.0044168192477
20
0.00180045962802744
30
0.000000000000000
11
-21.9044168192477
21
-0.0699291625140379
31
0.000000000000000
  0
LINE
  5
F101A6
330
F101A7
100
AcDbEntity
8
Geo
100
AcDbLine
10
-21.9044168192477
20
-0.0699291625140379
30
0.000000000000000
11
-21.8044168192477
21
-0.140487623305408
31
0.000000000000000
  0
LINE
  5
F101A8
330
F101A9
100
AcDbEntity
8
Geo
100
AcDbLine
10
-21.8044168192477
20
-0.140487623305408
30
0.000000000000000
11
-21.7044168192477
21
-0.209855323627329
31
0.000000000000000
  0
LINE
  5
F101AA
330
F101AB
100
AcDbEntity
8
Geo
100
AcDbLine
10
-21.7044168192477
20
-0.209855323627329
30
0.000000000000000
11
-21.6044168192477
21
-0.278012995120189
31
0.000000000000000
  0
LINE
  5
F101AC
330
F101AD
100
AcDbEntity
8
Geo
100
AcDbLine
10
-21.6044168192477
20
-0.278012995120189
30
0.000000000000000
11
-21.5044168192477
21
-0.344941705535715
31
0.000000000000000
  0
LINE
  5
F101AE
330
F101AF
100
AcDbEntity
8
Geo
100
AcDbLine
10
-21.5044168192477
20
-0.344941705535715
30
0.000000000000000
11
-21.4044168192477
21
-0.410622863995808
31
0.000000000000000
  0
LINE
  5
F101B0
330
F101B1
100
AcDbEntity
8
Geo
100
AcDbLine
10
-21.4044168192477
20
-0.410622863995808
30
0.000000000000000
11
-21.3044168192477
21
-0.475038226156560
31
0.000000000000000
  0
LINE
  5
F101B2
330
F101B3
100
AcDbEntity
8
Geo
100
AcDbLine
10
-21.3044168192477
20
-0.475038226156560
30
0.000000000000000
11
-21.2044168192477
21
-0.538169899276003
31
0.000000000000000
  0
LINE
  5
F101B4
330
F101B5
100
AcDbEntity
8
Geo
100
AcDbLine
10
-21.2044168192477
20
-0.538169899276003
30
0.000000000000000
11
-21.1044168192477
21
-0.600000347184206
31
0.000000000000000
  0
LINE
  5
F101B6
330
F101B7
100
AcDbEntity
8
Geo
100
AcDbLine
10
-21.1044168192477
20
-0.600000347184206
30
0.000000000000000
11
-21.0044168192477
21
-0.660512395154319
31
0.000000000000000
  0
LINE
  5
F101B8
330
F101B9
100
AcDbEntity
8
Geo
100
AcDbLine
10
-21.0044168192477
20
-0.660512395154319
30
0.000000000000000
11
-20.9044168192477
21
-0.719689234673220
31
0.000000000000000
  0
LINE
  5
F101BA
330
F101BB
100
AcDbEntity
8
Geo
100
AcDbLine
10
-20.9044168192477
20
-0.719689234673220
30
0.000000000000000
11
-20.8044168192477
21
-0.777514428110436
31
0.000000000000000
  0
LINE
  5
F101BC
330
F101BD
100
AcDbEntity
8
Geo
100
AcDbLine
10
-20.8044168192477
20
-0.777514428110436
30
0.000000000000000
11
-20.7044168192477
21
-0.833971913284051
31
0.000000000000000
  0
LINE
  5
F101BE
330
F101BF
100
AcDbEntity
8
Geo
100
AcDbLine
10
-20.7044168192477
20
-0.833971913284051
30
0.000000000000000
11
-20.6044168192477
21
-0.889046007922314
31
0.000000000000000
  0
LINE
  5
F101C0
330
F101C1
100
AcDbEntity
8
Geo
100
AcDbLine
10
-20.6044168192477
20
-0.889046007922314
30
0.000000000000000
11
-20.5044168192477
21
-0.942721414019730
31
0.000000000000000
  0
LINE
  5
F101C2
330
F101C3
100
AcDbEntity
8
Geo
100
AcDbLine
10
-20.5044168192477
20
-0.942721414019730
30
0.000000000000000
11
-20.4044168192477
21
-0.994983222086402
31
0.000000000000000
  0
LINE
  5
F101C4
330
F101C5
100
AcDbEntity
8
Geo
100
AcDbLine
10
-20.4044168192477
20
-0.994983222086402
30
0.000000000000000
11
-20.3044168192477
21
-1.04581691528947
31
0.000000000000000
  0
LINE
  5
F101C6
330
F101C7
100
AcDbEntity
8
Geo
100
AcDbLine
10
-20.3044168192477
20
-1.04581691528947
30
0.000000000000000
11
-20.2044168192477
21
-1.09520837348545
31
0.000000000000000
  0
LINE
  5
F101C8
330
F101C9
100
AcDbEntity
8
Geo
100
AcDbLine
10
-20.2044168192477
20
-1.09520837348545
30
0.000000000000000
11
-20.1044168192477
21
-1.14314387714244
31
0.000000000000000
  0
LINE
  5
F101CA
330
F101CB
100
AcDbEntity
8
Geo
100
AcDbLine
10
-20.1044168192477
20
-1.14314387714244
30
0.000000000000000
11
-20.0044168192477
21
-1.18961011115097
31
0.000000000000000
  0
LINE
  5
F101CC
330
F101CD
100
AcDbEntity
8
Geo
100
AcDbLine
10
-20.0044168192477
20
-1.18961011115097
30
0.000000000000000
11
-19.9044168192477
21
-1.23459416852260
31
0.000000000000000
  0
LINE
  5
F101CE
330
F101CF
100
AcDbEntity
8
Geo
100
AcDbLine
10
-19.9044168192477
20
-1.23459416852260
30
0.000000000000000
11
-19.8044168192477
21
-1.27808355397509
31
0.000000000000000
  0
LINE
  5
F101D0
330
F101D1
100
AcDbEntity
8
Geo
100
AcDbLine
10
-19.8044168192477
20
-1.27808355397509
30
0.000000000000000
11
-19.7044168192477
21
-1.32006618740322
31
0.000000000000000
  0
LINE
  5
F101D2
330
F101D3
100
AcDbEntity
8
Geo
100
AcDbLine
10
-19.7044168192477
20
-1.32006618740322
30
0.000000000000000
11
-19.6044168192477
21
-1.36053040723432
31
0.000000000000000
  0
LINE
  5
F101D4
330
F101D5
100
AcDbEntity
8
Geo
100
AcDbLine
10
-19.6044168192477
20
-1.36053040723432
30
0.000000000000000
11
-19.5044168192477
21
-1.39946497366751
31
0.000000000000000
  0
LINE
  5
F101D6
330
F101D7
100
AcDbEntity
8
Geo
100
AcDbLine
10
-19.5044168192477
20
-1.39946497366751
30
0.000000000000000
11
-19.4044168192477
21
-1.43685907179579
31
0.000000000000000
  0
LINE
  5
F101D8
330
F101D9
100
AcDbEntity
8
Geo
100
AcDbLine
10
-19.4044168192477
20
-1.43685907179579
30
0.000000000000000
11
-19.3044168192477
21
-1.47270231461014
31
0.000000000000000
  0
LINE
  5
F101DA
330
F101DB
100
AcDbEntity
8
Geo
100
AcDbLine
10
-19.3044168192477
20
-1.47270231461014
30
0.000000000000000
11
-19.2044168192477
21
-1.50698474588468
31
0.000000000000000
  0
LINE
  5
F101DC
330
F101DD
100
AcDbEntity
8
Geo
100
AcDbLine
10
-19.2044168192477
20
-1.50698474588468
30
0.000000000000000
11
-19.1044168192477
21
-1.53969684294227
31
0.000000000000000
  0
LINE
  5
F101DE
330
F101DF
100
AcDbEntity
8
Geo
100
AcDbLine
10
-19.1044168192477
20
-1.53969684294227
30
0.000000000000000
11
-19.0044168192477
21
-1.57082951929963
31
0.000000000000000
  0
LINE
  5
F101E0
330
F101E1
100
AcDbEntity
8
Geo
100
AcDbLine
10
-19.0044168192477
20
-1.57082951929963
30
0.000000000000000
11
-18.9044168192477
21
-1.60037412719127
31
0.000000000000000
  0
LINE
  5
F101E2
330
F101E3
100
AcDbEntity
8
Geo
100
AcDbLine
10
-18.9044168192477
20
-1.60037412719127
30
0.000000000000000
11
-18.8044168192477
21
-1.62832245997166
31
0.000000000000000
  0
LINE
  5
F101E4
330
F101E5
100
AcDbEntity
8
Geo
100
AcDbLine
10
-18.8044168192477
20
-1.62832245997166
30
0.000000000000000
11
-18.7044168192477
21
-1.65466675439472
31
0.000000000000000
  0
LINE
  5
F101E6
330
F101E7
100
AcDbEntity
8
Geo
100
AcDbLine
10
-18.7044168192477
20
-1.65466675439472
30
0.000000000000000
11
-18.6044168192477
21
-1.67939969277028
31
0.000000000000000
  0
LINE
  5
F101E8
330
F101E9
100
AcDbEntity
8
Geo
100
AcDbLine
10
-18.6044168192477
20
-1.67939969277028
30
0.000000000000000
11
-18.5044168192477
21
-1.70251440499672
31
0.000000000000000
  0
LINE
  5
F101EA
330
F101EB
100
AcDbEntity
8
Geo
100
AcDbLine
10
-18.5044168192477
20
-1.70251440499672
30
0.000000000000000
11
-18.4044168192477
21
-1.72400447046926
31
0.000000000000000
  0
LINE
  5
F101EC
330
F101ED
100
AcDbEntity
8
Geo
100
AcDbLine
10
-18.4044168192477
20
-1.72400447046926
30
0.000000000000000
11
-18.3044168192477
21
-1.74386391986346
31
0.000000000000000
  0
LINE
  5
F101EE
330
F101EF
100
AcDbEntity
8
Geo
100
AcDbLine
10
-18.3044168192477
20
-1.74386391986346
30
0.000000000000000
11
-18.2044168192477
21
-1.76208723679329
31
0.000000000000000
  0
LINE
  5
F101F0
330
F101F1
100
AcDbEntity
8
Geo
100
AcDbLine
10
-18.2044168192477
20
-1.76208723679329
30
0.000000000000000
11
-18.1044168192477
21
-1.77866935934345
31
0.000000000000000
  0
LINE
  5
F101F2
330
F101F3
100
AcDbEntity
8
Geo
100
AcDbLine
10
-18.1044168192477
20
-1.77866935934345
30
0.000000000000000
11
-18.0044168192477
21
-1.79360568147541
31
0.000000000000000
  0
LINE
  5
F101F4
330
F101F5
100
AcDbEntity
8
Geo
100
AcDbLine
10
-18.0044168192477
20
-1.79360568147541
30
0.000000000000000
11
-17.9044168192477
21
-1.80689205430683
31
0.000000000000000
  0
LINE
  5
F101F6
330
F101F7
100
AcDbEntity
8
Geo
100
AcDbLine
10
-17.9044168192477
20
-1.80689205430683
30
0.000000000000000
11
-17.8044168192477
21
-1.81852478726404
31
0.000000000000000
  0
LINE
  5
F101F8
330
F101F9
100
AcDbEntity
8
Geo
100
AcDbLine
10
-17.8044168192477
20
-1.81852478726404
30
0.000000000000000
11
-17.7044168192477
21
-1.82850064910711
31
0.000000000000000
  0
LINE
  5
F101FA
330
F101FB
100
AcDbEntity
8
Geo
100
AcDbLine
10
-17.7044168192477
20
-1.82850064910711
30
0.000000000000000
11
-17.6044168192477
21
-1.83681686882745
31
0.000000000000000
  0
LINE
  5
F101FC
330
F101FD
100
AcDbEntity
8
Geo
100
AcDbLine
10
-17.6044168192477
20
-1.83681686882745
30
0.000000000000000
11
-17.5044168192477
21
-1.84347113641751
31
0.000000000000000
  0
LINE
  5
F101FE
330
F101FF
100
AcDbEntity
8
Geo
100
AcDbLine
10
-17.5044168192477
20
-1.84347113641751
30
0.000000000000000
11
-17.4044168192477
21
-1.84846160351242
31
0.000000000000000
  0
LINE
  5
F10200
330
F10201
100
AcDbEntity
8
Geo
100
AcDbLine
10
-17.4044168192477
20
-1.84846160351242
30
0.000000000000000
11
-17.3044168192477
21
-1.85178688390338
31
0.000000000000000
  0
LINE
  5
F10202
330
F10203
100
AcDbEntity
8
Geo
100
AcDbLine
10
-17.3044168192477
20
-1.85178688390338
30
0.000000000000000
11
-17.2044168192477
21
-1.85344605392281
31
0.000000000000000
  0
LINE
  5
F10204
330
F10205
100
AcDbEntity
8
Geo
100
AcDbLine
10
-17.2044168192477
20
-1.85344605392281
30
0.000000000000000
11
-17.1548608874301
21
-1.85365070187274
31
0.000000000000000
  0
LINE
  5
F10206
330
F10207
100
AcDbEntity
8
Geo
100
AcDbLine
10
-36.0044168192477
20
1.20310688441513
30
0.000000000000000
11
-35.9044168192477
21
1.07986104541019
31
0.000000000000000
  0
LINE
  5
F10208
330
F10209
100
AcDbEntity
8
Geo
100
AcDbLine
10
-35.9044168192477
20
1.07986104541019
30
0.000000000000000
11
-35.9044168192477
21
1.07986104541019
31
0.000000000000000
  0
LINE
  5
F1020A
330
F1020B
100
AcDbEntity
8
Geo
100
AcDbLine
10
-35.9044168192477
20
1.07986104541019
30
0.000000000000000
11
-35.8044168192477
21
0.974842802954802
31
0.000000000000000
  0
LINE
  5
F1020C
330
F1020D
100
AcDbEntity
8
Geo
100
AcDbLine
10
-35.8044168192477
20
0.974842802954802
30
0.000000000000000
11
-35.7044168192477
21
0.890399135451640
31
0.000000000000000
  0
LINE
  5
F1020E
330
F1020F
100
AcDbEntity
8
Geo
100
AcDbLine
10
-35.7044168192477
20
0.890399135451640
30
0.000000000000000
11
-35.6044168192477
21
0.806859877613521
31
0.000000000000000
  0
LINE
  5
F10210
330
F10211
100
AcDbEntity
8
Geo
100
AcDbLine
10
-35.6044168192477
20
0.806859877613521
30
0.000000000000000
11
-35.5044168192477
21
0.724248234252690
31
0.000000000000000
  0
LINE
  5
F10212
330
F10213
100
AcDbEntity
8
Geo
100
AcDbLine
10
-35.5044168192477
20
0.724248234252690
30
0.000000000000000
11
-35.4044168192477
21
0.642587152516666
31
0.000000000000000
  0
LINE
  5
F10214
330
F10215
100
AcDbEntity
8
Geo
100
AcDbLine
10
-35.4044168192477
20
0.642587152516666
30
0.000000000000000
11
-35.3044168192477
21
0.561899315514184
31
0.000000000000000
  0
LINE
  5
F10216
330
F10217
100
AcDbEntity
8
Geo
100
AcDbLine
10
-35.3044168192477
20
0.561899315514184
30
0.000000000000000
11
-35.2044168192477
21
0.482207136014482
31
0.000000000000000
  0
LINE
  5
F10218
330
F10219
100
AcDbEntity
8
Geo
100
AcDbLine
10
-35.2044168192477
20
0.482207136014482
30
0.000000000000000
11
-35.1044168192477
21
0.403532750221667
31
0.000000000000000
  0
LINE
  5
F1021A
330
F1021B
100
AcDbEntity
8
Geo
100
AcDbLine
10
-35.1044168192477
20
0.403532750221667
30
0.000000000000000
11
-35.0044168192477
21
0.325898011625917
31
0.000000000000000
  0
LINE
  5
F1021C
330
F1021D
100
AcDbEntity
8
Geo
100
AcDbLine
10
-35.0044168192477
20
0.325898011625917
30
0.000000000000000
11
-34.9044168192477
21
0.249324484933207
31
0.000000000000000
  0
LINE
  5
F1021E
330
F1021F
100
AcDbEntity
8
Geo
100
AcDbLine
10
-34.9044168192477
20
0.249324484933207
30
0.000000000000000
11
-34.8044168192477
21
0.173833440075254
31
0.000000000000000
  0
LINE
  5
F10220
330
F10221
100
AcDbEntity
8
Geo
100
AcDbLine
10
-34.8044168192477
20
0.173833440075254
30
0.000000000000000
11
-34.7044168192477
21
0.0994458463013332
31
0.000000000000000
  0
LINE
  5
F10222
330
F10223
100
AcDbEntity
8
Geo
100
AcDbLine
10
-34.7044168192477
20
0.0994458463013332
30
0.000000000000000
11
-34.6044168192477
21
0.0261823663536269
31
0.000000000000000
  0
LINE
  5
F10224
330
F10225
100
AcDbEntity
8
Geo
100
AcDbLine
10
-34.6044168192477
20
0.0261823663536269
30
0.000000000000000
11
-34.5044168192477
21
-0.0459366492722939
31
0.000000000000000
  0
LINE
  5
F10226
330
F10227
100
AcDbEntity
8
Geo
100
AcDbLine
10
-34.5044168192477
20
-0.0459366492722939
30
0.000000000000000
11
-34.4044168192477
21
-0.116891167980260
31
0.000000000000000
  0
LINE
  5
F10228
330
F10229
100
AcDbEntity
8
Geo
100
AcDbLine
10
-34.4044168192477
20
-0.116891167980260
30
0.000000000000000
11
-34.3044168192477
21
-0.186661480637976
31
0.000000000000000
  0
LINE
  5
F1022A
330
F1022B
100
AcDbEntity
8
Geo
100
AcDbLine
10
-34.3044168192477
20
-0.186661480637976
30
0.000000000000000
11
-34.2044168192477
21
-0.255228207051659
31
0.000000000000000
  0
LINE
  5
F1022C
330
F1022D
100
AcDbEntity
8
Geo
100
AcDbLine
10
-34.2044168192477
20
-0.255228207051659
30
0.000000000000000
11
-34.1044168192477
21
-0.322572301349299
31
0.000000000000000
  0
LINE
  5
F1022E
330
F1022F
100
AcDbEntity
8
Geo
100
AcDbLine
10
-34.1044168192477
20
-0.322572301349299
30
0.000000000000000
11
-34.0044168192477
21
-0.388675057271057
31
0.000000000000000
  0
LINE
  5
F10230
330
F10231
100
AcDbEntity
8
Geo
100
AcDbLine
10
-34.0044168192477
20
-0.388675057271057
30
0.000000000000000
11
-33.9044168192477
21
-0.453518113365329
31
0.000000000000000
  0
LINE
  5
F10232
330
F10233
100
AcDbEntity
8
Geo
100
AcDbLine
10
-33.9044168192477
20
-0.453518113365329
30
0.000000000000000
11
-33.8044168192477
21
-0.517083458089025
31
0.000000000000000
  0
LINE
  5
F10234
330
F10235
100
AcDbEntity
8
Geo
100
AcDbLine
10
-33.8044168192477
20
-0.517083458089025
30
0.000000000000000
11
-33.7044168192477
21
-0.579353434810670
31
0.000000000000000
  0
LINE
  5
F10236
330
F10237
100
AcDbEntity
8
Geo
100
AcDbLine
10
-33.7044168192477
20
-0.579353434810670
30
0.000000000000000
11
-33.6044168192477
21
-0.640310746714905
31
0.000000000000000
  0
LINE
  5
F10238
330
F10239
100
AcDbEntity
8
Geo
100
AcDbLine
10
-33.6044168192477
20
-0.640310746714905
30
0.000000000000000
11
-33.5044168192477
21
-0.699938461607040
31
0.000000000000000
  0
LINE
  5
F1023A
330
F1023B
100
AcDbEntity
8
Geo
100
AcDbLine
10
-33.5044168192477
20
-0.699938461607040
30
0.000000000000000
11
-33.4044168192477
21
-0.758220016616347
31
0.000000000000000
  0
LINE
  5
F1023C
330
F1023D
100
AcDbEntity
8
Geo
100
AcDbLine
10
-33.4044168192477
20
-0.758220016616347
30
0.000000000000000
11
-33.3044168192477
21
-0.815139222796738
31
0.000000000000000
  0
LINE
  5
F1023E
330
F1023F
100
AcDbEntity
8
Geo
100
AcDbLine
10
-33.3044168192477
20
-0.815139222796738
30
0.000000000000000
11
-33.2044168192477
21
-0.870680269623595
31
0.000000000000000
  0
LINE
  5
F10240
330
F10241
100
AcDbEntity
8
Geo
100
AcDbLine
10
-33.2044168192477
20
-0.870680269623595
30
0.000000000000000
11
-33.1044168192477
21
-0.924827729385486
31
0.000000000000000
  0
LINE
  5
F10242
330
F10243
100
AcDbEntity
8
Geo
100
AcDbLine
10
-33.1044168192477
20
-0.924827729385486
30
0.000000000000000
11
-33.0044168192477
21
-0.977566561469532
31
0.000000000000000
  0
LINE
  5
F10244
330
F10245
100
AcDbEntity
8
Geo
100
AcDbLine
10
-33.0044168192477
20
-0.977566561469532
30
0.000000000000000
11
-32.9044168192477
21
-1.02888211653926
31
0.000000000000000
  0
LINE
  5
F10246
330
F10247
100
AcDbEntity
8
Geo
100
AcDbLine
10
-32.9044168192477
20
-1.02888211653926
30
0.000000000000000
11
-32.8044168192477
21
-1.07876014060379
31
0.000000000000000
  0
LINE
  5
F10248
330
F10249
100
AcDbEntity
8
Geo
100
AcDbLine
10
-32.8044168192477
20
-1.07876014060379
30
0.000000000000000
11
-32.7044168192477
21
-1.12718677897713
31
0.000000000000000
  0
LINE
  5
F1024A
330
F1024B
100
AcDbEntity
8
Geo
100
AcDbLine
10
-32.7044168192477
20
-1.12718677897713
30
0.000000000000000
11
-32.6044168192477
21
-1.17414858012668
31
0.000000000000000
  0
LINE
  5
F1024C
330
F1024D
100
AcDbEntity
8
Geo
100
AcDbLine
10
-32.6044168192477
20
-1.17414858012668
30
0.000000000000000
11
-32.5044168192477
21
-1.21963249940965
31
0.000000000000000
  0
LINE
  5
F1024E
330
F1024F
100
AcDbEntity
8
Geo
100
AcDbLine
10
-32.5044168192477
20
-1.21963249940965
30
0.000000000000000
11
-32.4044168192477
21
-1.26362590269646
31
0.000000000000000
  0
LINE
  5
F10250
330
F10251
100
AcDbEntity
8
Geo
100
AcDbLine
10
-32.4044168192477
20
-1.26362590269646
30
0.000000000000000
11
-32.3044168192477
21
-1.30611656988020
31
0.000000000000000
  0
LINE
  5
F10252
330
F10253
100
AcDbEntity
8
Geo
100
AcDbLine
10
-32.3044168192477
20
-1.30611656988020
30
0.000000000000000
11
-32.2044168192477
21
-1.34709269827097
31
0.000000000000000
  0
LINE
  5
F10254
330
F10255
100
AcDbEntity
8
Geo
100
AcDbLine
10
-32.2044168192477
20
-1.34709269827097
30
0.000000000000000
11
-32.1044168192477
21
-1.38654290587436
31
0.000000000000000
  0
LINE
  5
F10256
330
F10257
100
AcDbEntity
8
Geo
100
AcDbLine
10
-32.1044168192477
20
-1.38654290587436
30
0.000000000000000
11
-32.0044168192477
21
-1.42445623455303
31
0.000000000000000
  0
LINE
  5
F10258
330
F10259
100
AcDbEntity
8
Geo
100
AcDbLine
10
-32.0044168192477
20
-1.42445623455303
30
0.000000000000000
11
-31.9044168192477
21
-1.46082215307058
31
0.000000000000000
  0
LINE
  5
F1025A
330
F1025B
100
AcDbEntity
8
Geo
100
AcDbLine
10
-31.9044168192477
20
-1.46082215307058
30
0.000000000000000
11
-31.8044168192477
21
-1.49563056001680
31
0.000000000000000
  0
LINE
  5
F1025C
330
F1025D
100
AcDbEntity
8
Geo
100
AcDbLine
10
-31.8044168192477
20
-1.49563056001680
30
0.000000000000000
11
-31.7044168192477
21
-1.52887178661360
31
0.000000000000000
  0
LINE
  5
F1025E
330
F1025F
100
AcDbEntity
8
Geo
100
AcDbLine
10
-31.7044168192477
20
-1.52887178661360
30
0.000000000000000
11
-31.6044168192477
21
-1.56053659940063
31
0.000000000000000
  0
LINE
  5
F10260
330
F10261
100
AcDbEntity
8
Geo
100
AcDbLine
10
-31.6044168192477
20
-1.56053659940063
30
0.000000000000000
11
-31.5044168192477
21
-1.59061620280020
31
0.000000000000000
  0
LINE
  5
F10262
330
F10263
100
AcDbEntity
8
Geo
100
AcDbLine
10
-31.5044168192477
20
-1.59061620280020
30
0.000000000000000
11
-31.4044168192477
21
-1.61910224156031
31
0.000000000000000
  0
LINE
  5
F10264
330
F10265
100
AcDbEntity
8
Geo
100
AcDbLine
10
-31.4044168192477
20
-1.61910224156031
30
0.000000000000000
11
-31.3044168192477
21
-1.64598680307559
31
0.000000000000000
  0
LINE
  5
F10266
330
F10267
100
AcDbEntity
8
Geo
100
AcDbLine
10
-31.3044168192477
20
-1.64598680307559
30
0.000000000000000
11
-31.2044168192477
21
-1.67126241958515
31
0.000000000000000
  0
LINE
  5
F10268
330
F10269
100
AcDbEntity
8
Geo
100
AcDbLine
10
-31.2044168192477
20
-1.67126241958515
30
0.000000000000000
11
-31.1044168192477
21
-1.69492207024693
31
0.000000000000000
  0
LINE
  5
F1026A
330
F1026B
100
AcDbEntity
8
Geo
100
AcDbLine
10
-31.1044168192477
20
-1.69492207024693
30
0.000000000000000
11
-31.0044168192477
21
-1.71695918308787
31
0.000000000000000
  0
LINE
  5
F1026C
330
F1026D
100
AcDbEntity
8
Geo
100
AcDbLine
10
-31.0044168192477
20
-1.71695918308787
30
0.000000000000000
11
-30.9044168192477
21
-1.73736763682944
31
0.000000000000000
  0
LINE
  5
F1026E
330
F1026F
100
AcDbEntity
8
Geo
100
AcDbLine
10
-30.9044168192477
20
-1.73736763682944
30
0.000000000000000
11
-30.8044168192477
21
-1.75614176258794
31
0.000000000000000
  0
LINE
  5
F10270
330
F10271
100
AcDbEntity
8
Geo
100
AcDbLine
10
-30.8044168192477
20
-1.75614176258794
30
0.000000000000000
11
-30.7044168192477
21
-1.77327634544914
31
0.000000000000000
  0
LINE
  5
F10272
330
F10273
100
AcDbEntity
8
Geo
100
AcDbLine
10
-30.7044168192477
20
-1.77327634544914
30
0.000000000000000
11
-30.6044168192477
21
-1.78876662591688
31
0.000000000000000
  0
LINE
  5
F10274
330
F10275
100
AcDbEntity
8
Geo
100
AcDbLine
10
-30.6044168192477
20
-1.78876662591688
30
0.000000000000000
11
-30.5044168192477
21
-1.80260830123507
31
0.000000000000000
  0
LINE
  5
F10276
330
F10277
100
AcDbEntity
8
Geo
100
AcDbLine
10
-30.5044168192477
20
-1.80260830123507
30
0.000000000000000
11
-30.4044168192477
21
-1.81479752658291
31
0.000000000000000
  0
LINE
  5
F10278
330
F10279
100
AcDbEntity
8
Geo
100
AcDbLine
10
-30.4044168192477
20
-1.81479752658291
30
0.000000000000000
11
-30.3044168192477
21
-1.82533091614283
31
0.000000000000000
  0
LINE
  5
F1027A
330
F1027B
100
AcDbEntity
8
Geo
100
AcDbLine
10
-30.3044168192477
20
-1.82533091614283
30
0.000000000000000
11
-30.2044168192477
21
-1.83420554404103
31
0.000000000000000
  0
LINE
  5
F1027C
330
F1027D
100
AcDbEntity
8
Geo
100
AcDbLine
10
-30.2044168192477
20
-1.83420554404103
30
0.000000000000000
11
-30.1044168192477
21
-1.84141894516015
31
0.000000000000000
  0
LINE
  5
F1027E
330
F1027F
100
AcDbEntity
8
Geo
100
AcDbLine
10
-30.1044168192477
20
-1.84141894516015
30
0.000000000000000
11
-30.0044168192477
21
-1.84696911582404
31
0.000000000000000
  0
LINE
  5
F10280
330
F10281
100
AcDbEntity
8
Geo
100
AcDbLine
10
-30.0044168192477
20
-1.84696911582404
30
0.000000000000000
11
-29.9044168192477
21
-1.85085451435432
31
0.000000000000000
  0
LINE
  5
F10282
330
F10283
100
AcDbEntity
8
Geo
100
AcDbLine
10
-29.9044168192477
20
-1.85085451435432
30
0.000000000000000
11
-29.8044168192477
21
-1.85307406149860
31
0.000000000000000
  0
LINE
  5
F10284
330
F10285
100
AcDbEntity
8
Geo
100
AcDbLine
10
-29.8044168192477
20
-1.85307406149860
30
0.000000000000000
11
-29.7212319418667
21
-1.85365070187274
31
0.000000000000000
  0
LINE
  5
F10286
330
F10287
100
AcDbEntity
8
Geo
100
AcDbLine
10
-23.4380465432175
20
10.1463492981273
30
0.000000000000000
11
-23.4044168192477
21
10.1462550537424
31
0.000000000000000
  0
LINE
  5
F10288
330
F10289
100
AcDbEntity
8
Geo
100
AcDbLine
10
-23.4044168192477
20
10.1462550537424
30
0.000000000000000
11
-23.3044168192477
21
10.1448612919103
31
0.000000000000000
  0
LINE
  5
F1028A
330
F1028B
100
AcDbEntity
8
Geo
100
AcDbLine
10
-23.3044168192477
20
10.1448612919103
30
0.000000000000000
11
-23.2044168192477
21
10.1418013153168
31
0.000000000000000
  0
LINE
  5
F1028C
330
F1028D
100
AcDbEntity
8
Geo
100
AcDbLine
10
-23.2044168192477
20
10.1418013153168
30
0.000000000000000
11
-23.1044168192477
21
10.1370759739359
31
0.000000000000000
  0
LINE
  5
F1028E
330
F1028F
100
AcDbEntity
8
Geo
100
AcDbLine
10
-23.1044168192477
20
10.1370759739359
30
0.000000000000000
11
-23.0044168192477
21
10.1306865803320
31
0.000000000000000
  0
LINE
  5
F10290
330
F10291
100
AcDbEntity
8
Geo
100
AcDbLine
10
-23.0044168192477
20
10.1306865803320
30
0.000000000000000
11
-22.9044168192477
21
10.1226349092956
31
0.000000000000000
  0
LINE
  5
F10292
330
F10293
100
AcDbEntity
8
Geo
100
AcDbLine
10
-22.9044168192477
20
10.1226349092956
30
0.000000000000000
11
-22.8044168192477
21
10.1129231973501
31
0.000000000000000
  0
LINE
  5
F10294
330
F10295
100
AcDbEntity
8
Geo
100
AcDbLine
10
-22.8044168192477
20
10.1129231973501
30
0.000000000000000
11
-22.7044168192477
21
10.1015541421309
31
0.000000000000000
  0
LINE
  5
F10296
330
F10297
100
AcDbEntity
8
Geo
100
AcDbLine
10
-22.7044168192477
20
10.1015541421309
30
0.000000000000000
11
-22.6044168192477
21
10.0885309016357
31
0.000000000000000
  0
LINE
  5
F10298
330
F10299
100
AcDbEntity
8
Geo
100
AcDbLine
10
-22.6044168192477
20
10.0885309016357
30
0.000000000000000
11
-22.5044168192477
21
10.0738570933478
31
0.000000000000000
  0
LINE
  5
F1029A
330
F1029B
100
AcDbEntity
8
Geo
100
AcDbLine
10
-22.5044168192477
20
10.0738570933478
30
0.000000000000000
11
-22.4044168192477
21
10.0575367932304
31
0.000000000000000
  0
LINE
  5
F1029C
330
F1029D
100
AcDbEntity
8
Geo
100
AcDbLine
10
-22.4044168192477
20
10.0575367932304
30
0.000000000000000
11
-22.3044168192477
21
10.0395745345955
31
0.000000000000000
  0
LINE
  5
F1029E
330
F1029F
100
AcDbEntity
8
Geo
100
AcDbLine
10
-22.3044168192477
20
10.0395745345955
30
0.000000000000000
11
-22.2044168192477
21
10.0199753068438
31
0.000000000000000
  0
LINE
  5
F102A0
330
F102A1
100
AcDbEntity
8
Geo
100
AcDbLine
10
-22.2044168192477
20
10.0199753068438
30
0.000000000000000
11
-22.1044168192477
21
9.99874455407915
31
0.000000000000000
  0
LINE
  5
F102A2
330
F102A3
100
AcDbEntity
8
Geo
100
AcDbLine
10
-22.1044168192477
20
9.99874455407915
30
0.000000000000000
11
-22.0044168192477
21
9.97588817359646
31
0.000000000000000
  0
LINE
  5
F102A4
330
F102A5
100
AcDbEntity
8
Geo
100
AcDbLine
10
-22.0044168192477
20
9.97588817359646
30
0.000000000000000
11
-21.9044168192477
21
9.95141251424329
31
0.000000000000000
  0
LINE
  5
F102A6
330
F102A7
100
AcDbEntity
8
Geo
100
AcDbLine
10
-21.9044168192477
20
9.95141251424329
30
0.000000000000000
11
-21.8044168192477
21
9.92532437465654
31
0.000000000000000
  0
LINE
  5
F102A8
330
F102A9
100
AcDbEntity
8
Geo
100
AcDbLine
10
-21.8044168192477
20
9.92532437465654
30
0.000000000000000
11
-21.7044168192477
21
9.89763100137390
31
0.000000000000000
  0
LINE
  5
F102AA
330
F102AB
100
AcDbEntity
8
Geo
100
AcDbLine
10
-21.7044168192477
20
9.89763100137390
30
0.000000000000000
11
-21.6044168192477
21
9.86834008682100
31
0.000000000000000
  0
LINE
  5
F102AC
330
F102AD
100
AcDbEntity
8
Geo
100
AcDbLine
10
-21.6044168192477
20
9.86834008682100
30
0.000000000000000
11
-21.5044168192477
21
9.83745976717464
31
0.000000000000000
  0
LINE
  5
F102AE
330
F102AF
100
AcDbEntity
8
Geo
100
AcDbLine
10
-21.5044168192477
20
9.83745976717464
30
0.000000000000000
11
-21.4044168192477
21
9.80499862010284
31
0.000000000000000
  0
LINE
  5
F102B0
330
F102B1
100
AcDbEntity
8
Geo
100
AcDbLine
10
-21.4044168192477
20
9.80499862010284
30
0.000000000000000
11
-21.3044168192477
21
9.77096566238217
31
0.000000000000000
  0
LINE
  5
F102B2
330
F102B3
100
AcDbEntity
8
Geo
100
AcDbLine
10
-21.3044168192477
20
9.77096566238217
30
0.000000000000000
11
-21.2044168192477
21
9.73537034739317
31
0.000000000000000
  0
LINE
  5
F102B4
330
F102B5
100
AcDbEntity
8
Geo
100
AcDbLine
10
-21.2044168192477
20
9.73537034739317
30
0.000000000000000
11
-21.1044168192477
21
9.69822256249445
31
0.000000000000000
  0
LINE
  5
F102B6
330
F102B7
100
AcDbEntity
8
Geo
100
AcDbLine
10
-21.1044168192477
20
9.69822256249445
30
0.000000000000000
11
-21.0044168192477
21
9.65953262627628
31
0.000000000000000
  0
LINE
  5
F102B8
330
F102B9
100
AcDbEntity
8
Geo
100
AcDbLine
10
-21.0044168192477
20
9.65953262627628
30
0.000000000000000
11
-20.9044168192477
21
9.61931128569442
31
0.000000000000000
  0
LINE
  5
F102BA
330
F102BB
100
AcDbEntity
8
Geo
100
AcDbLine
10
-20.9044168192477
20
9.61931128569442
30
0.000000000000000
11
-20.8044168192477
21
9.57756971308483
31
0.000000000000000
  0
LINE
  5
F102BC
330
F102BD
100
AcDbEntity
8
Geo
100
AcDbLine
10
-20.8044168192477
20
9.57756971308483
30
0.000000000000000
11
-20.7044168192477
21
9.53431950306040
31
0.000000000000000
  0
LINE
  5
F102BE
330
F102BF
100
AcDbEntity
8
Geo
100
AcDbLine
10
-20.7044168192477
20
9.53431950306040
30
0.000000000000000
11
-20.6044168192477
21
9.48957266929026
31
0.000000000000000
  0
LINE
  5
F102C0
330
F102C1
100
AcDbEntity
8
Geo
100
AcDbLine
10
-20.6044168192477
20
9.48957266929026
30
0.000000000000000
11
-20.5044168192477
21
9.44334164116273
31
0.000000000000000
  0
LINE
  5
F102C2
330
F102C3
100
AcDbEntity
8
Geo
100
AcDbLine
10
-20.5044168192477
20
9.44334164116273
30
0.000000000000000
11
-20.4044168192477
21
9.39563926033282
31
0.000000000000000
  0
LINE
  5
F102C4
330
F102C5
100
AcDbEntity
8
Geo
100
AcDbLine
10
-20.4044168192477
20
9.39563926033282
30
0.000000000000000
11
-20.3044168192477
21
9.34647877715513
31
0.000000000000000
  0
LINE
  5
F102C6
330
F102C7
100
AcDbEntity
8
Geo
100
AcDbLine
10
-20.3044168192477
20
9.34647877715513
30
0.000000000000000
11
-20.2044168192477
21
9.29587384700334
31
0.000000000000000
  0
LINE
  5
F102C8
330
F102C9
100
AcDbEntity
8
Geo
100
AcDbLine
10
-20.2044168192477
20
9.29587384700334
30
0.000000000000000
11
-20.1044168192477
21
9.24383852647709
31
0.000000000000000
  0
LINE
  5
F102CA
330
F102CB
100
AcDbEntity
8
Geo
100
AcDbLine
10
-20.1044168192477
20
9.24383852647709
30
0.000000000000000
11
-20.0044168192477
21
9.19038726949751
31
0.000000000000000
  0
LINE
  5
F102CC
330
F102CD
100
AcDbEntity
8
Geo
100
AcDbLine
10
-20.0044168192477
20
9.19038726949751
30
0.000000000000000
11
-19.9044168192477
21
9.13553492329229
31
0.000000000000000
  0
LINE
  5
F102CE
330
F102CF
100
AcDbEntity
8
Geo
100
AcDbLine
10
-19.9044168192477
20
9.13553492329229
30
0.000000000000000
11
-19.8044168192477
21
9.07929672427156
31
0.000000000000000
  0
LINE
  5
F102D0
330
F102D1
100
AcDbEntity
8
Geo
100
AcDbLine
10
-19.8044168192477
20
9.07929672427156
30
0.000000000000000
11
-19.7044168192477
21
9.02168829379566
31
0.000000000000000
  0
LINE
  5
F102D2
330
F102D3
100
AcDbEntity
8
Geo
100
AcDbLine
10
-19.7044168192477
20
9.02168829379566
30
0.000000000000000
11
-19.6044168192477
21
8.96272563383597
31
0.000000000000000
  0
LINE
  5
F102D4
330
F102D5
100
AcDbEntity
8
Geo
100
AcDbLine
10
-19.6044168192477
20
8.96272563383597
30
0.000000000000000
11
-19.5044168192477
21
8.90242512253002
31
0.000000000000000
  0
LINE
  5
F102D6
330
F102D7
100
AcDbEntity
8
Geo
100
AcDbLine
10
-19.5044168192477
20
8.90242512253002
30
0.000000000000000
11
-19.4044168192477
21
8.84080350963210
31
0.000000000000000
  0
LINE
  5
F102D8
330
F102D9
100
AcDbEntity
8
Geo
100
AcDbLine
10
-19.4044168192477
20
8.84080350963210
30
0.000000000000000
11
-19.3044168192477
21
8.77787791186068
31
0.000000000000000
  0
LINE
  5
F102DA
330
F102DB
100
AcDbEntity
8
Geo
100
AcDbLine
10
-19.3044168192477
20
8.77787791186068
30
0.000000000000000
11
-19.2044168192477
21
8.71366580814387
31
0.000000000000000
  0
LINE
  5
F102DC
330
F102DD
100
AcDbEntity
8
Geo
100
AcDbLine
10
-19.2044168192477
20
8.71366580814387
30
0.000000000000000
11
-19.1044168192477
21
8.64818503476427
31
0.000000000000000
  0
LINE
  5
F102DE
330
F102DF
100
AcDbEntity
8
Geo
100
AcDbLine
10
-19.1044168192477
20
8.64818503476427
30
0.000000000000000
11
-19.0044168192477
21
8.58145378040454
31
0.000000000000000
  0
LINE
  5
F102E0
330
F102E1
100
AcDbEntity
8
Geo
100
AcDbLine
10
-19.0044168192477
20
8.58145378040454
30
0.000000000000000
11
-18.9044168192477
21
8.51349058109515
31
0.000000000000000
  0
LINE
  5
F102E2
330
F102E3
100
AcDbEntity
8
Geo
100
AcDbLine
10
-18.9044168192477
20
8.51349058109515
30
0.000000000000000
11
-18.8044168192477
21
8.44431431506557
31
0.000000000000000
  0
LINE
  5
F102E4
330
F102E5
100
AcDbEntity
8
Geo
100
AcDbLine
10
-18.8044168192477
20
8.44431431506557
30
0.000000000000000
11
-18.7044168192477
21
8.37394419750046
31
0.000000000000000
  0
LINE
  5
F102E6
330
F102E7
100
AcDbEntity
8
Geo
100
AcDbLine
10
-18.7044168192477
20
8.37394419750046
30
0.000000000000000
11
-18.6044168192477
21
8.30239977520222
31
0.000000000000000
  0
LINE
  5
F102E8
330
F102E9
100
AcDbEntity
8
Geo
100
AcDbLine
10
-18.6044168192477
20
8.30239977520222
30
0.000000000000000
11
-18.5044168192477
21
8.22970092116145
31
0.000000000000000
  0
LINE
  5
F102EA
330
F102EB
100
AcDbEntity
8
Geo
100
AcDbLine
10
-18.5044168192477
20
8.22970092116145
30
0.000000000000000
11
-18.4044168192477
21
8.15586782903682
31
0.000000000000000
  0
LINE
  5
F102EC
330
F102ED
100
AcDbEntity
8
Geo
100
AcDbLine
10
-18.4044168192477
20
8.15586782903682
30
0.000000000000000
11
-18.3044168192477
21
8.08092100754584
31
0.000000000000000
  0
LINE
  5
F102EE
330
F102EF
100
AcDbEntity
8
Geo
100
AcDbLine
10
-18.3044168192477
20
8.08092100754584
30
0.000000000000000
11
-18.2044168192477
21
8.00488127476815
31
0.000000000000000
  0
LINE
  5
F102F0
330
F102F1
100
AcDbEntity
8
Geo
100
AcDbLine
10
-18.2044168192477
20
8.00488127476815
30
0.000000000000000
11
-18.1044168192477
21
7.92776975236278
31
0.000000000000000
  0
LINE
  5
F102F2
330
F102F3
100
AcDbEntity
8
Geo
100
AcDbLine
10
-18.1044168192477
20
7.92776975236278
30
0.000000000000000
11
-18.0044168192477
21
7.84960785970126
31
0.000000000000000
  0
LINE
  5
F102F4
330
F102F5
100
AcDbEntity
8
Geo
100
AcDbLine
10
-18.0044168192477
20
7.84960785970126
30
0.000000000000000
11
-17.9044168192477
21
7.77041730791785
31
0.000000000000000
  0
LINE
  5
F102F6
330
F102F7
100
AcDbEntity
8
Geo
100
AcDbLine
10
-17.9044168192477
20
7.77041730791785
30
0.000000000000000
11
-17.8044168192477
21
7.69022009387886
31
0.000000000000000
  0
LINE
  5
F102F8
330
F102F9
100
AcDbEntity
8
Geo
100
AcDbLine
10
-17.8044168192477
20
7.69022009387886
30
0.000000000000000
11
-17.7044168192477
21
7.60903849407251
31
0.000000000000000
  0
LINE
  5
F102FA
330
F102FB
100
AcDbEntity
8
Geo
100
AcDbLine
10
-17.7044168192477
20
7.60903849407251
30
0.000000000000000
11
-17.6044168192477
21
7.52689505842121
31
0.000000000000000
  0
LINE
  5
F102FC
330
F102FD
100
AcDbEntity
8
Geo
100
AcDbLine
10
-17.6044168192477
20
7.52689505842121
30
0.000000000000000
11
-17.5044168192477
21
7.44381260401779
31
0.000000000000000
  0
LINE
  5
F102FE
330
F102FF
100
AcDbEntity
8
Geo
100
AcDbLine
10
-17.5044168192477
20
7.44381260401779
30
0.000000000000000
11
-17.4044168192477
21
7.35981420878758
31
0.000000000000000
  0
LINE
  5
F10300
330
F10301
100
AcDbEntity
8
Geo
100
AcDbLine
10
-17.4044168192477
20
7.35981420878758
30
0.000000000000000
11
-17.3044168192477
21
7.27492320507804
31
0.000000000000000
  0
LINE
  5
F10302
330
F10303
100
AcDbEntity
8
Geo
100
AcDbLine
10
-17.3044168192477
20
7.27492320507804
30
0.000000000000000
11
-17.2044168192477
21
7.18916317317769
31
0.000000000000000
  0
LINE
  5
F10304
330
F10305
100
AcDbEntity
8
Geo
100
AcDbLine
10
-17.2044168192477
20
7.18916317317769
30
0.000000000000000
11
-17.1044168192477
21
7.10255793476617
31
0.000000000000000
  0
LINE
  5
F10306
330
F10307
100
AcDbEntity
8
Geo
100
AcDbLine
10
-17.1044168192477
20
7.10255793476617
30
0.000000000000000
11
-17.0044168192477
21
7.01513154629728
31
0.000000000000000
  0
LINE
  5
F10308
330
F10309
100
AcDbEntity
8
Geo
100
AcDbLine
10
-17.0044168192477
20
7.01513154629728
30
0.000000000000000
11
-16.9044168192477
21
6.92690829231679
31
0.000000000000000
  0
LINE
  5
F1030A
330
F1030B
100
AcDbEntity
8
Geo
100
AcDbLine
10
-16.9044168192477
20
6.92690829231679
30
0.000000000000000
11
-16.8044168192477
21
6.83791267871685
31
0.000000000000000
  0
LINE
  5
F1030C
330
F1030D
100
AcDbEntity
8
Geo
100
AcDbLine
10
-16.8044168192477
20
6.83791267871685
30
0.000000000000000
11
-16.7044168192477
21
6.74816942592901
31
0.000000000000000
  0
LINE
  5
F1030E
330
F1030F
100
AcDbEntity
8
Geo
100
AcDbLine
10
-16.7044168192477
20
6.74816942592901
30
0.000000000000000
11
-16.6044168192477
21
6.65770346205755
31
0.000000000000000
  0
LINE
  5
F10310
330
F10311
100
AcDbEntity
8
Geo
100
AcDbLine
10
-16.6044168192477
20
6.65770346205755
30
0.000000000000000
11
-16.5044168192477
21
6.56653991595518
31
0.000000000000000
  0
LINE
  5
F10312
330
F10313
100
AcDbEntity
8
Geo
100
AcDbLine
10
-16.5044168192477
20
6.56653991595518
30
0.000000000000000
11
-16.4044168192477
21
6.47470411024297
31
0.000000000000000
  0
LINE
  5
F10314
330
F10315
100
AcDbEntity
8
Geo
100
AcDbLine
10
-16.4044168192477
20
6.47470411024297
30
0.000000000000000
11
-16.3044168192477
21
6.38222155427645
31
0.000000000000000
  0
LINE
  5
F10316
330
F10317
100
AcDbEntity
8
Geo
100
AcDbLine
10
-16.3044168192477
20
6.38222155427645
30
0.000000000000000
11
-16.2044168192477
21
6.28911793705984
31
0.000000000000000
  0
LINE
  5
F10318
330
F10319
100
AcDbEntity
8
Geo
100
AcDbLine
10
-16.2044168192477
20
6.28911793705984
30
0.000000000000000
11
-16.1044168192477
21
6.19541912011038
31
0.000000000000000
  0
LINE
  5
F1031A
330
F1031B
100
AcDbEntity
8
Geo
100
AcDbLine
10
-16.1044168192477
20
6.19541912011038
30
0.000000000000000
11
-16.0044168192477
21
6.10115113027474
31
0.000000000000000
  0
LINE
  5
F1031C
330
F1031D
100
AcDbEntity
8
Geo
100
AcDbLine
10
-16.0044168192477
20
6.10115113027474
30
0.000000000000000
11
-15.9044168192477
21
6.00634015249951
31
0.000000000000000
  0
LINE
  5
F1031E
330
F1031F
100
AcDbEntity
8
Geo
100
AcDbLine
10
-15.9044168192477
20
6.00634015249951
30
0.000000000000000
11
-15.8044168192476
21
5.91101252255777
31
0.000000000000000
  0
LINE
  5
F10320
330
F10321
100
AcDbEntity
8
Geo
100
AcDbLine
10
-15.8044168192476
20
5.91101252255777
30
0.000000000000000
11
-15.7044168192476
21
5.81519471973377
31
0.000000000000000
  0
LINE
  5
F10322
330
F10323
100
AcDbEntity
8
Geo
100
AcDbLine
10
-15.7044168192476
20
5.81519471973377
30
0.000000000000000
11
-15.6044168192476
21
5.71891335946775
31
0.000000000000000
  0
LINE
  5
F10324
330
F10325
100
AcDbEntity
8
Geo
100
AcDbLine
10
-15.6044168192476
20
5.71891335946775
30
0.000000000000000
11
-15.5044168192476
21
5.62219518596292
31
0.000000000000000
  0
LINE
  5
F10326
330
F10327
100
AcDbEntity
8
Geo
100
AcDbLine
10
-15.5044168192476
20
5.62219518596292
30
0.000000000000000
11
-15.4044168192476
21
5.52506706475668
31
0.000000000000000
  0
LINE
  5
F10328
330
F10329
100
AcDbEntity
8
Geo
100
AcDbLine
10
-15.4044168192476
20
5.52506706475668
30
0.000000000000000
11
-15.3044168192476
21
5.42755597525818
31
0.000000000000000
  0
LINE
  5
F1032A
330
F1032B
100
AcDbEntity
8
Geo
100
AcDbLine
10
-15.3044168192476
20
5.42755597525818
30
0.000000000000000
11
-15.2044168192476
21
5.32968900325416
31
0.000000000000000
  0
LINE
  5
F1032C
330
F1032D
100
AcDbEntity
8
Geo
100
AcDbLine
10
-15.2044168192476
20
5.32968900325416
30
0.000000000000000
11
-15.1044168192476
21
5.23149333338535
31
0.000000000000000
  0
LINE
  5
F1032E
330
F1032F
100
AcDbEntity
8
Geo
100
AcDbLine
10
-15.1044168192476
20
5.23149333338535
30
0.000000000000000
11
-15.0044168192476
21
5.13299624159531
31
0.000000000000000
  0
LINE
  5
F10330
330
F10331
100
AcDbEntity
8
Geo
100
AcDbLine
10
-15.0044168192476
20
5.13299624159531
30
0.000000000000000
11
-14.9044168192476
21
5.03422508755399
31
0.000000000000000
  0
LINE
  5
F10332
330
F10333
100
AcDbEntity
8
Geo
100
AcDbLine
10
-14.9044168192476
20
5.03422508755399
30
0.000000000000000
11
-14.8044168192476
21
4.93520730705796
31
0.000000000000000
  0
LINE
  5
F10334
330
F10335
100
AcDbEntity
8
Geo
100
AcDbLine
10
-14.8044168192476
20
4.93520730705796
30
0.000000000000000
11
-14.7044168192476
21
4.83597040440958
31
0.000000000000000
  0
LINE
  5
F10336
330
F10337
100
AcDbEntity
8
Geo
100
AcDbLine
10
-14.7044168192476
20
4.83597040440958
30
0.000000000000000
11
-14.6044168192476
21
4.73654194477703
31
0.000000000000000
  0
LINE
  5
F10338
330
F10339
100
AcDbEntity
8
Geo
100
AcDbLine
10
-14.6044168192476
20
4.73654194477703
30
0.000000000000000
11
-14.5044168192476
21
4.63694954653756
31
0.000000000000000
  0
LINE
  5
F1033A
330
F1033B
100
AcDbEntity
8
Geo
100
AcDbLine
10
-14.5044168192476
20
4.63694954653756
30
0.000000000000000
11
-14.4044168192476
21
4.53722087360586
31
0.000000000000000
  0
LINE
  5
F1033C
330
F1033D
100
AcDbEntity
8
Geo
100
AcDbLine
10
-14.4044168192476
20
4.53722087360586
30
0.000000000000000
11
-14.3044168192476
21
4.43738362774983
31
0.000000000000000
  0
LINE
  5
F1033E
330
F1033F
100
AcDbEntity
8
Geo
100
AcDbLine
10
-14.3044168192476
20
4.43738362774983
30
0.000000000000000
11
-14.2044168192476
21
4.33746554089580
31
0.000000000000000
  0
LINE
  5
F10340
330
F10341
100
AcDbEntity
8
Geo
100
AcDbLine
10
-14.2044168192476
20
4.33746554089580
30
0.000000000000000
11
-14.1044168192476
21
4.23749436742543
31
0.000000000000000
  0
LINE
  5
F10342
330
F10343
100
AcDbEntity
8
Geo
100
AcDbLine
10
-14.1044168192476
20
4.23749436742543
30
0.000000000000000
11
-14.0044168192476
21
4.13749787646632
31
0.000000000000000
  0
LINE
  5
F10344
330
F10345
100
AcDbEntity
8
Geo
100
AcDbLine
10
-14.0044168192476
20
4.13749787646632
30
0.000000000000000
11
-13.9044168192476
21
4.03750384417854
31
0.000000000000000
  0
LINE
  5
F10346
330
F10347
100
AcDbEntity
8
Geo
100
AcDbLine
10
-13.9044168192476
20
4.03750384417854
30
0.000000000000000
11
-13.8044168192476
21
3.93754004603919
31
0.000000000000000
  0
LINE
  5
F10348
330
F10349
100
AcDbEntity
8
Geo
100
AcDbLine
10
-13.8044168192476
20
3.93754004603919
30
0.000000000000000
11
-13.7044168192476
21
3.83763424912724
31
0.000000000000000
  0
LINE
  5
F1034A
330
F1034B
100
AcDbEntity
8
Geo
100
AcDbLine
10
-13.7044168192476
20
3.83763424912724
30
0.000000000000000
11
-13.6044168192476
21
3.73781420441052
31
0.000000000000000
  0
LINE
  5
F1034C
330
F1034D
100
AcDbEntity
8
Geo
100
AcDbLine
10
-13.6044168192476
20
3.73781420441052
30
0.000000000000000
11
-13.5044168192476
21
3.63810763903742
31
0.000000000000000
  0
LINE
  5
F1034E
330
F1034F
100
AcDbEntity
8
Geo
100
AcDbLine
10
-13.5044168192476
20
3.63810763903742
30
0.000000000000000
11
-13.4044168192476
21
3.53854224863496
31
0.000000000000000
  0
LINE
  5
F10350
330
F10351
100
AcDbEntity
8
Geo
100
AcDbLine
10
-13.4044168192476
20
3.53854224863496
30
0.000000000000000
11
-13.3044168192476
21
3.43914568961584
31
0.000000000000000
  0
LINE
  5
F10352
330
F10353
100
AcDbEntity
8
Geo
100
AcDbLine
10
-13.3044168192476
20
3.43914568961584
30
0.000000000000000
11
-13.2044168192476
21
3.33994557149623
31
0.000000000000000
  0
LINE
  5
F10354
330
F10355
100
AcDbEntity
8
Geo
100
AcDbLine
10
-13.2044168192476
20
3.33994557149623
30
0.000000000000000
11
-13.1044168192476
21
3.24096944922662
31
0.000000000000000
  0
LINE
  5
F10356
330
F10357
100
AcDbEntity
8
Geo
100
AcDbLine
10
-26.7890779519445
20
10.1463492981273
30
0.000000000000000
11
-26.7044168192477
21
10.1457520098741
31
0.000000000000000
  0
LINE
  5
F10358
330
F10359
100
AcDbEntity
8
Geo
100
AcDbLine
10
-26.7044168192477
20
10.1457520098741
30
0.000000000000000
11
-26.6044168192477
21
10.1435078651051
31
0.000000000000000
  0
LINE
  5
F1035A
330
F1035B
100
AcDbEntity
8
Geo
100
AcDbLine
10
-26.6044168192477
20
10.1435078651051
30
0.000000000000000
11
-26.5044168192477
21
10.1395978815181
31
0.000000000000000
  0
LINE
  5
F1035C
330
F1035D
100
AcDbEntity
8
Geo
100
AcDbLine
10
-26.5044168192477
20
10.1395978815181
30
0.000000000000000
11
-26.4044168192477
21
10.1340231451943
31
0.000000000000000
  0
LINE
  5
F1035E
330
F1035F
100
AcDbEntity
8
Geo
100
AcDbLine
10
-26.4044168192477
20
10.1340231451943
30
0.000000000000000
11
-26.3044168192477
21
10.1267852046359
31
0.000000000000000
  0
LINE
  5
F10360
330
F10361
100
AcDbEntity
8
Geo
100
AcDbLine
10
-26.3044168192477
20
10.1267852046359
30
0.000000000000000
11
-26.2044168192477
21
10.1178860703353
31
0.000000000000000
  0
LINE
  5
F10362
330
F10363
100
AcDbEntity
8
Geo
100
AcDbLine
10
-26.2044168192477
20
10.1178860703353
30
0.000000000000000
11
-26.1044168192477
21
10.1073282142171
31
0.000000000000000
  0
LINE
  5
F10364
330
F10365
100
AcDbEntity
8
Geo
100
AcDbLine
10
-26.1044168192477
20
10.1073282142171
30
0.000000000000000
11
-26.0044168192477
21
10.0951145689511
31
0.000000000000000
  0
LINE
  5
F10366
330
F10367
100
AcDbEntity
8
Geo
100
AcDbLine
10
-26.0044168192477
20
10.0951145689511
30
0.000000000000000
11
-25.9044168192477
21
10.0812485271382
31
0.000000000000000
  0
LINE
  5
F10368
330
F10369
100
AcDbEntity
8
Geo
100
AcDbLine
10
-25.9044168192477
20
10.0812485271382
30
0.000000000000000
11
-25.8044168192477
21
10.0657339403674
31
0.000000000000000
  0
LINE
  5
F1036A
330
F1036B
100
AcDbEntity
8
Geo
100
AcDbLine
10
-25.8044168192477
20
10.0657339403674
30
0.000000000000000
11
-25.7044168192477
21
10.0485751181464
31
0.000000000000000
  0
LINE
  5
F1036C
330
F1036D
100
AcDbEntity
8
Geo
100
AcDbLine
10
-25.7044168192477
20
10.0485751181464
30
0.000000000000000
11
-25.6044168192477
21
10.0297768267044
31
0.000000000000000
  0
LINE
  5
F1036E
330
F1036F
100
AcDbEntity
8
Geo
100
AcDbLine
10
-25.6044168192477
20
10.0297768267044
30
0.000000000000000
11
-25.5044168192477
21
10.0093442876681
31
0.000000000000000
  0
LINE
  5
F10370
330
F10371
100
AcDbEntity
8
Geo
100
AcDbLine
10
-25.5044168192477
20
10.0093442876681
30
0.000000000000000
11
-25.4044168192477
21
9.98728317661143
31
0.000000000000000
  0
LINE
  5
F10372
330
F10373
100
AcDbEntity
8
Geo
100
AcDbLine
10
-25.4044168192477
20
9.98728317661143
30
0.000000000000000
11
-25.3044168192477
21
9.96359962147896
31
0.000000000000000
  0
LINE
  5
F10374
330
F10375
100
AcDbEntity
8
Geo
100
AcDbLine
10
-25.3044168192477
20
9.96359962147896
30
0.000000000000000
11
-25.2044168192477
21
9.93830020088369
31
0.000000000000000
  0
LINE
  5
F10376
330
F10377
100
AcDbEntity
8
Geo
100
AcDbLine
10
-25.2044168192477
20
9.93830020088369
30
0.000000000000000
11
-25.1044168192477
21
9.91139194227980
31
0.000000000000000
  0
LINE
  5
F10378
330
F10379
100
AcDbEntity
8
Geo
100
AcDbLine
10
-25.1044168192477
20
9.91139194227980
30
0.000000000000000
11
-25.0044168192477
21
9.88288232001054
31
0.000000000000000
  0
LINE
  5
F1037A
330
F1037B
100
AcDbEntity
8
Geo
100
AcDbLine
10
-25.0044168192477
20
9.88288232001054
30
0.000000000000000
11
-24.9044168192477
21
9.85277925323211
31
0.000000000000000
  0
LINE
  5
F1037C
330
F1037D
100
AcDbEntity
8
Geo
100
AcDbLine
10
-24.9044168192477
20
9.85277925323211
30
0.000000000000000
11
-24.8044168192477
21
9.82109110371395
31
0.000000000000000
  0
LINE
  5
F1037E
330
F1037F
100
AcDbEntity
8
Geo
100
AcDbLine
10
-24.8044168192477
20
9.82109110371395
30
0.000000000000000
11
-24.7044168192477
21
9.78782667351606
31
0.000000000000000
  0
LINE
  5
F10380
330
F10381
100
AcDbEntity
8
Geo
100
AcDbLine
10
-24.7044168192477
20
9.78782667351606
30
0.000000000000000
11
-24.6044168192477
21
9.75299520254404
31
0.000000000000000
  0
LINE
  5
F10382
330
F10383
100
AcDbEntity
8
Geo
100
AcDbLine
10
-24.6044168192477
20
9.75299520254404
30
0.000000000000000
11
-24.5044168192477
21
9.71660636598254
31
0.000000000000000
  0
LINE
  5
F10384
330
F10385
100
AcDbEntity
8
Geo
100
AcDbLine
10
-24.5044168192477
20
9.71660636598254
30
0.000000000000000
11
-24.4044168192477
21
9.67867027160773
31
0.000000000000000
  0
LINE
  5
F10386
330
F10387
100
AcDbEntity
8
Geo
100
AcDbLine
10
-24.4044168192477
20
9.67867027160773
30
0.000000000000000
11
-24.3044168192477
21
9.63919745697967
31
0.000000000000000
  0
LINE
  5
F10388
330
F10389
100
AcDbEntity
8
Geo
100
AcDbLine
10
-24.3044168192477
20
9.63919745697967
30
0.000000000000000
11
-24.2044168192477
21
9.59819888651529
31
0.000000000000000
  0
LINE
  5
F1038A
330
F1038B
100
AcDbEntity
8
Geo
100
AcDbLine
10
-24.2044168192477
20
9.59819888651529
30
0.000000000000000
11
-24.1044168192477
21
9.55568594844276
31
0.000000000000000
  0
LINE
  5
F1038C
330
F1038D
100
AcDbEntity
8
Geo
100
AcDbLine
10
-24.1044168192477
20
9.55568594844276
30
0.000000000000000
11
-24.0044168192477
21
9.51167045163820
31
0.000000000000000
  0
LINE
  5
F1038E
330
F1038F
100
AcDbEntity
8
Geo
100
AcDbLine
10
-24.0044168192477
20
9.51167045163820
30
0.000000000000000
11
-23.9044168192477
21
9.46616462234546
31
0.000000000000000
  0
LINE
  5
F10390
330
F10391
100
AcDbEntity
8
Geo
100
AcDbLine
10
-23.9044168192477
20
9.46616462234546
30
0.000000000000000
11
-23.8044168192477
21
9.41918110078008
31
0.000000000000000
  0
LINE
  5
F10392
330
F10393
100
AcDbEntity
8
Geo
100
AcDbLine
10
-23.8044168192477
20
9.41918110078008
30
0.000000000000000
11
-23.7044168192477
21
9.37073293761818
31
0.000000000000000
  0
LINE
  5
F10394
330
F10395
100
AcDbEntity
8
Geo
100
AcDbLine
10
-23.7044168192477
20
9.37073293761818
30
0.000000000000000
11
-23.6044168192477
21
9.32083359037134
31
0.000000000000000
  0
LINE
  5
F10396
330
F10397
100
AcDbEntity
8
Geo
100
AcDbLine
10
-23.6044168192477
20
9.32083359037134
30
0.000000000000000
11
-23.5044168192477
21
9.26949691964849
31
0.000000000000000
  0
LINE
  5
F10398
330
F10399
100
AcDbEntity
8
Geo
100
AcDbLine
10
-23.5044168192477
20
9.26949691964849
30
0.000000000000000
11
-23.4044168192477
21
9.21673718530584
31
0.000000000000000
  0
LINE
  5
F1039A
330
F1039B
100
AcDbEntity
8
Geo
100
AcDbLine
10
-23.4044168192477
20
9.21673718530584
30
0.000000000000000
11
-23.3044168192477
21
9.16256904248593
31
0.000000000000000
  0
LINE
  5
F1039C
330
F1039D
100
AcDbEntity
8
Geo
100
AcDbLine
10
-23.3044168192477
20
9.16256904248593
30
0.000000000000000
11
-23.2044168192477
21
9.10700753754679
31
0.000000000000000
  0
LINE
  5
F1039E
330
F1039F
100
AcDbEntity
8
Geo
100
AcDbLine
10
-23.2044168192477
20
9.10700753754679
30
0.000000000000000
11
-23.1044168192477
21
9.05006810388252
31
0.000000000000000
  0
LINE
  5
F103A0
330
F103A1
100
AcDbEntity
8
Geo
100
AcDbLine
10
-23.1044168192477
20
9.05006810388252
30
0.000000000000000
11
-23.0044168192477
21
8.99176655763637
31
0.000000000000000
  0
LINE
  5
F103A2
330
F103A3
100
AcDbEntity
8
Geo
100
AcDbLine
10
-23.0044168192477
20
8.99176655763637
30
0.000000000000000
11
-22.9044168192477
21
8.93211909330741
31
0.000000000000000
  0
LINE
  5
F103A4
330
F103A5
100
AcDbEntity
8
Geo
100
AcDbLine
10
-22.9044168192477
20
8.93211909330741
30
0.000000000000000
11
-22.8044168192477
21
8.87114227925220
31
0.000000000000000
  0
LINE
  5
F103A6
330
F103A7
100
AcDbEntity
8
Geo
100
AcDbLine
10
-22.8044168192477
20
8.87114227925220
30
0.000000000000000
11
-22.7044168192477
21
8.80885305308257
31
0.000000000000000
  0
LINE
  5
F103A8
330
F103A9
100
AcDbEntity
8
Geo
100
AcDbLine
10
-22.7044168192477
20
8.80885305308257
30
0.000000000000000
11
-22.6044168192477
21
8.74526871696082
31
0.000000000000000
  0
LINE
  5
F103AA
330
F103AB
100
AcDbEntity
8
Geo
100
AcDbLine
10
-22.6044168192477
20
8.74526871696082
30
0.000000000000000
11
-22.5044168192477
21
8.68040693279369
31
0.000000000000000
  0
LINE
  5
F103AC
330
F103AD
100
AcDbEntity
8
Geo
100
AcDbLine
10
-22.5044168192477
20
8.68040693279369
30
0.000000000000000
11
-22.4044168192477
21
8.61428571732639
31
0.000000000000000
  0
LINE
  5
F103AE
330
F103AF
100
AcDbEntity
8
Geo
100
AcDbLine
10
-22.4044168192477
20
8.61428571732639
30
0.000000000000000
11
-22.3044168192477
21
8.54692343713807
31
0.000000000000000
  0
LINE
  5
F103B0
330
F103B1
100
AcDbEntity
8
Geo
100
AcDbLine
10
-22.3044168192477
20
8.54692343713807
30
0.000000000000000
11
-22.2044168192477
21
8.47833880354007
31
0.000000000000000
  0
LINE
  5
F103B2
330
F103B3
100
AcDbEntity
8
Geo
100
AcDbLine
10
-22.2044168192477
20
8.47833880354007
30
0.000000000000000
11
-22.1044168192477
21
8.40855086737852
31
0.000000000000000
  0
LINE
  5
F103B4
330
F103B5
100
AcDbEntity
8
Geo
100
AcDbLine
10
-22.1044168192477
20
8.40855086737852
30
0.000000000000000
11
-22.0044168192477
21
8.33757901374250
31
0.000000000000000
  0
LINE
  5
F103B6
330
F103B7
100
AcDbEntity
8
Geo
100
AcDbLine
10
-22.0044168192477
20
8.33757901374250
30
0.000000000000000
11
-21.9044168192477
21
8.26544295657945
31
0.000000000000000
  0
LINE
  5
F103B8
330
F103B9
100
AcDbEntity
8
Geo
100
AcDbLine
10
-21.9044168192477
20
8.26544295657945
30
0.000000000000000
11
-21.8044168192477
21
8.19216273321920
31
0.000000000000000
  0
LINE
  5
F103BA
330
F103BB
100
AcDbEntity
8
Geo
100
AcDbLine
10
-21.8044168192477
20
8.19216273321920
30
0.000000000000000
11
-21.7044168192477
21
8.11775869880814
31
0.000000000000000
  0
LINE
  5
F103BC
330
F103BD
100
AcDbEntity
8
Geo
100
AcDbLine
10
-21.7044168192477
20
8.11775869880814
30
0.000000000000000
11
-21.6044168192477
21
8.04225152065521
31
0.000000000000000
  0
LINE
  5
F103BE
330
F103BF
100
AcDbEntity
8
Geo
100
AcDbLine
10
-21.6044168192477
20
8.04225152065521
30
0.000000000000000
11
-21.5044168192477
21
7.96566217249104
31
0.000000000000000
  0
LINE
  5
F103C0
330
F103C1
100
AcDbEntity
8
Geo
100
AcDbLine
10
-21.5044168192477
20
7.96566217249104
30
0.000000000000000
11
-21.4044168192477
21
7.88801192864211
31
0.000000000000000
  0
LINE
  5
F103C2
330
F103C3
100
AcDbEntity
8
Geo
100
AcDbLine
10
-21.4044168192477
20
7.88801192864211
30
0.000000000000000
11
-21.3044168192477
21
7.80932235812130
31
0.000000000000000
  0
LINE
  5
F103C4
330
F103C5
100
AcDbEntity
8
Geo
100
AcDbLine
10
-21.3044168192477
20
7.80932235812130
30
0.000000000000000
11
-21.2044168192477
21
7.72961531863667
31
0.000000000000000
  0
LINE
  5
F103C6
330
F103C7
100
AcDbEntity
8
Geo
100
AcDbLine
10
-21.2044168192477
20
7.72961531863667
30
0.000000000000000
11
-21.1044168192477
21
7.64891295052002
31
0.000000000000000
  0
LINE
  5
F103C8
330
F103C9
100
AcDbEntity
8
Geo
100
AcDbLine
10
-21.1044168192477
20
7.64891295052002
30
0.000000000000000
11
-21.0044168192477
21
7.56723767057690
31
0.000000000000000
  0
LINE
  5
F103CA
330
F103CB
100
AcDbEntity
8
Geo
100
AcDbLine
10
-21.0044168192477
20
7.56723767057690
30
0.000000000000000
11
-20.9044168192477
21
7.48461216585990
31
0.000000000000000
  0
LINE
  5
F103CC
330
F103CD
100
AcDbEntity
8
Geo
100
AcDbLine
10
-20.9044168192477
20
7.48461216585990
30
0.000000000000000
11
-20.8044168192477
21
7.40105938736684
31
0.000000000000000
  0
LINE
  5
F103CE
330
F103CF
100
AcDbEntity
8
Geo
100
AcDbLine
10
-20.8044168192477
20
7.40105938736684
30
0.000000000000000
11
-20.7044168192477
21
7.31660254366560
31
0.000000000000000
  0
LINE
  5
F103D0
330
F103D1
100
AcDbEntity
8
Geo
100
AcDbLine
10
-20.7044168192477
20
7.31660254366560
30
0.000000000000000
11
-20.6044168192477
21
7.23126509444749
31
0.000000000000000
  0
LINE
  5
F103D2
330
F103D3
100
AcDbEntity
8
Geo
100
AcDbLine
10
-20.6044168192477
20
7.23126509444749
30
0.000000000000000
11
-20.5044168192477
21
7.14507074401080
31
0.000000000000000
  0
LINE
  5
F103D4
330
F103D5
100
AcDbEntity
8
Geo
100
AcDbLine
10
-20.5044168192477
20
7.14507074401080
30
0.000000000000000
11
-20.4044168192477
21
7.05804343467642
31
0.000000000000000
  0
LINE
  5
F103D6
330
F103D7
100
AcDbEntity
8
Geo
100
AcDbLine
10
-20.4044168192477
20
7.05804343467642
30
0.000000000000000
11
-20.3044168192477
21
6.97020734013737
31
0.000000000000000
  0
LINE
  5
F103D8
330
F103D9
100
AcDbEntity
8
Geo
100
AcDbLine
10
-20.3044168192477
20
6.97020734013737
30
0.000000000000000
11
-20.2044168192477
21
6.88158685874400
31
0.000000000000000
  0
LINE
  5
F103DA
330
F103DB
100
AcDbEntity
8
Geo
100
AcDbLine
10
-20.2044168192477
20
6.88158685874400
30
0.000000000000000
11
-20.1044168192477
21
6.79220660672687
31
0.000000000000000
  0
LINE
  5
F103DC
330
F103DD
100
AcDbEntity
8
Geo
100
AcDbLine
10
-20.1044168192477
20
6.79220660672687
30
0.000000000000000
11
-20.0044168192477
21
6.70209141135906
31
0.000000000000000
  0
LINE
  5
F103DE
330
F103DF
100
AcDbEntity
8
Geo
100
AcDbLine
10
-20.0044168192477
20
6.70209141135906
30
0.000000000000000
11
-19.9044168192477
21
6.61126630405984
31
0.000000000000000
  0
LINE
  5
F103E0
330
F103E1
100
AcDbEntity
8
Geo
100
AcDbLine
10
-19.9044168192477
20
6.61126630405984
30
0.000000000000000
11
-19.8044168192477
21
6.51975651344167
31
0.000000000000000
  0
LINE
  5
F103E2
330
F103E3
100
AcDbEntity
8
Geo
100
AcDbLine
10
-19.8044168192477
20
6.51975651344167
30
0.000000000000000
11
-19.7044168192477
21
6.42758745830243
31
0.000000000000000
  0
LINE
  5
F103E4
330
F103E5
100
AcDbEntity
8
Geo
100
AcDbLine
10
-19.7044168192477
20
6.42758745830243
30
0.000000000000000
11
-19.6044168192477
21
6.33478474056480
31
0.000000000000000
  0
LINE
  5
F103E6
330
F103E7
100
AcDbEntity
8
Geo
100
AcDbLine
10
-19.6044168192477
20
6.33478474056480
30
0.000000000000000
11
-19.5044168192477
21
6.24137413816475
31
0.000000000000000
  0
LINE
  5
F103E8
330
F103E9
100
AcDbEntity
8
Geo
100
AcDbLine
10
-19.5044168192477
20
6.24137413816475
30
0.000000000000000
11
-19.4044168192477
21
6.14738159789123
31
0.000000000000000
  0
LINE
  5
F103EA
330
F103EB
100
AcDbEntity
8
Geo
100
AcDbLine
10
-19.4044168192477
20
6.14738159789123
30
0.000000000000000
11
-19.3044168192477
21
6.05283322817881
31
0.000000000000000
  0
LINE
  5
F103EC
330
F103ED
100
AcDbEntity
8
Geo
100
AcDbLine
10
-19.3044168192477
20
6.05283322817881
30
0.000000000000000
11
-19.2044168192477
21
5.95775529185559
31
0.000000000000000
  0
LINE
  5
F103EE
330
F103EF
100
AcDbEntity
8
Geo
100
AcDbLine
10
-19.2044168192477
20
5.95775529185559
30
0.000000000000000
11
-19.1044168192477
21
5.86217419884809
31
0.000000000000000
  0
LINE
  5
F103F0
330
F103F1
100
AcDbEntity
8
Geo
100
AcDbLine
10
-19.1044168192477
20
5.86217419884809
30
0.000000000000000
11
-19.0044168192477
21
5.76611649884533
31
0.000000000000000
  0
LINE
  5
F103F2
330
F103F3
100
AcDbEntity
8
Geo
100
AcDbLine
10
-19.0044168192477
20
5.76611649884533
30
0.000000000000000
11
-18.9044168192477
21
5.66960887392412
31
0.000000000000000
  0
LINE
  5
F103F4
330
F103F5
100
AcDbEntity
8
Geo
100
AcDbLine
10
-18.9044168192477
20
5.66960887392412
30
0.000000000000000
11
-18.8044168192477
21
5.57267813113749
31
0.000000000000000
  0
LINE
  5
F103F6
330
F103F7
100
AcDbEntity
8
Geo
100
AcDbLine
10
-18.8044168192477
20
5.57267813113749
30
0.000000000000000
11
-18.7044168192477
21
5.47535119506851
31
0.000000000000000
  0
LINE
  5
F103F8
330
F103F9
100
AcDbEntity
8
Geo
100
AcDbLine
10
-18.7044168192477
20
5.47535119506851
30
0.000000000000000
11
-18.6044168192477
21
5.37765510035140
31
0.000000000000000
  0
LINE
  5
F103FA
330
F103FB
100
AcDbEntity
8
Geo
100
AcDbLine
10
-18.6044168192477
20
5.37765510035140
30
0.000000000000000
11
-18.5044168192477
21
5.27961698416205
31
0.000000000000000
  0
LINE
  5
F103FC
330
F103FD
100
AcDbEntity
8
Geo
100
AcDbLine
10
-18.5044168192477
20
5.27961698416205
30
0.000000000000000
11
-18.4044168192477
21
5.18126407868014
31
0.000000000000000
  0
LINE
  5
F103FE
330
F103FF
100
AcDbEntity
8
Geo
100
AcDbLine
10
-18.4044168192477
20
5.18126407868014
30
0.000000000000000
11
-18.3044168192477
21
5.08262370352478
31
0.000000000000000
  0
LINE
  5
F10400
330
F10401
100
AcDbEntity
8
Geo
100
AcDbLine
10
-18.3044168192477
20
5.08262370352478
30
0.000000000000000
11
-18.2044168192477
21
4.98372325816593
31
0.000000000000000
  0
LINE
  5
F10402
330
F10403
100
AcDbEntity
8
Geo
100
AcDbLine
10
-18.2044168192477
20
4.98372325816593
30
0.000000000000000
11
-18.1044168192477
21
4.88459021431359
31
0.000000000000000
  0
LINE
  5
F10404
330
F10405
100
AcDbEntity
8
Geo
100
AcDbLine
10
-18.1044168192477
20
4.88459021431359
30
0.000000000000000
11
-18.0044168192477
21
4.78525210828696
31
0.000000000000000
  0
LINE
  5
F10406
330
F10407
100
AcDbEntity
8
Geo
100
AcDbLine
10
-18.0044168192477
20
4.78525210828696
30
0.000000000000000
11
-17.9044168192477
21
4.68573653336564
31
0.000000000000000
  0
LINE
  5
F10408
330
F10409
100
AcDbEntity
8
Geo
100
AcDbLine
10
-17.9044168192477
20
4.68573653336564
30
0.000000000000000
11
-17.8044168192477
21
4.58607113212501
31
0.000000000000000
  0
LINE
  5
F1040A
330
F1040B
100
AcDbEntity
8
Geo
100
AcDbLine
10
-17.8044168192477
20
4.58607113212501
30
0.000000000000000
11
-17.7044168192477
21
4.48628358875789
31
0.000000000000000
  0
LINE
  5
F1040C
330
F1040D
100
AcDbEntity
8
Geo
100
AcDbLine
10
-17.7044168192477
20
4.48628358875789
30
0.000000000000000
11
-17.6044168192477
21
4.38640162138470
31
0.000000000000000
  0
LINE
  5
F1040E
330
F1040F
100
AcDbEntity
8
Geo
100
AcDbLine
10
-17.6044168192477
20
4.38640162138470
30
0.000000000000000
11
-17.5044168192477
21
4.28645297435414
31
0.000000000000000
  0
LINE
  5
F10410
330
F10411
100
AcDbEntity
8
Geo
100
AcDbLine
10
-17.5044168192477
20
4.28645297435414
30
0.000000000000000
11
-17.4044168192477
21
4.18646541053660
31
0.000000000000000
  0
LINE
  5
F10412
330
F10413
100
AcDbEntity
8
Geo
100
AcDbLine
10
-17.4044168192477
20
4.18646541053660
30
0.000000000000000
11
-17.3044168192477
21
4.08646670361245
31
0.000000000000000
  0
LINE
  5
F10414
330
F10415
100
AcDbEntity
8
Geo
100
AcDbLine
10
-17.3044168192477
20
4.08646670361245
30
0.000000000000000
11
-17.2044168192477
21
3.98648463035729
31
0.000000000000000
  0
LINE
  5
F10416
330
F10417
100
AcDbEntity
8
Geo
100
AcDbLine
10
-17.2044168192477
20
3.98648463035729
30
0.000000000000000
11
-17.1044168192477
21
3.88654696292635
31
0.000000000000000
  0
LINE
  5
F10418
330
F10419
100
AcDbEntity
8
Geo
100
AcDbLine
10
-17.1044168192477
20
3.88654696292635
30
0.000000000000000
11
-17.0044168192477
21
3.78668146114023
31
0.000000000000000
  0
LINE
  5
F1041A
330
F1041B
100
AcDbEntity
8
Geo
100
AcDbLine
10
-17.0044168192477
20
3.78668146114023
30
0.000000000000000
11
-16.9044168192477
21
3.68691586477395
31
0.000000000000000
  0
LINE
  5
F1041C
330
F1041D
100
AcDbEntity
8
Geo
100
AcDbLine
10
-16.9044168192477
20
3.68691586477395
30
0.000000000000000
11
-16.8044168192477
21
3.58727788585167
31
0.000000000000000
  0
LINE
  5
F1041E
330
F1041F
100
AcDbEntity
8
Geo
100
AcDbLine
10
-16.8044168192477
20
3.58727788585167
30
0.000000000000000
11
-16.7044168192477
21
3.48779520094909
31
0.000000000000000
  0
LINE
  5
F10420
330
F10421
100
AcDbEntity
8
Geo
100
AcDbLine
10
-16.7044168192477
20
3.48779520094909
30
0.000000000000000
11
-16.6044168192477
21
3.38849544350569
31
0.000000000000000
  0
LINE
  5
F10422
330
F10423
100
AcDbEntity
8
Geo
100
AcDbLine
10
-16.6044168192477
20
3.38849544350569
30
0.000000000000000
11
-16.5044168192477
21
3.28940619614891
31
0.000000000000000
  0
LINE
  5
F10424
330
F10425
100
AcDbEntity
8
Geo
100
AcDbLine
10
-16.5044168192477
20
3.28940619614891
30
0.000000000000000
11
-16.4044168192477
21
3.19055498303256
31
0.000000000000000
  0
LINE
  5
F10426
330
F10427
100
AcDbEntity
8
Geo
100
AcDbLine
10
-16.4044168192477
20
3.19055498303256
30
0.000000000000000
11
-16.3044168192477
21
3.09196926219132
31
0.000000000000000
  0
LINE
  5
F10428
330
F10429
100
AcDbEntity
8
Geo
100
AcDbLine
10
-16.3044168192477
20
3.09196926219132
30
0.000000000000000
11
-16.2044168192477
21
2.99367641791376
31
0.000000000000000
  0
LINE
  5
F1042A
330
F1042B
100
AcDbEntity
8
Geo
100
AcDbLine
10
-16.2044168192477
20
2.99367641791376
30
0.000000000000000
11
-16.1044168192477
21
2.89570375313570
31
0.000000000000000
  0
LINE
  5
F1042C
330
F1042D
100
AcDbEntity
8
Geo
100
AcDbLine
10
-16.1044168192477
20
2.89570375313570
30
0.000000000000000
11
-16.0044168192477
21
2.79807848185629
31
0.000000000000000
  0
LINE
  5
F1042E
330
F1042F
100
AcDbEntity
8
Geo
100
AcDbLine
10
-16.0044168192477
20
2.79807848185629
30
0.000000000000000
11
-15.9044168192477
21
2.70082772157871
31
0.000000000000000
  0
LINE
  5
F10430
330
F10431
100
AcDbEntity
8
Geo
100
AcDbLine
10
-15.9044168192477
20
2.70082772157871
30
0.000000000000000
11
-15.8044168192476
21
2.60397848577771
31
0.000000000000000
  0
LINE
  5
F10432
330
F10433
100
AcDbEntity
8
Geo
100
AcDbLine
10
-15.8044168192476
20
2.60397848577771
30
0.000000000000000
11
-15.7044168192476
21
2.50755767639606
31
0.000000000000000
  0
LINE
  5
F10434
330
F10435
100
AcDbEntity
8
Geo
100
AcDbLine
10
-15.7044168192476
20
2.50755767639606
30
0.000000000000000
11
-15.6044168192476
21
2.41159207637194
31
0.000000000000000
  0
LINE
  5
F10436
330
F10437
100
AcDbEntity
8
Geo
100
AcDbLine
10
-15.6044168192476
20
2.41159207637194
30
0.000000000000000
11
-15.5044168192476
21
2.31610834219941
31
0.000000000000000
  0
LINE
  5
F10438
330
F10439
100
AcDbEntity
8
Geo
100
AcDbLine
10
-15.5044168192476
20
2.31610834219941
30
0.000000000000000
11
-15.4044168192476
21
2.22113299652399
31
0.000000000000000
  0
LINE
  5
F1043A
330
F1043B
100
AcDbEntity
8
Geo
100
AcDbLine
10
-15.4044168192476
20
2.22113299652399
30
0.000000000000000
11
-15.3044168192476
21
2.12669242077547
31
0.000000000000000
  0
LINE
  5
F1043C
330
F1043D
100
AcDbEntity
8
Geo
100
AcDbLine
10
-15.3044168192476
20
2.12669242077547
30
0.000000000000000
11
-15.2044168192476
21
2.03281284783986
31
0.000000000000000
  0
LINE
  5
F1043E
330
F1043F
100
AcDbEntity
8
Geo
100
AcDbLine
10
-15.2044168192476
20
2.03281284783986
30
0.000000000000000
11
-15.1044168192476
21
1.93952035477266
31
0.000000000000000
  0
LINE
  5
F10440
330
F10441
100
AcDbEntity
8
Geo
100
AcDbLine
10
-15.1044168192476
20
1.93952035477266
30
0.000000000000000
11
-15.0044168192476
21
1.84684085555541
31
0.000000000000000
  0
LINE
  5
F10442
330
F10443
100
AcDbEntity
8
Geo
100
AcDbLine
10
-15.0044168192476
20
1.84684085555541
30
0.000000000000000
11
-14.9044168192476
21
1.75480009389752
31
0.000000000000000
  0
LINE
  5
F10444
330
F10445
100
AcDbEntity
8
Geo
100
AcDbLine
10
-14.9044168192476
20
1.75480009389752
30
0.000000000000000
11
-14.8044168192476
21
1.66342363608542
31
0.000000000000000
  0
LINE
  5
F10446
330
F10447
100
AcDbEntity
8
Geo
100
AcDbLine
10
-14.8044168192476
20
1.66342363608542
30
0.000000000000000
11
-14.7044168192476
21
1.57273686388093
31
0.000000000000000
  0
LINE
  5
F10448
330
F10449
100
AcDbEntity
8
Geo
100
AcDbLine
10
-14.7044168192476
20
1.57273686388093
30
0.000000000000000
11
-14.6044168192476
21
1.48276496747102
31
0.000000000000000
  0
LINE
  5
F1044A
330
F1044B
100
AcDbEntity
8
Geo
100
AcDbLine
10
-14.6044168192476
20
1.48276496747102
30
0.000000000000000
11
-14.5044168192476
21
1.39353293847059
31
0.000000000000000
  0
LINE
  5
F1044C
330
F1044D
100
AcDbEntity
8
Geo
100
AcDbLine
10
-14.5044168192476
20
1.39353293847059
30
0.000000000000000
11
-14.4044168192476
21
1.30506556298063
31
0.000000000000000
  0
LINE
  5
F1044E
330
F1044F
100
AcDbEntity
8
Geo
100
AcDbLine
10
-14.4044168192476
20
1.30506556298063
30
0.000000000000000
11
-14.3044168192476
21
1.21738741470324
31
0.000000000000000
  0
LINE
  5
F10450
330
F10451
100
AcDbEntity
8
Geo
100
AcDbLine
10
-14.3044168192476
20
1.21738741470324
30
0.000000000000000
11
-14.2044168192476
21
1.13052284811586
31
0.000000000000000
  0
LINE
  5
F10452
330
F10453
100
AcDbEntity
8
Geo
100
AcDbLine
10
-14.2044168192476
20
1.13052284811586
30
0.000000000000000
11
-14.1044168192476
21
1.04449599170622
31
0.000000000000000
  0
LINE
  5
F10454
330
F10455
100
AcDbEntity
8
Geo
100
AcDbLine
10
-14.1044168192476
20
1.04449599170622
30
0.000000000000000
11
-14.0044168192476
21
0.959330741270171
31
0.000000000000000
  0
LINE
  5
F10456
330
F10457
100
AcDbEntity
8
Geo
100
AcDbLine
10
-14.0044168192476
20
0.959330741270171
30
0.000000000000000
11
-13.9044168192476
21
0.875050753274110
31
0.000000000000000
  0
LINE
  5
F10458
330
F10459
100
AcDbEntity
8
Geo
100
AcDbLine
10
-13.9044168192476
20
0.875050753274110
30
0.000000000000000
11
-13.8044168192476
21
0.791679438283896
31
0.000000000000000
  0
LINE
  5
F1045A
330
F1045B
100
AcDbEntity
8
Geo
100
AcDbLine
10
-13.8044168192476
20
0.791679438283896
30
0.000000000000000
11
-13.7044168192476
21
0.709239954462062
31
0.000000000000000
  0
LINE
  5
F1045C
330
F1045D
100
AcDbEntity
8
Geo
100
AcDbLine
10
-13.7044168192476
20
0.709239954462062
30
0.000000000000000
11
-13.6044168192476
21
0.627755201135141
31
0.000000000000000
  0
LINE
  5
F1045E
330
F1045F
100
AcDbEntity
8
Geo
100
AcDbLine
10
-13.6044168192476
20
0.627755201135141
30
0.000000000000000
11
-13.5044168192476
21
0.547247812432889
31
0.000000000000000
  0
LINE
  5
F10460
330
F10461
100
AcDbEntity
8
Geo
100
AcDbLine
10
-13.5044168192476
20
0.547247812432889
30
0.000000000000000
11
-13.4044168192476
21
0.467740151001174
31
0.000000000000000
  0
LINE
  5
F10462
330
F10463
100
AcDbEntity
8
Geo
100
AcDbLine
10
-13.4044168192476
20
0.467740151001174
30
0.000000000000000
11
-13.3044168192476
21
0.389254301790271
31
0.000000000000000
  0
LINE
  5
F10464
330
F10465
100
AcDbEntity
8
Geo
100
AcDbLine
10
-13.3044168192476
20
0.389254301790271
30
0.000000000000000
11
-13.2044168192476
21
0.311812065920300
31
0.000000000000000
  0
LINE
  5
F10466
330
F10467
100
AcDbEntity
8
Geo
100
AcDbLine
10
-13.2044168192476
20
0.311812065920300
30
0.000000000000000
11
-13.1044168192476
21
0.235434954625492
31
0.000000000000000
  0
LINE
  5
F10468
330
F10469
100
AcDbEntity
8
Geo
100
AcDbLine
10
-36.0044168192477
20
9.06079213187577
30
0.000000000000000
11
-35.9044168192477
21
9.12320246809071
31
0.000000000000000
  0
LINE
  5
F1046A
330
F1046B
100
AcDbEntity
8
Geo
100
AcDbLine
10
-35.9044168192477
20
9.12320246809071
30
0.000000000000000
11
-35.9044168192477
21
9.12320246809071
31
0.000000000000000
  0
LINE
  5
F1046C
330
F1046D
100
AcDbEntity
8
Geo
100
AcDbLine
10
-35.9044168192477
20
9.12320246809071
30
0.000000000000000
11
-35.8044168192477
21
9.12584708251459
31
0.000000000000000
  0
LINE
  5
F1046E
330
F1046F
100
AcDbEntity
8
Geo
100
AcDbLine
10
-35.8044168192477
20
9.12584708251459
30
0.000000000000000
11
-35.7044168192477
21
9.06936929166793
31
0.000000000000000
  0
LINE
  5
F10470
330
F10471
100
AcDbEntity
8
Geo
100
AcDbLine
10
-35.7044168192477
20
9.06936929166793
30
0.000000000000000
11
-35.6044168192477
21
9.01152402692244
31
0.000000000000000
  0
LINE
  5
F10472
330
F10473
100
AcDbEntity
8
Geo
100
AcDbLine
10
-35.6044168192477
20
9.01152402692244
30
0.000000000000000
11
-35.5044168192477
21
8.95232735603526
31
0.000000000000000
  0
LINE
  5
F10474
330
F10475
100
AcDbEntity
8
Geo
100
AcDbLine
10
-35.5044168192477
20
8.95232735603526
30
0.000000000000000
11
-35.4044168192477
21
8.89179572214546
31
0.000000000000000
  0
LINE
  5
F10476
330
F10477
100
AcDbEntity
8
Geo
100
AcDbLine
10
-35.4044168192477
20
8.89179572214546
30
0.000000000000000
11
-35.3044168192477
21
8.82994593920657
31
0.000000000000000
  0
LINE
  5
F10478
330
F10479
100
AcDbEntity
8
Geo
100
AcDbLine
10
-35.3044168192477
20
8.82994593920657
30
0.000000000000000
11
-35.2044168192477
21
8.76679518731614
31
0.000000000000000
  0
LINE
  5
F1047A
330
F1047B
100
AcDbEntity
8
Geo
100
AcDbLine
10
-35.2044168192477
20
8.76679518731614
30
0.000000000000000
11
-35.1044168192477
21
8.70236100794367
31
0.000000000000000
  0
LINE
  5
F1047C
330
F1047D
100
AcDbEntity
8
Geo
100
AcDbLine
10
-35.1044168192477
20
8.70236100794367
30
0.000000000000000
11
-35.0044168192477
21
8.63666129905798
31
0.000000000000000
  0
LINE
  5
F1047E
330
F1047F
100
AcDbEntity
8
Geo
100
AcDbLine
10
-35.0044168192477
20
8.63666129905798
30
0.000000000000000
11
-34.9044168192477
21
8.56971431015576
31
0.000000000000000
  0
LINE
  5
F10480
330
F10481
100
AcDbEntity
8
Geo
100
AcDbLine
10
-34.9044168192477
20
8.56971431015576
30
0.000000000000000
11
-34.8044168192477
21
8.50153863719236
31
0.000000000000000
  0
LINE
  5
F10482
330
F10483
100
AcDbEntity
8
Geo
100
AcDbLine
10
-34.8044168192477
20
8.50153863719236
30
0.000000000000000
11
-34.7044168192477
21
8.43215321741634
31
0.000000000000000
  0
LINE
  5
F10484
330
F10485
100
AcDbEntity
8
Geo
100
AcDbLine
10
-34.7044168192477
20
8.43215321741634
30
0.000000000000000
11
-34.6044168192477
21
8.36157732410927
31
0.000000000000000
  0
LINE
  5
F10486
330
F10487
100
AcDbEntity
8
Geo
100
AcDbLine
10
-34.6044168192477
20
8.36157732410927
30
0.000000000000000
11
-34.5044168192477
21
8.28983056123216
31
0.000000000000000
  0
LINE
  5
F10488
330
F10489
100
AcDbEntity
8
Geo
100
AcDbLine
10
-34.5044168192477
20
8.28983056123216
30
0.000000000000000
11
-34.4044168192477
21
8.21693285798002
31
0.000000000000000
  0
LINE
  5
F1048A
330
F1048B
100
AcDbEntity
8
Geo
100
AcDbLine
10
-34.4044168192477
20
8.21693285798002
30
0.000000000000000
11
-34.3044168192477
21
8.14290446324615
31
0.000000000000000
  0
LINE
  5
F1048C
330
F1048D
100
AcDbEntity
8
Geo
100
AcDbLine
10
-34.3044168192477
20
8.14290446324615
30
0.000000000000000
11
-34.2044168192477
21
8.06776593999752
31
0.000000000000000
  0
LINE
  5
F1048E
330
F1048F
100
AcDbEntity
8
Geo
100
AcDbLine
10
-34.2044168192477
20
8.06776593999752
30
0.000000000000000
11
-34.1044168192477
21
7.99153815956300
31
0.000000000000000
  0
LINE
  5
F10490
330
F10491
100
AcDbEntity
8
Geo
100
AcDbLine
10
-34.1044168192477
20
7.99153815956300
30
0.000000000000000
11
-34.0044168192477
21
7.91424229583592
31
0.000000000000000
  0
LINE
  5
F10492
330
F10493
100
AcDbEntity
8
Geo
100
AcDbLine
10
-34.0044168192477
20
7.91424229583592
30
0.000000000000000
11
-33.9044168192477
21
7.83589981939251
31
0.000000000000000
  0
LINE
  5
F10494
330
F10495
100
AcDbEntity
8
Geo
100
AcDbLine
10
-33.9044168192477
20
7.83589981939251
30
0.000000000000000
11
-33.8044168192477
21
7.75653249152804
31
0.000000000000000
  0
LINE
  5
F10496
330
F10497
100
AcDbEntity
8
Geo
100
AcDbLine
10
-33.8044168192477
20
7.75653249152804
30
0.000000000000000
11
-33.7044168192477
21
7.67616235821216
31
0.000000000000000
  0
LINE
  5
F10498
330
F10499
100
AcDbEntity
8
Geo
100
AcDbLine
10
-33.7044168192477
20
7.67616235821216
30
0.000000000000000
11
-33.6044168192477
21
7.59481174396510
31
0.000000000000000
  0
LINE
  5
F1049A
330
F1049B
100
AcDbEntity
8
Geo
100
AcDbLine
10
-33.6044168192477
20
7.59481174396510
30
0.000000000000000
11
-33.5044168192477
21
7.51250324565664
31
0.000000000000000
  0
LINE
  5
F1049C
330
F1049D
100
AcDbEntity
8
Geo
100
AcDbLine
10
-33.5044168192477
20
7.51250324565664
30
0.000000000000000
11
-33.4044168192477
21
7.42925972622929
31
0.000000000000000
  0
LINE
  5
F1049E
330
F1049F
100
AcDbEntity
8
Geo
100
AcDbLine
10
-33.4044168192477
20
7.42925972622929
30
0.000000000000000
11
-33.3044168192477
21
7.34510430834763
31
0.000000000000000
  0
LINE
  5
F104A0
330
F104A1
100
AcDbEntity
8
Geo
100
AcDbLine
10
-33.3044168192477
20
7.34510430834763
30
0.000000000000000
11
-33.2044168192477
21
7.26006036797551
31
0.000000000000000
  0
LINE
  5
F104A2
330
F104A3
100
AcDbEntity
8
Geo
100
AcDbLine
10
-33.2044168192477
20
7.26006036797551
30
0.000000000000000
11
-33.1044168192477
21
7.17415152788287
31
0.000000000000000
  0
LINE
  5
F104A4
330
F104A5
100
AcDbEntity
8
Geo
100
AcDbLine
10
-33.1044168192477
20
7.17415152788287
30
0.000000000000000
11
-33.0044168192477
21
7.08740165108401
31
0.000000000000000
  0
LINE
  5
F104A6
330
F104A7
100
AcDbEntity
8
Geo
100
AcDbLine
10
-33.0044168192477
20
7.08740165108401
30
0.000000000000000
11
-32.9044168192477
21
6.99983483420913
31
0.000000000000000
  0
LINE
  5
F104A8
330
F104A9
100
AcDbEntity
8
Geo
100
AcDbLine
10
-32.9044168192477
20
6.99983483420913
30
0.000000000000000
11
-32.8044168192477
21
6.91147540081098
31
0.000000000000000
  0
LINE
  5
F104AA
330
F104AB
100
AcDbEntity
8
Geo
100
AcDbLine
10
-32.8044168192477
20
6.91147540081098
30
0.000000000000000
11
-32.7044168192477
21
6.82234789460845
31
0.000000000000000
  0
LINE
  5
F104AC
330
F104AD
100
AcDbEntity
8
Geo
100
AcDbLine
10
-32.7044168192477
20
6.82234789460845
30
0.000000000000000
11
-32.6044168192477
21
6.73247707266909
31
0.000000000000000
  0
LINE
  5
F104AE
330
F104AF
100
AcDbEntity
8
Geo
100
AcDbLine
10
-32.6044168192477
20
6.73247707266909
30
0.000000000000000
11
-32.5044168192477
21
6.64188789853221
31
0.000000000000000
  0
LINE
  5
F104B0
330
F104B1
100
AcDbEntity
8
Geo
100
AcDbLine
10
-32.5044168192477
20
6.64188789853221
30
0.000000000000000
11
-32.4044168192477
21
6.55060553527482
31
0.000000000000000
  0
LINE
  5
F104B2
330
F104B3
100
AcDbEntity
8
Geo
100
AcDbLine
10
-32.4044168192477
20
6.55060553527482
30
0.000000000000000
11
-32.3044168192477
21
6.45865533852200
31
0.000000000000000
  0
LINE
  5
F104B4
330
F104B5
100
AcDbEntity
8
Geo
100
AcDbLine
10
-32.3044168192477
20
6.45865533852200
30
0.000000000000000
11
-32.2044168192477
21
6.36606284940381
31
0.000000000000000
  0
LINE
  5
F104B6
330
F104B7
100
AcDbEntity
8
Geo
100
AcDbLine
10
-32.2044168192477
20
6.36606284940381
30
0.000000000000000
11
-32.1044168192477
21
6.27285378746077
31
0.000000000000000
  0
LINE
  5
F104B8
330
F104B9
100
AcDbEntity
8
Geo
100
AcDbLine
10
-32.1044168192477
20
6.27285378746077
30
0.000000000000000
11
-32.0044168192477
21
6.17905404349963
31
0.000000000000000
  0
LINE
  5
F104BA
330
F104BB
100
AcDbEntity
8
Geo
100
AcDbLine
10
-32.0044168192477
20
6.17905404349963
30
0.000000000000000
11
-31.9044168192477
21
6.08468967240169
31
0.000000000000000
  0
LINE
  5
F104BC
330
F104BD
100
AcDbEntity
8
Geo
100
AcDbLine
10
-31.9044168192477
20
6.08468967240169
30
0.000000000000000
11
-31.8044168192477
21
5.98978688588551
31
0.000000000000000
  0
LINE
  5
F104BE
330
F104BF
100
AcDbEntity
8
Geo
100
AcDbLine
10
-31.8044168192477
20
5.98978688588551
30
0.000000000000000
11
-31.7044168192477
21
5.89437204522600
31
0.000000000000000
  0
LINE
  5
F104C0
330
F104C1
100
AcDbEntity
8
Geo
100
AcDbLine
10
-31.7044168192477
20
5.89437204522600
30
0.000000000000000
11
-31.6044168192477
21
5.79847165393204
31
0.000000000000000
  0
LINE
  5
F104C2
330
F104C3
100
AcDbEntity
8
Geo
100
AcDbLine
10
-31.6044168192477
20
5.79847165393204
30
0.000000000000000
11
-31.5044168192477
21
5.70211235038459
31
0.000000000000000
  0
LINE
  5
F104C4
330
F104C5
100
AcDbEntity
8
Geo
100
AcDbLine
10
-31.5044168192477
20
5.70211235038459
30
0.000000000000000
11
-31.4044168192477
21
5.60532090043727
31
0.000000000000000
  0
LINE
  5
F104C6
330
F104C7
100
AcDbEntity
8
Geo
100
AcDbLine
10
-31.4044168192477
20
5.60532090043727
30
0.000000000000000
11
-31.3044168192477
21
5.50812418998157
31
0.000000000000000
  0
LINE
  5
F104C8
330
F104C9
100
AcDbEntity
8
Geo
100
AcDbLine
10
-31.3044168192477
20
5.50812418998157
30
0.000000000000000
11
-31.2044168192477
21
5.41054921747877
31
0.000000000000000
  0
LINE
  5
F104CA
330
F104CB
100
AcDbEntity
8
Geo
100
AcDbLine
10
-31.2044168192477
20
5.41054921747877
30
0.000000000000000
11
-31.1044168192477
21
5.31262308646048
31
0.000000000000000
  0
LINE
  5
F104CC
330
F104CD
100
AcDbEntity
8
Geo
100
AcDbLine
10
-31.1044168192477
20
5.31262308646048
30
0.000000000000000
11
-31.0044168192477
21
5.21437299800012
31
0.000000000000000
  0
LINE
  5
F104CE
330
F104CF
100
AcDbEntity
8
Geo
100
AcDbLine
10
-31.0044168192477
20
5.21437299800012
30
0.000000000000000
11
-30.9044168192477
21
5.11582624315716
31
0.000000000000000
  0
LINE
  5
F104D0
330
F104D1
100
AcDbEntity
8
Geo
100
AcDbLine
10
-30.9044168192477
20
5.11582624315716
30
0.000000000000000
11
-30.8044168192477
21
5.01701019539652
31
0.000000000000000
  0
LINE
  5
F104D2
330
F104D3
100
AcDbEntity
8
Geo
100
AcDbLine
10
-30.8044168192477
20
5.01701019539652
30
0.000000000000000
11
-30.7044168192477
21
4.91795230298497
31
0.000000000000000
  0
LINE
  5
F104D4
330
F104D5
100
AcDbEntity
8
Geo
100
AcDbLine
10
-30.7044168192477
20
4.91795230298497
30
0.000000000000000
11
-30.6044168192477
21
4.81868008136680
31
0.000000000000000
  0
LINE
  5
F104D6
330
F104D7
100
AcDbEntity
8
Geo
100
AcDbLine
10
-30.6044168192477
20
4.81868008136680
30
0.000000000000000
11
-30.5044168192477
21
4.71922110552080
31
0.000000000000000
  0
LINE
  5
F104D8
330
F104D9
100
AcDbEntity
8
Geo
100
AcDbLine
10
-30.5044168192477
20
4.71922110552080
30
0.000000000000000
11
-30.4044168192477
21
4.61960300230075
31
0.000000000000000
  0
LINE
  5
F104DA
330
F104DB
100
AcDbEntity
8
Geo
100
AcDbLine
10
-30.4044168192477
20
4.61960300230075
30
0.000000000000000
11
-30.3044168192477
21
4.51985344276145
31
0.000000000000000
  0
LINE
  5
F104DC
330
F104DD
100
AcDbEntity
8
Geo
100
AcDbLine
10
-30.3044168192477
20
4.51985344276145
30
0.000000000000000
11
-30.2044168192477
21
4.42000013447248
31
0.000000000000000
  0
LINE
  5
F104DE
330
F104DF
100
AcDbEntity
8
Geo
100
AcDbLine
10
-30.2044168192477
20
4.42000013447248
30
0.000000000000000
11
-30.1044168192477
21
4.32007081382187
31
0.000000000000000
  0
LINE
  5
F104E0
330
F104E1
100
AcDbEntity
8
Geo
100
AcDbLine
10
-30.1044168192477
20
4.32007081382187
30
0.000000000000000
11
-30.0044168192477
21
4.22009323831171
31
0.000000000000000
  0
LINE
  5
F104E2
330
F104E3
100
AcDbEntity
8
Geo
100
AcDbLine
10
-30.0044168192477
20
4.22009323831171
30
0.000000000000000
11
-29.9044168192477
21
4.12009517884789
31
0.000000000000000
  0
LINE
  5
F104E4
330
F104E5
100
AcDbEntity
8
Geo
100
AcDbLine
10
-29.9044168192477
20
4.12009517884789
30
0.000000000000000
11
-29.8044168192477
21
4.02010441202617
31
0.000000000000000
  0
LINE
  5
F104E6
330
F104E7
100
AcDbEntity
8
Geo
100
AcDbLine
10
-29.8044168192477
20
4.02010441202617
30
0.000000000000000
11
-29.7044168192477
21
3.92014871241661
31
0.000000000000000
  0
LINE
  5
F104E8
330
F104E9
100
AcDbEntity
8
Geo
100
AcDbLine
10
-29.7044168192477
20
3.92014871241661
30
0.000000000000000
11
-29.6044168192477
21
3.82025584484862
31
0.000000000000000
  0
LINE
  5
F104EA
330
F104EB
100
AcDbEntity
8
Geo
100
AcDbLine
10
-29.6044168192477
20
3.82025584484862
30
0.000000000000000
11
-29.5044168192477
21
3.72045355669865
31
0.000000000000000
  0
LINE
  5
F104EC
330
F104ED
100
AcDbEntity
8
Geo
100
AcDbLine
10
-29.5044168192477
20
3.72045355669865
30
0.000000000000000
11
-29.4044168192477
21
3.62076957018280
31
0.000000000000000
  0
LINE
  5
F104EE
330
F104EF
100
AcDbEntity
8
Geo
100
AcDbLine
10
-29.4044168192477
20
3.62076957018280
30
0.000000000000000
11
-29.3044168192477
21
3.52123157465636
31
0.000000000000000
  0
LINE
  5
F104F0
330
F104F1
100
AcDbEntity
8
Geo
100
AcDbLine
10
-29.3044168192477
20
3.52123157465636
30
0.000000000000000
11
-29.2044168192477
21
3.42186721892249
31
0.000000000000000
  0
LINE
  5
F104F2
330
F104F3
100
AcDbEntity
8
Geo
100
AcDbLine
10
-29.2044168192477
20
3.42186721892249
30
0.000000000000000
11
-29.1044168192477
21
3.32270410355223
31
0.000000000000000
  0
LINE
  5
F104F4
330
F104F5
100
AcDbEntity
8
Geo
100
AcDbLine
10
-29.1044168192477
20
3.32270410355223
30
0.000000000000000
11
-29.0044168192477
21
3.22376977321776
31
0.000000000000000
  0
LINE
  5
F104F6
330
F104F7
100
AcDbEntity
8
Geo
100
AcDbLine
10
-29.0044168192477
20
3.22376977321776
30
0.000000000000000
11
-28.9044168192477
21
3.12509170904137
31
0.000000000000000
  0
LINE
  5
F104F8
330
F104F9
100
AcDbEntity
8
Geo
100
AcDbLine
10
-28.9044168192477
20
3.12509170904137
30
0.000000000000000
11
-28.8044168192477
21
3.02669732096196
31
0.000000000000000
  0
LINE
  5
F104FA
330
F104FB
100
AcDbEntity
8
Geo
100
AcDbLine
10
-28.8044168192477
20
3.02669732096196
30
0.000000000000000
11
-28.7044168192477
21
2.92861394012130
31
0.000000000000000
  0
LINE
  5
F104FC
330
F104FD
100
AcDbEntity
8
Geo
100
AcDbLine
10
-28.7044168192477
20
2.92861394012130
30
0.000000000000000
11
-28.6044168192477
21
2.83086881127230
31
0.000000000000000
  0
LINE
  5
F104FE
330
F104FF
100
AcDbEntity
8
Geo
100
AcDbLine
10
-28.6044168192477
20
2.83086881127230
30
0.000000000000000
11
-28.5044168192477
21
2.73348908521113
31
0.000000000000000
  0
LINE
  5
F10500
330
F10501
100
AcDbEntity
8
Geo
100
AcDbLine
10
-28.5044168192477
20
2.73348908521113
30
0.000000000000000
11
-28.4044168192477
21
2.63650181123555
31
0.000000000000000
  0
LINE
  5
F10502
330
F10503
100
AcDbEntity
8
Geo
100
AcDbLine
10
-28.4044168192477
20
2.63650181123555
30
0.000000000000000
11
-28.3044168192477
21
2.53993392963137
31
0.000000000000000
  0
LINE
  5
F10504
330
F10505
100
AcDbEntity
8
Geo
100
AcDbLine
10
-28.3044168192477
20
2.53993392963137
30
0.000000000000000
11
-28.2044168192477
21
2.44381226418921
31
0.000000000000000
  0
LINE
  5
F10506
330
F10507
100
AcDbEntity
8
Geo
100
AcDbLine
10
-28.2044168192477
20
2.44381226418921
30
0.000000000000000
11
-28.1044168192477
21
2.34816351475365
31
0.000000000000000
  0
LINE
  5
F10508
330
F10509
100
AcDbEntity
8
Geo
100
AcDbLine
10
-28.1044168192477
20
2.34816351475365
30
0.000000000000000
11
-28.0044168192477
21
2.25301424980672
31
0.000000000000000
  0
LINE
  5
F1050A
330
F1050B
100
AcDbEntity
8
Geo
100
AcDbLine
10
-28.0044168192477
20
2.25301424980672
30
0.000000000000000
11
-27.9044168192477
21
2.15839089908800
31
0.000000000000000
  0
LINE
  5
F1050C
330
F1050D
100
AcDbEntity
8
Geo
100
AcDbLine
10
-27.9044168192477
20
2.15839089908800
30
0.000000000000000
11
-27.8044168192477
21
2.06431974625313
31
0.000000000000000
  0
LINE
  5
F1050E
330
F1050F
100
AcDbEntity
8
Geo
100
AcDbLine
10
-27.8044168192477
20
2.06431974625313
30
0.000000000000000
11
-27.7044168192477
21
1.97082692157305
31
0.000000000000000
  0
LINE
  5
F10510
330
F10511
100
AcDbEntity
8
Geo
100
AcDbLine
10
-27.7044168192477
20
1.97082692157305
30
0.000000000000000
11
-27.6044168192477
21
1.87793839467566
31
0.000000000000000
  0
LINE
  5
F10512
330
F10513
100
AcDbEntity
8
Geo
100
AcDbLine
10
-27.6044168192477
20
1.87793839467566
30
0.000000000000000
11
-27.5044168192477
21
1.78567996733227
31
0.000000000000000
  0
LINE
  5
F10514
330
F10515
100
AcDbEntity
8
Geo
100
AcDbLine
10
-27.5044168192477
20
1.78567996733227
30
0.000000000000000
11
-27.4044168192477
21
1.69407726629060
31
0.000000000000000
  0
LINE
  5
F10516
330
F10517
100
AcDbEntity
8
Geo
100
AcDbLine
10
-27.4044168192477
20
1.69407726629060
30
0.000000000000000
11
-27.3044168192477
21
1.60315573615638
31
0.000000000000000
  0
LINE
  5
F10518
330
F10519
100
AcDbEntity
8
Geo
100
AcDbLine
10
-27.3044168192477
20
1.60315573615638
30
0.000000000000000
11
-27.2044168192477
21
1.51294063232558
31
0.000000000000000
  0
LINE
  5
F1051A
330
F1051B
100
AcDbEntity
8
Geo
100
AcDbLine
10
-27.2044168192477
20
1.51294063232558
30
0.000000000000000
11
-27.1044168192477
21
1.42345701396917
31
0.000000000000000
  0
LINE
  5
F1051C
330
F1051D
100
AcDbEntity
8
Geo
100
AcDbLine
10
-27.1044168192477
20
1.42345701396917
30
0.000000000000000
11
-27.0044168192477
21
1.33472973707244
31
0.000000000000000
  0
LINE
  5
F1051E
330
F1051F
100
AcDbEntity
8
Geo
100
AcDbLine
10
-27.0044168192477
20
1.33472973707244
30
0.000000000000000
11
-26.9044168192477
21
1.24678344753067
31
0.000000000000000
  0
LINE
  5
F10520
330
F10521
100
AcDbEntity
8
Geo
100
AcDbLine
10
-26.9044168192477
20
1.24678344753067
30
0.000000000000000
11
-26.8044168192477
21
1.15964257430324
31
0.000000000000000
  0
LINE
  5
F10522
330
F10523
100
AcDbEntity
8
Geo
100
AcDbLine
10
-26.8044168192477
20
1.15964257430324
30
0.000000000000000
11
-26.7044168192477
21
1.07333132262796
31
0.000000000000000
  0
LINE
  5
F10524
330
F10525
100
AcDbEntity
8
Geo
100
AcDbLine
10
-26.7044168192477
20
1.07333132262796
30
0.000000000000000
11
-26.6044168192477
21
0.987873667297542
31
0.000000000000000
  0
LINE
  5
F10526
330
F10527
100
AcDbEntity
8
Geo
100
AcDbLine
10
-26.6044168192477
20
0.987873667297542
30
0.000000000000000
11
-26.5044168192477
21
0.903293346000078
31
0.000000000000000
  0
LINE
  5
F10528
330
F10529
100
AcDbEntity
8
Geo
100
AcDbLine
10
-26.5044168192477
20
0.903293346000078
30
0.000000000000000
11
-26.4044168192477
21
0.819613852725415
31
0.000000000000000
  0
LINE
  5
F1052A
330
F1052B
100
AcDbEntity
8
Geo
100
AcDbLine
10
-26.4044168192477
20
0.819613852725415
30
0.000000000000000
11
-26.3044168192477
21
0.736858431239181
31
0.000000000000000
  0
LINE
  5
F1052C
330
F1052D
100
AcDbEntity
8
Geo
100
AcDbLine
10
-26.3044168192477
20
0.736858431239181
30
0.000000000000000
11
-26.2044168192477
21
0.655050068626343
31
0.000000000000000
  0
LINE
  5
F1052E
330
F1052F
100
AcDbEntity
8
Geo
100
AcDbLine
10
-26.2044168192477
20
0.655050068626343
30
0.000000000000000
11
-26.1044168192477
21
0.574211488906043
31
0.000000000000000
  0
LINE
  5
F10530
330
F10531
100
AcDbEntity
8
Geo
100
AcDbLine
10
-26.1044168192477
20
0.574211488906043
30
0.000000000000000
11
-26.0044168192477
21
0.494365146719523
31
0.000000000000000
  0
LINE
  5
F10532
330
F10533
100
AcDbEntity
8
Geo
100
AcDbLine
10
-26.0044168192477
20
0.494365146719523
30
0.000000000000000
11
-25.9044168192477
21
0.415533221092871
31
0.000000000000000
  0
LINE
  5
F10534
330
F10535
100
AcDbEntity
8
Geo
100
AcDbLine
10
-25.9044168192477
20
0.415533221092871
30
0.000000000000000
11
-25.8044168192477
21
0.337737609276316
31
0.000000000000000
  0
LINE
  5
F10536
330
F10537
100
AcDbEntity
8
Geo
100
AcDbLine
10
-25.8044168192477
20
0.337737609276316
30
0.000000000000000
11
-25.7044168192477
21
0.260999920661805
31
0.000000000000000
  0
LINE
  5
F10538
330
F10539
100
AcDbEntity
8
Geo
100
AcDbLine
10
-25.7044168192477
20
0.260999920661805
30
0.000000000000000
11
-25.6044168192477
21
0.185341470780531
31
0.000000000000000
  0
LINE
  5
F1053A
330
F1053B
100
AcDbEntity
8
Geo
100
AcDbLine
10
-25.6044168192477
20
0.185341470780531
30
0.000000000000000
11
-25.5044168192477
21
0.110783275382091
31
0.000000000000000
  0
LINE
  5
F1053C
330
F1053D
100
AcDbEntity
8
Geo
100
AcDbLine
10
-25.5044168192477
20
0.110783275382091
30
0.000000000000000
11
-25.4044168192477
21
0.0373460445969087
31
0.000000000000000
  0
LINE
  5
F1053E
330
F1053F
100
AcDbEntity
8
Geo
100
AcDbLine
10
-25.4044168192477
20
0.0373460445969087
30
0.000000000000000
11
-25.3044168192477
21
-0.0349498228164409
31
0.000000000000000
  0
LINE
  5
F10540
330
F10541
100
AcDbEntity
8
Geo
100
AcDbLine
10
-25.3044168192477
20
-0.0349498228164409
30
0.000000000000000
11
-25.2044168192477
21
-0.106084245137427
31
0.000000000000000
  0
LINE
  5
F10542
330
F10543
100
AcDbEntity
8
Geo
100
AcDbLine
10
-25.2044168192477
20
-0.106084245137427
30
0.000000000000000
11
-25.1044168192477
21
-0.176037463261688
31
0.000000000000000
  0
LINE
  5
F10544
330
F10545
100
AcDbEntity
8
Geo
100
AcDbLine
10
-25.1044168192477
20
-0.176037463261688
30
0.000000000000000
11
-25.0044168192477
21
-0.244790046189540
31
0.000000000000000
  0
LINE
  5
F10546
330
F10547
100
AcDbEntity
8
Geo
100
AcDbLine
10
-25.0044168192477
20
-0.244790046189540
30
0.000000000000000
11
-24.9044168192477
21
-0.312322896423361
31
0.000000000000000
  0
LINE
  5
F10548
330
F10549
100
AcDbEntity
8
Geo
100
AcDbLine
10
-24.9044168192477
20
-0.312322896423361
30
0.000000000000000
11
-24.8044168192477
21
-0.378617255272321
31
0.000000000000000
  0
LINE
  5
F1054A
330
F1054B
100
AcDbEntity
8
Geo
100
AcDbLine
10
-24.8044168192477
20
-0.378617255272321
30
0.000000000000000
11
-24.7044168192477
21
-0.443654708063010
31
0.000000000000000
  0
LINE
  5
F1054C
330
F1054D
100
AcDbEntity
8
Geo
100
AcDbLine
10
-24.7044168192477
20
-0.443654708063010
30
0.000000000000000
11
-24.6044168192477
21
-0.507417189254510
31
0.000000000000000
  0
LINE
  5
F1054E
330
F1054F
100
AcDbEntity
8
Geo
100
AcDbLine
10
-24.6044168192477
20
-0.507417189254510
30
0.000000000000000
11
-24.5044168192477
21
-0.569886987456481
31
0.000000000000000
  0
LINE
  5
F10550
330
F10551
100
AcDbEntity
8
Geo
100
AcDbLine
10
-24.5044168192477
20
-0.569886987456481
30
0.000000000000000
11
-24.4044168192477
21
-0.631046750348881
31
0.000000000000000
  0
LINE
  5
F10552
330
F10553
100
AcDbEntity
8
Geo
100
AcDbLine
10
-24.4044168192477
20
-0.631046750348881
30
0.000000000000000
11
-24.3044168192477
21
-0.690879489501940
31
0.000000000000000
  0
LINE
  5
F10554
330
F10555
100
AcDbEntity
8
Geo
100
AcDbLine
10
-24.3044168192477
20
-0.690879489501940
30
0.000000000000000
11
-24.2044168192477
21
-0.749368585095059
31
0.000000000000000
  0
LINE
  5
F10556
330
F10557
100
AcDbEntity
8
Geo
100
AcDbLine
10
-24.2044168192477
20
-0.749368585095059
30
0.000000000000000
11
-24.1044168192477
21
-0.806497790533328
31
0.000000000000000
  0
LINE
  5
F10558
330
F10559
100
AcDbEntity
8
Geo
100
AcDbLine
10
-24.1044168192477
20
-0.806497790533328
30
0.000000000000000
11
-24.0044168192477
21
-0.862251236960351
31
0.000000000000000
  0
LINE
  5
F1055A
330
F1055B
100
AcDbEntity
8
Geo
100
AcDbLine
10
-24.0044168192477
20
-0.862251236960351
30
0.000000000000000
11
-23.9044168192477
21
-0.916613437666170
31
0.000000000000000
  0
LINE
  5
F1055C
330
F1055D
100
AcDbEntity
8
Geo
100
AcDbLine
10
-23.9044168192477
20
-0.916613437666170
30
0.000000000000000
11
-23.8044168192477
21
-0.969569292389025
31
0.000000000000000
  0
LINE
  5
F1055E
330
F1055F
100
AcDbEntity
8
Geo
100
AcDbLine
10
-23.8044168192477
20
-0.969569292389025
30
0.000000000000000
11
-23.7044168192477
21
-1.02110409150978
31
0.000000000000000
  0
LINE
  5
F10560
330
F10561
100
AcDbEntity
8
Geo
100
AcDbLine
10
-23.7044168192477
20
-1.02110409150978
30
0.000000000000000
11
-23.6044168192477
21
-1.07120352013782
31
0.000000000000000
  0
LINE
  5
F10562
330
F10563
100
AcDbEntity
8
Geo
100
AcDbLine
10
-23.6044168192477
20
-1.07120352013782
30
0.000000000000000
11
-23.5044168192477
21
-1.11985366208733
31
0.000000000000000
  0
LINE
  5
F10564
330
F10565
100
AcDbEntity
8
Geo
100
AcDbLine
10
-23.5044168192477
20
-1.11985366208733
30
0.000000000000000
11
-23.4044168192477
21
-1.16704100374281
31
0.000000000000000
  0
LINE
  5
F10566
330
F10567
100
AcDbEntity
8
Geo
100
AcDbLine
10
-23.4044168192477
20
-1.16704100374281
30
0.000000000000000
11
-23.3044168192477
21
-1.21275243781278
31
0.000000000000000
  0
LINE
  5
F10568
330
F10569
100
AcDbEntity
8
Geo
100
AcDbLine
10
-23.3044168192477
20
-1.21275243781278
30
0.000000000000000
11
-23.2044168192477
21
-1.25697526697058
31
0.000000000000000
  0
LINE
  5
F1056A
330
F1056B
100
AcDbEntity
8
Geo
100
AcDbLine
10
-23.2044168192477
20
-1.25697526697058
30
0.000000000000000
11
-23.1044168192477
21
-1.29969720738135
31
0.000000000000000
  0
LINE
  5
F1056C
330
F1056D
100
AcDbEntity
8
Geo
100
AcDbLine
10
-23.1044168192477
20
-1.29969720738135
30
0.000000000000000
11
-23.0044168192477
21
-1.34090639211413
31
0.000000000000000
  0
LINE
  5
F1056E
330
F1056F
100
AcDbEntity
8
Geo
100
AcDbLine
10
-23.0044168192477
20
-1.34090639211413
30
0.000000000000000
11
-22.9044168192477
21
-1.38059137443812
31
0.000000000000000
  0
LINE
  5
F10570
330
F10571
100
AcDbEntity
8
Geo
100
AcDbLine
10
-22.9044168192477
20
-1.38059137443812
30
0.000000000000000
11
-22.8044168192477
21
-1.41874113100231
31
0.000000000000000
  0
LINE
  5
F10572
330
F10573
100
AcDbEntity
8
Geo
100
AcDbLine
10
-22.8044168192477
20
-1.41874113100231
30
0.000000000000000
11
-22.7044168192477
21
-1.45534506489739
31
0.000000000000000
  0
LINE
  5
F10574
330
F10575
100
AcDbEntity
8
Geo
100
AcDbLine
10
-22.7044168192477
20
-1.45534506489739
30
0.000000000000000
11
-22.6044168192477
21
-1.49039300859931
31
0.000000000000000
  0
LINE
  5
F10576
330
F10577
100
AcDbEntity
8
Geo
100
AcDbLine
10
-22.6044168192477
20
-1.49039300859931
30
0.000000000000000
11
-22.5044168192477
21
-1.52387522679351
31
0.000000000000000
  0
LINE
  5
F10578
330
F10579
100
AcDbEntity
8
Geo
100
AcDbLine
10
-22.5044168192477
20
-1.52387522679351
30
0.000000000000000
11
-22.4044168192477
21
-1.55578241907912
31
0.000000000000000
  0
LINE
  5
F1057A
330
F1057B
100
AcDbEntity
8
Geo
100
AcDbLine
10
-22.4044168192477
20
-1.55578241907912
30
0.000000000000000
11
-22.3044168192477
21
-1.58610572255232
31
0.000000000000000
  0
LINE
  5
F1057C
330
F1057D
100
AcDbEntity
8
Geo
100
AcDbLine
10
-22.3044168192477
20
-1.58610572255232
30
0.000000000000000
11
-22.2044168192477
21
-1.61483671426826
31
0.000000000000000
  0
LINE
  5
F1057E
330
F1057F
100
AcDbEntity
8
Geo
100
AcDbLine
10
-22.2044168192477
20
-1.61483671426826
30
0.000000000000000
11
-22.1044168192477
21
-1.64196741358062
31
0.000000000000000
  0
LINE
  5
F10580
330
F10581
100
AcDbEntity
8
Geo
100
AcDbLine
10
-22.1044168192477
20
-1.64196741358062
30
0.000000000000000
11
-22.0044168192477
21
-1.66749028435851
31
0.000000000000000
  0
LINE
  5
F10582
330
F10583
100
AcDbEntity
8
Geo
100
AcDbLine
10
-22.0044168192477
20
-1.66749028435851
30
0.000000000000000
11
-21.9044168192477
21
-1.69139823707969
31
0.000000000000000
  0
LINE
  5
F10584
330
F10585
100
AcDbEntity
8
Geo
100
AcDbLine
10
-21.9044168192477
20
-1.69139823707969
30
0.000000000000000
11
-21.8044168192477
21
-1.71368463079993
31
0.000000000000000
  0
LINE
  5
F10586
330
F10587
100
AcDbEntity
8
Geo
100
AcDbLine
10
-21.8044168192477
20
-1.71368463079993
30
0.000000000000000
11
-21.7044168192477
21
-1.73434327499760
31
0.000000000000000
  0
LINE
  5
F10588
330
F10589
100
AcDbEntity
8
Geo
100
AcDbLine
10
-21.7044168192477
20
-1.73434327499760
30
0.000000000000000
11
-21.6044168192477
21
-1.75336843129325
31
0.000000000000000
  0
LINE
  5
F1058A
330
F1058B
100
AcDbEntity
8
Geo
100
AcDbLine
10
-21.6044168192477
20
-1.75336843129325
30
0.000000000000000
11
-21.5044168192477
21
-1.77075481504359
31
0.000000000000000
  0
LINE
  5
F1058C
330
F1058D
100
AcDbEntity
8
Geo
100
AcDbLine
10
-21.5044168192477
20
-1.77075481504359
30
0.000000000000000
11
-21.4044168192477
21
-1.78649759680936
31
0.000000000000000
  0
LINE
  5
F1058E
330
F1058F
100
AcDbEntity
8
Geo
100
AcDbLine
10
-21.4044168192477
20
-1.78649759680936
30
0.000000000000000
11
-21.3044168192477
21
-1.80059240369686
31
0.000000000000000
  0
LINE
  5
F10590
330
F10591
100
AcDbEntity
8
Geo
100
AcDbLine
10
-21.3044168192477
20
-1.80059240369686
30
0.000000000000000
11
-21.2044168192477
21
-1.81303532057258
31
0.000000000000000
  0
LINE
  5
F10592
330
F10593
100
AcDbEntity
8
Geo
100
AcDbLine
10
-21.2044168192477
20
-1.81303532057258
30
0.000000000000000
11
-21.1044168192477
21
-1.82382289115072
31
0.000000000000000
  0
LINE
  5
F10594
330
F10595
100
AcDbEntity
8
Geo
100
AcDbLine
10
-21.1044168192477
20
-1.82382289115072
30
0.000000000000000
11
-21.0044168192477
21
-1.83295211895328
31
0.000000000000000
  0
LINE
  5
F10596
330
F10597
100
AcDbEntity
8
Geo
100
AcDbLine
10
-21.0044168192477
20
-1.83295211895328
30
0.000000000000000
11
-20.9044168192477
21
-1.84042046814233
31
0.000000000000000
  0
LINE
  5
F10598
330
F10599
100
AcDbEntity
8
Geo
100
AcDbLine
10
-20.9044168192477
20
-1.84042046814233
30
0.000000000000000
11
-20.8044168192477
21
-1.84622586422446
31
0.000000000000000
  0
LINE
  5
F1059A
330
F1059B
100
AcDbEntity
8
Geo
100
AcDbLine
10
-20.8044168192477
20
-1.84622586422446
30
0.000000000000000
11
-20.7044168192477
21
-1.85036669462697
31
0.000000000000000
  0
LINE
  5
F1059C
330
F1059D
100
AcDbEntity
8
Geo
100
AcDbLine
10
-20.7044168192477
20
-1.85036669462697
30
0.000000000000000
11
-20.6044168192477
21
-1.85284180914583
31
0.000000000000000
  0
LINE
  5
F1059E
330
F1059F
100
AcDbEntity
8
Geo
100
AcDbLine
10
-20.6044168192477
20
-1.85284180914583
30
0.000000000000000
11
-20.5058931268876
21
-1.85365070187274
31
0.000000000000000
  0
LINE
  5
F105A0
330
F105A1
100
AcDbEntity
8
Geo
100
AcDbLine
10
-36.0044168192477
20
-1.05915589691899
30
0.000000000000000
11
-35.9044168192477
21
-1.16609470774062
31
0.000000000000000
  0
LINE
  5
F105A2
330
F105A3
100
AcDbEntity
8
Geo
100
AcDbLine
10
-35.9044168192477
20
-1.16609470774062
30
0.000000000000000
11
-35.9044168192477
21
-1.16609470774062
31
0.000000000000000
  0
LINE
  5
F105A4
330
F105A5
100
AcDbEntity
8
Geo
100
AcDbLine
10
-35.9044168192477
20
-1.16609470774062
30
0.000000000000000
11
-35.8044168192477
21
-1.24227029857551
31
0.000000000000000
  0
LINE
  5
F105A6
330
F105A7
100
AcDbEntity
8
Geo
100
AcDbLine
10
-35.8044168192477
20
-1.24227029857551
30
0.000000000000000
11
-35.7044168192477
21
-1.28549832379598
31
0.000000000000000
  0
LINE
  5
F105A8
330
F105A9
100
AcDbEntity
8
Geo
100
AcDbLine
10
-35.7044168192477
20
-1.28549832379598
30
0.000000000000000
11
-35.6044168192477
21
-1.32721753738148
31
0.000000000000000
  0
LINE
  5
F105AA
330
F105AB
100
AcDbEntity
8
Geo
100
AcDbLine
10
-35.6044168192477
20
-1.32721753738148
30
0.000000000000000
11
-35.5044168192477
21
-1.36741635092984
31
0.000000000000000
  0
LINE
  5
F105AC
330
F105AD
100
AcDbEntity
8
Geo
100
AcDbLine
10
-35.5044168192477
20
-1.36741635092984
30
0.000000000000000
11
-35.4044168192477
21
-1.40608359836241
31
0.000000000000000
  0
LINE
  5
F105AE
330
F105AF
100
AcDbEntity
8
Geo
100
AcDbLine
10
-35.4044168192477
20
-1.40608359836241
30
0.000000000000000
11
-35.3044168192477
21
-1.44320853902579
31
0.000000000000000
  0
LINE
  5
F105B0
330
F105B1
100
AcDbEntity
8
Geo
100
AcDbLine
10
-35.3044168192477
20
-1.44320853902579
30
0.000000000000000
11
-35.2044168192477
21
-1.47878086067515
31
0.000000000000000
  0
LINE
  5
F105B2
330
F105B3
100
AcDbEntity
8
Geo
100
AcDbLine
10
-35.2044168192477
20
-1.47878086067515
30
0.000000000000000
11
-35.1044168192477
21
-1.51279068233878
31
0.000000000000000
  0
LINE
  5
F105B4
330
F105B5
100
AcDbEntity
8
Geo
100
AcDbLine
10
-35.1044168192477
20
-1.51279068233878
30
0.000000000000000
11
-35.0044168192477
21
-1.54522855706266
31
0.000000000000000
  0
LINE
  5
F105B6
330
F105B7
100
AcDbEntity
8
Geo
100
AcDbLine
10
-35.0044168192477
20
-1.54522855706266
30
0.000000000000000
11
-34.9044168192477
21
-1.57608547453462
31
0.000000000000000
  0
LINE
  5
F105B8
330
F105B9
100
AcDbEntity
8
Geo
100
AcDbLine
10
-34.9044168192477
20
-1.57608547453462
30
0.000000000000000
11
-34.8044168192477
21
-1.60535286358710
31
0.000000000000000
  0
LINE
  5
F105BA
330
F105BB
100
AcDbEntity
8
Geo
100
AcDbLine
10
-34.8044168192477
20
-1.60535286358710
30
0.000000000000000
11
-34.7044168192477
21
-1.63302259457801
31
0.000000000000000
  0
LINE
  5
F105BC
330
F105BD
100
AcDbEntity
8
Geo
100
AcDbLine
10
-34.7044168192477
20
-1.63302259457801
30
0.000000000000000
11
-34.6044168192477
21
-1.65908698164885
31
0.000000000000000
  0
LINE
  5
F105BE
330
F105BF
100
AcDbEntity
8
Geo
100
AcDbLine
10
-34.6044168192477
20
-1.65908698164885
30
0.000000000000000
11
-34.5044168192477
21
-1.68353878485973
31
0.000000000000000
  0
LINE
  5
F105C0
330
F105C1
100
AcDbEntity
8
Geo
100
AcDbLine
10
-34.5044168192477
20
-1.68353878485973
30
0.000000000000000
11
-34.4044168192477
21
-1.70637121220028
31
0.000000000000000
  0
LINE
  5
F105C2
330
F105C3
100
AcDbEntity
8
Geo
100
AcDbLine
10
-34.4044168192477
20
-1.70637121220028
30
0.000000000000000
11
-34.3044168192477
21
-1.72757792147641
31
0.000000000000000
  0
LINE
  5
F105C4
330
F105C5
100
AcDbEntity
8
Geo
100
AcDbLine
10
-34.3044168192477
20
-1.72757792147641
30
0.000000000000000
11
-34.2044168192477
21
-1.74715302207190
31
0.000000000000000
  0
LINE
  5
F105C6
330
F105C7
100
AcDbEntity
8
Geo
100
AcDbLine
10
-34.2044168192477
20
-1.74715302207190
30
0.000000000000000
11
-34.1044168192477
21
-1.76509107658466
31
0.000000000000000
  0
LINE
  5
F105C8
330
F105C9
100
AcDbEntity
8
Geo
100
AcDbLine
10
-34.1044168192477
20
-1.76509107658466
30
0.000000000000000
11
-34.0044168192477
21
-1.78138710233713
31
0.000000000000000
  0
LINE
  5
F105CA
330
F105CB
100
AcDbEntity
8
Geo
100
AcDbLine
10
-34.0044168192477
20
-1.78138710233713
30
0.000000000000000
11
-33.9044168192477
21
-1.79603657276025
31
0.000000000000000
  0
LINE
  5
F105CC
330
F105CD
100
AcDbEntity
8
Geo
100
AcDbLine
10
-33.9044168192477
20
-1.79603657276025
30
0.000000000000000
11
-33.8044168192477
21
-1.80903541865090
31
0.000000000000000
  0
LINE
  5
F105CE
330
F105CF
100
AcDbEntity
8
Geo
100
AcDbLine
10
-33.8044168192477
20
-1.80903541865090
30
0.000000000000000
11
-33.7044168192477
21
-1.82038002930212
31
0.000000000000000
  0
LINE
  5
F105D0
330
F105D1
100
AcDbEntity
8
Geo
100
AcDbLine
10
-33.7044168192477
20
-1.82038002930212
30
0.000000000000000
11
-33.6044168192477
21
-1.83006725350612
31
0.000000000000000
  0
LINE
  5
F105D2
330
F105D3
100
AcDbEntity
8
Geo
100
AcDbLine
10
-33.6044168192477
20
-1.83006725350612
30
0.000000000000000
11
-33.5044168192477
21
-1.83809440042959
31
0.000000000000000
  0
LINE
  5
F105D4
330
F105D5
100
AcDbEntity
8
Geo
100
AcDbLine
10
-33.5044168192477
20
-1.83809440042959
30
0.000000000000000
11
-33.4044168192477
21
-1.84445924036110
31
0.000000000000000
  0
LINE
  5
F105D6
330
F105D7
100
AcDbEntity
8
Geo
100
AcDbLine
10
-33.4044168192477
20
-1.84445924036110
30
0.000000000000000
11
-33.3044168192477
21
-1.84916000533048
31
0.000000000000000
  0
LINE
  5
F105D8
330
F105D9
100
AcDbEntity
8
Geo
100
AcDbLine
10
-33.3044168192477
20
-1.84916000533048
30
0.000000000000000
11
-33.2044168192477
21
-1.85219538959992
31
0.000000000000000
  0
LINE
  5
F105DA
330
F105DB
100
AcDbEntity
8
Geo
100
AcDbLine
10
-33.2044168192477
20
-1.85219538959992
30
0.000000000000000
11
-33.1044168192477
21
-1.85356455002663
31
0.000000000000000
  0
LINE
  5
F105DC
330
F105DD
100
AcDbEntity
8
Geo
100
AcDbLine
10
-33.1044168192477
20
-1.85356455002663
30
0.000000000000000
11
-33.0722633154060
21
-1.85365070187274
31
0.000000000000000
  0
LINE
  5
F105DE
330
F105DF
100
AcDbEntity
8
Geo
100
AcDbLine
10
-14.2227081931646
20
10.1463492981273
30
0.000000000000000
11
-14.2044168192476
21
10.1463214182899
31
0.000000000000000
  0
LINE
  5
F105E0
330
F105E1
100
AcDbEntity
8
Geo
100
AcDbLine
10
-14.2044168192476
20
10.1463214182899
30
0.000000000000000
11
-14.1044168192476
21
10.1451832737855
31
0.000000000000000
  0
LINE
  5
F105E2
330
F105E3
100
AcDbEntity
8
Geo
100
AcDbLine
10
-14.1044168192476
20
10.1451832737855
30
0.000000000000000
11
-14.0044168192476
21
10.1423788250824
31
0.000000000000000
  0
LINE
  5
F105E4
330
F105E5
100
AcDbEntity
8
Geo
100
AcDbLine
10
-14.0044168192476
20
10.1423788250824
30
0.000000000000000
11
-13.9044168192476
21
10.1379088511762
31
0.000000000000000
  0
LINE
  5
F105E6
330
F105E7
100
AcDbEntity
8
Geo
100
AcDbLine
10
-13.9044168192476
20
10.1379088511762
30
0.000000000000000
11
-13.8044168192476
21
10.1317745936975
31
0.000000000000000
  0
LINE
  5
F105E8
330
F105E9
100
AcDbEntity
8
Geo
100
AcDbLine
10
-13.8044168192476
20
10.1317745936975
30
0.000000000000000
11
-13.7044168192476
21
10.1239777565673
31
0.000000000000000
  0
LINE
  5
F105EA
330
F105EB
100
AcDbEntity
8
Geo
100
AcDbLine
10
-13.7044168192476
20
10.1239777565673
30
0.000000000000000
11
-13.6044168192476
21
10.1145205055237
31
0.000000000000000
  0
LINE
  5
F105EC
330
F105ED
100
AcDbEntity
8
Geo
100
AcDbLine
10
-13.6044168192476
20
10.1145205055237
30
0.000000000000000
11
-13.5044168192476
21
10.1034054675198
31
0.000000000000000
  0
LINE
  5
F105EE
330
F105EF
100
AcDbEntity
8
Geo
100
AcDbLine
10
-13.5044168192476
20
10.1034054675198
30
0.000000000000000
11
-13.4044168192476
21
10.0906357299949
31
0.000000000000000
  0
LINE
  5
F105F0
330
F105F1
100
AcDbEntity
8
Geo
100
AcDbLine
10
-13.4044168192476
20
10.0906357299949
30
0.000000000000000
11
-13.3044168192476
21
10.0762148400162
31
0.000000000000000
  0
LINE
  5
F105F2
330
F105F3
100
AcDbEntity
8
Geo
100
AcDbLine
10
-13.3044168192476
20
10.0762148400162
30
0.000000000000000
11
-13.2044168192476
21
10.0601468032936
31
0.000000000000000
  0
LINE
  5
F105F4
330
F105F5
100
AcDbEntity
8
Geo
100
AcDbLine
10
-13.2044168192476
20
10.0601468032936
30
0.000000000000000
11
-13.1044168192476
21
10.0424360830674
31
0.000000000000000
  0
LINE
  5
F105F6
330
F105F7
100
AcDbEntity
8
Geo
100
AcDbLine
10
-9.12593325610117
20
-1.85365070187274
30
0.000000000000000
11
-9.20441681924756
21
-1.84972070556966
31
0.000000000000000
  0
LINE
  5
F105F8
330
F105F9
100
AcDbEntity
8
Geo
100
AcDbLine
10
-9.20441681924756
20
-1.84972070556966
30
0.000000000000000
11
-9.30441681924756
21
-1.83508743303450
31
0.000000000000000
  0
LINE
  5
F105FA
330
F105FB
100
AcDbEntity
8
Geo
100
AcDbLine
10
-9.30441681924756
20
-1.83508743303450
30
0.000000000000000
11
-9.40441681924756
21
-1.81199341967759
31
0.000000000000000
  0
LINE
  5
F105FC
330
F105FD
100
AcDbEntity
8
Geo
100
AcDbLine
10
-9.40441681924756
20
-1.81199341967759
30
0.000000000000000
11
-9.50441681924756
21
-1.78245426584899
31
0.000000000000000
  0
LINE
  5
F105FE
330
F105FF
100
AcDbEntity
8
Geo
100
AcDbLine
10
-9.50441681924756
20
-1.78245426584899
30
0.000000000000000
11
-9.60441681924756
21
-1.74805264904737
31
0.000000000000000
  0
LINE
  5
F10600
330
F10601
100
AcDbEntity
8
Geo
100
AcDbLine
10
-9.60441681924756
20
-1.74805264904737
30
0.000000000000000
11
-9.70441681924756
21
-1.71001562348812
31
0.000000000000000
  0
LINE
  5
F10602
330
F10603
100
AcDbEntity
8
Geo
100
AcDbLine
10
-9.70441681924756
20
-1.71001562348812
30
0.000000000000000
11
-9.80441681924756
21
-1.66928059624188
31
0.000000000000000
  0
LINE
  5
F10604
330
F10605
100
AcDbEntity
8
Geo
100
AcDbLine
10
-9.80441681924756
20
-1.66928059624188
30
0.000000000000000
11
-9.90441681924757
21
-1.62655100569362
31
0.000000000000000
  0
LINE
  5
F10606
330
F10607
100
AcDbEntity
8
Geo
100
AcDbLine
10
-9.90441681924757
20
-1.62655100569362
30
0.000000000000000
11
-10.0044168192476
21
-1.58234287422574
31
0.000000000000000
  0
LINE
  5
F10608
330
F10609
100
AcDbEntity
8
Geo
100
AcDbLine
10
-10.0044168192476
20
-1.58234287422574
30
0.000000000000000
11
-10.1044168192476
21
-1.53702342611074
31
0.000000000000000
  0
LINE
  5
F1060A
330
F1060B
100
AcDbEntity
8
Geo
100
AcDbLine
10
-10.1044168192476
20
-1.53702342611074
30
0.000000000000000
11
-10.2044168192476
21
-1.49084290569021
31
0.000000000000000
  0
LINE
  5
F1060C
330
F1060D
100
AcDbEntity
8
Geo
100
AcDbLine
10
-10.2044168192476
20
-1.49084290569021
30
0.000000000000000
11
-10.3044168192476
21
-1.44396063460196
31
0.000000000000000
  0
LINE
  5
F1060E
330
F1060F
100
AcDbEntity
8
Geo
100
AcDbLine
10
-10.3044168192476
20
-1.44396063460196
30
0.000000000000000
11
-10.4044168192476
21
-1.39646623244568
31
0.000000000000000
  0
LINE
  5
F10610
330
F10611
100
AcDbEntity
8
Geo
100
AcDbLine
10
-10.4044168192476
20
-1.39646623244568
30
0.000000000000000
11
-10.5044168192476
21
-1.34839680681587
31
0.000000000000000
  0
LINE
  5
F10612
330
F10613
100
AcDbEntity
8
Geo
100
AcDbLine
10
-10.5044168192476
20
-1.34839680681587
30
0.000000000000000
11
-10.6044168192476
21
-1.29975080439351
31
0.000000000000000
  0
LINE
  5
F10614
330
F10615
100
AcDbEntity
8
Geo
100
AcDbLine
10
-10.6044168192476
20
-1.29975080439351
30
0.000000000000000
11
-10.7044168192476
21
-1.25049910937047
31
0.000000000000000
  0
LINE
  5
F10616
330
F10617
100
AcDbEntity
8
Geo
100
AcDbLine
10
-10.7044168192476
20
-1.25049910937047
30
0.000000000000000
11
-10.8044168192476
21
-1.20059388107502
31
0.000000000000000
  0
LINE
  5
F10618
330
F10619
100
AcDbEntity
8
Geo
100
AcDbLine
10
-10.8044168192476
20
-1.20059388107502
30
0.000000000000000
11
-10.9044168192476
21
-1.14997553996395
31
0.000000000000000
  0
LINE
  5
F1061A
330
F1061B
100
AcDbEntity
8
Geo
100
AcDbLine
10
-10.9044168192476
20
-1.14997553996395
30
0.000000000000000
11
-11.0044168192476
21
-1.09857823993494
31
0.000000000000000
  0
LINE
  5
F1061C
330
F1061D
100
AcDbEntity
8
Geo
100
AcDbLine
10
-11.0044168192476
20
-1.09857823993494
30
0.000000000000000
11
-11.1044168192476
21
-1.04633410446465
31
0.000000000000000
  0
LINE
  5
F1061E
330
F1061F
100
AcDbEntity
8
Geo
100
AcDbLine
10
-11.1044168192476
20
-1.04633410446465
30
0.000000000000000
11
-11.2044168192476
21
-0.993176453406500
31
0.000000000000000
  0
LINE
  5
F10620
330
F10621
100
AcDbEntity
8
Geo
100
AcDbLine
10
-11.2044168192476
20
-0.993176453406500
30
0.000000000000000
11
-11.3044168192476
21
-0.939042205294879
31
0.000000000000000
  0
LINE
  5
F10622
330
F10623
100
AcDbEntity
8
Geo
100
AcDbLine
10
-11.3044168192476
20
-0.939042205294879
30
0.000000000000000
11
-11.4044168192476
21
-0.883873605595069
31
0.000000000000000
  0
LINE
  5
F10624
330
F10625
100
AcDbEntity
8
Geo
100
AcDbLine
10
-11.4044168192476
20
-0.883873605595069
30
0.000000000000000
11
-11.5044168192476
21
-0.827619403454962
31
0.000000000000000
  0
LINE
  5
F10626
330
F10627
100
AcDbEntity
8
Geo
100
AcDbLine
10
-11.5044168192476
20
-0.827619403454962
30
0.000000000000000
11
-11.6044168192476
21
-0.770235577171075
31
0.000000000000000
  0
LINE
  5
F10628
330
F10629
100
AcDbEntity
8
Geo
100
AcDbLine
10
-11.6044168192476
20
-0.770235577171075
30
0.000000000000000
11
-11.7044168192476
21
-0.711685690884928
31
0.000000000000000
  0
LINE
  5
F1062A
330
F1062B
100
AcDbEntity
8
Geo
100
AcDbLine
10
-11.7044168192476
20
-0.711685690884928
30
0.000000000000000
11
-11.8044168192476
21
-0.651940951177322
31
0.000000000000000
  0
LINE
  5
F1062C
330
F1062D
100
AcDbEntity
8
Geo
100
AcDbLine
10
-11.8044168192476
20
-0.651940951177322
30
0.000000000000000
11
-11.9044168192476
21
-0.590980021521238
31
0.000000000000000
  0
LINE
  5
F1062E
330
F1062F
100
AcDbEntity
8
Geo
100
AcDbLine
10
-11.9044168192476
20
-0.590980021521238
30
0.000000000000000
11
-12.0044168192476
21
-0.528788644374062
31
0.000000000000000
  0
LINE
  5
F10630
330
F10631
100
AcDbEntity
8
Geo
100
AcDbLine
10
-12.0044168192476
20
-0.528788644374062
30
0.000000000000000
11
-12.1044168192476
21
-0.465359114505270
31
0.000000000000000
  0
LINE
  5
F10632
330
F10633
100
AcDbEntity
8
Geo
100
AcDbLine
10
-12.1044168192476
20
-0.465359114505270
30
0.000000000000000
11
-12.2044168192476
21
-0.400689642515303
31
0.000000000000000
  0
LINE
  5
F10634
330
F10635
100
AcDbEntity
8
Geo
100
AcDbLine
10
-12.2044168192476
20
-0.400689642515303
30
0.000000000000000
11
-12.3044168192476
21
-0.334783644025269
31
0.000000000000000
  0
LINE
  5
F10636
330
F10637
100
AcDbEntity
8
Geo
100
AcDbLine
10
-12.3044168192476
20
-0.334783644025269
30
0.000000000000000
11
-12.4044168192476
21
-0.267648987392428
31
0.000000000000000
  0
LINE
  5
F10638
330
F10639
100
AcDbEntity
8
Geo
100
AcDbLine
10
-12.4044168192476
20
-0.267648987392428
30
0.000000000000000
11
-12.5044168192476
21
-0.199297230779067
31
0.000000000000000
  0
LINE
  5
F1063A
330
F1063B
100
AcDbEntity
8
Geo
100
AcDbLine
10
-12.5044168192476
20
-0.199297230779067
30
0.000000000000000
11
-12.6044168192476
21
-0.129742877771384
31
0.000000000000000
  0
LINE
  5
F1063C
330
F1063D
100
AcDbEntity
8
Geo
100
AcDbLine
10
-12.6044168192476
20
-0.129742877771384
30
0.000000000000000
11
-12.7044168192476
21
-0.0590026793559106
31
0.000000000000000
  0
LINE
  5
F1063E
330
F1063F
100
AcDbEntity
8
Geo
100
AcDbLine
10
-12.7044168192476
20
-0.0590026793559106
30
0.000000000000000
11
-12.8044168192476
21
0.0129049912012391
31
0.000000000000000
  0
LINE
  5
F10640
330
F10641
100
AcDbEntity
8
Geo
100
AcDbLine
10
-12.8044168192476
20
0.0129049912012391
30
0.000000000000000
11
-12.9044168192476
21
0.0859606652436531
31
0.000000000000000
  0
LINE
  5
F10642
330
F10643
100
AcDbEntity
8
Geo
100
AcDbLine
10
-12.9044168192476
20
0.0859606652436531
30
0.000000000000000
11
-13.1044168192476
21
0.235434954625492
31
0.000000000000000
  0
LINE
  5
F10644
330
F10645
100
AcDbEntity
8
Geo
100
AcDbLine
10
-10.8715403421894
20
10.1463492981273
30
0.000000000000000
11
-10.8044168192476
21
10.1459744418377
31
0.000000000000000
  0
LINE
  5
F10646
330
F10647
100
AcDbEntity
8
Geo
100
AcDbLine
10
-10.8044168192476
20
10.1459744418377
30
0.000000000000000
11
-10.7044168192476
21
10.1440271409391
31
0.000000000000000
  0
LINE
  5
F10648
330
F10649
100
AcDbEntity
8
Geo
100
AcDbLine
10
-10.7044168192476
20
10.1440271409391
30
0.000000000000000
11
-10.6044168192476
21
10.1404219263528
31
0.000000000000000
  0
LINE
  5
F1064A
330
F1064B
100
AcDbEntity
8
Geo
100
AcDbLine
10
-10.6044168192476
20
10.1404219263528
30
0.000000000000000
11
-10.5044168192476
21
10.1351665000955
31
0.000000000000000
  0
LINE
  5
F1064C
330
F1064D
100
AcDbEntity
8
Geo
100
AcDbLine
10
-10.5044168192476
20
10.1351665000955
30
0.000000000000000
11
-10.4044168192476
21
10.1282733883314
31
0.000000000000000
  0
LINE
  5
F1064E
330
F1064F
100
AcDbEntity
8
Geo
100
AcDbLine
10
-10.4044168192476
20
10.1282733883314
30
0.000000000000000
11
-10.3044168192476
21
10.1197622368012
31
0.000000000000000
  0
LINE
  5
F10650
330
F10651
100
AcDbEntity
8
Geo
100
AcDbLine
10
-10.3044168192476
20
10.1197622368012
30
0.000000000000000
11
-10.2044168192476
21
10.1096630829715
31
0.000000000000000
  0
LINE
  5
F10652
330
F10653
100
AcDbEntity
8
Geo
100
AcDbLine
10
-10.2044168192476
20
10.1096630829715
30
0.000000000000000
11
-10.1044168192476
21
10.0980209305298
31
0.000000000000000
  0
LINE
  5
F10654
330
F10655
100
AcDbEntity
8
Geo
100
AcDbLine
10
-10.1044168192476
20
10.0980209305298
30
0.000000000000000
11
-10.0044168192476
21
10.0849020261882
31
0.000000000000000
  0
LINE
  5
F10656
330
F10657
100
AcDbEntity
8
Geo
100
AcDbLine
10
-10.0044168192476
20
10.0849020261882
30
0.000000000000000
11
-9.90441681924757
21
10.0704023145542
31
0.000000000000000
  0
LINE
  5
F10658
330
F10659
100
AcDbEntity
8
Geo
100
AcDbLine
10
-9.90441681924757
20
10.0704023145542
30
0.000000000000000
11
-9.80441681924756
21
10.0546586130304
31
0.000000000000000
  0
LINE
  5
F1065A
330
F1065B
100
AcDbEntity
8
Geo
100
AcDbLine
10
-9.80441681924756
20
10.0546586130304
30
0.000000000000000
11
-9.70441681924756
21
10.0378630853402
31
0.000000000000000
  0
LINE
  5
F1065C
330
F1065D
100
AcDbEntity
8
Geo
100
AcDbLine
10
-9.70441681924756
20
10.0378630853402
30
0.000000000000000
11
-9.60441681924756
21
10.0202815651202
31
0.000000000000000
  0
LINE
  5
F1065E
330
F1065F
100
AcDbEntity
8
Geo
100
AcDbLine
10
-9.60441681924756
20
10.0202815651202
30
0.000000000000000
11
-9.50441681924756
21
10.0022761335624
31
0.000000000000000
  0
LINE
  5
F10660
330
F10661
100
AcDbEntity
8
Geo
100
AcDbLine
10
-9.50441681924756
20
10.0022761335624
30
0.000000000000000
11
-9.40441681924756
21
9.98433199614641
31
0.000000000000000
  0
LINE
  5
F10662
330
F10663
100
AcDbEntity
8
Geo
100
AcDbLine
10
-9.40441681924756
20
9.98433199614641
30
0.000000000000000
11
-9.30441681924756
21
9.96708798857860
31
0.000000000000000
  0
LINE
  5
F10664
330
F10665
100
AcDbEntity
8
Geo
100
AcDbLine
10
-9.30441681924756
20
9.96708798857860
30
0.000000000000000
11
-9.20441681924756
21
9.95136874459037
31
0.000000000000000
  0
LINE
  5
F10666
330
F10667
100
AcDbEntity
8
Geo
100
AcDbLine
10
-9.20441681924756
20
9.95136874459037
30
0.000000000000000
11
-9.10441681924755
21
9.93821432550011
31
0.000000000000000
  0
LINE
  5
F10668
330
F10669
100
AcDbEntity
8
Geo
100
AcDbLine
10
-9.10441681924755
20
9.93821432550011
30
0.000000000000000
11
-9.00441681924755
21
9.92889939587738
31
0.000000000000000
  0
LINE
  5
F1066A
330
F1066B
100
AcDbEntity
8
Geo
100
AcDbLine
10
-9.00441681924755
20
9.92889939587738
30
0.000000000000000
11
-8.90441681924755
21
9.92492798245130
31
0.000000000000000
  0
LINE
  5
F1066C
330
F1066D
100
AcDbEntity
8
Geo
100
AcDbLine
10
-8.90441681924755
20
9.92492798245130
30
0.000000000000000
11
-8.80441681924755
21
9.92798016119843
31
0.000000000000000
  0
LINE
  5
F1066E
330
F1066F
100
AcDbEntity
8
Geo
100
AcDbLine
10
-8.80441681924755
20
9.92798016119843
30
0.000000000000000
11
-8.70441681924755
21
9.93977166141511
31
0.000000000000000
  0
LINE
  5
F10670
330
F10671
100
AcDbEntity
8
Geo
100
AcDbLine
10
-8.70441681924755
20
9.93977166141511
30
0.000000000000000
11
-8.60441681924755
21
9.96176330664836
31
0.000000000000000
  0
LINE
  5
F10672
330
F10673
100
AcDbEntity
8
Geo
100
AcDbLine
10
-8.60441681924755
20
9.96176330664836
30
0.000000000000000
11
-8.50441681924755
21
9.99462000899257
31
0.000000000000000
  0
LINE
  5
F10674
330
F10675
100
AcDbEntity
8
Geo
100
AcDbLine
10
-8.50441681924755
20
9.99462000899257
30
0.000000000000000
11
-8.40441681924754
21
10.0372628332024
31
0.000000000000000
  0
LINE
  5
F10676
330
F10677
100
AcDbEntity
8
Geo
100
AcDbLine
10
-8.40441681924754
20
10.0372628332024
30
0.000000000000000
11
-8.30441681924754
21
10.0852762797618
31
0.000000000000000
  0
LINE
  5
F10678
330
F10679
100
AcDbEntity
8
Geo
100
AcDbLine
10
-8.30441681924754
20
10.0852762797618
30
0.000000000000000
11
-8.20441681924754
21
10.1283247794107
31
0.000000000000000
  0
LINE
  5
F1067A
330
F1067B
100
AcDbEntity
8
Geo
100
AcDbLine
10
-8.20441681924754
20
10.1283247794107
30
0.000000000000000
11
-8.11465362198473
21
10.1463492981273
31
0.000000000000000
  0
LINE
  5
F1067C
330
F1067D
100
AcDbEntity
8
Geo
100
AcDbLine
10
-13.1044168192476
20
3.24096944922662
30
0.000000000000000
11
-12.9044168192476
21
3.04379909330467
31
0.000000000000000
  0
LINE
  5
F1067E
330
F1067F
100
AcDbEntity
8
Geo
100
AcDbLine
10
-12.9044168192476
20
3.04379909330467
30
0.000000000000000
11
-12.8044168192476
21
2.94565962792783
31
0.000000000000000
  0
LINE
  5
F10680
330
F10681
100
AcDbEntity
8
Geo
100
AcDbLine
10
-12.8044168192476
20
2.94565962792783
30
0.000000000000000
11
-12.7044168192476
21
2.84785367973897
31
0.000000000000000
  0
LINE
  5
F10682
330
F10683
100
AcDbEntity
8
Geo
100
AcDbLine
10
-12.7044168192476
20
2.84785367973897
30
0.000000000000000
11
-12.6044168192476
21
2.75040841642836
31
0.000000000000000
  0
LINE
  5
F10684
330
F10685
100
AcDbEntity
8
Geo
100
AcDbLine
10
-12.6044168192476
20
2.75040841642836
30
0.000000000000000
11
-12.5044168192476
21
2.65335090550092
31
0.000000000000000
  0
LINE
  5
F10686
330
F10687
100
AcDbEntity
8
Geo
100
AcDbLine
10
-12.5044168192476
20
2.65335090550092
30
0.000000000000000
11
-12.4044168192476
21
2.55670810677343
31
0.000000000000000
  0
LINE
  5
F10688
330
F10689
100
AcDbEntity
8
Geo
100
AcDbLine
10
-12.4044168192476
20
2.55670810677343
30
0.000000000000000
11
-12.3044168192476
21
2.46050686495942
31
0.000000000000000
  0
LINE
  5
F1068A
330
F1068B
100
AcDbEntity
8
Geo
100
AcDbLine
10
-12.3044168192476
20
2.46050686495942
30
0.000000000000000
11
-12.2044168192476
21
2.36477390247608
31
0.000000000000000
  0
LINE
  5
F1068C
330
F1068D
100
AcDbEntity
8
Geo
100
AcDbLine
10
-12.2044168192476
20
2.36477390247608
30
0.000000000000000
11
-12.1044168192476
21
2.26953581280443
31
0.000000000000000
  0
LINE
  5
F1068E
330
F1068F
100
AcDbEntity
8
Geo
100
AcDbLine
10
-12.1044168192476
20
2.26953581280443
30
0.000000000000000
11
-12.0044168192476
21
2.17481905511680
31
0.000000000000000
  0
LINE
  5
F10690
330
F10691
100
AcDbEntity
8
Geo
100
AcDbLine
10
-12.0044168192476
20
2.17481905511680
30
0.000000000000000
11
-11.9044168192476
21
2.08064995156397
31
0.000000000000000
  0
LINE
  5
F10692
330
F10693
100
AcDbEntity
8
Geo
100
AcDbLine
10
-11.9044168192476
20
2.08064995156397
30
0.000000000000000
11
-11.8044168192476
21
1.98705468972513
31
0.000000000000000
  0
LINE
  5
F10694
330
F10695
100
AcDbEntity
8
Geo
100
AcDbLine
10
-11.8044168192476
20
1.98705468972513
30
0.000000000000000
11
-11.7044168192476
21
1.89405933444049
31
0.000000000000000
  0
LINE
  5
F10696
330
F10697
100
AcDbEntity
8
Geo
100
AcDbLine
10
-11.7044168192476
20
1.89405933444049
30
0.000000000000000
11
-11.6044168192476
21
1.80168985577126
31
0.000000000000000
  0
LINE
  5
F10698
330
F10699
100
AcDbEntity
8
Geo
100
AcDbLine
10
-11.6044168192476
20
1.80168985577126
30
0.000000000000000
11
-11.5044168192476
21
1.70997218339908
31
0.000000000000000
  0
LINE
  5
F1069A
330
F1069B
100
AcDbEntity
8
Geo
100
AcDbLine
10
-11.5044168192476
20
1.70997218339908
30
0.000000000000000
11
-11.4044168192476
21
1.61893230264680
31
0.000000000000000
  0
LINE
  5
F1069C
330
F1069D
100
AcDbEntity
8
Geo
100
AcDbLine
10
-11.4044168192476
20
1.61893230264680
30
0.000000000000000
11
-11.3044168192476
21
1.52859641375606
31
0.000000000000000
  0
LINE
  5
F1069E
330
F1069F
100
AcDbEntity
8
Geo
100
AcDbLine
10
-11.3044168192476
20
1.52859641375606
30
0.000000000000000
11
-11.2044168192476
21
1.43899118438979
31
0.000000000000000
  0
LINE
  5
F106A0
330
F106A1
100
AcDbEntity
8
Geo
100
AcDbLine
10
-11.2044168192476
20
1.43899118438979
30
0.000000000000000
11
-11.1044168192476
21
1.35014413584024
31
0.000000000000000
  0
LINE
  5
F106A2
330
F106A3
100
AcDbEntity
8
Geo
100
AcDbLine
10
-11.1044168192476
20
1.35014413584024
30
0.000000000000000
11
-11.0044168192476
21
1.26208421641061
31
0.000000000000000
  0
LINE
  5
F106A4
330
F106A5
100
AcDbEntity
8
Geo
100
AcDbLine
10
-11.0044168192476
20
1.26208421641061
30
0.000000000000000
11
-10.9044168192476
21
1.17484263118158
31
0.000000000000000
  0
LINE
  5
F106A6
330
F106A7
100
AcDbEntity
8
Geo
100
AcDbLine
10
-10.9044168192476
20
1.17484263118158
30
0.000000000000000
11
-10.8044168192476
21
1.08845401612677
31
0.000000000000000
  0
LINE
  5
F106A8
330
F106A9
100
AcDbEntity
8
Geo
100
AcDbLine
10
-10.8044168192476
20
1.08845401612677
30
0.000000000000000
11
-10.7044168192476
21
1.00295806652594
31
0.000000000000000
  0
LINE
  5
F106AA
330
F106AB
100
AcDbEntity
8
Geo
100
AcDbLine
10
-10.7044168192476
20
1.00295806652594
30
0.000000000000000
11
-10.6044168192476
21
0.918401755036042
31
0.000000000000000
  0
LINE
  5
F106AC
330
F106AD
100
AcDbEntity
8
Geo
100
AcDbLine
10
-10.6044168192476
20
0.918401755036042
30
0.000000000000000
11
-10.5044168192476
21
0.834842303805870
31
0.000000000000000
  0
LINE
  5
F106AE
330
F106AF
100
AcDbEntity
8
Geo
100
AcDbLine
10
-10.5044168192476
20
0.834842303805870
30
0.000000000000000
11
-10.4044168192476
21
0.752351107900832
31
0.000000000000000
  0
LINE
  5
F106B0
330
F106B1
100
AcDbEntity
8
Geo
100
AcDbLine
10
-10.4044168192476
20
0.752351107900832
30
0.000000000000000
11
-10.3044168192476
21
0.671018844461078
31
0.000000000000000
  0
LINE
  5
F106B2
330
F106B3
100
AcDbEntity
8
Geo
100
AcDbLine
10
-10.3044168192476
20
0.671018844461078
30
0.000000000000000
11
-10.2044168192476
21
0.590962044285523
31
0.000000000000000
  0
LINE
  5
F106B4
330
F106B5
100
AcDbEntity
8
Geo
100
AcDbLine
10
-10.2044168192476
20
0.590962044285523
30
0.000000000000000
11
-10.1044168192476
21
0.512331451602235
31
0.000000000000000
  0
LINE
  5
F106B6
330
F106B7
100
AcDbEntity
8
Geo
100
AcDbLine
10
-10.1044168192476
20
0.512331451602235
30
0.000000000000000
11
-10.0044168192476
21
0.435322556928284
31
0.000000000000000
  0
LINE
  5
F106B8
330
F106B9
100
AcDbEntity
8
Geo
100
AcDbLine
10
-10.0044168192476
20
0.435322556928284
30
0.000000000000000
11
-9.90441681924757
21
0.360188763239533
31
0.000000000000000
  0
LINE
  5
F106BA
330
F106BB
100
AcDbEntity
8
Geo
100
AcDbLine
10
-9.90441681924757
20
0.360188763239533
30
0.000000000000000
11
-9.80441681924756
21
0.287257748085224
31
0.000000000000000
  0
LINE
  5
F106BC
330
F106BD
100
AcDbEntity
8
Geo
100
AcDbLine
10
-9.80441681924756
20
0.287257748085224
30
0.000000000000000
11
-9.70441681924756
21
0.216951732674650
31
0.000000000000000
  0
LINE
  5
F106BE
330
F106BF
100
AcDbEntity
8
Geo
100
AcDbLine
10
-9.70441681924756
20
0.216951732674650
30
0.000000000000000
11
-9.60441681924756
21
0.149812594973437
31
0.000000000000000
  0
LINE
  5
F106C0
330
F106C1
100
AcDbEntity
8
Geo
100
AcDbLine
10
-9.60441681924756
20
0.149812594973437
30
0.000000000000000
11
-9.50441681924756
21
0.0865331189947689
31
0.000000000000000
  0
LINE
  5
F106C2
330
F106C3
100
AcDbEntity
8
Geo
100
AcDbLine
10
-9.50441681924756
20
0.0865331189947689
30
0.000000000000000
11
-9.40441681924756
21
0.0279962383641097
31
0.000000000000000
  0
LINE
  5
F106C4
330
F106C5
100
AcDbEntity
8
Geo
100
AcDbLine
10
-9.40441681924756
20
0.0279962383641097
30
0.000000000000000
11
-9.30441681924756
21
-0.0246749654293872
31
0.000000000000000
  0
LINE
  5
F106C6
330
F106C7
100
AcDbEntity
8
Geo
100
AcDbLine
10
-9.30441681924756
20
-0.0246749654293872
30
0.000000000000000
11
-9.20441681924756
21
-0.0700523231076273
31
0.000000000000000
  0
LINE
  5
F106C8
330
F106C9
100
AcDbEntity
8
Geo
100
AcDbLine
10
-9.20441681924756
20
-0.0700523231076273
30
0.000000000000000
11
-9.10441681924755
21
-0.106316287508615
31
0.000000000000000
  0
LINE
  5
F106CA
330
F106CB
100
AcDbEntity
8
Geo
100
AcDbLine
10
-9.10441681924755
20
-0.106316287508615
30
0.000000000000000
11
-9.00441681924755
21
-0.131138496056943
31
0.000000000000000
  0
LINE
  5
F106CC
330
F106CD
100
AcDbEntity
8
Geo
100
AcDbLine
10
-9.00441681924755
20
-0.131138496056943
30
0.000000000000000
11
-8.90441681924755
21
-0.141518354965838
31
0.000000000000000
  0
LINE
  5
F106CE
330
F106CF
100
AcDbEntity
8
Geo
100
AcDbLine
10
-8.90441681924755
20
-0.141518354965838
30
0.000000000000000
11
-8.80441681924755
21
-0.133551596001308
31
0.000000000000000
  0
LINE
  5
F106D0
330
F106D1
100
AcDbEntity
8
Geo
100
AcDbLine
10
-8.80441681924755
20
-0.133551596001308
30
0.000000000000000
11
-8.70441681924755
21
-0.102098910610735
31
0.000000000000000
  0
LINE
  5
F106D2
330
F106D3
100
AcDbEntity
8
Geo
100
AcDbLine
10
-8.70441681924755
20
-0.102098910610735
30
0.000000000000000
11
-8.60441681924755
21
-0.0403103761419823
31
0.000000000000000
  0
LINE
  5
F106D4
330
F106D5
100
AcDbEntity
8
Geo
100
AcDbLine
10
-8.60441681924755
20
-0.0403103761419823
30
0.000000000000000
11
-8.50441681924755
21
0.0610519086415797
31
0.000000000000000
  0
LINE
  5
F106D6
330
F106D7
100
AcDbEntity
8
Geo
100
AcDbLine
10
-8.50441681924755
20
0.0610519086415797
30
0.000000000000000
11
-8.40441681924754
21
0.214559274686087
31
0.000000000000000
  0
LINE
  5
F106D8
330
F106D9
100
AcDbEntity
8
Geo
100
AcDbLine
10
-8.40441681924754
20
0.214559274686087
30
0.000000000000000
11
-8.30441681924754
21
0.437386158824689
31
0.000000000000000
  0
LINE
  5
F106DA
330
F106DB
100
AcDbEntity
8
Geo
100
AcDbLine
10
-8.30441681924754
20
0.437386158824689
30
0.000000000000000
11
-8.20441681924754
21
0.752897887084346
31
0.000000000000000
  0
LINE
  5
F106DC
330
F106DD
100
AcDbEntity
8
Geo
100
AcDbLine
10
-8.20441681924754
20
0.752897887084346
30
0.000000000000000
11
-8.10441681924754
21
1.19236422295606
31
0.000000000000000
  0
LINE
  5
F106DE
330
F106DF
100
AcDbEntity
8
Geo
100
AcDbLine
10
-8.10441681924754
20
1.19236422295606
30
0.000000000000000
11
-8.00441681924767
21
1.79615078211447
31
0.000000000000000
  0
LINE
  5
F106E0
330
F106E1
100
AcDbEntity
8
Geo
100
AcDbLine
10
-8.00441681924767
20
1.79615078211447
30
0.000000000000000
11
-8.00441681924767
21
1.87490847114768
31
0.000000000000000
  0
LINE
  5
F106E2
330
F106E3
100
AcDbEntity
8
Geo
100
AcDbLine
10
-8.00441681924767
20
1.87490847114768
30
0.000000000000000
11
-8.00441681924767
21
1.91394777578953
31
0.000000000000000
  0
LINE
  5
F106E4
330
F106E5
100
AcDbEntity
8
Geo
100
AcDbLine
10
-8.00441681924767
20
1.91394777578953
30
0.000000000000000
11
-8.00441681924767
21
1.96681221663242
31
0.000000000000000
  0
LINE
  5
F106E6
330
F106E7
100
AcDbEntity
8
Geo
100
AcDbLine
10
-8.00441681924767
20
1.96681221663242
30
0.000000000000000
11
-8.10441681924754
21
2.65235275521550
31
0.000000000000000
  0
LINE
  5
F106E8
330
F106E9
100
AcDbEntity
8
Geo
100
AcDbLine
10
-8.10441681924754
20
2.65235275521550
30
0.000000000000000
11
-8.20441681924754
21
3.29977770204317
31
0.000000000000000
  0
LINE
  5
F106EA
330
F106EB
100
AcDbEntity
8
Geo
100
AcDbLine
10
-8.20441681924754
20
3.29977770204317
30
0.000000000000000
11
-8.30441681924754
21
3.90204760126103
31
0.000000000000000
  0
LINE
  5
F106EC
330
F106ED
100
AcDbEntity
8
Geo
100
AcDbLine
10
-8.30441681924754
20
3.90204760126103
30
0.000000000000000
11
-8.40441681924754
21
4.45591654495395
31
0.000000000000000
  0
LINE
  5
F106EE
330
F106EF
100
AcDbEntity
8
Geo
100
AcDbLine
10
-8.40441681924754
20
4.45591654495395
30
0.000000000000000
11
-8.50441681924755
21
4.96084267870704
31
0.000000000000000
  0
LINE
  5
F106F0
330
F106F1
100
AcDbEntity
8
Geo
100
AcDbLine
10
-8.50441681924755
20
4.96084267870704
30
0.000000000000000
11
-8.60441681924755
21
5.41812724262717
31
0.000000000000000
  0
LINE
  5
F106F2
330
F106F3
100
AcDbEntity
8
Geo
100
AcDbLine
10
-8.60441681924755
20
5.41812724262717
30
0.000000000000000
11
-8.70441681924755
21
5.83025631452601
31
0.000000000000000
  0
LINE
  5
F106F4
330
F106F5
100
AcDbEntity
8
Geo
100
AcDbLine
10
-8.70441681924755
20
5.83025631452601
30
0.000000000000000
11
-8.80441681924755
21
6.20041244747692
31
0.000000000000000
  0
LINE
  5
F106F6
330
F106F7
100
AcDbEntity
8
Geo
100
AcDbLine
10
-8.80441681924755
20
6.20041244747692
30
0.000000000000000
11
-8.90441681924755
21
6.53212300004959
31
0.000000000000000
  0
LINE
  5
F106F8
330
F106F9
100
AcDbEntity
8
Geo
100
AcDbLine
10
-8.90441681924755
20
6.53212300004959
30
0.000000000000000
11
-9.00441681924755
21
6.82901496772362
31
0.000000000000000
  0
LINE
  5
F106FA
330
F106FB
100
AcDbEntity
8
Geo
100
AcDbLine
10
-9.00441681924755
20
6.82901496772362
30
0.000000000000000
11
-9.10441681924755
21
7.09465056628201
31
0.000000000000000
  0
LINE
  5
F106FC
330
F106FD
100
AcDbEntity
8
Geo
100
AcDbLine
10
-9.10441681924755
20
7.09465056628201
30
0.000000000000000
11
-9.20441681924756
21
7.33242254894255
31
0.000000000000000
  0
LINE
  5
F106FE
330
F106FF
100
AcDbEntity
8
Geo
100
AcDbLine
10
-9.20441681924756
20
7.33242254894255
30
0.000000000000000
11
-9.30441681924756
21
7.54549265477952
31
0.000000000000000
  0
LINE
  5
F10700
330
F10701
100
AcDbEntity
8
Geo
100
AcDbLine
10
-9.30441681924756
20
7.54549265477952
30
0.000000000000000
11
-9.40441681924756
21
7.73676041595121
31
0.000000000000000
  0
LINE
  5
F10702
330
F10703
100
AcDbEntity
8
Geo
100
AcDbLine
10
-9.40441681924756
20
7.73676041595121
30
0.000000000000000
11
-9.50441681924756
21
7.90885271827740
31
0.000000000000000
  0
LINE
  5
F10704
330
F10705
100
AcDbEntity
8
Geo
100
AcDbLine
10
-9.50441681924756
20
7.90885271827740
30
0.000000000000000
11
-9.60441681924756
21
8.06412704037224
31
0.000000000000000
  0
LINE
  5
F10706
330
F10707
100
AcDbEntity
8
Geo
100
AcDbLine
10
-9.60441681924756
20
8.06412704037224
30
0.000000000000000
11
-9.70441681924756
21
8.20468326588201
31
0.000000000000000
  0
LINE
  5
F10708
330
F10709
100
AcDbEntity
8
Geo
100
AcDbLine
10
-9.70441681924756
20
8.20468326588201
30
0.000000000000000
11
-9.80441681924756
21
8.33238046285484
31
0.000000000000000
  0
LINE
  5
F1070A
330
F1070B
100
AcDbEntity
8
Geo
100
AcDbLine
10
-9.80441681924756
20
8.33238046285484
30
0.000000000000000
11
-9.90441681924757
21
8.44885614438599
31
0.000000000000000
  0
LINE
  5
F1070C
330
F1070D
100
AcDbEntity
8
Geo
100
AcDbLine
10
-9.90441681924757
20
8.44885614438599
30
0.000000000000000
11
-10.0044168192476
21
8.55554634663511
31
0.000000000000000
  0
LINE
  5
F1070E
330
F1070F
100
AcDbEntity
8
Geo
100
AcDbLine
10
-10.0044168192476
20
8.55554634663511
30
0.000000000000000
11
-10.1044168192476
21
8.65370545286444
31
0.000000000000000
  0
LINE
  5
F10710
330
F10711
100
AcDbEntity
8
Geo
100
AcDbLine
10
-10.1044168192476
20
8.65370545286444
30
0.000000000000000
11
-10.2044168192476
21
8.74442511133215
31
0.000000000000000
  0
LINE
  5
F10712
330
F10713
100
AcDbEntity
8
Geo
100
AcDbLine
10
-10.2044168192476
20
8.74442511133215
30
0.000000000000000
11
-10.3044168192476
21
8.82865188511454
31
0.000000000000000
  0
LINE
  5
F10714
330
F10715
100
AcDbEntity
8
Geo
100
AcDbLine
10
-10.3044168192476
20
8.82865188511454
30
0.000000000000000
11
-10.4044168192476
21
8.90720346770050
31
0.000000000000000
  0
LINE
  5
F10716
330
F10717
100
AcDbEntity
8
Geo
100
AcDbLine
10
-10.4044168192476
20
8.90720346770050
30
0.000000000000000
11
-10.5044168192476
21
8.98078342580942
31
0.000000000000000
  0
LINE
  5
F10718
330
F10719
100
AcDbEntity
8
Geo
100
AcDbLine
10
-10.5044168192476
20
8.98078342580942
30
0.000000000000000
11
-10.6044168192476
21
9.04999451011613
31
0.000000000000000
  0
LINE
  5
F1071A
330
F1071B
100
AcDbEntity
8
Geo
100
AcDbLine
10
-10.6044168192476
20
9.04999451011613
30
0.000000000000000
11
-10.7044168192476
21
9.11535062011434
31
0.000000000000000
  0
LINE
  5
F1071C
330
F1071D
100
AcDbEntity
8
Geo
100
AcDbLine
10
-10.7044168192476
20
9.11535062011434
30
0.000000000000000
11
-10.8044168192476
21
9.17728753198589
31
0.000000000000000
  0
LINE
  5
F1071E
330
F1071F
100
AcDbEntity
8
Geo
100
AcDbLine
10
-10.8044168192476
20
9.17728753198589
30
0.000000000000000
11
-10.9044168192476
21
9.23617250587052
31
0.000000000000000
  0
LINE
  5
F10720
330
F10721
100
AcDbEntity
8
Geo
100
AcDbLine
10
-10.9044168192476
20
9.23617250587052
30
0.000000000000000
11
-11.0044168192476
21
9.29231288692407
31
0.000000000000000
  0
LINE
  5
F10722
330
F10723
100
AcDbEntity
8
Geo
100
AcDbLine
10
-11.0044168192476
20
9.29231288692407
30
0.000000000000000
11
-11.1044168192476
21
9.34596380693589
31
0.000000000000000
  0
LINE
  5
F10724
330
F10725
100
AcDbEntity
8
Geo
100
AcDbLine
10
-11.1044168192476
20
9.34596380693589
30
0.000000000000000
11
-11.2044168192476
21
9.39733508275327
31
0.000000000000000
  0
LINE
  5
F10726
330
F10727
100
AcDbEntity
8
Geo
100
AcDbLine
10
-11.2044168192476
20
9.39733508275327
30
0.000000000000000
11
-11.3044168192476
21
9.44659739615770
31
0.000000000000000
  0
LINE
  5
F10728
330
F10729
100
AcDbEntity
8
Geo
100
AcDbLine
10
-11.3044168192476
20
9.44659739615770
30
0.000000000000000
11
-11.4044168192476
21
9.49388782833493
31
0.000000000000000
  0
LINE
  5
F1072A
330
F1072B
100
AcDbEntity
8
Geo
100
AcDbLine
10
-11.4044168192476
20
9.49388782833493
30
0.000000000000000
11
-11.5044168192476
21
9.53931481141072
31
0.000000000000000
  0
LINE
  5
F1072C
330
F1072D
100
AcDbEntity
8
Geo
100
AcDbLine
10
-11.5044168192476
20
9.53931481141072
30
0.000000000000000
11
-11.6044168192476
21
9.58296255009290
31
0.000000000000000
  0
LINE
  5
F1072E
330
F1072F
100
AcDbEntity
8
Geo
100
AcDbLine
10
-11.6044168192476
20
9.58296255009290
30
0.000000000000000
11
-11.7044168192476
21
9.62489495845672
31
0.000000000000000
  0
LINE
  5
F10730
330
F10731
100
AcDbEntity
8
Geo
100
AcDbLine
10
-11.7044168192476
20
9.62489495845672
30
0.000000000000000
11
-11.8044168192476
21
9.66515915036991
31
0.000000000000000
  0
LINE
  5
F10732
330
F10733
100
AcDbEntity
8
Geo
100
AcDbLine
10
-11.8044168192476
20
9.66515915036991
30
0.000000000000000
11
-11.9044168192476
21
9.70378851691598
31
0.000000000000000
  0
LINE
  5
F10734
330
F10735
100
AcDbEntity
8
Geo
100
AcDbLine
10
-11.9044168192476
20
9.70378851691598
30
0.000000000000000
11
-12.0044168192476
21
9.74080542031490
31
0.000000000000000
  0
LINE
  5
F10736
330
F10737
100
AcDbEntity
8
Geo
100
AcDbLine
10
-12.0044168192476
20
9.74080542031490
30
0.000000000000000
11
-12.1044168192476
21
9.77622353110413
31
0.000000000000000
  0
LINE
  5
F10738
330
F10739
100
AcDbEntity
8
Geo
100
AcDbLine
10
-12.1044168192476
20
9.77622353110413
30
0.000000000000000
11
-12.2044168192476
21
9.81004983355556
31
0.000000000000000
  0
LINE
  5
F1073A
330
F1073B
100
AcDbEntity
8
Geo
100
AcDbLine
10
-12.2044168192476
20
9.81004983355556
30
0.000000000000000
11
-12.3044168192476
21
9.84228632329271
31
0.000000000000000
  0
LINE
  5
F1073C
330
F1073D
100
AcDbEntity
8
Geo
100
AcDbLine
10
-12.3044168192476
20
9.84228632329271
30
0.000000000000000
11
-12.4044168192476
21
9.87293142066922
31
0.000000000000000
  0
LINE
  5
F1073E
330
F1073F
100
AcDbEntity
8
Geo
100
AcDbLine
10
-12.4044168192476
20
9.87293142066922
30
0.000000000000000
11
-12.5044168192476
21
9.90198112352159
31
0.000000000000000
  0
LINE
  5
F10740
330
F10741
100
AcDbEntity
8
Geo
100
AcDbLine
10
-12.5044168192476
20
9.90198112352159
30
0.000000000000000
11
-12.6044168192476
21
9.92942992328111
31
0.000000000000000
  0
LINE
  5
F10742
330
F10743
100
AcDbEntity
8
Geo
100
AcDbLine
10
-12.6044168192476
20
9.92942992328111
30
0.000000000000000
11
-12.7044168192476
21
9.95527150900639
31
0.000000000000000
  0
LINE
  5
F10744
330
F10745
100
AcDbEntity
8
Geo
100
AcDbLine
10
-12.7044168192476
20
9.95527150900639
30
0.000000000000000
11
-12.8044168192476
21
9.97949928458477
31
0.000000000000000
  0
LINE
  5
F10746
330
F10747
100
AcDbEntity
8
Geo
100
AcDbLine
10
-12.8044168192476
20
9.97949928458477
30
0.000000000000000
11
-12.9044168192476
21
10.0021067250748
31
0.000000000000000
  0
LINE
  5
F10748
330
F10749
100
AcDbEntity
8
Geo
100
AcDbLine
10
-12.9044168192476
20
10.0021067250748
30
0.000000000000000
11
-13.1044168192476
21
10.0424360830674
31
0.000000000000000
  0
LINE
  5
F1074A
330
F1074B
100
AcDbEntity
8
Geo
100
AcDbLine
10
-36.0044168192477
20
0.744873370500073
30
0.000000000000000
11
-35.9044168192477
21
0.627190616903729
31
0.000000000000000
  0
LINE
  5
F1074C
330
F1074D
100
AcDbEntity
8
Geo
100
AcDbLine
10
-35.9044168192477
20
0.627190616903729
30
0.000000000000000
11
-35.9044168192477
21
0.627190616903729
31
0.000000000000000
  0
LINE
  5
F1074E
330
F1074F
100
AcDbEntity
8
Geo
100
AcDbLine
10
-35.9044168192477
20
0.627190616903729
30
0.000000000000000
11
-35.8044168192477
21
0.528324833219790
31
0.000000000000000
  0
LINE
  5
F10750
330
F10751
100
AcDbEntity
8
Geo
100
AcDbLine
10
-35.8044168192477
20
0.528324833219790
30
0.000000000000000
11
-35.7044168192477
21
0.450622477677896
31
0.000000000000000
  0
LINE
  5
F10752
330
F10753
100
AcDbEntity
8
Geo
100
AcDbLine
10
-35.7044168192477
20
0.450622477677896
30
0.000000000000000
11
-35.6044168192477
21
0.373946689156003
31
0.000000000000000
  0
LINE
  5
F10754
330
F10755
100
AcDbEntity
8
Geo
100
AcDbLine
10
-35.6044168192477
20
0.373946689156003
30
0.000000000000000
11
-35.5044168192477
21
0.298318765991235
31
0.000000000000000
  0
LINE
  5
F10756
330
F10757
100
AcDbEntity
8
Geo
100
AcDbLine
10
-35.5044168192477
20
0.298318765991235
30
0.000000000000000
11
-35.4044168192477
21
0.223759715453739
31
0.000000000000000
  0
LINE
  5
F10758
330
F10759
100
AcDbEntity
8
Geo
100
AcDbLine
10
-35.4044168192477
20
0.223759715453739
30
0.000000000000000
11
-35.3044168192477
21
0.150290247911474
31
0.000000000000000
  0
LINE
  5
F1075A
330
F1075B
100
AcDbEntity
8
Geo
100
AcDbLine
10
-35.3044168192477
20
0.150290247911474
30
0.000000000000000
11
-35.2044168192477
21
0.0779307710774599
31
0.000000000000000
  0
LINE
  5
F1075C
330
F1075D
100
AcDbEntity
8
Geo
100
AcDbLine
10
-35.2044168192477
20
0.0779307710774599
30
0.000000000000000
11
-35.1044168192477
21
0.00670138434110523
31
0.000000000000000
  0
LINE
  5
F1075E
330
F1075F
100
AcDbEntity
8
Geo
100
AcDbLine
10
-35.1044168192477
20
0.00670138434110523
30
0.000000000000000
11
-35.0044168192477
21
-0.0633781268148388
31
0.000000000000000
  0
LINE
  5
F10760
330
F10761
100
AcDbEntity
8
Geo
100
AcDbLine
10
-35.0044168192477
20
-0.0633781268148388
30
0.000000000000000
11
-34.9044168192477
21
-0.132288296310101
31
0.000000000000000
  0
LINE
  5
F10762
330
F10763
100
AcDbEntity
8
Geo
100
AcDbLine
10
-34.9044168192477
20
-0.132288296310101
30
0.000000000000000
11
-34.8044168192477
21
-0.200009982874025
31
0.000000000000000
  0
LINE
  5
F10764
330
F10765
100
AcDbEntity
8
Geo
100
AcDbLine
10
-34.8044168192477
20
-0.200009982874025
30
0.000000000000000
11
-34.7044168192477
21
-0.266524375362459
31
0.000000000000000
  0
LINE
  5
F10766
330
F10767
100
AcDbEntity
8
Geo
100
AcDbLine
10
-34.7044168192477
20
-0.266524375362459
30
0.000000000000000
11
-34.6044168192477
21
-0.331812997982952
31
0.000000000000000
  0
LINE
  5
F10768
330
F10769
100
AcDbEntity
8
Geo
100
AcDbLine
10
-34.6044168192477
20
-0.331812997982952
30
0.000000000000000
11
-34.5044168192477
21
-0.395857715426806
31
0.000000000000000
  0
LINE
  5
F1076A
330
F1076B
100
AcDbEntity
8
Geo
100
AcDbLine
10
-34.5044168192477
20
-0.395857715426806
30
0.000000000000000
11
-34.4044168192477
21
-0.458640737906535
31
0.000000000000000
  0
LINE
  5
F1076C
330
F1076D
100
AcDbEntity
8
Geo
100
AcDbLine
10
-34.4044168192477
20
-0.458640737906535
30
0.000000000000000
11
-34.3044168192477
21
-0.520144626097368
31
0.000000000000000
  0
LINE
  5
F1076E
330
F1076F
100
AcDbEntity
8
Geo
100
AcDbLine
10
-34.3044168192477
20
-0.520144626097368
30
0.000000000000000
11
-34.2044168192477
21
-0.580352295981386
31
0.000000000000000
  0
LINE
  5
F10770
330
F10771
100
AcDbEntity
8
Geo
100
AcDbLine
10
-34.2044168192477
20
-0.580352295981386
30
0.000000000000000
11
-34.1044168192477
21
-0.639247023592979
31
0.000000000000000
  0
LINE
  5
F10772
330
F10773
100
AcDbEntity
8
Geo
100
AcDbLine
10
-34.1044168192477
20
-0.639247023592979
30
0.000000000000000
11
-34.0044168192477
21
-0.696812449664279
31
0.000000000000000
  0
LINE
  5
F10774
330
F10775
100
AcDbEntity
8
Geo
100
AcDbLine
10
-34.0044168192477
20
-0.696812449664279
30
0.000000000000000
11
-33.9044168192477
21
-0.753032584169300
31
0.000000000000000
  0
LINE
  5
F10776
330
F10777
100
AcDbEntity
8
Geo
100
AcDbLine
10
-33.9044168192477
20
-0.753032584169300
30
0.000000000000000
11
-33.8044168192477
21
-0.807891810765507
31
0.000000000000000
  0
LINE
  5
F10778
330
F10779
100
AcDbEntity
8
Geo
100
AcDbLine
10
-33.8044168192477
20
-0.807891810765507
30
0.000000000000000
11
-33.7044168192477
21
-0.861374891131588
31
0.000000000000000
  0
LINE
  5
F1077A
330
F1077B
100
AcDbEntity
8
Geo
100
AcDbLine
10
-33.7044168192477
20
-0.861374891131588
30
0.000000000000000
11
-33.6044168192477
21
-0.913466969200230
31
0.000000000000000
  0
LINE
  5
F1077C
330
F1077D
100
AcDbEntity
8
Geo
100
AcDbLine
10
-33.6044168192477
20
-0.913466969200230
30
0.000000000000000
11
-33.5044168192477
21
-0.964153575284694
31
0.000000000000000
  0
LINE
  5
F1077E
330
F1077F
100
AcDbEntity
8
Geo
100
AcDbLine
10
-33.5044168192477
20
-0.964153575284694
30
0.000000000000000
11
-33.4044168192477
21
-1.01342063009810
31
0.000000000000000
  0
LINE
  5
F10780
330
F10781
100
AcDbEntity
8
Geo
100
AcDbLine
10
-33.4044168192477
20
-1.01342063009810
30
0.000000000000000
11
-33.3044168192477
21
-1.06125444866422
31
0.000000000000000
  0
LINE
  5
F10782
330
F10783
100
AcDbEntity
8
Geo
100
AcDbLine
10
-33.3044168192477
20
-1.06125444866422
30
0.000000000000000
11
-33.2044168192477
21
-1.10764174411880
31
0.000000000000000
  0
LINE
  5
F10784
330
F10785
100
AcDbEntity
8
Geo
100
AcDbLine
10
-33.2044168192477
20
-1.10764174411880
30
0.000000000000000
11
-33.1044168192477
21
-1.15256963140027
31
0.000000000000000
  0
LINE
  5
F10786
330
F10787
100
AcDbEntity
8
Geo
100
AcDbLine
10
-33.1044168192477
20
-1.15256963140027
30
0.000000000000000
11
-33.0044168192477
21
-1.19602563082882
31
0.000000000000000
  0
LINE
  5
F10788
330
F10789
100
AcDbEntity
8
Geo
100
AcDbLine
10
-33.0044168192477
20
-1.19602563082882
30
0.000000000000000
11
-32.9044168192477
21
-1.23799767157293
31
0.000000000000000
  0
LINE
  5
F1078A
330
F1078B
100
AcDbEntity
8
Geo
100
AcDbLine
10
-32.9044168192477
20
-1.23799767157293
30
0.000000000000000
11
-32.8044168192477
21
-1.27847409500226
31
0.000000000000000
  0
LINE
  5
F1078C
330
F1078D
100
AcDbEntity
8
Geo
100
AcDbLine
10
-32.8044168192477
20
-1.27847409500226
30
0.000000000000000
11
-32.7044168192477
21
-1.31744365792612
31
0.000000000000000
  0
LINE
  5
F1078E
330
F1078F
100
AcDbEntity
8
Geo
100
AcDbLine
10
-32.7044168192477
20
-1.31744365792612
30
0.000000000000000
11
-32.6044168192477
21
-1.35489553571650
31
0.000000000000000
  0
LINE
  5
F10790
330
F10791
100
AcDbEntity
8
Geo
100
AcDbLine
10
-32.6044168192477
20
-1.35489553571650
30
0.000000000000000
11
-32.5044168192477
21
-1.39081932531483
31
0.000000000000000
  0
LINE
  5
F10792
330
F10793
100
AcDbEntity
8
Geo
100
AcDbLine
10
-32.5044168192477
20
-1.39081932531483
30
0.000000000000000
11
-32.4044168192477
21
-1.42520504812165
31
0.000000000000000
  0
LINE
  5
F10794
330
F10795
100
AcDbEntity
8
Geo
100
AcDbLine
10
-32.4044168192477
20
-1.42520504812165
30
0.000000000000000
11
-32.3044168192477
21
-1.45804315276840
31
0.000000000000000
  0
LINE
  5
F10796
330
F10797
100
AcDbEntity
8
Geo
100
AcDbLine
10
-32.3044168192477
20
-1.45804315276840
30
0.000000000000000
11
-32.2044168192477
21
-1.48932451777047
31
0.000000000000000
  0
LINE
  5
F10798
330
F10799
100
AcDbEntity
8
Geo
100
AcDbLine
10
-32.2044168192477
20
-1.48932451777047
30
0.000000000000000
11
-32.1044168192477
21
-1.51904045406097
31
0.000000000000000
  0
LINE
  5
F1079A
330
F1079B
100
AcDbEntity
8
Geo
100
AcDbLine
10
-32.1044168192477
20
-1.51904045406097
30
0.000000000000000
11
-32.0044168192477
21
-1.54718270740421
31
0.000000000000000
  0
LINE
  5
F1079C
330
F1079D
100
AcDbEntity
8
Geo
100
AcDbLine
10
-32.0044168192477
20
-1.54718270740421
30
0.000000000000000
11
-31.9044168192477
21
-1.57374346068856
31
0.000000000000000
  0
LINE
  5
F1079E
330
F1079F
100
AcDbEntity
8
Geo
100
AcDbLine
10
-31.9044168192477
20
-1.57374346068856
30
0.000000000000000
11
-31.8044168192477
21
-1.59871533609777
31
0.000000000000000
  0
LINE
  5
F107A0
330
F107A1
100
AcDbEntity
8
Geo
100
AcDbLine
10
-31.8044168192477
20
-1.59871533609777
30
0.000000000000000
11
-31.7044168192477
21
-1.62209139716035
31
0.000000000000000
  0
LINE
  5
F107A2
330
F107A3
100
AcDbEntity
8
Geo
100
AcDbLine
10
-31.7044168192477
20
-1.62209139716035
30
0.000000000000000
11
-31.6044168192477
21
-1.64386515067632
31
0.000000000000000
  0
LINE
  5
F107A4
330
F107A5
100
AcDbEntity
8
Geo
100
AcDbLine
10
-31.6044168192477
20
-1.64386515067632
30
0.000000000000000
11
-31.5044168192477
21
-1.66403054852082
31
0.000000000000000
  0
LINE
  5
F107A6
330
F107A7
100
AcDbEntity
8
Geo
100
AcDbLine
10
-31.5044168192477
20
-1.66403054852082
30
0.000000000000000
11
-31.4044168192477
21
-1.68258198932411
31
0.000000000000000
  0
LINE
  5
F107A8
330
F107A9
100
AcDbEntity
8
Geo
100
AcDbLine
10
-31.4044168192477
20
-1.68258198932411
30
0.000000000000000
11
-31.3044168192477
21
-1.69951432002747
31
0.000000000000000
  0
LINE
  5
F107AA
330
F107AB
100
AcDbEntity
8
Geo
100
AcDbLine
10
-31.3044168192477
20
-1.69951432002747
30
0.000000000000000
11
-31.2044168192477
21
-1.71482283731459
31
0.000000000000000
  0
LINE
  5
F107AC
330
F107AD
100
AcDbEntity
8
Geo
100
AcDbLine
10
-31.2044168192477
20
-1.71482283731459
30
0.000000000000000
11
-31.1044168192477
21
-1.72850328891797
31
0.000000000000000
  0
LINE
  5
F107AE
330
F107AF
100
AcDbEntity
8
Geo
100
AcDbLine
10
-31.1044168192477
20
-1.72850328891797
30
0.000000000000000
11
-31.0044168192477
21
-1.74055187480015
31
0.000000000000000
  0
LINE
  5
F107B0
330
F107B1
100
AcDbEntity
8
Geo
100
AcDbLine
10
-31.0044168192477
20
-1.74055187480015
30
0.000000000000000
11
-30.9044168192477
21
-1.75096524820918
31
0.000000000000000
  0
LINE
  5
F107B2
330
F107B3
100
AcDbEntity
8
Geo
100
AcDbLine
10
-30.9044168192477
20
-1.75096524820918
30
0.000000000000000
11
-30.8044168192477
21
-1.75974051660830
31
0.000000000000000
  0
LINE
  5
F107B4
330
F107B5
100
AcDbEntity
8
Geo
100
AcDbLine
10
-30.8044168192477
20
-1.75974051660830
30
0.000000000000000
11
-30.7044168192477
21
-1.76687524247938
31
0.000000000000000
  0
LINE
  5
F107B6
330
F107B7
100
AcDbEntity
8
Geo
100
AcDbLine
10
-30.7044168192477
20
-1.76687524247938
30
0.000000000000000
11
-30.6044168192477
21
-1.77236744399999
31
0.000000000000000
  0
LINE
  5
F107B8
330
F107B9
100
AcDbEntity
8
Geo
100
AcDbLine
10
-30.6044168192477
20
-1.77236744399999
30
0.000000000000000
11
-30.5044168192477
21
-1.77621559559391
31
0.000000000000000
  0
LINE
  5
F107BA
330
F107BB
100
AcDbEntity
8
Geo
100
AcDbLine
10
-30.5044168192477
20
-1.77621559559391
30
0.000000000000000
11
-30.4044168192477
21
-1.77841862835490
31
0.000000000000000
  0
LINE
  5
F107BC
330
F107BD
100
AcDbEntity
8
Geo
100
AcDbLine
10
-30.4044168192477
20
-1.77841862835490
30
0.000000000000000
11
-30.3205572664163
21
-1.85365070187274
31
0.000000000000000
  0
LINE
  5
F107BE
330
F107BF
100
AcDbEntity
8
Geo
100
AcDbLine
10
-24.0373718835960
20
10.1463492981273
30
0.000000000000000
11
-24.0044168192477
21
10.0716065899990
31
0.000000000000000
  0
LINE
  5
F107C0
330
F107C1
100
AcDbEntity
8
Geo
100
AcDbLine
10
-24.0044168192477
20
10.0716065899990
30
0.000000000000000
11
-23.9044168192477
21
10.0702412730563
31
0.000000000000000
  0
LINE
  5
F107C2
330
F107C3
100
AcDbEntity
8
Geo
100
AcDbLine
10
-23.9044168192477
20
10.0702412730563
30
0.000000000000000
11
-23.8044168192477
21
10.0672304686556
31
0.000000000000000
  0
LINE
  5
F107C4
330
F107C5
100
AcDbEntity
8
Geo
100
AcDbLine
10
-23.8044168192477
20
10.0672304686556
30
0.000000000000000
11
-23.7044168192477
21
10.0625750131119
31
0.000000000000000
  0
LINE
  5
F107C6
330
F107C7
100
AcDbEntity
8
Geo
100
AcDbLine
10
-23.7044168192477
20
10.0625750131119
30
0.000000000000000
11
-23.6044168192477
21
10.0562761995776
31
0.000000000000000
  0
LINE
  5
F107C8
330
F107C9
100
AcDbEntity
8
Geo
100
AcDbLine
10
-23.6044168192477
20
10.0562761995776
30
0.000000000000000
11
-23.5044168192477
21
10.0483357776825
31
0.000000000000000
  0
LINE
  5
F107CA
330
F107CB
100
AcDbEntity
8
Geo
100
AcDbLine
10
-23.5044168192477
20
10.0483357776825
30
0.000000000000000
11
-23.4044168192477
21
10.0387559530482
31
0.000000000000000
  0
LINE
  5
F107CC
330
F107CD
100
AcDbEntity
8
Geo
100
AcDbLine
10
-23.4044168192477
20
10.0387559530482
30
0.000000000000000
11
-23.3044168192477
21
10.0275393866757
31
0.000000000000000
  0
LINE
  5
F107CE
330
F107CF
100
AcDbEntity
8
Geo
100
AcDbLine
10
-23.3044168192477
20
10.0275393866757
30
0.000000000000000
11
-23.2044168192477
21
10.0146891942056
31
0.000000000000000
  0
LINE
  5
F107D0
330
F107D1
100
AcDbEntity
8
Geo
100
AcDbLine
10
-23.2044168192477
20
10.0146891942056
30
0.000000000000000
11
-23.1044168192477
21
10.0002089450533
31
0.000000000000000
  0
LINE
  5
F107D2
330
F107D3
100
AcDbEntity
8
Geo
100
AcDbLine
10
-23.1044168192477
20
10.0002089450533
30
0.000000000000000
11
-23.0044168192477
21
9.98410266141702
31
0.000000000000000
  0
LINE
  5
F107D4
330
F107D5
100
AcDbEntity
8
Geo
100
AcDbLine
10
-23.0044168192477
20
9.98410266141702
30
0.000000000000000
11
-22.9044168192477
21
9.96637481716093
31
0.000000000000000
  0
LINE
  5
F107D6
330
F107D7
100
AcDbEntity
8
Geo
100
AcDbLine
10
-22.9044168192477
20
9.96637481716093
30
0.000000000000000
11
-22.8044168192477
21
9.94703033657220
31
0.000000000000000
  0
LINE
  5
F107D8
330
F107D9
100
AcDbEntity
8
Geo
100
AcDbLine
10
-22.8044168192477
20
9.94703033657220
30
0.000000000000000
11
-22.7044168192477
21
9.92607459299329
31
0.000000000000000
  0
LINE
  5
F107DA
330
F107DB
100
AcDbEntity
8
Geo
100
AcDbLine
10
-22.7044168192477
20
9.92607459299329
30
0.000000000000000
11
-22.6044168192477
21
9.90351340732934
31
0.000000000000000
  0
LINE
  5
F107DC
330
F107DD
100
AcDbEntity
8
Geo
100
AcDbLine
10
-22.6044168192477
20
9.90351340732934
30
0.000000000000000
11
-22.5044168192477
21
9.87935304643129
31
0.000000000000000
  0
LINE
  5
F107DE
330
F107DF
100
AcDbEntity
8
Geo
100
AcDbLine
10
-22.5044168192477
20
9.87935304643129
30
0.000000000000000
11
-22.4044168192477
21
9.85360022135515
31
0.000000000000000
  0
LINE
  5
F107E0
330
F107E1
100
AcDbEntity
8
Geo
100
AcDbLine
10
-22.4044168192477
20
9.85360022135515
30
0.000000000000000
11
-22.3044168192477
21
9.82626208549786
31
0.000000000000000
  0
LINE
  5
F107E2
330
F107E3
100
AcDbEntity
8
Geo
100
AcDbLine
10
-22.3044168192477
20
9.82626208549786
30
0.000000000000000
11
-22.2044168192477
21
9.79734623261025
31
0.000000000000000
  0
LINE
  5
F107E4
330
F107E5
100
AcDbEntity
8
Geo
100
AcDbLine
10
-22.2044168192477
20
9.79734623261025
30
0.000000000000000
11
-22.1044168192477
21
9.76686069468776
31
0.000000000000000
  0
LINE
  5
F107E6
330
F107E7
100
AcDbEntity
8
Geo
100
AcDbLine
10
-22.1044168192477
20
9.76686069468776
30
0.000000000000000
11
-22.0044168192477
21
9.73481393973935
31
0.000000000000000
  0
LINE
  5
F107E8
330
F107E9
100
AcDbEntity
8
Geo
100
AcDbLine
10
-22.0044168192477
20
9.73481393973935
30
0.000000000000000
11
-21.9044168192477
21
9.70121486943532
31
0.000000000000000
  0
LINE
  5
F107EA
330
F107EB
100
AcDbEntity
8
Geo
100
AcDbLine
10
-21.9044168192477
20
9.70121486943532
30
0.000000000000000
11
-21.8044168192477
21
9.66607281663473
31
0.000000000000000
  0
LINE
  5
F107EC
330
F107ED
100
AcDbEntity
8
Geo
100
AcDbLine
10
-21.8044168192477
20
9.66607281663473
30
0.000000000000000
11
-21.7044168192477
21
9.62939754279293
31
0.000000000000000
  0
LINE
  5
F107EE
330
F107EF
100
AcDbEntity
8
Geo
100
AcDbLine
10
-21.7044168192477
20
9.62939754279293
30
0.000000000000000
11
-21.6044168192477
21
9.59119923525019
31
0.000000000000000
  0
LINE
  5
F107F0
330
F107F1
100
AcDbEntity
8
Geo
100
AcDbLine
10
-21.6044168192477
20
9.59119923525019
30
0.000000000000000
11
-21.5044168192477
21
9.55148850440186
31
0.000000000000000
  0
LINE
  5
F107F2
330
F107F3
100
AcDbEntity
8
Geo
100
AcDbLine
10
-21.5044168192477
20
9.55148850440186
30
0.000000000000000
11
-21.4044168192477
21
9.51027638075118
31
0.000000000000000
  0
LINE
  5
F107F4
330
F107F5
100
AcDbEntity
8
Geo
100
AcDbLine
10
-21.4044168192477
20
9.51027638075118
30
0.000000000000000
11
-21.3044168192477
21
9.46757431184528
31
0.000000000000000
  0
LINE
  5
F107F6
330
F107F7
100
AcDbEntity
8
Geo
100
AcDbLine
10
-21.3044168192477
20
9.46757431184528
30
0.000000000000000
11
-21.2044168192477
21
9.42339415909539
31
0.000000000000000
  0
LINE
  5
F107F8
330
F107F9
100
AcDbEntity
8
Geo
100
AcDbLine
10
-21.2044168192477
20
9.42339415909539
30
0.000000000000000
11
-21.1044168192477
21
9.37774819448209
31
0.000000000000000
  0
LINE
  5
F107FA
330
F107FB
100
AcDbEntity
8
Geo
100
AcDbLine
10
-21.1044168192477
20
9.37774819448209
30
0.000000000000000
11
-21.0044168192477
21
9.33064909714648
31
0.000000000000000
  0
LINE
  5
F107FC
330
F107FD
100
AcDbEntity
8
Geo
100
AcDbLine
10
-21.0044168192477
20
9.33064909714648
30
0.000000000000000
11
-20.9044168192477
21
9.28210994986833
31
0.000000000000000
  0
LINE
  5
F107FE
330
F107FF
100
AcDbEntity
8
Geo
100
AcDbLine
10
-20.9044168192477
20
9.28210994986833
30
0.000000000000000
11
-20.8044168192477
21
9.23214423543198
31
0.000000000000000
  0
LINE
  5
F10800
330
F10801
100
AcDbEntity
8
Geo
100
AcDbLine
10
-20.8044168192477
20
9.23214423543198
30
0.000000000000000
11
-20.7044168192477
21
9.18076583288129
31
0.000000000000000
  0
LINE
  5
F10802
330
F10803
100
AcDbEntity
8
Geo
100
AcDbLine
10
-20.7044168192477
20
9.18076583288129
30
0.000000000000000
11
-20.6044168192477
21
9.12798901366437
31
0.000000000000000
  0
LINE
  5
F10804
330
F10805
100
AcDbEntity
8
Geo
100
AcDbLine
10
-20.6044168192477
20
9.12798901366437
30
0.000000000000000
11
-20.5044168192477
21
9.07382843766942
31
0.000000000000000
  0
LINE
  5
F10806
330
F10807
100
AcDbEntity
8
Geo
100
AcDbLine
10
-20.5044168192477
20
9.07382843766942
30
0.000000000000000
11
-20.4044168192477
21
9.01829914915265
31
0.000000000000000
  0
LINE
  5
F10808
330
F10809
100
AcDbEntity
8
Geo
100
AcDbLine
10
-20.4044168192477
20
9.01829914915265
30
0.000000000000000
11
-20.3044168192477
21
8.96141657255937
31
0.000000000000000
  0
LINE
  5
F1080A
330
F1080B
100
AcDbEntity
8
Geo
100
AcDbLine
10
-20.3044168192477
20
8.96141657255937
30
0.000000000000000
11
-20.2044168192477
21
8.90319650823954
31
0.000000000000000
  0
LINE
  5
F1080C
330
F1080D
100
AcDbEntity
8
Geo
100
AcDbLine
10
-20.2044168192477
20
8.90319650823954
30
0.000000000000000
11
-20.1044168192477
21
8.84365512805889
31
0.000000000000000
  0
LINE
  5
F1080E
330
F1080F
100
AcDbEntity
8
Geo
100
AcDbLine
10
-20.1044168192477
20
8.84365512805889
30
0.000000000000000
11
-20.0044168192477
21
8.78280897090685
31
0.000000000000000
  0
LINE
  5
F10810
330
F10811
100
AcDbEntity
8
Geo
100
AcDbLine
10
-20.0044168192477
20
8.78280897090685
30
0.000000000000000
11
-19.9044168192477
21
8.72067493810250
31
0.000000000000000
  0
LINE
  5
F10812
330
F10813
100
AcDbEntity
8
Geo
100
AcDbLine
10
-19.9044168192477
20
8.72067493810250
30
0.000000000000000
11
-19.8044168192477
21
8.65727028869988
31
0.000000000000000
  0
LINE
  5
F10814
330
F10815
100
AcDbEntity
8
Geo
100
AcDbLine
10
-19.8044168192477
20
8.65727028869988
30
0.000000000000000
11
-19.7044168192477
21
8.59261263469391
31
0.000000000000000
  0
LINE
  5
F10816
330
F10817
100
AcDbEntity
8
Geo
100
AcDbLine
10
-19.7044168192477
20
8.59261263469391
30
0.000000000000000
11
-19.6044168192477
21
8.52671993612827
31
0.000000000000000
  0
LINE
  5
F10818
330
F10819
100
AcDbEntity
8
Geo
100
AcDbLine
10
-19.6044168192477
20
8.52671993612827
30
0.000000000000000
11
-19.5044168192477
21
8.45961049610668
31
0.000000000000000
  0
LINE
  5
F1081A
330
F1081B
100
AcDbEntity
8
Geo
100
AcDbLine
10
-19.5044168192477
20
8.45961049610668
30
0.000000000000000
11
-19.4044168192477
21
8.39130295570872
31
0.000000000000000
  0
LINE
  5
F1081C
330
F1081D
100
AcDbEntity
8
Geo
100
AcDbLine
10
-19.4044168192477
20
8.39130295570872
30
0.000000000000000
11
-19.3044168192477
21
8.32181628881197
31
0.000000000000000
  0
LINE
  5
F1081E
330
F1081F
100
AcDbEntity
8
Geo
100
AcDbLine
10
-19.3044168192477
20
8.32181628881197
30
0.000000000000000
11
-19.2044168192477
21
8.25116979682153
31
0.000000000000000
  0
LINE
  5
F10820
330
F10821
100
AcDbEntity
8
Geo
100
AcDbLine
10
-19.2044168192477
20
8.25116979682153
30
0.000000000000000
11
-19.1044168192477
21
8.17938310330871
31
0.000000000000000
  0
LINE
  5
F10822
330
F10823
100
AcDbEntity
8
Geo
100
AcDbLine
10
-19.1044168192477
20
8.17938310330871
30
0.000000000000000
11
-19.0044168192477
21
8.10647614856012
31
0.000000000000000
  0
LINE
  5
F10824
330
F10825
100
AcDbEntity
8
Geo
100
AcDbLine
10
-19.0044168192477
20
8.10647614856012
30
0.000000000000000
11
-18.9044168192477
21
8.03246918403884
31
0.000000000000000
  0
LINE
  5
F10826
330
F10827
100
AcDbEntity
8
Geo
100
AcDbLine
10
-18.9044168192477
20
8.03246918403884
30
0.000000000000000
11
-18.8044168192477
21
7.95738276675915
31
0.000000000000000
  0
LINE
  5
F10828
330
F10829
100
AcDbEntity
8
Geo
100
AcDbLine
10
-18.8044168192477
20
7.95738276675915
30
0.000000000000000
11
-18.7044168192477
21
7.88123775357638
31
0.000000000000000
  0
LINE
  5
F1082A
330
F1082B
100
AcDbEntity
8
Geo
100
AcDbLine
10
-18.7044168192477
20
7.88123775357638
30
0.000000000000000
11
-18.6044168192477
21
7.80405529539348
31
0.000000000000000
  0
LINE
  5
F1082C
330
F1082D
100
AcDbEntity
8
Geo
100
AcDbLine
10
-18.6044168192477
20
7.80405529539348
30
0.000000000000000
11
-18.5044168192477
21
7.72585683128587
31
0.000000000000000
  0
LINE
  5
F1082E
330
F1082F
100
AcDbEntity
8
Geo
100
AcDbLine
10
-18.5044168192477
20
7.72585683128587
30
0.000000000000000
11
-18.4044168192477
21
7.64666408254634
31
0.000000000000000
  0
LINE
  5
F10830
330
F10831
100
AcDbEntity
8
Geo
100
AcDbLine
10
-18.4044168192477
20
7.64666408254634
30
0.000000000000000
11
-18.3044168192477
21
7.56649904665142
31
0.000000000000000
  0
LINE
  5
F10832
330
F10833
100
AcDbEntity
8
Geo
100
AcDbLine
10
-18.3044168192477
20
7.56649904665142
30
0.000000000000000
11
-18.2044168192477
21
7.48538399115119
31
0.000000000000000
  0
LINE
  5
F10834
330
F10835
100
AcDbEntity
8
Geo
100
AcDbLine
10
-18.2044168192477
20
7.48538399115119
30
0.000000000000000
11
-18.1044168192477
21
7.40334144748394
31
0.000000000000000
  0
LINE
  5
F10836
330
F10837
100
AcDbEntity
8
Geo
100
AcDbLine
10
-18.1044168192477
20
7.40334144748394
30
0.000000000000000
11
-18.0044168192477
21
7.32039420471760
31
0.000000000000000
  0
LINE
  5
F10838
330
F10839
100
AcDbEntity
8
Geo
100
AcDbLine
10
-18.0044168192477
20
7.32039420471760
30
0.000000000000000
11
-17.9044168192477
21
7.23656530321959
31
0.000000000000000
  0
LINE
  5
F1083A
330
F1083B
100
AcDbEntity
8
Geo
100
AcDbLine
10
-17.9044168192477
20
7.23656530321959
30
0.000000000000000
11
-17.8044168192477
21
7.15187802825687
31
0.000000000000000
  0
LINE
  5
F1083C
330
F1083D
100
AcDbEntity
8
Geo
100
AcDbLine
10
-17.8044168192477
20
7.15187802825687
30
0.000000000000000
11
-17.7044168192477
21
7.06635590352793
31
0.000000000000000
  0
LINE
  5
F1083E
330
F1083F
100
AcDbEntity
8
Geo
100
AcDbLine
10
-17.7044168192477
20
7.06635590352793
30
0.000000000000000
11
-17.6044168192477
21
6.98002268462865
31
0.000000000000000
  0
LINE
  5
F10840
330
F10841
100
AcDbEntity
8
Geo
100
AcDbLine
10
-17.6044168192477
20
6.98002268462865
30
0.000000000000000
11
-17.5044168192477
21
6.89290235245358
31
0.000000000000000
  0
LINE
  5
F10842
330
F10843
100
AcDbEntity
8
Geo
100
AcDbLine
10
-17.5044168192477
20
6.89290235245358
30
0.000000000000000
11
-17.4044168192477
21
6.80501910653481
31
0.000000000000000
  0
LINE
  5
F10844
330
F10845
100
AcDbEntity
8
Geo
100
AcDbLine
10
-17.4044168192477
20
6.80501910653481
30
0.000000000000000
11
-17.3044168192477
21
6.71639735832002
31
0.000000000000000
  0
LINE
  5
F10846
330
F10847
100
AcDbEntity
8
Geo
100
AcDbLine
10
-17.3044168192477
20
6.71639735832002
30
0.000000000000000
11
-17.2044168192477
21
6.62706172439165
31
0.000000000000000
  0
LINE
  5
F10848
330
F10849
100
AcDbEntity
8
Geo
100
AcDbLine
10
-17.2044168192477
20
6.62706172439165
30
0.000000000000000
11
-17.1044168192477
21
6.53703701962914
31
0.000000000000000
  0
LINE
  5
F1084A
330
F1084B
100
AcDbEntity
8
Geo
100
AcDbLine
10
-17.1044168192477
20
6.53703701962914
30
0.000000000000000
11
-17.0044168192477
21
6.44634825031607
31
0.000000000000000
  0
LINE
  5
F1084C
330
F1084D
100
AcDbEntity
8
Geo
100
AcDbLine
10
-17.0044168192477
20
6.44634825031607
30
0.000000000000000
11
-16.9044168192477
21
6.35502060719412
31
0.000000000000000
  0
LINE
  5
F1084E
330
F1084F
100
AcDbEntity
8
Geo
100
AcDbLine
10
-16.9044168192477
20
6.35502060719412
30
0.000000000000000
11
-16.8044168192477
21
6.26307945846581
31
0.000000000000000
  0
LINE
  5
F10850
330
F10851
100
AcDbEntity
8
Geo
100
AcDbLine
10
-16.8044168192477
20
6.26307945846581
30
0.000000000000000
11
-16.7044168192477
21
6.17055034274795
31
0.000000000000000
  0
LINE
  5
F10852
330
F10853
100
AcDbEntity
8
Geo
100
AcDbLine
10
-16.7044168192477
20
6.17055034274795
30
0.000000000000000
11
-16.6044168192477
21
6.07745896197771
31
0.000000000000000
  0
LINE
  5
F10854
330
F10855
100
AcDbEntity
8
Geo
100
AcDbLine
10
-16.6044168192477
20
6.07745896197771
30
0.000000000000000
11
-16.5044168192477
21
5.98383117427340
31
0.000000000000000
  0
LINE
  5
F10856
330
F10857
100
AcDbEntity
8
Geo
100
AcDbLine
10
-16.5044168192477
20
5.98383117427340
30
0.000000000000000
11
-16.4044168192477
21
5.88969298675180
31
0.000000000000000
  0
LINE
  5
F10858
330
F10859
100
AcDbEntity
8
Geo
100
AcDbLine
10
-16.4044168192477
20
5.88969298675180
30
0.000000000000000
11
-16.3044168192477
21
5.79507054830414
31
0.000000000000000
  0
LINE
  5
F1085A
330
F1085B
100
AcDbEntity
8
Geo
100
AcDbLine
10
-16.3044168192477
20
5.79507054830414
30
0.000000000000000
11
-16.2044168192477
21
5.69999014233268
31
0.000000000000000
  0
LINE
  5
F1085C
330
F1085D
100
AcDbEntity
8
Geo
100
AcDbLine
10
-16.2044168192477
20
5.69999014233268
30
0.000000000000000
11
-16.1044168192477
21
5.60447817944993
31
0.000000000000000
  0
LINE
  5
F1085E
330
F1085F
100
AcDbEntity
8
Geo
100
AcDbLine
10
-16.1044168192477
20
5.60447817944993
30
0.000000000000000
11
-16.0044168192477
21
5.50856119014255
31
0.000000000000000
  0
LINE
  5
F10860
330
F10861
100
AcDbEntity
8
Geo
100
AcDbLine
10
-16.0044168192477
20
5.50856119014255
30
0.000000000000000
11
-15.9044168192477
21
5.41226581740195
31
0.000000000000000
  0
LINE
  5
F10862
330
F10863
100
AcDbEntity
8
Geo
100
AcDbLine
10
-15.9044168192477
20
5.41226581740195
30
0.000000000000000
11
-15.8044168192476
21
5.31561880932359
31
0.000000000000000
  0
LINE
  5
F10864
330
F10865
100
AcDbEntity
8
Geo
100
AcDbLine
10
-15.8044168192476
20
5.31561880932359
30
0.000000000000000
11
-15.7044168192476
21
5.21864701167717
31
0.000000000000000
  0
LINE
  5
F10866
330
F10867
100
AcDbEntity
8
Geo
100
AcDbLine
10
-15.7044168192476
20
5.21864701167717
30
0.000000000000000
11
-15.6044168192476
21
5.12137736044962
31
0.000000000000000
  0
LINE
  5
F10868
330
F10869
100
AcDbEntity
8
Geo
100
AcDbLine
10
-15.6044168192476
20
5.12137736044962
30
0.000000000000000
11
-15.5044168192476
21
5.02383687436306
31
0.000000000000000
  0
LINE
  5
F1086A
330
F1086B
100
AcDbEntity
8
Geo
100
AcDbLine
10
-15.5044168192476
20
5.02383687436306
30
0.000000000000000
11
-15.4044168192476
21
4.92605264736977
31
0.000000000000000
  0
LINE
  5
F1086C
330
F1086D
100
AcDbEntity
8
Geo
100
AcDbLine
10
-15.4044168192476
20
4.92605264736977
30
0.000000000000000
11
-15.3044168192476
21
4.82805184112628
31
0.000000000000000
  0
LINE
  5
F1086E
330
F1086F
100
AcDbEntity
8
Geo
100
AcDbLine
10
-15.3044168192476
20
4.82805184112628
30
0.000000000000000
11
-15.2044168192476
21
4.72986167744862
31
0.000000000000000
  0
LINE
  5
F10870
330
F10871
100
AcDbEntity
8
Geo
100
AcDbLine
10
-15.2044168192476
20
4.72986167744862
30
0.000000000000000
11
-15.1044168192476
21
4.63150943075091
31
0.000000000000000
  0
LINE
  5
F10872
330
F10873
100
AcDbEntity
8
Geo
100
AcDbLine
10
-15.1044168192476
20
4.63150943075091
30
0.000000000000000
11
-15.0044168192476
21
4.53302242046926
31
0.000000000000000
  0
LINE
  5
F10874
330
F10875
100
AcDbEntity
8
Geo
100
AcDbLine
10
-15.0044168192476
20
4.53302242046926
30
0.000000000000000
11
-14.9044168192476
21
4.43442800347326
31
0.000000000000000
  0
LINE
  5
F10876
330
F10877
100
AcDbEntity
8
Geo
100
AcDbLine
10
-14.9044168192476
20
4.43442800347326
30
0.000000000000000
11
-14.8044168192476
21
4.33575356646701
31
0.000000000000000
  0
LINE
  5
F10878
330
F10879
100
AcDbEntity
8
Geo
100
AcDbLine
10
-14.8044168192476
20
4.33575356646701
30
0.000000000000000
11
-14.7044168192476
21
4.23702651838186
31
0.000000000000000
  0
LINE
  5
F1087A
330
F1087B
100
AcDbEntity
8
Geo
100
AcDbLine
10
-14.7044168192476
20
4.23702651838186
30
0.000000000000000
11
-14.6044168192476
21
4.13827428276303
31
0.000000000000000
  0
LINE
  5
F1087C
330
F1087D
100
AcDbEntity
8
Geo
100
AcDbLine
10
-14.6044168192476
20
4.13827428276303
30
0.000000000000000
11
-14.5044168192476
21
4.03952429015209
31
0.000000000000000
  0
LINE
  5
F1087E
330
F1087F
100
AcDbEntity
8
Geo
100
AcDbLine
10
-14.5044168192476
20
4.03952429015209
30
0.000000000000000
11
-14.4044168192476
21
3.94080397046760
31
0.000000000000000
  0
LINE
  5
F10880
330
F10881
100
AcDbEntity
8
Geo
100
AcDbLine
10
-14.4044168192476
20
3.94080397046760
30
0.000000000000000
11
-14.3044168192476
21
3.84214074538581
31
0.000000000000000
  0
LINE
  5
F10882
330
F10883
100
AcDbEntity
8
Geo
100
AcDbLine
10
-14.3044168192476
20
3.84214074538581
30
0.000000000000000
11
-14.2044168192476
21
3.74356202072373
31
0.000000000000000
  0
LINE
  5
F10884
330
F10885
100
AcDbEntity
8
Geo
100
AcDbLine
10
-14.2044168192476
20
3.74356202072373
30
0.000000000000000
11
-14.1044168192476
21
3.64509517882656
31
0.000000000000000
  0
LINE
  5
F10886
330
F10887
100
AcDbEntity
8
Geo
100
AcDbLine
10
-14.1044168192476
20
3.64509517882656
30
0.000000000000000
11
-14.0044168192476
21
3.54676757096170
31
0.000000000000000
  0
LINE
  5
F10888
330
F10889
100
AcDbEntity
8
Geo
100
AcDbLine
10
-14.0044168192476
20
3.54676757096170
30
0.000000000000000
11
-13.9044168192476
21
3.44860650972131
31
0.000000000000000
  0
LINE
  5
F1088A
330
F1088B
100
AcDbEntity
8
Geo
100
AcDbLine
10
-13.9044168192476
20
3.44860650972131
30
0.000000000000000
11
-13.8044168192476
21
3.35063926143567
31
0.000000000000000
  0
LINE
  5
F1088C
330
F1088D
100
AcDbEntity
8
Geo
100
AcDbLine
10
-13.8044168192476
20
3.35063926143567
30
0.000000000000000
11
-13.7044168192476
21
3.25289303859938
31
0.000000000000000
  0
LINE
  5
F1088E
330
F1088F
100
AcDbEntity
8
Geo
100
AcDbLine
10
-13.7044168192476
20
3.25289303859938
30
0.000000000000000
11
-13.6044168192476
21
3.15539499231249
31
0.000000000000000
  0
LINE
  5
F10890
330
F10891
100
AcDbEntity
8
Geo
100
AcDbLine
10
-13.6044168192476
20
3.15539499231249
30
0.000000000000000
11
-13.5044168192476
21
3.05817220473873
31
0.000000000000000
  0
LINE
  5
F10892
330
F10893
100
AcDbEntity
8
Geo
100
AcDbLine
10
-13.5044168192476
20
3.05817220473873
30
0.000000000000000
11
-13.4044168192476
21
2.96125168158285
31
0.000000000000000
  0
LINE
  5
F10894
330
F10895
100
AcDbEntity
8
Geo
100
AcDbLine
10
-13.4044168192476
20
2.96125168158285
30
0.000000000000000
11
-13.3044168192476
21
2.86466034458918
31
0.000000000000000
  0
LINE
  5
F10896
330
F10897
100
AcDbEntity
8
Geo
100
AcDbLine
10
-13.3044168192476
20
2.86466034458918
30
0.000000000000000
11
-13.2044168192476
21
2.76842502406359
31
0.000000000000000
  0
LINE
  5
F10898
330
F10899
100
AcDbEntity
8
Geo
100
AcDbLine
10
-13.2044168192476
20
2.76842502406359
30
0.000000000000000
11
-13.1044168192476
21
2.67257245142077
31
0.000000000000000
  0
LINE
  5
F1089A
330
F1089B
100
AcDbEntity
8
Geo
100
AcDbLine
10
-36.0044168192477
20
9.88999320691572
30
0.000000000000000
11
-35.9044168192477
21
9.98068392474952
31
0.000000000000000
  0
LINE
  5
F1089C
330
F1089D
100
AcDbEntity
8
Geo
100
AcDbLine
10
-35.9044168192477
20
9.98068392474952
30
0.000000000000000
11
-35.9044168192477
21
9.98068392474952
31
0.000000000000000
  0
LINE
  5
F1089E
330
F1089F
100
AcDbEntity
8
Geo
100
AcDbLine
10
-35.9044168192477
20
9.98068392474952
30
0.000000000000000
11
-35.8044168192477
21
10.0191927363641
31
0.000000000000000
  0
LINE
  5
F108A0
330
F108A1
100
AcDbEntity
8
Geo
100
AcDbLine
10
-35.8044168192477
20
10.0191927363641
30
0.000000000000000
11
-35.7044168192477
21
10.0052602388678
31
0.000000000000000
  0
LINE
  5
F108A2
330
F108A3
100
AcDbEntity
8
Geo
100
AcDbLine
10
-35.7044168192477
20
10.0052602388678
30
0.000000000000000
11
-35.6044168192477
21
9.98970030378276
31
0.000000000000000
  0
LINE
  5
F108A4
330
F108A5
100
AcDbEntity
8
Geo
100
AcDbLine
10
-35.6044168192477
20
9.98970030378276
30
0.000000000000000
11
-35.5044168192477
21
9.97251725321326
31
0.000000000000000
  0
LINE
  5
F108A6
330
F108A7
100
AcDbEntity
8
Geo
100
AcDbLine
10
-35.5044168192477
20
9.97251725321326
30
0.000000000000000
11
-35.4044168192477
21
9.95371586011840
31
0.000000000000000
  0
LINE
  5
F108A8
330
F108A9
100
AcDbEntity
8
Geo
100
AcDbLine
10
-35.4044168192477
20
9.95371586011840
30
0.000000000000000
11
-35.3044168192477
21
9.93330134698646
31
0.000000000000000
  0
LINE
  5
F108AA
330
F108AB
100
AcDbEntity
8
Geo
100
AcDbLine
10
-35.3044168192477
20
9.93330134698646
30
0.000000000000000
11
-35.2044168192477
21
9.91127938438429
31
0.000000000000000
  0
LINE
  5
F108AC
330
F108AD
100
AcDbEntity
8
Geo
100
AcDbLine
10
-35.2044168192477
20
9.91127938438429
30
0.000000000000000
11
-35.1044168192477
21
9.88765608938210
31
0.000000000000000
  0
LINE
  5
F108AE
330
F108AF
100
AcDbEntity
8
Geo
100
AcDbLine
10
-35.1044168192477
20
9.88765608938210
30
0.000000000000000
11
-35.0044168192477
21
9.86243802385439
31
0.000000000000000
  0
LINE
  5
F108B0
330
F108B1
100
AcDbEntity
8
Geo
100
AcDbLine
10
-35.0044168192477
20
9.86243802385439
30
0.000000000000000
11
-34.9044168192477
21
9.83563219265722
31
0.000000000000000
  0
LINE
  5
F108B2
330
F108B3
100
AcDbEntity
8
Geo
100
AcDbLine
10
-34.9044168192477
20
9.83563219265722
30
0.000000000000000
11
-34.8044168192477
21
9.80724604168244
31
0.000000000000000
  0
LINE
  5
F108B4
330
F108B5
100
AcDbEntity
8
Geo
100
AcDbLine
10
-34.8044168192477
20
9.80724604168244
30
0.000000000000000
11
-34.7044168192477
21
9.77728745578947
31
0.000000000000000
  0
LINE
  5
F108B6
330
F108B7
100
AcDbEntity
8
Geo
100
AcDbLine
10
-34.7044168192477
20
9.77728745578947
30
0.000000000000000
11
-34.6044168192477
21
9.74576475661508
31
0.000000000000000
  0
LINE
  5
F108B8
330
F108B9
100
AcDbEntity
8
Geo
100
AcDbLine
10
-34.6044168192477
20
9.74576475661508
30
0.000000000000000
11
-34.5044168192477
21
9.71268670026192
31
0.000000000000000
  0
LINE
  5
F108BA
330
F108BB
100
AcDbEntity
8
Geo
100
AcDbLine
10
-34.5044168192477
20
9.71268670026192
30
0.000000000000000
11
-34.4044168192477
21
9.67806247486629
31
0.000000000000000
  0
LINE
  5
F108BC
330
F108BD
100
AcDbEntity
8
Geo
100
AcDbLine
10
-34.4044168192477
20
9.67806247486629
30
0.000000000000000
11
-34.3044168192477
21
9.64190169804592
31
0.000000000000000
  0
LINE
  5
F108BE
330
F108BF
100
AcDbEntity
8
Geo
100
AcDbLine
10
-34.3044168192477
20
9.64190169804592
30
0.000000000000000
11
-34.2044168192477
21
9.60421441422855
31
0.000000000000000
  0
LINE
  5
F108C0
330
F108C1
100
AcDbEntity
8
Geo
100
AcDbLine
10
-34.2044168192477
20
9.60421441422855
30
0.000000000000000
11
-34.1044168192477
21
9.56501109186179
31
0.000000000000000
  0
LINE
  5
F108C2
330
F108C3
100
AcDbEntity
8
Geo
100
AcDbLine
10
-34.1044168192477
20
9.56501109186179
30
0.000000000000000
11
-34.0044168192477
21
9.52430262050533
31
0.000000000000000
  0
LINE
  5
F108C4
330
F108C5
100
AcDbEntity
8
Geo
100
AcDbLine
10
-34.0044168192477
20
9.52430262050533
30
0.000000000000000
11
-33.9044168192477
21
9.48210030780613
31
0.000000000000000
  0
LINE
  5
F108C6
330
F108C7
100
AcDbEntity
8
Geo
100
AcDbLine
10
-33.9044168192477
20
9.48210030780613
30
0.000000000000000
11
-33.8044168192477
21
9.43841587635747
31
0.000000000000000
  0
LINE
  5
F108C8
330
F108C9
100
AcDbEntity
8
Geo
100
AcDbLine
10
-33.8044168192477
20
9.43841587635747
30
0.000000000000000
11
-33.7044168192477
21
9.39326146044274
31
0.000000000000000
  0
LINE
  5
F108CA
330
F108CB
100
AcDbEntity
8
Geo
100
AcDbLine
10
-33.7044168192477
20
9.39326146044274
30
0.000000000000000
11
-33.6044168192477
21
9.34664960266493
31
0.000000000000000
  0
LINE
  5
F108CC
330
F108CD
100
AcDbEntity
8
Geo
100
AcDbLine
10
-33.6044168192477
20
9.34664960266493
30
0.000000000000000
11
-33.5044168192477
21
9.29859325046257
31
0.000000000000000
  0
LINE
  5
F108CE
330
F108CF
100
AcDbEntity
8
Geo
100
AcDbLine
10
-33.5044168192477
20
9.29859325046257
30
0.000000000000000
11
-33.4044168192477
21
9.24910575251340
31
0.000000000000000
  0
LINE
  5
F108D0
330
F108D1
100
AcDbEntity
8
Geo
100
AcDbLine
10
-33.4044168192477
20
9.24910575251340
30
0.000000000000000
11
-33.3044168192477
21
9.19820085502642
31
0.000000000000000
  0
LINE
  5
F108D2
330
F108D3
100
AcDbEntity
8
Geo
100
AcDbLine
10
-33.3044168192477
20
9.19820085502642
30
0.000000000000000
11
-33.2044168192477
21
9.14589269792361
31
0.000000000000000
  0
LINE
  5
F108D4
330
F108D5
100
AcDbEntity
8
Geo
100
AcDbLine
10
-33.2044168192477
20
9.14589269792361
30
0.000000000000000
11
-33.1044168192477
21
9.09219581091227
31
0.000000000000000
  0
LINE
  5
F108D6
330
F108D7
100
AcDbEntity
8
Geo
100
AcDbLine
10
-33.1044168192477
20
9.09219581091227
30
0.000000000000000
11
-33.0044168192477
21
9.03712510944909
31
0.000000000000000
  0
LINE
  5
F108D8
330
F108D9
100
AcDbEntity
8
Geo
100
AcDbLine
10
-33.0044168192477
20
9.03712510944909
30
0.000000000000000
11
-32.9044168192477
21
8.98069589059703
31
0.000000000000000
  0
LINE
  5
F108DA
330
F108DB
100
AcDbEntity
8
Geo
100
AcDbLine
10
-32.9044168192477
20
8.98069589059703
30
0.000000000000000
11
-32.8044168192477
21
8.92292382877626
31
0.000000000000000
  0
LINE
  5
F108DC
330
F108DD
100
AcDbEntity
8
Geo
100
AcDbLine
10
-32.8044168192477
20
8.92292382877626
30
0.000000000000000
11
-32.7044168192477
21
8.86382497141027
31
0.000000000000000
  0
LINE
  5
F108DE
330
F108DF
100
AcDbEntity
8
Geo
100
AcDbLine
10
-32.7044168192477
20
8.86382497141027
30
0.000000000000000
11
-32.6044168192477
21
8.80341573446831
31
0.000000000000000
  0
LINE
  5
F108E0
330
F108E1
100
AcDbEntity
8
Geo
100
AcDbLine
10
-32.6044168192477
20
8.80341573446831
30
0.000000000000000
11
-32.5044168192477
21
8.74171289790555
31
0.000000000000000
  0
LINE
  5
F108E2
330
F108E3
100
AcDbEntity
8
Geo
100
AcDbLine
10
-32.5044168192477
20
8.74171289790555
30
0.000000000000000
11
-32.4044168192477
21
8.67873360100207
31
0.000000000000000
  0
LINE
  5
F108E4
330
F108E5
100
AcDbEntity
8
Geo
100
AcDbLine
10
-32.4044168192477
20
8.67873360100207
30
0.000000000000000
11
-32.3044168192477
21
8.61449533760205
31
0.000000000000000
  0
LINE
  5
F108E6
330
F108E7
100
AcDbEntity
8
Geo
100
AcDbLine
10
-32.3044168192477
20
8.61449533760205
30
0.000000000000000
11
-32.2044168192477
21
8.54901595125449
31
0.000000000000000
  0
LINE
  5
F108E8
330
F108E9
100
AcDbEntity
8
Geo
100
AcDbLine
10
-32.2044168192477
20
8.54901595125449
30
0.000000000000000
11
-32.1044168192477
21
8.48231363025680
31
0.000000000000000
  0
LINE
  5
F108EA
330
F108EB
100
AcDbEntity
8
Geo
100
AcDbLine
10
-32.1044168192477
20
8.48231363025680
30
0.000000000000000
11
-32.0044168192477
21
8.41440690260258
31
0.000000000000000
  0
LINE
  5
F108EC
330
F108ED
100
AcDbEntity
8
Geo
100
AcDbLine
10
-32.0044168192477
20
8.41440690260258
30
0.000000000000000
11
-31.9044168192477
21
8.34531463083509
31
0.000000000000000
  0
LINE
  5
F108EE
330
F108EF
100
AcDbEntity
8
Geo
100
AcDbLine
10
-31.9044168192477
20
8.34531463083509
30
0.000000000000000
11
-31.8044168192477
21
8.27505600680778
31
0.000000000000000
  0
LINE
  5
F108F0
330
F108F1
100
AcDbEntity
8
Geo
100
AcDbLine
10
-31.8044168192477
20
8.27505600680778
30
0.000000000000000
11
-31.7044168192477
21
8.20365054635335
31
0.000000000000000
  0
LINE
  5
F108F2
330
F108F3
100
AcDbEntity
8
Geo
100
AcDbLine
10
-31.7044168192477
20
8.20365054635335
30
0.000000000000000
11
-31.6044168192477
21
8.13111808386279
31
0.000000000000000
  0
LINE
  5
F108F4
330
F108F5
100
AcDbEntity
8
Geo
100
AcDbLine
10
-31.6044168192477
20
8.13111808386279
30
0.000000000000000
11
-31.5044168192477
21
8.05747876677595
31
0.000000000000000
  0
LINE
  5
F108F6
330
F108F7
100
AcDbEntity
8
Geo
100
AcDbLine
10
-31.5044168192477
20
8.05747876677595
30
0.000000000000000
11
-31.4044168192477
21
7.98275304998521
31
0.000000000000000
  0
LINE
  5
F108F8
330
F108F9
100
AcDbEntity
8
Geo
100
AcDbLine
10
-31.4044168192477
20
7.98275304998521
30
0.000000000000000
11
-31.3044168192477
21
7.90696169015361
31
0.000000000000000
  0
LINE
  5
F108FA
330
F108FB
100
AcDbEntity
8
Geo
100
AcDbLine
10
-31.3044168192477
20
7.90696169015361
30
0.000000000000000
11
-31.2044168192477
21
7.83012573994935
31
0.000000000000000
  0
LINE
  5
F108FC
330
F108FD
100
AcDbEntity
8
Geo
100
AcDbLine
10
-31.2044168192477
20
7.83012573994935
30
0.000000000000000
11
-31.1044168192477
21
7.75226654219786
31
0.000000000000000
  0
LINE
  5
F108FE
330
F108FF
100
AcDbEntity
8
Geo
100
AcDbLine
10
-31.1044168192477
20
7.75226654219786
30
0.000000000000000
11
-31.0044168192477
21
7.67340572395345
31
0.000000000000000
  0
LINE
  5
F10900
330
F10901
100
AcDbEntity
8
Geo
100
AcDbLine
10
-31.0044168192477
20
7.67340572395345
30
0.000000000000000
11
-30.9044168192477
21
7.59356519049188
31
0.000000000000000
  0
LINE
  5
F10902
330
F10903
100
AcDbEntity
8
Geo
100
AcDbLine
10
-30.9044168192477
20
7.59356519049188
30
0.000000000000000
11
-30.8044168192477
21
7.51276711922574
31
0.000000000000000
  0
LINE
  5
F10904
330
F10905
100
AcDbEntity
8
Geo
100
AcDbLine
10
-30.8044168192477
20
7.51276711922574
30
0.000000000000000
11
-30.7044168192477
21
7.43103395354420
31
0.000000000000000
  0
LINE
  5
F10906
330
F10907
100
AcDbEntity
8
Geo
100
AcDbLine
10
-30.7044168192477
20
7.43103395354420
30
0.000000000000000
11
-30.6044168192477
21
7.34838839657883
31
0.000000000000000
  0
LINE
  5
F10908
330
F10909
100
AcDbEntity
8
Geo
100
AcDbLine
10
-30.6044168192477
20
7.34838839657883
30
0.000000000000000
11
-30.5044168192477
21
7.26485340489739
31
0.000000000000000
  0
LINE
  5
F1090A
330
F1090B
100
AcDbEntity
8
Geo
100
AcDbLine
10
-30.5044168192477
20
7.26485340489739
30
0.000000000000000
11
-30.4044168192477
21
7.18045218212710
31
0.000000000000000
  0
LINE
  5
F1090C
330
F1090D
100
AcDbEntity
8
Geo
100
AcDbLine
10
-30.4044168192477
20
7.18045218212710
30
0.000000000000000
11
-30.3044168192477
21
7.09520817250937
31
0.000000000000000
  0
LINE
  5
F1090E
330
F1090F
100
AcDbEntity
8
Geo
100
AcDbLine
10
-30.3044168192477
20
7.09520817250937
30
0.000000000000000
11
-30.2044168192477
21
7.00914505438765
31
0.000000000000000
  0
LINE
  5
F10910
330
F10911
100
AcDbEntity
8
Geo
100
AcDbLine
10
-30.2044168192477
20
7.00914505438765
30
0.000000000000000
11
-30.1044168192477
21
6.92228673363024
31
0.000000000000000
  0
LINE
  5
F10912
330
F10913
100
AcDbEntity
8
Geo
100
AcDbLine
10
-30.1044168192477
20
6.92228673363024
30
0.000000000000000
11
-30.0044168192477
21
6.83465733698998
31
0.000000000000000
  0
LINE
  5
F10914
330
F10915
100
AcDbEntity
8
Geo
100
AcDbLine
10
-30.0044168192477
20
6.83465733698998
30
0.000000000000000
11
-29.9044168192477
21
6.74628120540247
31
0.000000000000000
  0
LINE
  5
F10916
330
F10917
100
AcDbEntity
8
Geo
100
AcDbLine
10
-29.9044168192477
20
6.74628120540247
30
0.000000000000000
11
-29.8044168192477
21
6.65718288722490
31
0.000000000000000
  0
LINE
  5
F10918
330
F10919
100
AcDbEntity
8
Geo
100
AcDbLine
10
-29.8044168192477
20
6.65718288722490
30
0.000000000000000
11
-29.7044168192477
21
6.56738713141719
31
0.000000000000000
  0
LINE
  5
F1091A
330
F1091B
100
AcDbEntity
8
Geo
100
AcDbLine
10
-29.7044168192477
20
6.56738713141719
30
0.000000000000000
11
-29.6044168192477
21
6.47691888066746
31
0.000000000000000
  0
LINE
  5
F1091C
330
F1091D
100
AcDbEntity
8
Geo
100
AcDbLine
10
-29.6044168192477
20
6.47691888066746
30
0.000000000000000
11
-29.5044168192477
21
6.38580326446366
31
0.000000000000000
  0
LINE
  5
F1091E
330
F1091F
100
AcDbEntity
8
Geo
100
AcDbLine
10
-29.5044168192477
20
6.38580326446366
30
0.000000000000000
11
-29.4044168192477
21
6.29406559211330
31
0.000000000000000
  0
LINE
  5
F10920
330
F10921
100
AcDbEntity
8
Geo
100
AcDbLine
10
-29.4044168192477
20
6.29406559211330
30
0.000000000000000
11
-29.3044168192477
21
6.20173134571328
31
0.000000000000000
  0
LINE
  5
F10922
330
F10923
100
AcDbEntity
8
Geo
100
AcDbLine
10
-29.3044168192477
20
6.20173134571328
30
0.000000000000000
11
-29.2044168192477
21
6.10882617307167
31
0.000000000000000
  0
LINE
  5
F10924
330
F10925
100
AcDbEntity
8
Geo
100
AcDbLine
10
-29.2044168192477
20
6.10882617307167
30
0.000000000000000
11
-29.1044168192477
21
6.01537588058348
31
0.000000000000000
  0
LINE
  5
F10926
330
F10927
100
AcDbEntity
8
Geo
100
AcDbLine
10
-29.1044168192477
20
6.01537588058348
30
0.000000000000000
11
-29.0044168192477
21
5.92140642606241
31
0.000000000000000
  0
LINE
  5
F10928
330
F10929
100
AcDbEntity
8
Geo
100
AcDbLine
10
-29.0044168192477
20
5.92140642606241
30
0.000000000000000
11
-28.9044168192477
21
5.82694391153051
31
0.000000000000000
  0
LINE
  5
F1092A
330
F1092B
100
AcDbEntity
8
Geo
100
AcDbLine
10
-28.9044168192477
20
5.82694391153051
30
0.000000000000000
11
-28.8044168192477
21
5.73201457596774
31
0.000000000000000
  0
LINE
  5
F1092C
330
F1092D
100
AcDbEntity
8
Geo
100
AcDbLine
10
-28.8044168192477
20
5.73201457596774
30
0.000000000000000
11
-28.7044168192477
21
5.63664478802359
31
0.000000000000000
  0
LINE
  5
F1092E
330
F1092F
100
AcDbEntity
8
Geo
100
AcDbLine
10
-28.7044168192477
20
5.63664478802359
30
0.000000000000000
11
-28.6044168192477
21
5.54086103869260
31
0.000000000000000
  0
LINE
  5
F10930
330
F10931
100
AcDbEntity
8
Geo
100
AcDbLine
10
-28.6044168192477
20
5.54086103869260
30
0.000000000000000
11
-28.5044168192477
21
5.44468993395591
31
0.000000000000000
  0
LINE
  5
F10932
330
F10933
100
AcDbEntity
8
Geo
100
AcDbLine
10
-28.5044168192477
20
5.44468993395591
30
0.000000000000000
11
-28.4044168192477
21
5.34815818739091
31
0.000000000000000
  0
LINE
  5
F10934
330
F10935
100
AcDbEntity
8
Geo
100
AcDbLine
10
-28.4044168192477
20
5.34815818739091
30
0.000000000000000
11
-28.3044168192477
21
5.25129261275095
31
0.000000000000000
  0
LINE
  5
F10936
330
F10937
100
AcDbEntity
8
Geo
100
AcDbLine
10
-28.3044168192477
20
5.25129261275095
30
0.000000000000000
11
-28.2044168192477
21
5.15412011651724
31
0.000000000000000
  0
LINE
  5
F10938
330
F10939
100
AcDbEntity
8
Geo
100
AcDbLine
10
-28.2044168192477
20
5.15412011651724
30
0.000000000000000
11
-28.1044168192477
21
5.05666769042504
31
0.000000000000000
  0
LINE
  5
F1093A
330
F1093B
100
AcDbEntity
8
Geo
100
AcDbLine
10
-28.1044168192477
20
5.05666769042504
30
0.000000000000000
11
-28.0044168192477
21
4.95896240396609
31
0.000000000000000
  0
LINE
  5
F1093C
330
F1093D
100
AcDbEntity
8
Geo
100
AcDbLine
10
-28.0044168192477
20
4.95896240396609
30
0.000000000000000
11
-27.9044168192477
21
4.86103139686950
31
0.000000000000000
  0
LINE
  5
F1093E
330
F1093F
100
AcDbEntity
8
Geo
100
AcDbLine
10
-27.9044168192477
20
4.86103139686950
30
0.000000000000000
11
-27.8044168192477
21
4.76290187156309
31
0.000000000000000
  0
LINE
  5
F10940
330
F10941
100
AcDbEntity
8
Geo
100
AcDbLine
10
-27.8044168192477
20
4.76290187156309
30
0.000000000000000
11
-27.7044168192477
21
4.66460108561737
31
0.000000000000000
  0
LINE
  5
F10942
330
F10943
100
AcDbEntity
8
Geo
100
AcDbLine
10
-27.7044168192477
20
4.66460108561737
30
0.000000000000000
11
-27.6044168192477
21
4.56615634417414
31
0.000000000000000
  0
LINE
  5
F10944
330
F10945
100
AcDbEntity
8
Geo
100
AcDbLine
10
-27.6044168192477
20
4.56615634417414
30
0.000000000000000
11
-27.5044168192477
21
4.46759499236191
31
0.000000000000000
  0
LINE
  5
F10946
330
F10947
100
AcDbEntity
8
Geo
100
AcDbLine
10
-27.5044168192477
20
4.46759499236191
30
0.000000000000000
11
-27.4044168192477
21
4.36894440770023
31
0.000000000000000
  0
LINE
  5
F10948
330
F10949
100
AcDbEntity
8
Geo
100
AcDbLine
10
-27.4044168192477
20
4.36894440770023
30
0.000000000000000
11
-27.3044168192477
21
4.27023199249494
31
0.000000000000000
  0
LINE
  5
F1094A
330
F1094B
100
AcDbEntity
8
Geo
100
AcDbLine
10
-27.3044168192477
20
4.27023199249494
30
0.000000000000000
11
-27.2044168192477
21
4.17148516622668
31
0.000000000000000
  0
LINE
  5
F1094C
330
F1094D
100
AcDbEntity
8
Geo
100
AcDbLine
10
-27.2044168192477
20
4.17148516622668
30
0.000000000000000
11
-27.1044168192477
21
4.07273135793445
31
0.000000000000000
  0
LINE
  5
F1094E
330
F1094F
100
AcDbEntity
8
Geo
100
AcDbLine
10
-27.1044168192477
20
4.07273135793445
30
0.000000000000000
11
-27.0044168192477
21
3.97399799859669
31
0.000000000000000
  0
LINE
  5
F10950
330
F10951
100
AcDbEntity
8
Geo
100
AcDbLine
10
-27.0044168192477
20
3.97399799859669
30
0.000000000000000
11
-26.9044168192477
21
3.87531251351170
31
0.000000000000000
  0
LINE
  5
F10952
330
F10953
100
AcDbEntity
8
Geo
100
AcDbLine
10
-26.9044168192477
20
3.87531251351170
30
0.000000000000000
11
-26.8044168192477
21
3.77670231467967
31
0.000000000000000
  0
LINE
  5
F10954
330
F10955
100
AcDbEntity
8
Geo
100
AcDbLine
10
-26.8044168192477
20
3.77670231467967
30
0.000000000000000
11
-26.7044168192477
21
3.67819479318845
31
0.000000000000000
  0
LINE
  5
F10956
330
F10957
100
AcDbEntity
8
Geo
100
AcDbLine
10
-26.7044168192477
20
3.67819479318845
30
0.000000000000000
11
-26.6044168192477
21
3.57981731160503
31
0.000000000000000
  0
LINE
  5
F10958
330
F10959
100
AcDbEntity
8
Geo
100
AcDbLine
10
-26.6044168192477
20
3.57981731160503
30
0.000000000000000
11
-26.5044168192477
21
3.48159719637508
31
0.000000000000000
  0
LINE
  5
F1095A
330
F1095B
100
AcDbEntity
8
Geo
100
AcDbLine
10
-26.5044168192477
20
3.48159719637508
30
0.000000000000000
11
-26.4044168192477
21
3.38356173023239
31
0.000000000000000
  0
LINE
  5
F1095C
330
F1095D
100
AcDbEntity
8
Geo
100
AcDbLine
10
-26.4044168192477
20
3.38356173023239
30
0.000000000000000
11
-26.3044168192477
21
3.28573814462051
31
0.000000000000000
  0
LINE
  5
F1095E
330
F1095F
100
AcDbEntity
8
Geo
100
AcDbLine
10
-26.3044168192477
20
3.28573814462051
30
0.000000000000000
11
-26.2044168192477
21
3.18815361212868
31
0.000000000000000
  0
LINE
  5
F10960
330
F10961
100
AcDbEntity
8
Geo
100
AcDbLine
10
-26.2044168192477
20
3.18815361212868
30
0.000000000000000
11
-26.1044168192477
21
3.09083523894399
31
0.000000000000000
  0
LINE
  5
F10962
330
F10963
100
AcDbEntity
8
Geo
100
AcDbLine
10
-26.1044168192477
20
3.09083523894399
30
0.000000000000000
11
-26.0044168192477
21
2.99381005732214
31
0.000000000000000
  0
LINE
  5
F10964
330
F10965
100
AcDbEntity
8
Geo
100
AcDbLine
10
-26.0044168192477
20
2.99381005732214
30
0.000000000000000
11
-25.9044168192477
21
2.89710501807860
31
0.000000000000000
  0
LINE
  5
F10966
330
F10967
100
AcDbEntity
8
Geo
100
AcDbLine
10
-25.9044168192477
20
2.89710501807860
30
0.000000000000000
11
-25.8044168192477
21
2.80074698310245
31
0.000000000000000
  0
LINE
  5
F10968
330
F10969
100
AcDbEntity
8
Geo
100
AcDbLine
10
-25.8044168192477
20
2.80074698310245
30
0.000000000000000
11
-25.7044168192477
21
2.70476271789494
31
0.000000000000000
  0
LINE
  5
F1096A
330
F1096B
100
AcDbEntity
8
Geo
100
AcDbLine
10
-25.7044168192477
20
2.70476271789494
30
0.000000000000000
11
-25.6044168192477
21
2.60917888413480
31
0.000000000000000
  0
LINE
  5
F1096C
330
F1096D
100
AcDbEntity
8
Geo
100
AcDbLine
10
-25.6044168192477
20
2.60917888413480
30
0.000000000000000
11
-25.5044168192477
21
2.51402203227233
31
0.000000000000000
  0
LINE
  5
F1096E
330
F1096F
100
AcDbEntity
8
Geo
100
AcDbLine
10
-25.5044168192477
20
2.51402203227233
30
0.000000000000000
11
-25.4044168192477
21
2.41931859415455
31
0.000000000000000
  0
LINE
  5
F10970
330
F10971
100
AcDbEntity
8
Geo
100
AcDbLine
10
-25.4044168192477
20
2.41931859415455
30
0.000000000000000
11
-25.3044168192477
21
2.32509487568310
31
0.000000000000000
  0
LINE
  5
F10972
330
F10973
100
AcDbEntity
8
Geo
100
AcDbLine
10
-25.3044168192477
20
2.32509487568310
30
0.000000000000000
11
-25.2044168192477
21
2.23137704950725
31
0.000000000000000
  0
LINE
  5
F10974
330
F10975
100
AcDbEntity
8
Geo
100
AcDbLine
10
-25.2044168192477
20
2.23137704950725
30
0.000000000000000
11
-25.1044168192477
21
2.13819114775389
31
0.000000000000000
  0
LINE
  5
F10976
330
F10977
100
AcDbEntity
8
Geo
100
AcDbLine
10
-25.1044168192477
20
2.13819114775389
30
0.000000000000000
11
-25.0044168192477
21
2.04556305479655
31
0.000000000000000
  0
LINE
  5
F10978
330
F10979
100
AcDbEntity
8
Geo
100
AcDbLine
10
-25.0044168192477
20
2.04556305479655
30
0.000000000000000
11
-24.9044168192477
21
1.95351850006544
31
0.000000000000000
  0
LINE
  5
F1097A
330
F1097B
100
AcDbEntity
8
Geo
100
AcDbLine
10
-24.9044168192477
20
1.95351850006544
30
0.000000000000000
11
-24.8044168192477
21
1.86208305090061
31
0.000000000000000
  0
LINE
  5
F1097C
330
F1097D
100
AcDbEntity
8
Geo
100
AcDbLine
10
-24.8044168192477
20
1.86208305090061
30
0.000000000000000
11
-24.7044168192477
21
1.77128210544999
31
0.000000000000000
  0
LINE
  5
F1097E
330
F1097F
100
AcDbEntity
8
Geo
100
AcDbLine
10
-24.7044168192477
20
1.77128210544999
30
0.000000000000000
11
-24.6044168192477
21
1.68114088561459
31
0.000000000000000
  0
LINE
  5
F10980
330
F10981
100
AcDbEntity
8
Geo
100
AcDbLine
10
-24.6044168192477
20
1.68114088561459
30
0.000000000000000
11
-24.5044168192477
21
1.59168443004253
31
0.000000000000000
  0
LINE
  5
F10982
330
F10983
100
AcDbEntity
8
Geo
100
AcDbLine
10
-24.5044168192477
20
1.59168443004253
30
0.000000000000000
11
-24.4044168192477
21
1.50293758717405
31
0.000000000000000
  0
LINE
  5
F10984
330
F10985
100
AcDbEntity
8
Geo
100
AcDbLine
10
-24.4044168192477
20
1.50293758717405
30
0.000000000000000
11
-24.3044168192477
21
1.41492500833930
31
0.000000000000000
  0
LINE
  5
F10986
330
F10987
100
AcDbEntity
8
Geo
100
AcDbLine
10
-24.3044168192477
20
1.41492500833930
30
0.000000000000000
11
-24.2044168192477
21
1.32767114091092
31
0.000000000000000
  0
LINE
  5
F10988
330
F10989
100
AcDbEntity
8
Geo
100
AcDbLine
10
-24.2044168192477
20
1.32767114091092
30
0.000000000000000
11
-24.1044168192477
21
1.24120022151328
31
0.000000000000000
  0
LINE
  5
F1098A
330
F1098B
100
AcDbEntity
8
Geo
100
AcDbLine
10
-24.1044168192477
20
1.24120022151328
30
0.000000000000000
11
-24.0044168192477
21
1.15553626929020
31
0.000000000000000
  0
LINE
  5
F1098C
330
F1098D
100
AcDbEntity
8
Geo
100
AcDbLine
10
-24.0044168192477
20
1.15553626929020
30
0.000000000000000
11
-23.9044168192477
21
1.07070307923315
31
0.000000000000000
  0
LINE
  5
F1098E
330
F1098F
100
AcDbEntity
8
Geo
100
AcDbLine
10
-23.9044168192477
20
1.07070307923315
30
0.000000000000000
11
-23.8044168192477
21
0.986724215571658
31
0.000000000000000
  0
LINE
  5
F10990
330
F10991
100
AcDbEntity
8
Geo
100
AcDbLine
10
-23.8044168192477
20
0.986724215571658
30
0.000000000000000
11
-23.7044168192477
21
0.903623005227883
31
0.000000000000000
  0
LINE
  5
F10992
330
F10993
100
AcDbEntity
8
Geo
100
AcDbLine
10
-23.7044168192477
20
0.903623005227883
30
0.000000000000000
11
-23.6044168192477
21
0.821422531337019
31
0.000000000000000
  0
LINE
  5
F10994
330
F10995
100
AcDbEntity
8
Geo
100
AcDbLine
10
-23.6044168192477
20
0.821422531337019
30
0.000000000000000
11
-23.5044168192477
21
0.740145626835490
31
0.000000000000000
  0
LINE
  5
F10996
330
F10997
100
AcDbEntity
8
Geo
100
AcDbLine
10
-23.5044168192477
20
0.740145626835490
30
0.000000000000000
11
-23.4044168192477
21
0.659814868118606
31
0.000000000000000
  0
LINE
  5
F10998
330
F10999
100
AcDbEntity
8
Geo
100
AcDbLine
10
-23.4044168192477
20
0.659814868118606
30
0.000000000000000
11
-23.3044168192477
21
0.580452568769481
31
0.000000000000000
  0
LINE
  5
F1099A
330
F1099B
100
AcDbEntity
8
Geo
100
AcDbLine
10
-23.3044168192477
20
0.580452568769481
30
0.000000000000000
11
-23.2044168192477
21
0.502080773360972
31
0.000000000000000
  0
LINE
  5
F1099C
330
F1099D
100
AcDbEntity
8
Geo
100
AcDbLine
10
-23.2044168192477
20
0.502080773360972
30
0.000000000000000
11
-23.1044168192477
21
0.424721251332320
31
0.000000000000000
  0
LINE
  5
F1099E
330
F1099F
100
AcDbEntity
8
Geo
100
AcDbLine
10
-23.1044168192477
20
0.424721251332320
30
0.000000000000000
11
-23.0044168192477
21
0.348395490942220
31
0.000000000000000
  0
LINE
  5
F109A0
330
F109A1
100
AcDbEntity
8
Geo
100
AcDbLine
10
-23.0044168192477
20
0.348395490942220
30
0.000000000000000
11
-22.9044168192477
21
0.273124693300011
31
0.000000000000000
  0
LINE
  5
F109A2
330
F109A3
100
AcDbEntity
8
Geo
100
AcDbLine
10
-22.9044168192477
20
0.273124693300011
30
0.000000000000000
11
-22.8044168192477
21
0.198929766476601
31
0.000000000000000
  0
LINE
  5
F109A4
330
F109A5
100
AcDbEntity
8
Geo
100
AcDbLine
10
-22.8044168192477
20
0.198929766476601
30
0.000000000000000
11
-22.7044168192477
21
0.125831319696816
31
0.000000000000000
  0
LINE
  5
F109A6
330
F109A7
100
AcDbEntity
8
Geo
100
AcDbLine
10
-22.7044168192477
20
0.125831319696816
30
0.000000000000000
11
-22.6044168192477
21
0.0538496576147374
31
0.000000000000000
  0
LINE
  5
F109A8
330
F109A9
100
AcDbEntity
8
Geo
100
AcDbLine
10
-22.6044168192477
20
0.0538496576147374
30
0.000000000000000
11
-22.5044168192477
21
-0.0169952253263403
31
0.000000000000000
  0
LINE
  5
F109AA
330
F109AB
100
AcDbEntity
8
Geo
100
AcDbLine
10
-22.5044168192477
20
-0.0169952253263403
30
0.000000000000000
11
-22.4044168192477
21
-0.0866836504477986
31
0.000000000000000
  0
LINE
  5
F109AC
330
F109AD
100
AcDbEntity
8
Geo
100
AcDbLine
10
-22.4044168192477
20
-0.0866836504477986
30
0.000000000000000
11
-22.3044168192477
21
-0.155196260301866
31
0.000000000000000
  0
LINE
  5
F109AE
330
F109AF
100
AcDbEntity
8
Geo
100
AcDbLine
10
-22.3044168192477
20
-0.155196260301866
30
0.000000000000000
11
-22.2044168192477
21
-0.222514024048563
31
0.000000000000000
  0
LINE
  5
F109B0
330
F109B1
100
AcDbEntity
8
Geo
100
AcDbLine
10
-22.2044168192477
20
-0.222514024048563
30
0.000000000000000
11
-22.1044168192477
21
-0.288618242741920
31
0.000000000000000
  0
LINE
  5
F109B2
330
F109B3
100
AcDbEntity
8
Geo
100
AcDbLine
10
-22.1044168192477
20
-0.288618242741920
30
0.000000000000000
11
-22.0044168192477
21
-0.353490554524019
31
0.000000000000000
  0
LINE
  5
F109B4
330
F109B5
100
AcDbEntity
8
Geo
100
AcDbLine
10
-22.0044168192477
20
-0.353490554524019
30
0.000000000000000
11
-21.9044168192477
21
-0.417112939725378
31
0.000000000000000
  0
LINE
  5
F109B6
330
F109B7
100
AcDbEntity
8
Geo
100
AcDbLine
10
-21.9044168192477
20
-0.417112939725378
30
0.000000000000000
11
-21.8044168192477
21
-0.479467725870315
31
0.000000000000000
  0
LINE
  5
F109B8
330
F109B9
100
AcDbEntity
8
Geo
100
AcDbLine
10
-21.8044168192477
20
-0.479467725870315
30
0.000000000000000
11
-21.7044168192477
21
-0.540537592585836
31
0.000000000000000
  0
LINE
  5
F109BA
330
F109BB
100
AcDbEntity
8
Geo
100
AcDbLine
10
-21.7044168192477
20
-0.540537592585836
30
0.000000000000000
11
-21.6044168192477
21
-0.600305576412757
31
0.000000000000000
  0
LINE
  5
F109BC
330
F109BD
100
AcDbEntity
8
Geo
100
AcDbLine
10
-21.6044168192477
20
-0.600305576412757
30
0.000000000000000
11
-21.5044168192477
21
-0.658755075517651
31
0.000000000000000
  0
LINE
  5
F109BE
330
F109BF
100
AcDbEntity
8
Geo
100
AcDbLine
10
-21.5044168192477
20
-0.658755075517651
30
0.000000000000000
11
-21.4044168192477
21
-0.715869854304376
31
0.000000000000000
  0
LINE
  5
F109C0
330
F109C1
100
AcDbEntity
8
Geo
100
AcDbLine
10
-21.4044168192477
20
-0.715869854304376
30
0.000000000000000
11
-21.3044168192477
21
-0.771634047923853
31
0.000000000000000
  0
LINE
  5
F109C2
330
F109C3
100
AcDbEntity
8
Geo
100
AcDbLine
10
-21.3044168192477
20
-0.771634047923853
30
0.000000000000000
11
-21.2044168192477
21
-0.826032166680858
31
0.000000000000000
  0
LINE
  5
F109C4
330
F109C5
100
AcDbEntity
8
Geo
100
AcDbLine
10
-21.2044168192477
20
-0.826032166680858
30
0.000000000000000
11
-21.1044168192477
21
-0.879049100336626
31
0.000000000000000
  0
LINE
  5
F109C6
330
F109C7
100
AcDbEntity
8
Geo
100
AcDbLine
10
-21.1044168192477
20
-0.879049100336626
30
0.000000000000000
11
-21.0044168192477
21
-0.930670122306038
31
0.000000000000000
  0
LINE
  5
F109C8
330
F109C9
100
AcDbEntity
8
Geo
100
AcDbLine
10
-21.0044168192477
20
-0.930670122306038
30
0.000000000000000
11
-20.9044168192477
21
-0.980880893748253
31
0.000000000000000
  0
LINE
  5
F109CA
330
F109CB
100
AcDbEntity
8
Geo
100
AcDbLine
10
-20.9044168192477
20
-0.980880893748253
30
0.000000000000000
11
-20.8044168192477
21
-1.02966746754961
31
0.000000000000000
  0
LINE
  5
F109CC
330
F109CD
100
AcDbEntity
8
Geo
100
AcDbLine
10
-20.8044168192477
20
-1.02966746754961
30
0.000000000000000
11
-20.7044168192477
21
-1.07701629219774
31
0.000000000000000
  0
LINE
  5
F109CE
330
F109CF
100
AcDbEntity
8
Geo
100
AcDbLine
10
-20.7044168192477
20
-1.07701629219774
30
0.000000000000000
11
-20.6044168192477
21
-1.12291421554582
31
0.000000000000000
  0
LINE
  5
F109D0
330
F109D1
100
AcDbEntity
8
Geo
100
AcDbLine
10
-20.6044168192477
20
-1.12291421554582
30
0.000000000000000
11
-20.5044168192477
21
-1.16734848846582
31
0.000000000000000
  0
LINE
  5
F109D2
330
F109D3
100
AcDbEntity
8
Geo
100
AcDbLine
10
-20.5044168192477
20
-1.16734848846582
30
0.000000000000000
11
-20.4044168192477
21
-1.21030676838985
31
0.000000000000000
  0
LINE
  5
F109D4
330
F109D5
100
AcDbEntity
8
Geo
100
AcDbLine
10
-20.4044168192477
20
-1.21030676838985
30
0.000000000000000
11
-20.3044168192477
21
-1.25177712273860
31
0.000000000000000
  0
LINE
  5
F109D6
330
F109D7
100
AcDbEntity
8
Geo
100
AcDbLine
10
-20.3044168192477
20
-1.25177712273860
30
0.000000000000000
11
-20.2044168192477
21
-1.29174803223586
31
0.000000000000000
  0
LINE
  5
F109D8
330
F109D9
100
AcDbEntity
8
Geo
100
AcDbLine
10
-20.2044168192477
20
-1.29174803223586
30
0.000000000000000
11
-20.1044168192477
21
-1.33020839410821
31
0.000000000000000
  0
LINE
  5
F109DA
330
F109DB
100
AcDbEntity
8
Geo
100
AcDbLine
10
-20.1044168192477
20
-1.33020839410821
30
0.000000000000000
11
-20.0044168192477
21
-1.36714752516911
31
0.000000000000000
  0
LINE
  5
F109DC
330
F109DD
100
AcDbEntity
8
Geo
100
AcDbLine
10
-20.0044168192477
20
-1.36714752516911
30
0.000000000000000
11
-19.9044168192477
21
-1.40255516478633
31
0.000000000000000
  0
LINE
  5
F109DE
330
F109DF
100
AcDbEntity
8
Geo
100
AcDbLine
10
-19.9044168192477
20
-1.40255516478633
30
0.000000000000000
11
-19.8044168192477
21
-1.43642147773209
31
0.000000000000000
  0
LINE
  5
F109E0
330
F109E1
100
AcDbEntity
8
Geo
100
AcDbLine
10
-19.8044168192477
20
-1.43642147773209
30
0.000000000000000
11
-19.7044168192477
21
-1.46873705691501
31
0.000000000000000
  0
LINE
  5
F109E2
330
F109E3
100
AcDbEntity
8
Geo
100
AcDbLine
10
-19.7044168192477
20
-1.46873705691501
30
0.000000000000000
11
-19.6044168192477
21
-1.49949292599310
31
0.000000000000000
  0
LINE
  5
F109E4
330
F109E5
100
AcDbEntity
8
Geo
100
AcDbLine
10
-19.6044168192477
20
-1.49949292599310
30
0.000000000000000
11
-19.5044168192477
21
-1.52868054186715
31
0.000000000000000
  0
LINE
  5
F109E6
330
F109E7
100
AcDbEntity
8
Geo
100
AcDbLine
10
-19.5044168192477
20
-1.52868054186715
30
0.000000000000000
11
-19.4044168192477
21
-1.55629179705376
31
0.000000000000000
  0
LINE
  5
F109E8
330
F109E9
100
AcDbEntity
8
Geo
100
AcDbLine
10
-19.4044168192477
20
-1.55629179705376
30
0.000000000000000
11
-19.3044168192477
21
-1.58231902193736
31
0.000000000000000
  0
LINE
  5
F109EA
330
F109EB
100
AcDbEntity
8
Geo
100
AcDbLine
10
-19.3044168192477
20
-1.58231902193736
30
0.000000000000000
11
-19.2044168192477
21
-1.60675498690062
31
0.000000000000000
  0
LINE
  5
F109EC
330
F109ED
100
AcDbEntity
8
Geo
100
AcDbLine
10
-19.2044168192477
20
-1.60675498690062
30
0.000000000000000
11
-19.1044168192477
21
-1.62959290433262
31
0.000000000000000
  0
LINE
  5
F109EE
330
F109EF
100
AcDbEntity
8
Geo
100
AcDbLine
10
-19.1044168192477
20
-1.62959290433262
30
0.000000000000000
11
-19.0044168192477
21
-1.65082643051425
31
0.000000000000000
  0
LINE
  5
F109F0
330
F109F1
100
AcDbEntity
8
Geo
100
AcDbLine
10
-19.0044168192477
20
-1.65082643051425
30
0.000000000000000
11
-18.9044168192477
21
-1.67044966738032
31
0.000000000000000
  0
LINE
  5
F109F2
330
F109F3
100
AcDbEntity
8
Geo
100
AcDbLine
10
-18.9044168192477
20
-1.67044966738032
30
0.000000000000000
11
-18.8044168192477
21
-1.68845716415788
31
0.000000000000000
  0
LINE
  5
F109F4
330
F109F5
100
AcDbEntity
8
Geo
100
AcDbLine
10
-18.8044168192477
20
-1.68845716415788
30
0.000000000000000
11
-18.7044168192477
21
-1.70484391888029
31
0.000000000000000
  0
LINE
  5
F109F6
330
F109F7
100
AcDbEntity
8
Geo
100
AcDbLine
10
-18.7044168192477
20
-1.70484391888029
30
0.000000000000000
11
-18.6044168192477
21
-1.71960537977659
31
0.000000000000000
  0
LINE
  5
F109F8
330
F109F9
100
AcDbEntity
8
Geo
100
AcDbLine
10
-18.6044168192477
20
-1.71960537977659
30
0.000000000000000
11
-18.5044168192477
21
-1.73273744653590
31
0.000000000000000
  0
LINE
  5
F109FA
330
F109FB
100
AcDbEntity
8
Geo
100
AcDbLine
10
-18.5044168192477
20
-1.73273744653590
30
0.000000000000000
11
-18.4044168192477
21
-1.74423647144633
31
0.000000000000000
  0
LINE
  5
F109FC
330
F109FD
100
AcDbEntity
8
Geo
100
AcDbLine
10
-18.4044168192477
20
-1.74423647144633
30
0.000000000000000
11
-18.3044168192477
21
-1.75409926040824
31
0.000000000000000
  0
LINE
  5
F109FE
330
F109FF
100
AcDbEntity
8
Geo
100
AcDbLine
10
-18.3044168192477
20
-1.75409926040824
30
0.000000000000000
11
-18.2044168192477
21
-1.76232307382144
31
0.000000000000000
  0
LINE
  5
F10A00
330
F10A01
100
AcDbEntity
8
Geo
100
AcDbLine
10
-18.2044168192477
20
-1.76232307382144
30
0.000000000000000
11
-18.1044168192477
21
-1.76890562734620
31
0.000000000000000
  0
LINE
  5
F10A02
330
F10A03
100
AcDbEntity
8
Geo
100
AcDbLine
10
-18.1044168192477
20
-1.76890562734620
30
0.000000000000000
11
-18.0044168192477
21
-1.77384509253775
31
0.000000000000000
  0
LINE
  5
F10A04
330
F10A05
100
AcDbEntity
8
Geo
100
AcDbLine
10
-18.0044168192477
20
-1.77384509253775
30
0.000000000000000
11
-17.9044168192477
21
-1.77714009735419
31
0.000000000000000
  0
LINE
  5
F10A06
330
F10A07
100
AcDbEntity
8
Geo
100
AcDbLine
10
-17.9044168192477
20
-1.77714009735419
30
0.000000000000000
11
-17.8044168192477
21
-1.77878972653760
31
0.000000000000000
  0
LINE
  5
F10A08
330
F10A09
100
AcDbEntity
8
Geo
100
AcDbLine
10
-17.8044168192477
20
-1.77878972653760
30
0.000000000000000
11
-17.7541862330398
21
-1.85365070187274
31
0.000000000000000
  0
LINE
  5
F10A0A
330
F10A0B
100
AcDbEntity
8
Geo
100
AcDbLine
10
46.9955831807523
20
9.14634929812726
30
0.000000000000000
11
46.9955831807523
21
4.14634929812726
31
0.000000000000000
  0
LINE
  5
F10A0C
330
F10A0D
100
AcDbEntity
8
Geo
100
AcDbLine
10
-36.0044168192477
20
4.14634929812726
30
0.000000000000000
11
-36.0044168192477
21
-1.70365070187274
31
0.000000000000000
  0
LINE
  5
F10A0E
330
F10A0F
100
AcDbEntity
8
Geo
100
AcDbLine
10
-36.0044168192477
20
-1.70365070187274
30
0.000000000000000
11
-35.8544168192477
21
-1.85365070187274
31
0.000000000000000
  0
LINE
  5
F10A10
330
F10A11
100
AcDbEntity
8
Geo
100
AcDbLine
10
-35.8544168192477
20
-1.85365070187274
30
0.000000000000000
11
-8.00441681924767
21
-1.85365070187274
31
0.000000000000000
  0
LINE
  5
F10A12
330
F10A13
100
AcDbEntity
8
Geo
100
AcDbLine
10
-8.00441681924767
20
-1.85365070187274
30
0.000000000000000
11
-8.00441681924767
21
-1.55365070187274
31
0.000000000000000
  0
LINE
  5
F10A14
330
F10A15
100
AcDbEntity
8
Geo
100
AcDbLine
10
-8.00441681924767
20
-1.55365070187274
30
0.000000000000000
11
1.99558318075233
21
-1.55365070187274
31
0.000000000000000
  0
LINE
  5
F10A16
330
F10A17
100
AcDbEntity
8
Geo
100
AcDbLine
10
1.99558318075233
20
-1.55365070187274
30
0.000000000000000
11
2.49558318075233
21
-1.85365070187274
31
0.000000000000000
  0
LINE
  5
F10A18
330
F10A19
100
AcDbEntity
8
Geo
100
AcDbLine
10
2.49558318075233
20
-1.85365070187274
30
0.000000000000000
11
45.9955831807523
21
-1.85365070187274
31
0.000000000000000
  0
LINE
  5
F10A1A
330
F10A1B
100
AcDbEntity
8
Geo
100
AcDbLine
10
45.9955831807523
20
-1.85365070187274
30
0.000000000000000
11
46.9955831807523
21
-0.853650701872738
31
0.000000000000000
  0
LINE
  5
F10A1C
330
F10A1D
100
AcDbEntity
8
Geo
100
AcDbLine
10
-36.0044168192477
20
9.99634929812726
30
0.000000000000000
11
-36.0044168192477
21
-1.70365070187274
31
0.000000000000000
  0
LINE
  5
F10A1E
330
F10A1F
100
AcDbEntity
8
Geo
100
AcDbLine
10
-35.8544168192477
20
10.1463492981273
30
0.000000000000000
11
-35.8544168192477
21
-1.85365070187274
31
0.000000000000000
  0
LINE
  5
F10A20
330
F10A21
100
AcDbEntity
8
Geo
100
AcDbLine
10
-35.8544168192477
20
10.1463492981273
30
0.000000000000000
11
-35.8544168192477
21
-1.85365070187274
31
0.000000000000000
  0
LINE
  5
F10A22
330
F10A23
100
AcDbEntity
8
Geo
100
AcDbLine
10
-8.00441681924767
20
10.1463492981273
30
0.000000000000000
11
-8.00441681924767
21
-1.85365070187274
31
0.000000000000000
  0
LINE
  5
F10A24
330
F10A25
100
AcDbEntity
8
Geo
100
AcDbLine
10
-8.00441681924767
20
9.84634929812726
30
0.000000000000000
11
-8.00441681924767
21
-1.55365070187274
31
0.000000000000000
  0
LINE
  5
F10A26
330
F10A27
100
AcDbEntity
8
Geo
100
AcDbLine
10
1.99558318075233
20
9.84634929812726
30
0.000000000000000
11
1.99558318075233
21
-1.55365070187274
31
0.000000000000000
  0
LINE
  5
F10A28
330
F10A29
100
AcDbEntity
8
Geo
100
AcDbLine
10
2.49558318075233
20
10.1463492981273
30
0.000000000000000
11
2.49558318075233
21
-1.85365070187274
31
0.000000000000000
  0
LINE
  5
F10A2A
330
F10A2B
100
AcDbEntity
8
Geo
100
AcDbLine
10
2.49558318075233
20
10.1463492981273
30
0.000000000000000
11
2.49558318075233
21
-1.85365070187274
31
0.000000000000000
  0
LINE
  5
F10A2C
330
F10A2D
100
AcDbEntity
8
Geo
100
AcDbLine
10
45.9955831807523
20
10.1463492981273
30
0.000000000000000
11
45.9955831807523
21
-1.85365070187274
31
0.000000000000000
  0
LINE
  5
F10A2E
330
F10A2F
100
AcDbEntity
8
Geo
100
AcDbLine
10
46.9955831807523
20
9.14634929812726
30
0.000000000000000
11
46.9955831807523
21
-0.853650701872738
31
0.000000000000000
  0
LINE
  5
F10A30
330
F10A31
100
AcDbEntity
8
Geo
 6
Dashdot
100
AcDbLine
10
-36.0044168192477
20
4.14634929812726
30
0.000000000000000
11
46.9955831807523
21
4.14634929812726
31
0.000000000000000
  0
LWPOLYLINE
  5
F10A32
330
F10A33
100
AcDbEntity
8
Rahmen
100
AcDbPolyline
90
   4
70
   1
43
   0.0
 10
-134.621438437570
 20
99.9272429411198
 10
143.300889788314
 20
99.9272429411198
 10
143.300889788314
 20
-100.194821881726
 10
-134.621438437570
 20
-100.194821881726
  0
TEXT
  5
F10A34
330
F10A35
 100
AcDbEntity
8
Text
100
AcDbText
10
-133.722013427131
20
-99.6948218817256
30
0.000000000000000
40
1.00000000000000
1
ISBESketcher - ©ISBE GmbH      lizensiert für: Schmid Werkzeuge
100
AcDbText
  0
LWPOLYLINE
  5
F10A36
330
F10A37
100
AcDbEntity
8
Rahmen
100
AcDbPolyline
90
   4
70
   1
43
   0.0
 10
103.276476823745
 20
-97.0468343451865
 10
143.300889788314
 20
-97.0468343451865
 10
143.300889788314
 20
-100.194821881726
 10
103.276476823745
 20
-100.194821881726
  0
TEXT
  5
F10A38
330
F10A39
 100
AcDbEntity
8
Text
100
AcDbText
10
104.500000000000
20
-99.4615656419646
30
0.000000000000000
40
1.50000000000000
1
Ers. durch:
100
AcDbText
  0
TEXT
  5
F10A3A
330
F10A3B
 100
AcDbEntity
8
Text
100
AcDbText
10
0.000000000000000
20
0.500000000000000
30
0.000000000000000
40
1.50000000000000
1

100
AcDbText
  0
LWPOLYLINE
  5
F10A3C
330
F10A3D
100
AcDbEntity
8
Rahmen
100
AcDbPolyline
90
   4
70
   1
43
   0.0
 10
63.4769201117857
 20
-97.0468343451865
 10
103.276476823745
 20
-97.0468343451865
 10
103.276476823745
 20
-100.194821881726
 10
63.4769201117857
 20
-100.194821881726
  0
TEXT
  5
F10A3E
330
F10A3F
 100
AcDbEntity
8
Text
100
AcDbText
10
64.5000000000000
20
-99.4615656419646
30
0.000000000000000
40
1.50000000000000
1
Ers. für:
100
AcDbText
  0
TEXT
  5
F10A40
330
F10A41
 100
AcDbEntity
8
Text
100
AcDbText
10
0.000000000000000
20
0.500000000000000
30
0.000000000000000
40
1.50000000000000
1

100
AcDbText
  0
LWPOLYLINE
  5
F10A42
330
F10A43
100
AcDbEntity
8
Rahmen
100
AcDbPolyline
90
   4
70
   1
43
   0.0
 10
130.034370884328
 20
-94.1237030612573
 10
143.300889788314
 20
-94.1237030612573
 10
143.300889788314
 20
-97.0468343451865
 10
130.034370884328
 20
-97.0468343451865
  0
TEXT
  5
F10A44
330
F10A45
 100
AcDbEntity
8
Text
100
AcDbText
10
131.166666666667
20
-96.4615656419646
30
0.000000000000000
40
1.50000000000000
1
Blätter
100
AcDbText
  0
TEXT
  5
F10A46
330
F10A47
 100
AcDbEntity
8
Text
100
AcDbText
10
0.000000000000000
20
0.500000000000000
30
0.000000000000000
40
1.50000000000000
1

100
AcDbText
  0
LWPOLYLINE
  5
F10A48
330
F10A49
100
AcDbEntity
8
Rahmen
100
AcDbPolyline
90
   4
70
   1
43
   0.0
 10
130.034370884328
 20
-91.2005717773281
 10
143.300889788314
 20
-91.2005717773281
 10
143.300889788314
 20
-94.1237030612573
 10
130.034370884328
 20
-94.1237030612573
  0
TEXT
  5
F10A4A
330
F10A4B
 100
AcDbEntity
8
Text
100
AcDbText
10
131.166666666667
20
-93.4615656419646
30
0.000000000000000
40
1.50000000000000
1
Blatt
100
AcDbText
  0
TEXT
  5
F10A4C
330
F10A4D
 100
AcDbEntity
8
Text
100
AcDbText
10
0.000000000000000
20
0.500000000000000
30
0.000000000000000
40
1.50000000000000
1

100
AcDbText
  0
LWPOLYLINE
  5
F10A4E
330
F10A4F
100
AcDbEntity
8
Rahmen
100
AcDbPolyline
90
   4
70
   1
43
   0.0
 10
63.4769201117857
 20
-91.2005717773281
 10
130.034370884328
 20
-91.2005717773281
 10
130.034370884328
 20
-97.0468343451865
 10
63.4769201117857
 20
-97.0468343451865
  0
TEXT
  5
F10A50
330
F10A51
 100
AcDbEntity
8
Text
100
AcDbText
10
64.5000000000000
20
-93.4615656419646
30
0.000000000000000
40
1.50000000000000
1
Datum:
100
AcDbText
  0
TEXT
  5
F10A52
330
F10A53
 100
AcDbEntity
8
Text
100
AcDbText
10
90.6497863865600
20
-96.4615656419646
30
0.000000000000000
40
1.50000000000000
1
10.03.2021
100
AcDbText
  0
LWPOLYLINE
  5
F10A54
330
F10A55
100
AcDbEntity
8
Rahmen
100
AcDbPolyline
90
   4
70
   1
43
   0.0
 10
63.4769201117857
 20
-85.1294529568597
 10
143.300889788314
 20
-85.1294529568597
 10
143.300889788314
 20
-91.2005717773281
 10
63.4769201117857
 20
-91.2005717773281
  0
TEXT
  5
F10A56
330
F10A57
 100
AcDbEntity
8
Text
100
AcDbText
10
0.000000000000000
20
0.500000000000000
30
0.000000000000000
40
1.50000000000000
1

100
AcDbText
  0
TEXT
  5
F10A58
330
F10A59
 100
AcDbEntity
8
Text
100
AcDbText
10
63.9252995406508
20
-89.6400854453760
30
0.000000000000000
40
2.50000000000000
1
VHM-HPC-Alu-Schruppfräser 0191-120-b
100
AcDbText
  0
LWPOLYLINE
  5
F10A5A
330
F10A5B
100
AcDbEntity
8
Rahmen
100
AcDbPolyline
90
   4
70
   1
43
   0.0
 10
103.276476823745
 20
-79.0583341363914
 10
143.300889788314
 20
-79.0583341363914
 10
143.300889788314
 20
-85.1294529568597
 10
103.276476823745
 20
-85.1294529568597
  0
TEXT
  5
F10A5C
330
F10A5D
 100
AcDbEntity
8
Text
100
AcDbText
10
104.500000000000
20
-81.4615656419646
30
0.000000000000000
40
1.50000000000000
1
Zu bearb. Material:
100
AcDbText
  0
TEXT
  5
F10A5E
330
F10A5F
 100
AcDbEntity
8
Text
100
AcDbText
10
0.000000000000000
20
0.500000000000000
30
0.000000000000000
40
1.50000000000000
1

100
AcDbText
  0
LWPOLYLINE
  5
F10A60
330
F10A61
100
AcDbEntity
8
Rahmen
100
AcDbPolyline
90
   4
70
   1
43
   0.0
 10
63.4769201117857
 20
-79.0583341363914
 10
103.276476823745
 20
-79.0583341363914
 10
103.276476823745
 20
-85.1294529568597
 10
63.4769201117857
 20
-85.1294529568597
  0
TEXT
  5
F10A62
330
F10A63
 100
AcDbEntity
8
Text
100
AcDbText
10
64.5000000000000
20
-81.4615656419646
30
0.000000000000000
40
1.50000000000000
1
Werkstoff:
100
AcDbText
  0
TEXT
  5
F10A64
330
F10A65
 100
AcDbEntity
8
Text
100
AcDbText
10
80.8017249686807
20
-84.4615656419646
30
0.000000000000000
40
1.50000000000000
1
VHM
100
AcDbText
  0
LWPOLYLINE
  5
F10A66
330
F10A67
100
AcDbEntity
8
Rahmen
100
AcDbPolyline
90
   4
70
   1
43
   0.0
 10
103.276476823745
 20
-76.1352028524622
 10
143.300889788314
 20
-76.1352028524622
 10
143.300889788314
 20
-79.0583341363914
 10
103.276476823745
 20
-79.0583341363914
  0
TEXT
  5
F10A68
330
F10A69
 100
AcDbEntity
8
Text
100
AcDbText
10
0.000000000000000
20
0.500000000000000
30
0.000000000000000
40
1.50000000000000
1

100
AcDbText
  0
TEXT
  5
F10A6A
330
F10A6B
 100
AcDbEntity
8
Text
100
AcDbText
10
0.000000000000000
20
0.500000000000000
30
0.000000000000000
40
1.50000000000000
1

100
AcDbText
  0
LWPOLYLINE
  5
F10A6C
330
F10A6D
100
AcDbEntity
8
Rahmen
100
AcDbPolyline
90
   4
70
   1
43
   0.0
 10
63.4769201117857
 20
-76.1352028524622
 10
103.276476823745
 20
-76.1352028524622
 10
103.276476823745
 20
-79.0583341363914
 10
63.4769201117857
 20
-79.0583341363914
  0
TEXT
  5
F10A6E
330
F10A6F
 100
AcDbEntity
8
Text
100
AcDbText
10
64.5000000000000
20
-78.4615656419646
30
0.000000000000000
40
1.50000000000000
1
Maßstab:
100
AcDbText
  0
TEXT
  5
F10A70
330
F10A71
 100
AcDbEntity
8
Text
100
AcDbText
10
89.0265812212907
20
-78.4615656419646
30
0.000000000000000
40
1.50000000000000
1
1 : 1
100
AcDbText
0
VIEWPORT
5
294
102
{ACAD_XDICTIONARY
360
58A
102
}
330
25D
100
AcDbEntity
67
1
8
0
60
1
100
AcDbViewport
10
0.0
20
0.0
30
0.0
40
10.0
41
10.0
68
-1
69
1
12
0.0
22
0.0
13
0.0
23
0.0
14
1.0
24
1.0
15
0.0
25
0.0
16
0.0
26
0.0
36
1.0
17
0.0
27
0.0
37
0.0
42
0.0
43
0.0
44
0.0
45
10.0
50
0.0
51
0.0000000000007958
72
100
90
32800
1

281
0
71
0
74
0
110
0.0
120
0.0
130
0.0
111
1.0
121
0.0
131
0.0
112
0.0
122
1.0
132
0.0
79
0
146
0.0
1001
VD_INVISIBLE_NOT_FOR_READ
1000
VD_INVISIBLE_NOT_FOR_READ
0
VIEWPORT
5
295
102
{ACAD_XDICTIONARY
360
58C
102
}
330
25D
100
AcDbEntity
67
1
8
0
60
1
100
AcDbViewport
10
0.0
20
0.0
30
0.0
40
10.0
41
10.0
68
0
69
2
12
0.0
22
0.0
13
0.0
23
0.0
14
1.0
24
1.0
15
0.0
25
0.0
16
0.0
26
0.0
36
1.0
17
0.0
27
0.0
37
0.0
42
0.0
43
0.0
44
0.0
45
10.0
50
0.0
51
0.0000000000007958
72
100
90
163872
1

281
0
71
0
74
0
110
0.0
120
0.0
130
0.0
111
1.0
121
0.0
131
0.0
112
0.0
122
1.0
132
0.0
79
0
146
0.0
1001
VD_INVISIBLE_NOT_FOR_READ
1000
VD_INVISIBLE_NOT_FOR_READ
0
ENDSEC
0
SECTION
2
OBJECTS
0
DICTIONARY
5
13
330
0
100
AcDbDictionary
281
1
3
ACAD_COLOR
350
FA7
3
ACAD_GROUP
350
14
3
ACAD_LAYOUT
350
FCF
3
ACAD_MATERIAL
350
F7A
3
ACAD_MLEADERSTYLE
350
FCD
3
ACAD_MLINESTYLE
350
16
3
ACAD_PLOTSETTINGS
350
17
3
ACAD_PLOTSTYLENAME
350
18
3
ACAD_SCALELIST
350
FAB
3
ACAD_TABLESTYLE
350
FA8
3
ACAD_VISUALSTYLE
350
F93
3
ACDB_RECOMPOSE_DATA
350
107E
3
AcDbVariableDictionary
350
FF0
3
DWGPROPS
350
107F
0
DICTIONARY
5
F10005
330
F10004
100
AcDbDictionary
280
1
281
1
3
ACAD_MTEXT_2008_RT
360
F10006
0
DICTIONARY
5
F10014
330
F10013
100
AcDbDictionary
280
1
281
1
3
ACAD_MTEXT_2008_RT
360
F10015
0
DICTIONARY
5
F10019
330
F10018
100
AcDbDictionary
280
1
281
1
3
ACAD_MTEXT_2008_RT
360
F1001A
0
DICTIONARY
5
F1001E
330
F1001D
100
AcDbDictionary
280
1
281
1
3
ACAD_MTEXT_2008_RT
360
F1001F
0
DICTIONARY
5
F10023
330
F10022
100
AcDbDictionary
280
1
281
1
3
ACAD_MTEXT_2008_RT
360
F10024
0
DICTIONARY
5
F1000A
330
F10009
100
AcDbDictionary
280
1
281
1
3
ACAD_MTEXT_2008_RT
360
F1000B
0
DICTIONARY
5
F1000F
330
F1000E
100
AcDbDictionary
280
1
281
1
3
ACAD_MTEXT_2008_RT
360
F10010
0
DICTIONARY
5
F10028
330
F10027
100
AcDbDictionary
280
1
281
1
3
ACAD_MTEXT_2008_RT
360
F10029
0
DICTIONARY
5
FA7
102
{ACAD_REACTORS
330
13
102
}
330
13
100
AcDbDictionary
281
1
0
DICTIONARY
5
14
330
13
100
AcDbDictionary
281
1
0
DICTIONARY
5
FCF
102
{ACAD_REACTORS
330
13
102
}
330
13
100
AcDbDictionary
281
1
3
Layout1
350
FD1
3
Model
350
FD0
0
DICTIONARY
5
F7A
102
{ACAD_REACTORS
330
13
102
}
330
13
100
AcDbDictionary
281
1
3
ByBlock
350
F83
3
ByLayer
350
F7B
3
Global
350
F8B
0
DICTIONARY
5
FCD
102
{ACAD_REACTORS
330
13
102
}
330
13
100
AcDbDictionary
281
1
3
Standard
350
FCE
0
DICTIONARY
5
16
330
13
100
AcDbDictionary
281
1
3
Standard
350
FAA
0
DICTIONARY
5
17
102
{ACAD_REACTORS
330
13
102
}
330
13
100
AcDbDictionary
281
1
0
ACDBDICTIONARYWDFLT
5
18
102
{ACAD_REACTORS
330
13
102
}
330
13
100
AcDbDictionary
281
1
3
Normal
350
19
100
AcDbDictionaryWithDefault
340
19
0
DICTIONARY
5
FAB
102
{ACAD_REACTORS
330
13
102
}
330
13
100
AcDbDictionary
281
1
3
A0
350
FAC
3
A1
350
FAD
3
A2
350
FAE
3
A3
350
FAF
3
A4
350
FB0
3
A5
350
FB1
3
A6
350
FB2
3
A7
350
FB3
3
A8
350
FB4
3
A9
350
FB5
3
B0
350
FB6
3
B1
350
FB7
3
B2
350
FB8
3
B3
350
FB9
3
B4
350
FBA
3
B5
350
FBB
3
B6
350
FBC
3
B7
350
FBD
3
B8
350
FBE
3
B9
350
FBF
3
C0
350
FC0
3
C1
350
FC1
3
C2
350
FC2
3
C3
350
FC3
3
C4
350
FC4
3
C5
350
FC5
3
C6
350
FC6
3
C7
350
FC7
3
C8
350
FC8
3
C9
350
FC9
3
D0
350
FCA
3
D1
350
FCB
3
D2
350
FCC
0
DICTIONARY
5
FA8
102
{ACAD_REACTORS
330
13
102
}
330
13
100
AcDbDictionary
281
1
3
Standard
350
FA9
0
DICTIONARY
5
F93
102
{ACAD_REACTORS
330
13
102
}
330
13
100
AcDbDictionary
281
1
3
2dWireframe
350
F99
3
3D Hidden
350
F9B
3
3dWireframe
350
F9A
3
Basic
350
F98
3
Brighten
350
F9F
3
ColorChange
350
FA3
3
Conceptual
350
F9C
3
Dim
350
F9E
3
EdgeColorOff
350
FA6
3
Facepattern
350
FA2
3
Flat
350
F94
3
FlatWithEdges
350
F95
3
Gouraud
350
F96
3
GouraudWithEdges
350
F97
3
JitterOff
350
FA4
3
Linepattern
350
FA1
3
OverhangOff
350
FA5
3
Realistic
350
F9D
3
Thicken
350
FA0
0
XRECORD
5
107E
102
{ACAD_REACTORS
330
13
102
}
330
13
100
AcDbXrecord
280
1
90
1
330
FA9
330
F10004
330
F10013
330
F10018
330
F1001D
330
F10022
330
F10009
330
F1000E
330
F10027
0
DICTIONARY
5
FF0
102
{ACAD_REACTORS
330
13
102
}
330
13
100
AcDbDictionary
281
1
3
CANNOSCALE
350
FF3
3
CMLEADERSTYLE
350
FF2
3
CTABLESTYLE
350
FF1
3
DIMASSOC
350
FF6
3
INDEXCTL
350
FF5
3
SORTENTS
350
FF4
3
XCLIPFRAME
350
1078
0
XRECORD
5
107F
102
{ACAD_REACTORS
330
13
102
}
330
13
100
AcDbXrecord
280
1
1
DWGPROPS COOKIE
2

3

4

6

7

8

9

300
=
301
=
302
=
303
=
304
=
305
=
306
=
307
=
308
=
309
=
40
0.0
41
0.0
42
0.0
1

90
0
0
XRECORD
5
F10006
102
{ACAD_REACTORS
330
F10005
102
}
330
F10005
100
AcDbXrecord
280
1
40
48458.0
1
0.15 x 45°
0
XRECORD
5
F10015
102
{ACAD_REACTORS
330
F10014
102
}
330
F10014
100
AcDbXrecord
280
1
40
48458.0
1
38
0
XRECORD
5
F1001A
102
{ACAD_REACTORS
330
F10019
102
}
330
F10019
100
AcDbXrecord
280
1
40
48458.0
1
38.5
0
XRECORD
5
F1001F
102
{ACAD_REACTORS
330
F1001E
102
}
330
F1001E
100
AcDbXrecord
280
1
40
48458.0
1
28
0
XRECORD
5
F10024
102
{ACAD_REACTORS
330
F10023
102
}
330
F10023
100
AcDbXrecord
280
1
40
48458.0
1
83
0
XRECORD
5
F1000B
102
{ACAD_REACTORS
330
F1000A
102
}
330
F1000A
100
AcDbXrecord
280
1
40
48458.0
1
Ø12
0
XRECORD
5
F10010
102
{ACAD_REACTORS
330
F1000F
102
}
330
F1000F
100
AcDbXrecord
280
1
40
48458.0
1
Ø11.4
0
XRECORD
5
F10029
102
{ACAD_REACTORS
330
F10028
102
}
330
F10028
100
AcDbXrecord
280
1
40
48458.0
1
Ø12
0
LAYOUT
5
FD1
102
{ACAD_XDICTIONARY
360
10A9
102
}
102
{ACAD_REACTORS
330
FCF
102
}
330
FCF
100
AcDbPlotSettings
1

2
Microsoft XPS Document Writer
4

6

40
0.0
41
0.0
42
0.0
43
0.0
44
0.0
45
0.0
46
0.0
47
0.0
48
0.0
49
0.0
140
0.0
141
0.0
142
1.0
143
1.0
70
688
72
0
73
0
74
5
7

75
16
147
1.0
148
0.0
149
0.0
100
AcDbLayout
1
Layout1
70
1
71
1
10
0.0
20
0.0
11
12.0
21
9.0
12
0.0
22
0.0
32
0.0
14
1.000000000000000E+20
24
1.000000000000000E+20
34
1.000000000000000E+20
15
-1.000000000000000E+20
25
-1.000000000000000E+20
35
-1.000000000000000E+20
146
0.0
13
0.0
23
0.0
33
0.0
16
1.0
26
0.0
36
0.0
17
0.0
27
1.0
37
0.0
76
0
330
25D
0
LAYOUT
5
FD0
102
{ACAD_XDICTIONARY
360
10A7
102
}
102
{ACAD_REACTORS
330
FCF
102
}
330
FCF
100
AcDbPlotSettings
1

2
Microsoft XPS Document Writer
4

6

40
0.0
41
0.0
42
0.0
43
0.0
44
0.0
45
0.0
46
0.0
47
0.0
48
0.0
49
0.0
140
0.0
141
0.0
142
1.0
143
1.0
70
1712
72
0
73
0
74
0
7

75
0
147
1.0
148
0.0
149
0.0
100
AcDbLayout
1
Model
70
1
71
0
10
0.0
20
0.0
11
12.0
21
9.0
12
0.0
22
0.0
32
0.0
14
0.0
24
0.0
34
0.0
15
0.0
25
0.0
35
0.0
146
0.0
13
0.0
23
0.0
33
0.0
16
1.0
26
0.0
36
0.0
17
0.0
27
1.0
37
0.0
76
0
330
261
331
26B
0
MATERIAL
5
F83
102
{ACAD_XDICTIONARY
360
F84
102
}
102
{ACAD_REACTORS
330
F7A
102
}
330
F7A
100
AcDbMaterial
1
ByBlock
72
0
43
0.0208333333333333
43
0.0
43
0.0
43
0.0
43
0.0
43
0.0208333333333333
43
0.0
43
0.0
43
0.0
43
0.0
43
1.0
43
0.0
43
0.0
43
0.0
43
0.0
43
1.0
77
0
47
0.0208333333333333
47
0.0
47
0.0
47
0.0
47
0.0
47
0.0208333333333333
47
0.0
47
0.0
47
0.0
47
0.0
47
1.0
47
0.0
47
0.0
47
0.0
47
0.0
47
1.0
171
0
49
0.0208333333333333
49
0.0
49
0.0
49
0.0
49
0.0
49
0.0208333333333333
49
0.0
49
0.0
49
0.0
49
0.0
49
1.0
49
0.0
49
0.0
49
0.0
49
0.0
49
1.0
175
0
142
0.0208333333333333
142
0.0
142
0.0
142
0.0
142
0.0
142
0.0208333333333333
142
0.0
142
0.0
142
0.0
142
0.0
142
1.0
142
0.0
142
0.0
142
0.0
142
0.0
142
1.0
179
0
144
0.0208333333333333
144
0.0
144
0.0
144
0.0
144
0.0
144
0.0208333333333333
144
0.0
144
0.0
144
0.0
144
0.0
144
1.0
144
0.0
144
0.0
144
0.0
144
0.0
144
1.0
147
0.0208333333333333
147
0.0
147
0.0
147
0.0
147
0.0
147
0.0208333333333333
147
0.0
147
0.0
147
0.0
147
0.0
147
1.0
147
0.0
147
0.0
147
0.0
147
0.0
147
1.0
0
MATERIAL
5
F7B
102
{ACAD_XDICTIONARY
360
F7C
102
}
102
{ACAD_REACTORS
330
F7A
102
}
330
F7A
100
AcDbMaterial
1
ByLayer
72
0
43
0.0208333333333333
43
0.0
43
0.0
43
0.0
43
0.0
43
0.0208333333333333
43
0.0
43
0.0
43
0.0
43
0.0
43
1.0
43
0.0
43
0.0
43
0.0
43
0.0
43
1.0
77
0
47
0.0208333333333333
47
0.0
47
0.0
47
0.0
47
0.0
47
0.0208333333333333
47
0.0
47
0.0
47
0.0
47
0.0
47
1.0
47
0.0
47
0.0
47
0.0
47
0.0
47
1.0
171
0
49
0.0208333333333333
49
0.0
49
0.0
49
0.0
49
0.0
49
0.0208333333333333
49
0.0
49
0.0
49
0.0
49
0.0
49
1.0
49
0.0
49
0.0
49
0.0
49
0.0
49
1.0
175
0
142
0.0208333333333333
142
0.0
142
0.0
142
0.0
142
0.0
142
0.0208333333333333
142
0.0
142
0.0
142
0.0
142
0.0
142
1.0
142
0.0
142
0.0
142
0.0
142
0.0
142
1.0
179
0
144
0.0208333333333333
144
0.0
144
0.0
144
0.0
144
0.0
144
0.0208333333333333
144
0.0
144
0.0
144
0.0
144
0.0
144
1.0
144
0.0
144
0.0
144
0.0
144
0.0
144
1.0
147
0.0208333333333333
147
0.0
147
0.0
147
0.0
147
0.0
147
0.0208333333333333
147
0.0
147
0.0
147
0.0
147
0.0
147
1.0
147
0.0
147
0.0
147
0.0
147
0.0
147
1.0
0
MATERIAL
5
F8B
102
{ACAD_XDICTIONARY
360
F8C
102
}
102
{ACAD_REACTORS
330
F7A
102
}
330
F7A
100
AcDbMaterial
1
Global
72
0
43
0.0208333333333333
43
0.0
43
0.0
43
0.0
43
0.0
43
0.0208333333333333
43
0.0
43
0.0
43
0.0
43
0.0
43
1.0
43
0.0
43
0.0
43
0.0
43
0.0
43
1.0
77
0
47
0.0208333333333333
47
0.0
47
0.0
47
0.0
47
0.0
47
0.0208333333333333
47
0.0
47
0.0
47
0.0
47
0.0
47
1.0
47
0.0
47
0.0
47
0.0
47
0.0
47
1.0
171
0
49
0.0208333333333333
49
0.0
49
0.0
49
0.0
49
0.0
49
0.0208333333333333
49
0.0
49
0.0
49
0.0
49
0.0
49
1.0
49
0.0
49
0.0
49
0.0
49
0.0
49
1.0
175
0
142
0.0208333333333333
142
0.0
142
0.0
142
0.0
142
0.0
142
0.0208333333333333
142
0.0
142
0.0
142
0.0
142
0.0
142
1.0
142
0.0
142
0.0
142
0.0
142
0.0
142
1.0
179
0
144
0.0208333333333333
144
0.0
144
0.0
144
0.0
144
0.0
144
0.0208333333333333
144
0.0
144
0.0
144
0.0
144
0.0
144
1.0
144
0.0
144
0.0
144
0.0
144
0.0
144
1.0
147
0.0208333333333333
147
0.0
147
0.0
147
0.0
147
0.0
147
0.0208333333333333
147
0.0
147
0.0
147
0.0
147
0.0
147
1.0
147
0.0
147
0.0
147
0.0
147
0.0
147
1.0
0
MLEADERSTYLE
5
FCE
102
{ACAD_REACTORS
330
FCD
102
}
330
FCD
100
AcDbMLeaderStyle
170
2
171
1
172
0
90
2
40
0.0
41
0.0
173
1
91
-1056964608
340
256
92
-2
290
1
42
0.09
291
1
43
0.36
3
Standard
44
0.18
300

342
253
174
1
178
6
175
1
176
0
93
-1056964608
45
0.18
292
0
297
0
46
0.18
94
-1056964608
47
1.0
49
1.0
140
1.0
293
1
141
0.0
294
1
177
0
142
1.0
295
0
296
0
143
0.125
1001
ACAD_MLEADERVER
1070
2
0
MLINESTYLE
5
FAA
102
{ACAD_REACTORS
330
16
102
}
330
16
100
AcDbMlineStyle
2
STANDARD
70
0
3

62
256
51
90.0
52
90.0
71
2
49
0.5
62
256
6
BYLAYER
49
-0.5
62
256
6
BYLAYER
0
ACDBPLACEHOLDER
5
19
102
{ACAD_REACTORS
330
18
102
}
330
18
0
SCALE
5
FAC
102
{ACAD_REACTORS
330
FAB
102
}
330
FAB
100
AcDbScale
70
0
300
1:1
140
1.0
141
1.0
290
1
0
SCALE
5
FAD
102
{ACAD_REACTORS
330
FAB
102
}
330
FAB
100
AcDbScale
70
0
300
1:2
140
1.0
141
2.0
290
0
0
SCALE
5
FAE
102
{ACAD_REACTORS
330
FAB
102
}
330
FAB
100
AcDbScale
70
0
300
1:4
140
1.0
141
4.0
290
0
0
SCALE
5
FAF
102
{ACAD_REACTORS
330
FAB
102
}
330
FAB
100
AcDbScale
70
0
300
1:5
140
1.0
141
5.0
290
0
0
SCALE
5
FB0
102
{ACAD_REACTORS
330
FAB
102
}
330
FAB
100
AcDbScale
70
0
300
1:8
140
1.0
141
8.0
290
0
0
SCALE
5
FB1
102
{ACAD_REACTORS
330
FAB
102
}
330
FAB
100
AcDbScale
70
0
300
1:10
140
1.0
141
10.0
290
0
0
SCALE
5
FB2
102
{ACAD_REACTORS
330
FAB
102
}
330
FAB
100
AcDbScale
70
0
300
1:16
140
1.0
141
16.0
290
0
0
SCALE
5
FB3
102
{ACAD_REACTORS
330
FAB
102
}
330
FAB
100
AcDbScale
70
0
300
1:20
140
1.0
141
20.0
290
0
0
SCALE
5
FB4
102
{ACAD_REACTORS
330
FAB
102
}
330
FAB
100
AcDbScale
70
0
300
1:30
140
1.0
141
30.0
290
0
0
SCALE
5
FB5
102
{ACAD_REACTORS
330
FAB
102
}
330
FAB
100
AcDbScale
70
0
300
1:40
140
1.0
141
40.0
290
0
0
SCALE
5
FB6
102
{ACAD_REACTORS
330
FAB
102
}
330
FAB
100
AcDbScale
70
0
300
1:50
140
1.0
141
50.0
290
0
0
SCALE
5
FB7
102
{ACAD_REACTORS
330
FAB
102
}
330
FAB
100
AcDbScale
70
0
300
1:100
140
1.0
141
100.0
290
0
0
SCALE
5
FB8
102
{ACAD_REACTORS
330
FAB
102
}
330
FAB
100
AcDbScale
70
0
300
2:1
140
2.0
141
1.0
290
0
0
SCALE
5
FB9
102
{ACAD_REACTORS
330
FAB
102
}
330
FAB
100
AcDbScale
70
0
300
4:1
140
4.0
141
1.0
290
0
0
SCALE
5
FBA
102
{ACAD_REACTORS
330
FAB
102
}
330
FAB
100
AcDbScale
70
0
300
8:1
140
8.0
141
1.0
290
0
0
SCALE
5
FBB
102
{ACAD_REACTORS
330
FAB
102
}
330
FAB
100
AcDbScale
70
0
300
10:1
140
10.0
141
1.0
290
0
0
SCALE
5
FBC
102
{ACAD_REACTORS
330
FAB
102
}
330
FAB
100
AcDbScale
70
0
300
100:1
140
100.0
141
1.0
290
0
0
SCALE
5
FBD
102
{ACAD_REACTORS
330
FAB
102
}
330
FAB
100
AcDbScale
70
0
300
1/128" = 1'-0"
140
0.0078125
141
12.0
290
0
0
SCALE
5
FBE
102
{ACAD_REACTORS
330
FAB
102
}
330
FAB
100
AcDbScale
70
0
300
1/64" = 1'-0"
140
0.015625
141
12.0
290
0
0
SCALE
5
FBF
102
{ACAD_REACTORS
330
FAB
102
}
330
FAB
100
AcDbScale
70
0
300
1/32" = 1'-0"
140
0.03125
141
12.0
290
0
0
SCALE
5
FC0
102
{ACAD_REACTORS
330
FAB
102
}
330
FAB
100
AcDbScale
70
0
300
1/16" = 1'-0"
140
0.0625
141
12.0
290
0
0
SCALE
5
FC1
102
{ACAD_REACTORS
330
FAB
102
}
330
FAB
100
AcDbScale
70
0
300
3/32" = 1'-0"
140
0.09375
141
12.0
290
0
0
SCALE
5
FC2
102
{ACAD_REACTORS
330
FAB
102
}
330
FAB
100
AcDbScale
70
0
300
1/8" = 1'-0"
140
0.125
141
12.0
290
0
0
SCALE
5
FC3
102
{ACAD_REACTORS
330
FAB
102
}
330
FAB
100
AcDbScale
70
0
300
3/16" = 1'-0"
140
0.1875
141
12.0
290
0
0
SCALE
5
FC4
102
{ACAD_REACTORS
330
FAB
102
}
330
FAB
100
AcDbScale
70
0
300
1/4" = 1'-0"
140
0.25
141
12.0
290
0
0
SCALE
5
FC5
102
{ACAD_REACTORS
330
FAB
102
}
330
FAB
100
AcDbScale
70
0
300
3/8" = 1'-0"
140
0.375
141
12.0
290
0
0
SCALE
5
FC6
102
{ACAD_REACTORS
330
FAB
102
}
330
FAB
100
AcDbScale
70
0
300
1/2" = 1'-0"
140
0.5
141
12.0
290
0
0
SCALE
5
FC7
102
{ACAD_REACTORS
330
FAB
102
}
330
FAB
100
AcDbScale
70
0
300
3/4" = 1'-0"
140
0.75
141
12.0
290
0
0
SCALE
5
FC8
102
{ACAD_REACTORS
330
FAB
102
}
330
FAB
100
AcDbScale
70
0
300
1" = 1'-0"
140
1.0
141
12.0
290
0
0
SCALE
5
FC9
102
{ACAD_REACTORS
330
FAB
102
}
330
FAB
100
AcDbScale
70
0
300
1-1/2" = 1'-0"
140
1.5
141
12.0
290
0
0
SCALE
5
FCA
102
{ACAD_REACTORS
330
FAB
102
}
330
FAB
100
AcDbScale
70
0
300
3" = 1'-0"
140
3.0
141
12.0
290
0
0
SCALE
5
FCB
102
{ACAD_REACTORS
330
FAB
102
}
330
FAB
100
AcDbScale
70
0
300
6" = 1'-0"
140
6.0
141
12.0
290
0
0
SCALE
5
FCC
102
{ACAD_REACTORS
330
FAB
102
}
330
FAB
100
AcDbScale
70
0
300
1'-0" = 1'-0"
140
12.0
141
12.0
290
0
0
TABLESTYLE
5
FA9
102
{ACAD_XDICTIONARY
360
FF8
102
}
102
{ACAD_REACTORS
330
FA8
102
}
330
FA8
100
AcDbTableStyle
3
Standard
70
0
71
0
40
0.06
41
0.06
280
0
281
0
7
Standard
140
0.18
170
2
62
0
63
7
283
0
274
-2
284
1
64
0
275
-2
285
1
65
0
276
-2
286
1
66
0
277
-2
287
1
67
0
278
-2
288
1
68
0
279
-2
289
1
69
0
7
Standard
140
0.25
170
5
62
0
63
7
283
0
274
-2
284
1
64
0
275
-2
285
1
65
0
276
-2
286
1
66
0
277
-2
287
1
67
0
278
-2
288
1
68
0
279
-2
289
1
69
0
7
Standard
140
0.18
170
5
62
0
63
7
283
0
274
-2
284
1
64
0
275
-2
285
1
65
0
276
-2
286
1
66
0
277
-2
287
1
67
0
278
-2
288
1
68
0
279
-2
289
1
69
0
0
VISUALSTYLE
5
F99
102
{ACAD_XDICTIONARY
360
108A
102
}
102
{ACAD_REACTORS
330
F93
102
}
330
F93
100
AcDbVisualStyle
2

70
4
71
0
72
2
73
0
90
0
40
-0.6
41
-30.0
62
5
63
7
74
1
91
4
64
7
65
257
75
1
175
1
42
1.0
92
0
66
257
43
1.0
76
1
77
6
78
2
67
7
79
5
170
0
171
0
290
0
174
0
93
1
44
0.0
173
0
291
0
45
0.0
1001
ACAD
1000
AcDbSavedByObjectVersion
1070
0
0
VISUALSTYLE
5
F9B
102
{ACAD_XDICTIONARY
360
108E
102
}
102
{ACAD_REACTORS
330
F93
102
}
330
F93
100
AcDbVisualStyle
2

70
6
71
1
72
2
73
2
90
0
40
-0.6
41
-30.0
62
5
63
7
74
2
91
2
64
7
65
257
75
2
175
1
42
179.0
92
0
66
257
43
1.0
76
1
77
6
78
2
67
7
79
3
170
0
171
0
290
0
174
0
93
1
44
0.0
173
0
291
0
45
0.0
1001
ACAD
1000
AcDbSavedByObjectVersion
1070
0
0
VISUALSTYLE
5
F9A
102
{ACAD_XDICTIONARY
360
108C
102
}
102
{ACAD_REACTORS
330
F93
102
}
330
F93
100
AcDbVisualStyle
2

70
5
71
0
72
2
73
0
90
0
40
-0.6
41
-30.0
62
5
63
7
74
1
91
4
64
7
65
257
75
1
175
1
42
1.0
92
0
66
257
43
1.0
76
1
77
6
78
2
67
7
79
5
170
0
171
0
290
0
174
0
93
1
44
0.0
173
0
291
0
45
0.0
1001
ACAD
1000
AcDbSavedByObjectVersion
1070
0
0
VISUALSTYLE
5
F98
102
{ACAD_XDICTIONARY
360
1088
102
}
102
{ACAD_REACTORS
330
F93
102
}
330
F93
100
AcDbVisualStyle
2

70
7
71
1
72
0
73
1
90
0
40
-0.6
41
-30.0
62
5
63
7
74
0
91
4
64
7
65
257
75
1
175
1
42
1.0
92
8
66
7
43
1.0
76
1
77
6
78
2
67
7
79
5
170
0
171
0
290
0
174
0
93
1
44
0.0
173
0
291
1
45
0.0
1001
ACAD
1000
AcDbSavedByObjectVersion
1070
0
0
VISUALSTYLE
5
F9F
102
{ACAD_XDICTIONARY
360
1096
102
}
102
{ACAD_REACTORS
330
F93
102
}
330
F93
100
AcDbVisualStyle
2

70
12
71
2
72
2
73
0
90
0
40
-0.6
41
-30.0
62
5
63
7
74
1
91
4
64
7
65
257
75
1
175
1
42
1.0
92
8
66
7
43
1.0
76
1
77
6
78
2
67
7
79
5
170
0
171
0
290
0
174
0
93
1
44
50.0
173
0
291
1
45
0.0
1001
ACAD
1000
AcDbSavedByObjectVersion
1070
0
0
VISUALSTYLE
5
FA3
102
{ACAD_XDICTIONARY
360
109E
102
}
102
{ACAD_REACTORS
330
F93
102
}
330
F93
100
AcDbVisualStyle
2

70
16
71
2
72
2
73
3
90
0
40
-0.6
41
-30.0
62
5
63
8
74
1
91
4
64
7
65
257
75
1
175
1
42
1.0
92
8
66
8
43
1.0
76
1
77
6
78
2
67
7
79
5
170
0
171
0
290
0
174
0
93
1
44
0.0
173
0
291
1
45
0.0
1001
ACAD
1000
AcDbSavedByObjectVersion
1070
0
0
VISUALSTYLE
5
F9C
102
{ACAD_XDICTIONARY
360
1090
102
}
102
{ACAD_REACTORS
330
F93
102
}
330
F93
100
AcDbVisualStyle
2

70
9
71
3
72
2
73
0
90
0
40
-0.6
41
-30.0
62
5
63
7
74
2
91
2
64
7
65
257
75
1
175
1
42
179.0
92
8
66
7
43
1.0
76
1
77
6
78
2
67
7
79
3
170
0
171
0
290
0
174
0
93
1
44
0.0
173
0
291
0
45
0.0
1001
ACAD
1000
AcDbSavedByObjectVersion
1070
0
0
VISUALSTYLE
5
F9E
102
{ACAD_XDICTIONARY
360
1094
102
}
102
{ACAD_REACTORS
330
F93
102
}
330
F93
100
AcDbVisualStyle
2

70
11
71
2
72
2
73
0
90
0
40
-0.6
41
-30.0
62
5
63
7
74
1
91
4
64
7
65
257
75
1
175
1
42
1.0
92
8
66
7
43
1.0
76
1
77
6
78
2
67
7
79
5
170
0
171
0
290
0
174
0
93
1
44
-50.0
173
0
291
1
45
0.0
1001
ACAD
1000
AcDbSavedByObjectVersion
1070
0
0
VISUALSTYLE
5
FA6
102
{ACAD_XDICTIONARY
360
10A4
102
}
102
{ACAD_REACTORS
330
F93
102
}
330
F93
100
AcDbVisualStyle
2

70
22
71
2
72
2
73
0
90
0
40
-0.6
41
-30.0
62
5
63
7
74
1
91
4
64
7
65
257
75
1
175
1
42
1.0
92
8
66
7
43
1.0
76
1
77
6
78
2
67
7
79
5
170
0
171
0
290
0
174
0
93
1
44
0.0
173
0
291
1
45
0.0
1001
ACAD
1000
AcDbSavedByObjectVersion
1070
0
0
VISUALSTYLE
5
FA2
102
{ACAD_XDICTIONARY
360
109C
102
}
102
{ACAD_REACTORS
330
F93
102
}
330
F93
100
AcDbVisualStyle
2

70
15
71
2
72
2
73
0
90
0
40
-0.6
41
-30.0
62
5
63
7
74
1
91
4
64
7
65
257
75
1
175
1
42
1.0
92
8
66
7
43
1.0
76
1
77
6
78
2
67
7
79
5
170
0
171
0
290
0
174
0
93
1
44
0.0
173
0
291
1
45
0.0
1001
ACAD
1000
AcDbSavedByObjectVersion
1070
0
0
VISUALSTYLE
5
F94
102
{ACAD_XDICTIONARY
360
1080
102
}
102
{ACAD_REACTORS
330
F93
102
}
330
F93
100
AcDbVisualStyle
2

70
0
71
2
72
1
73
1
90
2
40
-0.6
41
30.0
62
5
63
7
74
0
91
4
64
7
65
257
75
1
175
1
42
1.0
92
8
66
7
43
1.0
76
1
77
6
78
2
67
7
79
5
170
0
171
0
290
0
174
0
93
13
44
0.0
173
0
291
1
45
0.0
1001
ACAD
1000
AcDbSavedByObjectVersion
1070
0
0
VISUALSTYLE
5
F95
102
{ACAD_XDICTIONARY
360
1082
102
}
102
{ACAD_REACTORS
330
F93
102
}
330
F93
100
AcDbVisualStyle
2

70
1
71
2
72
1
73
1
90
2
40
-0.6
41
30.0
62
5
63
7
74
1
91
4
64
7
65
257
75
1
175
1
42
1.0
92
0
66
257
43
1.0
76
1
77
6
78
2
67
7
79
5
170
0
171
0
290
0
174
0
93
13
44
0.0
173
0
291
1
45
0.0
1001
ACAD
1000
AcDbSavedByObjectVersion
1070
0
0
VISUALSTYLE
5
F96
102
{ACAD_XDICTIONARY
360
1084
102
}
102
{ACAD_REACTORS
330
F93
102
}
330
F93
100
AcDbVisualStyle
2

70
2
71
2
72
2
73
1
90
2
40
-0.6
41
30.0
62
5
63
7
74
0
91
4
64
7
65
257
75
1
175
1
42
1.0
92
0
66
7
43
1.0
76
1
77
6
78
2
67
7
79
5
170
0
171
0
290
0
174
0
93
13
44
0.0
173
0
291
1
45
0.0
1001
ACAD
1000
AcDbSavedByObjectVersion
1070
0
0
VISUALSTYLE
5
F97
102
{ACAD_XDICTIONARY
360
1086
102
}
102
{ACAD_REACTORS
330
F93
102
}
330
F93
100
AcDbVisualStyle
2

70
3
71
2
72
2
73
1
90
2
40
-0.6
41
30.0
62
5
63
7
74
1
91
4
64
7
65
257
75
1
175
1
42
1.0
92
0
66
257
43
1.0
76
1
77
6
78
2
67
7
79
5
170
0
171
0
290
0
174
0
93
13
44
0.0
173
0
291
1
45
0.0
1001
ACAD
1000
AcDbSavedByObjectVersion
1070
0
0
VISUALSTYLE
5
FA4
102
{ACAD_XDICTIONARY
360
10A0
102
}
102
{ACAD_REACTORS
330
F93
102
}
330
F93
100
AcDbVisualStyle
2

70
20
71
2
72
2
73
0
90
0
40
-0.6
41
-30.0
62
5
63
7
74
1
91
4
64
7
65
257
75
1
175
1
42
1.0
92
10
66
7
43
1.0
76
1
77
6
78
2
67
7
79
5
170
0
171
0
290
0
174
0
93
1
44
0.0
173
0
291
1
45
0.0
1001
ACAD
1000
AcDbSavedByObjectVersion
1070
0
0
VISUALSTYLE
5
FA1
102
{ACAD_XDICTIONARY
360
109A
102
}
102
{ACAD_REACTORS
330
F93
102
}
330
F93
100
AcDbVisualStyle
2

70
14
71
2
72
2
73
0
90
0
40
-0.6
41
-30.0
62
5
63
7
74
1
91
4
64
7
65
257
75
7
175
7
42
1.0
92
8
66
7
43
1.0
76
1
77
6
78
2
67
7
79
5
170
0
171
0
290
0
174
0
93
1
44
0.0
173
0
291
1
45
0.0
1001
ACAD
1000
AcDbSavedByObjectVersion
1070
0
0
VISUALSTYLE
5
FA5
102
{ACAD_XDICTIONARY
360
10A2
102
}
102
{ACAD_REACTORS
330
F93
102
}
330
F93
100
AcDbVisualStyle
2

70
21
71
2
72
2
73
0
90
0
40
-0.6
41
-30.0
62
5
63
7
74
1
91
4
64
7
65
257
75
1
175
1
42
1.0
92
9
66
7
43
1.0
76
1
77
6
78
2
67
7
79
5
170
0
171
0
290
0
174
0
93
1
44
0.0
173
0
291
1
45
0.0
1001
ACAD
1000
AcDbSavedByObjectVersion
1070
0
0
VISUALSTYLE
5
F9D
102
{ACAD_XDICTIONARY
360
1092
102
}
102
{ACAD_REACTORS
330
F93
102
}
330
F93
100
AcDbVisualStyle
2

70
8
71
2
72
2
73
0
90
0
40
-0.6
41
-30.0
62
5
63
7
74
1
91
0
64
7
65
257
75
1
175
1
42
1.0
92
8
66
8
43
1.0
76
1
77
6
78
2
67
7
79
5
170
0
171
0
290
0
174
0
93
13
44
0.0
173
0
291
0
45
0.0
1001
ACAD
1000
AcDbSavedByObjectVersion
1070
0
0
VISUALSTYLE
5
FA0
102
{ACAD_XDICTIONARY
360
1098
102
}
102
{ACAD_REACTORS
330
F93
102
}
330
F93
100
AcDbVisualStyle
2

70
13
71
2
72
2
73
0
90
0
40
-0.6
41
-30.0
62
5
63
7
74
1
91
4
64
7
65
257
75
1
175
1
42
1.0
92
12
66
7
43
1.0
76
1
77
6
78
2
67
7
79
5
170
0
171
0
290
0
174
0
93
1
44
0.0
173
0
291
1
45
0.0
1001
ACAD
1000
AcDbSavedByObjectVersion
1070
0
0
DICTIONARYVAR
5
FF3
102
{ACAD_REACTORS
330
FF0
102
}
330
FF0
100
DictionaryVariables
280
0
1
1:1
0
DICTIONARYVAR
5
FF2
102
{ACAD_REACTORS
330
FF0
102
}
330
FF0
100
DictionaryVariables
280
0
1
STANDARD
0
DICTIONARYVAR
5
FF1
102
{ACAD_REACTORS
330
FF0
102
}
330
FF0
100
DictionaryVariables
280
0
1
STANDARD
0
DICTIONARYVAR
5
FF6
102
{ACAD_REACTORS
330
FF0
102
}
330
FF0
100
DictionaryVariables
280
0
1
1
0
DICTIONARYVAR
5
FF5
102
{ACAD_REACTORS
330
FF0
102
}
330
FF0
100
DictionaryVariables
280
0
1
0
0
DICTIONARYVAR
5
FF4
102
{ACAD_REACTORS
330
FF0
102
}
330
FF0
100
DictionaryVariables
280
0
1
127
0
DICTIONARYVAR
5
1078
102
{ACAD_REACTORS
330
FF0
102
}
330
FF0
100
DictionaryVariables
280
0
1
2
0
DICTIONARY
5
10A9
330
FD1
100
AcDbDictionary
280
1
281
1
3
ACAD_XREC_ROUNDTRIP
360
10AA
0
DICTIONARY
5
10A7
330
FD0
100
AcDbDictionary
280
1
281
1
3
ACAD_XREC_ROUNDTRIP
360
10A8
0
DICTIONARY
5
F84
330
F83
100
AcDbDictionary
280
1
281
1
3
ACAD_XREC_ROUNDTRIP
360
FFF
3
BUMPTILE
360
F86
3
DIFFUSETILE
360
F85
3
OPACITYTILE
360
F89
3
REFLECTIONTILE
360
F88
3
REFRACTIONTILE
360
F8A
3
SPECULARTILE
360
F87
0
DICTIONARY
5
F7C
330
F7B
100
AcDbDictionary
280
1
281
1
3
ACAD_XREC_ROUNDTRIP
360
FFE
3
BUMPTILE
360
F7E
3
DIFFUSETILE
360
F7D
3
OPACITYTILE
360
F81
3
REFLECTIONTILE
360
F80
3
REFRACTIONTILE
360
F82
3
SPECULARTILE
360
F7F
0
DICTIONARY
5
F8C
330
F8B
100
AcDbDictionary
280
1
281
1
3
ACAD_XREC_ROUNDTRIP
360
1000
3
BUMPTILE
360
F8E
3
DIFFUSETILE
360
F8D
3
OPACITYTILE
360
F91
3
REFLECTIONTILE
360
F90
3
REFRACTIONTILE
360
F92
3
SPECULARTILE
360
F8F
0
DICTIONARY
5
FF8
330
FA9
100
AcDbDictionary
280
1
281
1
3
ACAD_ROUNDTRIP_2008_TABLESTYLE_CELLSTYLEMAP
360
1079
3
ACAD_XREC_ROUNDTRIP
360
10A6
0
DICTIONARY
5
108A
330
F99
100
AcDbDictionary
280
1
281
1
3
ACAD_XREC_ROUNDTRIP
360
108B
0
DICTIONARY
5
108E
330
F9B
100
AcDbDictionary
280
1
281
1
3
ACAD_XREC_ROUNDTRIP
360
108F
0
DICTIONARY
5
108C
330
F9A
100
AcDbDictionary
280
1
281
1
3
ACAD_XREC_ROUNDTRIP
360
108D
0
DICTIONARY
5
1088
330
F98
100
AcDbDictionary
280
1
281
1
3
ACAD_XREC_ROUNDTRIP
360
1089
0
DICTIONARY
5
1096
330
F9F
100
AcDbDictionary
280
1
281
1
3
ACAD_XREC_ROUNDTRIP
360
1097
0
DICTIONARY
5
109E
330
FA3
100
AcDbDictionary
280
1
281
1
3
ACAD_XREC_ROUNDTRIP
360
109F
0
DICTIONARY
5
1090
330
F9C
100
AcDbDictionary
280
1
281
1
3
ACAD_XREC_ROUNDTRIP
360
1091
0
DICTIONARY
5
1094
330
F9E
100
AcDbDictionary
280
1
281
1
3
ACAD_XREC_ROUNDTRIP
360
1095
0
DICTIONARY
5
10A4
330
FA6
100
AcDbDictionary
280
1
281
1
3
ACAD_XREC_ROUNDTRIP
360
10A5
0
DICTIONARY
5
109C
330
FA2
100
AcDbDictionary
280
1
281
1
3
ACAD_XREC_ROUNDTRIP
360
109D
0
DICTIONARY
5
1080
330
F94
100
AcDbDictionary
280
1
281
1
3
ACAD_XREC_ROUNDTRIP
360
1081
0
DICTIONARY
5
1082
330
F95
100
AcDbDictionary
280
1
281
1
3
ACAD_XREC_ROUNDTRIP
360
1083
0
DICTIONARY
5
1084
330
F96
100
AcDbDictionary
280
1
281
1
3
ACAD_XREC_ROUNDTRIP
360
1085
0
DICTIONARY
5
1086
330
F97
100
AcDbDictionary
280
1
281
1
3
ACAD_XREC_ROUNDTRIP
360
1087
0
DICTIONARY
5
10A0
330
FA4
100
AcDbDictionary
280
1
281
1
3
ACAD_XREC_ROUNDTRIP
360
10A1
0
DICTIONARY
5
109A
330
FA1
100
AcDbDictionary
280
1
281
1
3
ACAD_XREC_ROUNDTRIP
360
109B
0
DICTIONARY
5
10A2
330
FA5
100
AcDbDictionary
280
1
281
1
3
ACAD_XREC_ROUNDTRIP
360
10A3
0
DICTIONARY
5
1092
330
F9D
100
AcDbDictionary
280
1
281
1
3
ACAD_XREC_ROUNDTRIP
360
1093
0
DICTIONARY
5
1098
330
FA0
100
AcDbDictionary
280
1
281
1
3
ACAD_XREC_ROUNDTRIP
360
1099
0
XRECORD
5
10AA
102
{ACAD_REACTORS
330
10A9
102
}
330
10A9
100
AcDbXrecord
280
1
102
SHADEPLOT
70
0
102
SHADEPLOTRESLEVEL
70
2
102
SHADEPLOTCUSTOMDPI
70
300
0
XRECORD
5
10A8
102
{ACAD_REACTORS
330
10A7
102
}
330
10A7
100
AcDbXrecord
280
1
102
SHADEPLOT
70
0
102
SHADEPLOTRESLEVEL
70
2
102
SHADEPLOTCUSTOMDPI
70
300
0
XRECORD
5
FFF
102
{ACAD_REACTORS
330
F84
102
}
330
F84
100
AcDbXrecord
280
1
102
MATERIAL
148
0.0
149
0.0
149
0.0
93
0
94
127
282
0
72
0
77
0
171
0
175
0
179
0
273
0
0
XRECORD
5
F86
102
{ACAD_REACTORS
330
F84
102
}
330
F84
100
AcDbXrecord
280
1
270
1
271
1
0
XRECORD
5
F85
102
{ACAD_REACTORS
330
F84
102
}
330
F84
100
AcDbXrecord
280
1
270
1
271
1
0
XRECORD
5
F89
102
{ACAD_REACTORS
330
F84
102
}
330
F84
100
AcDbXrecord
280
1
270
1
271
1
0
XRECORD
5
F88
102
{ACAD_REACTORS
330
F84
102
}
330
F84
100
AcDbXrecord
280
1
270
1
271
1
0
XRECORD
5
F8A
102
{ACAD_REACTORS
330
F84
102
}
330
F84
100
AcDbXrecord
280
1
270
1
271
1
0
XRECORD
5
F87
102
{ACAD_REACTORS
330
F84
102
}
330
F84
100
AcDbXrecord
280
1
270
1
271
1
0
XRECORD
5
FFE
102
{ACAD_REACTORS
330
F7C
102
}
330
F7C
100
AcDbXrecord
280
1
102
MATERIAL
148
0.0
149
0.0
149
0.0
93
0
94
127
282
0
72
0
77
0
171
0
175
0
179
0
273
0
0
XRECORD
5
F7E
102
{ACAD_REACTORS
330
F7C
102
}
330
F7C
100
AcDbXrecord
280
1
270
1
271
1
0
XRECORD
5
F7D
102
{ACAD_REACTORS
330
F7C
102
}
330
F7C
100
AcDbXrecord
280
1
270
1
271
1
0
XRECORD
5
F81
102
{ACAD_REACTORS
330
F7C
102
}
330
F7C
100
AcDbXrecord
280
1
270
1
271
1
0
XRECORD
5
F80
102
{ACAD_REACTORS
330
F7C
102
}
330
F7C
100
AcDbXrecord
280
1
270
1
271
1
0
XRECORD
5
F82
102
{ACAD_REACTORS
330
F7C
102
}
330
F7C
100
AcDbXrecord
280
1
270
1
271
1
0
XRECORD
5
F7F
102
{ACAD_REACTORS
330
F7C
102
}
330
F7C
100
AcDbXrecord
280
1
270
1
271
1
0
XRECORD
5
1000
102
{ACAD_REACTORS
330
F8C
102
}
330
F8C
100
AcDbXrecord
280
1
102
MATERIAL
148
0.0
149
0.0
149
0.0
93
0
94
127
282
0
72
0
77
0
171
0
175
0
179
0
273
0
0
XRECORD
5
F8E
102
{ACAD_REACTORS
330
F8C
102
}
330
F8C
100
AcDbXrecord
280
1
270
1
271
1
0
XRECORD
5
F8D
102
{ACAD_REACTORS
330
F8C
102
}
330
F8C
100
AcDbXrecord
280
1
270
1
271
1
0
XRECORD
5
F91
102
{ACAD_REACTORS
330
F8C
102
}
330
F8C
100
AcDbXrecord
280
1
270
1
271
1
0
XRECORD
5
F90
102
{ACAD_REACTORS
330
F8C
102
}
330
F8C
100
AcDbXrecord
280
1
270
1
271
1
0
XRECORD
5
F92
102
{ACAD_REACTORS
330
F8C
102
}
330
F8C
100
AcDbXrecord
280
1
270
1
271
1
0
XRECORD
5
F8F
102
{ACAD_REACTORS
330
F8C
102
}
330
F8C
100
AcDbXrecord
280
1
270
1
271
1
0
CELLSTYLEMAP
5
1079
102
{ACAD_REACTORS
330
FF8
102
}
330
FF8
100
AcDbCellStyleMap
90
3
300
CELLSTYLE
1
TABLEFORMAT_BEGIN
90
5
170
1
91
0
92
32768
62
257
93
1
300
CONTENTFORMAT
1
CONTENTFORMAT_BEGIN
90
0
91
0
92
512
93
0
300

40
0.0
140
1.0
94
5
62
0
340
253
144
0.25
309
CONTENTFORMAT_END
171
1
301
MARGIN
1
CELLMARGIN_BEGIN
40
0.06
40
0.06
40
0.06
40
0.06
40
0.18
40
0.18
309
CELLMARGIN_END
94
6
95
1
302
GRIDFORMAT
1
GRIDFORMAT_BEGIN
90
0
91
1
62
0
92
-2
340
0
93
0
40
0.045
309
GRIDFORMAT_END
95
2
302
GRIDFORMAT
1
GRIDFORMAT_BEGIN
90
0
91
1
62
0
92
-2
340
0
93
0
40
0.045
309
GRIDFORMAT_END
95
4
302
GRIDFORMAT
1
GRIDFORMAT_BEGIN
90
0
91
1
62
0
92
-2
340
0
93
0
40
0.045
309
GRIDFORMAT_END
95
8
302
GRIDFORMAT
1
GRIDFORMAT_BEGIN
90
0
91
1
62
0
92
-2
340
0
93
0
40
0.045
309
GRIDFORMAT_END
95
16
302
GRIDFORMAT
1
GRIDFORMAT_BEGIN
90
0
91
1
62
0
92
-2
340
0
93
0
40
0.045
309
GRIDFORMAT_END
95
32
302
GRIDFORMAT
1
GRIDFORMAT_BEGIN
90
0
91
1
62
0
92
-2
340
0
93
0
40
0.045
309
GRIDFORMAT_END
309
TABLEFORMAT_END
1
CELLSTYLE_BEGIN
90
1
91
1
300
_TITLE
309
CELLSTYLE_END
300
CELLSTYLE
1
TABLEFORMAT_BEGIN
90
5
170
1
91
0
92
0
62
257
93
1
300
CONTENTFORMAT
1
CONTENTFORMAT_BEGIN
90
0
91
0
92
512
93
0
300

40
0.0
140
1.0
94
5
62
0
340
253
144
0.18
309
CONTENTFORMAT_END
171
1
301
MARGIN
1
CELLMARGIN_BEGIN
40
0.06
40
0.06
40
0.06
40
0.06
40
0.18
40
0.18
309
CELLMARGIN_END
94
6
95
1
302
GRIDFORMAT
1
GRIDFORMAT_BEGIN
90
0
91
1
62
0
92
-2
340
0
93
0
40
0.045
309
GRIDFORMAT_END
95
2
302
GRIDFORMAT
1
GRIDFORMAT_BEGIN
90
0
91
1
62
0
92
-2
340
0
93
0
40
0.045
309
GRIDFORMAT_END
95
4
302
GRIDFORMAT
1
GRIDFORMAT_BEGIN
90
0
91
1
62
0
92
-2
340
0
93
0
40
0.045
309
GRIDFORMAT_END
95
8
302
GRIDFORMAT
1
GRIDFORMAT_BEGIN
90
0
91
1
62
0
92
-2
340
0
93
0
40
0.045
309
GRIDFORMAT_END
95
16
302
GRIDFORMAT
1
GRIDFORMAT_BEGIN
90
0
91
1
62
0
92
-2
340
0
93
0
40
0.045
309
GRIDFORMAT_END
95
32
302
GRIDFORMAT
1
GRIDFORMAT_BEGIN
90
0
91
1
62
0
92
-2
340
0
93
0
40
0.045
309
GRIDFORMAT_END
309
TABLEFORMAT_END
1
CELLSTYLE_BEGIN
90
2
91
1
300
_HEADER
309
CELLSTYLE_END
300
CELLSTYLE
1
TABLEFORMAT_BEGIN
90
5
170
1
91
0
92
0
62
257
93
1
300
CONTENTFORMAT
1
CONTENTFORMAT_BEGIN
90
0
91
0
92
512
93
0
300

40
0.0
140
1.0
94
2
62
0
340
253
144
0.18
309
CONTENTFORMAT_END
171
1
301
MARGIN
1
CELLMARGIN_BEGIN
40
0.06
40
0.06
40
0.06
40
0.06
40
0.18
40
0.18
309
CELLMARGIN_END
94
6
95
1
302
GRIDFORMAT
1
GRIDFORMAT_BEGIN
90
0
91
1
62
0
92
-2
340
0
93
0
40
0.045
309
GRIDFORMAT_END
95
2
302
GRIDFORMAT
1
GRIDFORMAT_BEGIN
90
0
91
1
62
0
92
-2
340
0
93
0
40
0.045
309
GRIDFORMAT_END
95
4
302
GRIDFORMAT
1
GRIDFORMAT_BEGIN
90
0
91
1
62
0
92
-2
340
0
93
0
40
0.045
309
GRIDFORMAT_END
95
8
302
GRIDFORMAT
1
GRIDFORMAT_BEGIN
90
0
91
1
62
0
92
-2
340
0
93
0
40
0.045
309
GRIDFORMAT_END
95
16
302
GRIDFORMAT
1
GRIDFORMAT_BEGIN
90
0
91
1
62
0
92
-2
340
0
93
0
40
0.045
309
GRIDFORMAT_END
95
32
302
GRIDFORMAT
1
GRIDFORMAT_BEGIN
90
0
91
1
62
0
92
-2
340
0
93
0
40
0.045
309
GRIDFORMAT_END
309
TABLEFORMAT_END
1
CELLSTYLE_BEGIN
90
3
91
2
300
_DATA
309
CELLSTYLE_END
0
XRECORD
5
10A6
102
{ACAD_REACTORS
330
FF8
102
}
330
FF8
100
AcDbXrecord
280
1
102
ACAD_ROUNDTRIP_PRE2007_TABLESTYLE
90
512
91
0
1

92
512
93
0
2

94
512
95
0
3

0
XRECORD
5
108B
102
{ACAD_REACTORS
330
108A
102
}
330
108A
100
AcDbXrecord
280
1
102
RTVSPropertyOp0
70
1
102
RTVSPropertyOp1
70
1
102
RTVSPropertyOp2
70
1
102
RTVSPropertyOp3
70
1
102
RTVSPropertyOp4
70
1
102
RTVSPropertyOp5
70
1
102
RTVSPropertyOp6
70
1
102
RTVSPropertyOp7
70
1
102
RTVSPropertyOp8
70
1
102
RTVSPropertyOp9
70
1
102
RTVSPropertyOp10
70
1
102
RTVSPropertyOp11
70
1
102
RTVSPropertyOp12
70
1
102
RTVSPropertyOp13
70
1
102
RTVSPropertyOp14
70
1
102
RTVSPropertyOp15
70
1
102
RTVSPropertyOp16
70
1
102
RTVSPropertyOp17
70
1
102
RTVSPropertyOp18
70
1
102
RTVSPropertyOp19
70
1
102
RTVSPropertyOp20
70
1
102
RTVSPropertyOp21
70
1
102
RTVSPropertyOp22
70
1
102
RTVSPropertyOp23
70
1
102
RTVSPropertyOp24
70
1
102
RTVSPropertyOp25
70
1
102
RTVSPropertyOp26
70
1
102
RTVSPropertyOp27
70
1
0
XRECORD
5
108F
102
{ACAD_REACTORS
330
108E
102
}
330
108E
100
AcDbXrecord
280
1
102
RTVSPropertyOp0
70
1
102
RTVSPropertyOp1
70
1
102
RTVSPropertyOp2
70
1
102
RTVSPropertyOp3
70
1
102
RTVSPropertyOp4
70
1
102
RTVSPropertyOp5
70
1
102
RTVSPropertyOp6
70
1
102
RTVSPropertyOp7
70
1
102
RTVSPropertyOp8
70
1
102
RTVSPropertyOp9
70
1
102
RTVSPropertyOp10
70
1
102
RTVSPropertyOp11
70
1
102
RTVSPropertyOp12
70
1
102
RTVSPropertyOp13
70
1
102
RTVSPropertyOp14
70
1
102
RTVSPropertyOp15
70
1
102
RTVSPropertyOp16
70
1
102
RTVSPropertyOp17
70
1
102
RTVSPropertyOp18
70
1
102
RTVSPropertyOp19
70
1
102
RTVSPropertyOp20
70
1
102
RTVSPropertyOp21
70
1
102
RTVSPropertyOp22
70
1
102
RTVSPropertyOp23
70
1
102
RTVSPropertyOp24
70
1
102
RTVSPropertyOp25
70
1
102
RTVSPropertyOp26
70
1
102
RTVSPropertyOp27
70
1
0
XRECORD
5
108D
102
{ACAD_REACTORS
330
108C
102
}
330
108C
100
AcDbXrecord
280
1
102
RTVSPropertyOp0
70
1
102
RTVSPropertyOp1
70
1
102
RTVSPropertyOp2
70
1
102
RTVSPropertyOp3
70
1
102
RTVSPropertyOp4
70
1
102
RTVSPropertyOp5
70
1
102
RTVSPropertyOp6
70
1
102
RTVSPropertyOp7
70
1
102
RTVSPropertyOp8
70
1
102
RTVSPropertyOp9
70
1
102
RTVSPropertyOp10
70
1
102
RTVSPropertyOp11
70
1
102
RTVSPropertyOp12
70
1
102
RTVSPropertyOp13
70
1
102
RTVSPropertyOp14
70
1
102
RTVSPropertyOp15
70
1
102
RTVSPropertyOp16
70
1
102
RTVSPropertyOp17
70
1
102
RTVSPropertyOp18
70
1
102
RTVSPropertyOp19
70
1
102
RTVSPropertyOp20
70
1
102
RTVSPropertyOp21
70
1
102
RTVSPropertyOp22
70
1
102
RTVSPropertyOp23
70
1
102
RTVSPropertyOp24
70
1
102
RTVSPropertyOp25
70
1
102
RTVSPropertyOp26
70
1
102
RTVSPropertyOp27
70
1
0
XRECORD
5
1089
102
{ACAD_REACTORS
330
1088
102
}
330
1088
100
AcDbXrecord
280
1
102
RTVSPropertyOp0
70
1
102
RTVSPropertyOp1
70
1
102
RTVSPropertyOp2
70
1
102
RTVSPropertyOp3
70
1
102
RTVSPropertyOp4
70
1
102
RTVSPropertyOp5
70
1
102
RTVSPropertyOp6
70
1
102
RTVSPropertyOp7
70
1
102
RTVSPropertyOp8
70
1
102
RTVSPropertyOp9
70
1
102
RTVSPropertyOp10
70
1
102
RTVSPropertyOp11
70
1
102
RTVSPropertyOp12
70
1
102
RTVSPropertyOp13
70
1
102
RTVSPropertyOp14
70
1
102
RTVSPropertyOp15
70
1
102
RTVSPropertyOp16
70
1
102
RTVSPropertyOp17
70
1
102
RTVSPropertyOp18
70
1
102
RTVSPropertyOp19
70
1
102
RTVSPropertyOp20
70
1
102
RTVSPropertyOp21
70
1
102
RTVSPropertyOp22
70
1
102
RTVSPropertyOp23
70
1
102
RTVSPropertyOp24
70
1
102
RTVSPropertyOp25
70
1
102
RTVSPropertyOp26
70
1
102
RTVSPropertyOp27
70
1
0
XRECORD
5
1097
102
{ACAD_REACTORS
330
1096
102
}
330
1096
100
AcDbXrecord
280
1
102
RTVSPropertyOp0
70
1
102
RTVSPropertyOp1
70
1
102
RTVSPropertyOp2
70
1
102
RTVSPropertyOp3
70
1
102
RTVSPropertyOp4
70
1
102
RTVSPropertyOp5
70
1
102
RTVSPropertyOp6
70
1
102
RTVSPropertyOp7
70
1
102
RTVSPropertyOp8
70
1
102
RTVSPropertyOp9
70
1
102
RTVSPropertyOp10
70
1
102
RTVSPropertyOp11
70
1
102
RTVSPropertyOp12
70
1
102
RTVSPropertyOp13
70
1
102
RTVSPropertyOp14
70
1
102
RTVSPropertyOp15
70
1
102
RTVSPropertyOp16
70
1
102
RTVSPropertyOp17
70
1
102
RTVSPropertyOp18
70
1
102
RTVSPropertyOp19
70
1
102
RTVSPropertyOp20
70
1
102
RTVSPropertyOp21
70
1
102
RTVSPropertyOp22
70
1
102
RTVSPropertyOp23
70
1
102
RTVSPropertyOp24
70
1
102
RTVSPropertyOp25
70
1
102
RTVSPropertyOp26
70
1
102
RTVSPropertyOp27
70
1
0
XRECORD
5
109F
102
{ACAD_REACTORS
330
109E
102
}
330
109E
100
AcDbXrecord
280
1
102
RTVSPropertyOp0
70
1
102
RTVSPropertyOp1
70
1
102
RTVSPropertyOp2
70
1
102
RTVSPropertyOp3
70
1
102
RTVSPropertyOp4
70
1
102
RTVSPropertyOp5
70
1
102
RTVSPropertyOp6
70
1
102
RTVSPropertyOp7
70
1
102
RTVSPropertyOp8
70
1
102
RTVSPropertyOp9
70
1
102
RTVSPropertyOp10
70
1
102
RTVSPropertyOp11
70
1
102
RTVSPropertyOp12
70
1
102
RTVSPropertyOp13
70
1
102
RTVSPropertyOp14
70
1
102
RTVSPropertyOp15
70
1
102
RTVSPropertyOp16
70
1
102
RTVSPropertyOp17
70
1
102
RTVSPropertyOp18
70
1
102
RTVSPropertyOp19
70
1
102
RTVSPropertyOp20
70
1
102
RTVSPropertyOp21
70
1
102
RTVSPropertyOp22
70
1
102
RTVSPropertyOp23
70
1
102
RTVSPropertyOp24
70
1
102
RTVSPropertyOp25
70
1
102
RTVSPropertyOp26
70
1
102
RTVSPropertyOp27
70
1
0
XRECORD
5
1091
102
{ACAD_REACTORS
330
1090
102
}
330
1090
100
AcDbXrecord
280
1
102
RTVSPropertyOp0
70
1
102
RTVSPropertyOp1
70
1
102
RTVSPropertyOp2
70
1
102
RTVSPropertyOp3
70
1
102
RTVSPropertyOp4
70
1
102
RTVSPropertyOp5
70
1
102
RTVSPropertyOp6
70
1
102
RTVSPropertyOp7
70
1
102
RTVSPropertyOp8
70
1
102
RTVSPropertyOp9
70
1
102
RTVSPropertyOp10
70
1
102
RTVSPropertyOp11
70
1
102
RTVSPropertyOp12
70
1
102
RTVSPropertyOp13
70
1
102
RTVSPropertyOp14
70
1
102
RTVSPropertyOp15
70
1
102
RTVSPropertyOp16
70
1
102
RTVSPropertyOp17
70
1
102
RTVSPropertyOp18
70
1
102
RTVSPropertyOp19
70
1
102
RTVSPropertyOp20
70
1
102
RTVSPropertyOp21
70
1
102
RTVSPropertyOp22
70
1
102
RTVSPropertyOp23
70
1
102
RTVSPropertyOp24
70
1
102
RTVSPropertyOp25
70
1
102
RTVSPropertyOp26
70
1
102
RTVSPropertyOp27
70
1
0
XRECORD
5
1095
102
{ACAD_REACTORS
330
1094
102
}
330
1094
100
AcDbXrecord
280
1
102
RTVSPropertyOp0
70
1
102
RTVSPropertyOp1
70
1
102
RTVSPropertyOp2
70
1
102
RTVSPropertyOp3
70
1
102
RTVSPropertyOp4
70
1
102
RTVSPropertyOp5
70
1
102
RTVSPropertyOp6
70
1
102
RTVSPropertyOp7
70
1
102
RTVSPropertyOp8
70
1
102
RTVSPropertyOp9
70
1
102
RTVSPropertyOp10
70
1
102
RTVSPropertyOp11
70
1
102
RTVSPropertyOp12
70
1
102
RTVSPropertyOp13
70
1
102
RTVSPropertyOp14
70
1
102
RTVSPropertyOp15
70
1
102
RTVSPropertyOp16
70
1
102
RTVSPropertyOp17
70
1
102
RTVSPropertyOp18
70
1
102
RTVSPropertyOp19
70
1
102
RTVSPropertyOp20
70
1
102
RTVSPropertyOp21
70
1
102
RTVSPropertyOp22
70
1
102
RTVSPropertyOp23
70
1
102
RTVSPropertyOp24
70
1
102
RTVSPropertyOp25
70
1
102
RTVSPropertyOp26
70
1
102
RTVSPropertyOp27
70
1
0
XRECORD
5
10A5
102
{ACAD_REACTORS
330
10A4
102
}
330
10A4
100
AcDbXrecord
280
1
102
RTVSPropertyOp0
70
0
102
RTVSPropertyOp1
70
0
102
RTVSPropertyOp2
70
0
102
RTVSPropertyOp3
70
0
102
RTVSPropertyOp4
70
0
102
RTVSPropertyOp5
70
0
102
RTVSPropertyOp6
70
0
102
RTVSPropertyOp7
70
0
102
RTVSPropertyOp8
70
0
102
RTVSPropertyOp9
70
0
102
RTVSPropertyOp10
70
0
102
RTVSPropertyOp11
70
0
102
RTVSPropertyOp12
70
0
102
RTVSPropertyOp13
70
0
102
RTVSPropertyOp14
70
2
102
RTVSPropertyOp15
70
0
102
RTVSPropertyOp16
70
0
102
RTVSPropertyOp17
70
0
102
RTVSPropertyOp18
70
0
102
RTVSPropertyOp19
70
0
102
RTVSPropertyOp20
70
0
102
RTVSPropertyOp21
70
0
102
RTVSPropertyOp22
70
0
102
RTVSPropertyOp23
70
0
102
RTVSPropertyOp24
70
0
102
RTVSPropertyOp25
70
0
102
RTVSPropertyOp26
70
0
102
RTVSPropertyOp27
70
0
0
XRECORD
5
109D
102
{ACAD_REACTORS
330
109C
102
}
330
109C
100
AcDbXrecord
280
1
102
RTVSPropertyOp0
70
1
102
RTVSPropertyOp1
70
1
102
RTVSPropertyOp2
70
1
102
RTVSPropertyOp3
70
1
102
RTVSPropertyOp4
70
1
102
RTVSPropertyOp5
70
1
102
RTVSPropertyOp6
70
1
102
RTVSPropertyOp7
70
1
102
RTVSPropertyOp8
70
1
102
RTVSPropertyOp9
70
1
102
RTVSPropertyOp10
70
1
102
RTVSPropertyOp11
70
1
102
RTVSPropertyOp12
70
1
102
RTVSPropertyOp13
70
1
102
RTVSPropertyOp14
70
1
102
RTVSPropertyOp15
70
1
102
RTVSPropertyOp16
70
1
102
RTVSPropertyOp17
70
1
102
RTVSPropertyOp18
70
1
102
RTVSPropertyOp19
70
1
102
RTVSPropertyOp20
70
1
102
RTVSPropertyOp21
70
1
102
RTVSPropertyOp22
70
1
102
RTVSPropertyOp23
70
1
102
RTVSPropertyOp24
70
1
102
RTVSPropertyOp25
70
1
102
RTVSPropertyOp26
70
1
102
RTVSPropertyOp27
70
1
0
XRECORD
5
1081
102
{ACAD_REACTORS
330
1080
102
}
330
1080
100
AcDbXrecord
280
1
102
RTVSPropertyOp0
70
1
102
RTVSPropertyOp1
70
1
102
RTVSPropertyOp2
70
1
102
RTVSPropertyOp3
70
1
102
RTVSPropertyOp4
70
1
102
RTVSPropertyOp5
70
1
102
RTVSPropertyOp6
70
1
102
RTVSPropertyOp7
70
1
102
RTVSPropertyOp8
70
1
102
RTVSPropertyOp9
70
1
102
RTVSPropertyOp10
70
1
102
RTVSPropertyOp11
70
1
102
RTVSPropertyOp12
70
1
102
RTVSPropertyOp13
70
1
102
RTVSPropertyOp14
70
1
102
RTVSPropertyOp15
70
1
102
RTVSPropertyOp16
70
1
102
RTVSPropertyOp17
70
1
102
RTVSPropertyOp18
70
1
102
RTVSPropertyOp19
70
1
102
RTVSPropertyOp20
70
1
102
RTVSPropertyOp21
70
1
102
RTVSPropertyOp22
70
1
102
RTVSPropertyOp23
70
1
102
RTVSPropertyOp24
70
1
102
RTVSPropertyOp25
70
1
102
RTVSPropertyOp26
70
1
102
RTVSPropertyOp27
70
1
0
XRECORD
5
1083
102
{ACAD_REACTORS
330
1082
102
}
330
1082
100
AcDbXrecord
280
1
102
RTVSPropertyOp0
70
1
102
RTVSPropertyOp1
70
1
102
RTVSPropertyOp2
70
1
102
RTVSPropertyOp3
70
1
102
RTVSPropertyOp4
70
1
102
RTVSPropertyOp5
70
1
102
RTVSPropertyOp6
70
1
102
RTVSPropertyOp7
70
1
102
RTVSPropertyOp8
70
1
102
RTVSPropertyOp9
70
1
102
RTVSPropertyOp10
70
1
102
RTVSPropertyOp11
70
1
102
RTVSPropertyOp12
70
1
102
RTVSPropertyOp13
70
1
102
RTVSPropertyOp14
70
1
102
RTVSPropertyOp15
70
1
102
RTVSPropertyOp16
70
1
102
RTVSPropertyOp17
70
1
102
RTVSPropertyOp18
70
1
102
RTVSPropertyOp19
70
1
102
RTVSPropertyOp20
70
1
102
RTVSPropertyOp21
70
1
102
RTVSPropertyOp22
70
1
102
RTVSPropertyOp23
70
1
102
RTVSPropertyOp24
70
1
102
RTVSPropertyOp25
70
1
102
RTVSPropertyOp26
70
1
102
RTVSPropertyOp27
70
1
0
XRECORD
5
1085
102
{ACAD_REACTORS
330
1084
102
}
330
1084
100
AcDbXrecord
280
1
102
RTVSPropertyOp0
70
1
102
RTVSPropertyOp1
70
1
102
RTVSPropertyOp2
70
1
102
RTVSPropertyOp3
70
1
102
RTVSPropertyOp4
70
1
102
RTVSPropertyOp5
70
1
102
RTVSPropertyOp6
70
1
102
RTVSPropertyOp7
70
1
102
RTVSPropertyOp8
70
1
102
RTVSPropertyOp9
70
1
102
RTVSPropertyOp10
70
1
102
RTVSPropertyOp11
70
1
102
RTVSPropertyOp12
70
1
102
RTVSPropertyOp13
70
1
102
RTVSPropertyOp14
70
1
102
RTVSPropertyOp15
70
1
102
RTVSPropertyOp16
70
1
102
RTVSPropertyOp17
70
1
102
RTVSPropertyOp18
70
1
102
RTVSPropertyOp19
70
1
102
RTVSPropertyOp20
70
1
102
RTVSPropertyOp21
70
1
102
RTVSPropertyOp22
70
1
102
RTVSPropertyOp23
70
1
102
RTVSPropertyOp24
70
1
102
RTVSPropertyOp25
70
1
102
RTVSPropertyOp26
70
1
102
RTVSPropertyOp27
70
1
0
XRECORD
5
1087
102
{ACAD_REACTORS
330
1086
102
}
330
1086
100
AcDbXrecord
280
1
102
RTVSPropertyOp0
70
1
102
RTVSPropertyOp1
70
1
102
RTVSPropertyOp2
70
1
102
RTVSPropertyOp3
70
1
102
RTVSPropertyOp4
70
1
102
RTVSPropertyOp5
70
1
102
RTVSPropertyOp6
70
1
102
RTVSPropertyOp7
70
1
102
RTVSPropertyOp8
70
1
102
RTVSPropertyOp9
70
1
102
RTVSPropertyOp10
70
1
102
RTVSPropertyOp11
70
1
102
RTVSPropertyOp12
70
1
102
RTVSPropertyOp13
70
1
102
RTVSPropertyOp14
70
1
102
RTVSPropertyOp15
70
1
102
RTVSPropertyOp16
70
1
102
RTVSPropertyOp17
70
1
102
RTVSPropertyOp18
70
1
102
RTVSPropertyOp19
70
1
102
RTVSPropertyOp20
70
1
102
RTVSPropertyOp21
70
1
102
RTVSPropertyOp22
70
1
102
RTVSPropertyOp23
70
1
102
RTVSPropertyOp24
70
1
102
RTVSPropertyOp25
70
1
102
RTVSPropertyOp26
70
1
102
RTVSPropertyOp27
70
1
0
XRECORD
5
10A1
102
{ACAD_REACTORS
330
10A0
102
}
330
10A0
100
AcDbXrecord
280
1
102
RTVSPropertyOp0
70
0
102
RTVSPropertyOp1
70
0
102
RTVSPropertyOp2
70
0
102
RTVSPropertyOp3
70
0
102
RTVSPropertyOp4
70
0
102
RTVSPropertyOp5
70
0
102
RTVSPropertyOp6
70
0
102
RTVSPropertyOp7
70
0
102
RTVSPropertyOp8
70
0
102
RTVSPropertyOp9
70
0
102
RTVSPropertyOp10
70
0
102
RTVSPropertyOp11
70
0
102
RTVSPropertyOp12
70
0
102
RTVSPropertyOp13
70
0
102
RTVSPropertyOp14
70
2
102
RTVSPropertyOp15
70
0
102
RTVSPropertyOp16
70
0
102
RTVSPropertyOp17
70
0
102
RTVSPropertyOp18
70
0
102
RTVSPropertyOp19
70
0
102
RTVSPropertyOp20
70
0
102
RTVSPropertyOp21
70
0
102
RTVSPropertyOp22
70
0
102
RTVSPropertyOp23
70
0
102
RTVSPropertyOp24
70
0
102
RTVSPropertyOp25
70
0
102
RTVSPropertyOp26
70
0
102
RTVSPropertyOp27
70
0
0
XRECORD
5
109B
102
{ACAD_REACTORS
330
109A
102
}
330
109A
100
AcDbXrecord
280
1
102
RTVSPropertyOp0
70
1
102
RTVSPropertyOp1
70
1
102
RTVSPropertyOp2
70
1
102
RTVSPropertyOp3
70
1
102
RTVSPropertyOp4
70
1
102
RTVSPropertyOp5
70
1
102
RTVSPropertyOp6
70
1
102
RTVSPropertyOp7
70
1
102
RTVSPropertyOp8
70
1
102
RTVSPropertyOp9
70
1
102
RTVSPropertyOp10
70
1
102
RTVSPropertyOp11
70
1
102
RTVSPropertyOp12
70
1
102
RTVSPropertyOp13
70
1
102
RTVSPropertyOp14
70
1
102
RTVSPropertyOp15
70
1
102
RTVSPropertyOp16
70
1
102
RTVSPropertyOp17
70
1
102
RTVSPropertyOp18
70
1
102
RTVSPropertyOp19
70
1
102
RTVSPropertyOp20
70
1
102
RTVSPropertyOp21
70
1
102
RTVSPropertyOp22
70
1
102
RTVSPropertyOp23
70
1
102
RTVSPropertyOp24
70
1
102
RTVSPropertyOp25
70
1
102
RTVSPropertyOp26
70
1
102
RTVSPropertyOp27
70
1
0
XRECORD
5
10A3
102
{ACAD_REACTORS
330
10A2
102
}
330
10A2
100
AcDbXrecord
280
1
102
RTVSPropertyOp0
70
0
102
RTVSPropertyOp1
70
0
102
RTVSPropertyOp2
70
0
102
RTVSPropertyOp3
70
0
102
RTVSPropertyOp4
70
0
102
RTVSPropertyOp5
70
0
102
RTVSPropertyOp6
70
0
102
RTVSPropertyOp7
70
0
102
RTVSPropertyOp8
70
0
102
RTVSPropertyOp9
70
0
102
RTVSPropertyOp10
70
0
102
RTVSPropertyOp11
70
0
102
RTVSPropertyOp12
70
0
102
RTVSPropertyOp13
70
0
102
RTVSPropertyOp14
70
2
102
RTVSPropertyOp15
70
0
102
RTVSPropertyOp16
70
0
102
RTVSPropertyOp17
70
0
102
RTVSPropertyOp18
70
0
102
RTVSPropertyOp19
70
0
102
RTVSPropertyOp20
70
0
102
RTVSPropertyOp21
70
0
102
RTVSPropertyOp22
70
0
102
RTVSPropertyOp23
70
0
102
RTVSPropertyOp24
70
0
102
RTVSPropertyOp25
70
0
102
RTVSPropertyOp26
70
0
102
RTVSPropertyOp27
70
0
0
XRECORD
5
1093
102
{ACAD_REACTORS
330
1092
102
}
330
1092
100
AcDbXrecord
280
1
102
RTVSPropertyOp0
70
1
102
RTVSPropertyOp1
70
1
102
RTVSPropertyOp2
70
1
102
RTVSPropertyOp3
70
1
102
RTVSPropertyOp4
70
1
102
RTVSPropertyOp5
70
1
102
RTVSPropertyOp6
70
1
102
RTVSPropertyOp7
70
1
102
RTVSPropertyOp8
70
1
102
RTVSPropertyOp9
70
1
102
RTVSPropertyOp10
70
1
102
RTVSPropertyOp11
70
1
102
RTVSPropertyOp12
70
1
102
RTVSPropertyOp13
70
1
102
RTVSPropertyOp14
70
1
102
RTVSPropertyOp15
70
1
102
RTVSPropertyOp16
70
1
102
RTVSPropertyOp17
70
1
102
RTVSPropertyOp18
70
1
102
RTVSPropertyOp19
70
1
102
RTVSPropertyOp20
70
1
102
RTVSPropertyOp21
70
1
102
RTVSPropertyOp22
70
1
102
RTVSPropertyOp23
70
1
102
RTVSPropertyOp24
70
1
102
RTVSPropertyOp25
70
1
102
RTVSPropertyOp26
70
1
102
RTVSPropertyOp27
70
1
0
XRECORD
5
1099
102
{ACAD_REACTORS
330
1098
102
}
330
1098
100
AcDbXrecord
280
1
102
RTVSPropertyOp0
70
1
102
RTVSPropertyOp1
70
1
102
RTVSPropertyOp2
70
1
102
RTVSPropertyOp3
70
1
102
RTVSPropertyOp4
70
1
102
RTVSPropertyOp5
70
1
102
RTVSPropertyOp6
70
1
102
RTVSPropertyOp7
70
1
102
RTVSPropertyOp8
70
1
102
RTVSPropertyOp9
70
1
102
RTVSPropertyOp10
70
1
102
RTVSPropertyOp11
70
1
102
RTVSPropertyOp12
70
1
102
RTVSPropertyOp13
70
1
102
RTVSPropertyOp14
70
1
102
RTVSPropertyOp15
70
1
102
RTVSPropertyOp16
70
1
102
RTVSPropertyOp17
70
1
102
RTVSPropertyOp18
70
1
102
RTVSPropertyOp19
70
1
102
RTVSPropertyOp20
70
1
102
RTVSPropertyOp21
70
1
102
RTVSPropertyOp22
70
1
102
RTVSPropertyOp23
70
1
102
RTVSPropertyOp24
70
1
102
RTVSPropertyOp25
70
1
102
RTVSPropertyOp26
70
1
102
RTVSPropertyOp27
70
1
0
ENDSEC
0
EOF
