0
SECTION
2
HEADER
9
$ACADVER
1
AC1015
9
$ACADMAINTVER
70
20
9
$DWGCODEPAGE
3
ANSI_1252
9
$INSBASE
10
0.0
20
0.0
30
0.0
9
$EXTMIN
10
-150.000000000000
20
-105.000000000000
30
0.0
9
$EXTMAX
10
150.000000000000
20
105.000000000000
30
0.0
9
$LIMMIN
10
0.0
20
0.0
9
$LIMMAX
10
12.0
20
9.0
9
$ORTHOMODE
70
0
9
$REGENMODE
70
1
9
$FILLMODE
70
1
9
$QTEXTMODE
70
0
9
$MIRRTEXT
70
1
9
$LTSCALE
40
1.0
9
$ATTMODE
70
1
9
$TEXTSIZE
40
0.2
9
$TRACEWID
40
0.05
9
$TEXTSTYLE
7
Standard
9
$CLAYER
8
0
9
$CELTYPE
6
ByLayer
9
$CECOLOR
62
256
9
$CELTSCALE
40
1.0
9
$DISPSILH
70
0
9
$DIMSCALE
40
1.0
9
$DIMASZ
40
2.5
9
$DIMEXO
40
0.625
9
$DIMDLI
40
0.38
9
$DIMRND
40
0.0
9
$DIMDLE
40
0.0
9
$DIMEXE
40
1.25
9
$DIMTP
40
0.0
9
$DIMTM
40
0.000000001
9
$DIMTXT
40
2.5
9
$DIMCEN
40
0.09
9
$DIMTSZ
40
0.0
9
$DIMTOL
70
1
9
$DIMLIM
70
0
9
$DIMTIH
70
0
9
$DIMTOH
70
0
9
$DIMSE1
70
0
9
$DIMSE2
70
0
9
$DIMTAD
70
1
9
$DIMZIN
70
0
9
$DIMBLK
1
VDDIM_DEFAULT
9
$DIMASO
70
1
9
$DIMSHO
70
1
9
$DIMPOST
1

9
$DIMAPOST
1

9
$DIMALT
70
0
9
$DIMALTD
70
2
9
$DIMALTF
40
25.4
9
$DIMLFAC
40
1.00000000000000
9
$DIMTOFL
70
0
9
$DIMTVP
40
0.0
9
$DIMTIX
70
0
9
$DIMSOXD
70
0
9
$DIMSAH
70
0
9
$DIMBLK1
1

9
$DIMBLK2
1

9
$DIMSTYLE
2
BEM-ISBE
9
$DIMCLRD
70
0
9
$DIMCLRE
70
0
9
$DIMCLRT
70
0
9
$DIMTFAC
40
0.5
9
$DIMGAP
40
0.625
9
$DIMJUST
70
0
9
$DIMSD1
70
0
9
$DIMSD2
70
0
9
$DIMTOLJ
70
1
9
$DIMTZIN
70
0
9
$DIMALTZ
70
0
9
$DIMALTTZ
70
0
9
$DIMUPT
70
0
9
$DIMDEC
70
3
9
$DIMTDEC
70
3
9
$DIMALTU
70
2
9
$DIMALTTD
70
2
9
$DIMTXSTY
7
Standard
9
$DIMAUNIT
70
0
9
$DIMADEC
70
3
9
$DIMALTRND
40
0.0
9
$DIMAZIN
70
0
9
$DIMDSEP
70
46
9
$DIMATFIT
70
3
9
$DIMFRAC
70
0
9
$DIMLDRBLK
1

9
$DIMLUNIT
70
2
9
$DIMLWD
70
-2
9
$DIMLWE
70
-2
9
$DIMTMOVE
70
0
9
$LUNITS
70
2
9
$LUPREC
70
4
9
$SKETCHINC
40
0.1
9
$FILLETRAD
40
0.5
9
$AUNITS
70
0
9
$AUPREC
70
0
9
$MENU
1
.
9
$ELEVATION
40
0.0
9
$PELEVATION
40
0.0
9
$THICKNESS
40
0.0
9
$LIMCHECK
70
0
9
$CHAMFERA
40
0.5
9
$CHAMFERB
40
0.5
9
$CHAMFERC
40
1.0
9
$CHAMFERD
40
0.0
9
$SKPOLY
70
0
9
$TDCREATE
40
0.0
9
$TDUCREATE
40
0.0
9
$TDUPDATE
40
0.0
9
$TDUUPDATE
40
0.0
9
$TDINDWG
40
0.0
9
$TDUSRTIMER
40
0.0
9
$USRTIMER
70
1
9
$ANGBASE
50
0.0
9
$ANGDIR
70
0
9
$PDMODE
70
0
9
$PDSIZE
40
0.0
9
$PLINEWID
40
0.0
9
$SPLFRAME
70
0
9
$SPLINETYPE
70
6
9
$SPLINESEGS
70
8
9
$HANDSEED
5
10AB
9
$SURFTAB1
70
6
9
$SURFTAB2
70
6
9
$SURFTYPE
70
6
9
$SURFU
70
6
9
$SURFV
70
6
9
$UCSBASE
2

9
$UCSNAME
2

9
$UCSORG
10
0.0
20
0.0
30
0.0
9
$UCSXDIR
10
1.0
20
0.0
30
0.0
9
$UCSYDIR
10
0.0
20
1.0
30
0.0
9
$UCSORTHOREF
2

9
$UCSORTHOVIEW
70
0
9
$UCSORGTOP
10
0.0
20
0.0
30
0.0
9
$UCSORGBOTTOM
10
0.0
20
0.0
30
0.0
9
$UCSORGLEFT
10
0.0
20
0.0
30
0.0
9
$UCSORGRIGHT
10
0.0
20
0.0
30
0.0
9
$UCSORGFRONT
10
0.0
20
0.0
30
0.0
9
$UCSORGBACK
10
0.0
20
0.0
30
0.0
9
$PUCSBASE
2

9
$PUCSNAME
2

9
$PUCSORG
10
0.0
20
0.0
30
0.0
9
$PUCSXDIR
10
1.0
20
0.0
30
0.0
9
$PUCSYDIR
10
0.0
20
1.0
30
0.0
9
$PUCSORTHOREF
2

9
$PUCSORTHOVIEW
70
0
9
$PUCSORGTOP
10
0.0
20
0.0
30
0.0
9
$PUCSORGBOTTOM
10
0.0
20
0.0
30
0.0
9
$PUCSORGLEFT
10
0.0
20
0.0
30
0.0
9
$PUCSORGRIGHT
10
0.0
20
0.0
30
0.0
9
$PUCSORGFRONT
10
0.0
20
0.0
30
0.0
9
$PUCSORGBACK
10
0.0
20
0.0
30
0.0
9
$USERI1
70
0
9
$USERI2
70
0
9
$USERI3
70
0
9
$USERI4
70
0
9
$USERI5
70
0
9
$USERR1
40
0.0
9
$USERR2
40
0.0
9
$USERR3
40
0.0
9
$USERR4
40
0.0
9
$USERR5
40
0.0
9
$WORLDVIEW
70
1
9
$SHADEDGE
70
3
9
$SHADEDIF
70
70
9
$TILEMODE
70
1
9
$MAXACTVP
70
64
9
$PINSBASE
10
0.0
20
0.0
30
0.0
9
$PLIMCHECK
70
0
9
$PEXTMIN
10
1.000000000000000E+20
20
1.000000000000000E+20
30
1.000000000000000E+20
9
$PEXTMAX
10
-1.000000000000000E+20
20
-1.000000000000000E+20
30
-1.000000000000000E+20
9
$PLIMMIN
10
0.0
20
0.0
9
$PLIMMAX
10
12.0
20
9.0
9
$UNITMODE
70
0
9
$VISRETAIN
70
1
9
$PLINEGEN
70
0
9
$PSLTSCALE
70
1
9
$TREEDEPTH
70
3020
9
$CMLSTYLE
2
Standard
9
$CMLJUST
70
0
9
$CMLSCALE
40
1.0
9
$PROXYGRAPHICS
70
1
9
$MEASUREMENT
70
0
9
$CELWEIGHT
370
-1
9
$ENDCAPS
280
0
9
$JOINSTYLE
280
0
9
$LWDISPLAY
290
0
9
$INSUNITS
70
4
9
$HYPERLINKBASE
1

9
$STYLESHEET
1

9
$XEDIT
290
1
9
$CEPSNTYPE
380
0
9
$PSTYLEMODE
290
0
9
$FINGERPRINTGUID
2
{FAEB1C30-E019-11D5-929B-00C0DF256EC4}
9
$VERSIONGUID
2
{04C5C4E4-4947-4D90-8812-D401569E61F7}
9
$EXTNAMES
290
1
9
$PSVPSCALE
40
0.0
9
$OLESTARTUP
290
0
0
ENDSEC
0
SECTION
2
CLASSES
0
CLASS
1
ACDBDICTIONARYWDFLT
2
AcDbDictionaryWithDefault
3
ObjectDBX Classes
90
0
280
0
281
0
0
CLASS
1
ACDBPLACEHOLDER
2
AcDbPlaceHolder
3
ObjectDBX Classes
90
0
280
0
281
0
0
CLASS
1
LAYOUT
2
AcDbLayout
3
ObjectDBX Classes
90
0
280
0
281
0
0
CLASS
1
MATERIAL
2
AcDbMaterial
3
ObjectDBX Classes
90
1153
280
0
281
0
0
CLASS
1
VISUALSTYLE
2
AcDbVisualStyle
3
ObjectDBX Classes
90
4095
280
0
281
0
0
CLASS
1
TABLESTYLE
2
AcDbTableStyle
3
ObjectDBX Classes
90
4095
280
0
281
0
0
CLASS
1
SCALE
2
AcDbScale
3
ObjectDBX Classes
90
1153
280
0
281
0
0
CLASS
1
MLEADERSTYLE
2
AcDbMLeaderStyle
3
ACDB_MLEADERSTYLE_CLASS
90
4095
280
0
281
0
0
CLASS
1
DICTIONARYVAR
2
AcDbDictionaryVar
3
ObjectDBX Classes
90
0
280
0
281
0
0
CLASS
1
CELLSTYLEMAP
2
AcDbCellStyleMap
3
ObjectDBX Classes
90
1152
280
0
281
0
0
ENDSEC
0
SECTION
2
TABLES
0
TABLE
2
VPORT
5
24A
330
0
100
AcDbSymbolTable
70
1
0
VPORT
5
26B
330
24A
100
AcDbSymbolTableRecord
100
AcDbViewportTableRecord
2
*Active
70
0
10
0.0
20
0.0
11
1.0
21
1.0
12
0.000000000000000
22
0.000000000000000
13
0.0
23
0.0
14
10.0
24
10.0
15
10.0
25
10.0
16
0.0
26
0.0
36
1.0
17
0.0
27
0.0
37
0.0
40
210.000000000000
41
1.42857142857143
42
1.0
43
0.0
44
0.0
50
0.0
51
0.0000000000007958
71
0
72
100
73
1
74
3
75
0
76
0
77
0
78
1
281
0
65
1
110
0.0
120
0.0
130
0.0
111
1.0
121
0.0
131
0.0
112
0.0
122
1.0
132
0.0
79
0
146
0.0
0
ENDTAB
0
TABLE
2
LTYPE
5
247
330
0
100
AcDbSymbolTable
70
25
0
LTYPE
5
256
330
247
100
AcDbSymbolTableRecord
100
AcDbLinetypeTableRecord
2
ByBlock
70
0
3

72
65
73
0
40
0.0
0
LTYPE
5
257
330
247
100
AcDbSymbolTableRecord
100
AcDbLinetypeTableRecord
2
ByLayer
70
0
3

72
65
73
0
40
0.0
0
LTYPE
5
258
330
247
100
AcDbSymbolTableRecord
100
AcDbLinetypeTableRecord
2
Continuous
70
0
3
Solid line
72
65
73
0
40
0.0
0
LTYPE
5
273
330
247
100
AcDbSymbolTableRecord
100
AcDbLinetypeTableRecord
2
CENTER
70
0
3
Center ____ _ ____ _ ____ _ ____ _ ____ _ ____
72
65
73
4
40
2.0
49
1.25
74
0
49
-0.25
74
0
49
0.25
74
0
49
-0.25
74
0
0
LTYPE
5
274
330
247
100
AcDbSymbolTableRecord
100
AcDbLinetypeTableRecord
2
DASHDOT
70
0
3
Dashdot __ . __ . __ . __ . __ . __ . __ . __
72
65
73
4
40
1.0
49
0.5
74
0
49
-0.25
74
0
49
0.0
74
0
49
-0.25
74
0
0
LTYPE
5
275
330
247
100
AcDbSymbolTableRecord
100
AcDbLinetypeTableRecord
2
DASHED
70
0
3
Dashed __ __ __ __ __ __ __ __ __ __ __ __ __ _
72
65
73
2
40
0.75
49
0.5
74
0
49
-0.25
74
0
0
LTYPE
5
276
330
247
100
AcDbSymbolTableRecord
100
AcDbLinetypeTableRecord
2
HIDDEN
70
0
3
Hidden __ __ __ __ __ __ __ __ __ __ __ __ __ __
72
65
73
2
40
0.375
49
0.25
74
0
49
-0.125
74
0
0
LTYPE
5
277
330
247
100
AcDbSymbolTableRecord
100
AcDbLinetypeTableRecord
2
HIDDEN2
70
0
3
Hidden2 _ _ _ _ _ _ _ _ _ _ _ _ _ _ _ _ _
72
65
73
2
40
0.1875
49
0.125
74
0
49
-0.0625
74
0
0
LTYPE
5
278
330
247
100
AcDbSymbolTableRecord
100
AcDbLinetypeTableRecord
2
BORDER
70
0
3
Border __ __ . __ __ . __ __ . __ __ . __ __ .
72
65
73
6
40
1.75
49
0.5
74
0
49
-0.25
74
0
49
0.5
74
0
49
-0.25
74
0
49
0.0
74
0
49
-0.25
74
0
0
LTYPE
5
279
330
247
100
AcDbSymbolTableRecord
100
AcDbLinetypeTableRecord
2
BORDER2
70
0
3
Border2 __.__.__.__.__.__.__.__.__.__.__.
72
65
73
6
40
0.875
49
0.25
74
0
49
-0.125
74
0
49
0.25
74
0
49
-0.125
74
0
49
0.0
74
0
49
-0.125
74
0
0
LTYPE
5
27A
330
247
100
AcDbSymbolTableRecord
100
AcDbLinetypeTableRecord
2
BORDERX2
70
0
3
Borderx2  ____  ____  .  ____  ____  .  ___
72
65
73
6
40
3.5
49
1.0
74
0
49
-0.5
74
0
49
1.0
74
0
49
-0.5
74
0
49
0.0
74
0
49
-0.5
74
0
0
LTYPE
5
27B
330
247
100
AcDbSymbolTableRecord
100
AcDbLinetypeTableRecord
2
CENTER2
70
0
3
Center2  ___ _ ___ _ ___ _ ___ _ ___ _ ___
72
65
73
4
40
1.125
49
0.75
74
0
49
-0.125
74
0
49
0.125
74
0
49
-0.125
74
0
0
LTYPE
5
27C
330
247
100
AcDbSymbolTableRecord
100
AcDbLinetypeTableRecord
2
CENTERX2
70
0
3
Centerx2  ________  __  ________  __  _____
72
65
73
4
40
4.0
49
2.5
74
0
49
-0.5
74
0
49
0.5
74
0
49
-0.5
74
0
0
LTYPE
5
27D
330
247
100
AcDbSymbolTableRecord
100
AcDbLinetypeTableRecord
2
DASHDOT2
70
0
3
Dashdot2  _._._._._._._._._._._._._._._.
72
65
73
4
40
0.5
49
0.25
74
0
49
-0.125
74
0
49
0.0
74
0
49
-0.125
74
0
0
LTYPE
5
27E
330
247
100
AcDbSymbolTableRecord
100
AcDbLinetypeTableRecord
2
DASHDOTX2
70
0
3
Dashdotx2 ____  .  ____  .  ____  .  ___
72
65
73
4
40
2.0
49
1.0
74
0
49
-0.5
74
0
49
0.0
74
0
49
-0.5
74
0
0
LTYPE
5
27F
330
247
100
AcDbSymbolTableRecord
100
AcDbLinetypeTableRecord
2
DASHED2
70
0
3
Dashed2 _ _ _ _ _ _ _ _ _ _ _ _ _ _ _ _ _
72
65
73
2
40
0.375
49
0.25
74
0
49
-0.125
74
0
0
LTYPE
5
280
330
247
100
AcDbSymbolTableRecord
100
AcDbLinetypeTableRecord
2
DASHEDX2
70
0
3
Dashedx2 ____  ____  ____  ____  ____  ___
72
65
73
2
40
1.5
49
1.0
74
0
49
-0.5
74
0
0
LTYPE
5
281
330
247
100
AcDbSymbolTableRecord
100
AcDbLinetypeTableRecord
2
DIVIDE
70
0
3
Divide ____ . . ____ . . ____ . . ____ . . ____
72
65
73
6
40
1.25
49
0.5
74
0
49
-0.25
74
0
49
0.0
74
0
49
-0.25
74
0
49
0.0
74
0
49
-0.25
74
0
0
LTYPE
5
282
330
247
100
AcDbSymbolTableRecord
100
AcDbLinetypeTableRecord
2
DIVIDE2
70
0
3
Divide2 __..__..__..__..__..__..__..__.._
72
65
73
6
40
0.625
49
0.25
74
0
49
-0.125
74
0
49
0.0
74
0
49
-0.125
74
0
49
0.0
74
0
49
-0.125
74
0
0
LTYPE
5
283
330
247
100
AcDbSymbolTableRecord
100
AcDbLinetypeTableRecord
2
DIVIDEX2
70
0
3
Dividex2 ________  .  .  ________  .  .  _
72
65
73
6
40
2.5
49
1.0
74
0
49
-0.5
74
0
49
0.0
74
0
49
-0.5
74
0
49
0.0
74
0
49
-0.5
74
0
0
LTYPE
5
284
330
247
100
AcDbSymbolTableRecord
100
AcDbLinetypeTableRecord
2
DOT
70
0
3
Dot . . . . . . . . . . . . . . . . . . . . . . . .
72
65
73
2
40
0.25
49
0.0
74
0
49
-0.25
74
0
0
LTYPE
5
285
330
247
100
AcDbSymbolTableRecord
100
AcDbLinetypeTableRecord
2
DOT2
70
0
3
Dot2 ........................................
72
65
73
2
40
0.125
49
0.0
74
0
49
-0.125
74
0
0
LTYPE
5
286
330
247
100
AcDbSymbolTableRecord
100
AcDbLinetypeTableRecord
2
DOTX2
70
0
3
Dotx2 .  .  .  .  .  .  .  .  .  .  .  .  .  .
72
65
73
2
40
0.5
49
0.0
74
0
49
-0.5
74
0
0
LTYPE
5
287
330
247
100
AcDbSymbolTableRecord
100
AcDbLinetypeTableRecord
2
HIDDENX2
70
0
3
Hiddenx2 ____ ____ ____ ____ ____ ____ ____
72
65
73
2
40
0.75
49
0.5
74
0
49
-0.25
74
0
0
LTYPE
5
288
330
247
100
AcDbSymbolTableRecord
100
AcDbLinetypeTableRecord
2
PHANTOM
70
0
3
Phantom ______  __  __  ______  __  __  ______
72
65
73
6
40
2.5
49
1.25
74
0
49
-0.25
74
0
49
0.25
74
0
49
-0.25
74
0
49
0.25
74
0
49
-0.25
74
0
0
LTYPE
5
289
330
247
100
AcDbSymbolTableRecord
100
AcDbLinetypeTableRecord
2
PHANTOM2
70
0
3
Phantom2 ___ _ _ ___ _ _ ___ _ _ ___ _ _
72
65
73
6
40
1.25
49
0.625
74
0
49
-0.125
74
0
49
0.125
74
0
49
-0.125
74
0
49
0.125
74
0
49
-0.125
74
0
0
LTYPE
5
28A
330
247
100
AcDbSymbolTableRecord
100
AcDbLinetypeTableRecord
2
PHANTOMX2
70
0
3
Phantomx2 ____________    ____    ____   _
72
65
73
6
40
5.0
49
2.5
74
0
49
-0.5
74
0
49
0.5
74
0
49
-0.5
74
0
49
0.5
74
0
49
-0.5
74
0
0
ENDTAB
0
TABLE
2
LAYER
5
244
330
0
100
AcDbSymbolTable
70
6
0
LAYER
5
252
330
244
100
AcDbSymbolTableRecord
100
AcDbLayerTableRecord
2
0
70
0
62
7
6
Continuous
370
0
390
251
0
LAYER
5
23F
330
244
100
AcDbSymbolTableRecord
100
AcDbLayerTableRecord
2
Bemassung
70
0
 62
   7
6
Continuous
370
0
390
251
0
LAYER
5
240
330
244
100
AcDbSymbolTableRecord
100
AcDbLayerTableRecord
2
Rahmen
70
0
 62
   7
6
Continuous
370
0
390
251
0
LAYER
5
241
330
244
100
AcDbSymbolTableRecord
100
AcDbLayerTableRecord
2
Geo
70
0
 62
   7
6
Continuous
370
0
390
251
0
LAYER
5
33A
330
244
100
AcDbSymbolTableRecord
100
AcDbLayerTableRecord
2
Defpoints
70
0
62
7
6
Continuous
290
0
370
-3
390
251
0
LAYER
5
57E
330
244
100
AcDbSymbolTableRecord
100
AcDbLayerTableRecord
2
Text
70
0
 62
   7
6
Continuous
370
0
390
251
1001
AcAecLayerStandard
1000

1000

0
ENDTAB
0
TABLE
2
STYLE
5
245
330
0
100
AcDbSymbolTable
70
2
0
STYLE
5
253
330
245
100
AcDbSymbolTableRecord
100
AcDbTextStyleTableRecord
2
Standard
70
0
40
0.0
41
1.0
50
0.0
71
0
42
0.2
3
Arial
4

1001
ACAD
1000
Arial
1071
0
0
STYLE
5
132
330
245
100
AcDbSymbolTableRecord
100
AcDbTextStyleTableRecord
2
Beschriftung
70
0
40
0.0
41
1.0
50
0.0
71
0
42
0.2
3
Arial
4

1001
ACAD
1000
Arial
1071
0
1001
AcadAnnotative
1000
AnnotativeData
1070
1
1070
1
0
ENDTAB
0
TABLE
2
VIEW
5
248
330
0
100
AcDbSymbolTable
70
0
0
ENDTAB
0
TABLE
2
UCS
5
249
330
0
100
AcDbSymbolTable
70
0
0
ENDTAB
0
TABLE
2
APPID
5
24B
330
0
100
AcDbSymbolTable
70
13
0
APPID
5
254
330
24B
100
AcDbSymbolTableRecord
100
AcDbRegAppTableRecord
2
ACAD
70
0
0
APPID
5
26C
330
24B
100
AcDbSymbolTableRecord
100
AcDbRegAppTableRecord
2
VD_INVISIBLE_NOT_FOR_READ
70
0
0
APPID
5
26D
330
24B
100
AcDbSymbolTableRecord
100
AcDbRegAppTableRecord
2
VD_TEMPHATCH
70
0
0
APPID
5
26E
330
24B
100
AcDbSymbolTableRecord
100
AcDbRegAppTableRecord
2
VDEXTRAPARAM
70
0
0
APPID
5
26F
330
24B
100
AcDbSymbolTableRecord
100
AcDbRegAppTableRecord
2
PE_URL
70
0
0
APPID
5
270
330
24B
100
AcDbSymbolTableRecord
100
AcDbRegAppTableRecord
2
VD_UNKNOWN
70
0
0
APPID
5
28F
330
24B
100
AcDbSymbolTableRecord
100
AcDbRegAppTableRecord
2
AcadAnnotative
70
0
0
APPID
5
290
330
24B
100
AcDbSymbolTableRecord
100
AcDbRegAppTableRecord
2
ACAD_DSTYLE_DIMJAG
70
0
0
APPID
5
291
330
24B
100
AcDbSymbolTableRecord
100
AcDbRegAppTableRecord
2
ACAD_DSTYLE_DIMTALN
70
0
0
APPID
5
293
330
24B
100
AcDbSymbolTableRecord
100
AcDbRegAppTableRecord
2
ACAD_PSEXT
70
0
0
APPID
5
42A
330
24B
100
AcDbSymbolTableRecord
100
AcDbRegAppTableRecord
2
ACAD_MLEADERVER
70
0
0
APPID
5
532
330
24B
100
AcDbSymbolTableRecord
100
AcDbRegAppTableRecord
2
ACAD_EXEMPT_FROM_CAD_STANDARDS
70
0
0
APPID
5
57F
330
24B
100
AcDbSymbolTableRecord
100
AcDbRegAppTableRecord
2
AcAecLayerStandard
70
0
0
ENDTAB
0
TABLE
2
DIMSTYLE
5
24C
330
0
100
AcDbSymbolTable
70
3
100
AcDbDimStyleTable
71
2
340
27
340
269
0
DIMSTYLE
105
269
330
24C
100
AcDbSymbolTableRecord
100
AcDbDimStyleTableRecord
2
Standard
70
0
172
1
174
1
288
1
340
253
342
23C
0
DIMSTYLE
105
137
330
24C
100
AcDbSymbolTableRecord
100
AcDbDimStyleTableRecord
2
Beschriftung
70
0
41
2.5
42
0.625
44
1.25
73
0
74
0
77
1
140
2.5
147
0.625
172
1
174
1
271
2
288
1
340
253
342
23C
1001
AcadAnnotative
1000
AnnotativeData
1070
1
1070
1
1001
ACAD_DSTYLE_DIMJAG
1070
388
1040
1.5
1001
ACAD_DSTYLE_DIMTALN
1070
392
1070
0
0
DIMSTYLE
105
27
102
{ACAD_REACTORS
330
F10003
330
F1000D
330
F10017
330
F1001C
330
F10021
330
F10008
330
F10012
330
F10026
102
}
330
24C
100
AcDbSymbolTableRecord
100
AcDbDimStyleTableRecord
2
BEM-ISBE
70
0
41
2.5
42
0.625
44
1.25
48
0.000000001
71
1
73
0
74
0
77
1
140
2.5
144
1.00000000000000
146
0.5
147
0.625
171
 3
172
 1
179
 3
271
 3
272
 3
274
 3
340
253
342
23C
1001
ACAD_DSTYLE_DIMJAG
1070
388
1040
1.5
1001
ACAD_DSTYLE_DIMTALN
1070
392
1070
1
0
ENDTAB
0
TABLE
2
BLOCK_RECORD
5
243
330
0
100
AcDbSymbolTable
70
5
0
BLOCK_RECORD
5
261
330
243
100
AcDbSymbolTableRecord
100
AcDbBlockTableRecord
2
*Model_Space
340
FD0
0
BLOCK_RECORD
5
25D
330
243
100
AcDbSymbolTableRecord
100
AcDbBlockTableRecord
2
*Paper_Space
340
FD1
0
BLOCK_RECORD
5
265
330
243
100
AcDbSymbolTableRecord
100
AcDbBlockTableRecord
2
*Paper_Space0
340
0
0
BLOCK_RECORD
5
23C
330
243
100
AcDbSymbolTableRecord
100
AcDbBlockTableRecord
2
VDDIM_DEFAULT
340
0
102
{BLKREFS
102
}
0
BLOCK_RECORD
5
23E
330
243
100
AcDbSymbolTableRecord
100
AcDbBlockTableRecord
2
VDDIM_NONE
340
0
0
BLOCK_RECORD
5
F10002
330
243
100
AcDbSymbolTableRecord
100
AcDbBlockTableRecord
2
*D3
340
0
0
BLOCK_RECORD
5
F1000C
330
243
100
AcDbSymbolTableRecord
100
AcDbBlockTableRecord
2
*D5
340
0
0
BLOCK_RECORD
5
F10016
330
243
100
AcDbSymbolTableRecord
100
AcDbBlockTableRecord
2
*D7
340
0
0
BLOCK_RECORD
5
F1001B
330
243
100
AcDbSymbolTableRecord
100
AcDbBlockTableRecord
2
*D8
340
0
0
BLOCK_RECORD
5
F10020
330
243
100
AcDbSymbolTableRecord
100
AcDbBlockTableRecord
2
*D9
340
0
0
BLOCK_RECORD
5
F10007
330
243
100
AcDbSymbolTableRecord
100
AcDbBlockTableRecord
2
*D4
340
0
0
BLOCK_RECORD
5
F10011
330
243
100
AcDbSymbolTableRecord
100
AcDbBlockTableRecord
2
*D6
340
0
0
BLOCK_RECORD
5
F10025
330
243
100
AcDbSymbolTableRecord
100
AcDbBlockTableRecord
2
*D10
340
0
0
ENDTAB
0
ENDSEC
0
SECTION
2
BLOCKS
0
BLOCK
5
262
330
261
100
AcDbEntity
8
0
100
AcDbBlockBegin
2
*Model_Space
70
0
10
0.0
20
0.0
30
0.0
3
*Model_Space
1

0
ENDBLK
5
263
330
261
100
AcDbEntity
8
0
100
AcDbBlockEnd
0
BLOCK
5
25E
330
25D
100
AcDbEntity
67
1
8
0
100
AcDbBlockBegin
2
*Paper_Space
70
0
10
0.0
20
0.0
30
0.0
3
*Paper_Space
1

0
ENDBLK
5
25F
330
25D
100
AcDbEntity
67
1
8
0
100
AcDbBlockEnd
0
BLOCK
5
266
330
265
100
AcDbEntity
8
0
100
AcDbBlockBegin
2
*Paper_Space0
70
0
10
0.0
20
0.0
30
0.0
3
*Paper_Space0
1

0
VIEWPORT
5
296
102
{ACAD_XDICTIONARY
360
58E
102
}
330
265
100
AcDbEntity
8
0
60
1
100
AcDbViewport
10
0.0
20
0.0
30
0.0
40
10.0
41
10.0
69
0
12
0.0
22
0.0
13
0.0
23
0.0
14
1.0
24
1.0
15
0.0
25
0.0
16
0.0
26
0.0
36
1.0
17
0.0
27
0.0
37
0.0
42
0.0
43
0.0
44
0.0
45
10.0
50
0.0
51
0.0000000000007958
72
100
90
163872
1

281
0
71
0
74
0
110
0.0
120
0.0
130
0.0
111
1.0
121
0.0
131
0.0
112
0.0
122
1.0
132
0.0
79
0
146
0.0
1001
VD_INVISIBLE_NOT_FOR_READ
1000
VD_INVISIBLE_NOT_FOR_READ
0
VIEWPORT
5
297
102
{ACAD_XDICTIONARY
360
590
102
}
330
265
100
AcDbEntity
8
0
60
1
100
AcDbViewport
10
0.0
20
0.0
30
0.0
40
10.0
41
10.0
69
0
12
0.0
22
0.0
13
0.0
23
0.0
14
1.0
24
1.0
15
0.0
25
0.0
16
0.0
26
0.0
36
1.0
17
0.0
27
0.0
37
0.0
42
0.0
43
0.0
44
0.0
45
10.0
50
0.0
51
0.0000000000007958
72
100
90
163872
1

281
0
71
0
74
0
110
0.0
120
0.0
130
0.0
111
1.0
121
0.0
131
0.0
112
0.0
122
1.0
132
0.0
79
0
146
0.0
1001
VD_INVISIBLE_NOT_FOR_READ
1000
VD_INVISIBLE_NOT_FOR_READ
0
ENDBLK
5
267
330
265
100
AcDbEntity
8
0
100
AcDbBlockEnd
0
BLOCK
5
28B
330
23C
100
AcDbEntity
8
0
100
AcDbBlockBegin
2
VDDIM_DEFAULT
70
0
10
0.0
20
0.0
30
0.0
3
VDDIM_DEFAULT
1

0
LWPOLYLINE
5
23D
330
23C
100
AcDbEntity
8
0
6
Continuous
62
0
100
AcDbPolyline
90
4
70
0
43
0.0
10
0.0
20
0.0
10
-1.0
20
-0.1665
10
-1.0
20
0.1665
10
0.0
20
0.0
1001
VDEXTRAPARAM
1071
1
1071
0
1071
0
1040
1.0
1000

1000

1040
0.0
1040
0.0
0
HATCH
5
292
330
23C
100
AcDbEntity
8
0
6
Continuous
62
0
100
AcDbHatch
10
0.0
20
0.0
30
0.0
210
0.0
220
0.0
230
1.0
2
SOLID
70
1
71
0
91
1
92
2
72
0
73
1
93
3
10
0.0
20
0.0
10
-1.0
20
-0.1665
10
-1.0
20
0.1665
97
0
75
0
76
1
98
1
10
0.0
20
0.0
1001
VDEXTRAPARAM
1071
1
1071
0
1071
0
1040
1.0
1000

1000

1040
0.0
1040
0.0
1001
VD_TEMPHATCH
1000
VD_TEMPHATCH
0
ENDBLK
5
28C
330
23C
100
AcDbEntity
8
0
100
AcDbBlockEnd
0
BLOCK
5
28D
330
23E
100
AcDbEntity
8
0
100
AcDbBlockBegin
2
VDDIM_NONE
70
0
10
0.0
20
0.0
30
0.0
3
VDDIM_NONE
1

0
ENDBLK
5
28E
330
23E
100
AcDbEntity
8
0
100
AcDbBlockEnd
  0
BLOCK
  5
F1002A
330
F10002
100
AcDbEntity
  8
0
100
AcDbBlockBegin
  2
*D3
 70
     1
 10
0.0
 20
0.0
 30
0.0
  3
*D3
  1

  0
LINE
  5
F1002B
330
F10002
100
AcDbEntity
  8
Bemassung
 62
     0
370
    -2
100
AcDbLine
10
-42.6803989592368
20
-17.6253252385082
30
0.000000000000000
11
-42.6803989592368
21
43.3746747614918
31
0.000000000000000
  0
LINE
  5
F1002C
330
F10002
100
AcDbEntity
  8
Bemassung
 62
     0
370
    -2
100
AcDbLine
10
-42.5803989592368
20
-17.6253252385082
30
0.000000000000000
11
-42.5803989592368
21
11.3746747614918
31
0.000000000000000
  0
LINE
  5
F1002D
330
F10002
100
AcDbEntity
  8
Bemassung
 62
     0
370
    -2
100
AcDbLine
10
-58.6470078057242
20
-15.6253252385082
30
0.000000000000000
11
-42.5803989592368
21
-15.6253252385082
31
0.000000000000000
  0
INSERT
  5
F1002E
330
F10002
100
AcDbEntity
  8
Bemassung
 62
     0
370
    -2
100
AcDbBlockReference
  2
VDDIM_DEFAULT
10
-42.6803989592368
20
-15.6253252385082
30
0.000000000000000
 41
2.50000000000000
 42
2.50000000000000
 43
2.50000000000000
  0
INSERT
  5
F1002F
330
F10002
100
AcDbEntity
  8
Bemassung
 62
     0
370
    -2
100
AcDbBlockReference
  2
VDDIM_DEFAULT
10
-42.5803989592368
20
-15.6253252385082
30
0.000000000000000
 41
2.50000000000000
 42
2.50000000000000
 43
2.50000000000000
 50
180.000000000000
  0
MTEXT
  5
F10030
330
F10002
100
AcDbEntity
  8
Bemassung
 62
     0
100
AcDbMText
10
-44.6285615624297
20
-14.9586585718416
30
0.000000000000000
 40
2.50000000000000
 41
0.0
 71
     8
 72
     1
  1
0.1 x 45°
 11
1.00000000000000
 21
0.000000000000000
 31
0.0
 73
     1
 44
1.0
1001
ACAD
1000
MTEXTBEGIN
1070
73
1070
1
1070
44
1040
1.0
1070
74
1070
0
1000
MTEXTEND
  0
POINT
  5
F10031
330
F10002
100
AcDbEntity
  8
Bemassung
 62
     0
100
AcDbPoint
10
-42.6803989592368
20
-17.6253252385082
30
0.000000000000000
  0
POINT
  5
F10032
330
F10002
100
AcDbEntity
  8
Bemassung
 62
     0
100
AcDbPoint
10
-42.5803989592368
20
-17.6253252385082
30
0.000000000000000
  0
ENDBLK
  5
F10033
330
F10002
100
AcDbEntity
  8
0
100
AcDbBlockEnd
  0
BLOCK
  5
F10034
330
F1000C
100
AcDbEntity
  8
0
100
AcDbBlockBegin
  2
*D5
 70
     1
 10
0.0
 20
0.0
 30
0.0
  3
*D5
  1

  0
LINE
  5
F10035
330
F1000C
100
AcDbEntity
  8
Bemassung
 62
     0
370
    -2
100
AcDbLine
10
-42.6803989592368
20
-17.6253252385082
30
0.000000000000000
11
-42.6803989592368
21
43.3746747614918
31
0.000000000000000
  0
LINE
  5
F10036
330
F1000C
100
AcDbEntity
  8
Bemassung
 62
     0
370
    -2
100
AcDbLine
10
-17.6803989592368
20
-7.62532523850824
30
0.000000000000000
11
-17.6803989592368
21
11.3746747614918
31
0.000000000000000
  0
LINE
  5
F10037
330
F1000C
100
AcDbEntity
  8
Bemassung
 62
     0
370
    -2
100
AcDbLine
10
-42.6803989592368
20
-5.62532523850824
30
0.000000000000000
11
-17.6803989592368
21
-5.62532523850824
31
0.000000000000000
  0
INSERT
  5
F10038
330
F1000C
100
AcDbEntity
  8
Bemassung
 62
     0
370
    -2
100
AcDbBlockReference
  2
VDDIM_DEFAULT
10
-42.6803989592368
20
-5.62532523850824
30
0.000000000000000
 41
2.50000000000000
 42
2.50000000000000
 43
2.50000000000000
 50
180.000000000000
  0
INSERT
  5
F10039
330
F1000C
100
AcDbEntity
  8
Bemassung
 62
     0
370
    -2
100
AcDbBlockReference
  2
VDDIM_DEFAULT
10
-17.6803989592368
20
-5.62532523850824
30
0.000000000000000
 41
2.50000000000000
 42
2.50000000000000
 43
2.50000000000000
  0
MTEXT
  5
F1003A
330
F1000C
100
AcDbEntity
  8
Bemassung
 62
     0
100
AcDbMText
10
-30.1803989592368
20
-4.95865857184157
30
0.000000000000000
 40
2.50000000000000
 41
0.0
 71
     8
 72
     1
  1
25
 11
1.00000000000000
 21
0.000000000000000
 31
0.0
 73
     1
 44
1.0
1001
ACAD
1000
MTEXTBEGIN
1070
73
1070
1
1070
44
1040
1.0
1070
74
1070
0
1000
MTEXTEND
  0
POINT
  5
F1003B
330
F1000C
100
AcDbEntity
  8
Bemassung
 62
     0
100
AcDbPoint
10
-42.6803989592368
20
-17.6253252385082
30
0.000000000000000
  0
POINT
  5
F1003C
330
F1000C
100
AcDbEntity
  8
Bemassung
 62
     0
100
AcDbPoint
10
-17.6803989592368
20
-7.62532523850824
30
0.000000000000000
  0
ENDBLK
  5
F1003D
330
F1000C
100
AcDbEntity
  8
0
100
AcDbBlockEnd
  0
BLOCK
  5
F1003E
330
F10016
100
AcDbEntity
  8
0
100
AcDbBlockBegin
  2
*D7
 70
     1
 10
0.0
 20
0.0
 30
0.0
  3
*D7
  1

  0
LINE
  5
F1003F
330
F10016
100
AcDbEntity
  8
Bemassung
 62
     0
370
    -2
100
AcDbLine
10
-42.6803989592368
20
-17.6253252385082
30
0.000000000000000
11
-42.6803989592368
21
43.3746747614918
31
0.000000000000000
  0
LINE
  5
F10040
330
F10016
100
AcDbEntity
  8
Bemassung
 62
     0
370
    -2
100
AcDbLine
10
19.3196010407632
20
11.0746747614918
30
0.000000000000000
11
19.3196010407632
21
21.3746747614918
31
0.000000000000000
  0
LINE
  5
F10041
330
F10016
100
AcDbEntity
  8
Bemassung
 62
     0
370
    -2
100
AcDbLine
10
-42.6803989592368
20
19.3746747614918
30
0.000000000000000
11
19.3196010407632
21
19.3746747614918
31
0.000000000000000
  0
INSERT
  5
F10042
330
F10016
100
AcDbEntity
  8
Bemassung
 62
     0
370
    -2
100
AcDbBlockReference
  2
VDDIM_DEFAULT
10
-42.6803989592368
20
19.3746747614918
30
0.000000000000000
 41
2.50000000000000
 42
2.50000000000000
 43
2.50000000000000
 50
180.000000000000
  0
INSERT
  5
F10043
330
F10016
100
AcDbEntity
  8
Bemassung
 62
     0
370
    -2
100
AcDbBlockReference
  2
VDDIM_DEFAULT
10
19.3196010407632
20
19.3746747614918
30
0.000000000000000
 41
2.50000000000000
 42
2.50000000000000
 43
2.50000000000000
  0
MTEXT
  5
F10044
330
F10016
100
AcDbEntity
  8
Bemassung
 62
     0
100
AcDbMText
10
-11.6803989592368
20
20.0413414281584
30
0.000000000000000
 40
2.50000000000000
 41
0.0
 71
     8
 72
     1
  1
62
 11
1.00000000000000
 21
0.000000000000000
 31
0.0
 73
     1
 44
1.0
1001
ACAD
1000
MTEXTBEGIN
1070
73
1070
1
1070
44
1040
1.0
1070
74
1070
0
1000
MTEXTEND
  0
POINT
  5
F10045
330
F10016
100
AcDbEntity
  8
Bemassung
 62
     0
100
AcDbPoint
10
-42.6803989592368
20
-17.6253252385082
30
0.000000000000000
  0
POINT
  5
F10046
330
F10016
100
AcDbEntity
  8
Bemassung
 62
     0
100
AcDbPoint
10
19.3196010407632
20
11.0746747614918
30
0.000000000000000
  0
ENDBLK
  5
F10047
330
F10016
100
AcDbEntity
  8
0
100
AcDbBlockEnd
  0
BLOCK
  5
F10048
330
F1001B
100
AcDbEntity
  8
0
100
AcDbBlockBegin
  2
*D8
 70
     1
 10
0.0
 20
0.0
 30
0.0
  3
*D8
  1

  0
LINE
  5
F10049
330
F1001B
100
AcDbEntity
  8
Bemassung
 62
     0
370
    -2
100
AcDbLine
10
-42.6803989592368
20
-17.6253252385082
30
0.000000000000000
11
-42.6803989592368
21
43.3746747614918
31
0.000000000000000
  0
LINE
  5
F1004A
330
F1001B
100
AcDbEntity
  8
Bemassung
 62
     0
370
    -2
100
AcDbLine
10
19.9196010407632
20
11.3746747614918
30
0.000000000000000
11
19.9196010407632
21
33.3746747614918
31
0.000000000000000
  0
LINE
  5
F1004B
330
F1001B
100
AcDbEntity
  8
Bemassung
 62
     0
370
    -2
100
AcDbLine
10
-42.6803989592368
20
31.3746747614918
30
0.000000000000000
11
19.9196010407632
21
31.3746747614918
31
0.000000000000000
  0
INSERT
  5
F1004C
330
F1001B
100
AcDbEntity
  8
Bemassung
 62
     0
370
    -2
100
AcDbBlockReference
  2
VDDIM_DEFAULT
10
-42.6803989592368
20
31.3746747614918
30
0.000000000000000
 41
2.50000000000000
 42
2.50000000000000
 43
2.50000000000000
 50
180.000000000000
  0
INSERT
  5
F1004D
330
F1001B
100
AcDbEntity
  8
Bemassung
 62
     0
370
    -2
100
AcDbBlockReference
  2
VDDIM_DEFAULT
10
19.9196010407632
20
31.3746747614918
30
0.000000000000000
 41
2.50000000000000
 42
2.50000000000000
 43
2.50000000000000
  0
MTEXT
  5
F1004E
330
F1001B
100
AcDbEntity
  8
Bemassung
 62
     0
100
AcDbMText
10
-11.3803989592368
20
32.0413414281584
30
0.000000000000000
 40
2.50000000000000
 41
0.0
 71
     8
 72
     1
  1
62.6
 11
1.00000000000000
 21
0.000000000000000
 31
0.0
 73
     1
 44
1.0
1001
ACAD
1000
MTEXTBEGIN
1070
73
1070
1
1070
44
1040
1.0
1070
74
1070
0
1000
MTEXTEND
  0
POINT
  5
F1004F
330
F1001B
100
AcDbEntity
  8
Bemassung
 62
     0
100
AcDbPoint
10
-42.6803989592368
20
-17.6253252385082
30
0.000000000000000
  0
POINT
  5
F10050
330
F1001B
100
AcDbEntity
  8
Bemassung
 62
     0
100
AcDbPoint
10
19.9196010407632
20
11.3746747614918
30
0.000000000000000
  0
ENDBLK
  5
F10051
330
F1001B
100
AcDbEntity
  8
0
100
AcDbBlockEnd
  0
BLOCK
  5
F10052
330
F10020
100
AcDbEntity
  8
0
100
AcDbBlockBegin
  2
*D9
 70
     1
 10
0.0
 20
0.0
 30
0.0
  3
*D9
  1

  0
LINE
  5
F10053
330
F10020
100
AcDbEntity
  8
Bemassung
 62
     0
370
    -2
100
AcDbLine
10
57.3196010407632
20
10.8746747614918
30
0.000000000000000
11
57.3196010407632
21
43.3746747614918
31
0.000000000000000
  0
LINE
  5
F10054
330
F10020
100
AcDbEntity
  8
Bemassung
 62
     0
370
    -2
100
AcDbLine
10
-42.6803989592368
20
-17.6253252385082
30
0.000000000000000
11
-42.6803989592368
21
43.3746747614918
31
0.000000000000000
  0
LINE
  5
F10055
330
F10020
100
AcDbEntity
  8
Bemassung
 62
     0
370
    -2
100
AcDbLine
10
57.3196010407632
20
41.3746747614918
30
0.000000000000000
11
-42.6803989592368
21
41.3746747614918
31
0.000000000000000
  0
INSERT
  5
F10056
330
F10020
100
AcDbEntity
  8
Bemassung
 62
     0
370
    -2
100
AcDbBlockReference
  2
VDDIM_DEFAULT
10
57.3196010407632
20
41.3746747614918
30
0.000000000000000
 41
2.50000000000000
 42
2.50000000000000
 43
2.50000000000000
  0
INSERT
  5
F10057
330
F10020
100
AcDbEntity
  8
Bemassung
 62
     0
370
    -2
100
AcDbBlockReference
  2
VDDIM_DEFAULT
10
-42.6803989592368
20
41.3746747614918
30
0.000000000000000
 41
2.50000000000000
 42
2.50000000000000
 43
2.50000000000000
 50
180.000000000000
  0
MTEXT
  5
F10058
330
F10020
100
AcDbEntity
  8
Bemassung
 62
     0
100
AcDbMText
10
7.31960104076325
20
42.0413414281584
30
0.000000000000000
 40
2.50000000000000
 41
0.0
 71
     8
 72
     1
  1
100
 11
1.00000000000000
 21
0.000000000000000
 31
0.0
 73
     1
 44
1.0
1001
ACAD
1000
MTEXTBEGIN
1070
73
1070
1
1070
44
1040
1.0
1070
74
1070
0
1000
MTEXTEND
  0
POINT
  5
F10059
330
F10020
100
AcDbEntity
  8
Bemassung
 62
     0
100
AcDbPoint
10
57.3196010407632
20
10.8746747614918
30
0.000000000000000
  0
POINT
  5
F1005A
330
F10020
100
AcDbEntity
  8
Bemassung
 62
     0
100
AcDbPoint
10
-42.6803989592368
20
-17.6253252385082
30
0.000000000000000
  0
ENDBLK
  5
F1005B
330
F10020
100
AcDbEntity
  8
0
100
AcDbBlockEnd
  0
BLOCK
  5
F1005C
330
F10007
100
AcDbEntity
  8
0
100
AcDbBlockBegin
  2
*D4
 70
     1
 10
0.0
 20
0.0
 30
0.0
  3
*D4
  1

  0
LINE
  5
F1005D
330
F10007
100
AcDbEntity
  8
Bemassung
 62
     0
370
    -2
100
AcDbLine
10
-42.5803989592368
20
1.37467476149176
30
0.000000000000000
11
-54.6803989592368
21
1.37467476149176
31
0.000000000000000
  0
LINE
  5
F1005E
330
F10007
100
AcDbEntity
  8
Bemassung
 62
     0
370
    -2
100
AcDbLine
10
-42.5803989592368
20
11.3746747614918
30
0.000000000000000
11
-54.6803989592368
21
11.3746747614918
31
0.000000000000000
  0
LINE
  5
F1005F
330
F10007
100
AcDbEntity
  8
Bemassung
 62
     0
370
    -2
100
AcDbLine
10
-52.6803989592368
20
1.37467476149176
30
0.000000000000000
11
-52.6803989592368
21
11.3746747614918
31
0.000000000000000
  0
INSERT
  5
F10060
330
F10007
100
AcDbEntity
  8
Bemassung
 62
     0
370
    -2
100
AcDbBlockReference
  2
VDDIM_DEFAULT
10
-52.6803989592368
20
1.37467476149176
30
0.000000000000000
 41
2.50000000000000
 42
2.50000000000000
 43
2.50000000000000
 50
90.0000000000000
  0
INSERT
  5
F10061
330
F10007
100
AcDbEntity
  8
Bemassung
 62
     0
370
    -2
100
AcDbBlockReference
  2
VDDIM_DEFAULT
10
-52.6803989592368
20
11.3746747614918
30
0.000000000000000
 41
2.50000000000000
 42
2.50000000000000
 43
2.50000000000000
 50
270.000000000000
  0
MTEXT
  5
F10062
330
F10007
100
AcDbEntity
  8
Bemassung
 62
     0
100
AcDbMText
10
-53.3470656259034
20
5.09472872699247
30
0.000000000000000
 40
2.50000000000000
 41
0.0
 71
     8
 72
     1
  1
Ø10
 11
6.12323399573677e-17
 21
1.00000000000000
 31
0.0
 73
     1
 44
1.0
1001
ACAD
1000
MTEXTBEGIN
1070
73
1070
1
1070
44
1040
1.0
1070
74
1070
0
1000
MTEXTEND
  0
POINT
  5
F10063
330
F10007
100
AcDbEntity
  8
Bemassung
 62
     0
100
AcDbPoint
10
-42.5803989592368
20
1.37467476149176
30
0.000000000000000
  0
POINT
  5
F10064
330
F10007
100
AcDbEntity
  8
Bemassung
 62
     0
100
AcDbPoint
10
-42.5803989592368
20
11.3746747614918
30
0.000000000000000
  0
ENDBLK
  5
F10065
330
F10007
100
AcDbEntity
  8
0
100
AcDbBlockEnd
  0
BLOCK
  5
F10066
330
F10011
100
AcDbEntity
  8
0
100
AcDbBlockBegin
  2
*D6
 70
     1
 10
0.0
 20
0.0
 30
0.0
  3
*D6
  1

  0
LINE
  5
F10067
330
F10011
100
AcDbEntity
  8
Bemassung
 62
     0
370
    -2
100
AcDbLine
10
-17.6803989592368
20
1.67467476149176
30
0.000000000000000
11
4.31960104076325
21
1.67467476149176
31
0.000000000000000
  0
LINE
  5
F10068
330
F10011
100
AcDbEntity
  8
Bemassung
 62
     0
370
    -2
100
AcDbLine
10
-17.6803989592368
20
11.0746747614918
30
0.000000000000000
11
4.31960104076325
21
11.0746747614918
31
0.000000000000000
  0
LINE
  5
F10069
330
F10011
100
AcDbEntity
  8
Bemassung
 62
     0
370
    -2
100
AcDbLine
10
2.31960104076325
20
-12.6582827406765
30
0.000000000000000
11
2.31960104076325
21
11.0746747614918
31
0.000000000000000
  0
INSERT
  5
F1006A
330
F10011
100
AcDbEntity
  8
Bemassung
 62
     0
370
    -2
100
AcDbBlockReference
  2
VDDIM_DEFAULT
10
2.31960104076325
20
1.67467476149176
30
0.000000000000000
 41
2.50000000000000
 42
2.50000000000000
 43
2.50000000000000
 50
90.0000000000000
  0
INSERT
  5
F1006B
330
F10011
100
AcDbEntity
  8
Bemassung
 62
     0
370
    -2
100
AcDbBlockReference
  2
VDDIM_DEFAULT
10
2.31960104076325
20
11.0746747614918
30
0.000000000000000
 41
2.50000000000000
 42
2.50000000000000
 43
2.50000000000000
 50
270.000000000000
  0
MTEXT
  5
F1006C
330
F10011
100
AcDbEntity
  8
Bemassung
 62
     0
100
AcDbMText
10
1.65293437409658
20
-4.91784073752849
30
0.000000000000000
 40
2.50000000000000
 41
0.0
 71
     8
 72
     1
  1
Ø9.4
 11
6.12323399573677e-17
 21
1.00000000000000
 31
0.0
 73
     1
 44
1.0
1001
ACAD
1000
MTEXTBEGIN
1070
73
1070
1
1070
44
1040
1.0
1070
74
1070
0
1000
MTEXTEND
  0
POINT
  5
F1006D
330
F10011
100
AcDbEntity
  8
Bemassung
 62
     0
100
AcDbPoint
10
-17.6803989592368
20
1.67467476149176
30
0.000000000000000
  0
POINT
  5
F1006E
330
F10011
100
AcDbEntity
  8
Bemassung
 62
     0
100
AcDbPoint
10
-17.6803989592368
20
11.0746747614918
30
0.000000000000000
  0
ENDBLK
  5
F1006F
330
F10011
100
AcDbEntity
  8
0
100
AcDbBlockEnd
  0
BLOCK
  5
F10070
330
F10025
100
AcDbEntity
  8
0
100
AcDbBlockBegin
  2
*D10
 70
     1
 10
0.0
 20
0.0
 30
0.0
  3
*D10
  1

  0
LINE
  5
F10071
330
F10025
100
AcDbEntity
  8
Bemassung
 62
     0
370
    -2
100
AcDbLine
10
56.8196010407632
20
11.3746747614918
30
0.000000000000000
11
68.9650830362019
21
11.3746747614918
31
0.000000000000000
  0
LINE
  5
F10072
330
F10025
100
AcDbEntity
  8
Bemassung
 62
     0
370
    -2
100
AcDbLine
10
56.8196010407632
20
1.37467476149176
30
0.000000000000000
11
68.9650830362019
21
1.37467476149176
31
0.000000000000000
  0
LINE
  5
F10073
330
F10025
100
AcDbEntity
  8
Bemassung
 62
     0
370
    -2
100
AcDbLine
10
66.9650830362019
20
11.3746747614918
30
0.000000000000000
11
66.9650830362019
21
1.37467476149176
31
0.000000000000000
  0
INSERT
  5
F10074
330
F10025
100
AcDbEntity
  8
Bemassung
 62
     0
370
    -2
100
AcDbBlockReference
  2
VDDIM_DEFAULT
10
66.9650830362019
20
11.3746747614918
30
0.000000000000000
 41
2.50000000000000
 42
2.50000000000000
 43
2.50000000000000
 50
270.000000000000
  0
INSERT
  5
F10075
330
F10025
100
AcDbEntity
  8
Bemassung
 62
     0
370
    -2
100
AcDbBlockReference
  2
VDDIM_DEFAULT
10
66.9650830362019
20
1.37467476149176
30
0.000000000000000
 41
2.50000000000000
 42
2.50000000000000
 43
2.50000000000000
 50
90.0000000000000
  0
MTEXT
  5
F10076
330
F10025
100
AcDbEntity
  8
Bemassung
 62
     0
100
AcDbMText
10
66.2984163695353
20
6.27686229160678
30
0.000000000000000
 40
2.50000000000000
 41
0.0
 71
     8
 72
     1
  1
Ø10
 11
6.12323399573677e-17
 21
1.00000000000000
 31
0.0
 73
     1
 44
1.0
1001
ACAD
1000
MTEXTBEGIN
1070
73
1070
1
1070
44
1040
1.0
1070
74
1070
0
1000
MTEXTEND
  0
POINT
  5
F10077
330
F10025
100
AcDbEntity
  8
Bemassung
 62
     0
100
AcDbPoint
10
56.8196010407632
20
11.3746747614918
30
0.000000000000000
  0
POINT
  5
F10078
330
F10025
100
AcDbEntity
  8
Bemassung
 62
     0
100
AcDbPoint
10
56.8196010407632
20
1.37467476149176
30
0.000000000000000
  0
ENDBLK
  5
F10079
330
F10025
100
AcDbEntity
  8
0
100
AcDbBlockEnd
0
ENDSEC
0
SECTION
2
ENTITIES
  0
DIMENSION
  5
F10003
330
261
100
AcDbEntity
  8
Bemassung
100
AcDbDimension
  2
*D3
10
-42.5803989592368
20
-15.6253252385082
30
0.000000000000000
11
-44.6285615624297
21
-14.9586585718416
31
0.000000000000000
 70
32
 1
0.1 x 45°
 71
     8
  3
BEM-ISBE
100
AcDbAlignedDimension
13
-42.6803989592368
23
-17.6253252385082
33
0.000000000000000
14
-42.5803989592368
24
-17.6253252385082
34
0.000000000000000
100
AcDbRotatedDimension
1001
ACAD
1000
DSTYLE
1002
{
1070
284
1070
8
1070
78
1070
8
1070
144
1040
1.00000000000000
1070
147
1040
0.625
1070
 72
1070
 0
1070
 71
1070
 0
1002
}
  0
DIMENSION
  5
F1000D
330
261
100
AcDbEntity
  8
Bemassung
100
AcDbDimension
  2
*D5
10
-17.6803989592368
20
-5.62532523850824
30
0.000000000000000
11
-30.1803989592368
21
-4.95865857184157
31
0.000000000000000
 70
32
 1
25
 71
     8
  3
BEM-ISBE
100
AcDbAlignedDimension
13
-42.6803989592368
23
-17.6253252385082
33
0.000000000000000
14
-17.6803989592368
24
-7.62532523850824
34
0.000000000000000
100
AcDbRotatedDimension
1001
ACAD
1000
DSTYLE
1002
{
1070
284
1070
8
1070
78
1070
8
1070
144
1040
1.00000000000000
1070
147
1040
0.625
1070
 72
1070
 0
1070
 71
1070
 0
1002
}
  0
DIMENSION
  5
F10017
330
261
100
AcDbEntity
  8
Bemassung
100
AcDbDimension
  2
*D7
10
19.3196010407632
20
19.3746747614918
30
0.000000000000000
11
-11.6803989592368
21
20.0413414281584
31
0.000000000000000
 70
32
 1
62
 71
     8
  3
BEM-ISBE
100
AcDbAlignedDimension
13
-42.6803989592368
23
-17.6253252385082
33
0.000000000000000
14
19.3196010407632
24
11.0746747614918
34
0.000000000000000
100
AcDbRotatedDimension
1001
ACAD
1000
DSTYLE
1002
{
1070
284
1070
8
1070
78
1070
8
1070
144
1040
1.00000000000000
1070
147
1040
0.625
1070
 72
1070
 0
1070
 71
1070
 0
1002
}
  0
DIMENSION
  5
F1001C
330
261
100
AcDbEntity
  8
Bemassung
100
AcDbDimension
  2
*D8
10
19.9196010407632
20
31.3746747614918
30
0.000000000000000
11
-11.3803989592368
21
32.0413414281584
31
0.000000000000000
 70
32
 1
62.6
 71
     8
  3
BEM-ISBE
100
AcDbAlignedDimension
13
-42.6803989592368
23
-17.6253252385082
33
0.000000000000000
14
19.9196010407632
24
11.3746747614918
34
0.000000000000000
100
AcDbRotatedDimension
1001
ACAD
1000
DSTYLE
1002
{
1070
284
1070
8
1070
78
1070
8
1070
144
1040
1.00000000000000
1070
147
1040
0.625
1070
 72
1070
 0
1070
 71
1070
 0
1002
}
  0
DIMENSION
  5
F10021
330
261
100
AcDbEntity
  8
Bemassung
100
AcDbDimension
  2
*D9
10
-42.6803989592368
20
41.3746747614918
30
0.000000000000000
11
7.31960104076325
21
42.0413414281584
31
0.000000000000000
 70
32
 1
100
 71
     8
  3
BEM-ISBE
100
AcDbAlignedDimension
13
57.3196010407632
23
10.8746747614918
33
0.000000000000000
14
-42.6803989592368
24
-17.6253252385082
34
0.000000000000000
100
AcDbRotatedDimension
1001
ACAD
1000
DSTYLE
1002
{
1070
284
1070
8
1070
78
1070
8
1070
144
1040
1.00000000000000
1070
147
1040
0.625
1070
 72
1070
 0
1070
 71
1070
 0
1002
}
  0
DIMENSION
  5
F10008
330
261
100
AcDbEntity
  8
Bemassung
100
AcDbDimension
  2
*D4
10
-52.6803989592368
20
11.3746747614918
30
0.000000000000000
11
-53.3470656259034
21
5.09472872699247
31
0.000000000000000
 70
32
 1
Ø10
 71
     8
  3
BEM-ISBE
100
AcDbAlignedDimension
13
-42.5803989592368
23
1.37467476149176
33
0.000000000000000
14
-42.5803989592368
24
11.3746747614918
34
0.000000000000000
50
90.0000000000000
100
AcDbRotatedDimension
1001
ACAD
1000
DSTYLE
1002
{
1070
284
1070
8
1070
78
1070
8
1070
144
1040
1.00000000000000
1070
147
1040
0.625
1070
 72
1070
 0
1070
 71
1070
 0
1002
}
  0
DIMENSION
  5
F10012
330
261
100
AcDbEntity
  8
Bemassung
100
AcDbDimension
  2
*D6
10
2.31960104076325
20
11.0746747614918
30
0.000000000000000
11
1.65293437409658
21
-4.91784073752849
31
0.000000000000000
 70
32
 1
Ø9.4
 71
     8
  3
BEM-ISBE
100
AcDbAlignedDimension
13
-17.6803989592368
23
1.67467476149176
33
0.000000000000000
14
-17.6803989592368
24
11.0746747614918
34
0.000000000000000
50
90.0000000000000
100
AcDbRotatedDimension
1001
ACAD
1000
DSTYLE
1002
{
1070
284
1070
8
1070
78
1070
8
1070
144
1040
1.00000000000000
1070
147
1040
0.625
1070
 72
1070
 0
1070
 71
1070
 0
1002
}
  0
DIMENSION
  5
F10026
330
261
100
AcDbEntity
  8
Bemassung
100
AcDbDimension
  2
*D10
10
66.9650830362019
20
1.37467476149176
30
0.000000000000000
11
66.2984163695353
21
6.27686229160678
31
0.000000000000000
 70
32
 1
Ø10
 71
     8
  3
BEM-ISBE
100
AcDbAlignedDimension
13
56.8196010407632
23
11.3746747614918
33
0.000000000000000
14
56.8196010407632
24
1.37467476149176
34
0.000000000000000
50
90.0000000000000
100
AcDbRotatedDimension
1001
ACAD
1000
DSTYLE
1002
{
1070
284
1070
8
1070
78
1070
8
1070
144
1040
1.00000000000000
1070
147
1040
0.625
1070
 72
1070
 0
1070
 71
1070
 0
1002
}
  0
LINE
  5
F1007A
330
F1007B
100
AcDbEntity
8
Geo
100
AcDbLine
10
-42.6803989592368
20
6.37467476149176
30
0.000000000000000
11
-42.6803989592368
21
11.2746747614918
31
0.000000000000000
  0
LINE
  5
F1007C
330
F1007D
100
AcDbEntity
8
Geo
100
AcDbLine
10
-42.6803989592368
20
11.2746747614918
30
0.000000000000000
11
-42.5803989592368
21
11.3746747614918
31
0.000000000000000
  0
LINE
  5
F1007E
330
F1007F
100
AcDbEntity
8
Geo
100
AcDbLine
10
-42.5803989592368
20
11.3746747614918
30
0.000000000000000
11
-17.6803989592368
21
11.3746747614918
31
0.000000000000000
  0
LINE
  5
F10080
330
F10081
100
AcDbEntity
8
Geo
100
AcDbLine
10
-17.6803989592368
20
11.3746747614918
30
0.000000000000000
11
-17.6803989592368
21
11.0746747614918
31
0.000000000000000
  0
LINE
  5
F10082
330
F10083
100
AcDbEntity
8
Geo
100
AcDbLine
10
-17.6803989592368
20
11.0746747614918
30
0.000000000000000
11
19.3196010407632
21
11.0746747614918
31
0.000000000000000
  0
LINE
  5
F10084
330
F10085
100
AcDbEntity
8
Geo
100
AcDbLine
10
19.3196010407632
20
11.0746747614918
30
0.000000000000000
11
19.9196010407632
21
11.3746747614918
31
0.000000000000000
  0
LINE
  5
F10086
330
F10087
100
AcDbEntity
8
Geo
100
AcDbLine
10
19.9196010407632
20
11.3746747614918
30
0.000000000000000
11
56.8196010407632
21
11.3746747614918
31
0.000000000000000
  0
LINE
  5
F10088
330
F10089
100
AcDbEntity
8
Geo
100
AcDbLine
10
56.8196010407632
20
11.3746747614918
30
0.000000000000000
11
57.3196010407632
21
10.8746747614918
31
0.000000000000000
  0
LINE
  5
F1008A
330
F1008B
100
AcDbEntity
8
Geo
100
AcDbLine
10
-42.6803989592368
20
11.2746545984992
30
0.000000000000000
11
-42.5803989592368
21
11.3736747948246
31
0.000000000000000
  0
LINE
  5
F1008C
330
F1008D
100
AcDbEntity
8
Geo
100
AcDbLine
10
-42.5803989592368
20
11.3736747948246
30
0.000000000000000
11
-42.5803989592368
21
11.3736747948246
31
0.000000000000000
  0
LINE
  5
F1008E
330
F1008F
100
AcDbEntity
8
Geo
100
AcDbLine
10
-42.5803989592368
20
11.3736747948246
30
0.000000000000000
11
-42.4803989592368
21
11.3706752947967
31
0.000000000000000
  0
LINE
  5
F10090
330
F10091
100
AcDbEntity
8
Geo
100
AcDbLine
10
-42.4803989592368
20
11.3706752947967
30
0.000000000000000
11
-42.3803989592368
21
11.3656774611678
31
0.000000000000000
  0
LINE
  5
F10092
330
F10093
100
AcDbEntity
8
Geo
100
AcDbLine
10
-42.3803989592368
20
11.3656774611678
30
0.000000000000000
11
-42.2803989592368
21
11.3586832930049
31
0.000000000000000
  0
LINE
  5
F10094
330
F10095
100
AcDbEntity
8
Geo
100
AcDbLine
10
-42.2803989592368
20
11.3586832930049
30
0.000000000000000
11
-42.1803989592368
21
11.3496955878819
31
0.000000000000000
  0
LINE
  5
F10096
330
F10097
100
AcDbEntity
8
Geo
100
AcDbLine
10
-42.1803989592368
20
11.3496955878819
30
0.000000000000000
11
-42.0803989592368
21
11.3387179407611
31
0.000000000000000
  0
LINE
  5
F10098
330
F10099
100
AcDbEntity
8
Geo
100
AcDbLine
10
-42.0803989592368
20
11.3387179407611
30
0.000000000000000
11
-41.9803989592368
21
11.3257547425549
31
0.000000000000000
  0
LINE
  5
F1009A
330
F1009B
100
AcDbEntity
8
Geo
100
AcDbLine
10
-41.9803989592368
20
11.3257547425549
30
0.000000000000000
11
-41.8803989592368
21
11.3108111783699
31
0.000000000000000
  0
LINE
  5
F1009C
330
F1009D
100
AcDbEntity
8
Geo
100
AcDbLine
10
-41.8803989592368
20
11.3108111783699
30
0.000000000000000
11
-41.7803989592368
21
11.2938932254324
31
0.000000000000000
  0
LINE
  5
F1009E
330
F1009F
100
AcDbEntity
8
Geo
100
AcDbLine
10
-41.7803989592368
20
11.2938932254324
30
0.000000000000000
11
-41.6803989592368
21
11.2750076506980
31
0.000000000000000
  0
LINE
  5
F100A0
330
F100A1
100
AcDbEntity
8
Geo
100
AcDbLine
10
-41.6803989592368
20
11.2750076506980
30
0.000000000000000
11
-41.5803989592368
21
11.2541620081448
31
0.000000000000000
  0
LINE
  5
F100A2
330
F100A3
100
AcDbEntity
8
Geo
100
AcDbLine
10
-41.5803989592368
20
11.2541620081448
30
0.000000000000000
11
-41.4803989592368
21
11.2313646357519
31
0.000000000000000
  0
LINE
  5
F100A4
330
F100A5
100
AcDbEntity
8
Geo
100
AcDbLine
10
-41.4803989592368
20
11.2313646357519
30
0.000000000000000
11
-41.3803989592368
21
11.2066246521643
31
0.000000000000000
  0
LINE
  5
F100A6
330
F100A7
100
AcDbEntity
8
Geo
100
AcDbLine
10
-41.3803989592368
20
11.2066246521643
30
0.000000000000000
11
-41.2803989592368
21
11.1799519530456
31
0.000000000000000
  0
LINE
  5
F100A8
330
F100A9
100
AcDbEntity
8
Geo
100
AcDbLine
10
-41.2803989592368
20
11.1799519530456
30
0.000000000000000
11
-41.1803989592368
21
11.1513572071198
31
0.000000000000000
  0
LINE
  5
F100AA
330
F100AB
100
AcDbEntity
8
Geo
100
AcDbLine
10
-41.1803989592368
20
11.1513572071198
30
0.000000000000000
11
-41.0803989592368
21
11.1208518519040
31
0.000000000000000
  0
LINE
  5
F100AC
330
F100AD
100
AcDbEntity
8
Geo
100
AcDbLine
10
-41.0803989592368
20
11.1208518519040
30
0.000000000000000
11
-40.9803989592368
21
11.0884480891335
31
0.000000000000000
  0
LINE
  5
F100AE
330
F100AF
100
AcDbEntity
8
Geo
100
AcDbLine
10
-40.9803989592368
20
11.0884480891335
30
0.000000000000000
11
-40.8803989592368
21
11.0541588798814
31
0.000000000000000
  0
LINE
  5
F100B0
330
F100B1
100
AcDbEntity
8
Geo
100
AcDbLine
10
-40.8803989592368
20
11.0541588798814
30
0.000000000000000
11
-40.7803989592368
21
11.0179979393743
31
0.000000000000000
  0
LINE
  5
F100B2
330
F100B3
100
AcDbEntity
8
Geo
100
AcDbLine
10
-40.7803989592368
20
11.0179979393743
30
0.000000000000000
11
-40.6803989592368
21
10.9799797315062
31
0.000000000000000
  0
LINE
  5
F100B4
330
F100B5
100
AcDbEntity
8
Geo
100
AcDbLine
10
-40.6803989592368
20
10.9799797315062
30
0.000000000000000
11
-40.5803989592368
21
10.9401194630533
31
0.000000000000000
  0
LINE
  5
F100B6
330
F100B7
100
AcDbEntity
8
Geo
100
AcDbLine
10
-40.5803989592368
20
10.9401194630533
30
0.000000000000000
11
-40.4803989592368
21
10.8984330775916
31
0.000000000000000
  0
LINE
  5
F100B8
330
F100B9
100
AcDbEntity
8
Geo
100
AcDbLine
10
-40.4803989592368
20
10.8984330775916
30
0.000000000000000
11
-40.3803989592368
21
10.8549372491194
31
0.000000000000000
  0
LINE
  5
F100BA
330
F100BB
100
AcDbEntity
8
Geo
100
AcDbLine
10
-40.3803989592368
20
10.8549372491194
30
0.000000000000000
11
-40.2803989592368
21
10.8096493753882
31
0.000000000000000
  0
LINE
  5
F100BC
330
F100BD
100
AcDbEntity
8
Geo
100
AcDbLine
10
-40.2803989592368
20
10.8096493753882
30
0.000000000000000
11
-40.1803989592368
21
10.7625875709436
31
0.000000000000000
  0
LINE
  5
F100BE
330
F100BF
100
AcDbEntity
8
Geo
100
AcDbLine
10
-40.1803989592368
20
10.7625875709436
30
0.000000000000000
11
-40.0803989592368
21
10.7137706598800
31
0.000000000000000
  0
LINE
  5
F100C0
330
F100C1
100
AcDbEntity
8
Geo
100
AcDbLine
10
-40.0803989592368
20
10.7137706598800
30
0.000000000000000
11
-39.9803989592368
21
10.6632181683109
31
0.000000000000000
  0
LINE
  5
F100C2
330
F100C3
100
AcDbEntity
8
Geo
100
AcDbLine
10
-39.9803989592368
20
10.6632181683109
30
0.000000000000000
11
-39.8803989592368
21
10.6109503165588
31
0.000000000000000
  0
LINE
  5
F100C4
330
F100C5
100
AcDbEntity
8
Geo
100
AcDbLine
10
-39.8803989592368
20
10.6109503165588
30
0.000000000000000
11
-39.7803989592368
21
10.5569880110677
31
0.000000000000000
  0
LINE
  5
F100C6
330
F100C7
100
AcDbEntity
8
Geo
100
AcDbLine
10
-39.7803989592368
20
10.5569880110677
30
0.000000000000000
11
-39.6803989592368
21
10.5013528360402
31
0.000000000000000
  0
LINE
  5
F100C8
330
F100C9
100
AcDbEntity
8
Geo
100
AcDbLine
10
-39.6803989592368
20
10.5013528360402
30
0.000000000000000
11
-39.5803989592368
21
10.4440670448044
31
0.000000000000000
  0
LINE
  5
F100CA
330
F100CB
100
AcDbEntity
8
Geo
100
AcDbLine
10
-39.5803989592368
20
10.4440670448044
30
0.000000000000000
11
-39.4803989592368
21
10.3851535509132
31
0.000000000000000
  0
LINE
  5
F100CC
330
F100CD
100
AcDbEntity
8
Geo
100
AcDbLine
10
-39.4803989592368
20
10.3851535509132
30
0.000000000000000
11
-39.3803989592368
21
10.3246359189786
31
0.000000000000000
  0
LINE
  5
F100CE
330
F100CF
100
AcDbEntity
8
Geo
100
AcDbLine
10
-39.3803989592368
20
10.3246359189786
30
0.000000000000000
11
-39.2803989592368
21
10.2625383552464
31
0.000000000000000
  0
LINE
  5
F100D0
330
F100D1
100
AcDbEntity
8
Geo
100
AcDbLine
10
-39.2803989592368
20
10.2625383552464
30
0.000000000000000
11
-39.1803989592368
21
10.1988856979142
31
0.000000000000000
  0
LINE
  5
F100D2
330
F100D3
100
AcDbEntity
8
Geo
100
AcDbLine
10
-39.1803989592368
20
10.1988856979142
30
0.000000000000000
11
-39.0803989592368
21
10.1337034071962
31
0.000000000000000
  0
LINE
  5
F100D4
330
F100D5
100
AcDbEntity
8
Geo
100
AcDbLine
10
-39.0803989592368
20
10.1337034071962
30
0.000000000000000
11
-38.9803989592368
21
10.0670175551397
31
0.000000000000000
  0
LINE
  5
F100D6
330
F100D7
100
AcDbEntity
8
Geo
100
AcDbLine
10
-38.9803989592368
20
10.0670175551397
30
0.000000000000000
11
-38.8803989592368
21
9.99885481519629
31
0.000000000000000
  0
LINE
  5
F100D8
330
F100D9
100
AcDbEntity
8
Geo
100
AcDbLine
10
-38.8803989592368
20
9.99885481519629
30
0.000000000000000
11
-38.7803989592367
21
9.92924245155315
31
0.000000000000000
  0
LINE
  5
F100DA
330
F100DB
100
AcDbEntity
8
Geo
100
AcDbLine
10
-38.7803989592367
20
9.92924245155315
30
0.000000000000000
11
-38.6803989592368
21
9.85820830822759
31
0.000000000000000
  0
LINE
  5
F100DC
330
F100DD
100
AcDbEntity
8
Geo
100
AcDbLine
10
-38.6803989592368
20
9.85820830822759
30
0.000000000000000
11
-38.5803989592368
21
9.78578079792983
31
0.000000000000000
  0
LINE
  5
F100DE
330
F100DF
100
AcDbEntity
8
Geo
100
AcDbLine
10
-38.5803989592368
20
9.78578079792983
30
0.000000000000000
11
-38.4803989592368
21
9.71198889069831
31
0.000000000000000
  0
LINE
  5
F100E0
330
F100E1
100
AcDbEntity
8
Geo
100
AcDbLine
10
-38.4803989592368
20
9.71198889069831
30
0.000000000000000
11
-38.3803989592368
21
9.63686210231202
31
0.000000000000000
  0
LINE
  5
F100E2
330
F100E3
100
AcDbEntity
8
Geo
100
AcDbLine
10
-38.3803989592368
20
9.63686210231202
30
0.000000000000000
11
-38.2803989592368
21
9.56043048248467
31
0.000000000000000
  0
LINE
  5
F100E4
330
F100E5
100
AcDbEntity
8
Geo
100
AcDbLine
10
-38.2803989592368
20
9.56043048248467
30
0.000000000000000
11
-38.1803989592368
21
9.48272460284509
31
0.000000000000000
  0
LINE
  5
F100E6
330
F100E7
100
AcDbEntity
8
Geo
100
AcDbLine
10
-38.1803989592368
20
9.48272460284509
30
0.000000000000000
11
-38.0803989592368
21
9.40377554470908
31
0.000000000000000
  0
LINE
  5
F100E8
330
F100E9
100
AcDbEntity
8
Geo
100
AcDbLine
10
-38.0803989592368
20
9.40377554470908
30
0.000000000000000
11
-37.9803989592368
21
9.32361488664726
31
0.000000000000000
  0
LINE
  5
F100EA
330
F100EB
100
AcDbEntity
8
Geo
100
AcDbLine
10
-37.9803989592368
20
9.32361488664726
30
0.000000000000000
11
-37.8803989592368
21
9.24227469185405
31
0.000000000000000
  0
LINE
  5
F100EC
330
F100ED
100
AcDbEntity
8
Geo
100
AcDbLine
10
-37.8803989592368
20
9.24227469185405
30
0.000000000000000
11
-37.7803989592368
21
9.15978749532285
31
0.000000000000000
  0
LINE
  5
F100EE
330
F100EF
100
AcDbEntity
8
Geo
100
AcDbLine
10
-37.7803989592368
20
9.15978749532285
30
0.000000000000000
11
-37.6803989592368
21
9.07618629083247
31
0.000000000000000
  0
LINE
  5
F100F0
330
F100F1
100
AcDbEntity
8
Geo
100
AcDbLine
10
-37.6803989592368
20
9.07618629083247
30
0.000000000000000
11
-37.5803989592368
21
8.99150451775002
31
0.000000000000000
  0
LINE
  5
F100F2
330
F100F3
100
AcDbEntity
8
Geo
100
AcDbLine
10
-37.5803989592368
20
8.99150451775002
30
0.000000000000000
11
-37.4803989592368
21
8.90577604765566
31
0.000000000000000
  0
LINE
  5
F100F4
330
F100F5
100
AcDbEntity
8
Geo
100
AcDbLine
10
-37.4803989592368
20
8.90577604765566
30
0.000000000000000
11
-37.3803989592368
21
8.81903517079441
31
0.000000000000000
  0
LINE
  5
F100F6
330
F100F7
100
AcDbEntity
8
Geo
100
AcDbLine
10
-37.3803989592368
20
8.81903517079441
30
0.000000000000000
11
-37.2803989592368
21
8.73131658236047
31
0.000000000000000
  0
LINE
  5
F100F8
330
F100F9
100
AcDbEntity
8
Geo
100
AcDbLine
10
-37.2803989592368
20
8.73131658236047
30
0.000000000000000
11
-37.1803989592368
21
8.64265536861966
31
0.000000000000000
  0
LINE
  5
F100FA
330
F100FB
100
AcDbEntity
8
Geo
100
AcDbLine
10
-37.1803989592368
20
8.64265536861966
30
0.000000000000000
11
-37.0803989592368
21
8.55308699287534
31
0.000000000000000
  0
LINE
  5
F100FC
330
F100FD
100
AcDbEntity
8
Geo
100
AcDbLine
10
-37.0803989592368
20
8.55308699287534
30
0.000000000000000
11
-36.9803989592368
21
8.46264728128357
31
0.000000000000000
  0
LINE
  5
F100FE
330
F100FF
100
AcDbEntity
8
Geo
100
AcDbLine
10
-36.9803989592368
20
8.46264728128357
30
0.000000000000000
11
-36.8803989592368
21
8.37137240852314
31
0.000000000000000
  0
LINE
  5
F10100
330
F10101
100
AcDbEntity
8
Geo
100
AcDbLine
10
-36.8803989592368
20
8.37137240852314
30
0.000000000000000
11
-36.7803989592368
21
8.27929888332619
31
0.000000000000000
  0
LINE
  5
F10102
330
F10103
100
AcDbEntity
8
Geo
100
AcDbLine
10
-36.7803989592368
20
8.27929888332619
30
0.000000000000000
11
-36.6803989592368
21
8.18646353387515
31
0.000000000000000
  0
LINE
  5
F10104
330
F10105
100
AcDbEntity
8
Geo
100
AcDbLine
10
-36.6803989592368
20
8.18646353387515
30
0.000000000000000
11
-36.5803989592368
21
8.09290349307201
31
0.000000000000000
  0
LINE
  5
F10106
330
F10107
100
AcDbEntity
8
Geo
100
AcDbLine
10
-36.5803989592368
20
8.09290349307201
30
0.000000000000000
11
-36.4803989592368
21
7.99865618368566
31
0.000000000000000
  0
LINE
  5
F10108
330
F10109
100
AcDbEntity
8
Geo
100
AcDbLine
10
-36.4803989592368
20
7.99865618368566
30
0.000000000000000
11
-36.3803989592368
21
7.90375930338323
31
0.000000000000000
  0
LINE
  5
F1010A
330
F1010B
100
AcDbEntity
8
Geo
100
AcDbLine
10
-36.3803989592368
20
7.90375930338323
30
0.000000000000000
11
-36.2803989592368
21
7.80825080965156
31
0.000000000000000
  0
LINE
  5
F1010C
330
F1010D
100
AcDbEntity
8
Geo
100
AcDbLine
10
-36.2803989592368
20
7.80825080965156
30
0.000000000000000
11
-36.1803989592368
21
7.71216890461472
31
0.000000000000000
  0
LINE
  5
F1010E
330
F1010F
100
AcDbEntity
8
Geo
100
AcDbLine
10
-36.1803989592368
20
7.71216890461472
30
0.000000000000000
11
-36.0803989592368
21
7.61555201975365
31
0.000000000000000
  0
LINE
  5
F10110
330
F10111
100
AcDbEntity
8
Geo
100
AcDbLine
10
-36.0803989592368
20
7.61555201975365
30
0.000000000000000
11
-35.9803989592368
21
7.51843880053408
31
0.000000000000000
  0
LINE
  5
F10112
330
F10113
100
AcDbEntity
8
Geo
100
AcDbLine
10
-35.9803989592368
20
7.51843880053408
30
0.000000000000000
11
-35.8803989592368
21
7.42086809094888
31
0.000000000000000
  0
LINE
  5
F10114
330
F10115
100
AcDbEntity
8
Geo
100
AcDbLine
10
-35.8803989592368
20
7.42086809094888
30
0.000000000000000
11
-35.7803989592368
21
7.32287891798096
31
0.000000000000000
  0
LINE
  5
F10116
330
F10117
100
AcDbEntity
8
Geo
100
AcDbLine
10
-35.7803989592368
20
7.32287891798096
30
0.000000000000000
11
-35.6803989592368
21
7.22451047599299
31
0.000000000000000
  0
LINE
  5
F10118
330
F10119
100
AcDbEntity
8
Geo
100
AcDbLine
10
-35.6803989592368
20
7.22451047599299
30
0.000000000000000
11
-35.5803989592368
21
7.12580211105022
31
0.000000000000000
  0
LINE
  5
F1011A
330
F1011B
100
AcDbEntity
8
Geo
100
AcDbLine
10
-35.5803989592368
20
7.12580211105022
30
0.000000000000000
11
-35.4803989592368
21
7.02679330518252
31
0.000000000000000
  0
LINE
  5
F1011C
330
F1011D
100
AcDbEntity
8
Geo
100
AcDbLine
10
-35.4803989592368
20
7.02679330518252
30
0.000000000000000
11
-35.3803989592368
21
6.92752366059214
31
0.000000000000000
  0
LINE
  5
F1011E
330
F1011F
100
AcDbEntity
8
Geo
100
AcDbLine
10
-35.3803989592368
20
6.92752366059214
30
0.000000000000000
11
-35.2803989592368
21
6.82803288381334
31
0.000000000000000
  0
LINE
  5
F10120
330
F10121
100
AcDbEntity
8
Geo
100
AcDbLine
10
-35.2803989592368
20
6.82803288381334
30
0.000000000000000
11
-35.1803989592368
21
6.72836076983031
31
0.000000000000000
  0
LINE
  5
F10122
330
F10123
100
AcDbEntity
8
Geo
100
AcDbLine
10
-35.1803989592368
20
6.72836076983031
30
0.000000000000000
11
-35.0803989592368
21
6.62854718615969
31
0.000000000000000
  0
LINE
  5
F10124
330
F10125
100
AcDbEntity
8
Geo
100
AcDbLine
10
-35.0803989592368
20
6.62854718615969
30
0.000000000000000
11
-34.9803989592368
21
6.52863205690413
31
0.000000000000000
  0
LINE
  5
F10126
330
F10127
100
AcDbEntity
8
Geo
100
AcDbLine
10
-34.9803989592368
20
6.52863205690413
30
0.000000000000000
11
-34.8803989592368
21
6.42865534678314
31
0.000000000000000
  0
LINE
  5
F10128
330
F10129
100
AcDbEntity
8
Geo
100
AcDbLine
10
-34.8803989592368
20
6.42865534678314
30
0.000000000000000
11
-34.7803989592368
21
6.32865704514776
31
0.000000000000000
  0
LINE
  5
F1012A
330
F1012B
100
AcDbEntity
8
Geo
100
AcDbLine
10
-34.7803989592368
20
6.32865704514776
30
0.000000000000000
11
-34.6803989592368
21
6.22867714998536
31
0.000000000000000
  0
LINE
  5
F1012C
330
F1012D
100
AcDbEntity
8
Geo
100
AcDbLine
10
-34.6803989592368
20
6.22867714998536
30
0.000000000000000
11
-34.5803989592368
21
6.12875565192095
31
0.000000000000000
  0
LINE
  5
F1012E
330
F1012F
100
AcDbEntity
8
Geo
100
AcDbLine
10
-34.5803989592368
20
6.12875565192095
30
0.000000000000000
11
-34.4803989592368
21
6.02893251822149
31
0.000000000000000
  0
LINE
  5
F10130
330
F10131
100
AcDbEntity
8
Geo
100
AcDbLine
10
-34.4803989592368
20
6.02893251822149
30
0.000000000000000
11
-34.3803989592368
21
5.92924767680951
31
0.000000000000000
  0
LINE
  5
F10132
330
F10133
100
AcDbEntity
8
Geo
100
AcDbLine
10
-34.3803989592368
20
5.92924767680951
30
0.000000000000000
11
-34.2803989592368
21
5.82974100029245
31
0.000000000000000
  0
LINE
  5
F10134
330
F10135
100
AcDbEntity
8
Geo
100
AcDbLine
10
-34.2803989592368
20
5.82974100029245
30
0.000000000000000
11
-34.1803989592368
21
5.73045229001418
31
0.000000000000000
  0
LINE
  5
F10136
330
F10137
100
AcDbEntity
8
Geo
100
AcDbLine
10
-34.1803989592368
20
5.73045229001418
30
0.000000000000000
11
-34.0803989592368
21
5.63142126013499
31
0.000000000000000
  0
LINE
  5
F10138
330
F10139
100
AcDbEntity
8
Geo
100
AcDbLine
10
-34.0803989592368
20
5.63142126013499
30
0.000000000000000
11
-33.9803989592368
21
5.53268752174642
31
0.000000000000000
  0
LINE
  5
F1013A
330
F1013B
100
AcDbEntity
8
Geo
100
AcDbLine
10
-33.9803989592368
20
5.53268752174642
30
0.000000000000000
11
-33.8803989592368
21
5.43429056702741
31
0.000000000000000
  0
LINE
  5
F1013C
330
F1013D
100
AcDbEntity
8
Geo
100
AcDbLine
10
-33.8803989592368
20
5.43429056702741
30
0.000000000000000
11
-33.7803989592368
21
5.33626975344789
31
0.000000000000000
  0
LINE
  5
F1013E
330
F1013F
100
AcDbEntity
8
Geo
100
AcDbLine
10
-33.7803989592368
20
5.33626975344789
30
0.000000000000000
11
-33.6803989592368
21
5.23866428802637
31
0.000000000000000
  0
LINE
  5
F10140
330
F10141
100
AcDbEntity
8
Geo
100
AcDbLine
10
-33.6803989592368
20
5.23866428802637
30
0.000000000000000
11
-33.5803989592368
21
5.14151321164764
31
0.000000000000000
  0
LINE
  5
F10142
330
F10143
100
AcDbEntity
8
Geo
100
AcDbLine
10
-33.5803989592368
20
5.14151321164764
30
0.000000000000000
11
-33.4803989592368
21
5.04485538344691
31
0.000000000000000
  0
LINE
  5
F10144
330
F10145
100
AcDbEntity
8
Geo
100
AcDbLine
10
-33.4803989592368
20
5.04485538344691
30
0.000000000000000
11
-33.3803989592368
21
4.94872946526671
31
0.000000000000000
  0
LINE
  5
F10146
330
F10147
100
AcDbEntity
8
Geo
100
AcDbLine
10
-33.3803989592368
20
4.94872946526671
30
0.000000000000000
11
-33.2803989592368
21
4.85317390619265
31
0.000000000000000
  0
LINE
  5
F10148
330
F10149
100
AcDbEntity
8
Geo
100
AcDbLine
10
-33.2803989592368
20
4.85317390619265
30
0.000000000000000
11
-33.1803989592368
21
4.75822692717430
31
0.000000000000000
  0
LINE
  5
F1014A
330
F1014B
100
AcDbEntity
8
Geo
100
AcDbLine
10
-33.1803989592368
20
4.75822692717430
30
0.000000000000000
11
-33.0803989592368
21
4.66392650573732
31
0.000000000000000
  0
LINE
  5
F1014C
330
F1014D
100
AcDbEntity
8
Geo
100
AcDbLine
10
-33.0803989592368
20
4.66392650573732
30
0.000000000000000
11
-32.9803989592368
21
4.57031036079298
31
0.000000000000000
  0
LINE
  5
F1014E
330
F1014F
100
AcDbEntity
8
Geo
100
AcDbLine
10
-32.9803989592368
20
4.57031036079298
30
0.000000000000000
11
-32.8803989592368
21
4.47741593755104
31
0.000000000000000
  0
LINE
  5
F10150
330
F10151
100
AcDbEntity
8
Geo
100
AcDbLine
10
-32.8803989592368
20
4.47741593755104
30
0.000000000000000
11
-32.7803989592368
21
4.38528039254224
31
0.000000000000000
  0
LINE
  5
F10152
330
F10153
100
AcDbEntity
8
Geo
100
AcDbLine
10
-32.7803989592368
20
4.38528039254224
30
0.000000000000000
11
-32.6803989592368
21
4.29394057875610
31
0.000000000000000
  0
LINE
  5
F10154
330
F10155
100
AcDbEntity
8
Geo
100
AcDbLine
10
-32.6803989592368
20
4.29394057875610
30
0.000000000000000
11
-32.5803989592368
21
4.20343303090031
31
0.000000000000000
  0
LINE
  5
F10156
330
F10157
100
AcDbEntity
8
Geo
100
AcDbLine
10
-32.5803989592368
20
4.20343303090031
30
0.000000000000000
11
-32.4803989592368
21
4.11379395078725
31
0.000000000000000
  0
LINE
  5
F10158
330
F10159
100
AcDbEntity
8
Geo
100
AcDbLine
10
-32.4803989592368
20
4.11379395078725
30
0.000000000000000
11
-32.3803989592368
21
4.02505919285380
31
0.000000000000000
  0
LINE
  5
F1015A
330
F1015B
100
AcDbEntity
8
Geo
100
AcDbLine
10
-32.3803989592368
20
4.02505919285380
30
0.000000000000000
11
-32.2803989592368
21
3.93726424982002
31
0.000000000000000
  0
LINE
  5
F1015C
330
F1015D
100
AcDbEntity
8
Geo
100
AcDbLine
10
-32.2803989592368
20
3.93726424982002
30
0.000000000000000
11
-32.1803989592368
21
3.85044423849253
31
0.000000000000000
  0
LINE
  5
F1015E
330
F1015F
100
AcDbEntity
8
Geo
100
AcDbLine
10
-32.1803989592368
20
3.85044423849253
30
0.000000000000000
11
-32.0803989592368
21
3.76463388571828
31
0.000000000000000
  0
LINE
  5
F10160
330
F10161
100
AcDbEntity
8
Geo
100
AcDbLine
10
-32.0803989592368
20
3.76463388571828
30
0.000000000000000
11
-31.9803989592368
21
3.67986751449425
31
0.000000000000000
  0
LINE
  5
F10162
330
F10163
100
AcDbEntity
8
Geo
100
AcDbLine
10
-31.9803989592368
20
3.67986751449425
30
0.000000000000000
11
-31.8803989592368
21
3.59617903023875
31
0.000000000000000
  0
LINE
  5
F10164
330
F10165
100
AcDbEntity
8
Geo
100
AcDbLine
10
-31.8803989592368
20
3.59617903023875
30
0.000000000000000
11
-31.7803989592368
21
3.51360190722963
31
0.000000000000000
  0
LINE
  5
F10166
330
F10167
100
AcDbEntity
8
Geo
100
AcDbLine
10
-31.7803989592368
20
3.51360190722963
30
0.000000000000000
11
-31.6803989592368
21
3.43216917521508
31
0.000000000000000
  0
LINE
  5
F10168
330
F10169
100
AcDbEntity
8
Geo
100
AcDbLine
10
-31.6803989592368
20
3.43216917521508
30
0.000000000000000
11
-31.5803989592368
21
3.35191340620216
31
0.000000000000000
  0
LINE
  5
F1016A
330
F1016B
100
AcDbEntity
8
Geo
100
AcDbLine
10
-31.5803989592368
20
3.35191340620216
30
0.000000000000000
11
-31.4803989592368
21
3.27286670142841
31
0.000000000000000
  0
LINE
  5
F1016C
330
F1016D
100
AcDbEntity
8
Geo
100
AcDbLine
10
-31.4803989592368
20
3.27286670142841
30
0.000000000000000
11
-31.3803989592368
21
3.19506067852179
31
0.000000000000000
  0
LINE
  5
F1016E
330
F1016F
100
AcDbEntity
8
Geo
100
AcDbLine
10
-31.3803989592368
20
3.19506067852179
30
0.000000000000000
11
-31.2803989592368
21
3.11852645885408
31
0.000000000000000
  0
LINE
  5
F10170
330
F10171
100
AcDbEntity
8
Geo
100
AcDbLine
10
-31.2803989592368
20
3.11852645885408
30
0.000000000000000
11
-31.1803989592368
21
3.04329465509268
31
0.000000000000000
  0
LINE
  5
F10172
330
F10173
100
AcDbEntity
8
Geo
100
AcDbLine
10
-31.1803989592368
20
3.04329465509268
30
0.000000000000000
11
-31.0803989592368
21
2.96939535895604
31
0.000000000000000
  0
LINE
  5
F10174
330
F10175
100
AcDbEntity
8
Geo
100
AcDbLine
10
-31.0803989592368
20
2.96939535895604
30
0.000000000000000
11
-30.9803989592368
21
2.89685812917729
31
0.000000000000000
  0
LINE
  5
F10176
330
F10177
100
AcDbEntity
8
Geo
100
AcDbLine
10
-30.9803989592368
20
2.89685812917729
30
0.000000000000000
11
-30.8803989592368
21
2.82571197968120
31
0.000000000000000
  0
LINE
  5
F10178
330
F10179
100
AcDbEntity
8
Geo
100
AcDbLine
10
-30.8803989592368
20
2.82571197968120
30
0.000000000000000
11
-30.7803989592368
21
2.75598536797896
31
0.000000000000000
  0
LINE
  5
F1017A
330
F1017B
100
AcDbEntity
8
Geo
100
AcDbLine
10
-30.7803989592368
20
2.75598536797896
30
0.000000000000000
11
-30.6803989592368
21
2.68770618378557
31
0.000000000000000
  0
LINE
  5
F1017C
330
F1017D
100
AcDbEntity
8
Geo
100
AcDbLine
10
-30.6803989592368
20
2.68770618378557
30
0.000000000000000
11
-30.5803989592368
21
2.62090173786434
31
0.000000000000000
  0
LINE
  5
F1017E
330
F1017F
100
AcDbEntity
8
Geo
100
AcDbLine
10
-30.5803989592368
20
2.62090173786434
30
0.000000000000000
11
-30.4803989592368
21
2.55559875110293
31
0.000000000000000
  0
LINE
  5
F10180
330
F10181
100
AcDbEntity
8
Geo
100
AcDbLine
10
-30.4803989592368
20
2.55559875110293
30
0.000000000000000
11
-30.3803989592368
21
2.49182334382533
31
0.000000000000000
  0
LINE
  5
F10182
330
F10183
100
AcDbEntity
8
Geo
100
AcDbLine
10
-30.3803989592368
20
2.49182334382533
30
0.000000000000000
11
-30.2803989592368
21
2.42960102534414
31
0.000000000000000
  0
LINE
  5
F10184
330
F10185
100
AcDbEntity
8
Geo
100
AcDbLine
10
-30.2803989592368
20
2.42960102534414
30
0.000000000000000
11
-30.1803989592368
21
2.36895668375713
31
0.000000000000000
  0
LINE
  5
F10186
330
F10187
100
AcDbEntity
8
Geo
100
AcDbLine
10
-30.1803989592368
20
2.36895668375713
30
0.000000000000000
11
-30.0803989592368
21
2.30991457599234
31
0.000000000000000
  0
LINE
  5
F10188
330
F10189
100
AcDbEntity
8
Geo
100
AcDbLine
10
-30.0803989592368
20
2.30991457599234
30
0.000000000000000
11
-29.9803989592368
21
2.25249831810568
31
0.000000000000000
  0
LINE
  5
F1018A
330
F1018B
100
AcDbEntity
8
Geo
100
AcDbLine
10
-29.9803989592368
20
2.25249831810568
30
0.000000000000000
11
-29.8803989592368
21
2.19673087583475
31
0.000000000000000
  0
LINE
  5
F1018C
330
F1018D
100
AcDbEntity
8
Geo
100
AcDbLine
10
-29.8803989592368
20
2.19673087583475
30
0.000000000000000
11
-29.7803989592368
21
2.14263455541291
31
0.000000000000000
  0
LINE
  5
F1018E
330
F1018F
100
AcDbEntity
8
Geo
100
AcDbLine
10
-29.7803989592368
20
2.14263455541291
30
0.000000000000000
11
-29.6803989592368
21
2.09023099464705
31
0.000000000000000
  0
LINE
  5
F10190
330
F10191
100
AcDbEntity
8
Geo
100
AcDbLine
10
-29.6803989592368
20
2.09023099464705
30
0.000000000000000
11
-29.5803989592368
21
2.03954115426278
31
0.000000000000000
  0
LINE
  5
F10192
330
F10193
100
AcDbEntity
8
Geo
100
AcDbLine
10
-29.5803989592368
20
2.03954115426278
30
0.000000000000000
11
-29.4803989592368
21
1.99058530952038
31
0.000000000000000
  0
LINE
  5
F10194
330
F10195
100
AcDbEntity
8
Geo
100
AcDbLine
10
-29.4803989592368
20
1.99058530952038
30
0.000000000000000
11
-29.3803989592368
21
1.94338304210503
31
0.000000000000000
  0
LINE
  5
F10196
330
F10197
100
AcDbEntity
8
Geo
100
AcDbLine
10
-29.3803989592368
20
1.94338304210503
30
0.000000000000000
11
-29.2803989592368
21
1.89795323229433
31
0.000000000000000
  0
LINE
  5
F10198
330
F10199
100
AcDbEntity
8
Geo
100
AcDbLine
10
-29.2803989592368
20
1.89795323229433
30
0.000000000000000
11
-29.1803989592368
21
1.85431405140648
31
0.000000000000000
  0
LINE
  5
F1019A
330
F1019B
100
AcDbEntity
8
Geo
100
AcDbLine
10
-29.1803989592368
20
1.85431405140648
30
0.000000000000000
11
-29.0803989592368
21
1.81248295453199
31
0.000000000000000
  0
LINE
  5
F1019C
330
F1019D
100
AcDbEntity
8
Geo
100
AcDbLine
10
-29.0803989592368
20
1.81248295453199
30
0.000000000000000
11
-28.9803989592368
21
1.77247667355188
31
0.000000000000000
  0
LINE
  5
F1019E
330
F1019F
100
AcDbEntity
8
Geo
100
AcDbLine
10
-28.9803989592368
20
1.77247667355188
30
0.000000000000000
11
-28.8803989592368
21
1.73431121044512
31
0.000000000000000
  0
LINE
  5
F101A0
330
F101A1
100
AcDbEntity
8
Geo
100
AcDbLine
10
-28.8803989592368
20
1.73431121044512
30
0.000000000000000
11
-28.7803989592368
21
1.69800183088809
31
0.000000000000000
  0
LINE
  5
F101A2
330
F101A3
100
AcDbEntity
8
Geo
100
AcDbLine
10
-28.7803989592368
20
1.69800183088809
30
0.000000000000000
11
-28.6803989592368
21
1.66356305814849
31
0.000000000000000
  0
LINE
  5
F101A4
330
F101A5
100
AcDbEntity
8
Geo
100
AcDbLine
10
-28.6803989592368
20
1.66356305814849
30
0.000000000000000
11
-28.5803989592368
21
1.63100866727624
31
0.000000000000000
  0
LINE
  5
F101A6
330
F101A7
100
AcDbEntity
8
Geo
100
AcDbLine
10
-28.5803989592368
20
1.63100866727624
30
0.000000000000000
11
-28.4803989592368
21
1.60035167959365
31
0.000000000000000
  0
LINE
  5
F101A8
330
F101A9
100
AcDbEntity
8
Geo
100
AcDbLine
10
-28.4803989592368
20
1.60035167959365
30
0.000000000000000
11
-28.3803989592368
21
1.57160435748701
31
0.000000000000000
  0
LINE
  5
F101AA
330
F101AB
100
AcDbEntity
8
Geo
100
AcDbLine
10
-28.3803989592368
20
1.57160435748701
30
0.000000000000000
11
-28.2803989592368
21
1.54477819950190
31
0.000000000000000
  0
LINE
  5
F101AC
330
F101AD
100
AcDbEntity
8
Geo
100
AcDbLine
10
-28.2803989592368
20
1.54477819950190
30
0.000000000000000
11
-28.1803989592368
21
1.51988393574382
31
0.000000000000000
  0
LINE
  5
F101AE
330
F101AF
100
AcDbEntity
8
Geo
100
AcDbLine
10
-28.1803989592368
20
1.51988393574382
30
0.000000000000000
11
-28.0803989592368
21
1.49693152358636
31
0.000000000000000
  0
LINE
  5
F101B0
330
F101B1
100
AcDbEntity
8
Geo
100
AcDbLine
10
-28.0803989592368
20
1.49693152358636
30
0.000000000000000
11
-27.9803989592368
21
1.47593014368835
31
0.000000000000000
  0
LINE
  5
F101B2
330
F101B3
100
AcDbEntity
8
Geo
100
AcDbLine
10
-27.9803989592368
20
1.47593014368835
30
0.000000000000000
11
-27.8803989592368
21
1.45688819632174
31
0.000000000000000
  0
LINE
  5
F101B4
330
F101B5
100
AcDbEntity
8
Geo
100
AcDbLine
10
-27.8803989592368
20
1.45688819632174
30
0.000000000000000
11
-27.7803989592368
21
1.43981329801158
31
0.000000000000000
  0
LINE
  5
F101B6
330
F101B7
100
AcDbEntity
8
Geo
100
AcDbLine
10
-27.7803989592368
20
1.43981329801158
30
0.000000000000000
11
-27.6803989592368
21
1.42471227848954
31
0.000000000000000
  0
LINE
  5
F101B8
330
F101B9
100
AcDbEntity
8
Geo
100
AcDbLine
10
-27.6803989592368
20
1.42471227848954
30
0.000000000000000
11
-27.5803989592368
21
1.41159117796208
31
0.000000000000000
  0
LINE
  5
F101BA
330
F101BB
100
AcDbEntity
8
Geo
100
AcDbLine
10
-27.5803989592368
20
1.41159117796208
30
0.000000000000000
11
-27.4803989592368
21
1.40045524469447
31
0.000000000000000
  0
LINE
  5
F101BC
330
F101BD
100
AcDbEntity
8
Geo
100
AcDbLine
10
-27.4803989592368
20
1.40045524469447
30
0.000000000000000
11
-27.3803989592368
21
1.39130893291153
31
0.000000000000000
  0
LINE
  5
F101BE
330
F101BF
100
AcDbEntity
8
Geo
100
AcDbLine
10
-27.3803989592368
20
1.39130893291153
30
0.000000000000000
11
-27.2803989592368
21
1.38415590101604
31
0.000000000000000
  0
LINE
  5
F101C0
330
F101C1
100
AcDbEntity
8
Geo
100
AcDbLine
10
-27.2803989592368
20
1.38415590101604
30
0.000000000000000
11
-27.1803989592368
21
1.37899901012537
31
0.000000000000000
  0
LINE
  5
F101C2
330
F101C3
100
AcDbEntity
8
Geo
100
AcDbLine
10
-27.1803989592368
20
1.37899901012537
30
0.000000000000000
11
-27.0803989592368
21
1.37584032292712
31
0.000000000000000
  0
LINE
  5
F101C4
330
F101C5
100
AcDbEntity
8
Geo
100
AcDbLine
10
-27.0803989592368
20
1.37584032292712
30
0.000000000000000
11
-26.9803989592368
21
1.37468110285406
31
0.000000000000000
  0
LINE
  5
F101C6
330
F101C7
100
AcDbEntity
8
Geo
100
AcDbLine
10
-26.9803989592368
20
1.37468110285406
30
0.000000000000000
11
-26.9724352804831
21
1.37467476149176
31
0.000000000000000
  0
LINE
  5
F101C8
330
F101C9
100
AcDbEntity
8
Geo
100
AcDbLine
10
-42.6803989592368
20
3.91251119559910
30
0.000000000000000
11
-42.5803989592368
21
3.78857797783408
31
0.000000000000000
  0
LINE
  5
F101CA
330
F101CB
100
AcDbEntity
8
Geo
100
AcDbLine
10
-42.5803989592368
20
3.78857797783408
30
0.000000000000000
11
-42.5803989592368
21
3.78857797783408
31
0.000000000000000
  0
LINE
  5
F101CC
330
F101CD
100
AcDbEntity
8
Geo
100
AcDbLine
10
-42.5803989592368
20
3.78857797783408
30
0.000000000000000
11
-42.4803989592368
21
3.70351559840904
31
0.000000000000000
  0
LINE
  5
F101CE
330
F101CF
100
AcDbEntity
8
Geo
100
AcDbLine
10
-42.4803989592368
20
3.70351559840904
30
0.000000000000000
11
-42.3803989592368
21
3.61952164703426
31
0.000000000000000
  0
LINE
  5
F101D0
330
F101D1
100
AcDbEntity
8
Geo
100
AcDbLine
10
-42.3803989592368
20
3.61952164703426
30
0.000000000000000
11
-42.2803989592368
21
3.53662972017038
31
0.000000000000000
  0
LINE
  5
F101D2
330
F101D3
100
AcDbEntity
8
Geo
100
AcDbLine
10
-42.2803989592368
20
3.53662972017038
30
0.000000000000000
11
-42.1803989592368
21
3.45487297348293
31
0.000000000000000
  0
LINE
  5
F101D4
330
F101D5
100
AcDbEntity
8
Geo
100
AcDbLine
10
-42.1803989592368
20
3.45487297348293
30
0.000000000000000
11
-42.0803989592368
21
3.37428410858051
31
0.000000000000000
  0
LINE
  5
F101D6
330
F101D7
100
AcDbEntity
8
Geo
100
AcDbLine
10
-42.0803989592368
20
3.37428410858051
30
0.000000000000000
11
-41.9803989592368
21
3.29489535993459
31
0.000000000000000
  0
LINE
  5
F101D8
330
F101D9
100
AcDbEntity
8
Geo
100
AcDbLine
10
-41.9803989592368
20
3.29489535993459
30
0.000000000000000
11
-41.8803989592368
21
3.21673848198610
31
0.000000000000000
  0
LINE
  5
F101DA
330
F101DB
100
AcDbEntity
8
Geo
100
AcDbLine
10
-41.8803989592368
20
3.21673848198610
30
0.000000000000000
11
-41.7803989592368
21
3.13984473644417
31
0.000000000000000
  0
LINE
  5
F101DC
330
F101DD
100
AcDbEntity
8
Geo
100
AcDbLine
10
-41.7803989592368
20
3.13984473644417
30
0.000000000000000
11
-41.6803989592368
21
3.06424487978176
31
0.000000000000000
  0
LINE
  5
F101DE
330
F101DF
100
AcDbEntity
8
Geo
100
AcDbLine
10
-41.6803989592368
20
3.06424487978176
30
0.000000000000000
11
-41.5803989592368
21
2.98996915093355
31
0.000000000000000
  0
LINE
  5
F101E0
330
F101E1
100
AcDbEntity
8
Geo
100
AcDbLine
10
-41.5803989592368
20
2.98996915093355
30
0.000000000000000
11
-41.4803989592368
21
2.91704725920077
31
0.000000000000000
  0
LINE
  5
F101E2
330
F101E3
100
AcDbEntity
8
Geo
100
AcDbLine
10
-41.4803989592368
20
2.91704725920077
30
0.000000000000000
11
-41.3803989592368
21
2.84550837236781
31
0.000000000000000
  0
LINE
  5
F101E4
330
F101E5
100
AcDbEntity
8
Geo
100
AcDbLine
10
-41.3803989592368
20
2.84550837236781
30
0.000000000000000
11
-41.2803989592368
21
2.77538110503558
31
0.000000000000000
  0
LINE
  5
F101E6
330
F101E7
100
AcDbEntity
8
Geo
100
AcDbLine
10
-41.2803989592368
20
2.77538110503558
30
0.000000000000000
11
-41.1803989592368
21
2.70669350717600
31
0.000000000000000
  0
LINE
  5
F101E8
330
F101E9
100
AcDbEntity
8
Geo
100
AcDbLine
10
-41.1803989592368
20
2.70669350717600
30
0.000000000000000
11
-41.0803989592368
21
2.63947305291237
31
0.000000000000000
  0
LINE
  5
F101EA
330
F101EB
100
AcDbEntity
8
Geo
100
AcDbLine
10
-41.0803989592368
20
2.63947305291237
30
0.000000000000000
11
-40.9803989592368
21
2.57374662953015
31
0.000000000000000
  0
LINE
  5
F101EC
330
F101ED
100
AcDbEntity
8
Geo
100
AcDbLine
10
-40.9803989592368
20
2.57374662953015
30
0.000000000000000
11
-40.8803989592368
21
2.50954052672235
31
0.000000000000000
  0
LINE
  5
F101EE
330
F101EF
100
AcDbEntity
8
Geo
100
AcDbLine
10
-40.8803989592368
20
2.50954052672235
30
0.000000000000000
11
-40.7803989592368
21
2.44688042607401
31
0.000000000000000
  0
LINE
  5
F101F0
330
F101F1
100
AcDbEntity
8
Geo
100
AcDbLine
10
-40.7803989592368
20
2.44688042607401
30
0.000000000000000
11
-40.6803989592368
21
2.38579139078996
31
0.000000000000000
  0
LINE
  5
F101F2
330
F101F3
100
AcDbEntity
8
Geo
100
AcDbLine
10
-40.6803989592368
20
2.38579139078996
30
0.000000000000000
11
-40.5803989592368
21
2.32629785566978
31
0.000000000000000
  0
LINE
  5
F101F4
330
F101F5
100
AcDbEntity
8
Geo
100
AcDbLine
10
-40.5803989592368
20
2.32629785566978
30
0.000000000000000
11
-40.4803989592368
21
2.26842361733429
31
0.000000000000000
  0
LINE
  5
F101F6
330
F101F7
100
AcDbEntity
8
Geo
100
AcDbLine
10
-40.4803989592368
20
2.26842361733429
30
0.000000000000000
11
-40.3803989592368
21
2.21219182470718
31
0.000000000000000
  0
LINE
  5
F101F8
330
F101F9
100
AcDbEntity
8
Geo
100
AcDbLine
10
-40.3803989592368
20
2.21219182470718
30
0.000000000000000
11
-40.2803989592368
21
2.15762496975575
31
0.000000000000000
  0
LINE
  5
F101FA
330
F101FB
100
AcDbEntity
8
Geo
100
AcDbLine
10
-40.2803989592368
20
2.15762496975575
30
0.000000000000000
11
-40.1803989592368
21
2.10474487849444
31
0.000000000000000
  0
LINE
  5
F101FC
330
F101FD
100
AcDbEntity
8
Geo
100
AcDbLine
10
-40.1803989592368
20
2.10474487849444
30
0.000000000000000
11
-40.0803989592368
21
2.05357270225468
31
0.000000000000000
  0
LINE
  5
F101FE
330
F101FF
100
AcDbEntity
8
Geo
100
AcDbLine
10
-40.0803989592368
20
2.05357270225468
30
0.000000000000000
11
-39.9803989592368
21
2.00412890922469
31
0.000000000000000
  0
LINE
  5
F10200
330
F10201
100
AcDbEntity
8
Geo
100
AcDbLine
10
-39.9803989592368
20
2.00412890922469
30
0.000000000000000
11
-39.8803989592368
21
1.95643327626244
31
0.000000000000000
  0
LINE
  5
F10202
330
F10203
100
AcDbEntity
8
Geo
100
AcDbLine
10
-39.8803989592368
20
1.95643327626244
30
0.000000000000000
11
-39.7803989592368
21
1.91050488098519
31
0.000000000000000
  0
LINE
  5
F10204
330
F10205
100
AcDbEntity
8
Geo
100
AcDbLine
10
-39.7803989592368
20
1.91050488098519
30
0.000000000000000
11
-39.6803989592368
21
1.86636209413866
31
0.000000000000000
  0
LINE
  5
F10206
330
F10207
100
AcDbEntity
8
Geo
100
AcDbLine
10
-39.6803989592368
20
1.86636209413866
30
0.000000000000000
11
-39.5803989592368
21
1.82402257224904
31
0.000000000000000
  0
LINE
  5
F10208
330
F10209
100
AcDbEntity
8
Geo
100
AcDbLine
10
-39.5803989592368
20
1.82402257224904
30
0.000000000000000
11
-39.4803989592368
21
1.78350325056056
31
0.000000000000000
  0
LINE
  5
F1020A
330
F1020B
100
AcDbEntity
8
Geo
100
AcDbLine
10
-39.4803989592368
20
1.78350325056056
30
0.000000000000000
11
-39.3803989592368
21
1.74482033626166
31
0.000000000000000
  0
LINE
  5
F1020C
330
F1020D
100
AcDbEntity
8
Geo
100
AcDbLine
10
-39.3803989592368
20
1.74482033626166
30
0.000000000000000
11
-39.2803989592368
21
1.70798930200227
31
0.000000000000000
  0
LINE
  5
F1020E
330
F1020F
100
AcDbEntity
8
Geo
100
AcDbLine
10
-39.2803989592368
20
1.70798930200227
30
0.000000000000000
11
-39.1803989592368
21
1.67302487970504
31
0.000000000000000
  0
LINE
  5
F10210
330
F10211
100
AcDbEntity
8
Geo
100
AcDbLine
10
-39.1803989592368
20
1.67302487970504
30
0.000000000000000
11
-39.0803989592368
21
1.63994105467269
31
0.000000000000000
  0
LINE
  5
F10212
330
F10213
100
AcDbEntity
8
Geo
100
AcDbLine
10
-39.0803989592368
20
1.63994105467269
30
0.000000000000000
11
-38.9803989592368
21
1.60875105999413
31
0.000000000000000
  0
LINE
  5
F10214
330
F10215
100
AcDbEntity
8
Geo
100
AcDbLine
10
-38.9803989592368
20
1.60875105999413
30
0.000000000000000
11
-38.8803989592368
21
1.57946737125137
31
0.000000000000000
  0
LINE
  5
F10216
330
F10217
100
AcDbEntity
8
Geo
100
AcDbLine
10
-38.8803989592368
20
1.57946737125137
30
0.000000000000000
11
-38.7803989592367
21
1.55210170152946
31
0.000000000000000
  0
LINE
  5
F10218
330
F10219
100
AcDbEntity
8
Geo
100
AcDbLine
10
-38.7803989592367
20
1.55210170152946
30
0.000000000000000
11
-38.6803989592368
21
1.52666499673141
31
0.000000000000000
  0
LINE
  5
F1021A
330
F1021B
100
AcDbEntity
8
Geo
100
AcDbLine
10
-38.6803989592368
20
1.52666499673141
30
0.000000000000000
11
-38.5803989592368
21
1.50316743120001
31
0.000000000000000
  0
LINE
  5
F1021C
330
F1021D
100
AcDbEntity
8
Geo
100
AcDbLine
10
-38.5803989592368
20
1.50316743120001
30
0.000000000000000
11
-38.4803989592368
21
1.48161840364815
31
0.000000000000000
  0
LINE
  5
F1021E
330
F1021F
100
AcDbEntity
8
Geo
100
AcDbLine
10
-38.4803989592368
20
1.48161840364815
30
0.000000000000000
11
-38.3803989592368
21
1.46202653339955
31
0.000000000000000
  0
LINE
  5
F10220
330
F10221
100
AcDbEntity
8
Geo
100
AcDbLine
10
-38.3803989592368
20
1.46202653339955
30
0.000000000000000
11
-38.2803989592368
21
1.44439965694108
31
0.000000000000000
  0
LINE
  5
F10222
330
F10223
100
AcDbEntity
8
Geo
100
AcDbLine
10
-38.2803989592368
20
1.44439965694108
30
0.000000000000000
11
-38.1803989592368
21
1.42874482478831
31
0.000000000000000
  0
LINE
  5
F10224
330
F10225
100
AcDbEntity
8
Geo
100
AcDbLine
10
-38.1803989592368
20
1.42874482478831
30
0.000000000000000
11
-38.0803989592368
21
1.41506829866537
31
0.000000000000000
  0
LINE
  5
F10226
330
F10227
100
AcDbEntity
8
Geo
100
AcDbLine
10
-38.0803989592368
20
1.41506829866537
30
0.000000000000000
11
-37.9803989592368
21
1.40337554900035
31
0.000000000000000
  0
LINE
  5
F10228
330
F10229
100
AcDbEntity
8
Geo
100
AcDbLine
10
-37.9803989592368
20
1.40337554900035
30
0.000000000000000
11
-37.8803989592368
21
1.39367125273722
31
0.000000000000000
  0
LINE
  5
F1022A
330
F1022B
100
AcDbEntity
8
Geo
100
AcDbLine
10
-37.8803989592368
20
1.39367125273722
30
0.000000000000000
11
-37.7803989592368
21
1.38595929146510
31
0.000000000000000
  0
LINE
  5
F1022C
330
F1022D
100
AcDbEntity
8
Geo
100
AcDbLine
10
-37.7803989592368
20
1.38595929146510
30
0.000000000000000
11
-37.6803989592368
21
1.38024274986567
31
0.000000000000000
  0
LINE
  5
F1022E
330
F1022F
100
AcDbEntity
8
Geo
100
AcDbLine
10
-37.6803989592368
20
1.38024274986567
30
0.000000000000000
11
-37.5803989592368
21
1.37652391447936
31
0.000000000000000
  0
LINE
  5
F10230
330
F10231
100
AcDbEntity
8
Geo
100
AcDbLine
10
-37.5803989592368
20
1.37652391447936
30
0.000000000000000
11
-37.4803989592368
21
1.37480427279072
31
0.000000000000000
  0
LINE
  5
F10232
330
F10233
100
AcDbEntity
8
Geo
100
AcDbLine
10
-37.4803989592368
20
1.37480427279072
30
0.000000000000000
11
-37.4444107728575
21
1.37467476149176
31
0.000000000000000
  0
LINE
  5
F10234
330
F10235
100
AcDbEntity
8
Geo
100
AcDbLine
10
-32.2084240382965
20
11.3746747614918
30
0.000000000000000
11
-32.1803989592368
21
11.3745962245044
31
0.000000000000000
  0
LINE
  5
F10236
330
F10237
100
AcDbEntity
8
Geo
100
AcDbLine
10
-32.1803989592368
20
11.3745962245044
30
0.000000000000000
11
-32.0803989592368
21
11.3730358240831
31
0.000000000000000
  0
LINE
  5
F10238
330
F10239
100
AcDbEntity
8
Geo
100
AcDbLine
10
-32.0803989592368
20
11.3730358240831
30
0.000000000000000
11
-31.9803989592368
21
11.3694761458808
31
0.000000000000000
  0
LINE
  5
F1023A
330
F1023B
100
AcDbEntity
8
Geo
100
AcDbLine
10
-31.9803989592368
20
11.3694761458808
30
0.000000000000000
11
-31.8803989592368
21
11.3639186137211
31
0.000000000000000
  0
LINE
  5
F1023C
330
F1023D
100
AcDbEntity
8
Geo
100
AcDbLine
10
-31.8803989592368
20
11.3639186137211
30
0.000000000000000
11
-31.7803989592368
21
11.3563654505429
31
0.000000000000000
  0
LINE
  5
F1023E
330
F1023F
100
AcDbEntity
8
Geo
100
AcDbLine
10
-31.7803989592368
20
11.3563654505429
30
0.000000000000000
11
-31.6803989592368
21
11.3468196775108
31
0.000000000000000
  0
LINE
  5
F10240
330
F10241
100
AcDbEntity
8
Geo
100
AcDbLine
10
-31.6803989592368
20
11.3468196775108
30
0.000000000000000
11
-31.5803989592368
21
11.3352851128066
31
0.000000000000000
  0
LINE
  5
F10242
330
F10243
100
AcDbEntity
8
Geo
100
AcDbLine
10
-31.5803989592368
20
11.3352851128066
30
0.000000000000000
11
-31.4803989592368
21
11.3217663701025
31
0.000000000000000
  0
LINE
  5
F10244
330
F10245
100
AcDbEntity
8
Geo
100
AcDbLine
10
-31.4803989592368
20
11.3217663701025
30
0.000000000000000
11
-31.3803989592368
21
11.3062688567153
31
0.000000000000000
  0
LINE
  5
F10246
330
F10247
100
AcDbEntity
8
Geo
100
AcDbLine
10
-31.3803989592368
20
11.3062688567153
30
0.000000000000000
11
-31.2803989592368
21
11.2887987714437
31
0.000000000000000
  0
LINE
  5
F10248
330
F10249
100
AcDbEntity
8
Geo
100
AcDbLine
10
-31.2803989592368
20
11.2887987714437
30
0.000000000000000
11
-31.1803989592368
21
11.2693631020889
31
0.000000000000000
  0
LINE
  5
F1024A
330
F1024B
100
AcDbEntity
8
Geo
100
AcDbLine
10
-31.1803989592368
20
11.2693631020889
30
0.000000000000000
11
-31.0803989592368
21
11.2479696226595
31
0.000000000000000
  0
LINE
  5
F1024C
330
F1024D
100
AcDbEntity
8
Geo
100
AcDbLine
10
-31.0803989592368
20
11.2479696226595
30
0.000000000000000
11
-30.9803989592368
21
11.2246268902620
31
0.000000000000000
  0
LINE
  5
F1024E
330
F1024F
100
AcDbEntity
8
Geo
100
AcDbLine
10
-30.9803989592368
20
11.2246268902620
30
0.000000000000000
11
-30.8803989592368
21
11.1993442416782
31
0.000000000000000
  0
LINE
  5
F10250
330
F10251
100
AcDbEntity
8
Geo
100
AcDbLine
10
-30.8803989592368
20
11.1993442416782
30
0.000000000000000
11
-30.7803989592368
21
11.1721317896304
31
0.000000000000000
  0
LINE
  5
F10252
330
F10253
100
AcDbEntity
8
Geo
100
AcDbLine
10
-30.7803989592368
20
11.1721317896304
30
0.000000000000000
11
-30.6803989592368
21
11.1430004187366
31
0.000000000000000
  0
LINE
  5
F10254
330
F10255
100
AcDbEntity
8
Geo
100
AcDbLine
10
-30.6803989592368
20
11.1430004187366
30
0.000000000000000
11
-30.5803989592368
21
11.1119617811567
31
0.000000000000000
  0
LINE
  5
F10256
330
F10257
100
AcDbEntity
8
Geo
100
AcDbLine
10
-30.5803989592368
20
11.1119617811567
30
0.000000000000000
11
-30.4803989592368
21
11.0790282919319
31
0.000000000000000
  0
LINE
  5
F10258
330
F10259
100
AcDbEntity
8
Geo
100
AcDbLine
10
-30.4803989592368
20
11.0790282919319
30
0.000000000000000
11
-30.3803989592368
21
11.0442131240188
31
0.000000000000000
  0
LINE
  5
F1025A
330
F1025B
100
AcDbEntity
8
Geo
100
AcDbLine
10
-30.3803989592368
20
11.0442131240188
30
0.000000000000000
11
-30.2803989592368
21
11.0075302030204
31
0.000000000000000
  0
LINE
  5
F1025C
330
F1025D
100
AcDbEntity
8
Geo
100
AcDbLine
10
-30.2803989592368
20
11.0075302030204
30
0.000000000000000
11
-30.1803989592368
21
10.9689942016160
31
0.000000000000000
  0
LINE
  5
F1025E
330
F1025F
100
AcDbEntity
8
Geo
100
AcDbLine
10
-30.1803989592368
20
10.9689942016160
30
0.000000000000000
11
-30.0803989592368
21
10.9286205336922
31
0.000000000000000
  0
LINE
  5
F10260
330
F10261
100
AcDbEntity
8
Geo
100
AcDbLine
10
-30.0803989592368
20
10.9286205336922
30
0.000000000000000
11
-29.9803989592368
21
10.8864253481781
31
0.000000000000000
  0
LINE
  5
F10262
330
F10263
100
AcDbEntity
8
Geo
100
AcDbLine
10
-29.9803989592368
20
10.8864253481781
30
0.000000000000000
11
-29.8803989592368
21
10.8424255225852
31
0.000000000000000
  0
LINE
  5
F10264
330
F10265
100
AcDbEntity
8
Geo
100
AcDbLine
10
-29.8803989592368
20
10.8424255225852
30
0.000000000000000
11
-29.7803989592368
21
10.7966386562571
31
0.000000000000000
  0
LINE
  5
F10266
330
F10267
100
AcDbEntity
8
Geo
100
AcDbLine
10
-29.7803989592368
20
10.7966386562571
30
0.000000000000000
11
-29.6803989592368
21
10.7490830633297
31
0.000000000000000
  0
LINE
  5
F10268
330
F10269
100
AcDbEntity
8
Geo
100
AcDbLine
10
-29.6803989592368
20
10.7490830633297
30
0.000000000000000
11
-29.5803989592368
21
10.6997777654063
31
0.000000000000000
  0
LINE
  5
F1026A
330
F1026B
100
AcDbEntity
8
Geo
100
AcDbLine
10
-29.5803989592368
20
10.6997777654063
30
0.000000000000000
11
-29.4803989592368
21
10.6487424839487
31
0.000000000000000
  0
LINE
  5
F1026C
330
F1026D
100
AcDbEntity
8
Geo
100
AcDbLine
10
-29.4803989592368
20
10.6487424839487
30
0.000000000000000
11
-29.3803989592368
21
10.5959976323888
31
0.000000000000000
  0
LINE
  5
F1026E
330
F1026F
100
AcDbEntity
8
Geo
100
AcDbLine
10
-29.3803989592368
20
10.5959976323888
30
0.000000000000000
11
-29.2803989592368
21
10.5415643079642
31
0.000000000000000
  0
LINE
  5
F10270
330
F10271
100
AcDbEntity
8
Geo
100
AcDbLine
10
-29.2803989592368
20
10.5415643079642
30
0.000000000000000
11
-29.1803989592368
21
10.4854642832787
31
0.000000000000000
  0
LINE
  5
F10272
330
F10273
100
AcDbEntity
8
Geo
100
AcDbLine
10
-29.1803989592368
20
10.4854642832787
30
0.000000000000000
11
-29.0803989592368
21
10.4277199975943
31
0.000000000000000
  0
LINE
  5
F10274
330
F10275
100
AcDbEntity
8
Geo
100
AcDbLine
10
-29.0803989592368
20
10.4277199975943
30
0.000000000000000
11
-28.9803989592368
21
10.3683545478554
31
0.000000000000000
  0
LINE
  5
F10276
330
F10277
100
AcDbEntity
8
Geo
100
AcDbLine
10
-28.9803989592368
20
10.3683545478554
30
0.000000000000000
11
-28.8803989592368
21
10.3073916794502
31
0.000000000000000
  0
LINE
  5
F10278
330
F10279
100
AcDbEntity
8
Geo
100
AcDbLine
10
-28.8803989592368
20
10.3073916794502
30
0.000000000000000
11
-28.7803989592368
21
10.2448557767134
31
0.000000000000000
  0
LINE
  5
F1027A
330
F1027B
100
AcDbEntity
8
Geo
100
AcDbLine
10
-28.7803989592368
20
10.2448557767134
30
0.000000000000000
11
-28.6803989592368
21
10.1807718531723
31
0.000000000000000
  0
LINE
  5
F1027C
330
F1027D
100
AcDbEntity
8
Geo
100
AcDbLine
10
-28.6803989592368
20
10.1807718531723
30
0.000000000000000
11
-28.5803989592368
21
10.1151655415418
31
0.000000000000000
  0
LINE
  5
F1027E
330
F1027F
100
AcDbEntity
8
Geo
100
AcDbLine
10
-28.5803989592368
20
10.1151655415418
30
0.000000000000000
11
-28.4803989592368
21
10.0480630834717
31
0.000000000000000
  0
LINE
  5
F10280
330
F10281
100
AcDbEntity
8
Geo
100
AcDbLine
10
-28.4803989592368
20
10.0480630834717
30
0.000000000000000
11
-28.3803989592368
21
9.97949131905079
31
0.000000000000000
  0
LINE
  5
F10282
330
F10283
100
AcDbEntity
8
Geo
100
AcDbLine
10
-28.3803989592368
20
9.97949131905079
30
0.000000000000000
11
-28.2803989592368
21
9.90947767607040
31
0.000000000000000
  0
LINE
  5
F10284
330
F10285
100
AcDbEntity
8
Geo
100
AcDbLine
10
-28.2803989592368
20
9.90947767607040
30
0.000000000000000
11
-28.1803989592368
21
9.83805015905426
31
0.000000000000000
  0
LINE
  5
F10286
330
F10287
100
AcDbEntity
8
Geo
100
AcDbLine
10
-28.1803989592368
20
9.83805015905426
30
0.000000000000000
11
-28.0803989592368
21
9.76523733805681
31
0.000000000000000
  0
LINE
  5
F10288
330
F10289
100
AcDbEntity
8
Geo
100
AcDbLine
10
-28.0803989592368
20
9.76523733805681
30
0.000000000000000
11
-27.9803989592368
21
9.69106833723563
31
0.000000000000000
  0
LINE
  5
F1028A
330
F1028B
100
AcDbEntity
8
Geo
100
AcDbLine
10
-27.9803989592368
20
9.69106833723563
30
0.000000000000000
11
-27.8803989592368
21
9.61557282320215
31
0.000000000000000
  0
LINE
  5
F1028C
330
F1028D
100
AcDbEntity
8
Geo
100
AcDbLine
10
-27.8803989592368
20
9.61557282320215
30
0.000000000000000
11
-27.7803989592368
21
9.53878099315538
31
0.000000000000000
  0
LINE
  5
F1028E
330
F1028F
100
AcDbEntity
8
Geo
100
AcDbLine
10
-27.7803989592368
20
9.53878099315538
30
0.000000000000000
11
-27.6803989592368
21
9.46072356280347
31
0.000000000000000
  0
LINE
  5
F10290
330
F10291
100
AcDbEntity
8
Geo
100
AcDbLine
10
-27.6803989592368
20
9.46072356280347
30
0.000000000000000
11
-27.5803989592368
21
9.38143175407780
31
0.000000000000000
  0
LINE
  5
F10292
330
F10293
100
AcDbEntity
8
Geo
100
AcDbLine
10
-27.5803989592368
20
9.38143175407780
30
0.000000000000000
11
-27.4803989592368
21
9.30093728264466
31
0.000000000000000
  0
LINE
  5
F10294
330
F10295
100
AcDbEntity
8
Geo
100
AcDbLine
10
-27.4803989592368
20
9.30093728264466
30
0.000000000000000
11
-27.3803989592368
21
9.21927234521937
31
0.000000000000000
  0
LINE
  5
F10296
330
F10297
100
AcDbEntity
8
Geo
100
AcDbLine
10
-27.3803989592368
20
9.21927234521937
30
0.000000000000000
11
-27.2803989592368
21
9.13646960668805
31
0.000000000000000
  0
LINE
  5
F10298
330
F10299
100
AcDbEntity
8
Geo
100
AcDbLine
10
-27.2803989592368
20
9.13646960668805
30
0.000000000000000
11
-27.1803989592368
21
9.05256218704208
31
0.000000000000000
  0
LINE
  5
F1029A
330
F1029B
100
AcDbEntity
8
Geo
100
AcDbLine
10
-27.1803989592368
20
9.05256218704208
30
0.000000000000000
11
-27.0803989592368
21
8.96758364813060
31
0.000000000000000
  0
LINE
  5
F1029C
330
F1029D
100
AcDbEntity
8
Geo
100
AcDbLine
10
-27.0803989592368
20
8.96758364813060
30
0.000000000000000
11
-26.9803989592368
21
8.88156798023611
31
0.000000000000000
  0
LINE
  5
F1029E
330
F1029F
100
AcDbEntity
8
Geo
100
AcDbLine
10
-26.9803989592368
20
8.88156798023611
30
0.000000000000000
11
-26.8803989592368
21
8.79454958847892
31
0.000000000000000
  0
LINE
  5
F102A0
330
F102A1
100
AcDbEntity
8
Geo
100
AcDbLine
10
-26.8803989592368
20
8.79454958847892
30
0.000000000000000
11
-26.7803989592368
21
8.70656327905550
31
0.000000000000000
  0
LINE
  5
F102A2
330
F102A3
100
AcDbEntity
8
Geo
100
AcDbLine
10
-26.7803989592368
20
8.70656327905550
30
0.000000000000000
11
-26.6803989592368
21
8.61764424531649
31
0.000000000000000
  0
LINE
  5
F102A4
330
F102A5
100
AcDbEntity
8
Geo
100
AcDbLine
10
-26.6803989592368
20
8.61764424531649
30
0.000000000000000
11
-26.5803989592368
21
8.52782805368982
31
0.000000000000000
  0
LINE
  5
F102A6
330
F102A7
100
AcDbEntity
8
Geo
100
AcDbLine
10
-26.5803989592368
20
8.52782805368982
30
0.000000000000000
11
-26.4803989592368
21
8.43715062945459
31
0.000000000000000
  0
LINE
  5
F102A8
330
F102A9
100
AcDbEntity
8
Geo
100
AcDbLine
10
-26.4803989592368
20
8.43715062945459
30
0.000000000000000
11
-26.3803989592368
21
8.34564824237148
31
0.000000000000000
  0
LINE
  5
F102AA
330
F102AB
100
AcDbEntity
8
Geo
100
AcDbLine
10
-26.3803989592368
20
8.34564824237148
30
0.000000000000000
11
-26.2803989592368
21
8.25335749217532
31
0.000000000000000
  0
LINE
  5
F102AC
330
F102AD
100
AcDbEntity
8
Geo
100
AcDbLine
10
-26.2803989592368
20
8.25335749217532
30
0.000000000000000
11
-26.1803989592368
21
8.16031529393566
31
0.000000000000000
  0
LINE
  5
F102AE
330
F102AF
100
AcDbEntity
8
Geo
100
AcDbLine
10
-26.1803989592368
20
8.16031529393566
30
0.000000000000000
11
-26.0803989592368
21
8.06655886329123
31
0.000000000000000
  0
LINE
  5
F102B0
330
F102B1
100
AcDbEntity
8
Geo
100
AcDbLine
10
-26.0803989592368
20
8.06655886329123
30
0.000000000000000
11
-25.9803989592368
21
7.97212570156425
31
0.000000000000000
  0
LINE
  5
F102B2
330
F102B3
100
AcDbEntity
8
Geo
100
AcDbLine
10
-25.9803989592368
20
7.97212570156425
30
0.000000000000000
11
-25.8803989592368
21
7.87705358076030
31
0.000000000000000
  0
LINE
  5
F102B4
330
F102B5
100
AcDbEntity
8
Geo
100
AcDbLine
10
-25.8803989592368
20
7.87705358076030
30
0.000000000000000
11
-25.7803989592368
21
7.78138052846009
31
0.000000000000000
  0
LINE
  5
F102B6
330
F102B7
100
AcDbEntity
8
Geo
100
AcDbLine
10
-25.7803989592368
20
7.78138052846009
30
0.000000000000000
11
-25.6803989592368
21
7.68514481260892
31
0.000000000000000
  0
LINE
  5
F102B8
330
F102B9
100
AcDbEntity
8
Geo
100
AcDbLine
10
-25.6803989592368
20
7.68514481260892
30
0.000000000000000
11
-25.5803989592368
21
7.58838492621000
31
0.000000000000000
  0
LINE
  5
F102BA
330
F102BB
100
AcDbEntity
8
Geo
100
AcDbLine
10
-25.5803989592368
20
7.58838492621000
30
0.000000000000000
11
-25.4803989592368
21
7.49113957192778
31
0.000000000000000
  0
LINE
  5
F102BC
330
F102BD
100
AcDbEntity
8
Geo
100
AcDbLine
10
-25.4803989592368
20
7.49113957192778
30
0.000000000000000
11
-25.3803989592368
21
7.39344764660739
31
0.000000000000000
  0
LINE
  5
F102BE
330
F102BF
100
AcDbEntity
8
Geo
100
AcDbLine
10
-25.3803989592368
20
7.39344764660739
30
0.000000000000000
11
-25.2803989592368
21
7.29534822571641
31
0.000000000000000
  0
LINE
  5
F102C0
330
F102C1
100
AcDbEntity
8
Geo
100
AcDbLine
10
-25.2803989592368
20
7.29534822571641
30
0.000000000000000
11
-25.1803989592368
21
7.19688054771522
31
0.000000000000000
  0
LINE
  5
F102C2
330
F102C3
100
AcDbEntity
8
Geo
100
AcDbLine
10
-25.1803989592368
20
7.19688054771522
30
0.000000000000000
11
-25.0803989592368
21
7.09808399836214
31
0.000000000000000
  0
LINE
  5
F102C4
330
F102C5
100
AcDbEntity
8
Geo
100
AcDbLine
10
-25.0803989592368
20
7.09808399836214
30
0.000000000000000
11
-24.9803989592368
21
6.99899809495964
31
0.000000000000000
  0
LINE
  5
F102C6
330
F102C7
100
AcDbEntity
8
Geo
100
AcDbLine
10
-24.9803989592368
20
6.99899809495964
30
0.000000000000000
11
-24.8803989592368
21
6.89966247054795
31
0.000000000000000
  0
LINE
  5
F102C8
330
F102C9
100
AcDbEntity
8
Geo
100
AcDbLine
10
-24.8803989592368
20
6.89966247054795
30
0.000000000000000
11
-24.7803989592368
21
6.80011685805238
31
0.000000000000000
  0
LINE
  5
F102CA
330
F102CB
100
AcDbEntity
8
Geo
100
AcDbLine
10
-24.7803989592368
20
6.80011685805238
30
0.000000000000000
11
-24.6803989592368
21
6.70040107439068
31
0.000000000000000
  0
LINE
  5
F102CC
330
F102CD
100
AcDbEntity
8
Geo
100
AcDbLine
10
-24.6803989592368
20
6.70040107439068
30
0.000000000000000
11
-24.5803989592368
21
6.60055500454677
31
0.000000000000000
  0
LINE
  5
F102CE
330
F102CF
100
AcDbEntity
8
Geo
100
AcDbLine
10
-24.5803989592368
20
6.60055500454677
30
0.000000000000000
11
-24.4803989592368
21
6.50061858561734
31
0.000000000000000
  0
LINE
  5
F102D0
330
F102D1
100
AcDbEntity
8
Geo
100
AcDbLine
10
-24.4803989592368
20
6.50061858561734
30
0.000000000000000
11
-24.3803989592368
21
6.40063179083749
31
0.000000000000000
  0
LINE
  5
F102D2
330
F102D3
100
AcDbEntity
8
Geo
100
AcDbLine
10
-24.3803989592368
20
6.40063179083749
30
0.000000000000000
11
-24.2803989592368
21
6.30063461359198
31
0.000000000000000
  0
LINE
  5
F102D4
330
F102D5
100
AcDbEntity
8
Geo
100
AcDbLine
10
-24.2803989592368
20
6.30063461359198
30
0.000000000000000
11
-24.1803989592368
21
6.20066705141845
31
0.000000000000000
  0
LINE
  5
F102D6
330
F102D7
100
AcDbEntity
8
Geo
100
AcDbLine
10
-24.1803989592368
20
6.20066705141845
30
0.000000000000000
11
-24.0803989592368
21
6.10076909000888
31
0.000000000000000
  0
LINE
  5
F102D8
330
F102D9
100
AcDbEntity
8
Geo
100
AcDbLine
10
-24.0803989592368
20
6.10076909000888
30
0.000000000000000
11
-23.9803989592368
21
6.00098068721587
31
0.000000000000000
  0
LINE
  5
F102DA
330
F102DB
100
AcDbEntity
8
Geo
100
AcDbLine
10
-23.9803989592368
20
6.00098068721587
30
0.000000000000000
11
-23.8803989592368
21
5.90134175707005
31
0.000000000000000
  0
LINE
  5
F102DC
330
F102DD
100
AcDbEntity
8
Geo
100
AcDbLine
10
-23.8803989592368
20
5.90134175707005
30
0.000000000000000
11
-23.7803989592368
21
5.80189215381498
31
0.000000000000000
  0
LINE
  5
F102DE
330
F102DF
100
AcDbEntity
8
Geo
100
AcDbLine
10
-23.7803989592368
20
5.80189215381498
30
0.000000000000000
11
-23.6803989592368
21
5.70267165596598
31
0.000000000000000
  0
LINE
  5
F102E0
330
F102E1
100
AcDbEntity
8
Geo
100
AcDbLine
10
-23.6803989592368
20
5.70267165596598
30
0.000000000000000
11
-23.5803989592368
21
5.60371995039927
31
0.000000000000000
  0
LINE
  5
F102E2
330
F102E3
100
AcDbEntity
8
Geo
100
AcDbLine
10
-23.5803989592368
20
5.60371995039927
30
0.000000000000000
11
-23.4803989592368
21
5.50507661647773
31
0.000000000000000
  0
LINE
  5
F102E4
330
F102E5
100
AcDbEntity
8
Geo
100
AcDbLine
10
-23.4803989592368
20
5.50507661647773
30
0.000000000000000
11
-23.3803989592368
21
5.40678111021971
31
0.000000000000000
  0
LINE
  5
F102E6
330
F102E7
100
AcDbEntity
8
Geo
100
AcDbLine
10
-23.3803989592368
20
5.40678111021971
30
0.000000000000000
11
-23.2803989592367
21
5.30887274851713
31
0.000000000000000
  0
LINE
  5
F102E8
330
F102E9
100
AcDbEntity
8
Geo
100
AcDbLine
10
-23.2803989592367
20
5.30887274851713
30
0.000000000000000
11
-23.1803989592367
21
5.21139069340923
31
0.000000000000000
  0
LINE
  5
F102EA
330
F102EB
100
AcDbEntity
8
Geo
100
AcDbLine
10
-23.1803989592367
20
5.21139069340923
30
0.000000000000000
11
-23.0803989592367
21
5.11437393641831
31
0.000000000000000
  0
LINE
  5
F102EC
330
F102ED
100
AcDbEntity
8
Geo
100
AcDbLine
10
-23.0803989592367
20
5.11437393641831
30
0.000000000000000
11
-22.9803989592367
21
5.01786128295364
31
0.000000000000000
  0
LINE
  5
F102EE
330
F102EF
100
AcDbEntity
8
Geo
100
AcDbLine
10
-22.9803989592367
20
5.01786128295364
30
0.000000000000000
11
-22.8803989592367
21
4.92189133678978
31
0.000000000000000
  0
LINE
  5
F102F0
330
F102F1
100
AcDbEntity
8
Geo
100
AcDbLine
10
-22.8803989592367
20
4.92189133678978
30
0.000000000000000
11
-22.7803989592367
21
4.82650248462561
31
0.000000000000000
  0
LINE
  5
F102F2
330
F102F3
100
AcDbEntity
8
Geo
100
AcDbLine
10
-35.0009508915825
20
11.3746747614918
30
0.000000000000000
11
-34.9803989592368
21
11.3746325259941
31
0.000000000000000
  0
LINE
  5
F102F4
330
F102F5
100
AcDbEntity
8
Geo
100
AcDbLine
10
-34.9803989592368
20
11.3746325259941
30
0.000000000000000
11
-34.8803989592368
21
11.3732215705078
31
0.000000000000000
  0
LINE
  5
F102F6
330
F102F7
100
AcDbEntity
8
Geo
100
AcDbLine
10
-34.8803989592368
20
11.3732215705078
30
0.000000000000000
11
-34.7803989592368
21
11.3698112629442
31
0.000000000000000
  0
LINE
  5
F102F8
330
F102F9
100
AcDbEntity
8
Geo
100
AcDbLine
10
-34.7803989592368
20
11.3698112629442
30
0.000000000000000
11
-34.6803989592368
21
11.3644029673810
31
0.000000000000000
  0
LINE
  5
F102FA
330
F102FB
100
AcDbEntity
8
Geo
100
AcDbLine
10
-34.6803989592368
20
11.3644029673810
30
0.000000000000000
11
-34.5803989592368
21
11.3569988470642
31
0.000000000000000
  0
LINE
  5
F102FC
330
F102FD
100
AcDbEntity
8
Geo
100
AcDbLine
10
-34.5803989592368
20
11.3569988470642
30
0.000000000000000
11
-34.4803989592368
21
11.3476018635433
31
0.000000000000000
  0
LINE
  5
F102FE
330
F102FF
100
AcDbEntity
8
Geo
100
AcDbLine
10
-34.4803989592368
20
11.3476018635433
30
0.000000000000000
11
-34.3803989592368
21
11.3362157754864
31
0.000000000000000
  0
LINE
  5
F10300
330
F10301
100
AcDbEntity
8
Geo
100
AcDbLine
10
-34.3803989592368
20
11.3362157754864
30
0.000000000000000
11
-34.2803989592368
21
11.3228451371769
31
0.000000000000000
  0
LINE
  5
F10302
330
F10303
100
AcDbEntity
8
Geo
100
AcDbLine
10
-34.2803989592368
20
11.3228451371769
30
0.000000000000000
11
-34.1803989592368
21
11.3074952966919
31
0.000000000000000
  0
LINE
  5
F10304
330
F10305
100
AcDbEntity
8
Geo
100
AcDbLine
10
-34.1803989592368
20
11.3074952966919
30
0.000000000000000
11
-34.0803989592368
21
11.2901723937628
31
0.000000000000000
  0
LINE
  5
F10306
330
F10307
100
AcDbEntity
8
Geo
100
AcDbLine
10
-34.0803989592368
20
11.2901723937628
30
0.000000000000000
11
-33.9803989592368
21
11.2708833573200
31
0.000000000000000
  0
LINE
  5
F10308
330
F10309
100
AcDbEntity
8
Geo
100
AcDbLine
10
-33.9803989592368
20
11.2708833573200
30
0.000000000000000
11
-33.8803989592368
21
11.2496359027207
31
0.000000000000000
  0
LINE
  5
F1030A
330
F1030B
100
AcDbEntity
8
Geo
100
AcDbLine
10
-33.8803989592368
20
11.2496359027207
30
0.000000000000000
11
-33.7803989592368
21
11.2264385286635
31
0.000000000000000
  0
LINE
  5
F1030C
330
F1030D
100
AcDbEntity
8
Geo
100
AcDbLine
10
-33.7803989592368
20
11.2264385286635
30
0.000000000000000
11
-33.6803989592368
21
11.2013005137888
31
0.000000000000000
  0
LINE
  5
F1030E
330
F1030F
100
AcDbEntity
8
Geo
100
AcDbLine
10
-33.6803989592368
20
11.2013005137888
30
0.000000000000000
11
-33.5803989592368
21
11.1742319129673
31
0.000000000000000
  0
LINE
  5
F10310
330
F10311
100
AcDbEntity
8
Geo
100
AcDbLine
10
-33.5803989592368
20
11.1742319129673
30
0.000000000000000
11
-33.4803989592368
21
11.1452435532785
31
0.000000000000000
  0
LINE
  5
F10312
330
F10313
100
AcDbEntity
8
Geo
100
AcDbLine
10
-33.4803989592368
20
11.1452435532785
30
0.000000000000000
11
-33.3803989592368
21
11.1143470296797
31
0.000000000000000
  0
LINE
  5
F10314
330
F10315
100
AcDbEntity
8
Geo
100
AcDbLine
10
-33.3803989592368
20
11.1143470296797
30
0.000000000000000
11
-33.2803989592368
21
11.0815547003684
31
0.000000000000000
  0
LINE
  5
F10316
330
F10317
100
AcDbEntity
8
Geo
100
AcDbLine
10
-33.2803989592368
20
11.0815547003684
30
0.000000000000000
11
-33.1803989592368
21
11.0468796818391
31
0.000000000000000
  0
LINE
  5
F10318
330
F10319
100
AcDbEntity
8
Geo
100
AcDbLine
10
-33.1803989592368
20
11.0468796818391
30
0.000000000000000
11
-33.0803989592368
21
11.0103358436369
31
0.000000000000000
  0
LINE
  5
F1031A
330
F1031B
100
AcDbEntity
8
Geo
100
AcDbLine
10
-33.0803989592368
20
11.0103358436369
30
0.000000000000000
11
-32.9803989592368
21
10.9719378028098
31
0.000000000000000
  0
LINE
  5
F1031C
330
F1031D
100
AcDbEntity
8
Geo
100
AcDbLine
10
-32.9803989592368
20
10.9719378028098
30
0.000000000000000
11
-32.8803989592368
21
10.9317009180623
31
0.000000000000000
  0
LINE
  5
F1031E
330
F1031F
100
AcDbEntity
8
Geo
100
AcDbLine
10
-32.8803989592368
20
10.9317009180623
30
0.000000000000000
11
-32.7803989592368
21
10.8896412836116
31
0.000000000000000
  0
LINE
  5
F10320
330
F10321
100
AcDbEntity
8
Geo
100
AcDbLine
10
-32.7803989592368
20
10.8896412836116
30
0.000000000000000
11
-32.6803989592368
21
10.8457757227509
31
0.000000000000000
  0
LINE
  5
F10322
330
F10323
100
AcDbEntity
8
Geo
100
AcDbLine
10
-32.6803989592368
20
10.8457757227509
30
0.000000000000000
11
-32.5803989592368
21
10.8001217811195
31
0.000000000000000
  0
LINE
  5
F10324
330
F10325
100
AcDbEntity
8
Geo
100
AcDbLine
10
-32.5803989592368
20
10.8001217811195
30
0.000000000000000
11
-32.4803989592368
21
10.7526977196855
31
0.000000000000000
  0
LINE
  5
F10326
330
F10327
100
AcDbEntity
8
Geo
100
AcDbLine
10
-32.4803989592368
20
10.7526977196855
30
0.000000000000000
11
-32.3803989592368
21
10.7035225074410
31
0.000000000000000
  0
LINE
  5
F10328
330
F10329
100
AcDbEntity
8
Geo
100
AcDbLine
10
-32.3803989592368
20
10.7035225074410
30
0.000000000000000
11
-32.2803989592368
21
10.6526158138154
31
0.000000000000000
  0
LINE
  5
F1032A
330
F1032B
100
AcDbEntity
8
Geo
100
AcDbLine
10
-32.2803989592368
20
10.6526158138154
30
0.000000000000000
11
-32.1803989592368
21
10.5999980008073
31
0.000000000000000
  0
LINE
  5
F1032C
330
F1032D
100
AcDbEntity
8
Geo
100
AcDbLine
10
-32.1803989592368
20
10.5999980008073
30
0.000000000000000
11
-32.0803989592368
21
10.5456901148403
31
0.000000000000000
  0
LINE
  5
F1032E
330
F1032F
100
AcDbEntity
8
Geo
100
AcDbLine
10
-32.0803989592368
20
10.5456901148403
30
0.000000000000000
11
-31.9803989592368
21
10.4897138783448
31
0.000000000000000
  0
LINE
  5
F10330
330
F10331
100
AcDbEntity
8
Geo
100
AcDbLine
10
-31.9803989592368
20
10.4897138783448
30
0.000000000000000
11
-31.8803989592368
21
10.4320916810690
31
0.000000000000000
  0
LINE
  5
F10332
330
F10333
100
AcDbEntity
8
Geo
100
AcDbLine
10
-31.8803989592368
20
10.4320916810690
30
0.000000000000000
11
-31.7803989592368
21
10.3728465711236
31
0.000000000000000
  0
LINE
  5
F10334
330
F10335
100
AcDbEntity
8
Geo
100
AcDbLine
10
-31.7803989592368
20
10.3728465711236
30
0.000000000000000
11
-31.6803989592368
21
10.3120022457626
31
0.000000000000000
  0
LINE
  5
F10336
330
F10337
100
AcDbEntity
8
Geo
100
AcDbLine
10
-31.6803989592368
20
10.3120022457626
30
0.000000000000000
11
-31.5803989592368
21
10.2495830419048
31
0.000000000000000
  0
LINE
  5
F10338
330
F10339
100
AcDbEntity
8
Geo
100
AcDbLine
10
-31.5803989592368
20
10.2495830419048
30
0.000000000000000
11
-31.4803989592368
21
10.1856139263997
31
0.000000000000000
  0
LINE
  5
F1033A
330
F1033B
100
AcDbEntity
8
Geo
100
AcDbLine
10
-31.4803989592368
20
10.1856139263997
30
0.000000000000000
11
-31.3803989592368
21
10.1201204860404
31
0.000000000000000
  0
LINE
  5
F1033C
330
F1033D
100
AcDbEntity
8
Geo
100
AcDbLine
10
-31.3803989592368
20
10.1201204860404
30
0.000000000000000
11
-31.2803989592368
21
10.0531289173299
31
0.000000000000000
  0
LINE
  5
F1033E
330
F1033F
100
AcDbEntity
8
Geo
100
AcDbLine
10
-31.2803989592368
20
10.0531289173299
30
0.000000000000000
11
-31.1803989592368
21
9.98466601600246
31
0.000000000000000
  0
LINE
  5
F10340
330
F10341
100
AcDbEntity
8
Geo
100
AcDbLine
10
-31.1803989592368
20
9.98466601600246
30
0.000000000000000
11
-31.0803989592368
21
9.91475916630581
31
0.000000000000000
  0
LINE
  5
F10342
330
F10343
100
AcDbEntity
8
Geo
100
AcDbLine
10
-31.0803989592368
20
9.91475916630581
30
0.000000000000000
11
-30.9803989592368
21
9.84343633004773
31
0.000000000000000
  0
LINE
  5
F10344
330
F10345
100
AcDbEntity
8
Geo
100
AcDbLine
10
-30.9803989592368
20
9.84343633004773
30
0.000000000000000
11
-30.8803989592368
21
9.77072603541176
31
0.000000000000000
  0
LINE
  5
F10346
330
F10347
100
AcDbEntity
8
Geo
100
AcDbLine
10
-30.8803989592368
20
9.77072603541176
30
0.000000000000000
11
-30.7803989592368
21
9.69665736554630
31
0.000000000000000
  0
LINE
  5
F10348
330
F10349
100
AcDbEntity
8
Geo
100
AcDbLine
10
-30.7803989592368
20
9.69665736554630
30
0.000000000000000
11
-30.6803989592368
21
9.62125994693174
31
0.000000000000000
  0
LINE
  5
F1034A
330
F1034B
100
AcDbEntity
8
Geo
100
AcDbLine
10
-30.6803989592368
20
9.62125994693174
30
0.000000000000000
11
-30.5803989592368
21
9.54456393753022
31
0.000000000000000
  0
LINE
  5
F1034C
330
F1034D
100
AcDbEntity
8
Geo
100
AcDbLine
10
-30.5803989592368
20
9.54456393753022
30
0.000000000000000
11
-30.4803989592368
21
9.46660001472292
31
0.000000000000000
  0
LINE
  5
F1034E
330
F1034F
100
AcDbEntity
8
Geo
100
AcDbLine
10
-30.4803989592368
20
9.46660001472292
30
0.000000000000000
11
-30.3803989592368
21
9.38739936303944
31
0.000000000000000
  0
LINE
  5
F10350
330
F10351
100
AcDbEntity
8
Geo
100
AcDbLine
10
-30.3803989592368
20
9.38739936303944
30
0.000000000000000
11
-30.2803989592368
21
9.30699366168447
31
0.000000000000000
  0
LINE
  5
F10352
330
F10353
100
AcDbEntity
8
Geo
100
AcDbLine
10
-30.2803989592368
20
9.30699366168447
30
0.000000000000000
11
-30.1803989592368
21
9.22541507186648
31
0.000000000000000
  0
LINE
  5
F10354
330
F10355
100
AcDbEntity
8
Geo
100
AcDbLine
10
-30.1803989592368
20
9.22541507186648
30
0.000000000000000
11
-30.0803989592368
21
9.14269622393371
31
0.000000000000000
  0
LINE
  5
F10356
330
F10357
100
AcDbEntity
8
Geo
100
AcDbLine
10
-30.0803989592368
20
9.14269622393371
30
0.000000000000000
11
-29.9803989592368
21
9.05887020432242
31
0.000000000000000
  0
LINE
  5
F10358
330
F10359
100
AcDbEntity
8
Geo
100
AcDbLine
10
-29.9803989592368
20
9.05887020432242
30
0.000000000000000
11
-29.8803989592368
21
8.97397054232280
31
0.000000000000000
  0
LINE
  5
F1035A
330
F1035B
100
AcDbEntity
8
Geo
100
AcDbLine
10
-29.8803989592368
20
8.97397054232280
30
0.000000000000000
11
-29.7803989592368
21
8.88803119666766
31
0.000000000000000
  0
LINE
  5
F1035C
330
F1035D
100
AcDbEntity
8
Geo
100
AcDbLine
10
-29.7803989592368
20
8.88803119666766
30
0.000000000000000
11
-29.6803989592368
21
8.80108654194942
31
0.000000000000000
  0
LINE
  5
F1035E
330
F1035F
100
AcDbEntity
8
Geo
100
AcDbLine
10
-29.6803989592368
20
8.80108654194942
30
0.000000000000000
11
-29.5803989592368
21
8.71317135487072
31
0.000000000000000
  0
LINE
  5
F10360
330
F10361
100
AcDbEntity
8
Geo
100
AcDbLine
10
-29.5803989592368
20
8.71317135487072
30
0.000000000000000
11
-29.4803989592368
21
8.62432080033421
31
0.000000000000000
  0
LINE
  5
F10362
330
F10363
100
AcDbEntity
8
Geo
100
AcDbLine
10
-29.4803989592368
20
8.62432080033421
30
0.000000000000000
11
-29.3803989592368
21
8.53457041737705
31
0.000000000000000
  0
LINE
  5
F10364
330
F10365
100
AcDbEntity
8
Geo
100
AcDbLine
10
-29.3803989592368
20
8.53457041737705
30
0.000000000000000
11
-29.2803989592368
21
8.44395610495575
31
0.000000000000000
  0
LINE
  5
F10366
330
F10367
100
AcDbEntity
8
Geo
100
AcDbLine
10
-29.2803989592368
20
8.44395610495575
30
0.000000000000000
11
-29.1803989592368
21
8.35251410758712
31
0.000000000000000
  0
LINE
  5
F10368
330
F10369
100
AcDbEntity
8
Geo
100
AcDbLine
10
-29.1803989592368
20
8.35251410758712
30
0.000000000000000
11
-29.0803989592368
21
8.26028100085089
31
0.000000000000000
  0
LINE
  5
F1036A
330
F1036B
100
AcDbEntity
8
Geo
100
AcDbLine
10
-29.0803989592368
20
8.26028100085089
30
0.000000000000000
11
-28.9803989592368
21
8.16729367676000
31
0.000000000000000
  0
LINE
  5
F1036C
330
F1036D
100
AcDbEntity
8
Geo
100
AcDbLine
10
-28.9803989592368
20
8.16729367676000
30
0.000000000000000
11
-28.8803989592368
21
8.07358932900427
31
0.000000000000000
  0
LINE
  5
F1036E
330
F1036F
100
AcDbEntity
8
Geo
100
AcDbLine
10
-28.8803989592368
20
8.07358932900427
30
0.000000000000000
11
-28.7803989592368
21
7.97920543807342
31
0.000000000000000
  0
LINE
  5
F10370
330
F10371
100
AcDbEntity
8
Geo
100
AcDbLine
10
-28.7803989592368
20
7.97920543807342
30
0.000000000000000
11
-28.6803989592368
21
7.88417975626541
31
0.000000000000000
  0
LINE
  5
F10372
330
F10373
100
AcDbEntity
8
Geo
100
AcDbLine
10
-28.6803989592368
20
7.88417975626541
30
0.000000000000000
11
-28.5803989592368
21
7.78855029258594
31
0.000000000000000
  0
LINE
  5
F10374
330
F10375
100
AcDbEntity
8
Geo
100
AcDbLine
10
-28.5803989592368
20
7.78855029258594
30
0.000000000000000
11
-28.4803989592368
21
7.69235529754546
31
0.000000000000000
  0
LINE
  5
F10376
330
F10377
100
AcDbEntity
8
Geo
100
AcDbLine
10
-28.4803989592368
20
7.69235529754546
30
0.000000000000000
11
-28.3803989592368
21
7.59563324785940
31
0.000000000000000
  0
LINE
  5
F10378
330
F10379
100
AcDbEntity
8
Geo
100
AcDbLine
10
-28.3803989592368
20
7.59563324785940
30
0.000000000000000
11
-28.2803989592368
21
7.49842283105802
31
0.000000000000000
  0
LINE
  5
F1037A
330
F1037B
100
AcDbEntity
8
Geo
100
AcDbLine
10
-28.2803989592368
20
7.49842283105802
30
0.000000000000000
11
-28.1803989592368
21
7.40076293001192
31
0.000000000000000
  0
LINE
  5
F1037C
330
F1037D
100
AcDbEntity
8
Geo
100
AcDbLine
10
-28.1803989592368
20
7.40076293001192
30
0.000000000000000
11
-28.0803989592368
21
7.30269260737941
31
0.000000000000000
  0
LINE
  5
F1037E
330
F1037F
100
AcDbEntity
8
Geo
100
AcDbLine
10
-28.0803989592368
20
7.30269260737941
30
0.000000000000000
11
-27.9803989592368
21
7.20425108998195
31
0.000000000000000
  0
LINE
  5
F10380
330
F10381
100
AcDbEntity
8
Geo
100
AcDbLine
10
-27.9803989592368
20
7.20425108998195
30
0.000000000000000
11
-27.8803989592368
21
7.10547775311396
31
0.000000000000000
  0
LINE
  5
F10382
330
F10383
100
AcDbEntity
8
Geo
100
AcDbLine
10
-27.8803989592368
20
7.10547775311396
30
0.000000000000000
11
-27.7803989592368
21
7.00641210479323
31
0.000000000000000
  0
LINE
  5
F10384
330
F10385
100
AcDbEntity
8
Geo
100
AcDbLine
10
-27.7803989592368
20
7.00641210479323
30
0.000000000000000
11
-27.6803989592368
21
6.90709376995824
31
0.000000000000000
  0
LINE
  5
F10386
330
F10387
100
AcDbEntity
8
Geo
100
AcDbLine
10
-27.6803989592368
20
6.90709376995824
30
0.000000000000000
11
-27.5803989592368
21
6.80756247461868
31
0.000000000000000
  0
LINE
  5
F10388
330
F10389
100
AcDbEntity
8
Geo
100
AcDbLine
10
-27.5803989592368
20
6.80756247461868
30
0.000000000000000
11
-27.4803989592368
21
6.70785802996563
31
0.000000000000000
  0
LINE
  5
F1038A
330
F1038B
100
AcDbEntity
8
Geo
100
AcDbLine
10
-27.4803989592368
20
6.70785802996563
30
0.000000000000000
11
-27.3803989592368
21
6.60802031644758
31
0.000000000000000
  0
LINE
  5
F1038C
330
F1038D
100
AcDbEntity
8
Geo
100
AcDbLine
10
-27.3803989592368
20
6.60802031644758
30
0.000000000000000
11
-27.2803989592368
21
6.50808926781878
31
0.000000000000000
  0
LINE
  5
F1038E
330
F1038F
100
AcDbEntity
8
Geo
100
AcDbLine
10
-27.2803989592368
20
6.50808926781878
30
0.000000000000000
11
-27.1803989592368
21
6.40810485516628
31
0.000000000000000
  0
LINE
  5
F10390
330
F10391
100
AcDbEntity
8
Geo
100
AcDbLine
10
-27.1803989592368
20
6.40810485516628
30
0.000000000000000
11
-27.0803989592368
21
6.30810707092204
31
0.000000000000000
  0
LINE
  5
F10392
330
F10393
100
AcDbEntity
8
Geo
100
AcDbLine
10
-27.0803989592368
20
6.30810707092204
30
0.000000000000000
11
-26.9803989592368
21
6.20813591286647
31
0.000000000000000
  0
LINE
  5
F10394
330
F10395
100
AcDbEntity
8
Geo
100
AcDbLine
10
-26.9803989592368
20
6.20813591286647
30
0.000000000000000
11
-26.8803989592368
21
6.10823136812987
31
0.000000000000000
  0
LINE
  5
F10396
330
F10397
100
AcDbEntity
8
Geo
100
AcDbLine
10
-26.8803989592368
20
6.10823136812987
30
0.000000000000000
11
-26.7803989592368
21
6.00843339719808
31
0.000000000000000
  0
LINE
  5
F10398
330
F10399
100
AcDbEntity
8
Geo
100
AcDbLine
10
-26.7803989592368
20
6.00843339719808
30
0.000000000000000
11
-26.6803989592368
21
5.90878191792885
31
0.000000000000000
  0
LINE
  5
F1039A
330
F1039B
100
AcDbEntity
8
Geo
100
AcDbLine
10
-26.6803989592368
20
5.90878191792885
30
0.000000000000000
11
-26.5803989592368
21
5.80931678958522
31
0.000000000000000
  0
LINE
  5
F1039C
330
F1039D
100
AcDbEntity
8
Geo
100
AcDbLine
10
-26.5803989592368
20
5.80931678958522
30
0.000000000000000
11
-26.4803989592368
21
5.71007779689235
31
0.000000000000000
  0
LINE
  5
F1039E
330
F1039F
100
AcDbEntity
8
Geo
100
AcDbLine
10
-26.4803989592368
20
5.71007779689235
30
0.000000000000000
11
-26.3803989592368
21
5.61110463412415
31
0.000000000000000
  0
LINE
  5
F103A0
330
F103A1
100
AcDbEntity
8
Geo
100
AcDbLine
10
-26.3803989592368
20
5.61110463412415
30
0.000000000000000
11
-26.2803989592368
21
5.51243688922609
31
0.000000000000000
  0
LINE
  5
F103A2
330
F103A3
100
AcDbEntity
8
Geo
100
AcDbLine
10
-26.2803989592368
20
5.51243688922609
30
0.000000000000000
11
-26.1803989592368
21
5.41411402798059
31
0.000000000000000
  0
LINE
  5
F103A4
330
F103A5
100
AcDbEntity
8
Geo
100
AcDbLine
10
-26.1803989592368
20
5.41411402798059
30
0.000000000000000
11
-26.0803989592368
21
5.31617537822119
31
0.000000000000000
  0
LINE
  5
F103A6
330
F103A7
100
AcDbEntity
8
Geo
100
AcDbLine
10
-26.0803989592368
20
5.31617537822119
30
0.000000000000000
11
-25.9803989592368
21
5.21866011410195
31
0.000000000000000
  0
LINE
  5
F103A8
330
F103A9
100
AcDbEntity
8
Geo
100
AcDbLine
10
-25.9803989592368
20
5.21866011410195
30
0.000000000000000
11
-25.8803989592368
21
5.12160724042835
31
0.000000000000000
  0
LINE
  5
F103AA
330
F103AB
100
AcDbEntity
8
Geo
100
AcDbLine
10
-25.8803989592368
20
5.12160724042835
30
0.000000000000000
11
-25.7803989592368
21
5.02505557705583
31
0.000000000000000
  0
LINE
  5
F103AC
330
F103AD
100
AcDbEntity
8
Geo
100
AcDbLine
10
-25.7803989592368
20
5.02505557705583
30
0.000000000000000
11
-25.6803989592368
21
4.92904374336241
31
0.000000000000000
  0
LINE
  5
F103AE
330
F103AF
100
AcDbEntity
8
Geo
100
AcDbLine
10
-25.6803989592368
20
4.92904374336241
30
0.000000000000000
11
-25.5803989592368
21
4.83361014280141
31
0.000000000000000
  0
LINE
  5
F103B0
330
F103B1
100
AcDbEntity
8
Geo
100
AcDbLine
10
-25.5803989592368
20
4.83361014280141
30
0.000000000000000
11
-25.4803989592368
21
4.73879294754063
31
0.000000000000000
  0
LINE
  5
F103B2
330
F103B3
100
AcDbEntity
8
Geo
100
AcDbLine
10
-25.4803989592368
20
4.73879294754063
30
0.000000000000000
11
-25.3803989592368
21
4.64463008319397
31
0.000000000000000
  0
LINE
  5
F103B4
330
F103B5
100
AcDbEntity
8
Geo
100
AcDbLine
10
-25.3803989592368
20
4.64463008319397
30
0.000000000000000
11
-25.2803989592368
21
4.55115921365167
31
0.000000000000000
  0
LINE
  5
F103B6
330
F103B7
100
AcDbEntity
8
Geo
100
AcDbLine
10
-25.2803989592368
20
4.55115921365167
30
0.000000000000000
11
-25.1803989592368
21
4.45841772601530
31
0.000000000000000
  0
LINE
  5
F103B8
330
F103B9
100
AcDbEntity
8
Geo
100
AcDbLine
10
-25.1803989592368
20
4.45841772601530
30
0.000000000000000
11
-25.0803989592368
21
4.36644271564335
31
0.000000000000000
  0
LINE
  5
F103BA
330
F103BB
100
AcDbEntity
8
Geo
100
AcDbLine
10
-25.0803989592368
20
4.36644271564335
30
0.000000000000000
11
-24.9803989592368
21
4.27527097131368
31
0.000000000000000
  0
LINE
  5
F103BC
330
F103BD
100
AcDbEntity
8
Geo
100
AcDbLine
10
-24.9803989592368
20
4.27527097131368
30
0.000000000000000
11
-24.8803989592368
21
4.18493896050841
31
0.000000000000000
  0
LINE
  5
F103BE
330
F103BF
100
AcDbEntity
8
Geo
100
AcDbLine
10
-24.8803989592368
20
4.18493896050841
30
0.000000000000000
11
-24.7803989592368
21
4.09548281482743
31
0.000000000000000
  0
LINE
  5
F103C0
330
F103C1
100
AcDbEntity
8
Geo
100
AcDbLine
10
-24.7803989592368
20
4.09548281482743
30
0.000000000000000
11
-24.6803989592368
21
4.00693831553631
31
0.000000000000000
  0
LINE
  5
F103C2
330
F103C3
100
AcDbEntity
8
Geo
100
AcDbLine
10
-24.6803989592368
20
4.00693831553631
30
0.000000000000000
11
-24.5803989592368
21
3.91934087925416
31
0.000000000000000
  0
LINE
  5
F103C4
330
F103C5
100
AcDbEntity
8
Geo
100
AcDbLine
10
-24.5803989592368
20
3.91934087925416
30
0.000000000000000
11
-24.4803989592368
21
3.83272554378756
31
0.000000000000000
  0
LINE
  5
F103C6
330
F103C7
100
AcDbEntity
8
Geo
100
AcDbLine
10
-24.4803989592368
20
3.83272554378756
30
0.000000000000000
11
-24.3803989592368
21
3.74712695411584
31
0.000000000000000
  0
LINE
  5
F103C8
330
F103C9
100
AcDbEntity
8
Geo
100
AcDbLine
10
-24.3803989592368
20
3.74712695411584
30
0.000000000000000
11
-24.2803989592368
21
3.66257934853357
31
0.000000000000000
  0
LINE
  5
F103CA
330
F103CB
100
AcDbEntity
8
Geo
100
AcDbLine
10
-24.2803989592368
20
3.66257934853357
30
0.000000000000000
11
-24.1803989592368
21
3.57911654495569
31
0.000000000000000
  0
LINE
  5
F103CC
330
F103CD
100
AcDbEntity
8
Geo
100
AcDbLine
10
-24.1803989592368
20
3.57911654495569
30
0.000000000000000
11
-24.0803989592368
21
3.49677192739081
31
0.000000000000000
  0
LINE
  5
F103CE
330
F103CF
100
AcDbEntity
8
Geo
100
AcDbLine
10
-24.0803989592368
20
3.49677192739081
30
0.000000000000000
11
-23.9803989592368
21
3.41557843258805
31
0.000000000000000
  0
LINE
  5
F103D0
330
F103D1
100
AcDbEntity
8
Geo
100
AcDbLine
10
-23.9803989592368
20
3.41557843258805
30
0.000000000000000
11
-23.8803989592368
21
3.33556853686276
31
0.000000000000000
  0
LINE
  5
F103D2
330
F103D3
100
AcDbEntity
8
Geo
100
AcDbLine
10
-23.8803989592368
20
3.33556853686276
30
0.000000000000000
11
-23.7803989592368
21
3.25677424310644
31
0.000000000000000
  0
LINE
  5
F103D4
330
F103D5
100
AcDbEntity
8
Geo
100
AcDbLine
10
-23.7803989592368
20
3.25677424310644
30
0.000000000000000
11
-23.6803989592368
21
3.17922706798602
31
0.000000000000000
  0
LINE
  5
F103D6
330
F103D7
100
AcDbEntity
8
Geo
100
AcDbLine
10
-23.6803989592368
20
3.17922706798602
30
0.000000000000000
11
-23.5803989592368
21
3.10295802933761
31
0.000000000000000
  0
LINE
  5
F103D8
330
F103D9
100
AcDbEntity
8
Geo
100
AcDbLine
10
-23.5803989592368
20
3.10295802933761
30
0.000000000000000
11
-23.4803989592368
21
3.02799763375975
31
0.000000000000000
  0
LINE
  5
F103DA
330
F103DB
100
AcDbEntity
8
Geo
100
AcDbLine
10
-23.4803989592368
20
3.02799763375975
30
0.000000000000000
11
-23.3803989592368
21
2.95437586441121
31
0.000000000000000
  0
LINE
  5
F103DC
330
F103DD
100
AcDbEntity
8
Geo
100
AcDbLine
10
-23.3803989592368
20
2.95437586441121
30
0.000000000000000
11
-23.2803989592367
21
2.88212216901813
31
0.000000000000000
  0
LINE
  5
F103DE
330
F103DF
100
AcDbEntity
8
Geo
100
AcDbLine
10
-23.2803989592367
20
2.88212216901813
30
0.000000000000000
11
-23.1803989592367
21
2.81126544809529
31
0.000000000000000
  0
LINE
  5
F103E0
330
F103E1
100
AcDbEntity
8
Geo
100
AcDbLine
10
-23.1803989592367
20
2.81126544809529
30
0.000000000000000
11
-23.0803989592367
21
2.74183404338632
31
0.000000000000000
  0
LINE
  5
F103E2
330
F103E3
100
AcDbEntity
8
Geo
100
AcDbLine
10
-23.0803989592367
20
2.74183404338632
30
0.000000000000000
11
-22.9803989592367
21
2.67385572652736
31
0.000000000000000
  0
LINE
  5
F103E4
330
F103E5
100
AcDbEntity
8
Geo
100
AcDbLine
10
-22.9803989592367
20
2.67385572652736
30
0.000000000000000
11
-22.8803989592367
21
2.60735768793880
31
0.000000000000000
  0
LINE
  5
F103E6
330
F103E7
100
AcDbEntity
8
Geo
100
AcDbLine
10
-22.8803989592367
20
2.60735768793880
30
0.000000000000000
11
-22.7803989592367
21
2.54236652594942
31
0.000000000000000
  0
LINE
  5
F103E8
330
F103E9
100
AcDbEntity
8
Geo
100
AcDbLine
10
-42.6803989592368
20
10.4991203066356
30
0.000000000000000
11
-42.5803989592368
21
10.5610788287467
31
0.000000000000000
  0
LINE
  5
F103EA
330
F103EB
100
AcDbEntity
8
Geo
100
AcDbLine
10
-42.5803989592368
20
10.5610788287467
30
0.000000000000000
11
-42.5803989592368
21
10.5610788287467
31
0.000000000000000
  0
LINE
  5
F103EC
330
F103ED
100
AcDbEntity
8
Geo
100
AcDbLine
10
-42.5803989592368
20
10.5610788287467
30
0.000000000000000
11
-42.4803989592368
21
10.5055679094107
31
0.000000000000000
  0
LINE
  5
F103EE
330
F103EF
100
AcDbEntity
8
Geo
100
AcDbLine
10
-42.4803989592368
20
10.5055679094107
30
0.000000000000000
11
-42.3803989592368
21
10.4484046878933
31
0.000000000000000
  0
LINE
  5
F103F0
330
F103F1
100
AcDbEntity
8
Geo
100
AcDbLine
10
-42.3803989592368
20
10.4484046878933
30
0.000000000000000
11
-42.2803989592368
21
10.3896120287210
31
0.000000000000000
  0
LINE
  5
F103F2
330
F103F3
100
AcDbEntity
8
Geo
100
AcDbLine
10
-42.2803989592368
20
10.3896120287210
30
0.000000000000000
11
-42.1803989592368
21
10.3292134481736
31
0.000000000000000
  0
LINE
  5
F103F4
330
F103F5
100
AcDbEntity
8
Geo
100
AcDbLine
10
-42.1803989592368
20
10.3292134481736
30
0.000000000000000
11
-42.0803989592368
21
10.2672331048780
31
0.000000000000000
  0
LINE
  5
F103F6
330
F103F7
100
AcDbEntity
8
Geo
100
AcDbLine
10
-42.0803989592368
20
10.2672331048780
30
0.000000000000000
11
-41.9803989592368
21
10.2036957901452
31
0.000000000000000
  0
LINE
  5
F103F8
330
F103F9
100
AcDbEntity
8
Geo
100
AcDbLine
10
-41.9803989592368
20
10.2036957901452
30
0.000000000000000
11
-41.8803989592368
21
10.1386269180538
31
0.000000000000000
  0
LINE
  5
F103FA
330
F103FB
100
AcDbEntity
8
Geo
100
AcDbLine
10
-41.8803989592368
20
10.1386269180538
30
0.000000000000000
11
-41.7803989592368
21
10.0720525152851
31
0.000000000000000
  0
LINE
  5
F103FC
330
F103FD
100
AcDbEntity
8
Geo
100
AcDbLine
10
-41.7803989592368
20
10.0720525152851
30
0.000000000000000
11
-41.6803989592368
21
10.0039992107127
31
0.000000000000000
  0
LINE
  5
F103FE
330
F103FF
100
AcDbEntity
8
Geo
100
AcDbLine
10
-41.6803989592368
20
10.0039992107127
30
0.000000000000000
11
-41.5803989592368
21
9.93449422475089
31
0.000000000000000
  0
LINE
  5
F10400
330
F10401
100
AcDbEntity
8
Geo
100
AcDbLine
10
-41.5803989592368
20
9.93449422475089
30
0.000000000000000
11
-41.4803989592368
21
9.86356535846742
31
0.000000000000000
  0
LINE
  5
F10402
330
F10403
100
AcDbEntity
8
Geo
100
AcDbLine
10
-41.4803989592368
20
9.86356535846742
30
0.000000000000000
11
-41.3803989592368
21
9.79124098246308
31
0.000000000000000
  0
LINE
  5
F10404
330
F10405
100
AcDbEntity
8
Geo
100
AcDbLine
10
-41.3803989592368
20
9.79124098246308
30
0.000000000000000
11
-41.2803989592368
21
9.71755002552396
31
0.000000000000000
  0
LINE
  5
F10406
330
F10407
100
AcDbEntity
8
Geo
100
AcDbLine
10
-41.2803989592368
20
9.71755002552396
30
0.000000000000000
11
-41.1803989592368
21
9.64252196305031
31
0.000000000000000
  0
LINE
  5
F10408
330
F10409
100
AcDbEntity
8
Geo
100
AcDbLine
10
-41.1803989592368
20
9.64252196305031
30
0.000000000000000
11
-41.0803989592368
21
9.56618680526674
31
0.000000000000000
  0
LINE
  5
F1040A
330
F1040B
100
AcDbEntity
8
Geo
100
AcDbLine
10
-41.0803989592368
20
9.56618680526674
30
0.000000000000000
11
-40.9803989592368
21
9.48857508521860
31
0.000000000000000
  0
LINE
  5
F1040C
330
F1040D
100
AcDbEntity
8
Geo
100
AcDbLine
10
-40.9803989592368
20
9.48857508521860
30
0.000000000000000
11
-40.8803989592368
21
9.40971784655908
31
0.000000000000000
  0
LINE
  5
F1040E
330
F1040F
100
AcDbEntity
8
Geo
100
AcDbLine
10
-40.8803989592368
20
9.40971784655908
30
0.000000000000000
11
-40.7803989592368
21
9.32964663113223
31
0.000000000000000
  0
LINE
  5
F10410
330
F10411
100
AcDbEntity
8
Geo
100
AcDbLine
10
-40.7803989592368
20
9.32964663113223
30
0.000000000000000
11
-40.6803989592368
21
9.24839346635663
31
0.000000000000000
  0
LINE
  5
F10412
330
F10413
100
AcDbEntity
8
Geo
100
AcDbLine
10
-40.6803989592368
20
9.24839346635663
30
0.000000000000000
11
-40.5803989592368
21
9.16599085241482
31
0.000000000000000
  0
LINE
  5
F10414
330
F10415
100
AcDbEntity
8
Geo
100
AcDbLine
10
-40.5803989592368
20
9.16599085241482
30
0.000000000000000
11
-40.4803989592368
21
9.08247174925370
31
0.000000000000000
  0
LINE
  5
F10416
330
F10417
100
AcDbEntity
8
Geo
100
AcDbLine
10
-40.4803989592368
20
9.08247174925370
30
0.000000000000000
11
-40.3803989592368
21
8.99786956340094
31
0.000000000000000
  0
LINE
  5
F10418
330
F10419
100
AcDbEntity
8
Geo
100
AcDbLine
10
-40.3803989592368
20
8.99786956340094
30
0.000000000000000
11
-40.2803989592368
21
8.91221813460289
31
0.000000000000000
  0
LINE
  5
F1041A
330
F1041B
100
AcDbEntity
8
Geo
100
AcDbLine
10
-40.2803989592368
20
8.91221813460289
30
0.000000000000000
11
-40.1803989592368
21
8.82555172228905
31
0.000000000000000
  0
LINE
  5
F1041C
330
F1041D
100
AcDbEntity
8
Geo
100
AcDbLine
10
-40.1803989592368
20
8.82555172228905
30
0.000000000000000
11
-40.0803989592368
21
8.73790499186882
31
0.000000000000000
  0
LINE
  5
F1041E
330
F1041F
100
AcDbEntity
8
Geo
100
AcDbLine
10
-40.0803989592368
20
8.73790499186882
30
0.000000000000000
11
-39.9803989592368
21
8.64931300086576
31
0.000000000000000
  0
LINE
  5
F10420
330
F10421
100
AcDbEntity
8
Geo
100
AcDbLine
10
-39.9803989592368
20
8.64931300086576
30
0.000000000000000
11
-39.8803989592368
21
8.55981118489505
31
0.000000000000000
  0
LINE
  5
F10422
330
F10423
100
AcDbEntity
8
Geo
100
AcDbLine
10
-39.8803989592368
20
8.55981118489505
30
0.000000000000000
11
-39.7803989592368
21
8.46943534348974
31
0.000000000000000
  0
LINE
  5
F10424
330
F10425
100
AcDbEntity
8
Geo
100
AcDbLine
10
-39.7803989592368
20
8.46943534348974
30
0.000000000000000
11
-39.6803989592368
21
8.37822162578140
31
0.000000000000000
  0
LINE
  5
F10426
330
F10427
100
AcDbEntity
8
Geo
100
AcDbLine
10
-39.6803989592368
20
8.37822162578140
30
0.000000000000000
11
-39.5803989592368
21
8.28620651604095
31
0.000000000000000
  0
LINE
  5
F10428
330
F10429
100
AcDbEntity
8
Geo
100
AcDbLine
10
-39.5803989592368
20
8.28620651604095
30
0.000000000000000
11
-39.4803989592368
21
8.19342681908543
31
0.000000000000000
  0
LINE
  5
F1042A
330
F1042B
100
AcDbEntity
8
Geo
100
AcDbLine
10
-39.4803989592368
20
8.19342681908543
30
0.000000000000000
11
-39.3803989592368
21
8.09991964555657
31
0.000000000000000
  0
LINE
  5
F1042C
330
F1042D
100
AcDbEntity
8
Geo
100
AcDbLine
10
-39.3803989592368
20
8.09991964555657
30
0.000000000000000
11
-39.2803989592368
21
8.00572239707705
31
0.000000000000000
  0
LINE
  5
F1042E
330
F1042F
100
AcDbEntity
8
Geo
100
AcDbLine
10
-39.2803989592368
20
8.00572239707705
30
0.000000000000000
11
-39.1803989592368
21
7.91087275129031
31
0.000000000000000
  0
LINE
  5
F10430
330
F10431
100
AcDbEntity
8
Geo
100
AcDbLine
10
-39.1803989592368
20
7.91087275129031
30
0.000000000000000
11
-39.0803989592368
21
7.81540864679001
31
0.000000000000000
  0
LINE
  5
F10432
330
F10433
100
AcDbEntity
8
Geo
100
AcDbLine
10
-39.0803989592368
20
7.81540864679001
30
0.000000000000000
11
-38.9803989592368
21
7.71936826794512
31
0.000000000000000
  0
LINE
  5
F10434
330
F10435
100
AcDbEntity
8
Geo
100
AcDbLine
10
-38.9803989592368
20
7.71936826794512
30
0.000000000000000
11
-38.8803989592368
21
7.62279002962666
31
0.000000000000000
  0
LINE
  5
F10436
330
F10437
100
AcDbEntity
8
Geo
100
AcDbLine
10
-38.8803989592368
20
7.62279002962666
30
0.000000000000000
11
-38.7803989592367
21
7.52571256184226
31
0.000000000000000
  0
LINE
  5
F10438
330
F10439
100
AcDbEntity
8
Geo
100
AcDbLine
10
-38.7803989592367
20
7.52571256184226
30
0.000000000000000
11
-38.6803989592368
21
7.42817469428469
31
0.000000000000000
  0
LINE
  5
F1043A
330
F1043B
100
AcDbEntity
8
Geo
100
AcDbLine
10
-38.6803989592368
20
7.42817469428469
30
0.000000000000000
11
-38.5803989592368
21
7.33021544080047
31
0.000000000000000
  0
LINE
  5
F1043C
330
F1043D
100
AcDbEntity
8
Geo
100
AcDbLine
10
-38.5803989592368
20
7.33021544080047
30
0.000000000000000
11
-38.4803989592368
21
7.23187398378491
31
0.000000000000000
  0
LINE
  5
F1043E
330
F1043F
100
AcDbEntity
8
Geo
100
AcDbLine
10
-38.4803989592368
20
7.23187398378491
30
0.000000000000000
11
-38.3803989592368
21
7.13318965850960
31
0.000000000000000
  0
LINE
  5
F10440
330
F10441
100
AcDbEntity
8
Geo
100
AcDbLine
10
-38.3803989592368
20
7.13318965850960
30
0.000000000000000
11
-38.2803989592368
21
7.03420193738888
31
0.000000000000000
  0
LINE
  5
F10442
330
F10443
100
AcDbEntity
8
Geo
100
AcDbLine
10
-38.2803989592368
20
7.03420193738888
30
0.000000000000000
11
-38.1803989592368
21
6.93495041419138
31
0.000000000000000
  0
LINE
  5
F10444
330
F10445
100
AcDbEntity
8
Geo
100
AcDbLine
10
-38.1803989592368
20
6.93495041419138
30
0.000000000000000
11
-38.0803989592368
21
6.83547478820304
31
0.000000000000000
  0
LINE
  5
F10446
330
F10447
100
AcDbEntity
8
Geo
100
AcDbLine
10
-38.0803989592368
20
6.83547478820304
30
0.000000000000000
11
-37.9803989592368
21
6.73581484834794
31
0.000000000000000
  0
LINE
  5
F10448
330
F10449
100
AcDbEntity
8
Geo
100
AcDbLine
10
-37.9803989592368
20
6.73581484834794
30
0.000000000000000
11
-37.8803989592368
21
6.63601045727323
31
0.000000000000000
  0
LINE
  5
F1044A
330
F1044B
100
AcDbEntity
8
Geo
100
AcDbLine
10
-37.8803989592368
20
6.63601045727323
30
0.000000000000000
11
-37.7803989592368
21
6.53610153540463
31
0.000000000000000
  0
LINE
  5
F1044C
330
F1044D
100
AcDbEntity
8
Geo
100
AcDbLine
10
-37.7803989592368
20
6.53610153540463
30
0.000000000000000
11
-37.6803989592368
21
6.43612804497881
31
0.000000000000000
  0
LINE
  5
F1044E
330
F1044F
100
AcDbEntity
8
Geo
100
AcDbLine
10
-37.6803989592368
20
6.43612804497881
30
0.000000000000000
11
-37.5803989592368
21
6.33612997405895
31
0.000000000000000
  0
LINE
  5
F10450
330
F10451
100
AcDbEntity
8
Geo
100
AcDbLine
10
-37.5803989592368
20
6.33612997405895
30
0.000000000000000
11
-37.4803989592368
21
6.23614732054014
31
0.000000000000000
  0
LINE
  5
F10452
330
F10453
100
AcDbEntity
8
Geo
100
AcDbLine
10
-37.4803989592368
20
6.23614732054014
30
0.000000000000000
11
-37.3803989592368
21
6.13622007615071
31
0.000000000000000
  0
LINE
  5
F10454
330
F10455
100
AcDbEntity
8
Geo
100
AcDbLine
10
-37.3803989592368
20
6.13622007615071
30
0.000000000000000
11
-37.2803989592368
21
6.03638821045605
31
0.000000000000000
  0
LINE
  5
F10456
330
F10457
100
AcDbEntity
8
Geo
100
AcDbLine
10
-37.2803989592368
20
6.03638821045605
30
0.000000000000000
11
-37.1803989592368
21
5.93669165487139
31
0.000000000000000
  0
LINE
  5
F10458
330
F10459
100
AcDbEntity
8
Geo
100
AcDbLine
10
-37.1803989592368
20
5.93669165487139
30
0.000000000000000
11
-37.0803989592368
21
5.83717028668967
31
0.000000000000000
  0
LINE
  5
F1045A
330
F1045B
100
AcDbEntity
8
Geo
100
AcDbLine
10
-37.0803989592368
20
5.83717028668967
30
0.000000000000000
11
-36.9803989592368
21
5.73786391313125
31
0.000000000000000
  0
LINE
  5
F1045C
330
F1045D
100
AcDbEntity
8
Geo
100
AcDbLine
10
-36.9803989592368
20
5.73786391313125
30
0.000000000000000
11
-36.8803989592368
21
5.63881225542147
31
0.000000000000000
  0
LINE
  5
F1045E
330
F1045F
100
AcDbEntity
8
Geo
100
AcDbLine
10
-36.8803989592368
20
5.63881225542147
30
0.000000000000000
11
-36.7803989592368
21
5.54005493290275
31
0.000000000000000
  0
LINE
  5
F10460
330
F10461
100
AcDbEntity
8
Geo
100
AcDbLine
10
-36.7803989592368
20
5.54005493290275
30
0.000000000000000
11
-36.6803989592368
21
5.44163144718735
31
0.000000000000000
  0
LINE
  5
F10462
330
F10463
100
AcDbEntity
8
Geo
100
AcDbLine
10
-36.6803989592368
20
5.44163144718735
30
0.000000000000000
11
-36.5803989592368
21
5.34358116635726
31
0.000000000000000
  0
LINE
  5
F10464
330
F10465
100
AcDbEntity
8
Geo
100
AcDbLine
10
-36.5803989592368
20
5.34358116635726
30
0.000000000000000
11
-36.4803989592368
21
5.24594330921750
31
0.000000000000000
  0
LINE
  5
F10466
330
F10467
100
AcDbEntity
8
Geo
100
AcDbLine
10
-36.4803989592368
20
5.24594330921750
30
0.000000000000000
11
-36.3803989592368
21
5.14875692960909
31
0.000000000000000
  0
LINE
  5
F10468
330
F10469
100
AcDbEntity
8
Geo
100
AcDbLine
10
-36.3803989592368
20
5.14875692960909
30
0.000000000000000
11
-36.2803989592368
21
5.05206090078808
31
0.000000000000000
  0
LINE
  5
F1046A
330
F1046B
100
AcDbEntity
8
Geo
100
AcDbLine
10
-36.2803989592368
20
5.05206090078808
30
0.000000000000000
11
-36.1803989592368
21
4.95589389987673
31
0.000000000000000
  0
LINE
  5
F1046C
330
F1046D
100
AcDbEntity
8
Geo
100
AcDbLine
10
-36.1803989592368
20
4.95589389987673
30
0.000000000000000
11
-36.0803989592368
21
4.86029439239321
31
0.000000000000000
  0
LINE
  5
F1046E
330
F1046F
100
AcDbEntity
8
Geo
100
AcDbLine
10
-36.0803989592368
20
4.86029439239321
30
0.000000000000000
11
-35.9803989592368
21
4.76530061686586
31
0.000000000000000
  0
LINE
  5
F10470
330
F10471
100
AcDbEntity
8
Geo
100
AcDbLine
10
-35.9803989592368
20
4.76530061686586
30
0.000000000000000
11
-35.8803989592368
21
4.67095056953832
31
0.000000000000000
  0
LINE
  5
F10472
330
F10473
100
AcDbEntity
8
Geo
100
AcDbLine
10
-35.8803989592368
20
4.67095056953832
30
0.000000000000000
11
-35.7803989592368
21
4.57728198917154
31
0.000000000000000
  0
LINE
  5
F10474
330
F10475
100
AcDbEntity
8
Geo
100
AcDbLine
10
-35.7803989592368
20
4.57728198917154
30
0.000000000000000
11
-35.6803989592368
21
4.48433234194877
31
0.000000000000000
  0
LINE
  5
F10476
330
F10477
100
AcDbEntity
8
Geo
100
AcDbLine
10
-35.6803989592368
20
4.48433234194877
30
0.000000000000000
11
-35.5803989592368
21
4.39213880648959
31
0.000000000000000
  0
LINE
  5
F10478
330
F10479
100
AcDbEntity
8
Geo
100
AcDbLine
10
-35.5803989592368
20
4.39213880648959
30
0.000000000000000
11
-35.4803989592368
21
4.30073825897895
31
0.000000000000000
  0
LINE
  5
F1047A
330
F1047B
100
AcDbEntity
8
Geo
100
AcDbLine
10
-35.4803989592368
20
4.30073825897895
30
0.000000000000000
11
-35.3803989592368
21
4.21016725841720
31
0.000000000000000
  0
LINE
  5
F1047C
330
F1047D
100
AcDbEntity
8
Geo
100
AcDbLine
10
-35.3803989592368
20
4.21016725841720
30
0.000000000000000
11
-35.2803989592368
21
4.12046203199696
31
0.000000000000000
  0
LINE
  5
F1047E
330
F1047F
100
AcDbEntity
8
Geo
100
AcDbLine
10
-35.2803989592368
20
4.12046203199696
30
0.000000000000000
11
-35.1803989592368
21
4.03165846061276
31
0.000000000000000
  0
LINE
  5
F10480
330
F10481
100
AcDbEntity
8
Geo
100
AcDbLine
10
-35.1803989592368
20
4.03165846061276
30
0.000000000000000
11
-35.0803989592368
21
3.94379206450910
31
0.000000000000000
  0
LINE
  5
F10482
330
F10483
100
AcDbEntity
8
Geo
100
AcDbLine
10
-35.0803989592368
20
3.94379206450910
30
0.000000000000000
11
-34.9803989592368
21
3.85689798907290
31
0.000000000000000
  0
LINE
  5
F10484
330
F10485
100
AcDbEntity
8
Geo
100
AcDbLine
10
-34.9803989592368
20
3.85689798907290
30
0.000000000000000
11
-34.8803989592368
21
3.77101099077576
31
0.000000000000000
  0
LINE
  5
F10486
330
F10487
100
AcDbEntity
8
Geo
100
AcDbLine
10
-34.8803989592368
20
3.77101099077576
30
0.000000000000000
11
-34.7803989592368
21
3.68616542327185
31
0.000000000000000
  0
LINE
  5
F10488
330
F10489
100
AcDbEntity
8
Geo
100
AcDbLine
10
-34.7803989592368
20
3.68616542327185
30
0.000000000000000
11
-34.6803989592368
21
3.60239522365691
31
0.000000000000000
  0
LINE
  5
F1048A
330
F1048B
100
AcDbEntity
8
Geo
100
AcDbLine
10
-34.6803989592368
20
3.60239522365691
30
0.000000000000000
11
-34.5803989592368
21
3.51973389889387
31
0.000000000000000
  0
LINE
  5
F1048C
330
F1048D
100
AcDbEntity
8
Geo
100
AcDbLine
10
-34.5803989592368
20
3.51973389889387
30
0.000000000000000
11
-34.4803989592368
21
3.43821451241050
31
0.000000000000000
  0
LINE
  5
F1048E
330
F1048F
100
AcDbEntity
8
Geo
100
AcDbLine
10
-34.4803989592368
20
3.43821451241050
30
0.000000000000000
11
-34.3803989592368
21
3.35786967087449
31
0.000000000000000
  0
LINE
  5
F10490
330
F10491
100
AcDbEntity
8
Geo
100
AcDbLine
10
-34.3803989592368
20
3.35786967087449
30
0.000000000000000
11
-34.2803989592368
21
3.27873151115118
31
0.000000000000000
  0
LINE
  5
F10492
330
F10493
100
AcDbEntity
8
Geo
100
AcDbLine
10
-34.2803989592368
20
3.27873151115118
30
0.000000000000000
11
-34.1803989592368
21
3.20083168744933
31
0.000000000000000
  0
LINE
  5
F10494
330
F10495
100
AcDbEntity
8
Geo
100
AcDbLine
10
-34.1803989592368
20
3.20083168744933
30
0.000000000000000
11
-34.0803989592368
21
3.12420135865974
31
0.000000000000000
  0
LINE
  5
F10496
330
F10497
100
AcDbEntity
8
Geo
100
AcDbLine
10
-34.0803989592368
20
3.12420135865974
30
0.000000000000000
11
-33.9803989592368
21
3.04887117589222
31
0.000000000000000
  0
LINE
  5
F10498
330
F10499
100
AcDbEntity
8
Geo
100
AcDbLine
10
-33.9803989592368
20
3.04887117589222
30
0.000000000000000
11
-33.8803989592368
21
2.97487127021549
31
0.000000000000000
  0
LINE
  5
F1049A
330
F1049B
100
AcDbEntity
8
Geo
100
AcDbLine
10
-33.8803989592368
20
2.97487127021549
30
0.000000000000000
11
-33.7803989592368
21
2.90223124060515
31
0.000000000000000
  0
LINE
  5
F1049C
330
F1049D
100
AcDbEntity
8
Geo
100
AcDbLine
10
-33.7803989592368
20
2.90223124060515
30
0.000000000000000
11
-33.6803989592368
21
2.83098014210454
31
0.000000000000000
  0
LINE
  5
F1049E
330
F1049F
100
AcDbEntity
8
Geo
100
AcDbLine
10
-33.6803989592368
20
2.83098014210454
30
0.000000000000000
11
-33.5803989592368
21
2.76114647420306
31
0.000000000000000
  0
LINE
  5
F104A0
330
F104A1
100
AcDbEntity
8
Geo
100
AcDbLine
10
-33.5803989592368
20
2.76114647420306
30
0.000000000000000
11
-33.4803989592368
21
2.69275816943675
31
0.000000000000000
  0
LINE
  5
F104A2
330
F104A3
100
AcDbEntity
8
Geo
100
AcDbLine
10
-33.4803989592368
20
2.69275816943675
30
0.000000000000000
11
-33.3803989592368
21
2.62584258221570
31
0.000000000000000
  0
LINE
  5
F104A4
330
F104A5
100
AcDbEntity
8
Geo
100
AcDbLine
10
-33.3803989592368
20
2.62584258221570
30
0.000000000000000
11
-33.2803989592368
21
2.56042647788260
31
0.000000000000000
  0
LINE
  5
F104A6
330
F104A7
100
AcDbEntity
8
Geo
100
AcDbLine
10
-33.2803989592368
20
2.56042647788260
30
0.000000000000000
11
-33.1803989592368
21
2.49653602200697
31
0.000000000000000
  0
LINE
  5
F104A8
330
F104A9
100
AcDbEntity
8
Geo
100
AcDbLine
10
-33.1803989592368
20
2.49653602200697
30
0.000000000000000
11
-33.0803989592368
21
2.43419676991931
31
0.000000000000000
  0
LINE
  5
F104AA
330
F104AB
100
AcDbEntity
8
Geo
100
AcDbLine
10
-33.0803989592368
20
2.43419676991931
30
0.000000000000000
11
-32.9803989592368
21
2.37343365648928
31
0.000000000000000
  0
LINE
  5
F104AC
330
F104AD
100
AcDbEntity
8
Geo
100
AcDbLine
10
-32.9803989592368
20
2.37343365648928
30
0.000000000000000
11
-32.8803989592368
21
2.31427098615208
31
0.000000000000000
  0
LINE
  5
F104AE
330
F104AF
100
AcDbEntity
8
Geo
100
AcDbLine
10
-32.8803989592368
20
2.31427098615208
30
0.000000000000000
11
-32.7803989592368
21
2.25673242318701
31
0.000000000000000
  0
LINE
  5
F104B0
330
F104B1
100
AcDbEntity
8
Geo
100
AcDbLine
10
-32.7803989592368
20
2.25673242318701
30
0.000000000000000
11
-32.6803989592368
21
2.20084098225210
31
0.000000000000000
  0
LINE
  5
F104B2
330
F104B3
100
AcDbEntity
8
Geo
100
AcDbLine
10
-32.6803989592368
20
2.20084098225210
30
0.000000000000000
11
-32.5803989592368
21
2.14661901917852
31
0.000000000000000
  0
LINE
  5
F104B4
330
F104B5
100
AcDbEntity
8
Geo
100
AcDbLine
10
-32.5803989592368
20
2.14661901917852
30
0.000000000000000
11
-32.4803989592368
21
2.09408822202853
31
0.000000000000000
  0
LINE
  5
F104B6
330
F104B7
100
AcDbEntity
8
Geo
100
AcDbLine
10
-32.4803989592368
20
2.09408822202853
30
0.000000000000000
11
-32.3803989592368
21
2.04326960242060
31
0.000000000000000
  0
LINE
  5
F104B8
330
F104B9
100
AcDbEntity
8
Geo
100
AcDbLine
10
-32.3803989592368
20
2.04326960242060
30
0.000000000000000
11
-32.2803989592368
21
1.99418348712500
31
0.000000000000000
  0
LINE
  5
F104BA
330
F104BB
100
AcDbEntity
8
Geo
100
AcDbLine
10
-32.2803989592368
20
1.99418348712500
30
0.000000000000000
11
-32.1803989592368
21
1.94684950993338
31
0.000000000000000
  0
LINE
  5
F104BC
330
F104BD
100
AcDbEntity
8
Geo
100
AcDbLine
10
-32.1803989592368
20
1.94684950993338
30
0.000000000000000
11
-32.0803989592368
21
1.90128660380550
31
0.000000000000000
  0
LINE
  5
F104BE
330
F104BF
100
AcDbEntity
8
Geo
100
AcDbLine
10
-32.0803989592368
20
1.90128660380550
30
0.000000000000000
11
-31.9803989592368
21
1.85751299329631
31
0.000000000000000
  0
LINE
  5
F104C0
330
F104C1
100
AcDbEntity
8
Geo
100
AcDbLine
10
-31.9803989592368
20
1.85751299329631
30
0.000000000000000
11
-31.8803989592368
21
1.81554618726638
31
0.000000000000000
  0
LINE
  5
F104C2
330
F104C3
100
AcDbEntity
8
Geo
100
AcDbLine
10
-31.8803989592368
20
1.81554618726638
30
0.000000000000000
11
-31.7803989592368
21
1.77540297187857
31
0.000000000000000
  0
LINE
  5
F104C4
330
F104C5
100
AcDbEntity
8
Geo
100
AcDbLine
10
-31.7803989592368
20
1.77540297187857
30
0.000000000000000
11
-31.6803989592368
21
1.73709940388380
31
0.000000000000000
  0
LINE
  5
F104C6
330
F104C7
100
AcDbEntity
8
Geo
100
AcDbLine
10
-31.6803989592368
20
1.73709940388380
30
0.000000000000000
11
-31.5803989592368
21
1.70065080419856
31
0.000000000000000
  0
LINE
  5
F104C8
330
F104C9
100
AcDbEntity
8
Geo
100
AcDbLine
10
-31.5803989592368
20
1.70065080419856
30
0.000000000000000
11
-31.4803989592368
21
1.66607175177674
31
0.000000000000000
  0
LINE
  5
F104CA
330
F104CB
100
AcDbEntity
8
Geo
100
AcDbLine
10
-31.4803989592368
20
1.66607175177674
30
0.000000000000000
11
-31.3803989592368
21
1.63337607777828
31
0.000000000000000
  0
LINE
  5
F104CC
330
F104CD
100
AcDbEntity
8
Geo
100
AcDbLine
10
-31.3803989592368
20
1.63337607777828
30
0.000000000000000
11
-31.2803989592368
21
1.60257686003683
31
0.000000000000000
  0
LINE
  5
F104CE
330
F104CF
100
AcDbEntity
8
Geo
100
AcDbLine
10
-31.2803989592368
20
1.60257686003683
30
0.000000000000000
11
-31.1803989592368
21
1.57368641782884
31
0.000000000000000
  0
LINE
  5
F104D0
330
F104D1
100
AcDbEntity
8
Geo
100
AcDbLine
10
-31.1803989592368
20
1.57368641782884
30
0.000000000000000
11
-31.0803989592368
21
1.54671630694599
31
0.000000000000000
  0
LINE
  5
F104D2
330
F104D3
100
AcDbEntity
8
Geo
100
AcDbLine
10
-31.0803989592368
20
1.54671630694599
30
0.000000000000000
11
-30.9803989592368
21
1.52167731507303
31
0.000000000000000
  0
LINE
  5
F104D4
330
F104D5
100
AcDbEntity
8
Geo
100
AcDbLine
10
-30.9803989592368
20
1.52167731507303
30
0.000000000000000
11
-30.8803989592368
21
1.49857945747287
31
0.000000000000000
  0
LINE
  5
F104D6
330
F104D7
100
AcDbEntity
8
Geo
100
AcDbLine
10
-30.8803989592368
20
1.49857945747287
30
0.000000000000000
11
-30.7803989592368
21
1.47743197298059
31
0.000000000000000
  0
LINE
  5
F104D8
330
F104D9
100
AcDbEntity
8
Geo
100
AcDbLine
10
-30.7803989592368
20
1.47743197298059
30
0.000000000000000
11
-30.6803989592368
21
1.45824332030800
31
0.000000000000000
  0
LINE
  5
F104DA
330
F104DB
100
AcDbEntity
8
Geo
100
AcDbLine
10
-30.6803989592368
20
1.45824332030800
30
0.000000000000000
11
-30.5803989592368
21
1.44102117466035
31
0.000000000000000
  0
LINE
  5
F104DC
330
F104DD
100
AcDbEntity
8
Geo
100
AcDbLine
10
-30.5803989592368
20
1.44102117466035
30
0.000000000000000
11
-30.4803989592368
21
1.42577242466626
31
0.000000000000000
  0
LINE
  5
F104DE
330
F104DF
100
AcDbEntity
8
Geo
100
AcDbLine
10
-30.4803989592368
20
1.42577242466626
30
0.000000000000000
11
-30.3803989592368
21
1.41250316962241
31
0.000000000000000
  0
LINE
  5
F104E0
330
F104E1
100
AcDbEntity
8
Geo
100
AcDbLine
10
-30.3803989592368
20
1.41250316962241
30
0.000000000000000
11
-30.2803989592368
21
1.40121871705391
31
0.000000000000000
  0
LINE
  5
F104E2
330
F104E3
100
AcDbEntity
8
Geo
100
AcDbLine
10
-30.2803989592368
20
1.40121871705391
30
0.000000000000000
11
-30.1803989592368
21
1.39192358059131
31
0.000000000000000
  0
LINE
  5
F104E4
330
F104E5
100
AcDbEntity
8
Geo
100
AcDbLine
10
-30.1803989592368
20
1.39192358059131
30
0.000000000000000
11
-30.0803989592368
21
1.38462147816529
31
0.000000000000000
  0
LINE
  5
F104E6
330
F104E7
100
AcDbEntity
8
Geo
100
AcDbLine
10
-30.0803989592368
20
1.38462147816529
30
0.000000000000000
11
-29.9803989592368
21
1.37931533051943
31
0.000000000000000
  0
LINE
  5
F104E8
330
F104E9
100
AcDbEntity
8
Geo
100
AcDbLine
10
-29.9803989592368
20
1.37931533051943
30
0.000000000000000
11
-29.8803989592368
21
1.37600726004206
31
0.000000000000000
  0
LINE
  5
F104EA
330
F104EB
100
AcDbEntity
8
Geo
100
AcDbLine
10
-29.8803989592368
20
1.37600726004206
30
0.000000000000000
11
-29.7803989592368
21
1.37469858991726
31
0.000000000000000
  0
LINE
  5
F104EC
330
F104ED
100
AcDbEntity
8
Geo
100
AcDbLine
10
-29.7803989592368
20
1.37469858991726
30
0.000000000000000
11
-29.7649618928908
21
1.37467476149176
31
0.000000000000000
  0
LINE
  5
F104EE
330
F104EF
100
AcDbEntity
8
Geo
100
AcDbLine
10
-42.6803989592368
20
2.02133616712969
30
0.000000000000000
11
-42.5803989592368
21
1.91387568882803
31
0.000000000000000
  0
LINE
  5
F104F0
330
F104F1
100
AcDbEntity
8
Geo
100
AcDbLine
10
-42.5803989592368
20
1.91387568882803
30
0.000000000000000
11
-42.5803989592368
21
1.91387568882803
31
0.000000000000000
  0
LINE
  5
F104F2
330
F104F3
100
AcDbEntity
8
Geo
100
AcDbLine
10
-42.5803989592368
20
1.91387568882803
30
0.000000000000000
11
-42.4803989592368
21
1.86959884061146
31
0.000000000000000
  0
LINE
  5
F104F4
330
F104F5
100
AcDbEntity
8
Geo
100
AcDbLine
10
-42.4803989592368
20
1.86959884061146
30
0.000000000000000
11
-42.3803989592368
21
1.82712396269638
31
0.000000000000000
  0
LINE
  5
F104F6
330
F104F7
100
AcDbEntity
8
Geo
100
AcDbLine
10
-42.3803989592368
20
1.82712396269638
30
0.000000000000000
11
-42.2803989592368
21
1.78646804446760
31
0.000000000000000
  0
LINE
  5
F104F8
330
F104F9
100
AcDbEntity
8
Geo
100
AcDbLine
10
-42.2803989592368
20
1.78646804446760
30
0.000000000000000
11
-42.1803989592368
21
1.74764734775036
31
0.000000000000000
  0
LINE
  5
F104FA
330
F104FB
100
AcDbEntity
8
Geo
100
AcDbLine
10
-42.1803989592368
20
1.74764734775036
30
0.000000000000000
11
-42.0803989592368
21
1.71067740030575
31
0.000000000000000
  0
LINE
  5
F104FC
330
F104FD
100
AcDbEntity
8
Geo
100
AcDbLine
10
-42.0803989592368
20
1.71067740030575
30
0.000000000000000
11
-41.9803989592368
21
1.67557298961980
31
0.000000000000000
  0
LINE
  5
F104FE
330
F104FF
100
AcDbEntity
8
Geo
100
AcDbLine
10
-41.9803989592368
20
1.67557298961980
30
0.000000000000000
11
-41.8803989592368
21
1.64234815698875
31
0.000000000000000
  0
LINE
  5
F10500
330
F10501
100
AcDbEntity
8
Geo
100
AcDbLine
10
-41.8803989592368
20
1.64234815698875
30
0.000000000000000
11
-41.7803989592368
21
1.61101619190265
31
0.000000000000000
  0
LINE
  5
F10502
330
F10503
100
AcDbEntity
8
Geo
100
AcDbLine
10
-41.7803989592368
20
1.61101619190265
30
0.000000000000000
11
-41.6803989592368
21
1.58158962672979
31
0.000000000000000
  0
LINE
  5
F10504
330
F10505
100
AcDbEntity
8
Geo
100
AcDbLine
10
-41.6803989592368
20
1.58158962672979
30
0.000000000000000
11
-41.5803989592368
21
1.55408023170388
31
0.000000000000000
  0
LINE
  5
F10506
330
F10507
100
AcDbEntity
8
Geo
100
AcDbLine
10
-41.5803989592368
20
1.55408023170388
30
0.000000000000000
11
-41.4803989592368
21
1.52849901021615
31
0.000000000000000
  0
LINE
  5
F10508
330
F10509
100
AcDbEntity
8
Geo
100
AcDbLine
10
-41.4803989592368
20
1.52849901021615
30
0.000000000000000
11
-41.3803989592368
21
1.50485619441412
31
0.000000000000000
  0
LINE
  5
F1050A
330
F1050B
100
AcDbEntity
8
Geo
100
AcDbLine
10
-41.3803989592368
20
1.50485619441412
30
0.000000000000000
11
-41.2803989592368
21
1.48316124110887
31
0.000000000000000
  0
LINE
  5
F1050C
330
F1050D
100
AcDbEntity
8
Geo
100
AcDbLine
10
-41.2803989592368
20
1.48316124110887
30
0.000000000000000
11
-41.1803989592368
21
1.46342282799246
31
0.000000000000000
  0
LINE
  5
F1050E
330
F1050F
100
AcDbEntity
8
Geo
100
AcDbLine
10
-41.1803989592368
20
1.46342282799246
30
0.000000000000000
11
-41.0803989592368
21
1.44564885016696
31
0.000000000000000
  0
LINE
  5
F10510
330
F10511
100
AcDbEntity
8
Geo
100
AcDbLine
10
-41.0803989592368
20
1.44564885016696
30
0.000000000000000
11
-40.9803989592368
21
1.42984641698653
31
0.000000000000000
  0
LINE
  5
F10512
330
F10513
100
AcDbEntity
8
Geo
100
AcDbLine
10
-40.9803989592368
20
1.42984641698653
30
0.000000000000000
11
-40.8803989592368
21
1.41602184921373
31
0.000000000000000
  0
LINE
  5
F10514
330
F10515
100
AcDbEntity
8
Geo
100
AcDbLine
10
-40.8803989592368
20
1.41602184921373
30
0.000000000000000
11
-40.7803989592368
21
1.40418067649135
31
0.000000000000000
  0
LINE
  5
F10516
330
F10517
100
AcDbEntity
8
Geo
100
AcDbLine
10
-40.7803989592368
20
1.40418067649135
30
0.000000000000000
11
-40.6803989592368
21
1.39432763513061
31
0.000000000000000
  0
LINE
  5
F10518
330
F10519
100
AcDbEntity
8
Geo
100
AcDbLine
10
-40.6803989592368
20
1.39432763513061
30
0.000000000000000
11
-40.5803989592368
21
1.38646666621666
31
0.000000000000000
  0
LINE
  5
F1051A
330
F1051B
100
AcDbEntity
8
Geo
100
AcDbLine
10
-40.5803989592368
20
1.38646666621666
30
0.000000000000000
11
-40.4803989592368
21
1.38060091403227
31
0.000000000000000
  0
LINE
  5
F1051C
330
F1051D
100
AcDbEntity
8
Geo
100
AcDbLine
10
-40.4803989592368
20
1.38060091403227
30
0.000000000000000
11
-40.3803989592368
21
1.37673272480010
31
0.000000000000000
  0
LINE
  5
F1051E
330
F1051F
100
AcDbEntity
8
Geo
100
AcDbLine
10
-40.3803989592368
20
1.37673272480010
30
0.000000000000000
11
-40.2803989592368
21
1.37486364574427
31
0.000000000000000
  0
LINE
  5
F10520
330
F10521
100
AcDbEntity
8
Geo
100
AcDbLine
10
-40.2803989592368
20
1.37486364574427
30
0.000000000000000
11
-40.2369377922029
21
1.37467476149176
31
0.000000000000000
  0
LINE
  5
F10522
330
F10523
100
AcDbEntity
8
Geo
100
AcDbLine
10
-24.5289747859315
20
11.3746747614918
30
0.000000000000000
11
-24.4803989592368
21
11.3744388027146
31
0.000000000000000
  0
LINE
  5
F10524
330
F10525
100
AcDbEntity
8
Geo
100
AcDbLine
10
-24.4803989592368
20
11.3744388027146
30
0.000000000000000
11
-24.3803989592368
21
11.3724674477004
31
0.000000000000000
  0
LINE
  5
F10526
330
F10527
100
AcDbEntity
8
Geo
100
AcDbLine
10
-24.3803989592368
20
11.3724674477004
30
0.000000000000000
11
-24.2803989592368
21
11.3684970422482
31
0.000000000000000
  0
LINE
  5
F10528
330
F10529
100
AcDbEntity
8
Geo
100
AcDbLine
10
-24.2803989592368
20
11.3684970422482
30
0.000000000000000
11
-24.1803989592368
21
11.3625291744670
31
0.000000000000000
  0
LINE
  5
F1052A
330
F1052B
100
AcDbEntity
8
Geo
100
AcDbLine
10
-24.1803989592368
20
11.3625291744670
30
0.000000000000000
11
-24.0803989592368
21
11.3545662314244
31
0.000000000000000
  0
LINE
  5
F1052C
330
F1052D
100
AcDbEntity
8
Geo
100
AcDbLine
10
-24.0803989592368
20
11.3545662314244
30
0.000000000000000
11
-23.9803989592368
21
11.3446113981916
31
0.000000000000000
  0
LINE
  5
F1052E
330
F1052F
100
AcDbEntity
8
Geo
100
AcDbLine
10
-23.9803989592368
20
11.3446113981916
30
0.000000000000000
11
-23.8803989592368
21
11.3326686565690
31
0.000000000000000
  0
LINE
  5
F10530
330
F10531
100
AcDbEntity
8
Geo
100
AcDbLine
10
-23.8803989592368
20
11.3326686565690
30
0.000000000000000
11
-23.7803989592368
21
11.3187427834941
31
0.000000000000000
  0
LINE
  5
F10532
330
F10533
100
AcDbEntity
8
Geo
100
AcDbLine
10
-23.7803989592368
20
11.3187427834941
30
0.000000000000000
11
-23.6803989592368
21
11.3028393491304
31
0.000000000000000
  0
LINE
  5
F10534
330
F10535
100
AcDbEntity
8
Geo
100
AcDbLine
10
-23.6803989592368
20
11.3028393491304
30
0.000000000000000
11
-23.5803989592368
21
11.2849647146396
31
0.000000000000000
  0
LINE
  5
F10536
330
F10537
100
AcDbEntity
8
Geo
100
AcDbLine
10
-23.5803989592368
20
11.2849647146396
30
0.000000000000000
11
-23.4803989592368
21
11.2651260296373
31
0.000000000000000
  0
LINE
  5
F10538
330
F10539
100
AcDbEntity
8
Geo
100
AcDbLine
10
-23.4803989592368
20
11.2651260296373
30
0.000000000000000
11
-23.3803989592368
21
11.2433312293328
31
0.000000000000000
  0
LINE
  5
F1053A
330
F1053B
100
AcDbEntity
8
Geo
100
AcDbLine
10
-23.3803989592368
20
11.2433312293328
30
0.000000000000000
11
-23.2803989592367
21
11.2195890313557
31
0.000000000000000
  0
LINE
  5
F1053C
330
F1053D
100
AcDbEntity
8
Geo
100
AcDbLine
10
-23.2803989592367
20
11.2195890313557
30
0.000000000000000
11
-23.1803989592367
21
11.1939089322687
31
0.000000000000000
  0
LINE
  5
F1053E
330
F1053F
100
AcDbEntity
8
Geo
100
AcDbLine
10
-23.1803989592367
20
11.1939089322687
30
0.000000000000000
11
-23.0803989592367
21
11.1663012037690
31
0.000000000000000
  0
LINE
  5
F10540
330
F10541
100
AcDbEntity
8
Geo
100
AcDbLine
10
-23.0803989592367
20
11.1663012037690
30
0.000000000000000
11
-22.9803989592367
21
11.1367768885799
31
0.000000000000000
  0
LINE
  5
F10542
330
F10543
100
AcDbEntity
8
Geo
100
AcDbLine
10
-22.9803989592367
20
11.1367768885799
30
0.000000000000000
11
-22.8803989592367
21
11.1053477960338
31
0.000000000000000
  0
LINE
  5
F10544
330
F10545
100
AcDbEntity
8
Geo
100
AcDbLine
10
-22.8803989592367
20
11.1053477960338
30
0.000000000000000
11
-22.7803989592367
21
11.0720264973487
31
0.000000000000000
  0
LINE
  5
F10546
330
F10547
100
AcDbEntity
8
Geo
100
AcDbLine
10
-19.5608803484561
20
1.37467476149176
30
0.000000000000000
11
-19.5803989592367
21
1.37476510489232
31
0.000000000000000
  0
LINE
  5
F10548
330
F10549
100
AcDbEntity
8
Geo
100
AcDbLine
10
-19.5803989592367
20
1.37476510489232
30
0.000000000000000
11
-19.6803989592367
21
1.37777272743363
31
0.000000000000000
  0
LINE
  5
F1054A
330
F1054B
100
AcDbEntity
8
Geo
100
AcDbLine
10
-19.6803989592367
20
1.37777272743363
30
0.000000000000000
11
-19.7803989592367
21
1.38458941606420
31
0.000000000000000
  0
LINE
  5
F1054C
330
F1054D
100
AcDbEntity
8
Geo
100
AcDbLine
10
-19.7803989592367
20
1.38458941606420
30
0.000000000000000
11
-19.8803989592367
21
1.39470269955606
31
0.000000000000000
  0
LINE
  5
F1054E
330
F1054F
100
AcDbEntity
8
Geo
100
AcDbLine
10
-19.8803989592367
20
1.39470269955606
30
0.000000000000000
11
-19.9803989592367
21
1.40770879687602
31
0.000000000000000
  0
LINE
  5
F10550
330
F10551
100
AcDbEntity
8
Geo
100
AcDbLine
10
-19.9803989592367
20
1.40770879687602
30
0.000000000000000
11
-20.0803989592367
21
1.42329296969325
31
0.000000000000000
  0
LINE
  5
F10552
330
F10553
100
AcDbEntity
8
Geo
100
AcDbLine
10
-20.0803989592367
20
1.42329296969325
30
0.000000000000000
11
-20.1803989592367
21
1.44121299972063
31
0.000000000000000
  0
LINE
  5
F10554
330
F10555
100
AcDbEntity
8
Geo
100
AcDbLine
10
-20.1803989592367
20
1.44121299972063
30
0.000000000000000
11
-20.2803989592367
21
1.46128533910069
31
0.000000000000000
  0
LINE
  5
F10556
330
F10557
100
AcDbEntity
8
Geo
100
AcDbLine
10
-20.2803989592367
20
1.46128533910069
30
0.000000000000000
11
-20.3803989592367
21
1.48337353222752
31
0.000000000000000
  0
LINE
  5
F10558
330
F10559
100
AcDbEntity
8
Geo
100
AcDbLine
10
-20.3803989592367
20
1.48337353222752
30
0.000000000000000
11
-20.4803989592367
21
1.50737855873851
31
0.000000000000000
  0
LINE
  5
F1055A
330
F1055B
100
AcDbEntity
8
Geo
100
AcDbLine
10
-20.4803989592367
20
1.50737855873851
30
0.000000000000000
11
-20.5803989592367
21
1.53323079668439
31
0.000000000000000
  0
LINE
  5
F1055C
330
F1055D
100
AcDbEntity
8
Geo
100
AcDbLine
10
-20.5803989592367
20
1.53323079668439
30
0.000000000000000
11
-20.6803989592367
21
1.56088335024316
31
0.000000000000000
  0
LINE
  5
F1055E
330
F1055F
100
AcDbEntity
8
Geo
100
AcDbLine
10
-20.6803989592367
20
1.56088335024316
30
0.000000000000000
11
-20.7803989592367
21
1.59030652685471
31
0.000000000000000
  0
LINE
  5
F10560
330
F10561
100
AcDbEntity
8
Geo
100
AcDbLine
10
-20.7803989592367
20
1.59030652685471
30
0.000000000000000
11
-20.8803989592367
21
1.62148328399229
31
0.000000000000000
  0
LINE
  5
F10562
330
F10563
100
AcDbEntity
8
Geo
100
AcDbLine
10
-20.8803989592367
20
1.62148328399229
30
0.000000000000000
11
-20.9803989592367
21
1.65440549601238
31
0.000000000000000
  0
LINE
  5
F10564
330
F10565
100
AcDbEntity
8
Geo
100
AcDbLine
10
-20.9803989592367
20
1.65440549601238
30
0.000000000000000
11
-21.0803989592367
21
1.68907091692635
31
0.000000000000000
  0
LINE
  5
F10566
330
F10567
100
AcDbEntity
8
Geo
100
AcDbLine
10
-21.0803989592367
20
1.68907091692635
30
0.000000000000000
11
-21.1803989592367
21
1.72548073594049
31
0.000000000000000
  0
LINE
  5
F10568
330
F10569
100
AcDbEntity
8
Geo
100
AcDbLine
10
-21.1803989592367
20
1.72548073594049
30
0.000000000000000
11
-21.2803989592367
21
1.76363763970299
31
0.000000000000000
  0
LINE
  5
F1056A
330
F1056B
100
AcDbEntity
8
Geo
100
AcDbLine
10
-21.2803989592367
20
1.76363763970299
30
0.000000000000000
11
-21.3803989592367
21
1.80354430888840
31
0.000000000000000
  0
LINE
  5
F1056C
330
F1056D
100
AcDbEntity
8
Geo
100
AcDbLine
10
-21.3803989592367
20
1.80354430888840
30
0.000000000000000
11
-21.4803989592367
21
1.84520228754346
31
0.000000000000000
  0
LINE
  5
F1056E
330
F1056F
100
AcDbEntity
8
Geo
100
AcDbLine
10
-21.4803989592367
20
1.84520228754346
30
0.000000000000000
11
-21.5803989592367
21
1.88861117198891
31
0.000000000000000
  0
LINE
  5
F10570
330
F10571
100
AcDbEntity
8
Geo
100
AcDbLine
10
-21.5803989592367
20
1.88861117198891
30
0.000000000000000
11
-21.6803989592367
21
1.93376807245943
31
0.000000000000000
  0
LINE
  5
F10572
330
F10573
100
AcDbEntity
8
Geo
100
AcDbLine
10
-21.6803989592367
20
1.93376807245943
30
0.000000000000000
11
-21.7803989592367
21
1.98066730546380
31
0.000000000000000
  0
LINE
  5
F10574
330
F10575
100
AcDbEntity
8
Geo
100
AcDbLine
10
-21.7803989592367
20
1.98066730546380
30
0.000000000000000
11
-21.8803989592367
21
2.02930027840883
31
0.000000000000000
  0
LINE
  5
F10576
330
F10577
100
AcDbEntity
8
Geo
100
AcDbLine
10
-21.8803989592367
20
2.02930027840883
30
0.000000000000000
11
-21.9803989592367
21
2.07965553065717
31
0.000000000000000
  0
LINE
  5
F10578
330
F10579
100
AcDbEntity
8
Geo
100
AcDbLine
10
-21.9803989592367
20
2.07965553065717
30
0.000000000000000
11
-22.0803989592367
21
2.13171889713596
31
0.000000000000000
  0
LINE
  5
F1057A
330
F1057B
100
AcDbEntity
8
Geo
100
AcDbLine
10
-22.0803989592367
20
2.13171889713596
30
0.000000000000000
11
-22.1803989592367
21
2.18547376209492
31
0.000000000000000
  0
LINE
  5
F1057C
330
F1057D
100
AcDbEntity
8
Geo
100
AcDbLine
10
-22.1803989592367
20
2.18547376209492
30
0.000000000000000
11
-22.2803989592367
21
2.24090137179842
31
0.000000000000000
  0
LINE
  5
F1057E
330
F1057F
100
AcDbEntity
8
Geo
100
AcDbLine
10
-22.2803989592367
20
2.24090137179842
30
0.000000000000000
11
-22.3803989592367
21
2.29798117596294
31
0.000000000000000
  0
LINE
  5
F10580
330
F10581
100
AcDbEntity
8
Geo
100
AcDbLine
10
-22.3803989592367
20
2.29798117596294
30
0.000000000000000
11
-22.4803989592367
21
2.35669116871870
31
0.000000000000000
  0
LINE
  5
F10582
330
F10583
100
AcDbEntity
8
Geo
100
AcDbLine
10
-22.4803989592367
20
2.35669116871870
30
0.000000000000000
11
-22.5803989592367
21
2.41700820085565
31
0.000000000000000
  0
LINE
  5
F10584
330
F10585
100
AcDbEntity
8
Geo
100
AcDbLine
10
-22.5803989592367
20
2.41700820085565
30
0.000000000000000
11
-22.7803989592367
21
2.54236652594942
31
0.000000000000000
  0
LINE
  5
F10586
330
F10587
100
AcDbEntity
8
Geo
100
AcDbLine
10
-21.7364477292886
20
11.3746747614918
30
0.000000000000000
11
-21.6803989592367
21
11.3743606161471
31
0.000000000000000
  0
LINE
  5
F10588
330
F10589
100
AcDbEntity
8
Geo
100
AcDbLine
10
-21.6803989592367
20
11.3743606161471
30
0.000000000000000
11
-21.5803989592367
21
11.3722398320552
31
0.000000000000000
  0
LINE
  5
F1058A
330
F1058B
100
AcDbEntity
8
Geo
100
AcDbLine
10
-21.5803989592367
20
11.3722398320552
30
0.000000000000000
11
-21.4803989592367
21
11.3681200919024
31
0.000000000000000
  0
LINE
  5
F1058C
330
F1058D
100
AcDbEntity
8
Geo
100
AcDbLine
10
-21.4803989592367
20
11.3681200919024
30
0.000000000000000
11
-21.3803989592367
21
11.3620030505370
31
0.000000000000000
  0
LINE
  5
F1058E
330
F1058F
100
AcDbEntity
8
Geo
100
AcDbLine
10
-21.3803989592367
20
11.3620030505370
30
0.000000000000000
11
-21.2803989592367
21
11.3538911726371
31
0.000000000000000
  0
LINE
  5
F10590
330
F10591
100
AcDbEntity
8
Geo
100
AcDbLine
10
-21.2803989592367
20
11.3538911726371
30
0.000000000000000
11
-21.1803989592367
21
11.3437877448697
31
0.000000000000000
  0
LINE
  5
F10592
330
F10593
100
AcDbEntity
8
Geo
100
AcDbLine
10
-21.1803989592367
20
11.3437877448697
30
0.000000000000000
11
-21.0803989592367
21
11.3316969000602
31
0.000000000000000
  0
LINE
  5
F10594
330
F10595
100
AcDbEntity
8
Geo
100
AcDbLine
10
-21.0803989592367
20
11.3316969000602
30
0.000000000000000
11
-20.9803989592367
21
11.3176236624036
31
0.000000000000000
  0
LINE
  5
F10596
330
F10597
100
AcDbEntity
8
Geo
100
AcDbLine
10
-20.9803989592367
20
11.3176236624036
30
0.000000000000000
11
-20.8803989592367
21
11.3015740278741
31
0.000000000000000
  0
LINE
  5
F10598
330
F10599
100
AcDbEntity
8
Geo
100
AcDbLine
10
-20.8803989592367
20
11.3015740278741
30
0.000000000000000
11
-20.7803989592367
21
11.2835551012869
31
0.000000000000000
  0
LINE
  5
F1059A
330
F1059B
100
AcDbEntity
8
Geo
100
AcDbLine
10
-20.7803989592367
20
11.2835551012869
30
0.000000000000000
11
-20.6803989592367
21
11.2635753216393
31
0.000000000000000
  0
LINE
  5
F1059C
330
F1059D
100
AcDbEntity
8
Geo
100
AcDbLine
10
-20.6803989592367
20
11.2635753216393
30
0.000000000000000
11
-20.5803989592367
21
11.2416448211797
31
0.000000000000000
  0
LINE
  5
F1059E
330
F1059F
100
AcDbEntity
8
Geo
100
AcDbLine
10
-20.5803989592367
20
11.2416448211797
30
0.000000000000000
11
-20.4803989592367
21
11.2177759820966
31
0.000000000000000
  0
LINE
  5
F105A0
330
F105A1
100
AcDbEntity
8
Geo
100
AcDbLine
10
-20.4803989592367
20
11.2177759820966
30
0.000000000000000
11
-20.3803989592367
21
11.1919842788399
31
0.000000000000000
  0
LINE
  5
F105A2
330
F105A3
100
AcDbEntity
8
Geo
100
AcDbLine
10
-20.3803989592367
20
11.1919842788399
30
0.000000000000000
11
-20.2803989592367
21
11.1642895251214
31
0.000000000000000
  0
LINE
  5
F105A4
330
F105A5
100
AcDbEntity
8
Geo
100
AcDbLine
10
-20.2803989592367
20
11.1642895251214
30
0.000000000000000
11
-20.1803989592367
21
11.1347176838681
31
0.000000000000000
  0
LINE
  5
F105A6
330
F105A7
100
AcDbEntity
8
Geo
100
AcDbLine
10
-20.1803989592367
20
11.1347176838681
30
0.000000000000000
11
-20.0803989592367
21
11.1033034471838
31
0.000000000000000
  0
LINE
  5
F105A8
330
F105A9
100
AcDbEntity
8
Geo
100
AcDbLine
10
-20.0803989592367
20
11.1033034471838
30
0.000000000000000
11
-19.9803989592367
21
11.0700938529136
31
0.000000000000000
  0
LINE
  5
F105AA
330
F105AB
100
AcDbEntity
8
Geo
100
AcDbLine
10
-19.9803989592367
20
11.0700938529136
30
0.000000000000000
11
-19.8803989592367
21
11.0351532756406
31
0.000000000000000
  0
LINE
  5
F105AC
330
F105AD
100
AcDbEntity
8
Geo
100
AcDbLine
10
-19.8803989592367
20
11.0351532756406
30
0.000000000000000
11
-19.7803989592367
21
10.9985702130758
31
0.000000000000000
  0
LINE
  5
F105AE
330
F105AF
100
AcDbEntity
8
Geo
100
AcDbLine
10
-19.7803989592367
20
10.9985702130758
30
0.000000000000000
11
-19.6803989592367
21
10.9604663827758
31
0.000000000000000
  0
LINE
  5
F105B0
330
F105B1
100
AcDbEntity
8
Geo
100
AcDbLine
10
-19.6803989592367
20
10.9604663827758
30
0.000000000000000
11
-19.5803989592367
21
10.9210087456428
31
0.000000000000000
  0
LINE
  5
F105B2
330
F105B3
100
AcDbEntity
8
Geo
100
AcDbLine
10
-19.5803989592367
20
10.9210087456428
30
0.000000000000000
11
-19.4803989592367
21
10.8804251747123
31
0.000000000000000
  0
LINE
  5
F105B4
330
F105B5
100
AcDbEntity
8
Geo
100
AcDbLine
10
-19.4803989592367
20
10.8804251747123
30
0.000000000000000
11
-19.3803989592367
21
10.8390245773731
31
0.000000000000000
  0
LINE
  5
F105B6
330
F105B7
100
AcDbEntity
8
Geo
100
AcDbLine
10
-19.3803989592367
20
10.8390245773731
30
0.000000000000000
11
-19.2803989592367
21
10.7972223339713
31
0.000000000000000
  0
LINE
  5
F105B8
330
F105B9
100
AcDbEntity
8
Geo
100
AcDbLine
10
-19.2803989592367
20
10.7972223339713
30
0.000000000000000
11
-19.1803989592367
21
10.7555718986405
31
0.000000000000000
  0
LINE
  5
F105BA
330
F105BB
100
AcDbEntity
8
Geo
100
AcDbLine
10
-19.1803989592367
20
10.7555718986405
30
0.000000000000000
11
-19.0803989592367
21
10.7148032591268
31
0.000000000000000
  0
LINE
  5
F105BC
330
F105BD
100
AcDbEntity
8
Geo
100
AcDbLine
10
-19.0803989592367
20
10.7148032591268
30
0.000000000000000
11
-18.9803989592367
21
10.6758685755757
31
0.000000000000000
  0
LINE
  5
F105BE
330
F105BF
100
AcDbEntity
8
Geo
100
AcDbLine
10
-18.9803989592367
20
10.6758685755757
30
0.000000000000000
11
-18.8803989592367
21
10.6399945615153
31
0.000000000000000
  0
LINE
  5
F105C0
330
F105C1
100
AcDbEntity
8
Geo
100
AcDbLine
10
-18.8803989592367
20
10.6399945615153
30
0.000000000000000
11
-18.7803989592367
21
10.6087397910797
31
0.000000000000000
  0
LINE
  5
F105C2
330
F105C3
100
AcDbEntity
8
Geo
100
AcDbLine
10
-18.7803989592367
20
10.6087397910797
30
0.000000000000000
11
-18.6803989592367
21
10.5840527250673
31
0.000000000000000
  0
LINE
  5
F105C4
330
F105C5
100
AcDbEntity
8
Geo
100
AcDbLine
10
-18.6803989592367
20
10.5840527250673
30
0.000000000000000
11
-18.5803989592367
21
10.5683222109360
31
0.000000000000000
  0
LINE
  5
F105C6
330
F105C7
100
AcDbEntity
8
Geo
100
AcDbLine
10
-18.5803989592367
20
10.5683222109360
30
0.000000000000000
11
-18.4803989592367
21
10.5644054863115
31
0.000000000000000
  0
LINE
  5
F105C8
330
F105C9
100
AcDbEntity
8
Geo
100
AcDbLine
10
-18.4803989592367
20
10.5644054863115
30
0.000000000000000
11
-18.3803989592367
21
10.5756075773768
31
0.000000000000000
  0
LINE
  5
F105CA
330
F105CB
100
AcDbEntity
8
Geo
100
AcDbLine
10
-18.3803989592367
20
10.5756075773768
30
0.000000000000000
11
-18.2803989592367
21
10.6055675840881
31
0.000000000000000
  0
LINE
  5
F105CC
330
F105CD
100
AcDbEntity
8
Geo
100
AcDbLine
10
-18.2803989592367
20
10.6055675840881
30
0.000000000000000
11
-18.1803989592367
21
10.6579770545986
31
0.000000000000000
  0
LINE
  5
F105CE
330
F105CF
100
AcDbEntity
8
Geo
100
AcDbLine
10
-18.1803989592367
20
10.6579770545986
30
0.000000000000000
11
-18.0803989592367
21
10.7360062359340
31
0.000000000000000
  0
LINE
  5
F105D0
330
F105D1
100
AcDbEntity
8
Geo
100
AcDbLine
10
-18.0803989592367
20
10.7360062359340
30
0.000000000000000
11
-17.9803989592367
21
10.8412350137702
31
0.000000000000000
  0
LINE
  5
F105D2
330
F105D3
100
AcDbEntity
8
Geo
100
AcDbLine
10
-17.9803989592367
20
10.8412350137702
30
0.000000000000000
11
-17.8803989592367
21
10.9717643226040
31
0.000000000000000
  0
LINE
  5
F105D4
330
F105D5
100
AcDbEntity
8
Geo
100
AcDbLine
10
-17.8803989592367
20
10.9717643226040
30
0.000000000000000
11
-17.7803989592367
21
11.1190133890787
31
0.000000000000000
  0
LINE
  5
F105D6
330
F105D7
100
AcDbEntity
8
Geo
100
AcDbLine
10
-17.7803989592367
20
11.1190133890787
30
0.000000000000000
11
-17.6803989592368
21
11.2625109686733
31
0.000000000000000
  0
LINE
  5
F105D8
330
F105D9
100
AcDbEntity
8
Geo
100
AcDbLine
10
-17.6803989592368
20
11.2625109686733
30
0.000000000000000
11
-17.6803989592368
21
10.9601697202459
31
0.000000000000000
  0
LINE
  5
F105DA
330
F105DB
100
AcDbEntity
8
Geo
100
AcDbLine
10
-17.6803989592368
20
10.9601697202459
30
0.000000000000000
11
-17.6803989592368
21
10.9626646343946
31
0.000000000000000
  0
LINE
  5
F105DC
330
F105DD
100
AcDbEntity
8
Geo
100
AcDbLine
10
-17.6803989592368
20
10.9626646343946
30
0.000000000000000
11
-17.6803989592368
21
11.2925494815950
31
0.000000000000000
  0
LINE
  5
F105DE
330
F105DF
100
AcDbEntity
8
Geo
100
AcDbLine
10
-17.6803989592368
20
11.2925494815950
30
0.000000000000000
11
-17.7803989592367
21
11.3662531351661
31
0.000000000000000
  0
LINE
  5
F105E0
330
F105E1
100
AcDbEntity
8
Geo
100
AcDbLine
10
-17.7803989592367
20
11.3662531351661
30
0.000000000000000
11
-17.8315808833267
21
11.3746747614918
31
0.000000000000000
  0
LINE
  5
F105E2
330
F105E3
100
AcDbEntity
8
Geo
100
AcDbLine
10
-22.7803989592367
20
4.82650248462561
30
0.000000000000000
11
-22.5803989592367
21
4.63762043168143
31
0.000000000000000
  0
LINE
  5
F105E4
330
F105E5
100
AcDbEntity
8
Geo
100
AcDbLine
10
-22.5803989592367
20
4.63762043168143
30
0.000000000000000
11
-22.4803989592367
21
4.54420278120420
31
0.000000000000000
  0
LINE
  5
F105E6
330
F105E7
100
AcDbEntity
8
Geo
100
AcDbLine
10
-22.4803989592367
20
4.54420278120420
30
0.000000000000000
11
-22.3803989592367
21
4.45151729511312
31
0.000000000000000
  0
LINE
  5
F105E8
330
F105E9
100
AcDbEntity
8
Geo
100
AcDbLine
10
-22.3803989592367
20
4.45151729511312
30
0.000000000000000
11
-22.2803989592367
21
4.35960104636701
31
0.000000000000000
  0
LINE
  5
F105EA
330
F105EB
100
AcDbEntity
8
Geo
100
AcDbLine
10
-22.2803989592367
20
4.35960104636701
30
0.000000000000000
11
-22.1803989592367
21
4.26849080024201
31
0.000000000000000
  0
LINE
  5
F105EC
330
F105ED
100
AcDbEntity
8
Geo
100
AcDbLine
10
-22.1803989592367
20
4.26849080024201
30
0.000000000000000
11
-22.0803989592367
21
4.17822299963818
31
0.000000000000000
  0
LINE
  5
F105EE
330
F105EF
100
AcDbEntity
8
Geo
100
AcDbLine
10
-22.0803989592367
20
4.17822299963818
30
0.000000000000000
11
-21.9803989592367
21
4.08883375055921
31
0.000000000000000
  0
LINE
  5
F105F0
330
F105F1
100
AcDbEntity
8
Geo
100
AcDbLine
10
-21.9803989592367
20
4.08883375055921
30
0.000000000000000
11
-21.8803989592367
21
4.00035880787107
31
0.000000000000000
  0
LINE
  5
F105F2
330
F105F3
100
AcDbEntity
8
Geo
100
AcDbLine
10
-21.8803989592367
20
4.00035880787107
30
0.000000000000000
11
-21.7803989592367
21
3.91283356159038
31
0.000000000000000
  0
LINE
  5
F105F4
330
F105F5
100
AcDbEntity
8
Geo
100
AcDbLine
10
-21.7803989592367
20
3.91283356159038
30
0.000000000000000
11
-21.6803989592367
21
3.82629302423191
31
0.000000000000000
  0
LINE
  5
F105F6
330
F105F7
100
AcDbEntity
8
Geo
100
AcDbLine
10
-21.6803989592367
20
3.82629302423191
30
0.000000000000000
11
-21.5803989592367
21
3.74077182022672
31
0.000000000000000
  0
LINE
  5
F105F8
330
F105F9
100
AcDbEntity
8
Geo
100
AcDbLine
10
-21.5803989592367
20
3.74077182022672
30
0.000000000000000
11
-21.4803989592367
21
3.65630417919684
31
0.000000000000000
  0
LINE
  5
F105FA
330
F105FB
100
AcDbEntity
8
Geo
100
AcDbLine
10
-21.4803989592367
20
3.65630417919684
30
0.000000000000000
11
-21.3803989592367
21
3.57292393603908
31
0.000000000000000
  0
LINE
  5
F105FC
330
F105FD
100
AcDbEntity
8
Geo
100
AcDbLine
10
-21.3803989592367
20
3.57292393603908
30
0.000000000000000
11
-21.2803989592367
21
3.49066454244051
31
0.000000000000000
  0
LINE
  5
F105FE
330
F105FF
100
AcDbEntity
8
Geo
100
AcDbLine
10
-21.2803989592367
20
3.49066454244051
30
0.000000000000000
11
-21.1803989592367
21
3.40955909673620
31
0.000000000000000
  0
LINE
  5
F10600
330
F10601
100
AcDbEntity
8
Geo
100
AcDbLine
10
-21.1803989592367
20
3.40955909673620
30
0.000000000000000
11
-21.0803989592367
21
3.32964040203581
31
0.000000000000000
  0
LINE
  5
F10602
330
F10603
100
AcDbEntity
8
Geo
100
AcDbLine
10
-21.0803989592367
20
3.32964040203581
30
0.000000000000000
11
-20.9803989592367
21
3.25094106638652
31
0.000000000000000
  0
LINE
  5
F10604
330
F10605
100
AcDbEntity
8
Geo
100
AcDbLine
10
-20.9803989592367
20
3.25094106638652
30
0.000000000000000
11
-20.8803989592367
21
3.17349366347685
31
0.000000000000000
  0
LINE
  5
F10606
330
F10607
100
AcDbEntity
8
Geo
100
AcDbLine
10
-20.8803989592367
20
3.17349366347685
30
0.000000000000000
11
-20.7803989592367
21
3.09733097805283
31
0.000000000000000
  0
LINE
  5
F10608
330
F10609
100
AcDbEntity
8
Geo
100
AcDbLine
10
-20.7803989592367
20
3.09733097805283
30
0.000000000000000
11
-20.6803989592367
21
3.02248636679358
31
0.000000000000000
  0
LINE
  5
F1060A
330
F1060B
100
AcDbEntity
8
Geo
100
AcDbLine
10
-20.6803989592367
20
3.02248636679358
30
0.000000000000000
11
-20.5803989592367
21
2.94899427279125
31
0.000000000000000
  0
LINE
  5
F1060C
330
F1060D
100
AcDbEntity
8
Geo
100
AcDbLine
10
-20.5803989592367
20
2.94899427279125
30
0.000000000000000
11
-20.4803989592367
21
2.87689093983035
31
0.000000000000000
  0
LINE
  5
F1060E
330
F1060F
100
AcDbEntity
8
Geo
100
AcDbLine
10
-20.4803989592367
20
2.87689093983035
30
0.000000000000000
11
-20.3803989592367
21
2.80621538110330
31
0.000000000000000
  0
LINE
  5
F10610
330
F10611
100
AcDbEntity
8
Geo
100
AcDbLine
10
-20.3803989592367
20
2.80621538110330
30
0.000000000000000
11
-20.2803989592367
21
2.73701066548347
31
0.000000000000000
  0
LINE
  5
F10612
330
F10613
100
AcDbEntity
8
Geo
100
AcDbLine
10
-20.2803989592367
20
2.73701066548347
30
0.000000000000000
11
-20.1803989592367
21
2.66932559258336
31
0.000000000000000
  0
LINE
  5
F10614
330
F10615
100
AcDbEntity
8
Geo
100
AcDbLine
10
-20.1803989592367
20
2.66932559258336
30
0.000000000000000
11
-20.0803989592367
21
2.60321683512710
31
0.000000000000000
  0
LINE
  5
F10616
330
F10617
100
AcDbEntity
8
Geo
100
AcDbLine
10
-20.0803989592367
20
2.60321683512710
30
0.000000000000000
11
-19.9803989592367
21
2.53875163334935
31
0.000000000000000
  0
LINE
  5
F10618
330
F10619
100
AcDbEntity
8
Geo
100
AcDbLine
10
-19.9803989592367
20
2.53875163334935
30
0.000000000000000
11
-19.8803989592367
21
2.47601113124291
31
0.000000000000000
  0
LINE
  5
F1061A
330
F1061B
100
AcDbEntity
8
Geo
100
AcDbLine
10
-19.8803989592367
20
2.47601113124291
30
0.000000000000000
11
-19.7803989592367
21
2.41509444934578
31
0.000000000000000
  0
LINE
  5
F1061C
330
F1061D
100
AcDbEntity
8
Geo
100
AcDbLine
10
-19.7803989592367
20
2.41509444934578
30
0.000000000000000
11
-19.6803989592367
21
2.35612359573954
31
0.000000000000000
  0
LINE
  5
F1061E
330
F1061F
100
AcDbEntity
8
Geo
100
AcDbLine
10
-19.6803989592367
20
2.35612359573954
30
0.000000000000000
11
-19.5803989592367
21
2.29924933111862
31
0.000000000000000
  0
LINE
  5
F10620
330
F10621
100
AcDbEntity
8
Geo
100
AcDbLine
10
-19.5803989592367
20
2.29924933111862
30
0.000000000000000
11
-19.4803989592367
21
2.24465813497674
31
0.000000000000000
  0
LINE
  5
F10622
330
F10623
100
AcDbEntity
8
Geo
100
AcDbLine
10
-19.4803989592367
20
2.24465813497674
30
0.000000000000000
11
-19.3803989592367
21
2.19258048571039
31
0.000000000000000
  0
LINE
  5
F10624
330
F10625
100
AcDbEntity
8
Geo
100
AcDbLine
10
-19.3803989592367
20
2.19258048571039
30
0.000000000000000
11
-19.2803989592367
21
2.14330079781860
31
0.000000000000000
  0
LINE
  5
F10626
330
F10627
100
AcDbEntity
8
Geo
100
AcDbLine
10
-19.2803989592367
20
2.14330079781860
30
0.000000000000000
11
-19.1803989592367
21
2.09716960401250
31
0.000000000000000
  0
LINE
  5
F10628
330
F10629
100
AcDbEntity
8
Geo
100
AcDbLine
10
-19.1803989592367
20
2.09716960401250
30
0.000000000000000
11
-19.0803989592367
21
2.05461900850216
31
0.000000000000000
  0
LINE
  5
F1062A
330
F1062B
100
AcDbEntity
8
Geo
100
AcDbLine
10
-19.0803989592367
20
2.05461900850216
30
0.000000000000000
11
-18.9803989592367
21
2.01618319431213
31
0.000000000000000
  0
LINE
  5
F1062C
330
F1062D
100
AcDbEntity
8
Geo
100
AcDbLine
10
-18.9803989592367
20
2.01618319431213
30
0.000000000000000
11
-18.8803989592367
21
1.98252703176168
31
0.000000000000000
  0
LINE
  5
F1062E
330
F1062F
100
AcDbEntity
8
Geo
100
AcDbLine
10
-18.8803989592367
20
1.98252703176168
30
0.000000000000000
11
-18.7803989592367
21
1.95448788931849
31
0.000000000000000
  0
LINE
  5
F10630
330
F10631
100
AcDbEntity
8
Geo
100
AcDbLine
10
-18.7803989592367
20
1.95448788931849
30
0.000000000000000
11
-18.6803989592367
21
1.93313900042571
31
0.000000000000000
  0
LINE
  5
F10632
330
F10633
100
AcDbEntity
8
Geo
100
AcDbLine
10
-18.6803989592367
20
1.93313900042571
30
0.000000000000000
11
-18.5803989592367
21
1.91988776260115
31
0.000000000000000
  0
LINE
  5
F10634
330
F10635
100
AcDbEntity
8
Geo
100
AcDbLine
10
-18.5803989592367
20
1.91988776260115
30
0.000000000000000
11
-18.4803989592367
21
1.91662990100602
31
0.000000000000000
  0
LINE
  5
F10636
330
F10637
100
AcDbEntity
8
Geo
100
AcDbLine
10
-18.4803989592367
20
1.91662990100602
30
0.000000000000000
11
-18.3803989592367
21
1.92599145400285
31
0.000000000000000
  0
LINE
  5
F10638
330
F10639
100
AcDbEntity
8
Geo
100
AcDbLine
10
-18.3803989592367
20
1.92599145400285
30
0.000000000000000
11
-18.2803989592367
21
1.95170599000351
31
0.000000000000000
  0
LINE
  5
F1063A
330
F1063B
100
AcDbEntity
8
Geo
100
AcDbLine
10
-18.2803989592367
20
1.95170599000351
30
0.000000000000000
11
-18.1803989592367
21
1.99919481679847
31
0.000000000000000
  0
LINE
  5
F1063C
330
F1063D
100
AcDbEntity
8
Geo
100
AcDbLine
10
-18.1803989592367
20
1.99919481679847
30
0.000000000000000
11
-18.0803989592367
21
2.07644182875368
31
0.000000000000000
  0
LINE
  5
F1063E
330
F1063F
100
AcDbEntity
8
Geo
100
AcDbLine
10
-18.0803989592367
20
2.07644182875368
30
0.000000000000000
11
-17.9803989592367
21
2.19527551397929
31
0.000000000000000
  0
LINE
  5
F10640
330
F10641
100
AcDbEntity
8
Geo
100
AcDbLine
10
-17.9803989592367
20
2.19527551397929
30
0.000000000000000
11
-17.8803989592367
21
2.37316912544464
31
0.000000000000000
  0
LINE
  5
F10642
330
F10643
100
AcDbEntity
8
Geo
100
AcDbLine
10
-17.8803989592367
20
2.37316912544464
30
0.000000000000000
11
-17.7803989592367
21
2.63559716983543
31
0.000000000000000
  0
LINE
  5
F10644
330
F10645
100
AcDbEntity
8
Geo
100
AcDbLine
10
-17.7803989592367
20
2.63559716983543
30
0.000000000000000
11
-17.6803989592368
21
3.01872984424713
31
0.000000000000000
  0
LINE
  5
F10646
330
F10647
100
AcDbEntity
8
Geo
100
AcDbLine
10
-17.6803989592368
20
3.01872984424713
30
0.000000000000000
11
-17.6803989592368
21
3.18893960726663
31
0.000000000000000
  0
LINE
  5
F10648
330
F10649
100
AcDbEntity
8
Geo
100
AcDbLine
10
-17.6803989592368
20
3.18893960726663
30
0.000000000000000
11
-17.6803989592368
21
3.19735559543639
31
0.000000000000000
  0
LINE
  5
F1064A
330
F1064B
100
AcDbEntity
8
Geo
100
AcDbLine
10
-17.6803989592368
20
3.19735559543639
30
0.000000000000000
11
-17.6803989592368
21
3.13414852100043
31
0.000000000000000
  0
LINE
  5
F1064C
330
F1064D
100
AcDbEntity
8
Geo
100
AcDbLine
10
-17.6803989592368
20
3.13414852100043
30
0.000000000000000
11
-17.7803989592367
21
3.62767051817930
31
0.000000000000000
  0
LINE
  5
F1064E
330
F1064F
100
AcDbEntity
8
Geo
100
AcDbLine
10
-17.7803989592367
20
3.62767051817930
30
0.000000000000000
11
-17.8803989592367
21
4.11811794545996
31
0.000000000000000
  0
LINE
  5
F10650
330
F10651
100
AcDbEntity
8
Geo
100
AcDbLine
10
-17.8803989592367
20
4.11811794545996
30
0.000000000000000
11
-17.9803989592367
21
4.59431225498786
31
0.000000000000000
  0
LINE
  5
F10652
330
F10653
100
AcDbEntity
8
Geo
100
AcDbLine
10
-17.9803989592367
20
4.59431225498786
30
0.000000000000000
11
-18.0803989592367
21
5.04881362043455
31
0.000000000000000
  0
LINE
  5
F10654
330
F10655
100
AcDbEntity
8
Geo
100
AcDbLine
10
-18.0803989592367
20
5.04881362043455
30
0.000000000000000
11
-18.1803989592367
21
5.47708043480600
31
0.000000000000000
  0
LINE
  5
F10656
330
F10657
100
AcDbEntity
8
Geo
100
AcDbLine
10
-18.1803989592367
20
5.47708043480600
30
0.000000000000000
11
-18.2803989592367
21
5.87675056307559
31
0.000000000000000
  0
LINE
  5
F10658
330
F10659
100
AcDbEntity
8
Geo
100
AcDbLine
10
-18.2803989592367
20
5.87675056307559
30
0.000000000000000
11
-18.3803989592367
21
6.24705101278488
31
0.000000000000000
  0
LINE
  5
F1065A
330
F1065B
100
AcDbEntity
8
Geo
100
AcDbLine
10
-18.3803989592367
20
6.24705101278488
30
0.000000000000000
11
-18.4803989592367
21
6.58832816701753
31
0.000000000000000
  0
LINE
  5
F1065C
330
F1065D
100
AcDbEntity
8
Geo
100
AcDbLine
10
-18.4803989592367
20
6.58832816701753
30
0.000000000000000
11
-18.5803989592367
21
6.90168375307831
31
0.000000000000000
  0
LINE
  5
F1065E
330
F1065F
100
AcDbEntity
8
Geo
100
AcDbLine
10
-18.5803989592367
20
6.90168375307831
30
0.000000000000000
11
-18.6803989592367
21
7.18869939434797
31
0.000000000000000
  0
LINE
  5
F10660
330
F10661
100
AcDbEntity
8
Geo
100
AcDbLine
10
-18.6803989592367
20
7.18869939434797
30
0.000000000000000
11
-18.7803989592367
21
7.45123291752325
31
0.000000000000000
  0
LINE
  5
F10662
330
F10663
100
AcDbEntity
8
Geo
100
AcDbLine
10
-18.7803989592367
20
7.45123291752325
30
0.000000000000000
11
-18.8803989592367
21
7.69127126206461
31
0.000000000000000
  0
LINE
  5
F10664
330
F10665
100
AcDbEntity
8
Geo
100
AcDbLine
10
-18.8803989592367
20
7.69127126206461
30
0.000000000000000
11
-18.9803989592367
21
7.91082705931214
31
0.000000000000000
  0
LINE
  5
F10666
330
F10667
100
AcDbEntity
8
Geo
100
AcDbLine
10
-18.9803989592367
20
7.91082705931214
30
0.000000000000000
11
-19.0803989592367
21
8.11186824946146
31
0.000000000000000
  0
LINE
  5
F10668
330
F10669
100
AcDbEntity
8
Geo
100
AcDbLine
10
-19.0803989592367
20
8.11186824946146
30
0.000000000000000
11
-19.1803989592367
21
8.29627223886569
31
0.000000000000000
  0
LINE
  5
F1066A
330
F1066B
100
AcDbEntity
8
Geo
100
AcDbLine
10
-19.1803989592367
20
8.29627223886569
30
0.000000000000000
11
-19.2803989592367
21
8.46579795726141
31
0.000000000000000
  0
LINE
  5
F1066C
330
F1066D
100
AcDbEntity
8
Geo
100
AcDbLine
10
-19.2803989592367
20
8.46579795726141
30
0.000000000000000
11
-19.3803989592367
21
8.62207072342024
31
0.000000000000000
  0
LINE
  5
F1066E
330
F1066F
100
AcDbEntity
8
Geo
100
AcDbLine
10
-19.3803989592367
20
8.62207072342024
30
0.000000000000000
11
-19.4803989592367
21
8.76657608058193
31
0.000000000000000
  0
LINE
  5
F10670
330
F10671
100
AcDbEntity
8
Geo
100
AcDbLine
10
-19.4803989592367
20
8.76657608058193
30
0.000000000000000
11
-19.5803989592367
21
8.90065975273255
31
0.000000000000000
  0
LINE
  5
F10672
330
F10673
100
AcDbEntity
8
Geo
100
AcDbLine
10
-19.5803989592367
20
8.90065975273255
30
0.000000000000000
11
-19.6803989592367
21
9.02553163969187
31
0.000000000000000
  0
LINE
  5
F10674
330
F10675
100
AcDbEntity
8
Geo
100
AcDbLine
10
-19.6803989592367
20
9.02553163969187
30
0.000000000000000
11
-19.7803989592367
21
9.14227235346370
31
0.000000000000000
  0
LINE
  5
F10676
330
F10677
100
AcDbEntity
8
Geo
100
AcDbLine
10
-19.7803989592367
20
9.14227235346370
30
0.000000000000000
11
-19.8803989592367
21
9.25184123715554
31
0.000000000000000
  0
LINE
  5
F10678
330
F10679
100
AcDbEntity
8
Geo
100
AcDbLine
10
-19.8803989592367
20
9.25184123715554
30
0.000000000000000
11
-19.9803989592367
21
9.35508513262178
31
0.000000000000000
  0
LINE
  5
F1067A
330
F1067B
100
AcDbEntity
8
Geo
100
AcDbLine
10
-19.9803989592367
20
9.35508513262178
30
0.000000000000000
11
-20.0803989592367
21
9.45274740004646
31
0.000000000000000
  0
LINE
  5
F1067C
330
F1067D
100
AcDbEntity
8
Geo
100
AcDbLine
10
-20.0803989592367
20
9.45274740004646
30
0.000000000000000
11
-20.1803989592367
21
9.54547686310474
31
0.000000000000000
  0
LINE
  5
F1067E
330
F1067F
100
AcDbEntity
8
Geo
100
AcDbLine
10
-20.1803989592367
20
9.54547686310474
30
0.000000000000000
11
-20.2803989592367
21
9.63383647384789
31
0.000000000000000
  0
LINE
  5
F10680
330
F10681
100
AcDbEntity
8
Geo
100
AcDbLine
10
-20.2803989592367
20
9.63383647384789
30
0.000000000000000
11
-20.3803989592367
21
9.71831157504265
31
0.000000000000000
  0
LINE
  5
F10682
330
F10683
100
AcDbEntity
8
Geo
100
AcDbLine
10
-20.3803989592367
20
9.71831157504265
30
0.000000000000000
11
-20.4803989592367
21
9.79931769433717
31
0.000000000000000
  0
LINE
  5
F10684
330
F10685
100
AcDbEntity
8
Geo
100
AcDbLine
10
-20.4803989592367
20
9.79931769433717
30
0.000000000000000
11
-20.5803989592367
21
9.87720784188009
31
0.000000000000000
  0
LINE
  5
F10686
330
F10687
100
AcDbEntity
8
Geo
100
AcDbLine
10
-20.5803989592367
20
9.87720784188009
30
0.000000000000000
11
-20.6803989592367
21
9.95227930655563
31
0.000000000000000
  0
LINE
  5
F10688
330
F10689
100
AcDbEntity
8
Geo
100
AcDbLine
10
-20.6803989592367
20
9.95227930655563
30
0.000000000000000
11
-20.7803989592367
21
10.0247799600181
31
0.000000000000000
  0
LINE
  5
F1068A
330
F1068B
100
AcDbEntity
8
Geo
100
AcDbLine
10
-20.7803989592367
20
10.0247799600181
30
0.000000000000000
11
-20.8803989592367
21
10.0949140853004
31
0.000000000000000
  0
LINE
  5
F1068C
330
F1068D
100
AcDbEntity
8
Geo
100
AcDbLine
10
-20.8803989592367
20
10.0949140853004
30
0.000000000000000
11
-20.9803989592367
21
10.1628477501687
31
0.000000000000000
  0
LINE
  5
F1068E
330
F1068F
100
AcDbEntity
8
Geo
100
AcDbLine
10
-20.9803989592367
20
10.1628477501687
30
0.000000000000000
11
-21.0803989592367
21
10.2287137461990
31
0.000000000000000
  0
LINE
  5
F10690
330
F10691
100
AcDbEntity
8
Geo
100
AcDbLine
10
-21.0803989592367
20
10.2287137461990
30
0.000000000000000
11
-21.1803989592367
21
10.2926161138826
31
0.000000000000000
  0
LINE
  5
F10692
330
F10693
100
AcDbEntity
8
Geo
100
AcDbLine
10
-21.1803989592367
20
10.2926161138826
30
0.000000000000000
11
-21.2803989592367
21
10.3546342727079
31
0.000000000000000
  0
LINE
  5
F10694
330
F10695
100
AcDbEntity
8
Geo
100
AcDbLine
10
-21.2803989592367
20
10.3546342727079
30
0.000000000000000
11
-21.3803989592367
21
10.4148267736099
31
0.000000000000000
  0
LINE
  5
F10696
330
F10697
100
AcDbEntity
8
Geo
100
AcDbLine
10
-21.3803989592367
20
10.4148267736099
30
0.000000000000000
11
-21.4803989592367
21
10.4732346897756
31
0.000000000000000
  0
LINE
  5
F10698
330
F10699
100
AcDbEntity
8
Geo
100
AcDbLine
10
-21.4803989592367
20
10.4732346897756
30
0.000000000000000
11
-21.5803989592367
21
10.5298846607101
31
0.000000000000000
  0
LINE
  5
F1069A
330
F1069B
100
AcDbEntity
8
Geo
100
AcDbLine
10
-21.5803989592367
20
10.5298846607101
30
0.000000000000000
11
-21.6803989592367
21
10.5847916038087
31
0.000000000000000
  0
LINE
  5
F1069C
330
F1069D
100
AcDbEntity
8
Geo
100
AcDbLine
10
-21.6803989592367
20
10.5847916038087
30
0.000000000000000
11
-21.7803989592367
21
10.6379611074644
31
0.000000000000000
  0
LINE
  5
F1069E
330
F1069F
100
AcDbEntity
8
Geo
100
AcDbLine
10
-21.7803989592367
20
10.6379611074644
30
0.000000000000000
11
-21.8803989592367
21
10.6893915199468
31
0.000000000000000
  0
LINE
  5
F106A0
330
F106A1
100
AcDbEntity
8
Geo
100
AcDbLine
10
-21.8803989592367
20
10.6893915199468
30
0.000000000000000
11
-21.9803989592367
21
10.7390757488691
31
0.000000000000000
  0
LINE
  5
F106A2
330
F106A3
100
AcDbEntity
8
Geo
100
AcDbLine
10
-21.9803989592367
20
10.7390757488691
30
0.000000000000000
11
-22.0803989592367
21
10.7870027869421
31
0.000000000000000
  0
LINE
  5
F106A4
330
F106A5
100
AcDbEntity
8
Geo
100
AcDbLine
10
-22.0803989592367
20
10.7870027869421
30
0.000000000000000
11
-22.1803989592367
21
10.8331589808324
31
0.000000000000000
  0
LINE
  5
F106A6
330
F106A7
100
AcDbEntity
8
Geo
100
AcDbLine
10
-22.1803989592367
20
10.8331589808324
30
0.000000000000000
11
-22.2803989592367
21
10.8775290612128
31
0.000000000000000
  0
LINE
  5
F106A8
330
F106A9
100
AcDbEntity
8
Geo
100
AcDbLine
10
-22.2803989592367
20
10.8775290612128
30
0.000000000000000
11
-22.3803989592367
21
10.9200969534576
31
0.000000000000000
  0
LINE
  5
F106AA
330
F106AB
100
AcDbEntity
8
Geo
100
AcDbLine
10
-22.3803989592367
20
10.9200969534576
30
0.000000000000000
11
-22.4803989592367
21
10.9608463898176
31
0.000000000000000
  0
LINE
  5
F106AC
330
F106AD
100
AcDbEntity
8
Geo
100
AcDbLine
10
-22.4803989592367
20
10.9608463898176
30
0.000000000000000
11
-22.5803989592367
21
10.9997613452782
31
0.000000000000000
  0
LINE
  5
F106AE
330
F106AF
100
AcDbEntity
8
Geo
100
AcDbLine
10
-22.5803989592367
20
10.9997613452782
30
0.000000000000000
11
-22.7803989592367
21
11.0720264973487
31
0.000000000000000
  0
LINE
  5
F106B0
330
F106B1
100
AcDbEntity
8
Geo
100
AcDbLine
10
-42.6803989592368
20
3.53041255138157
30
0.000000000000000
11
-42.5803989592368
21
3.41205980574582
31
0.000000000000000
  0
LINE
  5
F106B2
330
F106B3
100
AcDbEntity
8
Geo
100
AcDbLine
10
-42.5803989592368
20
3.41205980574582
30
0.000000000000000
11
-42.5803989592368
21
3.41205980574582
31
0.000000000000000
  0
LINE
  5
F106B4
330
F106B5
100
AcDbEntity
8
Geo
100
AcDbLine
10
-42.5803989592368
20
3.41205980574582
30
0.000000000000000
11
-42.4803989592368
21
3.33365207804067
31
0.000000000000000
  0
LINE
  5
F106B6
330
F106B7
100
AcDbEntity
8
Geo
100
AcDbLine
10
-42.4803989592368
20
3.33365207804067
30
0.000000000000000
11
-42.3803989592368
21
3.25646071886248
31
0.000000000000000
  0
LINE
  5
F106B8
330
F106B9
100
AcDbEntity
8
Geo
100
AcDbLine
10
-42.3803989592368
20
3.25646071886248
30
0.000000000000000
11
-42.2803989592368
21
3.18051660372570
31
0.000000000000000
  0
LINE
  5
F106BA
330
F106BB
100
AcDbEntity
8
Geo
100
AcDbLine
10
-42.2803989592368
20
3.18051660372570
30
0.000000000000000
11
-42.1803989592368
21
3.10585010926383
31
0.000000000000000
  0
LINE
  5
F106BC
330
F106BD
100
AcDbEntity
8
Geo
100
AcDbLine
10
-42.1803989592368
20
3.10585010926383
30
0.000000000000000
11
-42.0803989592368
21
3.03249110107909
31
0.000000000000000
  0
LINE
  5
F106BE
330
F106BF
100
AcDbEntity
8
Geo
100
AcDbLine
10
-42.0803989592368
20
3.03249110107909
30
0.000000000000000
11
-41.9803989592368
21
2.96046892179667
31
0.000000000000000
  0
LINE
  5
F106C0
330
F106C1
100
AcDbEntity
8
Geo
100
AcDbLine
10
-41.9803989592368
20
2.96046892179667
30
0.000000000000000
11
-41.8803989592368
21
2.88981237932799
31
0.000000000000000
  0
LINE
  5
F106C2
330
F106C3
100
AcDbEntity
8
Geo
100
AcDbLine
10
-41.8803989592368
20
2.88981237932799
30
0.000000000000000
11
-41.7803989592368
21
2.82054973534796
31
0.000000000000000
  0
LINE
  5
F106C4
330
F106C5
100
AcDbEntity
8
Geo
100
AcDbLine
10
-41.7803989592368
20
2.82054973534796
30
0.000000000000000
11
-41.6803989592368
21
2.75270869399069
31
0.000000000000000
  0
LINE
  5
F106C6
330
F106C7
100
AcDbEntity
8
Geo
100
AcDbLine
10
-41.6803989592368
20
2.75270869399069
30
0.000000000000000
11
-41.5803989592368
21
2.68631639076818
31
0.000000000000000
  0
LINE
  5
F106C8
330
F106C9
100
AcDbEntity
8
Geo
100
AcDbLine
10
-41.5803989592368
20
2.68631639076818
30
0.000000000000000
11
-41.4803989592368
21
2.62139938171651
31
0.000000000000000
  0
LINE
  5
F106CA
330
F106CB
100
AcDbEntity
8
Geo
100
AcDbLine
10
-41.4803989592368
20
2.62139938171651
30
0.000000000000000
11
-41.3803989592368
21
2.55798363277373
31
0.000000000000000
  0
LINE
  5
F106CC
330
F106CD
100
AcDbEntity
8
Geo
100
AcDbLine
10
-41.3803989592368
20
2.55798363277373
30
0.000000000000000
11
-41.2803989592368
21
2.49609450939392
31
0.000000000000000
  0
LINE
  5
F106CE
330
F106CF
100
AcDbEntity
8
Geo
100
AcDbLine
10
-41.2803989592368
20
2.49609450939392
30
0.000000000000000
11
-41.1803989592368
21
2.43575676640122
31
0.000000000000000
  0
LINE
  5
F106D0
330
F106D1
100
AcDbEntity
8
Geo
100
AcDbLine
10
-41.1803989592368
20
2.43575676640122
30
0.000000000000000
11
-41.0803989592368
21
2.37699453808836
31
0.000000000000000
  0
LINE
  5
F106D2
330
F106D3
100
AcDbEntity
8
Geo
100
AcDbLine
10
-41.0803989592368
20
2.37699453808836
30
0.000000000000000
11
-40.9803989592368
21
2.31983132856316
31
0.000000000000000
  0
LINE
  5
F106D4
330
F106D5
100
AcDbEntity
8
Geo
100
AcDbLine
10
-40.9803989592368
20
2.31983132856316
30
0.000000000000000
11
-40.8803989592368
21
2.26429000234728
31
0.000000000000000
  0
LINE
  5
F106D6
330
F106D7
100
AcDbEntity
8
Geo
100
AcDbLine
10
-40.8803989592368
20
2.26429000234728
30
0.000000000000000
11
-40.7803989592368
21
2.21039277523066
31
0.000000000000000
  0
LINE
  5
F106D8
330
F106D9
100
AcDbEntity
8
Geo
100
AcDbLine
10
-40.7803989592368
20
2.21039277523066
30
0.000000000000000
11
-40.6803989592368
21
2.15816120538552
31
0.000000000000000
  0
LINE
  5
F106DA
330
F106DB
100
AcDbEntity
8
Geo
100
AcDbLine
10
-40.6803989592368
20
2.15816120538552
30
0.000000000000000
11
-40.5803989592368
21
2.10761618474339
31
0.000000000000000
  0
LINE
  5
F106DC
330
F106DD
100
AcDbEntity
8
Geo
100
AcDbLine
10
-40.5803989592368
20
2.10761618474339
30
0.000000000000000
11
-40.4803989592368
21
2.05877793063861
31
0.000000000000000
  0
LINE
  5
F106DE
330
F106DF
100
AcDbEntity
8
Geo
100
AcDbLine
10
-40.4803989592368
20
2.05877793063861
30
0.000000000000000
11
-40.3803989592368
21
2.01166597772164
31
0.000000000000000
  0
LINE
  5
F106E0
330
F106E1
100
AcDbEntity
8
Geo
100
AcDbLine
10
-40.3803989592368
20
2.01166597772164
30
0.000000000000000
11
-40.2803989592368
21
1.96629917014551
31
0.000000000000000
  0
LINE
  5
F106E2
330
F106E3
100
AcDbEntity
8
Geo
100
AcDbLine
10
-40.2803989592368
20
1.96629917014551
30
0.000000000000000
11
-40.1803989592368
21
1.92269565402836
31
0.000000000000000
  0
LINE
  5
F106E4
330
F106E5
100
AcDbEntity
8
Geo
100
AcDbLine
10
-40.1803989592368
20
1.92269565402836
30
0.000000000000000
11
-40.0803989592368
21
1.88087287019526
31
0.000000000000000
  0
LINE
  5
F106E6
330
F106E7
100
AcDbEntity
8
Geo
100
AcDbLine
10
-40.0803989592368
20
1.88087287019526
30
0.000000000000000
11
-39.9803989592368
21
1.84084754720212
31
0.000000000000000
  0
LINE
  5
F106E8
330
F106E9
100
AcDbEntity
8
Geo
100
AcDbLine
10
-39.9803989592368
20
1.84084754720212
30
0.000000000000000
11
-39.8803989592368
21
1.80263569464448
31
0.000000000000000
  0
LINE
  5
F106EA
330
F106EB
100
AcDbEntity
8
Geo
100
AcDbLine
10
-39.8803989592368
20
1.80263569464448
30
0.000000000000000
11
-39.7803989592368
21
1.76625259675386
31
0.000000000000000
  0
LINE
  5
F106EC
330
F106ED
100
AcDbEntity
8
Geo
100
AcDbLine
10
-39.7803989592368
20
1.76625259675386
30
0.000000000000000
11
-39.6803989592368
21
1.73171280628434
31
0.000000000000000
  0
LINE
  5
F106EE
330
F106EF
100
AcDbEntity
8
Geo
100
AcDbLine
10
-39.6803989592368
20
1.73171280628434
30
0.000000000000000
11
-39.5803989592368
21
1.69903013869155
31
0.000000000000000
  0
LINE
  5
F106F0
330
F106F1
100
AcDbEntity
8
Geo
100
AcDbLine
10
-39.5803989592368
20
1.69903013869155
30
0.000000000000000
11
-39.4803989592368
21
1.66821766660680
31
0.000000000000000
  0
LINE
  5
F106F2
330
F106F3
100
AcDbEntity
8
Geo
100
AcDbLine
10
-39.4803989592368
20
1.66821766660680
30
0.000000000000000
11
-39.3803989592368
21
1.63928771460807
31
0.000000000000000
  0
LINE
  5
F106F4
330
F106F5
100
AcDbEntity
8
Geo
100
AcDbLine
10
-39.3803989592368
20
1.63928771460807
30
0.000000000000000
11
-39.2803989592368
21
1.61225185429044
31
0.000000000000000
  0
LINE
  5
F106F6
330
F106F7
100
AcDbEntity
8
Geo
100
AcDbLine
10
-39.2803989592368
20
1.61225185429044
30
0.000000000000000
11
-39.1803989592368
21
1.58712089963757
31
0.000000000000000
  0
LINE
  5
F106F8
330
F106F9
100
AcDbEntity
8
Geo
100
AcDbLine
10
-39.1803989592368
20
1.58712089963757
30
0.000000000000000
11
-39.0803989592368
21
1.56390490269624
31
0.000000000000000
  0
LINE
  5
F106FA
330
F106FB
100
AcDbEntity
8
Geo
100
AcDbLine
10
-39.0803989592368
20
1.56390490269624
30
0.000000000000000
11
-38.9803989592368
21
1.54261314955569
31
0.000000000000000
  0
LINE
  5
F106FC
330
F106FD
100
AcDbEntity
8
Geo
100
AcDbLine
10
-38.9803989592368
20
1.54261314955569
30
0.000000000000000
11
-38.8803989592368
21
1.52325415663328
31
0.000000000000000
  0
LINE
  5
F106FE
330
F106FF
100
AcDbEntity
8
Geo
100
AcDbLine
10
-38.8803989592368
20
1.52325415663328
30
0.000000000000000
11
-38.7803989592367
21
1.50583566726807
31
0.000000000000000
  0
LINE
  5
F10700
330
F10701
100
AcDbEntity
8
Geo
100
AcDbLine
10
-38.7803989592367
20
1.50583566726807
30
0.000000000000000
11
-38.6803989592368
21
1.49036464862355
31
0.000000000000000
  0
LINE
  5
F10702
330
F10703
100
AcDbEntity
8
Geo
100
AcDbLine
10
-38.6803989592368
20
1.49036464862355
30
0.000000000000000
11
-38.5803989592368
21
1.47684728890093
31
0.000000000000000
  0
LINE
  5
F10704
330
F10705
100
AcDbEntity
8
Geo
100
AcDbLine
10
-38.5803989592368
20
1.47684728890093
30
0.000000000000000
11
-38.4803989592368
21
1.46528899486384
31
0.000000000000000
  0
LINE
  5
F10706
330
F10707
100
AcDbEntity
8
Geo
100
AcDbLine
10
-38.4803989592368
20
1.46528899486384
30
0.000000000000000
11
-38.3803989592368
21
1.45569438967579
31
0.000000000000000
  0
LINE
  5
F10708
330
F10709
100
AcDbEntity
8
Geo
100
AcDbLine
10
-38.3803989592368
20
1.45569438967579
30
0.000000000000000
11
-38.2803989592368
21
1.44806731105095
31
0.000000000000000
  0
LINE
  5
F1070A
330
F1070B
100
AcDbEntity
8
Geo
100
AcDbLine
10
-38.2803989592368
20
1.44806731105095
30
0.000000000000000
11
-38.1803989592368
21
1.44241080971906
31
0.000000000000000
  0
LINE
  5
F1070C
330
F1070D
100
AcDbEntity
8
Geo
100
AcDbLine
10
-38.1803989592368
20
1.44241080971906
30
0.000000000000000
11
-38.0803989592368
21
1.43872714820523
31
0.000000000000000
  0
LINE
  5
F1070E
330
F1070F
100
AcDbEntity
8
Geo
100
AcDbLine
10
-38.0803989592368
20
1.43872714820523
30
0.000000000000000
11
-37.9803989592368
21
1.43701779992496
31
0.000000000000000
  0
LINE
  5
F10710
330
F10711
100
AcDbEntity
8
Geo
100
AcDbLine
10
-37.9803989592368
20
1.43701779992496
30
0.000000000000000
11
-37.9438485623522
21
1.37467476149176
31
0.000000000000000
  0
LINE
  5
F10712
330
F10713
100
AcDbEntity
8
Geo
100
AcDbLine
10
-32.7078618208914
20
11.3746747614918
30
0.000000000000000
11
-32.6803989592368
21
11.3123891713848
31
0.000000000000000
  0
LINE
  5
F10714
330
F10715
100
AcDbEntity
8
Geo
100
AcDbLine
10
-32.6803989592368
20
11.3123891713848
30
0.000000000000000
11
-32.5803989592368
21
11.3108592888785
31
0.000000000000000
  0
LINE
  5
F10716
330
F10717
100
AcDbEntity
8
Geo
100
AcDbLine
10
-32.5803989592368
20
11.3108592888785
30
0.000000000000000
11
-32.4803989592368
21
11.3073549983762
31
0.000000000000000
  0
LINE
  5
F10718
330
F10719
100
AcDbEntity
8
Geo
100
AcDbLine
10
-32.4803989592368
20
11.3073549983762
30
0.000000000000000
11
-32.3803989592368
21
11.3018777015473
31
0.000000000000000
  0
LINE
  5
F1071A
330
F1071B
100
AcDbEntity
8
Geo
100
AcDbLine
10
-32.3803989592368
20
11.3018777015473
30
0.000000000000000
11
-32.2803989592368
21
11.2944295892376
31
0.000000000000000
  0
LINE
  5
F1071C
330
F1071D
100
AcDbEntity
8
Geo
100
AcDbLine
10
-32.2803989592368
20
11.2944295892376
30
0.000000000000000
11
-32.1803989592368
21
11.2850136405926
31
0.000000000000000
  0
LINE
  5
F1071E
330
F1071F
100
AcDbEntity
8
Geo
100
AcDbLine
10
-32.1803989592368
20
11.2850136405926
30
0.000000000000000
11
-32.0803989592368
21
11.2736336218662
31
0.000000000000000
  0
LINE
  5
F10720
330
F10721
100
AcDbEntity
8
Geo
100
AcDbLine
10
-32.0803989592368
20
11.2736336218662
30
0.000000000000000
11
-31.9803989592368
21
11.2602940849144
31
0.000000000000000
  0
LINE
  5
F10722
330
F10723
100
AcDbEntity
8
Geo
100
AcDbLine
10
-31.9803989592368
20
11.2602940849144
30
0.000000000000000
11
-31.8803989592368
21
11.2450003653738
31
0.000000000000000
  0
LINE
  5
F10724
330
F10725
100
AcDbEntity
8
Geo
100
AcDbLine
10
-31.8803989592368
20
11.2450003653738
30
0.000000000000000
11
-31.7803989592368
21
11.2277585805285
31
0.000000000000000
  0
LINE
  5
F10726
330
F10727
100
AcDbEntity
8
Geo
100
AcDbLine
10
-31.7803989592368
20
11.2277585805285
30
0.000000000000000
11
-31.6803989592368
21
11.2085756268626
31
0.000000000000000
  0
LINE
  5
F10728
330
F10729
100
AcDbEntity
8
Geo
100
AcDbLine
10
-31.6803989592368
20
11.2085756268626
30
0.000000000000000
11
-31.5803989592368
21
11.1874591773016
31
0.000000000000000
  0
LINE
  5
F1072A
330
F1072B
100
AcDbEntity
8
Geo
100
AcDbLine
10
-31.5803989592368
20
11.1874591773016
30
0.000000000000000
11
-31.4803989592368
21
11.1644176781439
31
0.000000000000000
  0
LINE
  5
F1072C
330
F1072D
100
AcDbEntity
8
Geo
100
AcDbLine
10
-31.4803989592368
20
11.1644176781439
30
0.000000000000000
11
-31.3803989592368
21
11.1394603456819
31
0.000000000000000
  0
LINE
  5
F1072E
330
F1072F
100
AcDbEntity
8
Geo
100
AcDbLine
10
-31.3803989592368
20
11.1394603456819
30
0.000000000000000
11
-31.2803989592368
21
11.1125971625159
31
0.000000000000000
  0
LINE
  5
F10730
330
F10731
100
AcDbEntity
8
Geo
100
AcDbLine
10
-31.2803989592368
20
11.1125971625159
30
0.000000000000000
11
-31.1803989592368
21
11.0838388735609
31
0.000000000000000
  0
LINE
  5
F10732
330
F10733
100
AcDbEntity
8
Geo
100
AcDbLine
10
-31.1803989592368
20
11.0838388735609
30
0.000000000000000
11
-31.0803989592368
21
11.0531969817492
31
0.000000000000000
  0
LINE
  5
F10734
330
F10735
100
AcDbEntity
8
Geo
100
AcDbLine
10
-31.0803989592368
20
11.0531969817492
30
0.000000000000000
11
-30.9803989592368
21
11.0206837434287
31
0.000000000000000
  0
LINE
  5
F10736
330
F10737
100
AcDbEntity
8
Geo
100
AcDbLine
10
-30.9803989592368
20
11.0206837434287
30
0.000000000000000
11
-30.8803989592368
21
10.9863121634615
31
0.000000000000000
  0
LINE
  5
F10738
330
F10739
100
AcDbEntity
8
Geo
100
AcDbLine
10
-30.8803989592368
20
10.9863121634615
30
0.000000000000000
11
-30.7803989592368
21
10.9500959900212
31
0.000000000000000
  0
LINE
  5
F1073A
330
F1073B
100
AcDbEntity
8
Geo
100
AcDbLine
10
-30.7803989592368
20
10.9500959900212
30
0.000000000000000
11
-30.6803989592368
21
10.9120497090942
31
0.000000000000000
  0
LINE
  5
F1073C
330
F1073D
100
AcDbEntity
8
Geo
100
AcDbLine
10
-30.6803989592368
20
10.9120497090942
30
0.000000000000000
11
-30.5803989592368
21
10.8721885386857
31
0.000000000000000
  0
LINE
  5
F1073E
330
F1073F
100
AcDbEntity
8
Geo
100
AcDbLine
10
-30.5803989592368
20
10.8721885386857
30
0.000000000000000
11
-30.4803989592368
21
10.8305284227325
31
0.000000000000000
  0
LINE
  5
F10740
330
F10741
100
AcDbEntity
8
Geo
100
AcDbLine
10
-30.4803989592368
20
10.8305284227325
30
0.000000000000000
11
-30.3803989592368
21
10.7870860247253
31
0.000000000000000
  0
LINE
  5
F10742
330
F10743
100
AcDbEntity
8
Geo
100
AcDbLine
10
-30.3803989592368
20
10.7870860247253
30
0.000000000000000
11
-30.2803989592368
21
10.7418787210441
31
0.000000000000000
  0
LINE
  5
F10744
330
F10745
100
AcDbEntity
8
Geo
100
AcDbLine
10
-30.2803989592368
20
10.7418787210441
30
0.000000000000000
11
-30.1803989592368
21
10.6949245940078
31
0.000000000000000
  0
LINE
  5
F10746
330
F10747
100
AcDbEntity
8
Geo
100
AcDbLine
10
-30.1803989592368
20
10.6949245940078
30
0.000000000000000
11
-30.0803989592368
21
10.6462424246410
31
0.000000000000000
  0
LINE
  5
F10748
330
F10749
100
AcDbEntity
8
Geo
100
AcDbLine
10
-30.0803989592368
20
10.6462424246410
30
0.000000000000000
11
-29.9803989592368
21
10.5958516851625
31
0.000000000000000
  0
LINE
  5
F1074A
330
F1074B
100
AcDbEntity
8
Geo
100
AcDbLine
10
-29.9803989592368
20
10.5958516851625
30
0.000000000000000
11
-29.8803989592368
21
10.5437725311960
31
0.000000000000000
  0
LINE
  5
F1074C
330
F1074D
100
AcDbEntity
8
Geo
100
AcDbLine
10
-29.8803989592368
20
10.5437725311960
30
0.000000000000000
11
-29.7803989592368
21
10.4900257937090
31
0.000000000000000
  0
LINE
  5
F1074E
330
F1074F
100
AcDbEntity
8
Geo
100
AcDbLine
10
-29.7803989592368
20
10.4900257937090
30
0.000000000000000
11
-29.6803989592368
21
10.4346329706796
31
0.000000000000000
  0
LINE
  5
F10750
330
F10751
100
AcDbEntity
8
Geo
100
AcDbLine
10
-29.6803989592368
20
10.4346329706796
30
0.000000000000000
11
-29.5803989592368
21
10.3776162184986
31
0.000000000000000
  0
LINE
  5
F10752
330
F10753
100
AcDbEntity
8
Geo
100
AcDbLine
10
-29.5803989592368
20
10.3776162184986
30
0.000000000000000
11
-29.4803989592368
21
10.3189983431067
31
0.000000000000000
  0
LINE
  5
F10754
330
F10755
100
AcDbEntity
8
Geo
100
AcDbLine
10
-29.4803989592368
20
10.3189983431067
30
0.000000000000000
11
-29.3803989592368
21
10.2588027908724
31
0.000000000000000
  0
LINE
  5
F10756
330
F10757
100
AcDbEntity
8
Geo
100
AcDbLine
10
-29.3803989592368
20
10.2588027908724
30
0.000000000000000
11
-29.2803989592368
21
10.1970536392140
31
0.000000000000000
  0
LINE
  5
F10758
330
F10759
100
AcDbEntity
8
Geo
100
AcDbLine
10
-29.2803989592368
20
10.1970536392140
30
0.000000000000000
11
-29.1803989592368
21
10.1337755869690
31
0.000000000000000
  0
LINE
  5
F1075A
330
F1075B
100
AcDbEntity
8
Geo
100
AcDbLine
10
-29.1803989592368
20
10.1337755869690
30
0.000000000000000
11
-29.0803989592368
21
10.0689939445144
31
0.000000000000000
  0
LINE
  5
F1075C
330
F1075D
100
AcDbEntity
8
Geo
100
AcDbLine
10
-29.0803989592368
20
10.0689939445144
30
0.000000000000000
11
-28.9803989592368
21
10.0027346236435
31
0.000000000000000
  0
LINE
  5
F1075E
330
F1075F
100
AcDbEntity
8
Geo
100
AcDbLine
10
-28.9803989592368
20
10.0027346236435
30
0.000000000000000
11
-28.8803989592368
21
9.93502412720125
31
0.000000000000000
  0
LINE
  5
F10760
330
F10761
100
AcDbEntity
8
Geo
100
AcDbLine
10
-28.8803989592368
20
9.93502412720125
30
0.000000000000000
11
-28.7803989592368
21
9.86588953848340
31
0.000000000000000
  0
LINE
  5
F10762
330
F10763
100
AcDbEntity
8
Geo
100
AcDbLine
10
-28.7803989592368
20
9.86588953848340
30
0.000000000000000
11
-28.6803989592368
21
9.79535851040368
31
0.000000000000000
  0
LINE
  5
F10764
330
F10765
100
AcDbEntity
8
Geo
100
AcDbLine
10
-28.6803989592368
20
9.79535851040368
30
0.000000000000000
11
-28.5803989592368
21
9.72345925443290
31
0.000000000000000
  0
LINE
  5
F10766
330
F10767
100
AcDbEntity
8
Geo
100
AcDbLine
10
-28.5803989592368
20
9.72345925443290
30
0.000000000000000
11
-28.4803989592368
21
9.65022052931480
31
0.000000000000000
  0
LINE
  5
F10768
330
F10769
100
AcDbEntity
8
Geo
100
AcDbLine
10
-28.4803989592368
20
9.65022052931480
30
0.000000000000000
11
-28.3803989592368
21
9.57567162956294
31
0.000000000000000
  0
LINE
  5
F1076A
330
F1076B
100
AcDbEntity
8
Geo
100
AcDbLine
10
-28.3803989592368
20
9.57567162956294
30
0.000000000000000
11
-28.2803989592368
21
9.49984237374324
31
0.000000000000000
  0
LINE
  5
F1076C
330
F1076D
100
AcDbEntity
8
Geo
100
AcDbLine
10
-28.2803989592368
20
9.49984237374324
30
0.000000000000000
11
-28.1803989592368
21
9.42276309254698
31
0.000000000000000
  0
LINE
  5
F1076E
330
F1076F
100
AcDbEntity
8
Geo
100
AcDbLine
10
-28.1803989592368
20
9.42276309254698
30
0.000000000000000
11
-28.0803989592368
21
9.34446461665894
31
0.000000000000000
  0
LINE
  5
F10770
330
F10771
100
AcDbEntity
8
Geo
100
AcDbLine
10
-28.0803989592368
20
9.34446461665894
30
0.000000000000000
11
-27.9803989592368
21
9.26497826442550
31
0.000000000000000
  0
LINE
  5
F10772
330
F10773
100
AcDbEntity
8
Geo
100
AcDbLine
10
-27.9803989592368
20
9.26497826442550
30
0.000000000000000
11
-27.8803989592368
21
9.18433582932775
31
0.000000000000000
  0
LINE
  5
F10774
330
F10775
100
AcDbEntity
8
Geo
100
AcDbLine
10
-27.8803989592368
20
9.18433582932775
30
0.000000000000000
11
-27.7803989592368
21
9.10256956726452
31
0.000000000000000
  0
LINE
  5
F10776
330
F10777
100
AcDbEntity
8
Geo
100
AcDbLine
10
-27.7803989592368
20
9.10256956726452
30
0.000000000000000
11
-27.6803989592368
21
9.01971218365042
31
0.000000000000000
  0
LINE
  5
F10778
330
F10779
100
AcDbEntity
8
Geo
100
AcDbLine
10
-27.6803989592368
20
9.01971218365042
30
0.000000000000000
11
-27.5803989592368
21
8.93579682033416
31
0.000000000000000
  0
LINE
  5
F1077A
330
F1077B
100
AcDbEntity
8
Geo
100
AcDbLine
10
-27.5803989592368
20
8.93579682033416
30
0.000000000000000
11
-27.4803989592368
21
8.85085704234220
31
0.000000000000000
  0
LINE
  5
F1077C
330
F1077D
100
AcDbEntity
8
Geo
100
AcDbLine
10
-27.4803989592368
20
8.85085704234220
30
0.000000000000000
11
-27.3803989592368
21
8.76492682445322
31
0.000000000000000
  0
LINE
  5
F1077E
330
F1077F
100
AcDbEntity
8
Geo
100
AcDbLine
10
-27.3803989592368
20
8.76492682445322
30
0.000000000000000
11
-27.2803989592368
21
8.67804053760866
31
0.000000000000000
  0
LINE
  5
F10780
330
F10781
100
AcDbEntity
8
Geo
100
AcDbLine
10
-27.2803989592368
20
8.67804053760866
30
0.000000000000000
11
-27.1803989592368
21
8.59023293516478
31
0.000000000000000
  0
LINE
  5
F10782
330
F10783
100
AcDbEntity
8
Geo
100
AcDbLine
10
-27.1803989592368
20
8.59023293516478
30
0.000000000000000
11
-27.0803989592368
21
8.50153913899182
31
0.000000000000000
  0
LINE
  5
F10784
330
F10785
100
AcDbEntity
8
Geo
100
AcDbLine
10
-27.0803989592368
20
8.50153913899182
30
0.000000000000000
11
-26.9803989592368
21
8.41199462542567
31
0.000000000000000
  0
LINE
  5
F10786
330
F10787
100
AcDbEntity
8
Geo
100
AcDbLine
10
-26.9803989592368
20
8.41199462542567
30
0.000000000000000
11
-26.8803989592368
21
8.32163521107786
31
0.000000000000000
  0
LINE
  5
F10788
330
F10789
100
AcDbEntity
8
Geo
100
AcDbLine
10
-26.8803989592368
20
8.32163521107786
30
0.000000000000000
11
-26.7803989592368
21
8.23049703850933
31
0.000000000000000
  0
LINE
  5
F1078A
330
F1078B
100
AcDbEntity
8
Geo
100
AcDbLine
10
-26.7803989592368
20
8.23049703850933
30
0.000000000000000
11
-26.6803989592368
21
8.13861656177396
31
0.000000000000000
  0
LINE
  5
F1078C
330
F1078D
100
AcDbEntity
8
Geo
100
AcDbLine
10
-26.6803989592368
20
8.13861656177396
30
0.000000000000000
11
-26.5803989592368
21
8.04603053183740
31
0.000000000000000
  0
LINE
  5
F1078E
330
F1078F
100
AcDbEntity
8
Geo
100
AcDbLine
10
-26.5803989592368
20
8.04603053183740
30
0.000000000000000
11
-26.4803989592368
21
7.95277598187713
31
0.000000000000000
  0
LINE
  5
F10790
330
F10791
100
AcDbEntity
8
Geo
100
AcDbLine
10
-26.4803989592368
20
7.95277598187713
30
0.000000000000000
11
-26.3803989592368
21
7.85889021246978
31
0.000000000000000
  0
LINE
  5
F10792
330
F10793
100
AcDbEntity
8
Geo
100
AcDbLine
10
-26.3803989592368
20
7.85889021246978
30
0.000000000000000
11
-26.2803989592368
21
7.76441077667132
31
0.000000000000000
  0
LINE
  5
F10794
330
F10795
100
AcDbEntity
8
Geo
100
AcDbLine
10
-26.2803989592368
20
7.76441077667132
30
0.000000000000000
11
-26.1803989592368
21
7.66937546499635
31
0.000000000000000
  0
LINE
  5
F10796
330
F10797
100
AcDbEntity
8
Geo
100
AcDbLine
10
-26.1803989592368
20
7.66937546499635
30
0.000000000000000
11
-26.0803989592368
21
7.57382229030243
31
0.000000000000000
  0
LINE
  5
F10798
330
F10799
100
AcDbEntity
8
Geo
100
AcDbLine
10
-26.0803989592368
20
7.57382229030243
30
0.000000000000000
11
-25.9803989592368
21
7.47778947258540
31
0.000000000000000
  0
LINE
  5
F1079A
330
F1079B
100
AcDbEntity
8
Geo
100
AcDbLine
10
-25.9803989592368
20
7.47778947258540
30
0.000000000000000
11
-25.8803989592368
21
7.38131542369193
31
0.000000000000000
  0
LINE
  5
F1079C
330
F1079D
100
AcDbEntity
8
Geo
100
AcDbLine
10
-25.8803989592368
20
7.38131542369193
30
0.000000000000000
11
-25.7803989592368
21
7.28443873195528
31
0.000000000000000
  0
LINE
  5
F1079E
330
F1079F
100
AcDbEntity
8
Geo
100
AcDbLine
10
-25.7803989592368
20
7.28443873195528
30
0.000000000000000
11
-25.6803989592368
21
7.18719814676047
31
0.000000000000000
  0
LINE
  5
F107A0
330
F107A1
100
AcDbEntity
8
Geo
100
AcDbLine
10
-25.6803989592368
20
7.18719814676047
30
0.000000000000000
11
-25.5803989592368
21
7.08963256304506
31
0.000000000000000
  0
LINE
  5
F107A2
330
F107A3
100
AcDbEntity
8
Geo
100
AcDbLine
10
-25.5803989592368
20
7.08963256304506
30
0.000000000000000
11
-25.4803989592368
21
6.99178100574166
31
0.000000000000000
  0
LINE
  5
F107A4
330
F107A5
100
AcDbEntity
8
Geo
100
AcDbLine
10
-25.4803989592368
20
6.99178100574166
30
0.000000000000000
11
-25.3803989592368
21
6.89368261416854
31
0.000000000000000
  0
LINE
  5
F107A6
330
F107A7
100
AcDbEntity
8
Geo
100
AcDbLine
10
-25.3803989592368
20
6.89368261416854
30
0.000000000000000
11
-25.2803989592368
21
6.79537662637436
31
0.000000000000000
  0
LINE
  5
F107A8
330
F107A9
100
AcDbEntity
8
Geo
100
AcDbLine
10
-25.2803989592368
20
6.79537662637436
30
0.000000000000000
11
-25.1803989592368
21
6.69690236344351
31
0.000000000000000
  0
LINE
  5
F107AA
330
F107AB
100
AcDbEntity
8
Geo
100
AcDbLine
10
-25.1803989592368
20
6.69690236344351
30
0.000000000000000
11
-25.0803989592368
21
6.59829921376819
31
0.000000000000000
  0
LINE
  5
F107AC
330
F107AD
100
AcDbEntity
8
Geo
100
AcDbLine
10
-25.0803989592368
20
6.59829921376819
30
0.000000000000000
11
-24.9803989592368
21
6.49960661729358
31
0.000000000000000
  0
LINE
  5
F107AE
330
F107AF
100
AcDbEntity
8
Geo
100
AcDbLine
10
-24.9803989592368
20
6.49960661729358
30
0.000000000000000
11
-24.8803989592368
21
6.40086404974239
31
0.000000000000000
  0
LINE
  5
F107B0
330
F107B1
100
AcDbEntity
8
Geo
100
AcDbLine
10
-24.8803989592368
20
6.40086404974239
30
0.000000000000000
11
-24.7803989592368
21
6.30211100682508
31
0.000000000000000
  0
LINE
  5
F107B2
330
F107B3
100
AcDbEntity
8
Geo
100
AcDbLine
10
-24.7803989592368
20
6.30211100682508
30
0.000000000000000
11
-24.6803989592368
21
6.20338698844213
31
0.000000000000000
  0
LINE
  5
F107B4
330
F107B5
100
AcDbEntity
8
Geo
100
AcDbLine
10
-24.6803989592368
20
6.20338698844213
30
0.000000000000000
11
-24.5803989592368
21
6.10473148288460
31
0.000000000000000
  0
LINE
  5
F107B6
330
F107B7
100
AcDbEntity
8
Geo
100
AcDbLine
10
-24.5803989592368
20
6.10473148288460
30
0.000000000000000
11
-24.4803989592368
21
6.00618395103931
31
0.000000000000000
  0
LINE
  5
F107B8
330
F107B9
100
AcDbEntity
8
Geo
100
AcDbLine
10
-24.4803989592368
20
6.00618395103931
30
0.000000000000000
11
-24.3803989592368
21
5.90778381060506
31
0.000000000000000
  0
LINE
  5
F107BA
330
F107BB
100
AcDbEntity
8
Geo
100
AcDbLine
10
-24.3803989592368
20
5.90778381060506
30
0.000000000000000
11
-24.2803989592368
21
5.80957042032603
31
0.000000000000000
  0
LINE
  5
F107BC
330
F107BD
100
AcDbEntity
8
Geo
100
AcDbLine
10
-24.2803989592368
20
5.80957042032603
30
0.000000000000000
11
-24.1803989592368
21
5.71158306424885
31
0.000000000000000
  0
LINE
  5
F107BE
330
F107BF
100
AcDbEntity
8
Geo
100
AcDbLine
10
-24.1803989592368
20
5.71158306424885
30
0.000000000000000
11
-24.0803989592368
21
5.61386093600946
31
0.000000000000000
  0
LINE
  5
F107C0
330
F107C1
100
AcDbEntity
8
Geo
100
AcDbLine
10
-24.0803989592368
20
5.61386093600946
30
0.000000000000000
11
-23.9803989592368
21
5.51644312315621
31
0.000000000000000
  0
LINE
  5
F107C2
330
F107C3
100
AcDbEntity
8
Geo
100
AcDbLine
10
-23.9803989592368
20
5.51644312315621
30
0.000000000000000
11
-23.8803989592368
21
5.41936859151536
31
0.000000000000000
  0
LINE
  5
F107C4
330
F107C5
100
AcDbEntity
8
Geo
100
AcDbLine
10
-23.8803989592368
20
5.41936859151536
30
0.000000000000000
11
-23.7803989592368
21
5.32267616960526
31
0.000000000000000
  0
LINE
  5
F107C6
330
F107C7
100
AcDbEntity
8
Geo
100
AcDbLine
10
-23.7803989592368
20
5.32267616960526
30
0.000000000000000
11
-23.6803989592368
21
5.22640453310545
31
0.000000000000000
  0
LINE
  5
F107C8
330
F107C9
100
AcDbEntity
8
Geo
100
AcDbLine
10
-23.6803989592368
20
5.22640453310545
30
0.000000000000000
11
-23.5803989592368
21
5.13059218938693
31
0.000000000000000
  0
LINE
  5
F107CA
330
F107CB
100
AcDbEntity
8
Geo
100
AcDbLine
10
-23.5803989592368
20
5.13059218938693
30
0.000000000000000
11
-23.4803989592368
21
5.03527746210970
31
0.000000000000000
  0
LINE
  5
F107CC
330
F107CD
100
AcDbEntity
8
Geo
100
AcDbLine
10
-23.4803989592368
20
5.03527746210970
30
0.000000000000000
11
-23.3803989592368
21
4.94049847589384
31
0.000000000000000
  0
LINE
  5
F107CE
330
F107CF
100
AcDbEntity
8
Geo
100
AcDbLine
10
-23.3803989592368
20
4.94049847589384
30
0.000000000000000
11
-23.2803989592367
21
4.84629314107012
31
0.000000000000000
  0
LINE
  5
F107D0
330
F107D1
100
AcDbEntity
8
Geo
100
AcDbLine
10
-23.2803989592367
20
4.84629314107012
30
0.000000000000000
11
-23.1803989592367
21
4.75269913851641
31
0.000000000000000
  0
LINE
  5
F107D2
330
F107D3
100
AcDbEntity
8
Geo
100
AcDbLine
10
-23.1803989592367
20
4.75269913851641
30
0.000000000000000
11
-23.0803989592367
21
4.65975390458585
31
0.000000000000000
  0
LINE
  5
F107D4
330
F107D5
100
AcDbEntity
8
Geo
100
AcDbLine
10
-23.0803989592367
20
4.65975390458585
30
0.000000000000000
11
-22.9803989592367
21
4.56749461613274
31
0.000000000000000
  0
LINE
  5
F107D6
330
F107D7
100
AcDbEntity
8
Geo
100
AcDbLine
10
-22.9803989592367
20
4.56749461613274
30
0.000000000000000
11
-22.8803989592367
21
4.47595817564236
31
0.000000000000000
  0
LINE
  5
F107D8
330
F107D9
100
AcDbEntity
8
Geo
100
AcDbLine
10
-22.8803989592367
20
4.47595817564236
30
0.000000000000000
11
-22.7803989592367
21
4.38518119647043
31
0.000000000000000
  0
LINE
  5
F107DA
330
F107DB
100
AcDbEntity
8
Geo
100
AcDbLine
10
-42.6803989592368
20
11.1864182790770
30
0.000000000000000
11
-42.5803989592368
21
11.2770206492254
31
0.000000000000000
  0
LINE
  5
F107DC
330
F107DD
100
AcDbEntity
8
Geo
100
AcDbLine
10
-42.5803989592368
20
11.2770206492254
30
0.000000000000000
11
-42.5803989592368
21
11.2770206492254
31
0.000000000000000
  0
LINE
  5
F107DE
330
F107DF
100
AcDbEntity
8
Geo
100
AcDbLine
10
-42.5803989592368
20
11.2770206492254
30
0.000000000000000
11
-42.4803989592368
21
11.2642297528011
31
0.000000000000000
  0
LINE
  5
F107E0
330
F107E1
100
AcDbEntity
8
Geo
100
AcDbLine
10
-42.4803989592368
20
11.2642297528011
30
0.000000000000000
11
-42.3803989592368
21
11.2494830995735
31
0.000000000000000
  0
LINE
  5
F107E2
330
F107E3
100
AcDbEntity
8
Geo
100
AcDbLine
10
-42.3803989592368
20
11.2494830995735
30
0.000000000000000
11
-42.2803989592368
21
11.2327865880073
31
0.000000000000000
  0
LINE
  5
F107E4
330
F107E5
100
AcDbEntity
8
Geo
100
AcDbLine
10
-42.2803989592368
20
11.2327865880073
30
0.000000000000000
11
-42.1803989592368
21
11.2141468964844
31
0.000000000000000
  0
LINE
  5
F107E6
330
F107E7
100
AcDbEntity
8
Geo
100
AcDbLine
10
-42.1803989592368
20
11.2141468964844
30
0.000000000000000
11
-42.0803989592368
21
11.1935714806329
31
0.000000000000000
  0
LINE
  5
F107E8
330
F107E9
100
AcDbEntity
8
Geo
100
AcDbLine
10
-42.0803989592368
20
11.1935714806329
30
0.000000000000000
11
-41.9803989592368
21
11.1710685703449
31
0.000000000000000
  0
LINE
  5
F107EA
330
F107EB
100
AcDbEntity
8
Geo
100
AcDbLine
10
-41.9803989592368
20
11.1710685703449
30
0.000000000000000
11
-41.8803989592368
21
11.1466471664844
31
0.000000000000000
  0
LINE
  5
F107EC
330
F107ED
100
AcDbEntity
8
Geo
100
AcDbLine
10
-41.8803989592368
20
11.1466471664844
30
0.000000000000000
11
-41.7803989592368
21
11.1203170372874
31
0.000000000000000
  0
LINE
  5
F107EE
330
F107EF
100
AcDbEntity
8
Geo
100
AcDbLine
10
-41.7803989592368
20
11.1203170372874
30
0.000000000000000
11
-41.6803989592368
21
11.0920887144544
31
0.000000000000000
  0
LINE
  5
F107F0
330
F107F1
100
AcDbEntity
8
Geo
100
AcDbLine
10
-41.6803989592368
20
11.0920887144544
30
0.000000000000000
11
-41.5803989592368
21
11.0619734889383
31
0.000000000000000
  0
LINE
  5
F107F2
330
F107F3
100
AcDbEntity
8
Geo
100
AcDbLine
10
-41.5803989592368
20
11.0619734889383
30
0.000000000000000
11
-41.4803989592368
21
11.0299834064276
31
0.000000000000000
  0
LINE
  5
F107F4
330
F107F5
100
AcDbEntity
8
Geo
100
AcDbLine
10
-41.4803989592368
20
11.0299834064276
30
0.000000000000000
11
-41.3803989592368
21
10.9961312625290
31
0.000000000000000
  0
LINE
  5
F107F6
330
F107F7
100
AcDbEntity
8
Geo
100
AcDbLine
10
-41.3803989592368
20
10.9961312625290
30
0.000000000000000
11
-41.2803989592368
21
10.9604305976485
31
0.000000000000000
  0
LINE
  5
F107F8
330
F107F9
100
AcDbEntity
8
Geo
100
AcDbLine
10
-41.2803989592368
20
10.9604305976485
30
0.000000000000000
11
-41.1803989592368
21
10.9228956915762
31
0.000000000000000
  0
LINE
  5
F107FA
330
F107FB
100
AcDbEntity
8
Geo
100
AcDbLine
10
-41.1803989592368
20
10.9228956915762
30
0.000000000000000
11
-41.0803989592368
21
10.8835415577739
31
0.000000000000000
  0
LINE
  5
F107FC
330
F107FD
100
AcDbEntity
8
Geo
100
AcDbLine
10
-41.0803989592368
20
10.8835415577739
30
0.000000000000000
11
-40.9803989592368
21
10.8423839373706
31
0.000000000000000
  0
LINE
  5
F107FE
330
F107FF
100
AcDbEntity
8
Geo
100
AcDbLine
10
-40.9803989592368
20
10.8423839373706
30
0.000000000000000
11
-40.8803989592368
21
10.7994392928656
31
0.000000000000000
  0
LINE
  5
F10800
330
F10801
100
AcDbEntity
8
Geo
100
AcDbLine
10
-40.8803989592368
20
10.7994392928656
30
0.000000000000000
11
-40.7803989592368
21
10.7547248015441
31
0.000000000000000
  0
LINE
  5
F10802
330
F10803
100
AcDbEntity
8
Geo
100
AcDbLine
10
-40.7803989592368
20
10.7547248015441
30
0.000000000000000
11
-40.6803989592368
21
10.7082583486065
31
0.000000000000000
  0
LINE
  5
F10804
330
F10805
100
AcDbEntity
8
Geo
100
AcDbLine
10
-40.6803989592368
20
10.7082583486065
30
0.000000000000000
11
-40.5803989592368
21
10.6600585200144
31
0.000000000000000
  0
LINE
  5
F10806
330
F10807
100
AcDbEntity
8
Geo
100
AcDbLine
10
-40.5803989592368
20
10.6600585200144
30
0.000000000000000
11
-40.4803989592368
21
10.6101445950565
31
0.000000000000000
  0
LINE
  5
F10808
330
F10809
100
AcDbEntity
8
Geo
100
AcDbLine
10
-40.4803989592368
20
10.6101445950565
30
0.000000000000000
11
-40.3803989592368
21
10.5585365386374
31
0.000000000000000
  0
LINE
  5
F1080A
330
F1080B
100
AcDbEntity
8
Geo
100
AcDbLine
10
-40.3803989592368
20
10.5585365386374
30
0.000000000000000
11
-40.2803989592368
21
10.5052549932915
31
0.000000000000000
  0
LINE
  5
F1080C
330
F1080D
100
AcDbEntity
8
Geo
100
AcDbLine
10
-40.2803989592368
20
10.5052549932915
30
0.000000000000000
11
-40.1803989592368
21
10.4503212709266
31
0.000000000000000
  0
LINE
  5
F1080E
330
F1080F
100
AcDbEntity
8
Geo
100
AcDbLine
10
-40.1803989592368
20
10.4503212709266
30
0.000000000000000
11
-40.0803989592368
21
10.3937573442992
31
0.000000000000000
  0
LINE
  5
F10810
330
F10811
100
AcDbEntity
8
Geo
100
AcDbLine
10
-40.0803989592368
20
10.3937573442992
30
0.000000000000000
11
-39.9803989592368
21
10.3355858382256
31
0.000000000000000
  0
LINE
  5
F10812
330
F10813
100
AcDbEntity
8
Geo
100
AcDbLine
10
-39.9803989592368
20
10.3355858382256
30
0.000000000000000
11
-39.8803989592368
21
10.2758300205328
31
0.000000000000000
  0
LINE
  5
F10814
330
F10815
100
AcDbEntity
8
Geo
100
AcDbLine
10
-39.8803989592368
20
10.2758300205328
30
0.000000000000000
11
-39.7803989592368
21
10.2145137927511
31
0.000000000000000
  0
LINE
  5
F10816
330
F10817
100
AcDbEntity
8
Geo
100
AcDbLine
10
-39.7803989592368
20
10.2145137927511
30
0.000000000000000
11
-39.6803989592368
21
10.1516616805541
31
0.000000000000000
  0
LINE
  5
F10818
330
F10819
100
AcDbEntity
8
Geo
100
AcDbLine
10
-39.6803989592368
20
10.1516616805541
30
0.000000000000000
11
-39.5803989592368
21
10.0872988239486
31
0.000000000000000
  0
LINE
  5
F1081A
330
F1081B
100
AcDbEntity
8
Geo
100
AcDbLine
10
-39.5803989592368
20
10.0872988239486
30
0.000000000000000
11
-39.4803989592368
21
10.0214509672191
31
0.000000000000000
  0
LINE
  5
F1081C
330
F1081D
100
AcDbEntity
8
Geo
100
AcDbLine
10
-39.4803989592368
20
10.0214509672191
30
0.000000000000000
11
-39.3803989592368
21
9.95414444863038
31
0.000000000000000
  0
LINE
  5
F1081E
330
F1081F
100
AcDbEntity
8
Geo
100
AcDbLine
10
-39.3803989592368
20
9.95414444863038
30
0.000000000000000
11
-39.2803989592368
21
9.88540618989240
31
0.000000000000000
  0
LINE
  5
F10820
330
F10821
100
AcDbEntity
8
Geo
100
AcDbLine
10
-39.2803989592368
20
9.88540618989240
30
0.000000000000000
11
-39.1803989592368
21
9.81526368539220
31
0.000000000000000
  0
LINE
  5
F10822
330
F10823
100
AcDbEntity
8
Geo
100
AcDbLine
10
-39.1803989592368
20
9.81526368539220
30
0.000000000000000
11
-39.0803989592368
21
9.74374499119634
31
0.000000000000000
  0
LINE
  5
F10824
330
F10825
100
AcDbEntity
8
Geo
100
AcDbLine
10
-39.0803989592368
20
9.74374499119634
30
0.000000000000000
11
-38.9803989592368
21
9.67087871382894
31
0.000000000000000
  0
LINE
  5
F10826
330
F10827
100
AcDbEntity
8
Geo
100
AcDbLine
10
-38.9803989592368
20
9.67087871382894
30
0.000000000000000
11
-38.8803989592368
21
9.59669399882941
31
0.000000000000000
  0
LINE
  5
F10828
330
F10829
100
AcDbEntity
8
Geo
100
AcDbLine
10
-38.8803989592368
20
9.59669399882941
30
0.000000000000000
11
-38.7803989592367
21
9.52122051909462
31
0.000000000000000
  0
LINE
  5
F1082A
330
F1082B
100
AcDbEntity
8
Geo
100
AcDbLine
10
-38.7803989592367
20
9.52122051909462
30
0.000000000000000
11
-38.6803989592368
21
9.44448846301017
31
0.000000000000000
  0
LINE
  5
F1082C
330
F1082D
100
AcDbEntity
8
Geo
100
AcDbLine
10
-38.6803989592368
20
9.44448846301017
30
0.000000000000000
11
-38.5803989592368
21
9.36652852237543
31
0.000000000000000
  0
LINE
  5
F1082E
330
F1082F
100
AcDbEntity
8
Geo
100
AcDbLine
10
-38.5803989592368
20
9.36652852237543
30
0.000000000000000
11
-38.4803989592368
21
9.28737188012717
31
0.000000000000000
  0
LINE
  5
F10830
330
F10831
100
AcDbEntity
8
Geo
100
AcDbLine
10
-38.4803989592368
20
9.28737188012717
30
0.000000000000000
11
-38.3803989592368
21
9.20705019786691
31
0.000000000000000
  0
LINE
  5
F10832
330
F10833
100
AcDbEntity
8
Geo
100
AcDbLine
10
-38.3803989592368
20
9.20705019786691
30
0.000000000000000
11
-38.2803989592368
21
9.12559560319660
31
0.000000000000000
  0
LINE
  5
F10834
330
F10835
100
AcDbEntity
8
Geo
100
AcDbLine
10
-38.2803989592368
20
9.12559560319660
30
0.000000000000000
11
-38.1803989592368
21
9.04304067686807
31
0.000000000000000
  0
LINE
  5
F10836
330
F10837
100
AcDbEntity
8
Geo
100
AcDbLine
10
-38.1803989592368
20
9.04304067686807
30
0.000000000000000
11
-38.0803989592368
21
8.95941843975112
31
0.000000000000000
  0
LINE
  5
F10838
330
F10839
100
AcDbEntity
8
Geo
100
AcDbLine
10
-38.0803989592368
20
8.95941843975112
30
0.000000000000000
11
-37.9803989592368
21
8.87476233962566
31
0.000000000000000
  0
LINE
  5
F1083A
330
F1083B
100
AcDbEntity
8
Geo
100
AcDbLine
10
-37.9803989592368
20
8.87476233962566
30
0.000000000000000
11
-37.8803989592368
21
8.78910623780300
31
0.000000000000000
  0
LINE
  5
F1083C
330
F1083D
100
AcDbEntity
8
Geo
100
AcDbLine
10
-37.8803989592368
20
8.78910623780300
30
0.000000000000000
11
-37.7803989592368
21
8.70248439558181
31
0.000000000000000
  0
LINE
  5
F1083E
330
F1083F
100
AcDbEntity
8
Geo
100
AcDbLine
10
-37.7803989592368
20
8.70248439558181
30
0.000000000000000
11
-37.6803989592368
21
8.61493146054403
31
0.000000000000000
  0
LINE
  5
F10840
330
F10841
100
AcDbEntity
8
Geo
100
AcDbLine
10
-37.6803989592368
20
8.61493146054403
30
0.000000000000000
11
-37.5803989592368
21
8.52648245269632
31
0.000000000000000
  0
LINE
  5
F10842
330
F10843
100
AcDbEntity
8
Geo
100
AcDbLine
10
-37.5803989592368
20
8.52648245269632
30
0.000000000000000
11
-37.4803989592368
21
8.43717275046251
31
0.000000000000000
  0
LINE
  5
F10844
330
F10845
100
AcDbEntity
8
Geo
100
AcDbLine
10
-37.4803989592368
20
8.43717275046251
30
0.000000000000000
11
-37.3803989592368
21
8.34703807653273
31
0.000000000000000
  0
LINE
  5
F10846
330
F10847
100
AcDbEntity
8
Geo
100
AcDbLine
10
-37.3803989592368
20
8.34703807653273
30
0.000000000000000
11
-37.2803989592368
21
8.25611448357475
31
0.000000000000000
  0
LINE
  5
F10848
330
F10849
100
AcDbEntity
8
Geo
100
AcDbLine
10
-37.2803989592368
20
8.25611448357475
30
0.000000000000000
11
-37.1803989592368
21
8.16443833981347
31
0.000000000000000
  0
LINE
  5
F1084A
330
F1084B
100
AcDbEntity
8
Geo
100
AcDbLine
10
-37.1803989592368
20
8.16443833981347
30
0.000000000000000
11
-37.0803989592368
21
8.07204631448406
31
0.000000000000000
  0
LINE
  5
F1084C
330
F1084D
100
AcDbEntity
8
Geo
100
AcDbLine
10
-37.0803989592368
20
8.07204631448406
30
0.000000000000000
11
-36.9803989592368
21
7.97897536316476
31
0.000000000000000
  0
LINE
  5
F1084E
330
F1084F
100
AcDbEntity
8
Geo
100
AcDbLine
10
-36.9803989592368
20
7.97897536316476
30
0.000000000000000
11
-36.8803989592368
21
7.88526271299519
31
0.000000000000000
  0
LINE
  5
F10850
330
F10851
100
AcDbEntity
8
Geo
100
AcDbLine
10
-36.8803989592368
20
7.88526271299519
30
0.000000000000000
11
-36.7803989592368
21
7.79094584778592
31
0.000000000000000
  0
LINE
  5
F10852
330
F10853
100
AcDbEntity
8
Geo
100
AcDbLine
10
-36.7803989592368
20
7.79094584778592
30
0.000000000000000
11
-36.6803989592368
21
7.69606249302550
31
0.000000000000000
  0
LINE
  5
F10854
330
F10855
100
AcDbEntity
8
Geo
100
AcDbLine
10
-36.6803989592368
20
7.69606249302550
30
0.000000000000000
11
-36.5803989592368
21
7.60065060079073
31
0.000000000000000
  0
LINE
  5
F10856
330
F10857
100
AcDbEntity
8
Geo
100
AcDbLine
10
-36.5803989592368
20
7.60065060079073
30
0.000000000000000
11
-36.4803989592368
21
7.50474833456637
31
0.000000000000000
  0
LINE
  5
F10858
330
F10859
100
AcDbEntity
8
Geo
100
AcDbLine
10
-36.4803989592368
20
7.50474833456637
30
0.000000000000000
11
-36.3803989592368
21
7.40839405398023
31
0.000000000000000
  0
LINE
  5
F1085A
330
F1085B
100
AcDbEntity
8
Geo
100
AcDbLine
10
-36.3803989592368
20
7.40839405398023
30
0.000000000000000
11
-36.2803989592368
21
7.31162629945983
31
0.000000000000000
  0
LINE
  5
F1085C
330
F1085D
100
AcDbEntity
8
Geo
100
AcDbLine
10
-36.2803989592368
20
7.31162629945983
30
0.000000000000000
11
-36.1803989592368
21
7.21448377681676
31
0.000000000000000
  0
LINE
  5
F1085E
330
F1085F
100
AcDbEntity
8
Geo
100
AcDbLine
10
-36.1803989592368
20
7.21448377681676
30
0.000000000000000
11
-36.0803989592368
21
7.11700534176487
31
0.000000000000000
  0
LINE
  5
F10860
330
F10861
100
AcDbEntity
8
Geo
100
AcDbLine
10
-36.0803989592368
20
7.11700534176487
30
0.000000000000000
11
-35.9803989592368
21
7.01922998437847
31
0.000000000000000
  0
LINE
  5
F10862
330
F10863
100
AcDbEntity
8
Geo
100
AcDbLine
10
-35.9803989592368
20
7.01922998437847
30
0.000000000000000
11
-35.8803989592368
21
6.92119681349688
31
0.000000000000000
  0
LINE
  5
F10864
330
F10865
100
AcDbEntity
8
Geo
100
AcDbLine
10
-35.8803989592368
20
6.92119681349688
30
0.000000000000000
11
-35.7803989592368
21
6.82294504108135
31
0.000000000000000
  0
LINE
  5
F10866
330
F10867
100
AcDbEntity
8
Geo
100
AcDbLine
10
-35.7803989592368
20
6.82294504108135
30
0.000000000000000
11
-35.6803989592368
21
6.72451396653084
31
0.000000000000000
  0
LINE
  5
F10868
330
F10869
100
AcDbEntity
8
Geo
100
AcDbLine
10
-35.6803989592368
20
6.72451396653084
30
0.000000000000000
11
-35.5803989592368
21
6.62594296096278
31
0.000000000000000
  0
LINE
  5
F1086A
330
F1086B
100
AcDbEntity
8
Geo
100
AcDbLine
10
-35.5803989592368
20
6.62594296096278
30
0.000000000000000
11
-35.4803989592368
21
6.52727145146512
31
0.000000000000000
  0
LINE
  5
F1086C
330
F1086D
100
AcDbEntity
8
Geo
100
AcDbLine
10
-35.4803989592368
20
6.52727145146512
30
0.000000000000000
11
-35.3803989592368
21
6.42853890532608
31
0.000000000000000
  0
LINE
  5
F1086E
330
F1086F
100
AcDbEntity
8
Geo
100
AcDbLine
10
-35.3803989592368
20
6.42853890532608
30
0.000000000000000
11
-35.2803989592368
21
6.32978481424767
31
0.000000000000000
  0
LINE
  5
F10870
330
F10871
100
AcDbEntity
8
Geo
100
AcDbLine
10
-35.2803989592368
20
6.32978481424767
30
0.000000000000000
11
-35.1803989592368
21
6.23104867854964
31
0.000000000000000
  0
LINE
  5
F10872
330
F10873
100
AcDbEntity
8
Geo
100
AcDbLine
10
-35.1803989592368
20
6.23104867854964
30
0.000000000000000
11
-35.0803989592368
21
6.13236999136980
31
0.000000000000000
  0
LINE
  5
F10874
330
F10875
100
AcDbEntity
8
Geo
100
AcDbLine
10
-35.0803989592368
20
6.13236999136980
30
0.000000000000000
11
-34.9803989592368
21
6.03378822286732
31
0.000000000000000
  0
LINE
  5
F10876
330
F10877
100
AcDbEntity
8
Geo
100
AcDbLine
10
-34.9803989592368
20
6.03378822286732
30
0.000000000000000
11
-34.8803989592368
21
5.93534280443519
31
0.000000000000000
  0
LINE
  5
F10878
330
F10879
100
AcDbEntity
8
Geo
100
AcDbLine
10
-34.8803989592368
20
5.93534280443519
30
0.000000000000000
11
-34.7803989592368
21
5.83707311292821
31
0.000000000000000
  0
LINE
  5
F1087A
330
F1087B
100
AcDbEntity
8
Geo
100
AcDbLine
10
-34.7803989592368
20
5.83707311292821
30
0.000000000000000
11
-34.6803989592368
21
5.73901845491273
31
0.000000000000000
  0
LINE
  5
F1087C
330
F1087D
100
AcDbEntity
8
Geo
100
AcDbLine
10
-34.6803989592368
20
5.73901845491273
30
0.000000000000000
11
-34.5803989592368
21
5.64121805094457
31
0.000000000000000
  0
LINE
  5
F1087E
330
F1087F
100
AcDbEntity
8
Geo
100
AcDbLine
10
-34.5803989592368
20
5.64121805094457
30
0.000000000000000
11
-34.4803989592368
21
5.54371101988134
31
0.000000000000000
  0
LINE
  5
F10880
330
F10881
100
AcDbEntity
8
Geo
100
AcDbLine
10
-34.4803989592368
20
5.54371101988134
30
0.000000000000000
11
-34.3803989592368
21
5.44653636323538
31
0.000000000000000
  0
LINE
  5
F10882
330
F10883
100
AcDbEntity
8
Geo
100
AcDbLine
10
-34.3803989592368
20
5.44653636323538
30
0.000000000000000
11
-34.2803989592368
21
5.34973294957372
31
0.000000000000000
  0
LINE
  5
F10884
330
F10885
100
AcDbEntity
8
Geo
100
AcDbLine
10
-34.2803989592368
20
5.34973294957372
30
0.000000000000000
11
-34.1803989592368
21
5.25333949897111
31
0.000000000000000
  0
LINE
  5
F10886
330
F10887
100
AcDbEntity
8
Geo
100
AcDbLine
10
-34.1803989592368
20
5.25333949897111
30
0.000000000000000
11
-34.0803989592368
21
5.15739456752257
31
0.000000000000000
  0
LINE
  5
F10888
330
F10889
100
AcDbEntity
8
Geo
100
AcDbLine
10
-34.0803989592368
20
5.15739456752257
30
0.000000000000000
11
-33.9803989592368
21
5.06193653192144
31
0.000000000000000
  0
LINE
  5
F1088A
330
F1088B
100
AcDbEntity
8
Geo
100
AcDbLine
10
-33.9803989592368
20
5.06193653192144
30
0.000000000000000
11
-33.8803989592368
21
4.96700357410919
31
0.000000000000000
  0
LINE
  5
F1088C
330
F1088D
100
AcDbEntity
8
Geo
100
AcDbLine
10
-33.8803989592368
20
4.96700357410919
30
0.000000000000000
11
-33.7803989592368
21
4.87263366600319
31
0.000000000000000
  0
LINE
  5
F1088E
330
F1088F
100
AcDbEntity
8
Geo
100
AcDbLine
10
-33.7803989592368
20
4.87263366600319
30
0.000000000000000
11
-33.6803989592368
21
4.77886455430844
31
0.000000000000000
  0
LINE
  5
F10890
330
F10891
100
AcDbEntity
8
Geo
100
AcDbLine
10
-33.6803989592368
20
4.77886455430844
30
0.000000000000000
11
-33.5803989592368
21
4.68573374541938
31
0.000000000000000
  0
LINE
  5
F10892
330
F10893
100
AcDbEntity
8
Geo
100
AcDbLine
10
-33.5803989592368
20
4.68573374541938
30
0.000000000000000
11
-33.4803989592368
21
4.59327849041784
31
0.000000000000000
  0
LINE
  5
F10894
330
F10895
100
AcDbEntity
8
Geo
100
AcDbLine
10
-33.4803989592368
20
4.59327849041784
30
0.000000000000000
11
-33.3803989592368
21
4.50153577017309
31
0.000000000000000
  0
LINE
  5
F10896
330
F10897
100
AcDbEntity
8
Geo
100
AcDbLine
10
-33.3803989592368
20
4.50153577017309
30
0.000000000000000
11
-33.2803989592368
21
4.41054228055002
31
0.000000000000000
  0
LINE
  5
F10898
330
F10899
100
AcDbEntity
8
Geo
100
AcDbLine
10
-33.2803989592368
20
4.41054228055002
30
0.000000000000000
11
-33.1803989592368
21
4.32033441773123
31
0.000000000000000
  0
LINE
  5
F1089A
330
F1089B
100
AcDbEntity
8
Geo
100
AcDbLine
10
-33.1803989592368
20
4.32033441773123
30
0.000000000000000
11
-33.0803989592368
21
4.23094826365912
31
0.000000000000000
  0
LINE
  5
F1089C
330
F1089D
100
AcDbEntity
8
Geo
100
AcDbLine
10
-33.0803989592368
20
4.23094826365912
30
0.000000000000000
11
-32.9803989592368
21
4.14241957160349
31
0.000000000000000
  0
LINE
  5
F1089E
330
F1089F
100
AcDbEntity
8
Geo
100
AcDbLine
10
-32.9803989592368
20
4.14241957160349
30
0.000000000000000
11
-32.8803989592368
21
4.05478375186082
31
0.000000000000000
  0
LINE
  5
F108A0
330
F108A1
100
AcDbEntity
8
Geo
100
AcDbLine
10
-32.8803989592368
20
4.05478375186082
30
0.000000000000000
11
-32.7803989592368
21
3.96807585759053
31
0.000000000000000
  0
LINE
  5
F108A2
330
F108A3
100
AcDbEntity
8
Geo
100
AcDbLine
10
-32.7803989592368
20
3.96807585759053
30
0.000000000000000
11
-32.6803989592368
21
3.88233057079424
31
0.000000000000000
  0
LINE
  5
F108A4
330
F108A5
100
AcDbEntity
8
Geo
100
AcDbLine
10
-32.6803989592368
20
3.88233057079424
30
0.000000000000000
11
-32.5803989592368
21
3.79758218844342
31
0.000000000000000
  0
LINE
  5
F108A6
330
F108A7
100
AcDbEntity
8
Geo
100
AcDbLine
10
-32.5803989592368
20
3.79758218844342
30
0.000000000000000
11
-32.4803989592368
21
3.71386460876104
31
0.000000000000000
  0
LINE
  5
F108A8
330
F108A9
100
AcDbEntity
8
Geo
100
AcDbLine
10
-32.4803989592368
20
3.71386460876104
30
0.000000000000000
11
-32.3803989592368
21
3.63121131766276
31
0.000000000000000
  0
LINE
  5
F108AA
330
F108AB
100
AcDbEntity
8
Geo
100
AcDbLine
10
-32.3803989592368
20
3.63121131766276
30
0.000000000000000
11
-32.2803989592368
21
3.54965537536299
31
0.000000000000000
  0
LINE
  5
F108AC
330
F108AD
100
AcDbEntity
8
Geo
100
AcDbLine
10
-32.2803989592368
20
3.54965537536299
30
0.000000000000000
11
-32.1803989592368
21
3.46922940315124
31
0.000000000000000
  0
LINE
  5
F108AE
330
F108AF
100
AcDbEntity
8
Geo
100
AcDbLine
10
-32.1803989592368
20
3.46922940315124
30
0.000000000000000
11
-32.0803989592368
21
3.38996557034408
31
0.000000000000000
  0
LINE
  5
F108B0
330
F108B1
100
AcDbEntity
8
Geo
100
AcDbLine
10
-32.0803989592368
20
3.38996557034408
30
0.000000000000000
11
-31.9803989592368
21
3.31189558141778
31
0.000000000000000
  0
LINE
  5
F108B2
330
F108B3
100
AcDbEntity
8
Geo
100
AcDbLine
10
-31.9803989592368
20
3.31189558141778
30
0.000000000000000
11
-31.8803989592368
21
3.23505066332700
31
0.000000000000000
  0
LINE
  5
F108B4
330
F108B5
100
AcDbEntity
8
Geo
100
AcDbLine
10
-31.8803989592368
20
3.23505066332700
30
0.000000000000000
11
-31.7803989592368
21
3.15946155301439
31
0.000000000000000
  0
LINE
  5
F108B6
330
F108B7
100
AcDbEntity
8
Geo
100
AcDbLine
10
-31.7803989592368
20
3.15946155301439
30
0.000000000000000
11
-31.6803989592368
21
3.08515848511624
31
0.000000000000000
  0
LINE
  5
F108B8
330
F108B9
100
AcDbEntity
8
Geo
100
AcDbLine
10
-31.6803989592368
20
3.08515848511624
30
0.000000000000000
11
-31.5803989592368
21
3.01217117986900
31
0.000000000000000
  0
LINE
  5
F108BA
330
F108BB
100
AcDbEntity
8
Geo
100
AcDbLine
10
-31.5803989592368
20
3.01217117986900
30
0.000000000000000
11
-31.4803989592368
21
2.94052883122163
31
0.000000000000000
  0
LINE
  5
F108BC
330
F108BD
100
AcDbEntity
8
Geo
100
AcDbLine
10
-31.4803989592368
20
2.94052883122163
30
0.000000000000000
11
-31.3803989592368
21
2.87026009515836
31
0.000000000000000
  0
LINE
  5
F108BE
330
F108BF
100
AcDbEntity
8
Geo
100
AcDbLine
10
-31.3803989592368
20
2.87026009515836
30
0.000000000000000
11
-31.2803989592368
21
2.80139307823672
31
0.000000000000000
  0
LINE
  5
F108C0
330
F108C1
100
AcDbEntity
8
Geo
100
AcDbLine
10
-31.2803989592368
20
2.80139307823672
30
0.000000000000000
11
-31.1803989592368
21
2.73395532634526
31
0.000000000000000
  0
LINE
  5
F108C2
330
F108C3
100
AcDbEntity
8
Geo
100
AcDbLine
10
-31.1803989592368
20
2.73395532634526
30
0.000000000000000
11
-31.0803989592368
21
2.66797381368558
31
0.000000000000000
  0
LINE
  5
F108C4
330
F108C5
100
AcDbEntity
8
Geo
100
AcDbLine
10
-31.0803989592368
20
2.66797381368558
30
0.000000000000000
11
-30.9803989592368
21
2.60347493198301
31
0.000000000000000
  0
LINE
  5
F108C6
330
F108C7
100
AcDbEntity
8
Geo
100
AcDbLine
10
-30.9803989592368
20
2.60347493198301
30
0.000000000000000
11
-30.8803989592368
21
2.54048447993024
31
0.000000000000000
  0
LINE
  5
F108C8
330
F108C9
100
AcDbEntity
8
Geo
100
AcDbLine
10
-30.8803989592368
20
2.54048447993024
30
0.000000000000000
11
-30.7803989592368
21
2.47902765286825
31
0.000000000000000
  0
LINE
  5
F108CA
330
F108CB
100
AcDbEntity
8
Geo
100
AcDbLine
10
-30.7803989592368
20
2.47902765286825
30
0.000000000000000
11
-30.6803989592368
21
2.41912903270843
31
0.000000000000000
  0
LINE
  5
F108CC
330
F108CD
100
AcDbEntity
8
Geo
100
AcDbLine
10
-30.6803989592368
20
2.41912903270843
30
0.000000000000000
11
-30.5803989592368
21
2.36081257810022
31
0.000000000000000
  0
LINE
  5
F108CE
330
F108CF
100
AcDbEntity
8
Geo
100
AcDbLine
10
-30.5803989592368
20
2.36081257810022
30
0.000000000000000
11
-30.4803989592368
21
2.30410161484792
31
0.000000000000000
  0
LINE
  5
F108D0
330
F108D1
100
AcDbEntity
8
Geo
100
AcDbLine
10
-30.4803989592368
20
2.30410161484792
30
0.000000000000000
11
-30.3803989592368
21
2.24901882658069
31
0.000000000000000
  0
LINE
  5
F108D2
330
F108D3
100
AcDbEntity
8
Geo
100
AcDbLine
10
-30.3803989592368
20
2.24901882658069
30
0.000000000000000
11
-30.2803989592368
21
2.19558624567941
31
0.000000000000000
  0
LINE
  5
F108D4
330
F108D5
100
AcDbEntity
8
Geo
100
AcDbLine
10
-30.2803989592368
20
2.19558624567941
30
0.000000000000000
11
-30.1803989592368
21
2.14382524446402
31
0.000000000000000
  0
LINE
  5
F108D6
330
F108D7
100
AcDbEntity
8
Geo
100
AcDbLine
10
-30.1803989592368
20
2.14382524446402
30
0.000000000000000
11
-30.0803989592368
21
2.09375652664487
31
0.000000000000000
  0
LINE
  5
F108D8
330
F108D9
100
AcDbEntity
8
Geo
100
AcDbLine
10
-30.0803989592368
20
2.09375652664487
30
0.000000000000000
11
-29.9803989592368
21
2.04540011904151
31
0.000000000000000
  0
LINE
  5
F108DA
330
F108DB
100
AcDbEntity
8
Geo
100
AcDbLine
10
-29.9803989592368
20
2.04540011904151
30
0.000000000000000
11
-29.8803989592368
21
1.99877536357223
31
0.000000000000000
  0
LINE
  5
F108DC
330
F108DD
100
AcDbEntity
8
Geo
100
AcDbLine
10
-29.8803989592368
20
1.99877536357223
30
0.000000000000000
11
-29.7803989592368
21
1.95390090951758
31
0.000000000000000
  0
LINE
  5
F108DE
330
F108DF
100
AcDbEntity
8
Geo
100
AcDbLine
10
-29.7803989592368
20
1.95390090951758
30
0.000000000000000
11
-29.6803989592368
21
1.91079470606085
31
0.000000000000000
  0
LINE
  5
F108E0
330
F108E1
100
AcDbEntity
8
Geo
100
AcDbLine
10
-29.6803989592368
20
1.91079470606085
30
0.000000000000000
11
-29.5803989592368
21
1.86947399510868
31
0.000000000000000
  0
LINE
  5
F108E2
330
F108E3
100
AcDbEntity
8
Geo
100
AcDbLine
10
-29.5803989592368
20
1.86947399510868
30
0.000000000000000
11
-29.4803989592368
21
1.82995530439453
31
0.000000000000000
  0
LINE
  5
F108E4
330
F108E5
100
AcDbEntity
8
Geo
100
AcDbLine
10
-29.4803989592368
20
1.82995530439453
30
0.000000000000000
11
-29.3803989592368
21
1.79225444086776
31
0.000000000000000
  0
LINE
  5
F108E6
330
F108E7
100
AcDbEntity
8
Geo
100
AcDbLine
10
-29.3803989592368
20
1.79225444086776
30
0.000000000000000
11
-29.2803989592368
21
1.75638648437112
31
0.000000000000000
  0
LINE
  5
F108E8
330
F108E9
100
AcDbEntity
8
Geo
100
AcDbLine
10
-29.2803989592368
20
1.75638648437112
30
0.000000000000000
11
-29.1803989592368
21
1.72236578160897
31
0.000000000000000
  0
LINE
  5
F108EA
330
F108EB
100
AcDbEntity
8
Geo
100
AcDbLine
10
-29.1803989592368
20
1.72236578160897
30
0.000000000000000
11
-29.0803989592368
21
1.69020594040882
31
0.000000000000000
  0
LINE
  5
F108EC
330
F108ED
100
AcDbEntity
8
Geo
100
AcDbLine
10
-29.0803989592368
20
1.69020594040882
30
0.000000000000000
11
-28.9803989592368
21
1.65991982427834
31
0.000000000000000
  0
LINE
  5
F108EE
330
F108EF
100
AcDbEntity
8
Geo
100
AcDbLine
10
-28.9803989592368
20
1.65991982427834
30
0.000000000000000
11
-28.8803989592368
21
1.63151954726020
31
0.000000000000000
  0
LINE
  5
F108F0
330
F108F1
100
AcDbEntity
8
Geo
100
AcDbLine
10
-28.8803989592368
20
1.63151954726020
30
0.000000000000000
11
-28.7803989592368
21
1.60501646908651
31
0.000000000000000
  0
LINE
  5
F108F2
330
F108F3
100
AcDbEntity
8
Geo
100
AcDbLine
10
-28.7803989592368
20
1.60501646908651
30
0.000000000000000
11
-28.6803989592368
21
1.58042119063520
31
0.000000000000000
  0
LINE
  5
F108F4
330
F108F5
100
AcDbEntity
8
Geo
100
AcDbLine
10
-28.6803989592368
20
1.58042119063520
30
0.000000000000000
11
-28.5803989592368
21
1.55774354968969
31
0.000000000000000
  0
LINE
  5
F108F6
330
F108F7
100
AcDbEntity
8
Geo
100
AcDbLine
10
-28.5803989592368
20
1.55774354968969
30
0.000000000000000
11
-28.4803989592368
21
1.53699261700402
31
0.000000000000000
  0
LINE
  5
F108F8
330
F108F9
100
AcDbEntity
8
Geo
100
AcDbLine
10
-28.4803989592368
20
1.53699261700402
30
0.000000000000000
11
-28.3803989592368
21
1.51817669267457
31
0.000000000000000
  0
LINE
  5
F108FA
330
F108FB
100
AcDbEntity
8
Geo
100
AcDbLine
10
-28.3803989592368
20
1.51817669267457
30
0.000000000000000
11
-28.2803989592368
21
1.50130330282021
31
0.000000000000000
  0
LINE
  5
F108FC
330
F108FD
100
AcDbEntity
8
Geo
100
AcDbLine
10
-28.2803989592368
20
1.50130330282021
30
0.000000000000000
11
-28.1803989592368
21
1.48637919657189
31
0.000000000000000
  0
LINE
  5
F108FE
330
F108FF
100
AcDbEntity
8
Geo
100
AcDbLine
10
-28.1803989592368
20
1.48637919657189
30
0.000000000000000
11
-28.0803989592368
21
1.47341034337314
31
0.000000000000000
  0
LINE
  5
F10900
330
F10901
100
AcDbEntity
8
Geo
100
AcDbLine
10
-28.0803989592368
20
1.47341034337314
30
0.000000000000000
11
-27.9803989592368
21
1.46240193059231
31
0.000000000000000
  0
LINE
  5
F10902
330
F10903
100
AcDbEntity
8
Geo
100
AcDbLine
10
-27.9803989592368
20
1.46240193059231
30
0.000000000000000
11
-27.8803989592368
21
1.45335836144775
31
0.000000000000000
  0
LINE
  5
F10904
330
F10905
100
AcDbEntity
8
Geo
100
AcDbLine
10
-27.8803989592368
20
1.45335836144775
30
0.000000000000000
11
-27.7803989592368
21
1.44628325324652
31
0.000000000000000
  0
LINE
  5
F10906
330
F10907
100
AcDbEntity
8
Geo
100
AcDbLine
10
-27.7803989592368
20
1.44628325324652
30
0.000000000000000
11
-27.6803989592368
21
1.44117943593759
31
0.000000000000000
  0
LINE
  5
F10908
330
F10909
100
AcDbEntity
8
Geo
100
AcDbLine
10
-27.6803989592368
20
1.44117943593759
30
0.000000000000000
11
-27.5803989592368
21
1.43804895097981
31
0.000000000000000
  0
LINE
  5
F1090A
330
F1090B
100
AcDbEntity
8
Geo
100
AcDbLine
10
-27.5803989592368
20
1.43804895097981
30
0.000000000000000
11
-27.4803989592368
21
1.43689305052544
31
0.000000000000000
  0
LINE
  5
F1090C
330
F1090D
100
AcDbEntity
8
Geo
100
AcDbLine
10
-27.4803989592368
20
1.43689305052544
30
0.000000000000000
11
-27.4718730350070
21
1.37467476149176
31
0.000000000000000
  0
LINE
  5
F1090E
330
F1090F
100
AcDbEntity
8
Geo
100
AcDbLine
10
57.3196010407632
20
10.8746747614918
30
0.000000000000000
11
57.3196010407632
21
6.37467476149176
31
0.000000000000000
  0
LINE
  5
F10910
330
F10911
100
AcDbEntity
8
Geo
100
AcDbLine
10
-42.6803989592368
20
6.37467476149176
30
0.000000000000000
11
-42.6803989592368
21
1.47467476149176
31
0.000000000000000
  0
LINE
  5
F10912
330
F10913
100
AcDbEntity
8
Geo
100
AcDbLine
10
-42.6803989592368
20
1.47467476149176
30
0.000000000000000
11
-42.5803989592368
21
1.37467476149176
31
0.000000000000000
  0
LINE
  5
F10914
330
F10915
100
AcDbEntity
8
Geo
100
AcDbLine
10
-42.5803989592368
20
1.37467476149176
30
0.000000000000000
11
-17.6803989592368
21
1.37467476149176
31
0.000000000000000
  0
LINE
  5
F10916
330
F10917
100
AcDbEntity
8
Geo
100
AcDbLine
10
-17.6803989592368
20
1.37467476149176
30
0.000000000000000
11
-17.6803989592368
21
1.67467476149176
31
0.000000000000000
  0
LINE
  5
F10918
330
F10919
100
AcDbEntity
8
Geo
100
AcDbLine
10
-17.6803989592368
20
1.67467476149176
30
0.000000000000000
11
19.3196010407632
21
1.67467476149176
31
0.000000000000000
  0
LINE
  5
F1091A
330
F1091B
100
AcDbEntity
8
Geo
100
AcDbLine
10
19.3196010407632
20
1.67467476149176
30
0.000000000000000
11
19.9196010407632
21
1.37467476149176
31
0.000000000000000
  0
LINE
  5
F1091C
330
F1091D
100
AcDbEntity
8
Geo
100
AcDbLine
10
19.9196010407632
20
1.37467476149176
30
0.000000000000000
11
56.8196010407632
21
1.37467476149176
31
0.000000000000000
  0
LINE
  5
F1091E
330
F1091F
100
AcDbEntity
8
Geo
100
AcDbLine
10
56.8196010407632
20
1.37467476149176
30
0.000000000000000
11
57.3196010407632
21
1.87467476149176
31
0.000000000000000
  0
LINE
  5
F10920
330
F10921
100
AcDbEntity
8
Geo
100
AcDbLine
10
-42.6803989592368
20
11.2746747614918
30
0.000000000000000
11
-42.6803989592368
21
1.47467476149176
31
0.000000000000000
  0
LINE
  5
F10922
330
F10923
100
AcDbEntity
8
Geo
100
AcDbLine
10
-42.5803989592368
20
11.3746747614918
30
0.000000000000000
11
-42.5803989592368
21
1.37467476149176
31
0.000000000000000
  0
LINE
  5
F10924
330
F10925
100
AcDbEntity
8
Geo
100
AcDbLine
10
-42.5803989592368
20
11.3746747614918
30
0.000000000000000
11
-42.5803989592368
21
1.37467476149176
31
0.000000000000000
  0
LINE
  5
F10926
330
F10927
100
AcDbEntity
8
Geo
100
AcDbLine
10
-17.6803989592368
20
11.3746747614918
30
0.000000000000000
11
-17.6803989592368
21
1.37467476149176
31
0.000000000000000
  0
LINE
  5
F10928
330
F10929
100
AcDbEntity
8
Geo
100
AcDbLine
10
-17.6803989592368
20
11.0746747614918
30
0.000000000000000
11
-17.6803989592368
21
1.67467476149176
31
0.000000000000000
  0
LINE
  5
F1092A
330
F1092B
100
AcDbEntity
8
Geo
100
AcDbLine
10
19.3196010407632
20
11.0746747614918
30
0.000000000000000
11
19.3196010407632
21
1.67467476149176
31
0.000000000000000
  0
LINE
  5
F1092C
330
F1092D
100
AcDbEntity
8
Geo
100
AcDbLine
10
19.9196010407632
20
11.3746747614918
30
0.000000000000000
11
19.9196010407632
21
1.37467476149176
31
0.000000000000000
  0
LINE
  5
F1092E
330
F1092F
100
AcDbEntity
8
Geo
100
AcDbLine
10
19.9196010407632
20
11.3746747614918
30
0.000000000000000
11
19.9196010407632
21
1.37467476149176
31
0.000000000000000
  0
LINE
  5
F10930
330
F10931
100
AcDbEntity
8
Geo
100
AcDbLine
10
56.8196010407632
20
11.3746747614918
30
0.000000000000000
11
56.8196010407632
21
1.37467476149176
31
0.000000000000000
  0
LINE
  5
F10932
330
F10933
100
AcDbEntity
8
Geo
100
AcDbLine
10
57.3196010407632
20
10.8746747614918
30
0.000000000000000
11
57.3196010407632
21
1.87467476149176
31
0.000000000000000
  0
LINE
  5
F10934
330
F10935
100
AcDbEntity
8
Geo
 6
Dashdot
100
AcDbLine
10
-42.6803989592368
20
6.37467476149176
30
0.000000000000000
11
57.3196010407632
21
6.37467476149176
31
0.000000000000000
  0
LWPOLYLINE
  5
F10936
330
F10937
100
AcDbEntity
8
Rahmen
100
AcDbPolyline
90
   4
70
   1
43
   0.0
 10
-134.596704249783
 20
99.9002601908066
 10
143.339115351258
 20
99.9002601908066
 10
143.339115351258
 20
-100.082393755421
 10
-134.596704249783
 20
-100.082393755421
  0
TEXT
  5
F10938
330
F10939
 100
AcDbEntity
8
Text
100
AcDbText
10
-133.503902862099
20
-99.5823937554206
30
0.000000000000000
40
1.00000000000000
1
ISBESketcher - ©ISBE GmbH      lizensiert für: Schmid Werkzeuge
100
AcDbText
  0
LWPOLYLINE
  5
F1093A
330
F1093B
100
AcDbEntity
8
Rahmen
100
AcDbPolyline
90
   4
70
   1
43
   0.0
 10
103.451864700781
 20
-97.1682567215958
 10
143.339115351258
 20
-97.1682567215958
 10
143.339115351258
 20
-100.082393755421
 10
103.451864700781
 20
-100.082393755421
  0
TEXT
  5
F1093C
330
F1093D
 100
AcDbEntity
8
Text
100
AcDbText
10
104.500000000000
20
-99.4570685169124
30
0.000000000000000
40
1.50000000000000
1
Ers. durch:
100
AcDbText
  0
TEXT
  5
F1093E
330
F1093F
 100
AcDbEntity
8
Text
100
AcDbText
10
0.000000000000000
20
0.500000000000000
30
0.000000000000000
40
1.50000000000000
1

100
AcDbText
  0
LWPOLYLINE
  5
F10940
330
F10941
100
AcDbEntity
8
Rahmen
100
AcDbPolyline
90
   4
70
   1
43
   0.0
 10
63.3824804856895
 20
-97.1682567215958
 10
103.451864700781
 20
-97.1682567215958
 10
103.451864700781
 20
-100.082393755421
 10
63.3824804856895
 20
-100.082393755421
  0
TEXT
  5
F10942
330
F10943
 100
AcDbEntity
8
Text
100
AcDbText
10
64.5000000000000
20
-99.4570685169124
30
0.000000000000000
40
1.50000000000000
1
Ers. für:
100
AcDbText
  0
TEXT
  5
F10944
330
F10945
 100
AcDbEntity
8
Text
100
AcDbText
10
0.000000000000000
20
0.500000000000000
30
0.000000000000000
40
1.50000000000000
1

100
AcDbText
  0
LWPOLYLINE
  5
F10946
330
F10947
100
AcDbEntity
8
Rahmen
100
AcDbPolyline
90
   4
70
   1
43
   0.0
 10
130.043365134432
 20
-94.0719861231570
 10
143.339115351258
 20
-94.0719861231570
 10
143.339115351258
 20
-97.1682567215958
 10
130.043365134432
 20
-97.1682567215958
  0
TEXT
  5
F10948
330
F10949
 100
AcDbEntity
8
Text
100
AcDbText
10
131.166666666667
20
-96.4570685169124
30
0.000000000000000
40
1.50000000000000
1
Blätter
100
AcDbText
  0
TEXT
  5
F1094A
330
F1094B
 100
AcDbEntity
8
Text
100
AcDbText
10
0.000000000000000
20
0.500000000000000
30
0.000000000000000
40
1.50000000000000
1

100
AcDbText
  0
LWPOLYLINE
  5
F1094C
330
F1094D
100
AcDbEntity
8
Rahmen
100
AcDbPolyline
90
   4
70
   1
43
   0.0
 10
130.043365134432
 20
-91.1578490893322
 10
143.339115351258
 20
-91.1578490893322
 10
143.339115351258
 20
-94.0719861231570
 10
130.043365134432
 20
-94.0719861231570
  0
TEXT
  5
F1094E
330
F1094F
 100
AcDbEntity
8
Text
100
AcDbText
10
131.166666666667
20
-93.4570685169124
30
0.000000000000000
40
1.50000000000000
1
Blatt
100
AcDbText
  0
TEXT
  5
F10950
330
F10951
 100
AcDbEntity
8
Text
100
AcDbText
10
0.000000000000000
20
0.500000000000000
30
0.000000000000000
40
1.50000000000000
1

100
AcDbText
  0
LWPOLYLINE
  5
F10952
330
F10953
100
AcDbEntity
8
Rahmen
100
AcDbPolyline
90
   4
70
   1
43
   0.0
 10
63.3824804856895
 20
-91.1578490893322
 10
130.043365134432
 20
-91.1578490893322
 10
130.043365134432
 20
-97.1682567215958
 10
63.3824804856895
 20
-97.1682567215958
  0
TEXT
  5
F10954
330
F10955
 100
AcDbEntity
8
Text
100
AcDbText
10
64.5000000000000
20
-93.4570685169124
30
0.000000000000000
40
1.50000000000000
1
Datum:
100
AcDbText
  0
TEXT
  5
F10956
330
F10957
 100
AcDbEntity
8
Text
100
AcDbText
10
90.9139924833767
20
-96.4570685169124
30
0.000000000000000
40
1.50000000000000
1
10.03.2021
100
AcDbText
  0
LWPOLYLINE
  5
F10958
330
F10959
100
AcDbEntity
8
Rahmen
100
AcDbPolyline
90
   4
70
   1
43
   0.0
 10
63.3824804856895
 20
-85.1474414570685
 10
143.339115351258
 20
-85.1474414570685
 10
143.339115351258
 20
-91.1578490893322
 10
63.3824804856895
 20
-91.1578490893322
  0
TEXT
  5
F1095A
330
F1095B
 100
AcDbEntity
8
Text
100
AcDbText
10
0.000000000000000
20
0.500000000000000
30
0.000000000000000
40
1.50000000000000
1

100
AcDbText
  0
TEXT
  5
F1095C
330
F1095D
 100
AcDbEntity
8
Text
100
AcDbText
10
74.2675628794449
20
-92.0842729112460
30
0.000000000000000
40
2.50000000000000
1
VHM-HPC-Alu-Schruppfräser 0192-100-b
100
AcDbText
  0
LWPOLYLINE
  5
F1095E
330
F1095F
100
AcDbEntity
8
Rahmen
100
AcDbPolyline
90
   4
70
   1
43
   0.0
 10
103.451864700781
 20
-79.1370338248049
 10
143.339115351258
 20
-79.1370338248049
 10
143.339115351258
 20
-85.1474414570685
 10
103.451864700781
 20
-85.1474414570685
  0
TEXT
  5
F10960
330
F10961
 100
AcDbEntity
8
Text
100
AcDbText
10
104.500000000000
20
-81.4570685169124
30
0.000000000000000
40
1.50000000000000
1
Zu bearb. Material:
100
AcDbText
  0
TEXT
  5
F10962
330
F10963
 100
AcDbEntity
8
Text
100
AcDbText
10
0.000000000000000
20
0.500000000000000
30
0.000000000000000
40
1.50000000000000
1

100
AcDbText
  0
LWPOLYLINE
  5
F10964
330
F10965
100
AcDbEntity
8
Rahmen
100
AcDbPolyline
90
   4
70
   1
43
   0.0
 10
63.3824804856895
 20
-79.1370338248049
 10
103.451864700781
 20
-79.1370338248049
 10
103.451864700781
 20
-85.1474414570685
 10
63.3824804856895
 20
-85.1474414570685
  0
TEXT
  5
F10966
330
F10967
 100
AcDbEntity
8
Text
100
AcDbText
10
64.5000000000000
20
-81.4570685169124
30
0.000000000000000
40
1.50000000000000
1
Werkstoff:
100
AcDbText
  0
TEXT
  5
F10968
330
F10969
 100
AcDbEntity
8
Text
100
AcDbText
10
80.7679965307892
20
-84.4570685169124
30
0.000000000000000
40
1.50000000000000
1
VHM
100
AcDbText
  0
LWPOLYLINE
  5
F1096A
330
F1096B
100
AcDbEntity
8
Rahmen
100
AcDbPolyline
90
   4
70
   1
43
   0.0
 10
103.451864700781
 20
-76.0407632263660
 10
143.339115351258
 20
-76.0407632263660
 10
143.339115351258
 20
-79.1370338248049
 10
103.451864700781
 20
-79.1370338248049
  0
TEXT
  5
F1096C
330
F1096D
 100
AcDbEntity
8
Text
100
AcDbText
10
0.000000000000000
20
0.500000000000000
30
0.000000000000000
40
1.50000000000000
1

100
AcDbText
  0
TEXT
  5
F1096E
330
F1096F
 100
AcDbEntity
8
Text
100
AcDbText
10
0.000000000000000
20
0.500000000000000
30
0.000000000000000
40
1.50000000000000
1

100
AcDbText
  0
LWPOLYLINE
  5
F10970
330
F10971
100
AcDbEntity
8
Rahmen
100
AcDbPolyline
90
   4
70
   1
43
   0.0
 10
63.3824804856895
 20
-76.0407632263660
 10
103.451864700781
 20
-76.0407632263660
 10
103.451864700781
 20
-79.1370338248049
 10
63.3824804856895
 20
-79.1370338248049
  0
TEXT
  5
F10972
330
F10973
 100
AcDbEntity
8
Text
100
AcDbText
10
64.5000000000000
20
-78.4570685169124
30
0.000000000000000
40
1.50000000000000
1
Maßstab:
100
AcDbText
  0
TEXT
  5
F10974
330
F10975
 100
AcDbEntity
8
Text
100
AcDbText
10
89.0411968777103
20
-78.4570685169124
30
0.000000000000000
40
1.50000000000000
1
1 : 1
100
AcDbText
0
VIEWPORT
5
294
102
{ACAD_XDICTIONARY
360
58A
102
}
330
25D
100
AcDbEntity
67
1
8
0
60
1
100
AcDbViewport
10
0.0
20
0.0
30
0.0
40
10.0
41
10.0
68
-1
69
1
12
0.0
22
0.0
13
0.0
23
0.0
14
1.0
24
1.0
15
0.0
25
0.0
16
0.0
26
0.0
36
1.0
17
0.0
27
0.0
37
0.0
42
0.0
43
0.0
44
0.0
45
10.0
50
0.0
51
0.0000000000007958
72
100
90
32800
1

281
0
71
0
74
0
110
0.0
120
0.0
130
0.0
111
1.0
121
0.0
131
0.0
112
0.0
122
1.0
132
0.0
79
0
146
0.0
1001
VD_INVISIBLE_NOT_FOR_READ
1000
VD_INVISIBLE_NOT_FOR_READ
0
VIEWPORT
5
295
102
{ACAD_XDICTIONARY
360
58C
102
}
330
25D
100
AcDbEntity
67
1
8
0
60
1
100
AcDbViewport
10
0.0
20
0.0
30
0.0
40
10.0
41
10.0
68
0
69
2
12
0.0
22
0.0
13
0.0
23
0.0
14
1.0
24
1.0
15
0.0
25
0.0
16
0.0
26
0.0
36
1.0
17
0.0
27
0.0
37
0.0
42
0.0
43
0.0
44
0.0
45
10.0
50
0.0
51
0.0000000000007958
72
100
90
163872
1

281
0
71
0
74
0
110
0.0
120
0.0
130
0.0
111
1.0
121
0.0
131
0.0
112
0.0
122
1.0
132
0.0
79
0
146
0.0
1001
VD_INVISIBLE_NOT_FOR_READ
1000
VD_INVISIBLE_NOT_FOR_READ
0
ENDSEC
0
SECTION
2
OBJECTS
0
DICTIONARY
5
13
330
0
100
AcDbDictionary
281
1
3
ACAD_COLOR
350
FA7
3
ACAD_GROUP
350
14
3
ACAD_LAYOUT
350
FCF
3
ACAD_MATERIAL
350
F7A
3
ACAD_MLEADERSTYLE
350
FCD
3
ACAD_MLINESTYLE
350
16
3
ACAD_PLOTSETTINGS
350
17
3
ACAD_PLOTSTYLENAME
350
18
3
ACAD_SCALELIST
350
FAB
3
ACAD_TABLESTYLE
350
FA8
3
ACAD_VISUALSTYLE
350
F93
3
ACDB_RECOMPOSE_DATA
350
107E
3
AcDbVariableDictionary
350
FF0
3
DWGPROPS
350
107F
0
DICTIONARY
5
F10005
330
F10004
100
AcDbDictionary
280
1
281
1
3
ACAD_MTEXT_2008_RT
360
F10006
0
DICTIONARY
5
F1000F
330
F1000E
100
AcDbDictionary
280
1
281
1
3
ACAD_MTEXT_2008_RT
360
F10010
0
DICTIONARY
5
F10019
330
F10018
100
AcDbDictionary
280
1
281
1
3
ACAD_MTEXT_2008_RT
360
F1001A
0
DICTIONARY
5
F1001E
330
F1001D
100
AcDbDictionary
280
1
281
1
3
ACAD_MTEXT_2008_RT
360
F1001F
0
DICTIONARY
5
F10023
330
F10022
100
AcDbDictionary
280
1
281
1
3
ACAD_MTEXT_2008_RT
360
F10024
0
DICTIONARY
5
F1000A
330
F10009
100
AcDbDictionary
280
1
281
1
3
ACAD_MTEXT_2008_RT
360
F1000B
0
DICTIONARY
5
F10014
330
F10013
100
AcDbDictionary
280
1
281
1
3
ACAD_MTEXT_2008_RT
360
F10015
0
DICTIONARY
5
F10028
330
F10027
100
AcDbDictionary
280
1
281
1
3
ACAD_MTEXT_2008_RT
360
F10029
0
DICTIONARY
5
FA7
102
{ACAD_REACTORS
330
13
102
}
330
13
100
AcDbDictionary
281
1
0
DICTIONARY
5
14
330
13
100
AcDbDictionary
281
1
0
DICTIONARY
5
FCF
102
{ACAD_REACTORS
330
13
102
}
330
13
100
AcDbDictionary
281
1
3
Layout1
350
FD1
3
Model
350
FD0
0
DICTIONARY
5
F7A
102
{ACAD_REACTORS
330
13
102
}
330
13
100
AcDbDictionary
281
1
3
ByBlock
350
F83
3
ByLayer
350
F7B
3
Global
350
F8B
0
DICTIONARY
5
FCD
102
{ACAD_REACTORS
330
13
102
}
330
13
100
AcDbDictionary
281
1
3
Standard
350
FCE
0
DICTIONARY
5
16
330
13
100
AcDbDictionary
281
1
3
Standard
350
FAA
0
DICTIONARY
5
17
102
{ACAD_REACTORS
330
13
102
}
330
13
100
AcDbDictionary
281
1
0
ACDBDICTIONARYWDFLT
5
18
102
{ACAD_REACTORS
330
13
102
}
330
13
100
AcDbDictionary
281
1
3
Normal
350
19
100
AcDbDictionaryWithDefault
340
19
0
DICTIONARY
5
FAB
102
{ACAD_REACTORS
330
13
102
}
330
13
100
AcDbDictionary
281
1
3
A0
350
FAC
3
A1
350
FAD
3
A2
350
FAE
3
A3
350
FAF
3
A4
350
FB0
3
A5
350
FB1
3
A6
350
FB2
3
A7
350
FB3
3
A8
350
FB4
3
A9
350
FB5
3
B0
350
FB6
3
B1
350
FB7
3
B2
350
FB8
3
B3
350
FB9
3
B4
350
FBA
3
B5
350
FBB
3
B6
350
FBC
3
B7
350
FBD
3
B8
350
FBE
3
B9
350
FBF
3
C0
350
FC0
3
C1
350
FC1
3
C2
350
FC2
3
C3
350
FC3
3
C4
350
FC4
3
C5
350
FC5
3
C6
350
FC6
3
C7
350
FC7
3
C8
350
FC8
3
C9
350
FC9
3
D0
350
FCA
3
D1
350
FCB
3
D2
350
FCC
0
DICTIONARY
5
FA8
102
{ACAD_REACTORS
330
13
102
}
330
13
100
AcDbDictionary
281
1
3
Standard
350
FA9
0
DICTIONARY
5
F93
102
{ACAD_REACTORS
330
13
102
}
330
13
100
AcDbDictionary
281
1
3
2dWireframe
350
F99
3
3D Hidden
350
F9B
3
3dWireframe
350
F9A
3
Basic
350
F98
3
Brighten
350
F9F
3
ColorChange
350
FA3
3
Conceptual
350
F9C
3
Dim
350
F9E
3
EdgeColorOff
350
FA6
3
Facepattern
350
FA2
3
Flat
350
F94
3
FlatWithEdges
350
F95
3
Gouraud
350
F96
3
GouraudWithEdges
350
F97
3
JitterOff
350
FA4
3
Linepattern
350
FA1
3
OverhangOff
350
FA5
3
Realistic
350
F9D
3
Thicken
350
FA0
0
XRECORD
5
107E
102
{ACAD_REACTORS
330
13
102
}
330
13
100
AcDbXrecord
280
1
90
1
330
FA9
330
F10004
330
F1000E
330
F10018
330
F1001D
330
F10022
330
F10009
330
F10013
330
F10027
0
DICTIONARY
5
FF0
102
{ACAD_REACTORS
330
13
102
}
330
13
100
AcDbDictionary
281
1
3
CANNOSCALE
350
FF3
3
CMLEADERSTYLE
350
FF2
3
CTABLESTYLE
350
FF1
3
DIMASSOC
350
FF6
3
INDEXCTL
350
FF5
3
SORTENTS
350
FF4
3
XCLIPFRAME
350
1078
0
XRECORD
5
107F
102
{ACAD_REACTORS
330
13
102
}
330
13
100
AcDbXrecord
280
1
1
DWGPROPS COOKIE
2

3

4

6

7

8

9

300
=
301
=
302
=
303
=
304
=
305
=
306
=
307
=
308
=
309
=
40
0.0
41
0.0
42
0.0
1

90
0
0
XRECORD
5
F10006
102
{ACAD_REACTORS
330
F10005
102
}
330
F10005
100
AcDbXrecord
280
1
40
48458.0
1
0.1 x 45°
0
XRECORD
5
F10010
102
{ACAD_REACTORS
330
F1000F
102
}
330
F1000F
100
AcDbXrecord
280
1
40
48458.0
1
25
0
XRECORD
5
F1001A
102
{ACAD_REACTORS
330
F10019
102
}
330
F10019
100
AcDbXrecord
280
1
40
48458.0
1
62
0
XRECORD
5
F1001F
102
{ACAD_REACTORS
330
F1001E
102
}
330
F1001E
100
AcDbXrecord
280
1
40
48458.0
1
62.6
0
XRECORD
5
F10024
102
{ACAD_REACTORS
330
F10023
102
}
330
F10023
100
AcDbXrecord
280
1
40
48458.0
1
100
0
XRECORD
5
F1000B
102
{ACAD_REACTORS
330
F1000A
102
}
330
F1000A
100
AcDbXrecord
280
1
40
48458.0
1
Ø10
0
XRECORD
5
F10015
102
{ACAD_REACTORS
330
F10014
102
}
330
F10014
100
AcDbXrecord
280
1
40
48458.0
1
Ø9.4
0
XRECORD
5
F10029
102
{ACAD_REACTORS
330
F10028
102
}
330
F10028
100
AcDbXrecord
280
1
40
48458.0
1
Ø10
0
LAYOUT
5
FD1
102
{ACAD_XDICTIONARY
360
10A9
102
}
102
{ACAD_REACTORS
330
FCF
102
}
330
FCF
100
AcDbPlotSettings
1

2
Microsoft XPS Document Writer
4

6

40
0.0
41
0.0
42
0.0
43
0.0
44
0.0
45
0.0
46
0.0
47
0.0
48
0.0
49
0.0
140
0.0
141
0.0
142
1.0
143
1.0
70
688
72
0
73
0
74
5
7

75
16
147
1.0
148
0.0
149
0.0
100
AcDbLayout
1
Layout1
70
1
71
1
10
0.0
20
0.0
11
12.0
21
9.0
12
0.0
22
0.0
32
0.0
14
1.000000000000000E+20
24
1.000000000000000E+20
34
1.000000000000000E+20
15
-1.000000000000000E+20
25
-1.000000000000000E+20
35
-1.000000000000000E+20
146
0.0
13
0.0
23
0.0
33
0.0
16
1.0
26
0.0
36
0.0
17
0.0
27
1.0
37
0.0
76
0
330
25D
0
LAYOUT
5
FD0
102
{ACAD_XDICTIONARY
360
10A7
102
}
102
{ACAD_REACTORS
330
FCF
102
}
330
FCF
100
AcDbPlotSettings
1

2
Microsoft XPS Document Writer
4

6

40
0.0
41
0.0
42
0.0
43
0.0
44
0.0
45
0.0
46
0.0
47
0.0
48
0.0
49
0.0
140
0.0
141
0.0
142
1.0
143
1.0
70
1712
72
0
73
0
74
0
7

75
0
147
1.0
148
0.0
149
0.0
100
AcDbLayout
1
Model
70
1
71
0
10
0.0
20
0.0
11
12.0
21
9.0
12
0.0
22
0.0
32
0.0
14
0.0
24
0.0
34
0.0
15
0.0
25
0.0
35
0.0
146
0.0
13
0.0
23
0.0
33
0.0
16
1.0
26
0.0
36
0.0
17
0.0
27
1.0
37
0.0
76
0
330
261
331
26B
0
MATERIAL
5
F83
102
{ACAD_XDICTIONARY
360
F84
102
}
102
{ACAD_REACTORS
330
F7A
102
}
330
F7A
100
AcDbMaterial
1
ByBlock
72
0
43
0.0208333333333333
43
0.0
43
0.0
43
0.0
43
0.0
43
0.0208333333333333
43
0.0
43
0.0
43
0.0
43
0.0
43
1.0
43
0.0
43
0.0
43
0.0
43
0.0
43
1.0
77
0
47
0.0208333333333333
47
0.0
47
0.0
47
0.0
47
0.0
47
0.0208333333333333
47
0.0
47
0.0
47
0.0
47
0.0
47
1.0
47
0.0
47
0.0
47
0.0
47
0.0
47
1.0
171
0
49
0.0208333333333333
49
0.0
49
0.0
49
0.0
49
0.0
49
0.0208333333333333
49
0.0
49
0.0
49
0.0
49
0.0
49
1.0
49
0.0
49
0.0
49
0.0
49
0.0
49
1.0
175
0
142
0.0208333333333333
142
0.0
142
0.0
142
0.0
142
0.0
142
0.0208333333333333
142
0.0
142
0.0
142
0.0
142
0.0
142
1.0
142
0.0
142
0.0
142
0.0
142
0.0
142
1.0
179
0
144
0.0208333333333333
144
0.0
144
0.0
144
0.0
144
0.0
144
0.0208333333333333
144
0.0
144
0.0
144
0.0
144
0.0
144
1.0
144
0.0
144
0.0
144
0.0
144
0.0
144
1.0
147
0.0208333333333333
147
0.0
147
0.0
147
0.0
147
0.0
147
0.0208333333333333
147
0.0
147
0.0
147
0.0
147
0.0
147
1.0
147
0.0
147
0.0
147
0.0
147
0.0
147
1.0
0
MATERIAL
5
F7B
102
{ACAD_XDICTIONARY
360
F7C
102
}
102
{ACAD_REACTORS
330
F7A
102
}
330
F7A
100
AcDbMaterial
1
ByLayer
72
0
43
0.0208333333333333
43
0.0
43
0.0
43
0.0
43
0.0
43
0.0208333333333333
43
0.0
43
0.0
43
0.0
43
0.0
43
1.0
43
0.0
43
0.0
43
0.0
43
0.0
43
1.0
77
0
47
0.0208333333333333
47
0.0
47
0.0
47
0.0
47
0.0
47
0.0208333333333333
47
0.0
47
0.0
47
0.0
47
0.0
47
1.0
47
0.0
47
0.0
47
0.0
47
0.0
47
1.0
171
0
49
0.0208333333333333
49
0.0
49
0.0
49
0.0
49
0.0
49
0.0208333333333333
49
0.0
49
0.0
49
0.0
49
0.0
49
1.0
49
0.0
49
0.0
49
0.0
49
0.0
49
1.0
175
0
142
0.0208333333333333
142
0.0
142
0.0
142
0.0
142
0.0
142
0.0208333333333333
142
0.0
142
0.0
142
0.0
142
0.0
142
1.0
142
0.0
142
0.0
142
0.0
142
0.0
142
1.0
179
0
144
0.0208333333333333
144
0.0
144
0.0
144
0.0
144
0.0
144
0.0208333333333333
144
0.0
144
0.0
144
0.0
144
0.0
144
1.0
144
0.0
144
0.0
144
0.0
144
0.0
144
1.0
147
0.0208333333333333
147
0.0
147
0.0
147
0.0
147
0.0
147
0.0208333333333333
147
0.0
147
0.0
147
0.0
147
0.0
147
1.0
147
0.0
147
0.0
147
0.0
147
0.0
147
1.0
0
MATERIAL
5
F8B
102
{ACAD_XDICTIONARY
360
F8C
102
}
102
{ACAD_REACTORS
330
F7A
102
}
330
F7A
100
AcDbMaterial
1
Global
72
0
43
0.0208333333333333
43
0.0
43
0.0
43
0.0
43
0.0
43
0.0208333333333333
43
0.0
43
0.0
43
0.0
43
0.0
43
1.0
43
0.0
43
0.0
43
0.0
43
0.0
43
1.0
77
0
47
0.0208333333333333
47
0.0
47
0.0
47
0.0
47
0.0
47
0.0208333333333333
47
0.0
47
0.0
47
0.0
47
0.0
47
1.0
47
0.0
47
0.0
47
0.0
47
0.0
47
1.0
171
0
49
0.0208333333333333
49
0.0
49
0.0
49
0.0
49
0.0
49
0.0208333333333333
49
0.0
49
0.0
49
0.0
49
0.0
49
1.0
49
0.0
49
0.0
49
0.0
49
0.0
49
1.0
175
0
142
0.0208333333333333
142
0.0
142
0.0
142
0.0
142
0.0
142
0.0208333333333333
142
0.0
142
0.0
142
0.0
142
0.0
142
1.0
142
0.0
142
0.0
142
0.0
142
0.0
142
1.0
179
0
144
0.0208333333333333
144
0.0
144
0.0
144
0.0
144
0.0
144
0.0208333333333333
144
0.0
144
0.0
144
0.0
144
0.0
144
1.0
144
0.0
144
0.0
144
0.0
144
0.0
144
1.0
147
0.0208333333333333
147
0.0
147
0.0
147
0.0
147
0.0
147
0.0208333333333333
147
0.0
147
0.0
147
0.0
147
0.0
147
1.0
147
0.0
147
0.0
147
0.0
147
0.0
147
1.0
0
MLEADERSTYLE
5
FCE
102
{ACAD_REACTORS
330
FCD
102
}
330
FCD
100
AcDbMLeaderStyle
170
2
171
1
172
0
90
2
40
0.0
41
0.0
173
1
91
-1056964608
340
256
92
-2
290
1
42
0.09
291
1
43
0.36
3
Standard
44
0.18
300

342
253
174
1
178
6
175
1
176
0
93
-1056964608
45
0.18
292
0
297
0
46
0.18
94
-1056964608
47
1.0
49
1.0
140
1.0
293
1
141
0.0
294
1
177
0
142
1.0
295
0
296
0
143
0.125
1001
ACAD_MLEADERVER
1070
2
0
MLINESTYLE
5
FAA
102
{ACAD_REACTORS
330
16
102
}
330
16
100
AcDbMlineStyle
2
STANDARD
70
0
3

62
256
51
90.0
52
90.0
71
2
49
0.5
62
256
6
BYLAYER
49
-0.5
62
256
6
BYLAYER
0
ACDBPLACEHOLDER
5
19
102
{ACAD_REACTORS
330
18
102
}
330
18
0
SCALE
5
FAC
102
{ACAD_REACTORS
330
FAB
102
}
330
FAB
100
AcDbScale
70
0
300
1:1
140
1.0
141
1.0
290
1
0
SCALE
5
FAD
102
{ACAD_REACTORS
330
FAB
102
}
330
FAB
100
AcDbScale
70
0
300
1:2
140
1.0
141
2.0
290
0
0
SCALE
5
FAE
102
{ACAD_REACTORS
330
FAB
102
}
330
FAB
100
AcDbScale
70
0
300
1:4
140
1.0
141
4.0
290
0
0
SCALE
5
FAF
102
{ACAD_REACTORS
330
FAB
102
}
330
FAB
100
AcDbScale
70
0
300
1:5
140
1.0
141
5.0
290
0
0
SCALE
5
FB0
102
{ACAD_REACTORS
330
FAB
102
}
330
FAB
100
AcDbScale
70
0
300
1:8
140
1.0
141
8.0
290
0
0
SCALE
5
FB1
102
{ACAD_REACTORS
330
FAB
102
}
330
FAB
100
AcDbScale
70
0
300
1:10
140
1.0
141
10.0
290
0
0
SCALE
5
FB2
102
{ACAD_REACTORS
330
FAB
102
}
330
FAB
100
AcDbScale
70
0
300
1:16
140
1.0
141
16.0
290
0
0
SCALE
5
FB3
102
{ACAD_REACTORS
330
FAB
102
}
330
FAB
100
AcDbScale
70
0
300
1:20
140
1.0
141
20.0
290
0
0
SCALE
5
FB4
102
{ACAD_REACTORS
330
FAB
102
}
330
FAB
100
AcDbScale
70
0
300
1:30
140
1.0
141
30.0
290
0
0
SCALE
5
FB5
102
{ACAD_REACTORS
330
FAB
102
}
330
FAB
100
AcDbScale
70
0
300
1:40
140
1.0
141
40.0
290
0
0
SCALE
5
FB6
102
{ACAD_REACTORS
330
FAB
102
}
330
FAB
100
AcDbScale
70
0
300
1:50
140
1.0
141
50.0
290
0
0
SCALE
5
FB7
102
{ACAD_REACTORS
330
FAB
102
}
330
FAB
100
AcDbScale
70
0
300
1:100
140
1.0
141
100.0
290
0
0
SCALE
5
FB8
102
{ACAD_REACTORS
330
FAB
102
}
330
FAB
100
AcDbScale
70
0
300
2:1
140
2.0
141
1.0
290
0
0
SCALE
5
FB9
102
{ACAD_REACTORS
330
FAB
102
}
330
FAB
100
AcDbScale
70
0
300
4:1
140
4.0
141
1.0
290
0
0
SCALE
5
FBA
102
{ACAD_REACTORS
330
FAB
102
}
330
FAB
100
AcDbScale
70
0
300
8:1
140
8.0
141
1.0
290
0
0
SCALE
5
FBB
102
{ACAD_REACTORS
330
FAB
102
}
330
FAB
100
AcDbScale
70
0
300
10:1
140
10.0
141
1.0
290
0
0
SCALE
5
FBC
102
{ACAD_REACTORS
330
FAB
102
}
330
FAB
100
AcDbScale
70
0
300
100:1
140
100.0
141
1.0
290
0
0
SCALE
5
FBD
102
{ACAD_REACTORS
330
FAB
102
}
330
FAB
100
AcDbScale
70
0
300
1/128" = 1'-0"
140
0.0078125
141
12.0
290
0
0
SCALE
5
FBE
102
{ACAD_REACTORS
330
FAB
102
}
330
FAB
100
AcDbScale
70
0
300
1/64" = 1'-0"
140
0.015625
141
12.0
290
0
0
SCALE
5
FBF
102
{ACAD_REACTORS
330
FAB
102
}
330
FAB
100
AcDbScale
70
0
300
1/32" = 1'-0"
140
0.03125
141
12.0
290
0
0
SCALE
5
FC0
102
{ACAD_REACTORS
330
FAB
102
}
330
FAB
100
AcDbScale
70
0
300
1/16" = 1'-0"
140
0.0625
141
12.0
290
0
0
SCALE
5
FC1
102
{ACAD_REACTORS
330
FAB
102
}
330
FAB
100
AcDbScale
70
0
300
3/32" = 1'-0"
140
0.09375
141
12.0
290
0
0
SCALE
5
FC2
102
{ACAD_REACTORS
330
FAB
102
}
330
FAB
100
AcDbScale
70
0
300
1/8" = 1'-0"
140
0.125
141
12.0
290
0
0
SCALE
5
FC3
102
{ACAD_REACTORS
330
FAB
102
}
330
FAB
100
AcDbScale
70
0
300
3/16" = 1'-0"
140
0.1875
141
12.0
290
0
0
SCALE
5
FC4
102
{ACAD_REACTORS
330
FAB
102
}
330
FAB
100
AcDbScale
70
0
300
1/4" = 1'-0"
140
0.25
141
12.0
290
0
0
SCALE
5
FC5
102
{ACAD_REACTORS
330
FAB
102
}
330
FAB
100
AcDbScale
70
0
300
3/8" = 1'-0"
140
0.375
141
12.0
290
0
0
SCALE
5
FC6
102
{ACAD_REACTORS
330
FAB
102
}
330
FAB
100
AcDbScale
70
0
300
1/2" = 1'-0"
140
0.5
141
12.0
290
0
0
SCALE
5
FC7
102
{ACAD_REACTORS
330
FAB
102
}
330
FAB
100
AcDbScale
70
0
300
3/4" = 1'-0"
140
0.75
141
12.0
290
0
0
SCALE
5
FC8
102
{ACAD_REACTORS
330
FAB
102
}
330
FAB
100
AcDbScale
70
0
300
1" = 1'-0"
140
1.0
141
12.0
290
0
0
SCALE
5
FC9
102
{ACAD_REACTORS
330
FAB
102
}
330
FAB
100
AcDbScale
70
0
300
1-1/2" = 1'-0"
140
1.5
141
12.0
290
0
0
SCALE
5
FCA
102
{ACAD_REACTORS
330
FAB
102
}
330
FAB
100
AcDbScale
70
0
300
3" = 1'-0"
140
3.0
141
12.0
290
0
0
SCALE
5
FCB
102
{ACAD_REACTORS
330
FAB
102
}
330
FAB
100
AcDbScale
70
0
300
6" = 1'-0"
140
6.0
141
12.0
290
0
0
SCALE
5
FCC
102
{ACAD_REACTORS
330
FAB
102
}
330
FAB
100
AcDbScale
70
0
300
1'-0" = 1'-0"
140
12.0
141
12.0
290
0
0
TABLESTYLE
5
FA9
102
{ACAD_XDICTIONARY
360
FF8
102
}
102
{ACAD_REACTORS
330
FA8
102
}
330
FA8
100
AcDbTableStyle
3
Standard
70
0
71
0
40
0.06
41
0.06
280
0
281
0
7
Standard
140
0.18
170
2
62
0
63
7
283
0
274
-2
284
1
64
0
275
-2
285
1
65
0
276
-2
286
1
66
0
277
-2
287
1
67
0
278
-2
288
1
68
0
279
-2
289
1
69
0
7
Standard
140
0.25
170
5
62
0
63
7
283
0
274
-2
284
1
64
0
275
-2
285
1
65
0
276
-2
286
1
66
0
277
-2
287
1
67
0
278
-2
288
1
68
0
279
-2
289
1
69
0
7
Standard
140
0.18
170
5
62
0
63
7
283
0
274
-2
284
1
64
0
275
-2
285
1
65
0
276
-2
286
1
66
0
277
-2
287
1
67
0
278
-2
288
1
68
0
279
-2
289
1
69
0
0
VISUALSTYLE
5
F99
102
{ACAD_XDICTIONARY
360
108A
102
}
102
{ACAD_REACTORS
330
F93
102
}
330
F93
100
AcDbVisualStyle
2

70
4
71
0
72
2
73
0
90
0
40
-0.6
41
-30.0
62
5
63
7
74
1
91
4
64
7
65
257
75
1
175
1
42
1.0
92
0
66
257
43
1.0
76
1
77
6
78
2
67
7
79
5
170
0
171
0
290
0
174
0
93
1
44
0.0
173
0
291
0
45
0.0
1001
ACAD
1000
AcDbSavedByObjectVersion
1070
0
0
VISUALSTYLE
5
F9B
102
{ACAD_XDICTIONARY
360
108E
102
}
102
{ACAD_REACTORS
330
F93
102
}
330
F93
100
AcDbVisualStyle
2

70
6
71
1
72
2
73
2
90
0
40
-0.6
41
-30.0
62
5
63
7
74
2
91
2
64
7
65
257
75
2
175
1
42
179.0
92
0
66
257
43
1.0
76
1
77
6
78
2
67
7
79
3
170
0
171
0
290
0
174
0
93
1
44
0.0
173
0
291
0
45
0.0
1001
ACAD
1000
AcDbSavedByObjectVersion
1070
0
0
VISUALSTYLE
5
F9A
102
{ACAD_XDICTIONARY
360
108C
102
}
102
{ACAD_REACTORS
330
F93
102
}
330
F93
100
AcDbVisualStyle
2

70
5
71
0
72
2
73
0
90
0
40
-0.6
41
-30.0
62
5
63
7
74
1
91
4
64
7
65
257
75
1
175
1
42
1.0
92
0
66
257
43
1.0
76
1
77
6
78
2
67
7
79
5
170
0
171
0
290
0
174
0
93
1
44
0.0
173
0
291
0
45
0.0
1001
ACAD
1000
AcDbSavedByObjectVersion
1070
0
0
VISUALSTYLE
5
F98
102
{ACAD_XDICTIONARY
360
1088
102
}
102
{ACAD_REACTORS
330
F93
102
}
330
F93
100
AcDbVisualStyle
2

70
7
71
1
72
0
73
1
90
0
40
-0.6
41
-30.0
62
5
63
7
74
0
91
4
64
7
65
257
75
1
175
1
42
1.0
92
8
66
7
43
1.0
76
1
77
6
78
2
67
7
79
5
170
0
171
0
290
0
174
0
93
1
44
0.0
173
0
291
1
45
0.0
1001
ACAD
1000
AcDbSavedByObjectVersion
1070
0
0
VISUALSTYLE
5
F9F
102
{ACAD_XDICTIONARY
360
1096
102
}
102
{ACAD_REACTORS
330
F93
102
}
330
F93
100
AcDbVisualStyle
2

70
12
71
2
72
2
73
0
90
0
40
-0.6
41
-30.0
62
5
63
7
74
1
91
4
64
7
65
257
75
1
175
1
42
1.0
92
8
66
7
43
1.0
76
1
77
6
78
2
67
7
79
5
170
0
171
0
290
0
174
0
93
1
44
50.0
173
0
291
1
45
0.0
1001
ACAD
1000
AcDbSavedByObjectVersion
1070
0
0
VISUALSTYLE
5
FA3
102
{ACAD_XDICTIONARY
360
109E
102
}
102
{ACAD_REACTORS
330
F93
102
}
330
F93
100
AcDbVisualStyle
2

70
16
71
2
72
2
73
3
90
0
40
-0.6
41
-30.0
62
5
63
8
74
1
91
4
64
7
65
257
75
1
175
1
42
1.0
92
8
66
8
43
1.0
76
1
77
6
78
2
67
7
79
5
170
0
171
0
290
0
174
0
93
1
44
0.0
173
0
291
1
45
0.0
1001
ACAD
1000
AcDbSavedByObjectVersion
1070
0
0
VISUALSTYLE
5
F9C
102
{ACAD_XDICTIONARY
360
1090
102
}
102
{ACAD_REACTORS
330
F93
102
}
330
F93
100
AcDbVisualStyle
2

70
9
71
3
72
2
73
0
90
0
40
-0.6
41
-30.0
62
5
63
7
74
2
91
2
64
7
65
257
75
1
175
1
42
179.0
92
8
66
7
43
1.0
76
1
77
6
78
2
67
7
79
3
170
0
171
0
290
0
174
0
93
1
44
0.0
173
0
291
0
45
0.0
1001
ACAD
1000
AcDbSavedByObjectVersion
1070
0
0
VISUALSTYLE
5
F9E
102
{ACAD_XDICTIONARY
360
1094
102
}
102
{ACAD_REACTORS
330
F93
102
}
330
F93
100
AcDbVisualStyle
2

70
11
71
2
72
2
73
0
90
0
40
-0.6
41
-30.0
62
5
63
7
74
1
91
4
64
7
65
257
75
1
175
1
42
1.0
92
8
66
7
43
1.0
76
1
77
6
78
2
67
7
79
5
170
0
171
0
290
0
174
0
93
1
44
-50.0
173
0
291
1
45
0.0
1001
ACAD
1000
AcDbSavedByObjectVersion
1070
0
0
VISUALSTYLE
5
FA6
102
{ACAD_XDICTIONARY
360
10A4
102
}
102
{ACAD_REACTORS
330
F93
102
}
330
F93
100
AcDbVisualStyle
2

70
22
71
2
72
2
73
0
90
0
40
-0.6
41
-30.0
62
5
63
7
74
1
91
4
64
7
65
257
75
1
175
1
42
1.0
92
8
66
7
43
1.0
76
1
77
6
78
2
67
7
79
5
170
0
171
0
290
0
174
0
93
1
44
0.0
173
0
291
1
45
0.0
1001
ACAD
1000
AcDbSavedByObjectVersion
1070
0
0
VISUALSTYLE
5
FA2
102
{ACAD_XDICTIONARY
360
109C
102
}
102
{ACAD_REACTORS
330
F93
102
}
330
F93
100
AcDbVisualStyle
2

70
15
71
2
72
2
73
0
90
0
40
-0.6
41
-30.0
62
5
63
7
74
1
91
4
64
7
65
257
75
1
175
1
42
1.0
92
8
66
7
43
1.0
76
1
77
6
78
2
67
7
79
5
170
0
171
0
290
0
174
0
93
1
44
0.0
173
0
291
1
45
0.0
1001
ACAD
1000
AcDbSavedByObjectVersion
1070
0
0
VISUALSTYLE
5
F94
102
{ACAD_XDICTIONARY
360
1080
102
}
102
{ACAD_REACTORS
330
F93
102
}
330
F93
100
AcDbVisualStyle
2

70
0
71
2
72
1
73
1
90
2
40
-0.6
41
30.0
62
5
63
7
74
0
91
4
64
7
65
257
75
1
175
1
42
1.0
92
8
66
7
43
1.0
76
1
77
6
78
2
67
7
79
5
170
0
171
0
290
0
174
0
93
13
44
0.0
173
0
291
1
45
0.0
1001
ACAD
1000
AcDbSavedByObjectVersion
1070
0
0
VISUALSTYLE
5
F95
102
{ACAD_XDICTIONARY
360
1082
102
}
102
{ACAD_REACTORS
330
F93
102
}
330
F93
100
AcDbVisualStyle
2

70
1
71
2
72
1
73
1
90
2
40
-0.6
41
30.0
62
5
63
7
74
1
91
4
64
7
65
257
75
1
175
1
42
1.0
92
0
66
257
43
1.0
76
1
77
6
78
2
67
7
79
5
170
0
171
0
290
0
174
0
93
13
44
0.0
173
0
291
1
45
0.0
1001
ACAD
1000
AcDbSavedByObjectVersion
1070
0
0
VISUALSTYLE
5
F96
102
{ACAD_XDICTIONARY
360
1084
102
}
102
{ACAD_REACTORS
330
F93
102
}
330
F93
100
AcDbVisualStyle
2

70
2
71
2
72
2
73
1
90
2
40
-0.6
41
30.0
62
5
63
7
74
0
91
4
64
7
65
257
75
1
175
1
42
1.0
92
0
66
7
43
1.0
76
1
77
6
78
2
67
7
79
5
170
0
171
0
290
0
174
0
93
13
44
0.0
173
0
291
1
45
0.0
1001
ACAD
1000
AcDbSavedByObjectVersion
1070
0
0
VISUALSTYLE
5
F97
102
{ACAD_XDICTIONARY
360
1086
102
}
102
{ACAD_REACTORS
330
F93
102
}
330
F93
100
AcDbVisualStyle
2

70
3
71
2
72
2
73
1
90
2
40
-0.6
41
30.0
62
5
63
7
74
1
91
4
64
7
65
257
75
1
175
1
42
1.0
92
0
66
257
43
1.0
76
1
77
6
78
2
67
7
79
5
170
0
171
0
290
0
174
0
93
13
44
0.0
173
0
291
1
45
0.0
1001
ACAD
1000
AcDbSavedByObjectVersion
1070
0
0
VISUALSTYLE
5
FA4
102
{ACAD_XDICTIONARY
360
10A0
102
}
102
{ACAD_REACTORS
330
F93
102
}
330
F93
100
AcDbVisualStyle
2

70
20
71
2
72
2
73
0
90
0
40
-0.6
41
-30.0
62
5
63
7
74
1
91
4
64
7
65
257
75
1
175
1
42
1.0
92
10
66
7
43
1.0
76
1
77
6
78
2
67
7
79
5
170
0
171
0
290
0
174
0
93
1
44
0.0
173
0
291
1
45
0.0
1001
ACAD
1000
AcDbSavedByObjectVersion
1070
0
0
VISUALSTYLE
5
FA1
102
{ACAD_XDICTIONARY
360
109A
102
}
102
{ACAD_REACTORS
330
F93
102
}
330
F93
100
AcDbVisualStyle
2

70
14
71
2
72
2
73
0
90
0
40
-0.6
41
-30.0
62
5
63
7
74
1
91
4
64
7
65
257
75
7
175
7
42
1.0
92
8
66
7
43
1.0
76
1
77
6
78
2
67
7
79
5
170
0
171
0
290
0
174
0
93
1
44
0.0
173
0
291
1
45
0.0
1001
ACAD
1000
AcDbSavedByObjectVersion
1070
0
0
VISUALSTYLE
5
FA5
102
{ACAD_XDICTIONARY
360
10A2
102
}
102
{ACAD_REACTORS
330
F93
102
}
330
F93
100
AcDbVisualStyle
2

70
21
71
2
72
2
73
0
90
0
40
-0.6
41
-30.0
62
5
63
7
74
1
91
4
64
7
65
257
75
1
175
1
42
1.0
92
9
66
7
43
1.0
76
1
77
6
78
2
67
7
79
5
170
0
171
0
290
0
174
0
93
1
44
0.0
173
0
291
1
45
0.0
1001
ACAD
1000
AcDbSavedByObjectVersion
1070
0
0
VISUALSTYLE
5
F9D
102
{ACAD_XDICTIONARY
360
1092
102
}
102
{ACAD_REACTORS
330
F93
102
}
330
F93
100
AcDbVisualStyle
2

70
8
71
2
72
2
73
0
90
0
40
-0.6
41
-30.0
62
5
63
7
74
1
91
0
64
7
65
257
75
1
175
1
42
1.0
92
8
66
8
43
1.0
76
1
77
6
78
2
67
7
79
5
170
0
171
0
290
0
174
0
93
13
44
0.0
173
0
291
0
45
0.0
1001
ACAD
1000
AcDbSavedByObjectVersion
1070
0
0
VISUALSTYLE
5
FA0
102
{ACAD_XDICTIONARY
360
1098
102
}
102
{ACAD_REACTORS
330
F93
102
}
330
F93
100
AcDbVisualStyle
2

70
13
71
2
72
2
73
0
90
0
40
-0.6
41
-30.0
62
5
63
7
74
1
91
4
64
7
65
257
75
1
175
1
42
1.0
92
12
66
7
43
1.0
76
1
77
6
78
2
67
7
79
5
170
0
171
0
290
0
174
0
93
1
44
0.0
173
0
291
1
45
0.0
1001
ACAD
1000
AcDbSavedByObjectVersion
1070
0
0
DICTIONARYVAR
5
FF3
102
{ACAD_REACTORS
330
FF0
102
}
330
FF0
100
DictionaryVariables
280
0
1
1:1
0
DICTIONARYVAR
5
FF2
102
{ACAD_REACTORS
330
FF0
102
}
330
FF0
100
DictionaryVariables
280
0
1
STANDARD
0
DICTIONARYVAR
5
FF1
102
{ACAD_REACTORS
330
FF0
102
}
330
FF0
100
DictionaryVariables
280
0
1
STANDARD
0
DICTIONARYVAR
5
FF6
102
{ACAD_REACTORS
330
FF0
102
}
330
FF0
100
DictionaryVariables
280
0
1
1
0
DICTIONARYVAR
5
FF5
102
{ACAD_REACTORS
330
FF0
102
}
330
FF0
100
DictionaryVariables
280
0
1
0
0
DICTIONARYVAR
5
FF4
102
{ACAD_REACTORS
330
FF0
102
}
330
FF0
100
DictionaryVariables
280
0
1
127
0
DICTIONARYVAR
5
1078
102
{ACAD_REACTORS
330
FF0
102
}
330
FF0
100
DictionaryVariables
280
0
1
2
0
DICTIONARY
5
10A9
330
FD1
100
AcDbDictionary
280
1
281
1
3
ACAD_XREC_ROUNDTRIP
360
10AA
0
DICTIONARY
5
10A7
330
FD0
100
AcDbDictionary
280
1
281
1
3
ACAD_XREC_ROUNDTRIP
360
10A8
0
DICTIONARY
5
F84
330
F83
100
AcDbDictionary
280
1
281
1
3
ACAD_XREC_ROUNDTRIP
360
FFF
3
BUMPTILE
360
F86
3
DIFFUSETILE
360
F85
3
OPACITYTILE
360
F89
3
REFLECTIONTILE
360
F88
3
REFRACTIONTILE
360
F8A
3
SPECULARTILE
360
F87
0
DICTIONARY
5
F7C
330
F7B
100
AcDbDictionary
280
1
281
1
3
ACAD_XREC_ROUNDTRIP
360
FFE
3
BUMPTILE
360
F7E
3
DIFFUSETILE
360
F7D
3
OPACITYTILE
360
F81
3
REFLECTIONTILE
360
F80
3
REFRACTIONTILE
360
F82
3
SPECULARTILE
360
F7F
0
DICTIONARY
5
F8C
330
F8B
100
AcDbDictionary
280
1
281
1
3
ACAD_XREC_ROUNDTRIP
360
1000
3
BUMPTILE
360
F8E
3
DIFFUSETILE
360
F8D
3
OPACITYTILE
360
F91
3
REFLECTIONTILE
360
F90
3
REFRACTIONTILE
360
F92
3
SPECULARTILE
360
F8F
0
DICTIONARY
5
FF8
330
FA9
100
AcDbDictionary
280
1
281
1
3
ACAD_ROUNDTRIP_2008_TABLESTYLE_CELLSTYLEMAP
360
1079
3
ACAD_XREC_ROUNDTRIP
360
10A6
0
DICTIONARY
5
108A
330
F99
100
AcDbDictionary
280
1
281
1
3
ACAD_XREC_ROUNDTRIP
360
108B
0
DICTIONARY
5
108E
330
F9B
100
AcDbDictionary
280
1
281
1
3
ACAD_XREC_ROUNDTRIP
360
108F
0
DICTIONARY
5
108C
330
F9A
100
AcDbDictionary
280
1
281
1
3
ACAD_XREC_ROUNDTRIP
360
108D
0
DICTIONARY
5
1088
330
F98
100
AcDbDictionary
280
1
281
1
3
ACAD_XREC_ROUNDTRIP
360
1089
0
DICTIONARY
5
1096
330
F9F
100
AcDbDictionary
280
1
281
1
3
ACAD_XREC_ROUNDTRIP
360
1097
0
DICTIONARY
5
109E
330
FA3
100
AcDbDictionary
280
1
281
1
3
ACAD_XREC_ROUNDTRIP
360
109F
0
DICTIONARY
5
1090
330
F9C
100
AcDbDictionary
280
1
281
1
3
ACAD_XREC_ROUNDTRIP
360
1091
0
DICTIONARY
5
1094
330
F9E
100
AcDbDictionary
280
1
281
1
3
ACAD_XREC_ROUNDTRIP
360
1095
0
DICTIONARY
5
10A4
330
FA6
100
AcDbDictionary
280
1
281
1
3
ACAD_XREC_ROUNDTRIP
360
10A5
0
DICTIONARY
5
109C
330
FA2
100
AcDbDictionary
280
1
281
1
3
ACAD_XREC_ROUNDTRIP
360
109D
0
DICTIONARY
5
1080
330
F94
100
AcDbDictionary
280
1
281
1
3
ACAD_XREC_ROUNDTRIP
360
1081
0
DICTIONARY
5
1082
330
F95
100
AcDbDictionary
280
1
281
1
3
ACAD_XREC_ROUNDTRIP
360
1083
0
DICTIONARY
5
1084
330
F96
100
AcDbDictionary
280
1
281
1
3
ACAD_XREC_ROUNDTRIP
360
1085
0
DICTIONARY
5
1086
330
F97
100
AcDbDictionary
280
1
281
1
3
ACAD_XREC_ROUNDTRIP
360
1087
0
DICTIONARY
5
10A0
330
FA4
100
AcDbDictionary
280
1
281
1
3
ACAD_XREC_ROUNDTRIP
360
10A1
0
DICTIONARY
5
109A
330
FA1
100
AcDbDictionary
280
1
281
1
3
ACAD_XREC_ROUNDTRIP
360
109B
0
DICTIONARY
5
10A2
330
FA5
100
AcDbDictionary
280
1
281
1
3
ACAD_XREC_ROUNDTRIP
360
10A3
0
DICTIONARY
5
1092
330
F9D
100
AcDbDictionary
280
1
281
1
3
ACAD_XREC_ROUNDTRIP
360
1093
0
DICTIONARY
5
1098
330
FA0
100
AcDbDictionary
280
1
281
1
3
ACAD_XREC_ROUNDTRIP
360
1099
0
XRECORD
5
10AA
102
{ACAD_REACTORS
330
10A9
102
}
330
10A9
100
AcDbXrecord
280
1
102
SHADEPLOT
70
0
102
SHADEPLOTRESLEVEL
70
2
102
SHADEPLOTCUSTOMDPI
70
300
0
XRECORD
5
10A8
102
{ACAD_REACTORS
330
10A7
102
}
330
10A7
100
AcDbXrecord
280
1
102
SHADEPLOT
70
0
102
SHADEPLOTRESLEVEL
70
2
102
SHADEPLOTCUSTOMDPI
70
300
0
XRECORD
5
FFF
102
{ACAD_REACTORS
330
F84
102
}
330
F84
100
AcDbXrecord
280
1
102
MATERIAL
148
0.0
149
0.0
149
0.0
93
0
94
127
282
0
72
0
77
0
171
0
175
0
179
0
273
0
0
XRECORD
5
F86
102
{ACAD_REACTORS
330
F84
102
}
330
F84
100
AcDbXrecord
280
1
270
1
271
1
0
XRECORD
5
F85
102
{ACAD_REACTORS
330
F84
102
}
330
F84
100
AcDbXrecord
280
1
270
1
271
1
0
XRECORD
5
F89
102
{ACAD_REACTORS
330
F84
102
}
330
F84
100
AcDbXrecord
280
1
270
1
271
1
0
XRECORD
5
F88
102
{ACAD_REACTORS
330
F84
102
}
330
F84
100
AcDbXrecord
280
1
270
1
271
1
0
XRECORD
5
F8A
102
{ACAD_REACTORS
330
F84
102
}
330
F84
100
AcDbXrecord
280
1
270
1
271
1
0
XRECORD
5
F87
102
{ACAD_REACTORS
330
F84
102
}
330
F84
100
AcDbXrecord
280
1
270
1
271
1
0
XRECORD
5
FFE
102
{ACAD_REACTORS
330
F7C
102
}
330
F7C
100
AcDbXrecord
280
1
102
MATERIAL
148
0.0
149
0.0
149
0.0
93
0
94
127
282
0
72
0
77
0
171
0
175
0
179
0
273
0
0
XRECORD
5
F7E
102
{ACAD_REACTORS
330
F7C
102
}
330
F7C
100
AcDbXrecord
280
1
270
1
271
1
0
XRECORD
5
F7D
102
{ACAD_REACTORS
330
F7C
102
}
330
F7C
100
AcDbXrecord
280
1
270
1
271
1
0
XRECORD
5
F81
102
{ACAD_REACTORS
330
F7C
102
}
330
F7C
100
AcDbXrecord
280
1
270
1
271
1
0
XRECORD
5
F80
102
{ACAD_REACTORS
330
F7C
102
}
330
F7C
100
AcDbXrecord
280
1
270
1
271
1
0
XRECORD
5
F82
102
{ACAD_REACTORS
330
F7C
102
}
330
F7C
100
AcDbXrecord
280
1
270
1
271
1
0
XRECORD
5
F7F
102
{ACAD_REACTORS
330
F7C
102
}
330
F7C
100
AcDbXrecord
280
1
270
1
271
1
0
XRECORD
5
1000
102
{ACAD_REACTORS
330
F8C
102
}
330
F8C
100
AcDbXrecord
280
1
102
MATERIAL
148
0.0
149
0.0
149
0.0
93
0
94
127
282
0
72
0
77
0
171
0
175
0
179
0
273
0
0
XRECORD
5
F8E
102
{ACAD_REACTORS
330
F8C
102
}
330
F8C
100
AcDbXrecord
280
1
270
1
271
1
0
XRECORD
5
F8D
102
{ACAD_REACTORS
330
F8C
102
}
330
F8C
100
AcDbXrecord
280
1
270
1
271
1
0
XRECORD
5
F91
102
{ACAD_REACTORS
330
F8C
102
}
330
F8C
100
AcDbXrecord
280
1
270
1
271
1
0
XRECORD
5
F90
102
{ACAD_REACTORS
330
F8C
102
}
330
F8C
100
AcDbXrecord
280
1
270
1
271
1
0
XRECORD
5
F92
102
{ACAD_REACTORS
330
F8C
102
}
330
F8C
100
AcDbXrecord
280
1
270
1
271
1
0
XRECORD
5
F8F
102
{ACAD_REACTORS
330
F8C
102
}
330
F8C
100
AcDbXrecord
280
1
270
1
271
1
0
CELLSTYLEMAP
5
1079
102
{ACAD_REACTORS
330
FF8
102
}
330
FF8
100
AcDbCellStyleMap
90
3
300
CELLSTYLE
1
TABLEFORMAT_BEGIN
90
5
170
1
91
0
92
32768
62
257
93
1
300
CONTENTFORMAT
1
CONTENTFORMAT_BEGIN
90
0
91
0
92
512
93
0
300

40
0.0
140
1.0
94
5
62
0
340
253
144
0.25
309
CONTENTFORMAT_END
171
1
301
MARGIN
1
CELLMARGIN_BEGIN
40
0.06
40
0.06
40
0.06
40
0.06
40
0.18
40
0.18
309
CELLMARGIN_END
94
6
95
1
302
GRIDFORMAT
1
GRIDFORMAT_BEGIN
90
0
91
1
62
0
92
-2
340
0
93
0
40
0.045
309
GRIDFORMAT_END
95
2
302
GRIDFORMAT
1
GRIDFORMAT_BEGIN
90
0
91
1
62
0
92
-2
340
0
93
0
40
0.045
309
GRIDFORMAT_END
95
4
302
GRIDFORMAT
1
GRIDFORMAT_BEGIN
90
0
91
1
62
0
92
-2
340
0
93
0
40
0.045
309
GRIDFORMAT_END
95
8
302
GRIDFORMAT
1
GRIDFORMAT_BEGIN
90
0
91
1
62
0
92
-2
340
0
93
0
40
0.045
309
GRIDFORMAT_END
95
16
302
GRIDFORMAT
1
GRIDFORMAT_BEGIN
90
0
91
1
62
0
92
-2
340
0
93
0
40
0.045
309
GRIDFORMAT_END
95
32
302
GRIDFORMAT
1
GRIDFORMAT_BEGIN
90
0
91
1
62
0
92
-2
340
0
93
0
40
0.045
309
GRIDFORMAT_END
309
TABLEFORMAT_END
1
CELLSTYLE_BEGIN
90
1
91
1
300
_TITLE
309
CELLSTYLE_END
300
CELLSTYLE
1
TABLEFORMAT_BEGIN
90
5
170
1
91
0
92
0
62
257
93
1
300
CONTENTFORMAT
1
CONTENTFORMAT_BEGIN
90
0
91
0
92
512
93
0
300

40
0.0
140
1.0
94
5
62
0
340
253
144
0.18
309
CONTENTFORMAT_END
171
1
301
MARGIN
1
CELLMARGIN_BEGIN
40
0.06
40
0.06
40
0.06
40
0.06
40
0.18
40
0.18
309
CELLMARGIN_END
94
6
95
1
302
GRIDFORMAT
1
GRIDFORMAT_BEGIN
90
0
91
1
62
0
92
-2
340
0
93
0
40
0.045
309
GRIDFORMAT_END
95
2
302
GRIDFORMAT
1
GRIDFORMAT_BEGIN
90
0
91
1
62
0
92
-2
340
0
93
0
40
0.045
309
GRIDFORMAT_END
95
4
302
GRIDFORMAT
1
GRIDFORMAT_BEGIN
90
0
91
1
62
0
92
-2
340
0
93
0
40
0.045
309
GRIDFORMAT_END
95
8
302
GRIDFORMAT
1
GRIDFORMAT_BEGIN
90
0
91
1
62
0
92
-2
340
0
93
0
40
0.045
309
GRIDFORMAT_END
95
16
302
GRIDFORMAT
1
GRIDFORMAT_BEGIN
90
0
91
1
62
0
92
-2
340
0
93
0
40
0.045
309
GRIDFORMAT_END
95
32
302
GRIDFORMAT
1
GRIDFORMAT_BEGIN
90
0
91
1
62
0
92
-2
340
0
93
0
40
0.045
309
GRIDFORMAT_END
309
TABLEFORMAT_END
1
CELLSTYLE_BEGIN
90
2
91
1
300
_HEADER
309
CELLSTYLE_END
300
CELLSTYLE
1
TABLEFORMAT_BEGIN
90
5
170
1
91
0
92
0
62
257
93
1
300
CONTENTFORMAT
1
CONTENTFORMAT_BEGIN
90
0
91
0
92
512
93
0
300

40
0.0
140
1.0
94
2
62
0
340
253
144
0.18
309
CONTENTFORMAT_END
171
1
301
MARGIN
1
CELLMARGIN_BEGIN
40
0.06
40
0.06
40
0.06
40
0.06
40
0.18
40
0.18
309
CELLMARGIN_END
94
6
95
1
302
GRIDFORMAT
1
GRIDFORMAT_BEGIN
90
0
91
1
62
0
92
-2
340
0
93
0
40
0.045
309
GRIDFORMAT_END
95
2
302
GRIDFORMAT
1
GRIDFORMAT_BEGIN
90
0
91
1
62
0
92
-2
340
0
93
0
40
0.045
309
GRIDFORMAT_END
95
4
302
GRIDFORMAT
1
GRIDFORMAT_BEGIN
90
0
91
1
62
0
92
-2
340
0
93
0
40
0.045
309
GRIDFORMAT_END
95
8
302
GRIDFORMAT
1
GRIDFORMAT_BEGIN
90
0
91
1
62
0
92
-2
340
0
93
0
40
0.045
309
GRIDFORMAT_END
95
16
302
GRIDFORMAT
1
GRIDFORMAT_BEGIN
90
0
91
1
62
0
92
-2
340
0
93
0
40
0.045
309
GRIDFORMAT_END
95
32
302
GRIDFORMAT
1
GRIDFORMAT_BEGIN
90
0
91
1
62
0
92
-2
340
0
93
0
40
0.045
309
GRIDFORMAT_END
309
TABLEFORMAT_END
1
CELLSTYLE_BEGIN
90
3
91
2
300
_DATA
309
CELLSTYLE_END
0
XRECORD
5
10A6
102
{ACAD_REACTORS
330
FF8
102
}
330
FF8
100
AcDbXrecord
280
1
102
ACAD_ROUNDTRIP_PRE2007_TABLESTYLE
90
512
91
0
1

92
512
93
0
2

94
512
95
0
3

0
XRECORD
5
108B
102
{ACAD_REACTORS
330
108A
102
}
330
108A
100
AcDbXrecord
280
1
102
RTVSPropertyOp0
70
1
102
RTVSPropertyOp1
70
1
102
RTVSPropertyOp2
70
1
102
RTVSPropertyOp3
70
1
102
RTVSPropertyOp4
70
1
102
RTVSPropertyOp5
70
1
102
RTVSPropertyOp6
70
1
102
RTVSPropertyOp7
70
1
102
RTVSPropertyOp8
70
1
102
RTVSPropertyOp9
70
1
102
RTVSPropertyOp10
70
1
102
RTVSPropertyOp11
70
1
102
RTVSPropertyOp12
70
1
102
RTVSPropertyOp13
70
1
102
RTVSPropertyOp14
70
1
102
RTVSPropertyOp15
70
1
102
RTVSPropertyOp16
70
1
102
RTVSPropertyOp17
70
1
102
RTVSPropertyOp18
70
1
102
RTVSPropertyOp19
70
1
102
RTVSPropertyOp20
70
1
102
RTVSPropertyOp21
70
1
102
RTVSPropertyOp22
70
1
102
RTVSPropertyOp23
70
1
102
RTVSPropertyOp24
70
1
102
RTVSPropertyOp25
70
1
102
RTVSPropertyOp26
70
1
102
RTVSPropertyOp27
70
1
0
XRECORD
5
108F
102
{ACAD_REACTORS
330
108E
102
}
330
108E
100
AcDbXrecord
280
1
102
RTVSPropertyOp0
70
1
102
RTVSPropertyOp1
70
1
102
RTVSPropertyOp2
70
1
102
RTVSPropertyOp3
70
1
102
RTVSPropertyOp4
70
1
102
RTVSPropertyOp5
70
1
102
RTVSPropertyOp6
70
1
102
RTVSPropertyOp7
70
1
102
RTVSPropertyOp8
70
1
102
RTVSPropertyOp9
70
1
102
RTVSPropertyOp10
70
1
102
RTVSPropertyOp11
70
1
102
RTVSPropertyOp12
70
1
102
RTVSPropertyOp13
70
1
102
RTVSPropertyOp14
70
1
102
RTVSPropertyOp15
70
1
102
RTVSPropertyOp16
70
1
102
RTVSPropertyOp17
70
1
102
RTVSPropertyOp18
70
1
102
RTVSPropertyOp19
70
1
102
RTVSPropertyOp20
70
1
102
RTVSPropertyOp21
70
1
102
RTVSPropertyOp22
70
1
102
RTVSPropertyOp23
70
1
102
RTVSPropertyOp24
70
1
102
RTVSPropertyOp25
70
1
102
RTVSPropertyOp26
70
1
102
RTVSPropertyOp27
70
1
0
XRECORD
5
108D
102
{ACAD_REACTORS
330
108C
102
}
330
108C
100
AcDbXrecord
280
1
102
RTVSPropertyOp0
70
1
102
RTVSPropertyOp1
70
1
102
RTVSPropertyOp2
70
1
102
RTVSPropertyOp3
70
1
102
RTVSPropertyOp4
70
1
102
RTVSPropertyOp5
70
1
102
RTVSPropertyOp6
70
1
102
RTVSPropertyOp7
70
1
102
RTVSPropertyOp8
70
1
102
RTVSPropertyOp9
70
1
102
RTVSPropertyOp10
70
1
102
RTVSPropertyOp11
70
1
102
RTVSPropertyOp12
70
1
102
RTVSPropertyOp13
70
1
102
RTVSPropertyOp14
70
1
102
RTVSPropertyOp15
70
1
102
RTVSPropertyOp16
70
1
102
RTVSPropertyOp17
70
1
102
RTVSPropertyOp18
70
1
102
RTVSPropertyOp19
70
1
102
RTVSPropertyOp20
70
1
102
RTVSPropertyOp21
70
1
102
RTVSPropertyOp22
70
1
102
RTVSPropertyOp23
70
1
102
RTVSPropertyOp24
70
1
102
RTVSPropertyOp25
70
1
102
RTVSPropertyOp26
70
1
102
RTVSPropertyOp27
70
1
0
XRECORD
5
1089
102
{ACAD_REACTORS
330
1088
102
}
330
1088
100
AcDbXrecord
280
1
102
RTVSPropertyOp0
70
1
102
RTVSPropertyOp1
70
1
102
RTVSPropertyOp2
70
1
102
RTVSPropertyOp3
70
1
102
RTVSPropertyOp4
70
1
102
RTVSPropertyOp5
70
1
102
RTVSPropertyOp6
70
1
102
RTVSPropertyOp7
70
1
102
RTVSPropertyOp8
70
1
102
RTVSPropertyOp9
70
1
102
RTVSPropertyOp10
70
1
102
RTVSPropertyOp11
70
1
102
RTVSPropertyOp12
70
1
102
RTVSPropertyOp13
70
1
102
RTVSPropertyOp14
70
1
102
RTVSPropertyOp15
70
1
102
RTVSPropertyOp16
70
1
102
RTVSPropertyOp17
70
1
102
RTVSPropertyOp18
70
1
102
RTVSPropertyOp19
70
1
102
RTVSPropertyOp20
70
1
102
RTVSPropertyOp21
70
1
102
RTVSPropertyOp22
70
1
102
RTVSPropertyOp23
70
1
102
RTVSPropertyOp24
70
1
102
RTVSPropertyOp25
70
1
102
RTVSPropertyOp26
70
1
102
RTVSPropertyOp27
70
1
0
XRECORD
5
1097
102
{ACAD_REACTORS
330
1096
102
}
330
1096
100
AcDbXrecord
280
1
102
RTVSPropertyOp0
70
1
102
RTVSPropertyOp1
70
1
102
RTVSPropertyOp2
70
1
102
RTVSPropertyOp3
70
1
102
RTVSPropertyOp4
70
1
102
RTVSPropertyOp5
70
1
102
RTVSPropertyOp6
70
1
102
RTVSPropertyOp7
70
1
102
RTVSPropertyOp8
70
1
102
RTVSPropertyOp9
70
1
102
RTVSPropertyOp10
70
1
102
RTVSPropertyOp11
70
1
102
RTVSPropertyOp12
70
1
102
RTVSPropertyOp13
70
1
102
RTVSPropertyOp14
70
1
102
RTVSPropertyOp15
70
1
102
RTVSPropertyOp16
70
1
102
RTVSPropertyOp17
70
1
102
RTVSPropertyOp18
70
1
102
RTVSPropertyOp19
70
1
102
RTVSPropertyOp20
70
1
102
RTVSPropertyOp21
70
1
102
RTVSPropertyOp22
70
1
102
RTVSPropertyOp23
70
1
102
RTVSPropertyOp24
70
1
102
RTVSPropertyOp25
70
1
102
RTVSPropertyOp26
70
1
102
RTVSPropertyOp27
70
1
0
XRECORD
5
109F
102
{ACAD_REACTORS
330
109E
102
}
330
109E
100
AcDbXrecord
280
1
102
RTVSPropertyOp0
70
1
102
RTVSPropertyOp1
70
1
102
RTVSPropertyOp2
70
1
102
RTVSPropertyOp3
70
1
102
RTVSPropertyOp4
70
1
102
RTVSPropertyOp5
70
1
102
RTVSPropertyOp6
70
1
102
RTVSPropertyOp7
70
1
102
RTVSPropertyOp8
70
1
102
RTVSPropertyOp9
70
1
102
RTVSPropertyOp10
70
1
102
RTVSPropertyOp11
70
1
102
RTVSPropertyOp12
70
1
102
RTVSPropertyOp13
70
1
102
RTVSPropertyOp14
70
1
102
RTVSPropertyOp15
70
1
102
RTVSPropertyOp16
70
1
102
RTVSPropertyOp17
70
1
102
RTVSPropertyOp18
70
1
102
RTVSPropertyOp19
70
1
102
RTVSPropertyOp20
70
1
102
RTVSPropertyOp21
70
1
102
RTVSPropertyOp22
70
1
102
RTVSPropertyOp23
70
1
102
RTVSPropertyOp24
70
1
102
RTVSPropertyOp25
70
1
102
RTVSPropertyOp26
70
1
102
RTVSPropertyOp27
70
1
0
XRECORD
5
1091
102
{ACAD_REACTORS
330
1090
102
}
330
1090
100
AcDbXrecord
280
1
102
RTVSPropertyOp0
70
1
102
RTVSPropertyOp1
70
1
102
RTVSPropertyOp2
70
1
102
RTVSPropertyOp3
70
1
102
RTVSPropertyOp4
70
1
102
RTVSPropertyOp5
70
1
102
RTVSPropertyOp6
70
1
102
RTVSPropertyOp7
70
1
102
RTVSPropertyOp8
70
1
102
RTVSPropertyOp9
70
1
102
RTVSPropertyOp10
70
1
102
RTVSPropertyOp11
70
1
102
RTVSPropertyOp12
70
1
102
RTVSPropertyOp13
70
1
102
RTVSPropertyOp14
70
1
102
RTVSPropertyOp15
70
1
102
RTVSPropertyOp16
70
1
102
RTVSPropertyOp17
70
1
102
RTVSPropertyOp18
70
1
102
RTVSPropertyOp19
70
1
102
RTVSPropertyOp20
70
1
102
RTVSPropertyOp21
70
1
102
RTVSPropertyOp22
70
1
102
RTVSPropertyOp23
70
1
102
RTVSPropertyOp24
70
1
102
RTVSPropertyOp25
70
1
102
RTVSPropertyOp26
70
1
102
RTVSPropertyOp27
70
1
0
XRECORD
5
1095
102
{ACAD_REACTORS
330
1094
102
}
330
1094
100
AcDbXrecord
280
1
102
RTVSPropertyOp0
70
1
102
RTVSPropertyOp1
70
1
102
RTVSPropertyOp2
70
1
102
RTVSPropertyOp3
70
1
102
RTVSPropertyOp4
70
1
102
RTVSPropertyOp5
70
1
102
RTVSPropertyOp6
70
1
102
RTVSPropertyOp7
70
1
102
RTVSPropertyOp8
70
1
102
RTVSPropertyOp9
70
1
102
RTVSPropertyOp10
70
1
102
RTVSPropertyOp11
70
1
102
RTVSPropertyOp12
70
1
102
RTVSPropertyOp13
70
1
102
RTVSPropertyOp14
70
1
102
RTVSPropertyOp15
70
1
102
RTVSPropertyOp16
70
1
102
RTVSPropertyOp17
70
1
102
RTVSPropertyOp18
70
1
102
RTVSPropertyOp19
70
1
102
RTVSPropertyOp20
70
1
102
RTVSPropertyOp21
70
1
102
RTVSPropertyOp22
70
1
102
RTVSPropertyOp23
70
1
102
RTVSPropertyOp24
70
1
102
RTVSPropertyOp25
70
1
102
RTVSPropertyOp26
70
1
102
RTVSPropertyOp27
70
1
0
XRECORD
5
10A5
102
{ACAD_REACTORS
330
10A4
102
}
330
10A4
100
AcDbXrecord
280
1
102
RTVSPropertyOp0
70
0
102
RTVSPropertyOp1
70
0
102
RTVSPropertyOp2
70
0
102
RTVSPropertyOp3
70
0
102
RTVSPropertyOp4
70
0
102
RTVSPropertyOp5
70
0
102
RTVSPropertyOp6
70
0
102
RTVSPropertyOp7
70
0
102
RTVSPropertyOp8
70
0
102
RTVSPropertyOp9
70
0
102
RTVSPropertyOp10
70
0
102
RTVSPropertyOp11
70
0
102
RTVSPropertyOp12
70
0
102
RTVSPropertyOp13
70
0
102
RTVSPropertyOp14
70
2
102
RTVSPropertyOp15
70
0
102
RTVSPropertyOp16
70
0
102
RTVSPropertyOp17
70
0
102
RTVSPropertyOp18
70
0
102
RTVSPropertyOp19
70
0
102
RTVSPropertyOp20
70
0
102
RTVSPropertyOp21
70
0
102
RTVSPropertyOp22
70
0
102
RTVSPropertyOp23
70
0
102
RTVSPropertyOp24
70
0
102
RTVSPropertyOp25
70
0
102
RTVSPropertyOp26
70
0
102
RTVSPropertyOp27
70
0
0
XRECORD
5
109D
102
{ACAD_REACTORS
330
109C
102
}
330
109C
100
AcDbXrecord
280
1
102
RTVSPropertyOp0
70
1
102
RTVSPropertyOp1
70
1
102
RTVSPropertyOp2
70
1
102
RTVSPropertyOp3
70
1
102
RTVSPropertyOp4
70
1
102
RTVSPropertyOp5
70
1
102
RTVSPropertyOp6
70
1
102
RTVSPropertyOp7
70
1
102
RTVSPropertyOp8
70
1
102
RTVSPropertyOp9
70
1
102
RTVSPropertyOp10
70
1
102
RTVSPropertyOp11
70
1
102
RTVSPropertyOp12
70
1
102
RTVSPropertyOp13
70
1
102
RTVSPropertyOp14
70
1
102
RTVSPropertyOp15
70
1
102
RTVSPropertyOp16
70
1
102
RTVSPropertyOp17
70
1
102
RTVSPropertyOp18
70
1
102
RTVSPropertyOp19
70
1
102
RTVSPropertyOp20
70
1
102
RTVSPropertyOp21
70
1
102
RTVSPropertyOp22
70
1
102
RTVSPropertyOp23
70
1
102
RTVSPropertyOp24
70
1
102
RTVSPropertyOp25
70
1
102
RTVSPropertyOp26
70
1
102
RTVSPropertyOp27
70
1
0
XRECORD
5
1081
102
{ACAD_REACTORS
330
1080
102
}
330
1080
100
AcDbXrecord
280
1
102
RTVSPropertyOp0
70
1
102
RTVSPropertyOp1
70
1
102
RTVSPropertyOp2
70
1
102
RTVSPropertyOp3
70
1
102
RTVSPropertyOp4
70
1
102
RTVSPropertyOp5
70
1
102
RTVSPropertyOp6
70
1
102
RTVSPropertyOp7
70
1
102
RTVSPropertyOp8
70
1
102
RTVSPropertyOp9
70
1
102
RTVSPropertyOp10
70
1
102
RTVSPropertyOp11
70
1
102
RTVSPropertyOp12
70
1
102
RTVSPropertyOp13
70
1
102
RTVSPropertyOp14
70
1
102
RTVSPropertyOp15
70
1
102
RTVSPropertyOp16
70
1
102
RTVSPropertyOp17
70
1
102
RTVSPropertyOp18
70
1
102
RTVSPropertyOp19
70
1
102
RTVSPropertyOp20
70
1
102
RTVSPropertyOp21
70
1
102
RTVSPropertyOp22
70
1
102
RTVSPropertyOp23
70
1
102
RTVSPropertyOp24
70
1
102
RTVSPropertyOp25
70
1
102
RTVSPropertyOp26
70
1
102
RTVSPropertyOp27
70
1
0
XRECORD
5
1083
102
{ACAD_REACTORS
330
1082
102
}
330
1082
100
AcDbXrecord
280
1
102
RTVSPropertyOp0
70
1
102
RTVSPropertyOp1
70
1
102
RTVSPropertyOp2
70
1
102
RTVSPropertyOp3
70
1
102
RTVSPropertyOp4
70
1
102
RTVSPropertyOp5
70
1
102
RTVSPropertyOp6
70
1
102
RTVSPropertyOp7
70
1
102
RTVSPropertyOp8
70
1
102
RTVSPropertyOp9
70
1
102
RTVSPropertyOp10
70
1
102
RTVSPropertyOp11
70
1
102
RTVSPropertyOp12
70
1
102
RTVSPropertyOp13
70
1
102
RTVSPropertyOp14
70
1
102
RTVSPropertyOp15
70
1
102
RTVSPropertyOp16
70
1
102
RTVSPropertyOp17
70
1
102
RTVSPropertyOp18
70
1
102
RTVSPropertyOp19
70
1
102
RTVSPropertyOp20
70
1
102
RTVSPropertyOp21
70
1
102
RTVSPropertyOp22
70
1
102
RTVSPropertyOp23
70
1
102
RTVSPropertyOp24
70
1
102
RTVSPropertyOp25
70
1
102
RTVSPropertyOp26
70
1
102
RTVSPropertyOp27
70
1
0
XRECORD
5
1085
102
{ACAD_REACTORS
330
1084
102
}
330
1084
100
AcDbXrecord
280
1
102
RTVSPropertyOp0
70
1
102
RTVSPropertyOp1
70
1
102
RTVSPropertyOp2
70
1
102
RTVSPropertyOp3
70
1
102
RTVSPropertyOp4
70
1
102
RTVSPropertyOp5
70
1
102
RTVSPropertyOp6
70
1
102
RTVSPropertyOp7
70
1
102
RTVSPropertyOp8
70
1
102
RTVSPropertyOp9
70
1
102
RTVSPropertyOp10
70
1
102
RTVSPropertyOp11
70
1
102
RTVSPropertyOp12
70
1
102
RTVSPropertyOp13
70
1
102
RTVSPropertyOp14
70
1
102
RTVSPropertyOp15
70
1
102
RTVSPropertyOp16
70
1
102
RTVSPropertyOp17
70
1
102
RTVSPropertyOp18
70
1
102
RTVSPropertyOp19
70
1
102
RTVSPropertyOp20
70
1
102
RTVSPropertyOp21
70
1
102
RTVSPropertyOp22
70
1
102
RTVSPropertyOp23
70
1
102
RTVSPropertyOp24
70
1
102
RTVSPropertyOp25
70
1
102
RTVSPropertyOp26
70
1
102
RTVSPropertyOp27
70
1
0
XRECORD
5
1087
102
{ACAD_REACTORS
330
1086
102
}
330
1086
100
AcDbXrecord
280
1
102
RTVSPropertyOp0
70
1
102
RTVSPropertyOp1
70
1
102
RTVSPropertyOp2
70
1
102
RTVSPropertyOp3
70
1
102
RTVSPropertyOp4
70
1
102
RTVSPropertyOp5
70
1
102
RTVSPropertyOp6
70
1
102
RTVSPropertyOp7
70
1
102
RTVSPropertyOp8
70
1
102
RTVSPropertyOp9
70
1
102
RTVSPropertyOp10
70
1
102
RTVSPropertyOp11
70
1
102
RTVSPropertyOp12
70
1
102
RTVSPropertyOp13
70
1
102
RTVSPropertyOp14
70
1
102
RTVSPropertyOp15
70
1
102
RTVSPropertyOp16
70
1
102
RTVSPropertyOp17
70
1
102
RTVSPropertyOp18
70
1
102
RTVSPropertyOp19
70
1
102
RTVSPropertyOp20
70
1
102
RTVSPropertyOp21
70
1
102
RTVSPropertyOp22
70
1
102
RTVSPropertyOp23
70
1
102
RTVSPropertyOp24
70
1
102
RTVSPropertyOp25
70
1
102
RTVSPropertyOp26
70
1
102
RTVSPropertyOp27
70
1
0
XRECORD
5
10A1
102
{ACAD_REACTORS
330
10A0
102
}
330
10A0
100
AcDbXrecord
280
1
102
RTVSPropertyOp0
70
0
102
RTVSPropertyOp1
70
0
102
RTVSPropertyOp2
70
0
102
RTVSPropertyOp3
70
0
102
RTVSPropertyOp4
70
0
102
RTVSPropertyOp5
70
0
102
RTVSPropertyOp6
70
0
102
RTVSPropertyOp7
70
0
102
RTVSPropertyOp8
70
0
102
RTVSPropertyOp9
70
0
102
RTVSPropertyOp10
70
0
102
RTVSPropertyOp11
70
0
102
RTVSPropertyOp12
70
0
102
RTVSPropertyOp13
70
0
102
RTVSPropertyOp14
70
2
102
RTVSPropertyOp15
70
0
102
RTVSPropertyOp16
70
0
102
RTVSPropertyOp17
70
0
102
RTVSPropertyOp18
70
0
102
RTVSPropertyOp19
70
0
102
RTVSPropertyOp20
70
0
102
RTVSPropertyOp21
70
0
102
RTVSPropertyOp22
70
0
102
RTVSPropertyOp23
70
0
102
RTVSPropertyOp24
70
0
102
RTVSPropertyOp25
70
0
102
RTVSPropertyOp26
70
0
102
RTVSPropertyOp27
70
0
0
XRECORD
5
109B
102
{ACAD_REACTORS
330
109A
102
}
330
109A
100
AcDbXrecord
280
1
102
RTVSPropertyOp0
70
1
102
RTVSPropertyOp1
70
1
102
RTVSPropertyOp2
70
1
102
RTVSPropertyOp3
70
1
102
RTVSPropertyOp4
70
1
102
RTVSPropertyOp5
70
1
102
RTVSPropertyOp6
70
1
102
RTVSPropertyOp7
70
1
102
RTVSPropertyOp8
70
1
102
RTVSPropertyOp9
70
1
102
RTVSPropertyOp10
70
1
102
RTVSPropertyOp11
70
1
102
RTVSPropertyOp12
70
1
102
RTVSPropertyOp13
70
1
102
RTVSPropertyOp14
70
1
102
RTVSPropertyOp15
70
1
102
RTVSPropertyOp16
70
1
102
RTVSPropertyOp17
70
1
102
RTVSPropertyOp18
70
1
102
RTVSPropertyOp19
70
1
102
RTVSPropertyOp20
70
1
102
RTVSPropertyOp21
70
1
102
RTVSPropertyOp22
70
1
102
RTVSPropertyOp23
70
1
102
RTVSPropertyOp24
70
1
102
RTVSPropertyOp25
70
1
102
RTVSPropertyOp26
70
1
102
RTVSPropertyOp27
70
1
0
XRECORD
5
10A3
102
{ACAD_REACTORS
330
10A2
102
}
330
10A2
100
AcDbXrecord
280
1
102
RTVSPropertyOp0
70
0
102
RTVSPropertyOp1
70
0
102
RTVSPropertyOp2
70
0
102
RTVSPropertyOp3
70
0
102
RTVSPropertyOp4
70
0
102
RTVSPropertyOp5
70
0
102
RTVSPropertyOp6
70
0
102
RTVSPropertyOp7
70
0
102
RTVSPropertyOp8
70
0
102
RTVSPropertyOp9
70
0
102
RTVSPropertyOp10
70
0
102
RTVSPropertyOp11
70
0
102
RTVSPropertyOp12
70
0
102
RTVSPropertyOp13
70
0
102
RTVSPropertyOp14
70
2
102
RTVSPropertyOp15
70
0
102
RTVSPropertyOp16
70
0
102
RTVSPropertyOp17
70
0
102
RTVSPropertyOp18
70
0
102
RTVSPropertyOp19
70
0
102
RTVSPropertyOp20
70
0
102
RTVSPropertyOp21
70
0
102
RTVSPropertyOp22
70
0
102
RTVSPropertyOp23
70
0
102
RTVSPropertyOp24
70
0
102
RTVSPropertyOp25
70
0
102
RTVSPropertyOp26
70
0
102
RTVSPropertyOp27
70
0
0
XRECORD
5
1093
102
{ACAD_REACTORS
330
1092
102
}
330
1092
100
AcDbXrecord
280
1
102
RTVSPropertyOp0
70
1
102
RTVSPropertyOp1
70
1
102
RTVSPropertyOp2
70
1
102
RTVSPropertyOp3
70
1
102
RTVSPropertyOp4
70
1
102
RTVSPropertyOp5
70
1
102
RTVSPropertyOp6
70
1
102
RTVSPropertyOp7
70
1
102
RTVSPropertyOp8
70
1
102
RTVSPropertyOp9
70
1
102
RTVSPropertyOp10
70
1
102
RTVSPropertyOp11
70
1
102
RTVSPropertyOp12
70
1
102
RTVSPropertyOp13
70
1
102
RTVSPropertyOp14
70
1
102
RTVSPropertyOp15
70
1
102
RTVSPropertyOp16
70
1
102
RTVSPropertyOp17
70
1
102
RTVSPropertyOp18
70
1
102
RTVSPropertyOp19
70
1
102
RTVSPropertyOp20
70
1
102
RTVSPropertyOp21
70
1
102
RTVSPropertyOp22
70
1
102
RTVSPropertyOp23
70
1
102
RTVSPropertyOp24
70
1
102
RTVSPropertyOp25
70
1
102
RTVSPropertyOp26
70
1
102
RTVSPropertyOp27
70
1
0
XRECORD
5
1099
102
{ACAD_REACTORS
330
1098
102
}
330
1098
100
AcDbXrecord
280
1
102
RTVSPropertyOp0
70
1
102
RTVSPropertyOp1
70
1
102
RTVSPropertyOp2
70
1
102
RTVSPropertyOp3
70
1
102
RTVSPropertyOp4
70
1
102
RTVSPropertyOp5
70
1
102
RTVSPropertyOp6
70
1
102
RTVSPropertyOp7
70
1
102
RTVSPropertyOp8
70
1
102
RTVSPropertyOp9
70
1
102
RTVSPropertyOp10
70
1
102
RTVSPropertyOp11
70
1
102
RTVSPropertyOp12
70
1
102
RTVSPropertyOp13
70
1
102
RTVSPropertyOp14
70
1
102
RTVSPropertyOp15
70
1
102
RTVSPropertyOp16
70
1
102
RTVSPropertyOp17
70
1
102
RTVSPropertyOp18
70
1
102
RTVSPropertyOp19
70
1
102
RTVSPropertyOp20
70
1
102
RTVSPropertyOp21
70
1
102
RTVSPropertyOp22
70
1
102
RTVSPropertyOp23
70
1
102
RTVSPropertyOp24
70
1
102
RTVSPropertyOp25
70
1
102
RTVSPropertyOp26
70
1
102
RTVSPropertyOp27
70
1
0
ENDSEC
0
EOF
