0
SECTION
2
HEADER
9
$ACADVER
1
AC1015
9
$ACADMAINTVER
70
20
9
$DWGCODEPAGE
3
ANSI_1252
9
$INSBASE
10
0.0
20
0.0
30
0.0
9
$EXTMIN
10
-150.000000000000
20
-105.000000000000
30
0.0
9
$EXTMAX
10
150.000000000000
20
105.000000000000
30
0.0
9
$LIMMIN
10
0.0
20
0.0
9
$LIMMAX
10
12.0
20
9.0
9
$ORTHOMODE
70
0
9
$REGENMODE
70
1
9
$FILLMODE
70
1
9
$QTEXTMODE
70
0
9
$MIRRTEXT
70
1
9
$LTSCALE
40
1.0
9
$ATTMODE
70
1
9
$TEXTSIZE
40
0.2
9
$TRACEWID
40
0.05
9
$TEXTSTYLE
7
Standard
9
$CLAYER
8
0
9
$CELTYPE
6
ByLayer
9
$CECOLOR
62
256
9
$CELTSCALE
40
1.0
9
$DISPSILH
70
0
9
$DIMSCALE
40
1.0
9
$DIMASZ
40
2.5
9
$DIMEXO
40
0.625
9
$DIMDLI
40
0.38
9
$DIMRND
40
0.0
9
$DIMDLE
40
0.0
9
$DIMEXE
40
1.25
9
$DIMTP
40
0.0
9
$DIMTM
40
0.000000001
9
$DIMTXT
40
2.5
9
$DIMCEN
40
0.09
9
$DIMTSZ
40
0.0
9
$DIMTOL
70
1
9
$DIMLIM
70
0
9
$DIMTIH
70
0
9
$DIMTOH
70
0
9
$DIMSE1
70
0
9
$DIMSE2
70
0
9
$DIMTAD
70
1
9
$DIMZIN
70
0
9
$DIMBLK
1
VDDIM_DEFAULT
9
$DIMASO
70
1
9
$DIMSHO
70
1
9
$DIMPOST
1

9
$DIMAPOST
1

9
$DIMALT
70
0
9
$DIMALTD
70
2
9
$DIMALTF
40
25.4
9
$DIMLFAC
40
1.00000000000000
9
$DIMTOFL
70
0
9
$DIMTVP
40
0.0
9
$DIMTIX
70
0
9
$DIMSOXD
70
0
9
$DIMSAH
70
0
9
$DIMBLK1
1

9
$DIMBLK2
1

9
$DIMSTYLE
2
BEM-ISBE
9
$DIMCLRD
70
0
9
$DIMCLRE
70
0
9
$DIMCLRT
70
0
9
$DIMTFAC
40
0.5
9
$DIMGAP
40
0.625
9
$DIMJUST
70
0
9
$DIMSD1
70
0
9
$DIMSD2
70
0
9
$DIMTOLJ
70
1
9
$DIMTZIN
70
0
9
$DIMALTZ
70
0
9
$DIMALTTZ
70
0
9
$DIMUPT
70
0
9
$DIMDEC
70
3
9
$DIMTDEC
70
3
9
$DIMALTU
70
2
9
$DIMALTTD
70
2
9
$DIMTXSTY
7
Standard
9
$DIMAUNIT
70
0
9
$DIMADEC
70
3
9
$DIMALTRND
40
0.0
9
$DIMAZIN
70
0
9
$DIMDSEP
70
46
9
$DIMATFIT
70
3
9
$DIMFRAC
70
0
9
$DIMLDRBLK
1

9
$DIMLUNIT
70
2
9
$DIMLWD
70
-2
9
$DIMLWE
70
-2
9
$DIMTMOVE
70
0
9
$LUNITS
70
2
9
$LUPREC
70
4
9
$SKETCHINC
40
0.1
9
$FILLETRAD
40
0.5
9
$AUNITS
70
0
9
$AUPREC
70
0
9
$MENU
1
.
9
$ELEVATION
40
0.0
9
$PELEVATION
40
0.0
9
$THICKNESS
40
0.0
9
$LIMCHECK
70
0
9
$CHAMFERA
40
0.5
9
$CHAMFERB
40
0.5
9
$CHAMFERC
40
1.0
9
$CHAMFERD
40
0.0
9
$SKPOLY
70
0
9
$TDCREATE
40
0.0
9
$TDUCREATE
40
0.0
9
$TDUPDATE
40
0.0
9
$TDUUPDATE
40
0.0
9
$TDINDWG
40
0.0
9
$TDUSRTIMER
40
0.0
9
$USRTIMER
70
1
9
$ANGBASE
50
0.0
9
$ANGDIR
70
0
9
$PDMODE
70
0
9
$PDSIZE
40
0.0
9
$PLINEWID
40
0.0
9
$SPLFRAME
70
0
9
$SPLINETYPE
70
6
9
$SPLINESEGS
70
8
9
$HANDSEED
5
10AB
9
$SURFTAB1
70
6
9
$SURFTAB2
70
6
9
$SURFTYPE
70
6
9
$SURFU
70
6
9
$SURFV
70
6
9
$UCSBASE
2

9
$UCSNAME
2

9
$UCSORG
10
0.0
20
0.0
30
0.0
9
$UCSXDIR
10
1.0
20
0.0
30
0.0
9
$UCSYDIR
10
0.0
20
1.0
30
0.0
9
$UCSORTHOREF
2

9
$UCSORTHOVIEW
70
0
9
$UCSORGTOP
10
0.0
20
0.0
30
0.0
9
$UCSORGBOTTOM
10
0.0
20
0.0
30
0.0
9
$UCSORGLEFT
10
0.0
20
0.0
30
0.0
9
$UCSORGRIGHT
10
0.0
20
0.0
30
0.0
9
$UCSORGFRONT
10
0.0
20
0.0
30
0.0
9
$UCSORGBACK
10
0.0
20
0.0
30
0.0
9
$PUCSBASE
2

9
$PUCSNAME
2

9
$PUCSORG
10
0.0
20
0.0
30
0.0
9
$PUCSXDIR
10
1.0
20
0.0
30
0.0
9
$PUCSYDIR
10
0.0
20
1.0
30
0.0
9
$PUCSORTHOREF
2

9
$PUCSORTHOVIEW
70
0
9
$PUCSORGTOP
10
0.0
20
0.0
30
0.0
9
$PUCSORGBOTTOM
10
0.0
20
0.0
30
0.0
9
$PUCSORGLEFT
10
0.0
20
0.0
30
0.0
9
$PUCSORGRIGHT
10
0.0
20
0.0
30
0.0
9
$PUCSORGFRONT
10
0.0
20
0.0
30
0.0
9
$PUCSORGBACK
10
0.0
20
0.0
30
0.0
9
$USERI1
70
0
9
$USERI2
70
0
9
$USERI3
70
0
9
$USERI4
70
0
9
$USERI5
70
0
9
$USERR1
40
0.0
9
$USERR2
40
0.0
9
$USERR3
40
0.0
9
$USERR4
40
0.0
9
$USERR5
40
0.0
9
$WORLDVIEW
70
1
9
$SHADEDGE
70
3
9
$SHADEDIF
70
70
9
$TILEMODE
70
1
9
$MAXACTVP
70
64
9
$PINSBASE
10
0.0
20
0.0
30
0.0
9
$PLIMCHECK
70
0
9
$PEXTMIN
10
1.000000000000000E+20
20
1.000000000000000E+20
30
1.000000000000000E+20
9
$PEXTMAX
10
-1.000000000000000E+20
20
-1.000000000000000E+20
30
-1.000000000000000E+20
9
$PLIMMIN
10
0.0
20
0.0
9
$PLIMMAX
10
12.0
20
9.0
9
$UNITMODE
70
0
9
$VISRETAIN
70
1
9
$PLINEGEN
70
0
9
$PSLTSCALE
70
1
9
$TREEDEPTH
70
3020
9
$CMLSTYLE
2
Standard
9
$CMLJUST
70
0
9
$CMLSCALE
40
1.0
9
$PROXYGRAPHICS
70
1
9
$MEASUREMENT
70
0
9
$CELWEIGHT
370
-1
9
$ENDCAPS
280
0
9
$JOINSTYLE
280
0
9
$LWDISPLAY
290
0
9
$INSUNITS
70
4
9
$HYPERLINKBASE
1

9
$STYLESHEET
1

9
$XEDIT
290
1
9
$CEPSNTYPE
380
0
9
$PSTYLEMODE
290
0
9
$FINGERPRINTGUID
2
{FAEB1C30-E019-11D5-929B-00C0DF256EC4}
9
$VERSIONGUID
2
{04C5C4E4-4947-4D90-8812-D401569E61F7}
9
$EXTNAMES
290
1
9
$PSVPSCALE
40
0.0
9
$OLESTARTUP
290
0
0
ENDSEC
0
SECTION
2
CLASSES
0
CLASS
1
ACDBDICTIONARYWDFLT
2
AcDbDictionaryWithDefault
3
ObjectDBX Classes
90
0
280
0
281
0
0
CLASS
1
ACDBPLACEHOLDER
2
AcDbPlaceHolder
3
ObjectDBX Classes
90
0
280
0
281
0
0
CLASS
1
LAYOUT
2
AcDbLayout
3
ObjectDBX Classes
90
0
280
0
281
0
0
CLASS
1
MATERIAL
2
AcDbMaterial
3
ObjectDBX Classes
90
1153
280
0
281
0
0
CLASS
1
VISUALSTYLE
2
AcDbVisualStyle
3
ObjectDBX Classes
90
4095
280
0
281
0
0
CLASS
1
TABLESTYLE
2
AcDbTableStyle
3
ObjectDBX Classes
90
4095
280
0
281
0
0
CLASS
1
SCALE
2
AcDbScale
3
ObjectDBX Classes
90
1153
280
0
281
0
0
CLASS
1
MLEADERSTYLE
2
AcDbMLeaderStyle
3
ACDB_MLEADERSTYLE_CLASS
90
4095
280
0
281
0
0
CLASS
1
DICTIONARYVAR
2
AcDbDictionaryVar
3
ObjectDBX Classes
90
0
280
0
281
0
0
CLASS
1
CELLSTYLEMAP
2
AcDbCellStyleMap
3
ObjectDBX Classes
90
1152
280
0
281
0
0
ENDSEC
0
SECTION
2
TABLES
0
TABLE
2
VPORT
5
24A
330
0
100
AcDbSymbolTable
70
1
0
VPORT
5
26B
330
24A
100
AcDbSymbolTableRecord
100
AcDbViewportTableRecord
2
*Active
70
0
10
0.0
20
0.0
11
1.0
21
1.0
12
0.000000000000000
22
0.000000000000000
13
0.0
23
0.0
14
10.0
24
10.0
15
10.0
25
10.0
16
0.0
26
0.0
36
1.0
17
0.0
27
0.0
37
0.0
40
210.000000000000
41
1.42857142857143
42
1.0
43
0.0
44
0.0
50
0.0
51
0.0000000000007958
71
0
72
100
73
1
74
3
75
0
76
0
77
0
78
1
281
0
65
1
110
0.0
120
0.0
130
0.0
111
1.0
121
0.0
131
0.0
112
0.0
122
1.0
132
0.0
79
0
146
0.0
0
ENDTAB
0
TABLE
2
LTYPE
5
247
330
0
100
AcDbSymbolTable
70
25
0
LTYPE
5
256
330
247
100
AcDbSymbolTableRecord
100
AcDbLinetypeTableRecord
2
ByBlock
70
0
3

72
65
73
0
40
0.0
0
LTYPE
5
257
330
247
100
AcDbSymbolTableRecord
100
AcDbLinetypeTableRecord
2
ByLayer
70
0
3

72
65
73
0
40
0.0
0
LTYPE
5
258
330
247
100
AcDbSymbolTableRecord
100
AcDbLinetypeTableRecord
2
Continuous
70
0
3
Solid line
72
65
73
0
40
0.0
0
LTYPE
5
273
330
247
100
AcDbSymbolTableRecord
100
AcDbLinetypeTableRecord
2
CENTER
70
0
3
Center ____ _ ____ _ ____ _ ____ _ ____ _ ____
72
65
73
4
40
2.0
49
1.25
74
0
49
-0.25
74
0
49
0.25
74
0
49
-0.25
74
0
0
LTYPE
5
274
330
247
100
AcDbSymbolTableRecord
100
AcDbLinetypeTableRecord
2
DASHDOT
70
0
3
Dashdot __ . __ . __ . __ . __ . __ . __ . __
72
65
73
4
40
1.0
49
0.5
74
0
49
-0.25
74
0
49
0.0
74
0
49
-0.25
74
0
0
LTYPE
5
275
330
247
100
AcDbSymbolTableRecord
100
AcDbLinetypeTableRecord
2
DASHED
70
0
3
Dashed __ __ __ __ __ __ __ __ __ __ __ __ __ _
72
65
73
2
40
0.75
49
0.5
74
0
49
-0.25
74
0
0
LTYPE
5
276
330
247
100
AcDbSymbolTableRecord
100
AcDbLinetypeTableRecord
2
HIDDEN
70
0
3
Hidden __ __ __ __ __ __ __ __ __ __ __ __ __ __
72
65
73
2
40
0.375
49
0.25
74
0
49
-0.125
74
0
0
LTYPE
5
277
330
247
100
AcDbSymbolTableRecord
100
AcDbLinetypeTableRecord
2
HIDDEN2
70
0
3
Hidden2 _ _ _ _ _ _ _ _ _ _ _ _ _ _ _ _ _
72
65
73
2
40
0.1875
49
0.125
74
0
49
-0.0625
74
0
0
LTYPE
5
278
330
247
100
AcDbSymbolTableRecord
100
AcDbLinetypeTableRecord
2
BORDER
70
0
3
Border __ __ . __ __ . __ __ . __ __ . __ __ .
72
65
73
6
40
1.75
49
0.5
74
0
49
-0.25
74
0
49
0.5
74
0
49
-0.25
74
0
49
0.0
74
0
49
-0.25
74
0
0
LTYPE
5
279
330
247
100
AcDbSymbolTableRecord
100
AcDbLinetypeTableRecord
2
BORDER2
70
0
3
Border2 __.__.__.__.__.__.__.__.__.__.__.
72
65
73
6
40
0.875
49
0.25
74
0
49
-0.125
74
0
49
0.25
74
0
49
-0.125
74
0
49
0.0
74
0
49
-0.125
74
0
0
LTYPE
5
27A
330
247
100
AcDbSymbolTableRecord
100
AcDbLinetypeTableRecord
2
BORDERX2
70
0
3
Borderx2  ____  ____  .  ____  ____  .  ___
72
65
73
6
40
3.5
49
1.0
74
0
49
-0.5
74
0
49
1.0
74
0
49
-0.5
74
0
49
0.0
74
0
49
-0.5
74
0
0
LTYPE
5
27B
330
247
100
AcDbSymbolTableRecord
100
AcDbLinetypeTableRecord
2
CENTER2
70
0
3
Center2  ___ _ ___ _ ___ _ ___ _ ___ _ ___
72
65
73
4
40
1.125
49
0.75
74
0
49
-0.125
74
0
49
0.125
74
0
49
-0.125
74
0
0
LTYPE
5
27C
330
247
100
AcDbSymbolTableRecord
100
AcDbLinetypeTableRecord
2
CENTERX2
70
0
3
Centerx2  ________  __  ________  __  _____
72
65
73
4
40
4.0
49
2.5
74
0
49
-0.5
74
0
49
0.5
74
0
49
-0.5
74
0
0
LTYPE
5
27D
330
247
100
AcDbSymbolTableRecord
100
AcDbLinetypeTableRecord
2
DASHDOT2
70
0
3
Dashdot2  _._._._._._._._._._._._._._._.
72
65
73
4
40
0.5
49
0.25
74
0
49
-0.125
74
0
49
0.0
74
0
49
-0.125
74
0
0
LTYPE
5
27E
330
247
100
AcDbSymbolTableRecord
100
AcDbLinetypeTableRecord
2
DASHDOTX2
70
0
3
Dashdotx2 ____  .  ____  .  ____  .  ___
72
65
73
4
40
2.0
49
1.0
74
0
49
-0.5
74
0
49
0.0
74
0
49
-0.5
74
0
0
LTYPE
5
27F
330
247
100
AcDbSymbolTableRecord
100
AcDbLinetypeTableRecord
2
DASHED2
70
0
3
Dashed2 _ _ _ _ _ _ _ _ _ _ _ _ _ _ _ _ _
72
65
73
2
40
0.375
49
0.25
74
0
49
-0.125
74
0
0
LTYPE
5
280
330
247
100
AcDbSymbolTableRecord
100
AcDbLinetypeTableRecord
2
DASHEDX2
70
0
3
Dashedx2 ____  ____  ____  ____  ____  ___
72
65
73
2
40
1.5
49
1.0
74
0
49
-0.5
74
0
0
LTYPE
5
281
330
247
100
AcDbSymbolTableRecord
100
AcDbLinetypeTableRecord
2
DIVIDE
70
0
3
Divide ____ . . ____ . . ____ . . ____ . . ____
72
65
73
6
40
1.25
49
0.5
74
0
49
-0.25
74
0
49
0.0
74
0
49
-0.25
74
0
49
0.0
74
0
49
-0.25
74
0
0
LTYPE
5
282
330
247
100
AcDbSymbolTableRecord
100
AcDbLinetypeTableRecord
2
DIVIDE2
70
0
3
Divide2 __..__..__..__..__..__..__..__.._
72
65
73
6
40
0.625
49
0.25
74
0
49
-0.125
74
0
49
0.0
74
0
49
-0.125
74
0
49
0.0
74
0
49
-0.125
74
0
0
LTYPE
5
283
330
247
100
AcDbSymbolTableRecord
100
AcDbLinetypeTableRecord
2
DIVIDEX2
70
0
3
Dividex2 ________  .  .  ________  .  .  _
72
65
73
6
40
2.5
49
1.0
74
0
49
-0.5
74
0
49
0.0
74
0
49
-0.5
74
0
49
0.0
74
0
49
-0.5
74
0
0
LTYPE
5
284
330
247
100
AcDbSymbolTableRecord
100
AcDbLinetypeTableRecord
2
DOT
70
0
3
Dot . . . . . . . . . . . . . . . . . . . . . . . .
72
65
73
2
40
0.25
49
0.0
74
0
49
-0.25
74
0
0
LTYPE
5
285
330
247
100
AcDbSymbolTableRecord
100
AcDbLinetypeTableRecord
2
DOT2
70
0
3
Dot2 ........................................
72
65
73
2
40
0.125
49
0.0
74
0
49
-0.125
74
0
0
LTYPE
5
286
330
247
100
AcDbSymbolTableRecord
100
AcDbLinetypeTableRecord
2
DOTX2
70
0
3
Dotx2 .  .  .  .  .  .  .  .  .  .  .  .  .  .
72
65
73
2
40
0.5
49
0.0
74
0
49
-0.5
74
0
0
LTYPE
5
287
330
247
100
AcDbSymbolTableRecord
100
AcDbLinetypeTableRecord
2
HIDDENX2
70
0
3
Hiddenx2 ____ ____ ____ ____ ____ ____ ____
72
65
73
2
40
0.75
49
0.5
74
0
49
-0.25
74
0
0
LTYPE
5
288
330
247
100
AcDbSymbolTableRecord
100
AcDbLinetypeTableRecord
2
PHANTOM
70
0
3
Phantom ______  __  __  ______  __  __  ______
72
65
73
6
40
2.5
49
1.25
74
0
49
-0.25
74
0
49
0.25
74
0
49
-0.25
74
0
49
0.25
74
0
49
-0.25
74
0
0
LTYPE
5
289
330
247
100
AcDbSymbolTableRecord
100
AcDbLinetypeTableRecord
2
PHANTOM2
70
0
3
Phantom2 ___ _ _ ___ _ _ ___ _ _ ___ _ _
72
65
73
6
40
1.25
49
0.625
74
0
49
-0.125
74
0
49
0.125
74
0
49
-0.125
74
0
49
0.125
74
0
49
-0.125
74
0
0
LTYPE
5
28A
330
247
100
AcDbSymbolTableRecord
100
AcDbLinetypeTableRecord
2
PHANTOMX2
70
0
3
Phantomx2 ____________    ____    ____   _
72
65
73
6
40
5.0
49
2.5
74
0
49
-0.5
74
0
49
0.5
74
0
49
-0.5
74
0
49
0.5
74
0
49
-0.5
74
0
0
ENDTAB
0
TABLE
2
LAYER
5
244
330
0
100
AcDbSymbolTable
70
6
0
LAYER
5
252
330
244
100
AcDbSymbolTableRecord
100
AcDbLayerTableRecord
2
0
70
0
62
7
6
Continuous
370
0
390
251
0
LAYER
5
23F
330
244
100
AcDbSymbolTableRecord
100
AcDbLayerTableRecord
2
Bemassung
70
0
 62
   7
6
Continuous
370
0
390
251
0
LAYER
5
240
330
244
100
AcDbSymbolTableRecord
100
AcDbLayerTableRecord
2
Rahmen
70
0
 62
   7
6
Continuous
370
0
390
251
0
LAYER
5
241
330
244
100
AcDbSymbolTableRecord
100
AcDbLayerTableRecord
2
Geo
70
0
 62
   7
6
Continuous
370
0
390
251
0
LAYER
5
33A
330
244
100
AcDbSymbolTableRecord
100
AcDbLayerTableRecord
2
Defpoints
70
0
62
7
6
Continuous
290
0
370
-3
390
251
0
LAYER
5
57E
330
244
100
AcDbSymbolTableRecord
100
AcDbLayerTableRecord
2
Text
70
0
 62
   7
6
Continuous
370
0
390
251
1001
AcAecLayerStandard
1000

1000

0
ENDTAB
0
TABLE
2
STYLE
5
245
330
0
100
AcDbSymbolTable
70
2
0
STYLE
5
253
330
245
100
AcDbSymbolTableRecord
100
AcDbTextStyleTableRecord
2
Standard
70
0
40
0.0
41
1.0
50
0.0
71
0
42
0.2
3
Arial
4

1001
ACAD
1000
Arial
1071
0
0
STYLE
5
132
330
245
100
AcDbSymbolTableRecord
100
AcDbTextStyleTableRecord
2
Beschriftung
70
0
40
0.0
41
1.0
50
0.0
71
0
42
0.2
3
Arial
4

1001
ACAD
1000
Arial
1071
0
1001
AcadAnnotative
1000
AnnotativeData
1070
1
1070
1
0
ENDTAB
0
TABLE
2
VIEW
5
248
330
0
100
AcDbSymbolTable
70
0
0
ENDTAB
0
TABLE
2
UCS
5
249
330
0
100
AcDbSymbolTable
70
0
0
ENDTAB
0
TABLE
2
APPID
5
24B
330
0
100
AcDbSymbolTable
70
13
0
APPID
5
254
330
24B
100
AcDbSymbolTableRecord
100
AcDbRegAppTableRecord
2
ACAD
70
0
0
APPID
5
26C
330
24B
100
AcDbSymbolTableRecord
100
AcDbRegAppTableRecord
2
VD_INVISIBLE_NOT_FOR_READ
70
0
0
APPID
5
26D
330
24B
100
AcDbSymbolTableRecord
100
AcDbRegAppTableRecord
2
VD_TEMPHATCH
70
0
0
APPID
5
26E
330
24B
100
AcDbSymbolTableRecord
100
AcDbRegAppTableRecord
2
VDEXTRAPARAM
70
0
0
APPID
5
26F
330
24B
100
AcDbSymbolTableRecord
100
AcDbRegAppTableRecord
2
PE_URL
70
0
0
APPID
5
270
330
24B
100
AcDbSymbolTableRecord
100
AcDbRegAppTableRecord
2
VD_UNKNOWN
70
0
0
APPID
5
28F
330
24B
100
AcDbSymbolTableRecord
100
AcDbRegAppTableRecord
2
AcadAnnotative
70
0
0
APPID
5
290
330
24B
100
AcDbSymbolTableRecord
100
AcDbRegAppTableRecord
2
ACAD_DSTYLE_DIMJAG
70
0
0
APPID
5
291
330
24B
100
AcDbSymbolTableRecord
100
AcDbRegAppTableRecord
2
ACAD_DSTYLE_DIMTALN
70
0
0
APPID
5
293
330
24B
100
AcDbSymbolTableRecord
100
AcDbRegAppTableRecord
2
ACAD_PSEXT
70
0
0
APPID
5
42A
330
24B
100
AcDbSymbolTableRecord
100
AcDbRegAppTableRecord
2
ACAD_MLEADERVER
70
0
0
APPID
5
532
330
24B
100
AcDbSymbolTableRecord
100
AcDbRegAppTableRecord
2
ACAD_EXEMPT_FROM_CAD_STANDARDS
70
0
0
APPID
5
57F
330
24B
100
AcDbSymbolTableRecord
100
AcDbRegAppTableRecord
2
AcAecLayerStandard
70
0
0
ENDTAB
0
TABLE
2
DIMSTYLE
5
24C
330
0
100
AcDbSymbolTable
70
3
100
AcDbDimStyleTable
71
2
340
27
340
269
0
DIMSTYLE
105
269
330
24C
100
AcDbSymbolTableRecord
100
AcDbDimStyleTableRecord
2
Standard
70
0
172
1
174
1
288
1
340
253
342
23C
0
DIMSTYLE
105
137
330
24C
100
AcDbSymbolTableRecord
100
AcDbDimStyleTableRecord
2
Beschriftung
70
0
41
2.5
42
0.625
44
1.25
73
0
74
0
77
1
140
2.5
147
0.625
172
1
174
1
271
2
288
1
340
253
342
23C
1001
AcadAnnotative
1000
AnnotativeData
1070
1
1070
1
1001
ACAD_DSTYLE_DIMJAG
1070
388
1040
1.5
1001
ACAD_DSTYLE_DIMTALN
1070
392
1070
0
0
DIMSTYLE
105
27
102
{ACAD_REACTORS
330
F10003
330
F1000D
330
F10017
330
F1001C
330
F10021
330
F10008
330
F10012
330
F10026
102
}
330
24C
100
AcDbSymbolTableRecord
100
AcDbDimStyleTableRecord
2
BEM-ISBE
70
0
41
2.5
42
0.625
44
1.25
48
0.000000001
71
1
73
0
74
0
77
1
140
2.5
144
1.00000000000000
146
0.5
147
0.625
171
 3
172
 1
179
 3
271
 3
272
 3
274
 3
340
253
342
23C
1001
ACAD_DSTYLE_DIMJAG
1070
388
1040
1.5
1001
ACAD_DSTYLE_DIMTALN
1070
392
1070
1
0
ENDTAB
0
TABLE
2
BLOCK_RECORD
5
243
330
0
100
AcDbSymbolTable
70
5
0
BLOCK_RECORD
5
261
330
243
100
AcDbSymbolTableRecord
100
AcDbBlockTableRecord
2
*Model_Space
340
FD0
0
BLOCK_RECORD
5
25D
330
243
100
AcDbSymbolTableRecord
100
AcDbBlockTableRecord
2
*Paper_Space
340
FD1
0
BLOCK_RECORD
5
265
330
243
100
AcDbSymbolTableRecord
100
AcDbBlockTableRecord
2
*Paper_Space0
340
0
0
BLOCK_RECORD
5
23C
330
243
100
AcDbSymbolTableRecord
100
AcDbBlockTableRecord
2
VDDIM_DEFAULT
340
0
102
{BLKREFS
102
}
0
BLOCK_RECORD
5
23E
330
243
100
AcDbSymbolTableRecord
100
AcDbBlockTableRecord
2
VDDIM_NONE
340
0
0
BLOCK_RECORD
5
F10002
330
243
100
AcDbSymbolTableRecord
100
AcDbBlockTableRecord
2
*D3
340
0
0
BLOCK_RECORD
5
F1000C
330
243
100
AcDbSymbolTableRecord
100
AcDbBlockTableRecord
2
*D5
340
0
0
BLOCK_RECORD
5
F10016
330
243
100
AcDbSymbolTableRecord
100
AcDbBlockTableRecord
2
*D7
340
0
0
BLOCK_RECORD
5
F1001B
330
243
100
AcDbSymbolTableRecord
100
AcDbBlockTableRecord
2
*D8
340
0
0
BLOCK_RECORD
5
F10020
330
243
100
AcDbSymbolTableRecord
100
AcDbBlockTableRecord
2
*D9
340
0
0
BLOCK_RECORD
5
F10007
330
243
100
AcDbSymbolTableRecord
100
AcDbBlockTableRecord
2
*D4
340
0
0
BLOCK_RECORD
5
F10011
330
243
100
AcDbSymbolTableRecord
100
AcDbBlockTableRecord
2
*D6
340
0
0
BLOCK_RECORD
5
F10025
330
243
100
AcDbSymbolTableRecord
100
AcDbBlockTableRecord
2
*D10
340
0
0
ENDTAB
0
ENDSEC
0
SECTION
2
BLOCKS
0
BLOCK
5
262
330
261
100
AcDbEntity
8
0
100
AcDbBlockBegin
2
*Model_Space
70
0
10
0.0
20
0.0
30
0.0
3
*Model_Space
1

0
ENDBLK
5
263
330
261
100
AcDbEntity
8
0
100
AcDbBlockEnd
0
BLOCK
5
25E
330
25D
100
AcDbEntity
67
1
8
0
100
AcDbBlockBegin
2
*Paper_Space
70
0
10
0.0
20
0.0
30
0.0
3
*Paper_Space
1

0
ENDBLK
5
25F
330
25D
100
AcDbEntity
67
1
8
0
100
AcDbBlockEnd
0
BLOCK
5
266
330
265
100
AcDbEntity
8
0
100
AcDbBlockBegin
2
*Paper_Space0
70
0
10
0.0
20
0.0
30
0.0
3
*Paper_Space0
1

0
VIEWPORT
5
296
102
{ACAD_XDICTIONARY
360
58E
102
}
330
265
100
AcDbEntity
8
0
60
1
100
AcDbViewport
10
0.0
20
0.0
30
0.0
40
10.0
41
10.0
69
0
12
0.0
22
0.0
13
0.0
23
0.0
14
1.0
24
1.0
15
0.0
25
0.0
16
0.0
26
0.0
36
1.0
17
0.0
27
0.0
37
0.0
42
0.0
43
0.0
44
0.0
45
10.0
50
0.0
51
0.0000000000007958
72
100
90
163872
1

281
0
71
0
74
0
110
0.0
120
0.0
130
0.0
111
1.0
121
0.0
131
0.0
112
0.0
122
1.0
132
0.0
79
0
146
0.0
1001
VD_INVISIBLE_NOT_FOR_READ
1000
VD_INVISIBLE_NOT_FOR_READ
0
VIEWPORT
5
297
102
{ACAD_XDICTIONARY
360
590
102
}
330
265
100
AcDbEntity
8
0
60
1
100
AcDbViewport
10
0.0
20
0.0
30
0.0
40
10.0
41
10.0
69
0
12
0.0
22
0.0
13
0.0
23
0.0
14
1.0
24
1.0
15
0.0
25
0.0
16
0.0
26
0.0
36
1.0
17
0.0
27
0.0
37
0.0
42
0.0
43
0.0
44
0.0
45
10.0
50
0.0
51
0.0000000000007958
72
100
90
163872
1

281
0
71
0
74
0
110
0.0
120
0.0
130
0.0
111
1.0
121
0.0
131
0.0
112
0.0
122
1.0
132
0.0
79
0
146
0.0
1001
VD_INVISIBLE_NOT_FOR_READ
1000
VD_INVISIBLE_NOT_FOR_READ
0
ENDBLK
5
267
330
265
100
AcDbEntity
8
0
100
AcDbBlockEnd
0
BLOCK
5
28B
330
23C
100
AcDbEntity
8
0
100
AcDbBlockBegin
2
VDDIM_DEFAULT
70
0
10
0.0
20
0.0
30
0.0
3
VDDIM_DEFAULT
1

0
LWPOLYLINE
5
23D
330
23C
100
AcDbEntity
8
0
6
Continuous
62
0
100
AcDbPolyline
90
4
70
0
43
0.0
10
0.0
20
0.0
10
-1.0
20
-0.1665
10
-1.0
20
0.1665
10
0.0
20
0.0
1001
VDEXTRAPARAM
1071
1
1071
0
1071
0
1040
1.0
1000

1000

1040
0.0
1040
0.0
0
HATCH
5
292
330
23C
100
AcDbEntity
8
0
6
Continuous
62
0
100
AcDbHatch
10
0.0
20
0.0
30
0.0
210
0.0
220
0.0
230
1.0
2
SOLID
70
1
71
0
91
1
92
2
72
0
73
1
93
3
10
0.0
20
0.0
10
-1.0
20
-0.1665
10
-1.0
20
0.1665
97
0
75
0
76
1
98
1
10
0.0
20
0.0
1001
VDEXTRAPARAM
1071
1
1071
0
1071
0
1040
1.0
1000

1000

1040
0.0
1040
0.0
1001
VD_TEMPHATCH
1000
VD_TEMPHATCH
0
ENDBLK
5
28C
330
23C
100
AcDbEntity
8
0
100
AcDbBlockEnd
0
BLOCK
5
28D
330
23E
100
AcDbEntity
8
0
100
AcDbBlockBegin
2
VDDIM_NONE
70
0
10
0.0
20
0.0
30
0.0
3
VDDIM_NONE
1

0
ENDBLK
5
28E
330
23E
100
AcDbEntity
8
0
100
AcDbBlockEnd
  0
BLOCK
  5
F1002A
330
F10002
100
AcDbEntity
  8
0
100
AcDbBlockBegin
  2
*D3
 70
     1
 10
0.0
 20
0.0
 30
0.0
  3
*D3
  1

  0
LINE
  5
F1002B
330
F10002
100
AcDbEntity
  8
Bemassung
 62
     0
370
    -2
100
AcDbLine
10
-55.6118820468343
20
-19.6287944492628
30
0.000000000000000
11
-55.6118820468343
21
52.3712055507372
31
0.000000000000000
  0
LINE
  5
F1002C
330
F10002
100
AcDbEntity
  8
Bemassung
 62
     0
370
    -2
100
AcDbLine
10
-55.4618820468343
20
-19.6287944492628
30
0.000000000000000
11
-55.4618820468343
21
10.3712055507372
31
0.000000000000000
  0
LINE
  5
F1002D
330
F10002
100
AcDbEntity
  8
Bemassung
 62
     0
370
    -2
100
AcDbLine
10
-73.5819601040763
20
-17.6287944492628
30
0.000000000000000
11
-55.4618820468343
21
-17.6287944492628
31
0.000000000000000
  0
INSERT
  5
F1002E
330
F10002
100
AcDbEntity
  8
Bemassung
 62
     0
370
    -2
100
AcDbBlockReference
  2
VDDIM_DEFAULT
10
-55.6118820468343
20
-17.6287944492628
30
0.000000000000000
 41
2.50000000000000
 42
2.50000000000000
 43
2.50000000000000
  0
INSERT
  5
F1002F
330
F10002
100
AcDbEntity
  8
Bemassung
 62
     0
370
    -2
100
AcDbBlockReference
  2
VDDIM_DEFAULT
10
-55.4618820468343
20
-17.6287944492628
30
0.000000000000000
 41
2.50000000000000
 42
2.50000000000000
 43
2.50000000000000
 50
180.000000000000
  0
MTEXT
  5
F10030
330
F10002
100
AcDbEntity
  8
Bemassung
 62
     0
100
AcDbMText
10
-57.5600446500272
20
-16.9621277825961
30
0.000000000000000
 40
2.50000000000000
 41
0.0
 71
     8
 72
     1
  1
0.15 x 45°
 11
1.00000000000000
 21
0.000000000000000
 31
0.0
 73
     1
 44
1.0
1001
ACAD
1000
MTEXTBEGIN
1070
73
1070
1
1070
44
1040
1.0
1070
74
1070
0
1000
MTEXTEND
  0
POINT
  5
F10031
330
F10002
100
AcDbEntity
  8
Bemassung
 62
     0
100
AcDbPoint
10
-55.6118820468343
20
-19.6287944492628
30
0.000000000000000
  0
POINT
  5
F10032
330
F10002
100
AcDbEntity
  8
Bemassung
 62
     0
100
AcDbPoint
10
-55.4618820468343
20
-19.6287944492628
30
0.000000000000000
  0
ENDBLK
  5
F10033
330
F10002
100
AcDbEntity
  8
0
100
AcDbBlockEnd
  0
BLOCK
  5
F10034
330
F1000C
100
AcDbEntity
  8
0
100
AcDbBlockBegin
  2
*D5
 70
     1
 10
0.0
 20
0.0
 30
0.0
  3
*D5
  1

  0
LINE
  5
F10035
330
F1000C
100
AcDbEntity
  8
Bemassung
 62
     0
370
    -2
100
AcDbLine
10
-55.6118820468343
20
-19.6287944492628
30
0.000000000000000
11
-55.6118820468343
21
52.3712055507372
31
0.000000000000000
  0
LINE
  5
F10036
330
F1000C
100
AcDbEntity
  8
Bemassung
 62
     0
370
    -2
100
AcDbLine
10
-27.6118820468343
20
-9.62879444926278
30
0.000000000000000
11
-27.6118820468343
21
10.3712055507372
31
0.000000000000000
  0
LINE
  5
F10037
330
F1000C
100
AcDbEntity
  8
Bemassung
 62
     0
370
    -2
100
AcDbLine
10
-55.6118820468343
20
-7.62879444926278
30
0.000000000000000
11
-27.6118820468343
21
-7.62879444926278
31
0.000000000000000
  0
INSERT
  5
F10038
330
F1000C
100
AcDbEntity
  8
Bemassung
 62
     0
370
    -2
100
AcDbBlockReference
  2
VDDIM_DEFAULT
10
-55.6118820468343
20
-7.62879444926278
30
0.000000000000000
 41
2.50000000000000
 42
2.50000000000000
 43
2.50000000000000
 50
180.000000000000
  0
INSERT
  5
F10039
330
F1000C
100
AcDbEntity
  8
Bemassung
 62
     0
370
    -2
100
AcDbBlockReference
  2
VDDIM_DEFAULT
10
-27.6118820468343
20
-7.62879444926278
30
0.000000000000000
 41
2.50000000000000
 42
2.50000000000000
 43
2.50000000000000
  0
MTEXT
  5
F1003A
330
F1000C
100
AcDbEntity
  8
Bemassung
 62
     0
100
AcDbMText
10
-41.6118820468343
20
-6.96212778259612
30
0.000000000000000
 40
2.50000000000000
 41
0.0
 71
     8
 72
     1
  1
28
 11
1.00000000000000
 21
0.000000000000000
 31
0.0
 73
     1
 44
1.0
1001
ACAD
1000
MTEXTBEGIN
1070
73
1070
1
1070
44
1040
1.0
1070
74
1070
0
1000
MTEXTEND
  0
POINT
  5
F1003B
330
F1000C
100
AcDbEntity
  8
Bemassung
 62
     0
100
AcDbPoint
10
-55.6118820468343
20
-19.6287944492628
30
0.000000000000000
  0
POINT
  5
F1003C
330
F1000C
100
AcDbEntity
  8
Bemassung
 62
     0
100
AcDbPoint
10
-27.6118820468343
20
-9.62879444926278
30
0.000000000000000
  0
ENDBLK
  5
F1003D
330
F1000C
100
AcDbEntity
  8
0
100
AcDbBlockEnd
  0
BLOCK
  5
F1003E
330
F10016
100
AcDbEntity
  8
0
100
AcDbBlockBegin
  2
*D7
 70
     1
 10
0.0
 20
0.0
 30
0.0
  3
*D7
  1

  0
LINE
  5
F1003F
330
F10016
100
AcDbEntity
  8
Bemassung
 62
     0
370
    -2
100
AcDbLine
10
-55.6118820468343
20
-19.6287944492628
30
0.000000000000000
11
-55.6118820468343
21
52.3712055507372
31
0.000000000000000
  0
LINE
  5
F10040
330
F10016
100
AcDbEntity
  8
Bemassung
 62
     0
370
    -2
100
AcDbLine
10
16.3881179531657
20
10.0712055507372
30
0.000000000000000
11
16.3881179531657
21
24.3712055507372
31
0.000000000000000
  0
LINE
  5
F10041
330
F10016
100
AcDbEntity
  8
Bemassung
 62
     0
370
    -2
100
AcDbLine
10
-55.6118820468343
20
22.3712055507372
30
0.000000000000000
11
16.3881179531657
21
22.3712055507372
31
0.000000000000000
  0
INSERT
  5
F10042
330
F10016
100
AcDbEntity
  8
Bemassung
 62
     0
370
    -2
100
AcDbBlockReference
  2
VDDIM_DEFAULT
10
-55.6118820468343
20
22.3712055507372
30
0.000000000000000
 41
2.50000000000000
 42
2.50000000000000
 43
2.50000000000000
 50
180.000000000000
  0
INSERT
  5
F10043
330
F10016
100
AcDbEntity
  8
Bemassung
 62
     0
370
    -2
100
AcDbBlockReference
  2
VDDIM_DEFAULT
10
16.3881179531657
20
22.3712055507372
30
0.000000000000000
 41
2.50000000000000
 42
2.50000000000000
 43
2.50000000000000
  0
MTEXT
  5
F10044
330
F10016
100
AcDbEntity
  8
Bemassung
 62
     0
100
AcDbMText
10
-19.6118820468343
20
23.0378722174039
30
0.000000000000000
 40
2.50000000000000
 41
0.0
 71
     8
 72
     1
  1
72
 11
1.00000000000000
 21
0.000000000000000
 31
0.0
 73
     1
 44
1.0
1001
ACAD
1000
MTEXTBEGIN
1070
73
1070
1
1070
44
1040
1.0
1070
74
1070
0
1000
MTEXTEND
  0
POINT
  5
F10045
330
F10016
100
AcDbEntity
  8
Bemassung
 62
     0
100
AcDbPoint
10
-55.6118820468343
20
-19.6287944492628
30
0.000000000000000
  0
POINT
  5
F10046
330
F10016
100
AcDbEntity
  8
Bemassung
 62
     0
100
AcDbPoint
10
16.3881179531657
20
10.0712055507372
30
0.000000000000000
  0
ENDBLK
  5
F10047
330
F10016
100
AcDbEntity
  8
0
100
AcDbBlockEnd
  0
BLOCK
  5
F10048
330
F1001B
100
AcDbEntity
  8
0
100
AcDbBlockBegin
  2
*D8
 70
     1
 10
0.0
 20
0.0
 30
0.0
  3
*D8
  1

  0
LINE
  5
F10049
330
F1001B
100
AcDbEntity
  8
Bemassung
 62
     0
370
    -2
100
AcDbLine
10
-55.6118820468343
20
-19.6287944492628
30
0.000000000000000
11
-55.6118820468343
21
52.3712055507372
31
0.000000000000000
  0
LINE
  5
F1004A
330
F1001B
100
AcDbEntity
  8
Bemassung
 62
     0
370
    -2
100
AcDbLine
10
17.2881179531657
20
10.3712055507372
30
0.000000000000000
11
17.2881179531657
21
37.3712055507372
31
0.000000000000000
  0
LINE
  5
F1004B
330
F1001B
100
AcDbEntity
  8
Bemassung
 62
     0
370
    -2
100
AcDbLine
10
-55.6118820468343
20
35.3712055507372
30
0.000000000000000
11
17.2881179531657
21
35.3712055507372
31
0.000000000000000
  0
INSERT
  5
F1004C
330
F1001B
100
AcDbEntity
  8
Bemassung
 62
     0
370
    -2
100
AcDbBlockReference
  2
VDDIM_DEFAULT
10
-55.6118820468343
20
35.3712055507372
30
0.000000000000000
 41
2.50000000000000
 42
2.50000000000000
 43
2.50000000000000
 50
180.000000000000
  0
INSERT
  5
F1004D
330
F1001B
100
AcDbEntity
  8
Bemassung
 62
     0
370
    -2
100
AcDbBlockReference
  2
VDDIM_DEFAULT
10
17.2881179531657
20
35.3712055507372
30
0.000000000000000
 41
2.50000000000000
 42
2.50000000000000
 43
2.50000000000000
  0
MTEXT
  5
F1004E
330
F1001B
100
AcDbEntity
  8
Bemassung
 62
     0
100
AcDbMText
10
-19.1618820468343
20
36.0378722174039
30
0.000000000000000
 40
2.50000000000000
 41
0.0
 71
     8
 72
     1
  1
72.9
 11
1.00000000000000
 21
0.000000000000000
 31
0.0
 73
     1
 44
1.0
1001
ACAD
1000
MTEXTBEGIN
1070
73
1070
1
1070
44
1040
1.0
1070
74
1070
0
1000
MTEXTEND
  0
POINT
  5
F1004F
330
F1001B
100
AcDbEntity
  8
Bemassung
 62
     0
100
AcDbPoint
10
-55.6118820468343
20
-19.6287944492628
30
0.000000000000000
  0
POINT
  5
F10050
330
F1001B
100
AcDbEntity
  8
Bemassung
 62
     0
100
AcDbPoint
10
17.2881179531657
20
10.3712055507372
30
0.000000000000000
  0
ENDBLK
  5
F10051
330
F1001B
100
AcDbEntity
  8
0
100
AcDbBlockEnd
  0
BLOCK
  5
F10052
330
F10020
100
AcDbEntity
  8
0
100
AcDbBlockBegin
  2
*D9
 70
     1
 10
0.0
 20
0.0
 30
0.0
  3
*D9
  1

  0
LINE
  5
F10053
330
F10020
100
AcDbEntity
  8
Bemassung
 62
     0
370
    -2
100
AcDbLine
10
64.3881179531657
20
9.37120555073722
30
0.000000000000000
11
64.3881179531657
21
52.3712055507372
31
0.000000000000000
  0
LINE
  5
F10054
330
F10020
100
AcDbEntity
  8
Bemassung
 62
     0
370
    -2
100
AcDbLine
10
-55.6118820468343
20
-19.6287944492628
30
0.000000000000000
11
-55.6118820468343
21
52.3712055507372
31
0.000000000000000
  0
LINE
  5
F10055
330
F10020
100
AcDbEntity
  8
Bemassung
 62
     0
370
    -2
100
AcDbLine
10
64.3881179531657
20
50.3712055507372
30
0.000000000000000
11
-55.6118820468343
21
50.3712055507372
31
0.000000000000000
  0
INSERT
  5
F10056
330
F10020
100
AcDbEntity
  8
Bemassung
 62
     0
370
    -2
100
AcDbBlockReference
  2
VDDIM_DEFAULT
10
64.3881179531657
20
50.3712055507372
30
0.000000000000000
 41
2.50000000000000
 42
2.50000000000000
 43
2.50000000000000
  0
INSERT
  5
F10057
330
F10020
100
AcDbEntity
  8
Bemassung
 62
     0
370
    -2
100
AcDbBlockReference
  2
VDDIM_DEFAULT
10
-55.6118820468343
20
50.3712055507372
30
0.000000000000000
 41
2.50000000000000
 42
2.50000000000000
 43
2.50000000000000
 50
180.000000000000
  0
MTEXT
  5
F10058
330
F10020
100
AcDbEntity
  8
Bemassung
 62
     0
100
AcDbMText
10
4.38811795316568
20
51.0378722174039
30
0.000000000000000
 40
2.50000000000000
 41
0.0
 71
     8
 72
     1
  1
120
 11
1.00000000000000
 21
0.000000000000000
 31
0.0
 73
     1
 44
1.0
1001
ACAD
1000
MTEXTBEGIN
1070
73
1070
1
1070
44
1040
1.0
1070
74
1070
0
1000
MTEXTEND
  0
POINT
  5
F10059
330
F10020
100
AcDbEntity
  8
Bemassung
 62
     0
100
AcDbPoint
10
64.3881179531657
20
9.37120555073722
30
0.000000000000000
  0
POINT
  5
F1005A
330
F10020
100
AcDbEntity
  8
Bemassung
 62
     0
100
AcDbPoint
10
-55.6118820468343
20
-19.6287944492628
30
0.000000000000000
  0
ENDBLK
  5
F1005B
330
F10020
100
AcDbEntity
  8
0
100
AcDbBlockEnd
  0
BLOCK
  5
F1005C
330
F10007
100
AcDbEntity
  8
0
100
AcDbBlockBegin
  2
*D4
 70
     1
 10
0.0
 20
0.0
 30
0.0
  3
*D4
  1

  0
LINE
  5
F1005D
330
F10007
100
AcDbEntity
  8
Bemassung
 62
     0
370
    -2
100
AcDbLine
10
-55.4618820468343
20
-1.62879444926278
30
0.000000000000000
11
-67.6118820468343
21
-1.62879444926278
31
0.000000000000000
  0
LINE
  5
F1005E
330
F10007
100
AcDbEntity
  8
Bemassung
 62
     0
370
    -2
100
AcDbLine
10
-55.4618820468343
20
10.3712055507372
30
0.000000000000000
11
-67.6118820468343
21
10.3712055507372
31
0.000000000000000
  0
LINE
  5
F1005F
330
F10007
100
AcDbEntity
  8
Bemassung
 62
     0
370
    -2
100
AcDbLine
10
-65.6118820468343
20
-1.62879444926278
30
0.000000000000000
11
-65.6118820468343
21
10.3712055507372
31
0.000000000000000
  0
INSERT
  5
F10060
330
F10007
100
AcDbEntity
  8
Bemassung
 62
     0
370
    -2
100
AcDbBlockReference
  2
VDDIM_DEFAULT
10
-65.6118820468343
20
-1.62879444926278
30
0.000000000000000
 41
2.50000000000000
 42
2.50000000000000
 43
2.50000000000000
 50
90.0000000000000
  0
INSERT
  5
F10061
330
F10007
100
AcDbEntity
  8
Bemassung
 62
     0
370
    -2
100
AcDbBlockReference
  2
VDDIM_DEFAULT
10
-65.6118820468343
20
10.3712055507372
30
0.000000000000000
 41
2.50000000000000
 42
2.50000000000000
 43
2.50000000000000
 50
270.000000000000
  0
MTEXT
  5
F10062
330
F10007
100
AcDbEntity
  8
Bemassung
 62
     0
100
AcDbMText
10
-66.2785487135010
20
4.27339308085223
30
0.000000000000000
 40
2.50000000000000
 41
0.0
 71
     8
 72
     1
  1
Ø12
 11
6.12323399573677e-17
 21
1.00000000000000
 31
0.0
 73
     1
 44
1.0
1001
ACAD
1000
MTEXTBEGIN
1070
73
1070
1
1070
44
1040
1.0
1070
74
1070
0
1000
MTEXTEND
  0
POINT
  5
F10063
330
F10007
100
AcDbEntity
  8
Bemassung
 62
     0
100
AcDbPoint
10
-55.4618820468343
20
-1.62879444926278
30
0.000000000000000
  0
POINT
  5
F10064
330
F10007
100
AcDbEntity
  8
Bemassung
 62
     0
100
AcDbPoint
10
-55.4618820468343
20
10.3712055507372
30
0.000000000000000
  0
ENDBLK
  5
F10065
330
F10007
100
AcDbEntity
  8
0
100
AcDbBlockEnd
  0
BLOCK
  5
F10066
330
F10011
100
AcDbEntity
  8
0
100
AcDbBlockBegin
  2
*D6
 70
     1
 10
0.0
 20
0.0
 30
0.0
  3
*D6
  1

  0
LINE
  5
F10067
330
F10011
100
AcDbEntity
  8
Bemassung
 62
     0
370
    -2
100
AcDbLine
10
-27.6118820468343
20
-1.32879444926278
30
0.000000000000000
11
-8.61188204683432
21
-1.32879444926278
31
0.000000000000000
  0
LINE
  5
F10068
330
F10011
100
AcDbEntity
  8
Bemassung
 62
     0
370
    -2
100
AcDbLine
10
-27.6118820468343
20
10.0712055507372
30
0.000000000000000
11
-8.61188204683432
21
10.0712055507372
31
0.000000000000000
  0
LINE
  5
F10069
330
F10011
100
AcDbEntity
  8
Bemassung
 62
     0
370
    -2
100
AcDbLine
10
-10.6118820468343
20
-17.5758889852559
30
0.000000000000000
11
-10.6118820468343
21
10.0712055507372
31
0.000000000000000
  0
INSERT
  5
F1006A
330
F10011
100
AcDbEntity
  8
Bemassung
 62
     0
370
    -2
100
AcDbBlockReference
  2
VDDIM_DEFAULT
10
-10.6118820468343
20
-1.32879444926278
30
0.000000000000000
 41
2.50000000000000
 42
2.50000000000000
 43
2.50000000000000
 50
90.0000000000000
  0
INSERT
  5
F1006B
330
F10011
100
AcDbEntity
  8
Bemassung
 62
     0
370
    -2
100
AcDbBlockReference
  2
VDDIM_DEFAULT
10
-10.6118820468343
20
10.0712055507372
30
0.000000000000000
 41
2.50000000000000
 42
2.50000000000000
 43
2.50000000000000
 50
270.000000000000
  0
MTEXT
  5
F1006C
330
F10011
100
AcDbEntity
  8
Bemassung
 62
     0
100
AcDbMText
10
-11.2785487135010
20
-7.92130994828304
30
0.000000000000000
 40
2.50000000000000
 41
0.0
 71
     8
 72
     1
  1
Ø11.4
 11
6.12323399573677e-17
 21
1.00000000000000
 31
0.0
 73
     1
 44
1.0
1001
ACAD
1000
MTEXTBEGIN
1070
73
1070
1
1070
44
1040
1.0
1070
74
1070
0
1000
MTEXTEND
  0
POINT
  5
F1006D
330
F10011
100
AcDbEntity
  8
Bemassung
 62
     0
100
AcDbPoint
10
-27.6118820468343
20
-1.32879444926278
30
0.000000000000000
  0
POINT
  5
F1006E
330
F10011
100
AcDbEntity
  8
Bemassung
 62
     0
100
AcDbPoint
10
-27.6118820468343
20
10.0712055507372
30
0.000000000000000
  0
ENDBLK
  5
F1006F
330
F10011
100
AcDbEntity
  8
0
100
AcDbBlockEnd
  0
BLOCK
  5
F10070
330
F10025
100
AcDbEntity
  8
0
100
AcDbBlockBegin
  2
*D10
 70
     1
 10
0.0
 20
0.0
 30
0.0
  3
*D10
  1

  0
LINE
  5
F10071
330
F10025
100
AcDbEntity
  8
Bemassung
 62
     0
370
    -2
100
AcDbLine
10
63.3881179531657
20
10.3712055507372
30
0.000000000000000
11
76.0335999486044
21
10.3712055507372
31
0.000000000000000
  0
LINE
  5
F10072
330
F10025
100
AcDbEntity
  8
Bemassung
 62
     0
370
    -2
100
AcDbLine
10
63.3881179531657
20
-1.62879444926278
30
0.000000000000000
11
76.0335999486044
21
-1.62879444926278
31
0.000000000000000
  0
LINE
  5
F10073
330
F10025
100
AcDbEntity
  8
Bemassung
 62
     0
370
    -2
100
AcDbLine
10
74.0335999486044
20
10.3712055507372
30
0.000000000000000
11
74.0335999486044
21
-1.62879444926278
31
0.000000000000000
  0
INSERT
  5
F10074
330
F10025
100
AcDbEntity
  8
Bemassung
 62
     0
370
    -2
100
AcDbBlockReference
  2
VDDIM_DEFAULT
10
74.0335999486044
20
10.3712055507372
30
0.000000000000000
 41
2.50000000000000
 42
2.50000000000000
 43
2.50000000000000
 50
270.000000000000
  0
INSERT
  5
F10075
330
F10025
100
AcDbEntity
  8
Bemassung
 62
     0
370
    -2
100
AcDbBlockReference
  2
VDDIM_DEFAULT
10
74.0335999486044
20
-1.62879444926278
30
0.000000000000000
 41
2.50000000000000
 42
2.50000000000000
 43
2.50000000000000
 50
90.0000000000000
  0
MTEXT
  5
F10076
330
F10025
100
AcDbEntity
  8
Bemassung
 62
     0
100
AcDbMText
10
73.3669332819377
20
4.45552664546628
30
0.000000000000000
 40
2.50000000000000
 41
0.0
 71
     8
 72
     1
  1
Ø12
 11
6.12323399573677e-17
 21
1.00000000000000
 31
0.0
 73
     1
 44
1.0
1001
ACAD
1000
MTEXTBEGIN
1070
73
1070
1
1070
44
1040
1.0
1070
74
1070
0
1000
MTEXTEND
  0
POINT
  5
F10077
330
F10025
100
AcDbEntity
  8
Bemassung
 62
     0
100
AcDbPoint
10
63.3881179531657
20
10.3712055507372
30
0.000000000000000
  0
POINT
  5
F10078
330
F10025
100
AcDbEntity
  8
Bemassung
 62
     0
100
AcDbPoint
10
63.3881179531657
20
-1.62879444926278
30
0.000000000000000
  0
ENDBLK
  5
F10079
330
F10025
100
AcDbEntity
  8
0
100
AcDbBlockEnd
0
ENDSEC
0
SECTION
2
ENTITIES
  0
DIMENSION
  5
F10003
330
261
100
AcDbEntity
  8
Bemassung
100
AcDbDimension
  2
*D3
10
-55.4618820468343
20
-17.6287944492628
30
0.000000000000000
11
-57.5600446500272
21
-16.9621277825961
31
0.000000000000000
 70
32
 1
0.15 x 45°
 71
     8
  3
BEM-ISBE
100
AcDbAlignedDimension
13
-55.6118820468343
23
-19.6287944492628
33
0.000000000000000
14
-55.4618820468343
24
-19.6287944492628
34
0.000000000000000
100
AcDbRotatedDimension
1001
ACAD
1000
DSTYLE
1002
{
1070
284
1070
8
1070
78
1070
8
1070
144
1040
1.00000000000000
1070
147
1040
0.625
1070
 72
1070
 0
1070
 71
1070
 0
1002
}
  0
DIMENSION
  5
F1000D
330
261
100
AcDbEntity
  8
Bemassung
100
AcDbDimension
  2
*D5
10
-27.6118820468343
20
-7.62879444926278
30
0.000000000000000
11
-41.6118820468343
21
-6.96212778259612
31
0.000000000000000
 70
32
 1
28
 71
     8
  3
BEM-ISBE
100
AcDbAlignedDimension
13
-55.6118820468343
23
-19.6287944492628
33
0.000000000000000
14
-27.6118820468343
24
-9.62879444926278
34
0.000000000000000
100
AcDbRotatedDimension
1001
ACAD
1000
DSTYLE
1002
{
1070
284
1070
8
1070
78
1070
8
1070
144
1040
1.00000000000000
1070
147
1040
0.625
1070
 72
1070
 0
1070
 71
1070
 0
1002
}
  0
DIMENSION
  5
F10017
330
261
100
AcDbEntity
  8
Bemassung
100
AcDbDimension
  2
*D7
10
16.3881179531657
20
22.3712055507372
30
0.000000000000000
11
-19.6118820468343
21
23.0378722174039
31
0.000000000000000
 70
32
 1
72
 71
     8
  3
BEM-ISBE
100
AcDbAlignedDimension
13
-55.6118820468343
23
-19.6287944492628
33
0.000000000000000
14
16.3881179531657
24
10.0712055507372
34
0.000000000000000
100
AcDbRotatedDimension
1001
ACAD
1000
DSTYLE
1002
{
1070
284
1070
8
1070
78
1070
8
1070
144
1040
1.00000000000000
1070
147
1040
0.625
1070
 72
1070
 0
1070
 71
1070
 0
1002
}
  0
DIMENSION
  5
F1001C
330
261
100
AcDbEntity
  8
Bemassung
100
AcDbDimension
  2
*D8
10
17.2881179531657
20
35.3712055507372
30
0.000000000000000
11
-19.1618820468343
21
36.0378722174039
31
0.000000000000000
 70
32
 1
72.9
 71
     8
  3
BEM-ISBE
100
AcDbAlignedDimension
13
-55.6118820468343
23
-19.6287944492628
33
0.000000000000000
14
17.2881179531657
24
10.3712055507372
34
0.000000000000000
100
AcDbRotatedDimension
1001
ACAD
1000
DSTYLE
1002
{
1070
284
1070
8
1070
78
1070
8
1070
144
1040
1.00000000000000
1070
147
1040
0.625
1070
 72
1070
 0
1070
 71
1070
 0
1002
}
  0
DIMENSION
  5
F10021
330
261
100
AcDbEntity
  8
Bemassung
100
AcDbDimension
  2
*D9
10
-55.6118820468343
20
50.3712055507372
30
0.000000000000000
11
4.38811795316568
21
51.0378722174039
31
0.000000000000000
 70
32
 1
120
 71
     8
  3
BEM-ISBE
100
AcDbAlignedDimension
13
64.3881179531657
23
9.37120555073722
33
0.000000000000000
14
-55.6118820468343
24
-19.6287944492628
34
0.000000000000000
100
AcDbRotatedDimension
1001
ACAD
1000
DSTYLE
1002
{
1070
284
1070
8
1070
78
1070
8
1070
144
1040
1.00000000000000
1070
147
1040
0.625
1070
 72
1070
 0
1070
 71
1070
 0
1002
}
  0
DIMENSION
  5
F10008
330
261
100
AcDbEntity
  8
Bemassung
100
AcDbDimension
  2
*D4
10
-65.6118820468343
20
10.3712055507372
30
0.000000000000000
11
-66.2785487135010
21
4.27339308085223
31
0.000000000000000
 70
32
 1
Ø12
 71
     8
  3
BEM-ISBE
100
AcDbAlignedDimension
13
-55.4618820468343
23
-1.62879444926278
33
0.000000000000000
14
-55.4618820468343
24
10.3712055507372
34
0.000000000000000
50
90.0000000000000
100
AcDbRotatedDimension
1001
ACAD
1000
DSTYLE
1002
{
1070
284
1070
8
1070
78
1070
8
1070
144
1040
1.00000000000000
1070
147
1040
0.625
1070
 72
1070
 0
1070
 71
1070
 0
1002
}
  0
DIMENSION
  5
F10012
330
261
100
AcDbEntity
  8
Bemassung
100
AcDbDimension
  2
*D6
10
-10.6118820468343
20
10.0712055507372
30
0.000000000000000
11
-11.2785487135010
21
-7.92130994828304
31
0.000000000000000
 70
32
 1
Ø11.4
 71
     8
  3
BEM-ISBE
100
AcDbAlignedDimension
13
-27.6118820468343
23
-1.32879444926278
33
0.000000000000000
14
-27.6118820468343
24
10.0712055507372
34
0.000000000000000
50
90.0000000000000
100
AcDbRotatedDimension
1001
ACAD
1000
DSTYLE
1002
{
1070
284
1070
8
1070
78
1070
8
1070
144
1040
1.00000000000000
1070
147
1040
0.625
1070
 72
1070
 0
1070
 71
1070
 0
1002
}
  0
DIMENSION
  5
F10026
330
261
100
AcDbEntity
  8
Bemassung
100
AcDbDimension
  2
*D10
10
74.0335999486044
20
-1.62879444926278
30
0.000000000000000
11
73.3669332819377
21
4.45552664546628
31
0.000000000000000
 70
32
 1
Ø12
 71
     8
  3
BEM-ISBE
100
AcDbAlignedDimension
13
63.3881179531657
23
10.3712055507372
33
0.000000000000000
14
63.3881179531657
24
-1.62879444926278
34
0.000000000000000
50
90.0000000000000
100
AcDbRotatedDimension
1001
ACAD
1000
DSTYLE
1002
{
1070
284
1070
8
1070
78
1070
8
1070
144
1040
1.00000000000000
1070
147
1040
0.625
1070
 72
1070
 0
1070
 71
1070
 0
1002
}
  0
LINE
  5
F1007A
330
F1007B
100
AcDbEntity
8
Geo
100
AcDbLine
10
-55.6118820468343
20
4.37120555073722
30
0.000000000000000
11
-55.6118820468343
21
10.2212055507372
31
0.000000000000000
  0
LINE
  5
F1007C
330
F1007D
100
AcDbEntity
8
Geo
100
AcDbLine
10
-55.6118820468343
20
10.2212055507372
30
0.000000000000000
11
-55.4618820468343
21
10.3712055507372
31
0.000000000000000
  0
LINE
  5
F1007E
330
F1007F
100
AcDbEntity
8
Geo
100
AcDbLine
10
-55.4618820468343
20
10.3712055507372
30
0.000000000000000
11
-27.6118820468343
21
10.3712055507372
31
0.000000000000000
  0
LINE
  5
F10080
330
F10081
100
AcDbEntity
8
Geo
100
AcDbLine
10
-27.6118820468343
20
10.3712055507372
30
0.000000000000000
11
-27.6118820468343
21
10.0712055507372
31
0.000000000000000
  0
LINE
  5
F10082
330
F10083
100
AcDbEntity
8
Geo
100
AcDbLine
10
-27.6118820468343
20
10.0712055507372
30
0.000000000000000
11
16.3881179531657
21
10.0712055507372
31
0.000000000000000
  0
LINE
  5
F10084
330
F10085
100
AcDbEntity
8
Geo
100
AcDbLine
10
16.3881179531657
20
10.0712055507372
30
0.000000000000000
11
17.2881179531657
21
10.3712055507372
31
0.000000000000000
  0
LINE
  5
F10086
330
F10087
100
AcDbEntity
8
Geo
100
AcDbLine
10
17.2881179531657
20
10.3712055507372
30
0.000000000000000
11
63.3881179531657
21
10.3712055507372
31
0.000000000000000
  0
LINE
  5
F10088
330
F10089
100
AcDbEntity
8
Geo
100
AcDbLine
10
63.3881179531657
20
10.3712055507372
30
0.000000000000000
11
64.3881179531657
21
9.37120555073722
31
0.000000000000000
  0
LINE
  5
F1008A
330
F1008B
100
AcDbEntity
8
Geo
100
AcDbLine
10
-55.6118820468343
20
10.2211675472754
30
0.000000000000000
11
-55.5118820468343
21
10.3202579096803
31
0.000000000000000
  0
LINE
  5
F1008C
330
F1008D
100
AcDbEntity
8
Geo
100
AcDbLine
10
-55.5118820468343
20
10.3202579096803
30
0.000000000000000
11
-55.5118820468343
21
10.3202579096803
31
0.000000000000000
  0
LINE
  5
F1008E
330
F1008F
100
AcDbEntity
8
Geo
100
AcDbLine
10
-55.5118820468343
20
10.3202579096803
30
0.000000000000000
11
-55.4118820468343
21
10.3678725260344
31
0.000000000000000
  0
LINE
  5
F10090
330
F10091
100
AcDbEntity
8
Geo
100
AcDbLine
10
-55.4118820468343
20
10.3678725260344
30
0.000000000000000
11
-55.3118820468343
21
10.3637071131070
31
0.000000000000000
  0
LINE
  5
F10092
330
F10093
100
AcDbEntity
8
Geo
100
AcDbLine
10
-55.3118820468343
20
10.3637071131070
30
0.000000000000000
11
-55.2118820468343
21
10.3578771549439
31
0.000000000000000
  0
LINE
  5
F10094
330
F10095
100
AcDbEntity
8
Geo
100
AcDbLine
10
-55.2118820468343
20
10.3578771549439
30
0.000000000000000
11
-55.1118820468343
21
10.3503842709406
31
0.000000000000000
  0
LINE
  5
F10096
330
F10097
100
AcDbEntity
8
Geo
100
AcDbLine
10
-55.1118820468343
20
10.3503842709406
30
0.000000000000000
11
-55.0118820468343
21
10.3412305424054
31
0.000000000000000
  0
LINE
  5
F10098
330
F10099
100
AcDbEntity
8
Geo
100
AcDbLine
10
-55.0118820468343
20
10.3412305424054
30
0.000000000000000
11
-54.9118820468343
21
10.3304185119819
31
0.000000000000000
  0
LINE
  5
F1009A
330
F1009B
100
AcDbEntity
8
Geo
100
AcDbLine
10
-54.9118820468343
20
10.3304185119819
30
0.000000000000000
11
-54.8118820468343
21
10.3179511829423
31
0.000000000000000
  0
LINE
  5
F1009C
330
F1009D
100
AcDbEntity
8
Geo
100
AcDbLine
10
-54.8118820468343
20
10.3179511829423
30
0.000000000000000
11
-54.7118820468343
21
10.3038320183535
31
0.000000000000000
  0
LINE
  5
F1009E
330
F1009F
100
AcDbEntity
8
Geo
100
AcDbLine
10
-54.7118820468343
20
10.3038320183535
30
0.000000000000000
11
-54.6118820468343
21
10.2880649401148
31
0.000000000000000
  0
LINE
  5
F100A0
330
F100A1
100
AcDbEntity
8
Geo
100
AcDbLine
10
-54.6118820468343
20
10.2880649401148
30
0.000000000000000
11
-54.5118820468343
21
10.2706543278688
31
0.000000000000000
  0
LINE
  5
F100A2
330
F100A3
100
AcDbEntity
8
Geo
100
AcDbLine
10
-54.5118820468343
20
10.2706543278688
30
0.000000000000000
11
-54.4118820468343
21
10.2516050177847
31
0.000000000000000
  0
LINE
  5
F100A4
330
F100A5
100
AcDbEntity
8
Geo
100
AcDbLine
10
-54.4118820468343
20
10.2516050177847
30
0.000000000000000
11
-54.3118820468343
21
10.2309223012150
31
0.000000000000000
  0
LINE
  5
F100A6
330
F100A7
100
AcDbEntity
8
Geo
100
AcDbLine
10
-54.3118820468343
20
10.2309223012150
30
0.000000000000000
11
-54.2118820468343
21
10.2086119232259
31
0.000000000000000
  0
LINE
  5
F100A8
330
F100A9
100
AcDbEntity
8
Geo
100
AcDbLine
10
-54.2118820468343
20
10.2086119232259
30
0.000000000000000
11
-54.1118820468343
21
10.1846800810011
31
0.000000000000000
  0
LINE
  5
F100AA
330
F100AB
100
AcDbEntity
8
Geo
100
AcDbLine
10
-54.1118820468343
20
10.1846800810011
30
0.000000000000000
11
-54.0118820468343
21
10.1591334221206
31
0.000000000000000
  0
LINE
  5
F100AC
330
F100AD
100
AcDbEntity
8
Geo
100
AcDbLine
10
-54.0118820468343
20
10.1591334221206
30
0.000000000000000
11
-53.9118820468343
21
10.1319790427143
31
0.000000000000000
  0
LINE
  5
F100AE
330
F100AF
100
AcDbEntity
8
Geo
100
AcDbLine
10
-53.9118820468343
20
10.1319790427143
30
0.000000000000000
11
-53.8118820468343
21
10.1032244854909
31
0.000000000000000
  0
LINE
  5
F100B0
330
F100B1
100
AcDbEntity
8
Geo
100
AcDbLine
10
-53.8118820468343
20
10.1032244854909
30
0.000000000000000
11
-53.7118820468343
21
10.0728777376423
31
0.000000000000000
  0
LINE
  5
F100B2
330
F100B3
100
AcDbEntity
8
Geo
100
AcDbLine
10
-53.7118820468343
20
10.0728777376423
30
0.000000000000000
11
-53.6118820468343
21
10.0409472286256
31
0.000000000000000
  0
LINE
  5
F100B4
330
F100B5
100
AcDbEntity
8
Geo
100
AcDbLine
10
-53.6118820468343
20
10.0409472286256
30
0.000000000000000
11
-53.5118820468343
21
10.0074418278215
31
0.000000000000000
  0
LINE
  5
F100B6
330
F100B7
100
AcDbEntity
8
Geo
100
AcDbLine
10
-53.5118820468343
20
10.0074418278215
30
0.000000000000000
11
-53.4118820468343
21
9.97237084207015
31
0.000000000000000
  0
LINE
  5
F100B8
330
F100B9
100
AcDbEntity
8
Geo
100
AcDbLine
10
-53.4118820468343
20
9.97237084207015
30
0.000000000000000
11
-53.3118820468343
21
9.93574401308661
31
0.000000000000000
  0
LINE
  5
F100BA
330
F100BB
100
AcDbEntity
8
Geo
100
AcDbLine
10
-53.3118820468343
20
9.93574401308661
30
0.000000000000000
11
-53.2118820468343
21
9.89757151475453
31
0.000000000000000
  0
LINE
  5
F100BC
330
F100BD
100
AcDbEntity
8
Geo
100
AcDbLine
10
-53.2118820468343
20
9.89757151475453
30
0.000000000000000
11
-53.1118820468343
21
9.85786395030020
31
0.000000000000000
  0
LINE
  5
F100BE
330
F100BF
100
AcDbEntity
8
Geo
100
AcDbLine
10
-53.1118820468343
20
9.85786395030020
30
0.000000000000000
11
-53.0118820468343
21
9.81663234934732
31
0.000000000000000
  0
LINE
  5
F100C0
330
F100C1
100
AcDbEntity
8
Geo
100
AcDbLine
10
-53.0118820468343
20
9.81663234934732
30
0.000000000000000
11
-52.9118820468343
21
9.77388816485328
31
0.000000000000000
  0
LINE
  5
F100C2
330
F100C3
100
AcDbEntity
8
Geo
100
AcDbLine
10
-52.9118820468343
20
9.77388816485328
30
0.000000000000000
11
-52.8118820468343
21
9.72964326992779
31
0.000000000000000
  0
LINE
  5
F100C4
330
F100C5
100
AcDbEntity
8
Geo
100
AcDbLine
10
-52.8118820468343
20
9.72964326992779
30
0.000000000000000
11
-52.7118820468343
21
9.68390995453496
31
0.000000000000000
  0
LINE
  5
F100C6
330
F100C7
100
AcDbEntity
8
Geo
100
AcDbLine
10
-52.7118820468343
20
9.68390995453496
30
0.000000000000000
11
-52.6118820468343
21
9.63670092207945
31
0.000000000000000
  0
LINE
  5
F100C8
330
F100C9
100
AcDbEntity
8
Geo
100
AcDbLine
10
-52.6118820468343
20
9.63670092207945
30
0.000000000000000
11
-52.5118820468343
21
9.58802928587783
31
0.000000000000000
  0
LINE
  5
F100CA
330
F100CB
100
AcDbEntity
8
Geo
100
AcDbLine
10
-52.5118820468343
20
9.58802928587783
30
0.000000000000000
11
-52.4118820468343
21
9.53790856551608
31
0.000000000000000
  0
LINE
  5
F100CC
330
F100CD
100
AcDbEntity
8
Geo
100
AcDbLine
10
-52.4118820468343
20
9.53790856551608
30
0.000000000000000
11
-52.3118820468343
21
9.48635268309425
31
0.000000000000000
  0
LINE
  5
F100CE
330
F100CF
100
AcDbEntity
8
Geo
100
AcDbLine
10
-52.3118820468343
20
9.48635268309425
30
0.000000000000000
11
-52.2118820468343
21
9.43337595935929
31
0.000000000000000
  0
LINE
  5
F100D0
330
F100D1
100
AcDbEntity
8
Geo
100
AcDbLine
10
-52.2118820468343
20
9.43337595935929
30
0.000000000000000
11
-52.1118820468343
21
9.37899310972716
31
0.000000000000000
  0
LINE
  5
F100D2
330
F100D3
100
AcDbEntity
8
Geo
100
AcDbLine
10
-52.1118820468343
20
9.37899310972716
30
0.000000000000000
11
-52.0118820468343
21
9.32321924019528
31
0.000000000000000
  0
LINE
  5
F100D4
330
F100D5
100
AcDbEntity
8
Geo
100
AcDbLine
10
-52.0118820468343
20
9.32321924019528
30
0.000000000000000
11
-51.9118820468343
21
9.26606984314659
31
0.000000000000000
  0
LINE
  5
F100D6
330
F100D7
100
AcDbEntity
8
Geo
100
AcDbLine
10
-51.9118820468343
20
9.26606984314659
30
0.000000000000000
11
-51.8118820468343
21
9.20756079304611
31
0.000000000000000
  0
LINE
  5
F100D8
330
F100D9
100
AcDbEntity
8
Geo
100
AcDbLine
10
-51.8118820468343
20
9.20756079304611
30
0.000000000000000
11
-51.7118820468343
21
9.14770834203155
31
0.000000000000000
  0
LINE
  5
F100DA
330
F100DB
100
AcDbEntity
8
Geo
100
AcDbLine
10
-51.7118820468343
20
9.14770834203155
30
0.000000000000000
11
-51.6118820468343
21
9.08652911539890
31
0.000000000000000
  0
LINE
  5
F100DC
330
F100DD
100
AcDbEntity
8
Geo
100
AcDbLine
10
-51.6118820468343
20
9.08652911539890
30
0.000000000000000
11
-51.5118820468343
21
9.02404010698440
31
0.000000000000000
  0
LINE
  5
F100DE
330
F100DF
100
AcDbEntity
8
Geo
100
AcDbLine
10
-51.5118820468343
20
9.02404010698440
30
0.000000000000000
11
-51.4118820468343
21
8.96025867444414
31
0.000000000000000
  0
LINE
  5
F100E0
330
F100E1
100
AcDbEntity
8
Geo
100
AcDbLine
10
-51.4118820468343
20
8.96025867444414
30
0.000000000000000
11
-51.3118820468343
21
8.89520253443261
31
0.000000000000000
  0
LINE
  5
F100E2
330
F100E3
100
AcDbEntity
8
Geo
100
AcDbLine
10
-51.3118820468343
20
8.89520253443261
30
0.000000000000000
11
-51.2118820468343
21
8.82888975768148
31
0.000000000000000
  0
LINE
  5
F100E4
330
F100E5
100
AcDbEntity
8
Geo
100
AcDbLine
10
-51.2118820468343
20
8.82888975768148
30
0.000000000000000
11
-51.1118820468343
21
8.76133876398014
31
0.000000000000000
  0
LINE
  5
F100E6
330
F100E7
100
AcDbEntity
8
Geo
100
AcDbLine
10
-51.1118820468343
20
8.76133876398014
30
0.000000000000000
11
-51.0118820468343
21
8.69256831705915
31
0.000000000000000
  0
LINE
  5
F100E8
330
F100E9
100
AcDbEntity
8
Geo
100
AcDbLine
10
-51.0118820468343
20
8.69256831705915
30
0.000000000000000
11
-50.9118820468343
21
8.62259751937825
31
0.000000000000000
  0
LINE
  5
F100EA
330
F100EB
100
AcDbEntity
8
Geo
100
AcDbLine
10
-50.9118820468343
20
8.62259751937825
30
0.000000000000000
11
-50.8118820468343
21
8.55144580682021
31
0.000000000000000
  0
LINE
  5
F100EC
330
F100ED
100
AcDbEntity
8
Geo
100
AcDbLine
10
-50.8118820468343
20
8.55144580682021
30
0.000000000000000
11
-50.7118820468343
21
8.47913294329212
31
0.000000000000000
  0
LINE
  5
F100EE
330
F100EF
100
AcDbEntity
8
Geo
100
AcDbLine
10
-50.7118820468343
20
8.47913294329212
30
0.000000000000000
11
-50.6118820468343
21
8.40567901523556
31
0.000000000000000
  0
LINE
  5
F100F0
330
F100F1
100
AcDbEntity
8
Geo
100
AcDbLine
10
-50.6118820468343
20
8.40567901523556
30
0.000000000000000
11
-50.5118820468343
21
8.33110442604711
31
0.000000000000000
  0
LINE
  5
F100F2
330
F100F3
100
AcDbEntity
8
Geo
100
AcDbLine
10
-50.5118820468343
20
8.33110442604711
30
0.000000000000000
11
-50.4118820468343
21
8.25542989041093
31
0.000000000000000
  0
LINE
  5
F100F4
330
F100F5
100
AcDbEntity
8
Geo
100
AcDbLine
10
-50.4118820468343
20
8.25542989041093
30
0.000000000000000
11
-50.3118820468343
21
8.17867642854478
31
0.000000000000000
  0
LINE
  5
F100F6
330
F100F7
100
AcDbEntity
8
Geo
100
AcDbLine
10
-50.3118820468343
20
8.17867642854478
30
0.000000000000000
11
-50.2118820468343
21
8.10086536036120
31
0.000000000000000
  0
LINE
  5
F100F8
330
F100F9
100
AcDbEntity
8
Geo
100
AcDbLine
10
-50.2118820468343
20
8.10086536036120
30
0.000000000000000
11
-50.1118820468343
21
8.02201829954549
31
0.000000000000000
  0
LINE
  5
F100FA
330
F100FB
100
AcDbEntity
8
Geo
100
AcDbLine
10
-50.1118820468343
20
8.02201829954549
30
0.000000000000000
11
-50.0118820468343
21
7.94215714755198
31
0.000000000000000
  0
LINE
  5
F100FC
330
F100FD
100
AcDbEntity
8
Geo
100
AcDbLine
10
-50.0118820468343
20
7.94215714755198
30
0.000000000000000
11
-49.9118820468343
21
7.86130408752052
31
0.000000000000000
  0
LINE
  5
F100FE
330
F100FF
100
AcDbEntity
8
Geo
100
AcDbLine
10
-49.9118820468343
20
7.86130408752052
30
0.000000000000000
11
-49.8118820468343
21
7.77948157811455
31
0.000000000000000
  0
LINE
  5
F10100
330
F10101
100
AcDbEntity
8
Geo
100
AcDbLine
10
-49.8118820468343
20
7.77948157811455
30
0.000000000000000
11
-49.7118820468343
21
7.69671234728279
31
0.000000000000000
  0
LINE
  5
F10102
330
F10103
100
AcDbEntity
8
Geo
100
AcDbLine
10
-49.7118820468343
20
7.69671234728279
30
0.000000000000000
11
-49.6118820468343
21
7.61301938594606
31
0.000000000000000
  0
LINE
  5
F10104
330
F10105
100
AcDbEntity
8
Geo
100
AcDbLine
10
-49.6118820468343
20
7.61301938594606
30
0.000000000000000
11
-49.5118820468343
21
7.52842594161101
31
0.000000000000000
  0
LINE
  5
F10106
330
F10107
100
AcDbEntity
8
Geo
100
AcDbLine
10
-49.5118820468343
20
7.52842594161101
30
0.000000000000000
11
-49.4118820468343
21
7.44295551191270
31
0.000000000000000
  0
LINE
  5
F10108
330
F10109
100
AcDbEntity
8
Geo
100
AcDbLine
10
-49.4118820468343
20
7.44295551191270
30
0.000000000000000
11
-49.3118820468343
21
7.35663183808758
31
0.000000000000000
  0
LINE
  5
F1010A
330
F1010B
100
AcDbEntity
8
Geo
100
AcDbLine
10
-49.3118820468343
20
7.35663183808758
30
0.000000000000000
11
-49.2118820468343
21
7.26947889837888
31
0.000000000000000
  0
LINE
  5
F1010C
330
F1010D
100
AcDbEntity
8
Geo
100
AcDbLine
10
-49.2118820468343
20
7.26947889837888
30
0.000000000000000
11
-49.1118820468343
21
7.18152090137612
31
0.000000000000000
  0
LINE
  5
F1010E
330
F1010F
100
AcDbEntity
8
Geo
100
AcDbLine
10
-49.1118820468343
20
7.18152090137612
30
0.000000000000000
11
-49.0118820468343
21
7.09278227929069
31
0.000000000000000
  0
LINE
  5
F10110
330
F10111
100
AcDbEntity
8
Geo
100
AcDbLine
10
-49.0118820468343
20
7.09278227929069
30
0.000000000000000
11
-48.9118820468343
21
7.00328768116923
31
0.000000000000000
  0
LINE
  5
F10112
330
F10113
100
AcDbEntity
8
Geo
100
AcDbLine
10
-48.9118820468343
20
7.00328768116923
30
0.000000000000000
11
-48.8118820468343
21
6.91306196604689
31
0.000000000000000
  0
LINE
  5
F10114
330
F10115
100
AcDbEntity
8
Geo
100
AcDbLine
10
-48.8118820468343
20
6.91306196604689
30
0.000000000000000
11
-48.7118820468343
21
6.82213019604217
31
0.000000000000000
  0
LINE
  5
F10116
330
F10117
100
AcDbEntity
8
Geo
100
AcDbLine
10
-48.7118820468343
20
6.82213019604217
30
0.000000000000000
11
-48.6118820468343
21
6.73051762939537
31
0.000000000000000
  0
LINE
  5
F10118
330
F10119
100
AcDbEntity
8
Geo
100
AcDbLine
10
-48.6118820468343
20
6.73051762939537
30
0.000000000000000
11
-48.5118820468343
21
6.63824971345261
31
0.000000000000000
  0
LINE
  5
F1011A
330
F1011B
100
AcDbEntity
8
Geo
100
AcDbLine
10
-48.5118820468343
20
6.63824971345261
30
0.000000000000000
11
-48.4118820468343
21
6.54535207759726
31
0.000000000000000
  0
LINE
  5
F1011C
330
F1011D
100
AcDbEntity
8
Geo
100
AcDbLine
10
-48.4118820468343
20
6.54535207759726
30
0.000000000000000
11
-48.3118820468343
21
6.45185052613084
31
0.000000000000000
  0
LINE
  5
F1011E
330
F1011F
100
AcDbEntity
8
Geo
100
AcDbLine
10
-48.3118820468343
20
6.45185052613084
30
0.000000000000000
11
-48.2118820468343
21
6.35777103110532
31
0.000000000000000
  0
LINE
  5
F10120
330
F10121
100
AcDbEntity
8
Geo
100
AcDbLine
10
-48.2118820468343
20
6.35777103110532
30
0.000000000000000
11
-48.1118820468343
21
6.26313972510884
31
0.000000000000000
  0
LINE
  5
F10122
330
F10123
100
AcDbEntity
8
Geo
100
AcDbLine
10
-48.1118820468343
20
6.26313972510884
30
0.000000000000000
11
-48.0118820468343
21
6.16798289400679
31
0.000000000000000
  0
LINE
  5
F10124
330
F10125
100
AcDbEntity
8
Geo
100
AcDbLine
10
-48.0118820468343
20
6.16798289400679
30
0.000000000000000
11
-47.9118820468343
21
6.07232696964042
31
0.000000000000000
  0
LINE
  5
F10126
330
F10127
100
AcDbEntity
8
Geo
100
AcDbLine
10
-47.9118820468343
20
6.07232696964042
30
0.000000000000000
11
-47.8118820468343
21
5.97619852248475
31
0.000000000000000
  0
LINE
  5
F10128
330
F10129
100
AcDbEntity
8
Geo
100
AcDbLine
10
-47.8118820468343
20
5.97619852248475
30
0.000000000000000
11
-47.7118820468343
21
5.87962425426812
31
0.000000000000000
  0
LINE
  5
F1012A
330
F1012B
100
AcDbEntity
8
Geo
100
AcDbLine
10
-47.7118820468343
20
5.87962425426812
30
0.000000000000000
11
-47.6118820468343
21
5.78263099055516
31
0.000000000000000
  0
LINE
  5
F1012C
330
F1012D
100
AcDbEntity
8
Geo
100
AcDbLine
10
-47.6118820468343
20
5.78263099055516
30
0.000000000000000
11
-47.5118820468343
21
5.68524567329548
31
0.000000000000000
  0
LINE
  5
F1012E
330
F1012F
100
AcDbEntity
8
Geo
100
AcDbLine
10
-47.5118820468343
20
5.68524567329548
30
0.000000000000000
11
-47.4118820468343
21
5.58749535333989
31
0.000000000000000
  0
LINE
  5
F10130
330
F10131
100
AcDbEntity
8
Geo
100
AcDbLine
10
-47.4118820468343
20
5.58749535333989
30
0.000000000000000
11
-47.3118820468343
21
5.48940718292652
31
0.000000000000000
  0
LINE
  5
F10132
330
F10133
100
AcDbEntity
8
Geo
100
AcDbLine
10
-47.3118820468343
20
5.48940718292652
30
0.000000000000000
11
-47.2118820468343
21
5.39100840813867
31
0.000000000000000
  0
LINE
  5
F10134
330
F10135
100
AcDbEntity
8
Geo
100
AcDbLine
10
-47.2118820468343
20
5.39100840813867
30
0.000000000000000
11
-47.1118820468343
21
5.29232636133664
31
0.000000000000000
  0
LINE
  5
F10136
330
F10137
100
AcDbEntity
8
Geo
100
AcDbLine
10
-47.1118820468343
20
5.29232636133664
30
0.000000000000000
11
-47.0118820468343
21
5.19338845356556
31
0.000000000000000
  0
LINE
  5
F10138
330
F10139
100
AcDbEntity
8
Geo
100
AcDbLine
10
-47.0118820468343
20
5.19338845356556
30
0.000000000000000
11
-46.9118820468343
21
5.09422216694143
31
0.000000000000000
  0
LINE
  5
F1013A
330
F1013B
100
AcDbEntity
8
Geo
100
AcDbLine
10
-46.9118820468343
20
5.09422216694143
30
0.000000000000000
11
-46.8118820468343
21
4.99485504701733
31
0.000000000000000
  0
LINE
  5
F1013C
330
F1013D
100
AcDbEntity
8
Geo
100
AcDbLine
10
-46.8118820468343
20
4.99485504701733
30
0.000000000000000
11
-46.7118820468343
21
4.89531469513211
31
0.000000000000000
  0
LINE
  5
F1013E
330
F1013F
100
AcDbEntity
8
Geo
100
AcDbLine
10
-46.7118820468343
20
4.89531469513211
30
0.000000000000000
11
-46.6118820468343
21
4.79562876074345
31
0.000000000000000
  0
LINE
  5
F10140
330
F10141
100
AcDbEntity
8
Geo
100
AcDbLine
10
-46.6118820468343
20
4.79562876074345
30
0.000000000000000
11
-46.5118820468343
21
4.69582493374771
31
0.000000000000000
  0
LINE
  5
F10142
330
F10143
100
AcDbEntity
8
Geo
100
AcDbLine
10
-46.5118820468343
20
4.69582493374771
30
0.000000000000000
11
-46.4118820468343
21
4.59593093678843
31
0.000000000000000
  0
LINE
  5
F10144
330
F10145
100
AcDbEntity
8
Geo
100
AcDbLine
10
-46.4118820468343
20
4.59593093678843
30
0.000000000000000
11
-46.3118820468343
21
4.49597451755579
31
0.000000000000000
  0
LINE
  5
F10146
330
F10147
100
AcDbEntity
8
Geo
100
AcDbLine
10
-46.3118820468343
20
4.49597451755579
30
0.000000000000000
11
-46.2118820468343
21
4.39598344107906
31
0.000000000000000
  0
LINE
  5
F10148
330
F10149
100
AcDbEntity
8
Geo
100
AcDbLine
10
-46.2118820468343
20
4.39598344107906
30
0.000000000000000
11
-46.1118820468343
21
4.29598548201435
31
0.000000000000000
  0
LINE
  5
F1014A
330
F1014B
100
AcDbEntity
8
Geo
100
AcDbLine
10
-46.1118820468343
20
4.29598548201435
30
0.000000000000000
11
-46.0118820468343
21
4.19600841692950
31
0.000000000000000
  0
LINE
  5
F1014C
330
F1014D
100
AcDbEntity
8
Geo
100
AcDbLine
10
-46.0118820468343
20
4.19600841692950
30
0.000000000000000
11
-45.9118820468343
21
4.09608001658864
31
0.000000000000000
  0
LINE
  5
F1014E
330
F1014F
100
AcDbEntity
8
Geo
100
AcDbLine
10
-45.9118820468343
20
4.09608001658864
30
0.000000000000000
11
-45.8118820468343
21
3.99622803823822
31
0.000000000000000
  0
LINE
  5
F10150
330
F10151
100
AcDbEntity
8
Geo
100
AcDbLine
10
-45.8118820468343
20
3.99622803823822
30
0.000000000000000
11
-45.7118820468343
21
3.89648021789683
31
0.000000000000000
  0
LINE
  5
F10152
330
F10153
100
AcDbEntity
8
Geo
100
AcDbLine
10
-45.7118820468343
20
3.89648021789683
30
0.000000000000000
11
-45.6118820468343
21
3.79686426265098
31
0.000000000000000
  0
LINE
  5
F10154
330
F10155
100
AcDbEntity
8
Geo
100
AcDbLine
10
-45.6118820468343
20
3.79686426265098
30
0.000000000000000
11
-45.5118820468343
21
3.69740784295882
31
0.000000000000000
  0
LINE
  5
F10156
330
F10157
100
AcDbEntity
8
Geo
100
AcDbLine
10
-45.5118820468343
20
3.69740784295882
30
0.000000000000000
11
-45.4118820468343
21
3.59813858496409
31
0.000000000000000
  0
LINE
  5
F10158
330
F10159
100
AcDbEntity
8
Geo
100
AcDbLine
10
-45.4118820468343
20
3.59813858496409
30
0.000000000000000
11
-45.3118820468343
21
3.49908406282237
31
0.000000000000000
  0
LINE
  5
F1015A
330
F1015B
100
AcDbEntity
8
Geo
100
AcDbLine
10
-45.3118820468343
20
3.49908406282237
30
0.000000000000000
11
-45.2118820468343
21
3.40027179104180
31
0.000000000000000
  0
LINE
  5
F1015C
330
F1015D
100
AcDbEntity
8
Geo
100
AcDbLine
10
-45.2118820468343
20
3.40027179104180
30
0.000000000000000
11
-45.1118820468343
21
3.30172921684028
31
0.000000000000000
  0
LINE
  5
F1015E
330
F1015F
100
AcDbEntity
8
Geo
100
AcDbLine
10
-45.1118820468343
20
3.30172921684028
30
0.000000000000000
11
-45.0118820468343
21
3.20348371252147
31
0.000000000000000
  0
LINE
  5
F10160
330
F10161
100
AcDbEntity
8
Geo
100
AcDbLine
10
-45.0118820468343
20
3.20348371252147
30
0.000000000000000
11
-44.9118820468344
21
3.10556256787150
31
0.000000000000000
  0
LINE
  5
F10162
330
F10163
100
AcDbEntity
8
Geo
100
AcDbLine
10
-44.9118820468344
20
3.10556256787150
30
0.000000000000000
11
-44.8118820468343
21
3.00799298257871
31
0.000000000000000
  0
LINE
  5
F10164
330
F10165
100
AcDbEntity
8
Geo
100
AcDbLine
10
-44.8118820468343
20
3.00799298257871
30
0.000000000000000
11
-44.7118820468343
21
2.91080205867832
31
0.000000000000000
  0
LINE
  5
F10166
330
F10167
100
AcDbEntity
8
Geo
100
AcDbLine
10
-44.7118820468343
20
2.91080205867832
30
0.000000000000000
11
-44.6118820468343
21
2.81401679302424
31
0.000000000000000
  0
LINE
  5
F10168
330
F10169
100
AcDbEntity
8
Geo
100
AcDbLine
10
-44.6118820468343
20
2.81401679302424
30
0.000000000000000
11
-44.5118820468343
21
2.71766406979016
31
0.000000000000000
  0
LINE
  5
F1016A
330
F1016B
100
AcDbEntity
8
Geo
100
AcDbLine
10
-44.5118820468343
20
2.71766406979016
30
0.000000000000000
11
-44.4118820468344
21
2.62177065300188
31
0.000000000000000
  0
LINE
  5
F1016C
330
F1016D
100
AcDbEntity
8
Geo
100
AcDbLine
10
-44.4118820468344
20
2.62177065300188
30
0.000000000000000
11
-44.3118820468343
21
2.52636317910303
31
0.000000000000000
  0
LINE
  5
F1016E
330
F1016F
100
AcDbEntity
8
Geo
100
AcDbLine
10
-44.3118820468343
20
2.52636317910303
30
0.000000000000000
11
-44.2118820468343
21
2.43146814955622
31
0.000000000000000
  0
LINE
  5
F10170
330
F10171
100
AcDbEntity
8
Geo
100
AcDbLine
10
-44.2118820468343
20
2.43146814955622
30
0.000000000000000
11
-44.1118820468344
21
2.33711192348170
31
0.000000000000000
  0
LINE
  5
F10172
330
F10173
100
AcDbEntity
8
Geo
100
AcDbLine
10
-44.1118820468344
20
2.33711192348170
30
0.000000000000000
11
-44.0118820468344
21
2.24332071033557
31
0.000000000000000
  0
LINE
  5
F10174
330
F10175
100
AcDbEntity
8
Geo
100
AcDbLine
10
-44.0118820468344
20
2.24332071033557
30
0.000000000000000
11
-43.9118820468344
21
2.15012056262952
31
0.000000000000000
  0
LINE
  5
F10176
330
F10177
100
AcDbEntity
8
Geo
100
AcDbLine
10
-43.9118820468344
20
2.15012056262952
30
0.000000000000000
11
-43.8118820468343
21
2.05753736869418
31
0.000000000000000
  0
LINE
  5
F10178
330
F10179
100
AcDbEntity
8
Geo
100
AcDbLine
10
-43.8118820468343
20
2.05753736869418
30
0.000000000000000
11
-43.7118820468343
21
1.96559684548812
31
0.000000000000000
  0
LINE
  5
F1017A
330
F1017B
100
AcDbEntity
8
Geo
100
AcDbLine
10
-43.7118820468343
20
1.96559684548812
30
0.000000000000000
11
-43.6118820468344
21
1.87432453145438
31
0.000000000000000
  0
LINE
  5
F1017C
330
F1017D
100
AcDbEntity
8
Geo
100
AcDbLine
10
-43.6118820468344
20
1.87432453145438
30
0.000000000000000
11
-43.5118820468344
21
1.78374577942666
31
0.000000000000000
  0
LINE
  5
F1017E
330
F1017F
100
AcDbEntity
8
Geo
100
AcDbLine
10
-43.5118820468344
20
1.78374577942666
30
0.000000000000000
11
-43.4118820468344
21
1.69388574958699
31
0.000000000000000
  0
LINE
  5
F10180
330
F10181
100
AcDbEntity
8
Geo
100
AcDbLine
10
-43.4118820468344
20
1.69388574958699
30
0.000000000000000
11
-43.3118820468344
21
1.60476940247696
31
0.000000000000000
  0
LINE
  5
F10182
330
F10183
100
AcDbEntity
8
Geo
100
AcDbLine
10
-43.3118820468344
20
1.60476940247696
30
0.000000000000000
11
-43.2118820468344
21
1.51642149206443
31
0.000000000000000
  0
LINE
  5
F10184
330
F10185
100
AcDbEntity
8
Geo
100
AcDbLine
10
-43.2118820468344
20
1.51642149206443
30
0.000000000000000
11
-43.1118820468344
21
1.42886655886754
31
0.000000000000000
  0
LINE
  5
F10186
330
F10187
100
AcDbEntity
8
Geo
100
AcDbLine
10
-43.1118820468344
20
1.42886655886754
30
0.000000000000000
11
-43.0118820468344
21
1.34212892313809
31
0.000000000000000
  0
LINE
  5
F10188
330
F10189
100
AcDbEntity
8
Geo
100
AcDbLine
10
-43.0118820468344
20
1.34212892313809
30
0.000000000000000
11
-42.9118820468344
21
1.25623267810608
31
0.000000000000000
  0
LINE
  5
F1018A
330
F1018B
100
AcDbEntity
8
Geo
100
AcDbLine
10
-42.9118820468344
20
1.25623267810608
30
0.000000000000000
11
-42.8118820468344
21
1.17120168328724
31
0.000000000000000
  0
LINE
  5
F1018C
330
F1018D
100
AcDbEntity
8
Geo
100
AcDbLine
10
-42.8118820468344
20
1.17120168328724
30
0.000000000000000
11
-42.7118820468344
21
1.08705955785561
31
0.000000000000000
  0
LINE
  5
F1018E
330
F1018F
100
AcDbEntity
8
Geo
100
AcDbLine
10
-42.7118820468344
20
1.08705955785561
30
0.000000000000000
11
-42.6118820468344
21
1.00382967408279
31
0.000000000000000
  0
LINE
  5
F10190
330
F10191
100
AcDbEntity
8
Geo
100
AcDbLine
10
-42.6118820468344
20
1.00382967408279
30
0.000000000000000
11
-42.5118820468344
21
0.921535150845761
31
0.000000000000000
  0
LINE
  5
F10192
330
F10193
100
AcDbEntity
8
Geo
100
AcDbLine
10
-42.5118820468344
20
0.921535150845761
30
0.000000000000000
11
-42.4118820468344
21
0.840198847205164
31
0.000000000000000
  0
LINE
  5
F10194
330
F10195
100
AcDbEntity
8
Geo
100
AcDbLine
10
-42.4118820468344
20
0.840198847205164
30
0.000000000000000
11
-42.3118820468344
21
0.759843356055684
31
0.000000000000000
  0
LINE
  5
F10196
330
F10197
100
AcDbEntity
8
Geo
100
AcDbLine
10
-42.3118820468344
20
0.759843356055684
30
0.000000000000000
11
-42.2118820468344
21
0.680490997850401
31
0.000000000000000
  0
LINE
  5
F10198
330
F10199
100
AcDbEntity
8
Geo
100
AcDbLine
10
-42.2118820468344
20
0.680490997850401
30
0.000000000000000
11
-42.1118820468344
21
0.602163814400804
31
0.000000000000000
  0
LINE
  5
F1019A
330
F1019B
100
AcDbEntity
8
Geo
100
AcDbLine
10
-42.1118820468344
20
0.602163814400804
30
0.000000000000000
11
-42.0118820468344
21
0.524883562754209
31
0.000000000000000
  0
LINE
  5
F1019C
330
F1019D
100
AcDbEntity
8
Geo
100
AcDbLine
10
-42.0118820468344
20
0.524883562754209
30
0.000000000000000
11
-41.9118820468344
21
0.448671709150275
31
0.000000000000000
  0
LINE
  5
F1019E
330
F1019F
100
AcDbEntity
8
Geo
100
AcDbLine
10
-41.9118820468344
20
0.448671709150275
30
0.000000000000000
11
-41.8118820468344
21
0.373549423058293
31
0.000000000000000
  0
LINE
  5
F101A0
330
F101A1
100
AcDbEntity
8
Geo
100
AcDbLine
10
-41.8118820468344
20
0.373549423058293
30
0.000000000000000
11
-41.7118820468344
21
0.299537571296923
31
0.000000000000000
  0
LINE
  5
F101A2
330
F101A3
100
AcDbEntity
8
Geo
100
AcDbLine
10
-41.7118820468344
20
0.299537571296923
30
0.000000000000000
11
-41.6118820468344
21
0.226656712237981
31
0.000000000000000
  0
LINE
  5
F101A4
330
F101A5
100
AcDbEntity
8
Geo
100
AcDbLine
10
-41.6118820468344
20
0.226656712237981
30
0.000000000000000
11
-41.5118820468344
21
0.154927090095915
31
0.000000000000000
  0
LINE
  5
F101A6
330
F101A7
100
AcDbEntity
8
Geo
100
AcDbLine
10
-41.5118820468344
20
0.154927090095915
30
0.000000000000000
11
-41.4118820468344
21
0.0843686293045449
31
0.000000000000000
  0
LINE
  5
F101A8
330
F101A9
100
AcDbEntity
8
Geo
100
AcDbLine
10
-41.4118820468344
20
0.0843686293045449
30
0.000000000000000
11
-41.3118820468344
21
0.0150009289826247
31
0.000000000000000
  0
LINE
  5
F101AA
330
F101AB
100
AcDbEntity
8
Geo
100
AcDbLine
10
-41.3118820468344
20
0.0150009289826247
30
0.000000000000000
11
-41.2118820468344
21
-0.0531567425102359
31
0.000000000000000
  0
LINE
  5
F101AC
330
F101AD
100
AcDbEntity
8
Geo
100
AcDbLine
10
-41.2118820468344
20
-0.0531567425102359
30
0.000000000000000
11
-41.1118820468344
21
-0.120085452925761
31
0.000000000000000
  0
LINE
  5
F101AE
330
F101AF
100
AcDbEntity
8
Geo
100
AcDbLine
10
-41.1118820468344
20
-0.120085452925761
30
0.000000000000000
11
-41.0118820468344
21
-0.185766611385855
31
0.000000000000000
  0
LINE
  5
F101B0
330
F101B1
100
AcDbEntity
8
Geo
100
AcDbLine
10
-41.0118820468344
20
-0.185766611385855
30
0.000000000000000
11
-40.9118820468344
21
-0.250181973546606
31
0.000000000000000
  0
LINE
  5
F101B2
330
F101B3
100
AcDbEntity
8
Geo
100
AcDbLine
10
-40.9118820468344
20
-0.250181973546606
30
0.000000000000000
11
-40.8118820468344
21
-0.313313646666050
31
0.000000000000000
  0
LINE
  5
F101B4
330
F101B5
100
AcDbEntity
8
Geo
100
AcDbLine
10
-40.8118820468344
20
-0.313313646666050
30
0.000000000000000
11
-40.7118820468344
21
-0.375144094574253
31
0.000000000000000
  0
LINE
  5
F101B6
330
F101B7
100
AcDbEntity
8
Geo
100
AcDbLine
10
-40.7118820468344
20
-0.375144094574253
30
0.000000000000000
11
-40.6118820468344
21
-0.435656142544365
31
0.000000000000000
  0
LINE
  5
F101B8
330
F101B9
100
AcDbEntity
8
Geo
100
AcDbLine
10
-40.6118820468344
20
-0.435656142544365
30
0.000000000000000
11
-40.5118820468344
21
-0.494832982063267
31
0.000000000000000
  0
LINE
  5
F101BA
330
F101BB
100
AcDbEntity
8
Geo
100
AcDbLine
10
-40.5118820468344
20
-0.494832982063267
30
0.000000000000000
11
-40.4118820468344
21
-0.552658175500483
31
0.000000000000000
  0
LINE
  5
F101BC
330
F101BD
100
AcDbEntity
8
Geo
100
AcDbLine
10
-40.4118820468344
20
-0.552658175500483
30
0.000000000000000
11
-40.3118820468344
21
-0.609115660674098
31
0.000000000000000
  0
LINE
  5
F101BE
330
F101BF
100
AcDbEntity
8
Geo
100
AcDbLine
10
-40.3118820468344
20
-0.609115660674098
30
0.000000000000000
11
-40.2118820468344
21
-0.664189755312361
31
0.000000000000000
  0
LINE
  5
F101C0
330
F101C1
100
AcDbEntity
8
Geo
100
AcDbLine
10
-40.2118820468344
20
-0.664189755312361
30
0.000000000000000
11
-40.1118820468344
21
-0.717865161409777
31
0.000000000000000
  0
LINE
  5
F101C2
330
F101C3
100
AcDbEntity
8
Geo
100
AcDbLine
10
-40.1118820468344
20
-0.717865161409777
30
0.000000000000000
11
-40.0118820468344
21
-0.770126969476449
31
0.000000000000000
  0
LINE
  5
F101C4
330
F101C5
100
AcDbEntity
8
Geo
100
AcDbLine
10
-40.0118820468344
20
-0.770126969476449
30
0.000000000000000
11
-39.9118820468344
21
-0.820960662679513
31
0.000000000000000
  0
LINE
  5
F101C6
330
F101C7
100
AcDbEntity
8
Geo
100
AcDbLine
10
-39.9118820468344
20
-0.820960662679513
30
0.000000000000000
11
-39.8118820468344
21
-0.870352120875495
31
0.000000000000000
  0
LINE
  5
F101C8
330
F101C9
100
AcDbEntity
8
Geo
100
AcDbLine
10
-39.8118820468344
20
-0.870352120875495
30
0.000000000000000
11
-39.7118820468344
21
-0.918287624532482
31
0.000000000000000
  0
LINE
  5
F101CA
330
F101CB
100
AcDbEntity
8
Geo
100
AcDbLine
10
-39.7118820468344
20
-0.918287624532482
30
0.000000000000000
11
-39.6118820468344
21
-0.964753858541016
31
0.000000000000000
  0
LINE
  5
F101CC
330
F101CD
100
AcDbEntity
8
Geo
100
AcDbLine
10
-39.6118820468344
20
-0.964753858541016
30
0.000000000000000
11
-39.5118820468344
21
-1.00973791591265
31
0.000000000000000
  0
LINE
  5
F101CE
330
F101CF
100
AcDbEntity
8
Geo
100
AcDbLine
10
-39.5118820468344
20
-1.00973791591265
30
0.000000000000000
11
-39.4118820468344
21
-1.05322730136514
31
0.000000000000000
  0
LINE
  5
F101D0
330
F101D1
100
AcDbEntity
8
Geo
100
AcDbLine
10
-39.4118820468344
20
-1.05322730136514
30
0.000000000000000
11
-39.3118820468344
21
-1.09520993479327
31
0.000000000000000
  0
LINE
  5
F101D2
330
F101D3
100
AcDbEntity
8
Geo
100
AcDbLine
10
-39.3118820468344
20
-1.09520993479327
30
0.000000000000000
11
-39.2118820468344
21
-1.13567415462436
31
0.000000000000000
  0
LINE
  5
F101D4
330
F101D5
100
AcDbEntity
8
Geo
100
AcDbLine
10
-39.2118820468344
20
-1.13567415462436
30
0.000000000000000
11
-39.1118820468344
21
-1.17460872105755
31
0.000000000000000
  0
LINE
  5
F101D6
330
F101D7
100
AcDbEntity
8
Geo
100
AcDbLine
10
-39.1118820468344
20
-1.17460872105755
30
0.000000000000000
11
-39.0118820468344
21
-1.21200281918584
31
0.000000000000000
  0
LINE
  5
F101D8
330
F101D9
100
AcDbEntity
8
Geo
100
AcDbLine
10
-39.0118820468344
20
-1.21200281918584
30
0.000000000000000
11
-38.9118820468344
21
-1.24784606200019
31
0.000000000000000
  0
LINE
  5
F101DA
330
F101DB
100
AcDbEntity
8
Geo
100
AcDbLine
10
-38.9118820468344
20
-1.24784606200019
30
0.000000000000000
11
-38.8118820468344
21
-1.28212849327473
31
0.000000000000000
  0
LINE
  5
F101DC
330
F101DD
100
AcDbEntity
8
Geo
100
AcDbLine
10
-38.8118820468344
20
-1.28212849327473
30
0.000000000000000
11
-38.7118820468344
21
-1.31484059033232
31
0.000000000000000
  0
LINE
  5
F101DE
330
F101DF
100
AcDbEntity
8
Geo
100
AcDbLine
10
-38.7118820468344
20
-1.31484059033232
30
0.000000000000000
11
-38.6118820468344
21
-1.34597326668967
31
0.000000000000000
  0
LINE
  5
F101E0
330
F101E1
100
AcDbEntity
8
Geo
100
AcDbLine
10
-38.6118820468344
20
-1.34597326668967
30
0.000000000000000
11
-38.5118820468344
21
-1.37551787458132
31
0.000000000000000
  0
LINE
  5
F101E2
330
F101E3
100
AcDbEntity
8
Geo
100
AcDbLine
10
-38.5118820468344
20
-1.37551787458132
30
0.000000000000000
11
-38.4118820468344
21
-1.40346620736171
31
0.000000000000000
  0
LINE
  5
F101E4
330
F101E5
100
AcDbEntity
8
Geo
100
AcDbLine
10
-38.4118820468344
20
-1.40346620736171
30
0.000000000000000
11
-38.3118820468343
21
-1.42981050178476
31
0.000000000000000
  0
LINE
  5
F101E6
330
F101E7
100
AcDbEntity
8
Geo
100
AcDbLine
10
-38.3118820468343
20
-1.42981050178476
30
0.000000000000000
11
-38.2118820468343
21
-1.45454344016033
31
0.000000000000000
  0
LINE
  5
F101E8
330
F101E9
100
AcDbEntity
8
Geo
100
AcDbLine
10
-38.2118820468343
20
-1.45454344016033
30
0.000000000000000
11
-38.1118820468343
21
-1.47765815238676
31
0.000000000000000
  0
LINE
  5
F101EA
330
F101EB
100
AcDbEntity
8
Geo
100
AcDbLine
10
-38.1118820468343
20
-1.47765815238676
30
0.000000000000000
11
-38.0118820468343
21
-1.49914821785931
31
0.000000000000000
  0
LINE
  5
F101EC
330
F101ED
100
AcDbEntity
8
Geo
100
AcDbLine
10
-38.0118820468343
20
-1.49914821785931
30
0.000000000000000
11
-37.9118820468343
21
-1.51900766725351
31
0.000000000000000
  0
LINE
  5
F101EE
330
F101EF
100
AcDbEntity
8
Geo
100
AcDbLine
10
-37.9118820468343
20
-1.51900766725351
30
0.000000000000000
11
-37.8118820468343
21
-1.53723098418334
31
0.000000000000000
  0
LINE
  5
F101F0
330
F101F1
100
AcDbEntity
8
Geo
100
AcDbLine
10
-37.8118820468343
20
-1.53723098418334
30
0.000000000000000
11
-37.7118820468343
21
-1.55381310673350
31
0.000000000000000
  0
LINE
  5
F101F2
330
F101F3
100
AcDbEntity
8
Geo
100
AcDbLine
10
-37.7118820468343
20
-1.55381310673350
30
0.000000000000000
11
-37.6118820468343
21
-1.56874942886546
31
0.000000000000000
  0
LINE
  5
F101F4
330
F101F5
100
AcDbEntity
8
Geo
100
AcDbLine
10
-37.6118820468343
20
-1.56874942886546
30
0.000000000000000
11
-37.5118820468343
21
-1.58203580169688
31
0.000000000000000
  0
LINE
  5
F101F6
330
F101F7
100
AcDbEntity
8
Geo
100
AcDbLine
10
-37.5118820468343
20
-1.58203580169688
30
0.000000000000000
11
-37.4118820468343
21
-1.59366853465408
31
0.000000000000000
  0
LINE
  5
F101F8
330
F101F9
100
AcDbEntity
8
Geo
100
AcDbLine
10
-37.4118820468343
20
-1.59366853465408
30
0.000000000000000
11
-37.3118820468343
21
-1.60364439649715
31
0.000000000000000
  0
LINE
  5
F101FA
330
F101FB
100
AcDbEntity
8
Geo
100
AcDbLine
10
-37.3118820468343
20
-1.60364439649715
30
0.000000000000000
11
-37.2118820468343
21
-1.61196061621750
31
0.000000000000000
  0
LINE
  5
F101FC
330
F101FD
100
AcDbEntity
8
Geo
100
AcDbLine
10
-37.2118820468343
20
-1.61196061621750
30
0.000000000000000
11
-37.1118820468343
21
-1.61861488380756
31
0.000000000000000
  0
LINE
  5
F101FE
330
F101FF
100
AcDbEntity
8
Geo
100
AcDbLine
10
-37.1118820468343
20
-1.61861488380756
30
0.000000000000000
11
-37.0118820468343
21
-1.62360535090246
31
0.000000000000000
  0
LINE
  5
F10200
330
F10201
100
AcDbEntity
8
Geo
100
AcDbLine
10
-37.0118820468343
20
-1.62360535090246
30
0.000000000000000
11
-36.9118820468343
21
-1.62693063129343
31
0.000000000000000
  0
LINE
  5
F10202
330
F10203
100
AcDbEntity
8
Geo
100
AcDbLine
10
-36.9118820468343
20
-1.62693063129343
30
0.000000000000000
11
-36.8118820468343
21
-1.62858980131285
31
0.000000000000000
  0
LINE
  5
F10204
330
F10205
100
AcDbEntity
8
Geo
100
AcDbLine
10
-36.8118820468343
20
-1.62858980131285
30
0.000000000000000
11
-36.7623261150168
21
-1.62879444926278
31
0.000000000000000
  0
LINE
  5
F10206
330
F10207
100
AcDbEntity
8
Geo
100
AcDbLine
10
-55.6118820468343
20
1.42796313702509
30
0.000000000000000
11
-55.5118820468343
21
1.30471729802015
31
0.000000000000000
  0
LINE
  5
F10208
330
F10209
100
AcDbEntity
8
Geo
100
AcDbLine
10
-55.5118820468343
20
1.30471729802015
30
0.000000000000000
11
-55.5118820468343
21
1.30471729802015
31
0.000000000000000
  0
LINE
  5
F1020A
330
F1020B
100
AcDbEntity
8
Geo
100
AcDbLine
10
-55.5118820468343
20
1.30471729802015
30
0.000000000000000
11
-55.4118820468343
21
1.19969905556476
31
0.000000000000000
  0
LINE
  5
F1020C
330
F1020D
100
AcDbEntity
8
Geo
100
AcDbLine
10
-55.4118820468343
20
1.19969905556476
30
0.000000000000000
11
-55.3118820468343
21
1.11525538806159
31
0.000000000000000
  0
LINE
  5
F1020E
330
F1020F
100
AcDbEntity
8
Geo
100
AcDbLine
10
-55.3118820468343
20
1.11525538806159
30
0.000000000000000
11
-55.2118820468343
21
1.03171613022347
31
0.000000000000000
  0
LINE
  5
F10210
330
F10211
100
AcDbEntity
8
Geo
100
AcDbLine
10
-55.2118820468343
20
1.03171613022347
30
0.000000000000000
11
-55.1118820468343
21
0.949104486862643
31
0.000000000000000
  0
LINE
  5
F10212
330
F10213
100
AcDbEntity
8
Geo
100
AcDbLine
10
-55.1118820468343
20
0.949104486862643
30
0.000000000000000
11
-55.0118820468343
21
0.867443405126619
31
0.000000000000000
  0
LINE
  5
F10214
330
F10215
100
AcDbEntity
8
Geo
100
AcDbLine
10
-55.0118820468343
20
0.867443405126619
30
0.000000000000000
11
-54.9118820468343
21
0.786755568124138
31
0.000000000000000
  0
LINE
  5
F10216
330
F10217
100
AcDbEntity
8
Geo
100
AcDbLine
10
-54.9118820468343
20
0.786755568124138
30
0.000000000000000
11
-54.8118820468343
21
0.707063388624436
31
0.000000000000000
  0
LINE
  5
F10218
330
F10219
100
AcDbEntity
8
Geo
100
AcDbLine
10
-54.8118820468343
20
0.707063388624436
30
0.000000000000000
11
-54.7118820468343
21
0.628389002831621
31
0.000000000000000
  0
LINE
  5
F1021A
330
F1021B
100
AcDbEntity
8
Geo
100
AcDbLine
10
-54.7118820468343
20
0.628389002831621
30
0.000000000000000
11
-54.6118820468343
21
0.550754264235870
31
0.000000000000000
  0
LINE
  5
F1021C
330
F1021D
100
AcDbEntity
8
Geo
100
AcDbLine
10
-54.6118820468343
20
0.550754264235870
30
0.000000000000000
11
-54.5118820468343
21
0.474180737543160
31
0.000000000000000
  0
LINE
  5
F1021E
330
F1021F
100
AcDbEntity
8
Geo
100
AcDbLine
10
-54.5118820468343
20
0.474180737543160
30
0.000000000000000
11
-54.4118820468343
21
0.398689692685207
31
0.000000000000000
  0
LINE
  5
F10220
330
F10221
100
AcDbEntity
8
Geo
100
AcDbLine
10
-54.4118820468343
20
0.398689692685207
30
0.000000000000000
11
-54.3118820468343
21
0.324302098911287
31
0.000000000000000
  0
LINE
  5
F10222
330
F10223
100
AcDbEntity
8
Geo
100
AcDbLine
10
-54.3118820468343
20
0.324302098911287
30
0.000000000000000
11
-54.2118820468343
21
0.251038618963580
31
0.000000000000000
  0
LINE
  5
F10224
330
F10225
100
AcDbEntity
8
Geo
100
AcDbLine
10
-54.2118820468343
20
0.251038618963580
30
0.000000000000000
11
-54.1118820468343
21
0.178919603337659
31
0.000000000000000
  0
LINE
  5
F10226
330
F10227
100
AcDbEntity
8
Geo
100
AcDbLine
10
-54.1118820468343
20
0.178919603337659
30
0.000000000000000
11
-54.0118820468343
21
0.107965084629694
31
0.000000000000000
  0
LINE
  5
F10228
330
F10229
100
AcDbEntity
8
Geo
100
AcDbLine
10
-54.0118820468343
20
0.107965084629694
30
0.000000000000000
11
-53.9118820468343
21
0.0381947719719768
31
0.000000000000000
  0
LINE
  5
F1022A
330
F1022B
100
AcDbEntity
8
Geo
100
AcDbLine
10
-53.9118820468343
20
0.0381947719719768
30
0.000000000000000
11
-53.8118820468343
21
-0.0303719544417058
31
0.000000000000000
  0
LINE
  5
F1022C
330
F1022D
100
AcDbEntity
8
Geo
100
AcDbLine
10
-53.8118820468343
20
-0.0303719544417058
30
0.000000000000000
11
-53.7118820468343
21
-0.0977160487393460
31
0.000000000000000
  0
LINE
  5
F1022E
330
F1022F
100
AcDbEntity
8
Geo
100
AcDbLine
10
-53.7118820468343
20
-0.0977160487393460
30
0.000000000000000
11
-53.6118820468343
21
-0.163818804661104
31
0.000000000000000
  0
LINE
  5
F10230
330
F10231
100
AcDbEntity
8
Geo
100
AcDbLine
10
-53.6118820468343
20
-0.163818804661104
30
0.000000000000000
11
-53.5118820468343
21
-0.228661860755375
31
0.000000000000000
  0
LINE
  5
F10232
330
F10233
100
AcDbEntity
8
Geo
100
AcDbLine
10
-53.5118820468343
20
-0.228661860755375
30
0.000000000000000
11
-53.4118820468343
21
-0.292227205479072
31
0.000000000000000
  0
LINE
  5
F10234
330
F10235
100
AcDbEntity
8
Geo
100
AcDbLine
10
-53.4118820468343
20
-0.292227205479072
30
0.000000000000000
11
-53.3118820468343
21
-0.354497182200717
31
0.000000000000000
  0
LINE
  5
F10236
330
F10237
100
AcDbEntity
8
Geo
100
AcDbLine
10
-53.3118820468343
20
-0.354497182200717
30
0.000000000000000
11
-53.2118820468343
21
-0.415454494104951
31
0.000000000000000
  0
LINE
  5
F10238
330
F10239
100
AcDbEntity
8
Geo
100
AcDbLine
10
-53.2118820468343
20
-0.415454494104951
30
0.000000000000000
11
-53.1118820468343
21
-0.475082208997087
31
0.000000000000000
  0
LINE
  5
F1023A
330
F1023B
100
AcDbEntity
8
Geo
100
AcDbLine
10
-53.1118820468343
20
-0.475082208997087
30
0.000000000000000
11
-53.0118820468343
21
-0.533363764006394
31
0.000000000000000
  0
LINE
  5
F1023C
330
F1023D
100
AcDbEntity
8
Geo
100
AcDbLine
10
-53.0118820468343
20
-0.533363764006394
30
0.000000000000000
11
-52.9118820468343
21
-0.590282970186784
31
0.000000000000000
  0
LINE
  5
F1023E
330
F1023F
100
AcDbEntity
8
Geo
100
AcDbLine
10
-52.9118820468343
20
-0.590282970186784
30
0.000000000000000
11
-52.8118820468343
21
-0.645824017013641
31
0.000000000000000
  0
LINE
  5
F10240
330
F10241
100
AcDbEntity
8
Geo
100
AcDbLine
10
-52.8118820468343
20
-0.645824017013641
30
0.000000000000000
11
-52.7118820468343
21
-0.699971476775533
31
0.000000000000000
  0
LINE
  5
F10242
330
F10243
100
AcDbEntity
8
Geo
100
AcDbLine
10
-52.7118820468343
20
-0.699971476775533
30
0.000000000000000
11
-52.6118820468343
21
-0.752710308859578
31
0.000000000000000
  0
LINE
  5
F10244
330
F10245
100
AcDbEntity
8
Geo
100
AcDbLine
10
-52.6118820468343
20
-0.752710308859578
30
0.000000000000000
11
-52.5118820468343
21
-0.804025863929310
31
0.000000000000000
  0
LINE
  5
F10246
330
F10247
100
AcDbEntity
8
Geo
100
AcDbLine
10
-52.5118820468343
20
-0.804025863929310
30
0.000000000000000
11
-52.4118820468343
21
-0.853903887993832
31
0.000000000000000
  0
LINE
  5
F10248
330
F10249
100
AcDbEntity
8
Geo
100
AcDbLine
10
-52.4118820468343
20
-0.853903887993832
30
0.000000000000000
11
-52.3118820468343
21
-0.902330526367177
31
0.000000000000000
  0
LINE
  5
F1024A
330
F1024B
100
AcDbEntity
8
Geo
100
AcDbLine
10
-52.3118820468343
20
-0.902330526367177
30
0.000000000000000
11
-52.2118820468343
21
-0.949292327516730
31
0.000000000000000
  0
LINE
  5
F1024C
330
F1024D
100
AcDbEntity
8
Geo
100
AcDbLine
10
-52.2118820468343
20
-0.949292327516730
30
0.000000000000000
11
-52.1118820468343
21
-0.994776246799697
31
0.000000000000000
  0
LINE
  5
F1024E
330
F1024F
100
AcDbEntity
8
Geo
100
AcDbLine
10
-52.1118820468343
20
-0.994776246799697
30
0.000000000000000
11
-52.0118820468343
21
-1.03876965008651
31
0.000000000000000
  0
LINE
  5
F10250
330
F10251
100
AcDbEntity
8
Geo
100
AcDbLine
10
-52.0118820468343
20
-1.03876965008651
30
0.000000000000000
11
-51.9118820468343
21
-1.08126031727025
31
0.000000000000000
  0
LINE
  5
F10252
330
F10253
100
AcDbEntity
8
Geo
100
AcDbLine
10
-51.9118820468343
20
-1.08126031727025
30
0.000000000000000
11
-51.8118820468343
21
-1.12223644566102
31
0.000000000000000
  0
LINE
  5
F10254
330
F10255
100
AcDbEntity
8
Geo
100
AcDbLine
10
-51.8118820468343
20
-1.12223644566102
30
0.000000000000000
11
-51.7118820468343
21
-1.16168665326440
31
0.000000000000000
  0
LINE
  5
F10256
330
F10257
100
AcDbEntity
8
Geo
100
AcDbLine
10
-51.7118820468343
20
-1.16168665326440
30
0.000000000000000
11
-51.6118820468343
21
-1.19959998194308
31
0.000000000000000
  0
LINE
  5
F10258
330
F10259
100
AcDbEntity
8
Geo
100
AcDbLine
10
-51.6118820468343
20
-1.19959998194308
30
0.000000000000000
11
-51.5118820468343
21
-1.23596590046063
31
0.000000000000000
  0
LINE
  5
F1025A
330
F1025B
100
AcDbEntity
8
Geo
100
AcDbLine
10
-51.5118820468343
20
-1.23596590046063
30
0.000000000000000
11
-51.4118820468343
21
-1.27077430740685
31
0.000000000000000
  0
LINE
  5
F1025C
330
F1025D
100
AcDbEntity
8
Geo
100
AcDbLine
10
-51.4118820468343
20
-1.27077430740685
30
0.000000000000000
11
-51.3118820468343
21
-1.30401553400364
31
0.000000000000000
  0
LINE
  5
F1025E
330
F1025F
100
AcDbEntity
8
Geo
100
AcDbLine
10
-51.3118820468343
20
-1.30401553400364
30
0.000000000000000
11
-51.2118820468343
21
-1.33568034679068
31
0.000000000000000
  0
LINE
  5
F10260
330
F10261
100
AcDbEntity
8
Geo
100
AcDbLine
10
-51.2118820468343
20
-1.33568034679068
30
0.000000000000000
11
-51.1118820468343
21
-1.36575995019025
31
0.000000000000000
  0
LINE
  5
F10262
330
F10263
100
AcDbEntity
8
Geo
100
AcDbLine
10
-51.1118820468343
20
-1.36575995019025
30
0.000000000000000
11
-51.0118820468343
21
-1.39424598895036
31
0.000000000000000
  0
LINE
  5
F10264
330
F10265
100
AcDbEntity
8
Geo
100
AcDbLine
10
-51.0118820468343
20
-1.39424598895036
30
0.000000000000000
11
-50.9118820468343
21
-1.42113055046564
31
0.000000000000000
  0
LINE
  5
F10266
330
F10267
100
AcDbEntity
8
Geo
100
AcDbLine
10
-50.9118820468343
20
-1.42113055046564
30
0.000000000000000
11
-50.8118820468343
21
-1.44640616697520
31
0.000000000000000
  0
LINE
  5
F10268
330
F10269
100
AcDbEntity
8
Geo
100
AcDbLine
10
-50.8118820468343
20
-1.44640616697520
30
0.000000000000000
11
-50.7118820468343
21
-1.47006581763698
31
0.000000000000000
  0
LINE
  5
F1026A
330
F1026B
100
AcDbEntity
8
Geo
100
AcDbLine
10
-50.7118820468343
20
-1.47006581763698
30
0.000000000000000
11
-50.6118820468343
21
-1.49210293047792
31
0.000000000000000
  0
LINE
  5
F1026C
330
F1026D
100
AcDbEntity
8
Geo
100
AcDbLine
10
-50.6118820468343
20
-1.49210293047792
30
0.000000000000000
11
-50.5118820468343
21
-1.51251138421949
31
0.000000000000000
  0
LINE
  5
F1026E
330
F1026F
100
AcDbEntity
8
Geo
100
AcDbLine
10
-50.5118820468343
20
-1.51251138421949
30
0.000000000000000
11
-50.4118820468343
21
-1.53128550997798
31
0.000000000000000
  0
LINE
  5
F10270
330
F10271
100
AcDbEntity
8
Geo
100
AcDbLine
10
-50.4118820468343
20
-1.53128550997798
30
0.000000000000000
11
-50.3118820468343
21
-1.54842009283919
31
0.000000000000000
  0
LINE
  5
F10272
330
F10273
100
AcDbEntity
8
Geo
100
AcDbLine
10
-50.3118820468343
20
-1.54842009283919
30
0.000000000000000
11
-50.2118820468343
21
-1.56391037330693
31
0.000000000000000
  0
LINE
  5
F10274
330
F10275
100
AcDbEntity
8
Geo
100
AcDbLine
10
-50.2118820468343
20
-1.56391037330693
30
0.000000000000000
11
-50.1118820468343
21
-1.57775204862512
31
0.000000000000000
  0
LINE
  5
F10276
330
F10277
100
AcDbEntity
8
Geo
100
AcDbLine
10
-50.1118820468343
20
-1.57775204862512
30
0.000000000000000
11
-50.0118820468343
21
-1.58994127397296
31
0.000000000000000
  0
LINE
  5
F10278
330
F10279
100
AcDbEntity
8
Geo
100
AcDbLine
10
-50.0118820468343
20
-1.58994127397296
30
0.000000000000000
11
-49.9118820468343
21
-1.60047466353288
31
0.000000000000000
  0
LINE
  5
F1027A
330
F1027B
100
AcDbEntity
8
Geo
100
AcDbLine
10
-49.9118820468343
20
-1.60047466353288
30
0.000000000000000
11
-49.8118820468343
21
-1.60934929143108
31
0.000000000000000
  0
LINE
  5
F1027C
330
F1027D
100
AcDbEntity
8
Geo
100
AcDbLine
10
-49.8118820468343
20
-1.60934929143108
30
0.000000000000000
11
-49.7118820468343
21
-1.61656269255020
31
0.000000000000000
  0
LINE
  5
F1027E
330
F1027F
100
AcDbEntity
8
Geo
100
AcDbLine
10
-49.7118820468343
20
-1.61656269255020
30
0.000000000000000
11
-49.6118820468343
21
-1.62211286321409
31
0.000000000000000
  0
LINE
  5
F10280
330
F10281
100
AcDbEntity
8
Geo
100
AcDbLine
10
-49.6118820468343
20
-1.62211286321409
30
0.000000000000000
11
-49.5118820468343
21
-1.62599826174437
31
0.000000000000000
  0
LINE
  5
F10282
330
F10283
100
AcDbEntity
8
Geo
100
AcDbLine
10
-49.5118820468343
20
-1.62599826174437
30
0.000000000000000
11
-49.4118820468343
21
-1.62821780888864
31
0.000000000000000
  0
LINE
  5
F10284
330
F10285
100
AcDbEntity
8
Geo
100
AcDbLine
10
-49.4118820468343
20
-1.62821780888864
30
0.000000000000000
11
-49.3286971694533
21
-1.62879444926278
31
0.000000000000000
  0
LINE
  5
F10286
330
F10287
100
AcDbEntity
8
Geo
100
AcDbLine
10
-43.0455117708042
20
10.3712055507372
30
0.000000000000000
11
-43.0118820468344
21
10.3711113063524
31
0.000000000000000
  0
LINE
  5
F10288
330
F10289
100
AcDbEntity
8
Geo
100
AcDbLine
10
-43.0118820468344
20
10.3711113063524
30
0.000000000000000
11
-42.9118820468344
21
10.3697175445202
31
0.000000000000000
  0
LINE
  5
F1028A
330
F1028B
100
AcDbEntity
8
Geo
100
AcDbLine
10
-42.9118820468344
20
10.3697175445202
30
0.000000000000000
11
-42.8118820468344
21
10.3666575679268
31
0.000000000000000
  0
LINE
  5
F1028C
330
F1028D
100
AcDbEntity
8
Geo
100
AcDbLine
10
-42.8118820468344
20
10.3666575679268
30
0.000000000000000
11
-42.7118820468344
21
10.3619322265459
31
0.000000000000000
  0
LINE
  5
F1028E
330
F1028F
100
AcDbEntity
8
Geo
100
AcDbLine
10
-42.7118820468344
20
10.3619322265459
30
0.000000000000000
11
-42.6118820468344
21
10.3555428329420
31
0.000000000000000
  0
LINE
  5
F10290
330
F10291
100
AcDbEntity
8
Geo
100
AcDbLine
10
-42.6118820468344
20
10.3555428329420
30
0.000000000000000
11
-42.5118820468344
21
10.3474911619055
31
0.000000000000000
  0
LINE
  5
F10292
330
F10293
100
AcDbEntity
8
Geo
100
AcDbLine
10
-42.5118820468344
20
10.3474911619055
30
0.000000000000000
11
-42.4118820468344
21
10.3377794499600
31
0.000000000000000
  0
LINE
  5
F10294
330
F10295
100
AcDbEntity
8
Geo
100
AcDbLine
10
-42.4118820468344
20
10.3377794499600
30
0.000000000000000
11
-42.3118820468344
21
10.3264103947408
31
0.000000000000000
  0
LINE
  5
F10296
330
F10297
100
AcDbEntity
8
Geo
100
AcDbLine
10
-42.3118820468344
20
10.3264103947408
30
0.000000000000000
11
-42.2118820468344
21
10.3133871542457
31
0.000000000000000
  0
LINE
  5
F10298
330
F10299
100
AcDbEntity
8
Geo
100
AcDbLine
10
-42.2118820468344
20
10.3133871542457
30
0.000000000000000
11
-42.1118820468344
21
10.2987133459577
31
0.000000000000000
  0
LINE
  5
F1029A
330
F1029B
100
AcDbEntity
8
Geo
100
AcDbLine
10
-42.1118820468344
20
10.2987133459577
30
0.000000000000000
11
-42.0118820468344
21
10.2823930458404
31
0.000000000000000
  0
LINE
  5
F1029C
330
F1029D
100
AcDbEntity
8
Geo
100
AcDbLine
10
-42.0118820468344
20
10.2823930458404
30
0.000000000000000
11
-41.9118820468344
21
10.2644307872054
31
0.000000000000000
  0
LINE
  5
F1029E
330
F1029F
100
AcDbEntity
8
Geo
100
AcDbLine
10
-41.9118820468344
20
10.2644307872054
30
0.000000000000000
11
-41.8118820468344
21
10.2448315594537
31
0.000000000000000
  0
LINE
  5
F102A0
330
F102A1
100
AcDbEntity
8
Geo
100
AcDbLine
10
-41.8118820468344
20
10.2448315594537
30
0.000000000000000
11
-41.7118820468344
21
10.2236008066891
31
0.000000000000000
  0
LINE
  5
F102A2
330
F102A3
100
AcDbEntity
8
Geo
100
AcDbLine
10
-41.7118820468344
20
10.2236008066891
30
0.000000000000000
11
-41.6118820468344
21
10.2007444262064
31
0.000000000000000
  0
LINE
  5
F102A4
330
F102A5
100
AcDbEntity
8
Geo
100
AcDbLine
10
-41.6118820468344
20
10.2007444262064
30
0.000000000000000
11
-41.5118820468344
21
10.1762687668532
31
0.000000000000000
  0
LINE
  5
F102A6
330
F102A7
100
AcDbEntity
8
Geo
100
AcDbLine
10
-41.5118820468344
20
10.1762687668532
30
0.000000000000000
11
-41.4118820468344
21
10.1501806272665
31
0.000000000000000
  0
LINE
  5
F102A8
330
F102A9
100
AcDbEntity
8
Geo
100
AcDbLine
10
-41.4118820468344
20
10.1501806272665
30
0.000000000000000
11
-41.3118820468344
21
10.1224872539839
31
0.000000000000000
  0
LINE
  5
F102AA
330
F102AB
100
AcDbEntity
8
Geo
100
AcDbLine
10
-41.3118820468344
20
10.1224872539839
30
0.000000000000000
11
-41.2118820468344
21
10.0931963394310
31
0.000000000000000
  0
LINE
  5
F102AC
330
F102AD
100
AcDbEntity
8
Geo
100
AcDbLine
10
-41.2118820468344
20
10.0931963394310
30
0.000000000000000
11
-41.1118820468344
21
10.0623160197846
31
0.000000000000000
  0
LINE
  5
F102AE
330
F102AF
100
AcDbEntity
8
Geo
100
AcDbLine
10
-41.1118820468344
20
10.0623160197846
30
0.000000000000000
11
-41.0118820468344
21
10.0298548727128
31
0.000000000000000
  0
LINE
  5
F102B0
330
F102B1
100
AcDbEntity
8
Geo
100
AcDbLine
10
-41.0118820468344
20
10.0298548727128
30
0.000000000000000
11
-40.9118820468344
21
9.99582191499213
31
0.000000000000000
  0
LINE
  5
F102B2
330
F102B3
100
AcDbEntity
8
Geo
100
AcDbLine
10
-40.9118820468344
20
9.99582191499213
30
0.000000000000000
11
-40.8118820468344
21
9.96022660000312
31
0.000000000000000
  0
LINE
  5
F102B4
330
F102B5
100
AcDbEntity
8
Geo
100
AcDbLine
10
-40.8118820468344
20
9.96022660000312
30
0.000000000000000
11
-40.7118820468344
21
9.92307881510440
31
0.000000000000000
  0
LINE
  5
F102B6
330
F102B7
100
AcDbEntity
8
Geo
100
AcDbLine
10
-40.7118820468344
20
9.92307881510440
30
0.000000000000000
11
-40.6118820468344
21
9.88438887888624
31
0.000000000000000
  0
LINE
  5
F102B8
330
F102B9
100
AcDbEntity
8
Geo
100
AcDbLine
10
-40.6118820468344
20
9.88438887888624
30
0.000000000000000
11
-40.5118820468344
21
9.84416753830437
31
0.000000000000000
  0
LINE
  5
F102BA
330
F102BB
100
AcDbEntity
8
Geo
100
AcDbLine
10
-40.5118820468344
20
9.84416753830437
30
0.000000000000000
11
-40.4118820468344
21
9.80242596569478
31
0.000000000000000
  0
LINE
  5
F102BC
330
F102BD
100
AcDbEntity
8
Geo
100
AcDbLine
10
-40.4118820468344
20
9.80242596569478
30
0.000000000000000
11
-40.3118820468344
21
9.75917575567035
31
0.000000000000000
  0
LINE
  5
F102BE
330
F102BF
100
AcDbEntity
8
Geo
100
AcDbLine
10
-40.3118820468344
20
9.75917575567035
30
0.000000000000000
11
-40.2118820468344
21
9.71442892190021
31
0.000000000000000
  0
LINE
  5
F102C0
330
F102C1
100
AcDbEntity
8
Geo
100
AcDbLine
10
-40.2118820468344
20
9.71442892190021
30
0.000000000000000
11
-40.1118820468344
21
9.66819789377269
31
0.000000000000000
  0
LINE
  5
F102C2
330
F102C3
100
AcDbEntity
8
Geo
100
AcDbLine
10
-40.1118820468344
20
9.66819789377269
30
0.000000000000000
11
-40.0118820468344
21
9.62049551294277
31
0.000000000000000
  0
LINE
  5
F102C4
330
F102C5
100
AcDbEntity
8
Geo
100
AcDbLine
10
-40.0118820468344
20
9.62049551294277
30
0.000000000000000
11
-39.9118820468344
21
9.57133502976508
31
0.000000000000000
  0
LINE
  5
F102C6
330
F102C7
100
AcDbEntity
8
Geo
100
AcDbLine
10
-39.9118820468344
20
9.57133502976508
30
0.000000000000000
11
-39.8118820468344
21
9.52073009961329
31
0.000000000000000
  0
LINE
  5
F102C8
330
F102C9
100
AcDbEntity
8
Geo
100
AcDbLine
10
-39.8118820468344
20
9.52073009961329
30
0.000000000000000
11
-39.7118820468344
21
9.46869477908704
31
0.000000000000000
  0
LINE
  5
F102CA
330
F102CB
100
AcDbEntity
8
Geo
100
AcDbLine
10
-39.7118820468344
20
9.46869477908704
30
0.000000000000000
11
-39.6118820468344
21
9.41524352210746
31
0.000000000000000
  0
LINE
  5
F102CC
330
F102CD
100
AcDbEntity
8
Geo
100
AcDbLine
10
-39.6118820468344
20
9.41524352210746
30
0.000000000000000
11
-39.5118820468344
21
9.36039117590224
31
0.000000000000000
  0
LINE
  5
F102CE
330
F102CF
100
AcDbEntity
8
Geo
100
AcDbLine
10
-39.5118820468344
20
9.36039117590224
30
0.000000000000000
11
-39.4118820468344
21
9.30415297688151
31
0.000000000000000
  0
LINE
  5
F102D0
330
F102D1
100
AcDbEntity
8
Geo
100
AcDbLine
10
-39.4118820468344
20
9.30415297688151
30
0.000000000000000
11
-39.3118820468344
21
9.24654454640561
31
0.000000000000000
  0
LINE
  5
F102D2
330
F102D3
100
AcDbEntity
8
Geo
100
AcDbLine
10
-39.3118820468344
20
9.24654454640561
30
0.000000000000000
11
-39.2118820468344
21
9.18758188644592
31
0.000000000000000
  0
LINE
  5
F102D4
330
F102D5
100
AcDbEntity
8
Geo
100
AcDbLine
10
-39.2118820468344
20
9.18758188644592
30
0.000000000000000
11
-39.1118820468344
21
9.12728137513997
31
0.000000000000000
  0
LINE
  5
F102D6
330
F102D7
100
AcDbEntity
8
Geo
100
AcDbLine
10
-39.1118820468344
20
9.12728137513997
30
0.000000000000000
11
-39.0118820468344
21
9.06565976224205
31
0.000000000000000
  0
LINE
  5
F102D8
330
F102D9
100
AcDbEntity
8
Geo
100
AcDbLine
10
-39.0118820468344
20
9.06565976224205
30
0.000000000000000
11
-38.9118820468344
21
9.00273416447064
31
0.000000000000000
  0
LINE
  5
F102DA
330
F102DB
100
AcDbEntity
8
Geo
100
AcDbLine
10
-38.9118820468344
20
9.00273416447064
30
0.000000000000000
11
-38.8118820468344
21
8.93852206075383
31
0.000000000000000
  0
LINE
  5
F102DC
330
F102DD
100
AcDbEntity
8
Geo
100
AcDbLine
10
-38.8118820468344
20
8.93852206075383
30
0.000000000000000
11
-38.7118820468344
21
8.87304128737422
31
0.000000000000000
  0
LINE
  5
F102DE
330
F102DF
100
AcDbEntity
8
Geo
100
AcDbLine
10
-38.7118820468344
20
8.87304128737422
30
0.000000000000000
11
-38.6118820468344
21
8.80631003301449
31
0.000000000000000
  0
LINE
  5
F102E0
330
F102E1
100
AcDbEntity
8
Geo
100
AcDbLine
10
-38.6118820468344
20
8.80631003301449
30
0.000000000000000
11
-38.5118820468344
21
8.73834683370510
31
0.000000000000000
  0
LINE
  5
F102E2
330
F102E3
100
AcDbEntity
8
Geo
100
AcDbLine
10
-38.5118820468344
20
8.73834683370510
30
0.000000000000000
11
-38.4118820468344
21
8.66917056767553
31
0.000000000000000
  0
LINE
  5
F102E4
330
F102E5
100
AcDbEntity
8
Geo
100
AcDbLine
10
-38.4118820468344
20
8.66917056767553
30
0.000000000000000
11
-38.3118820468343
21
8.59880045011042
31
0.000000000000000
  0
LINE
  5
F102E6
330
F102E7
100
AcDbEntity
8
Geo
100
AcDbLine
10
-38.3118820468343
20
8.59880045011042
30
0.000000000000000
11
-38.2118820468343
21
8.52725602781217
31
0.000000000000000
  0
LINE
  5
F102E8
330
F102E9
100
AcDbEntity
8
Geo
100
AcDbLine
10
-38.2118820468343
20
8.52725602781217
30
0.000000000000000
11
-38.1118820468343
21
8.45455717377140
31
0.000000000000000
  0
LINE
  5
F102EA
330
F102EB
100
AcDbEntity
8
Geo
100
AcDbLine
10
-38.1118820468343
20
8.45455717377140
30
0.000000000000000
11
-38.0118820468343
21
8.38072408164677
31
0.000000000000000
  0
LINE
  5
F102EC
330
F102ED
100
AcDbEntity
8
Geo
100
AcDbLine
10
-38.0118820468343
20
8.38072408164677
30
0.000000000000000
11
-37.9118820468343
21
8.30577726015580
31
0.000000000000000
  0
LINE
  5
F102EE
330
F102EF
100
AcDbEntity
8
Geo
100
AcDbLine
10
-37.9118820468343
20
8.30577726015580
30
0.000000000000000
11
-37.8118820468343
21
8.22973752737810
31
0.000000000000000
  0
LINE
  5
F102F0
330
F102F1
100
AcDbEntity
8
Geo
100
AcDbLine
10
-37.8118820468343
20
8.22973752737810
30
0.000000000000000
11
-37.7118820468343
21
8.15262600497273
31
0.000000000000000
  0
LINE
  5
F102F2
330
F102F3
100
AcDbEntity
8
Geo
100
AcDbLine
10
-37.7118820468343
20
8.15262600497273
30
0.000000000000000
11
-37.6118820468343
21
8.07446411231121
31
0.000000000000000
  0
LINE
  5
F102F4
330
F102F5
100
AcDbEntity
8
Geo
100
AcDbLine
10
-37.6118820468343
20
8.07446411231121
30
0.000000000000000
11
-37.5118820468343
21
7.99527356052780
31
0.000000000000000
  0
LINE
  5
F102F6
330
F102F7
100
AcDbEntity
8
Geo
100
AcDbLine
10
-37.5118820468343
20
7.99527356052780
30
0.000000000000000
11
-37.4118820468343
21
7.91507634648881
31
0.000000000000000
  0
LINE
  5
F102F8
330
F102F9
100
AcDbEntity
8
Geo
100
AcDbLine
10
-37.4118820468343
20
7.91507634648881
30
0.000000000000000
11
-37.3118820468343
21
7.83389474668247
31
0.000000000000000
  0
LINE
  5
F102FA
330
F102FB
100
AcDbEntity
8
Geo
100
AcDbLine
10
-37.3118820468343
20
7.83389474668247
30
0.000000000000000
11
-37.2118820468343
21
7.75175131103117
31
0.000000000000000
  0
LINE
  5
F102FC
330
F102FD
100
AcDbEntity
8
Geo
100
AcDbLine
10
-37.2118820468343
20
7.75175131103117
30
0.000000000000000
11
-37.1118820468343
21
7.66866885662774
31
0.000000000000000
  0
LINE
  5
F102FE
330
F102FF
100
AcDbEntity
8
Geo
100
AcDbLine
10
-37.1118820468343
20
7.66866885662774
30
0.000000000000000
11
-37.0118820468343
21
7.58467046139753
31
0.000000000000000
  0
LINE
  5
F10300
330
F10301
100
AcDbEntity
8
Geo
100
AcDbLine
10
-37.0118820468343
20
7.58467046139753
30
0.000000000000000
11
-36.9118820468343
21
7.49977945768799
31
0.000000000000000
  0
LINE
  5
F10302
330
F10303
100
AcDbEntity
8
Geo
100
AcDbLine
10
-36.9118820468343
20
7.49977945768799
30
0.000000000000000
11
-36.8118820468343
21
7.41401942578764
31
0.000000000000000
  0
LINE
  5
F10304
330
F10305
100
AcDbEntity
8
Geo
100
AcDbLine
10
-36.8118820468343
20
7.41401942578764
30
0.000000000000000
11
-36.7118820468343
21
7.32741418737612
31
0.000000000000000
  0
LINE
  5
F10306
330
F10307
100
AcDbEntity
8
Geo
100
AcDbLine
10
-36.7118820468343
20
7.32741418737612
30
0.000000000000000
11
-36.6118820468343
21
7.23998779890724
31
0.000000000000000
  0
LINE
  5
F10308
330
F10309
100
AcDbEntity
8
Geo
100
AcDbLine
10
-36.6118820468343
20
7.23998779890724
30
0.000000000000000
11
-36.5118820468343
21
7.15176454492674
31
0.000000000000000
  0
LINE
  5
F1030A
330
F1030B
100
AcDbEntity
8
Geo
100
AcDbLine
10
-36.5118820468343
20
7.15176454492674
30
0.000000000000000
11
-36.4118820468343
21
7.06276893132681
31
0.000000000000000
  0
LINE
  5
F1030C
330
F1030D
100
AcDbEntity
8
Geo
100
AcDbLine
10
-36.4118820468343
20
7.06276893132681
30
0.000000000000000
11
-36.3118820468343
21
6.97302567853897
31
0.000000000000000
  0
LINE
  5
F1030E
330
F1030F
100
AcDbEntity
8
Geo
100
AcDbLine
10
-36.3118820468343
20
6.97302567853897
30
0.000000000000000
11
-36.2118820468343
21
6.88255971466750
31
0.000000000000000
  0
LINE
  5
F10310
330
F10311
100
AcDbEntity
8
Geo
100
AcDbLine
10
-36.2118820468343
20
6.88255971466750
30
0.000000000000000
11
-36.1118820468343
21
6.79139616856513
31
0.000000000000000
  0
LINE
  5
F10312
330
F10313
100
AcDbEntity
8
Geo
100
AcDbLine
10
-36.1118820468343
20
6.79139616856513
30
0.000000000000000
11
-36.0118820468343
21
6.69956036285292
31
0.000000000000000
  0
LINE
  5
F10314
330
F10315
100
AcDbEntity
8
Geo
100
AcDbLine
10
-36.0118820468343
20
6.69956036285292
30
0.000000000000000
11
-35.9118820468343
21
6.60707780688640
31
0.000000000000000
  0
LINE
  5
F10316
330
F10317
100
AcDbEntity
8
Geo
100
AcDbLine
10
-35.9118820468343
20
6.60707780688640
30
0.000000000000000
11
-35.8118820468343
21
6.51397418966979
31
0.000000000000000
  0
LINE
  5
F10318
330
F10319
100
AcDbEntity
8
Geo
100
AcDbLine
10
-35.8118820468343
20
6.51397418966979
30
0.000000000000000
11
-35.7118820468343
21
6.42027537272033
31
0.000000000000000
  0
LINE
  5
F1031A
330
F1031B
100
AcDbEntity
8
Geo
100
AcDbLine
10
-35.7118820468343
20
6.42027537272033
30
0.000000000000000
11
-35.6118820468343
21
6.32600738288469
31
0.000000000000000
  0
LINE
  5
F1031C
330
F1031D
100
AcDbEntity
8
Geo
100
AcDbLine
10
-35.6118820468343
20
6.32600738288469
30
0.000000000000000
11
-35.5118820468343
21
6.23119640510946
31
0.000000000000000
  0
LINE
  5
F1031E
330
F1031F
100
AcDbEntity
8
Geo
100
AcDbLine
10
-35.5118820468343
20
6.23119640510946
30
0.000000000000000
11
-35.4118820468343
21
6.13586877516772
31
0.000000000000000
  0
LINE
  5
F10320
330
F10321
100
AcDbEntity
8
Geo
100
AcDbLine
10
-35.4118820468343
20
6.13586877516772
30
0.000000000000000
11
-35.3118820468343
21
6.04005097234372
31
0.000000000000000
  0
LINE
  5
F10322
330
F10323
100
AcDbEntity
8
Geo
100
AcDbLine
10
-35.3118820468343
20
6.04005097234372
30
0.000000000000000
11
-35.2118820468343
21
5.94376961207771
31
0.000000000000000
  0
LINE
  5
F10324
330
F10325
100
AcDbEntity
8
Geo
100
AcDbLine
10
-35.2118820468343
20
5.94376961207771
30
0.000000000000000
11
-35.1118820468343
21
5.84705143857287
31
0.000000000000000
  0
LINE
  5
F10326
330
F10327
100
AcDbEntity
8
Geo
100
AcDbLine
10
-35.1118820468343
20
5.84705143857287
30
0.000000000000000
11
-35.0118820468343
21
5.74992331736664
31
0.000000000000000
  0
LINE
  5
F10328
330
F10329
100
AcDbEntity
8
Geo
100
AcDbLine
10
-35.0118820468343
20
5.74992331736664
30
0.000000000000000
11
-34.9118820468343
21
5.65241222786813
31
0.000000000000000
  0
LINE
  5
F1032A
330
F1032B
100
AcDbEntity
8
Geo
100
AcDbLine
10
-34.9118820468343
20
5.65241222786813
30
0.000000000000000
11
-34.8118820468343
21
5.55454525586411
31
0.000000000000000
  0
LINE
  5
F1032C
330
F1032D
100
AcDbEntity
8
Geo
100
AcDbLine
10
-34.8118820468343
20
5.55454525586411
30
0.000000000000000
11
-34.7118820468343
21
5.45634958599531
31
0.000000000000000
  0
LINE
  5
F1032E
330
F1032F
100
AcDbEntity
8
Geo
100
AcDbLine
10
-34.7118820468343
20
5.45634958599531
30
0.000000000000000
11
-34.6118820468343
21
5.35785249420527
31
0.000000000000000
  0
LINE
  5
F10330
330
F10331
100
AcDbEntity
8
Geo
100
AcDbLine
10
-34.6118820468343
20
5.35785249420527
30
0.000000000000000
11
-34.5118820468343
21
5.25908134016395
31
0.000000000000000
  0
LINE
  5
F10332
330
F10333
100
AcDbEntity
8
Geo
100
AcDbLine
10
-34.5118820468343
20
5.25908134016395
30
0.000000000000000
11
-34.4118820468343
21
5.16006355966792
31
0.000000000000000
  0
LINE
  5
F10334
330
F10335
100
AcDbEntity
8
Geo
100
AcDbLine
10
-34.4118820468343
20
5.16006355966792
30
0.000000000000000
11
-34.3118820468343
21
5.06082665701953
31
0.000000000000000
  0
LINE
  5
F10336
330
F10337
100
AcDbEntity
8
Geo
100
AcDbLine
10
-34.3118820468343
20
5.06082665701953
30
0.000000000000000
11
-34.2118820468343
21
4.96139819738698
31
0.000000000000000
  0
LINE
  5
F10338
330
F10339
100
AcDbEntity
8
Geo
100
AcDbLine
10
-34.2118820468343
20
4.96139819738698
30
0.000000000000000
11
-34.1118820468343
21
4.86180579914751
31
0.000000000000000
  0
LINE
  5
F1033A
330
F1033B
100
AcDbEntity
8
Geo
100
AcDbLine
10
-34.1118820468343
20
4.86180579914751
30
0.000000000000000
11
-34.0118820468343
21
4.76207712621582
31
0.000000000000000
  0
LINE
  5
F1033C
330
F1033D
100
AcDbEntity
8
Geo
100
AcDbLine
10
-34.0118820468343
20
4.76207712621582
30
0.000000000000000
11
-33.9118820468343
21
4.66223988035978
31
0.000000000000000
  0
LINE
  5
F1033E
330
F1033F
100
AcDbEntity
8
Geo
100
AcDbLine
10
-33.9118820468343
20
4.66223988035978
30
0.000000000000000
11
-33.8118820468343
21
4.56232179350575
31
0.000000000000000
  0
LINE
  5
F10340
330
F10341
100
AcDbEntity
8
Geo
100
AcDbLine
10
-33.8118820468343
20
4.56232179350575
30
0.000000000000000
11
-33.7118820468343
21
4.46235062003539
31
0.000000000000000
  0
LINE
  5
F10342
330
F10343
100
AcDbEntity
8
Geo
100
AcDbLine
10
-33.7118820468343
20
4.46235062003539
30
0.000000000000000
11
-33.6118820468343
21
4.36235412907627
31
0.000000000000000
  0
LINE
  5
F10344
330
F10345
100
AcDbEntity
8
Geo
100
AcDbLine
10
-33.6118820468343
20
4.36235412907627
30
0.000000000000000
11
-33.5118820468343
21
4.26236009678849
31
0.000000000000000
  0
LINE
  5
F10346
330
F10347
100
AcDbEntity
8
Geo
100
AcDbLine
10
-33.5118820468343
20
4.26236009678849
30
0.000000000000000
11
-33.4118820468343
21
4.16239629864915
31
0.000000000000000
  0
LINE
  5
F10348
330
F10349
100
AcDbEntity
8
Geo
100
AcDbLine
10
-33.4118820468343
20
4.16239629864915
30
0.000000000000000
11
-33.3118820468343
21
4.06249050173719
31
0.000000000000000
  0
LINE
  5
F1034A
330
F1034B
100
AcDbEntity
8
Geo
100
AcDbLine
10
-33.3118820468343
20
4.06249050173719
30
0.000000000000000
11
-33.2118820468343
21
3.96267045702048
31
0.000000000000000
  0
LINE
  5
F1034C
330
F1034D
100
AcDbEntity
8
Geo
100
AcDbLine
10
-33.2118820468343
20
3.96267045702048
30
0.000000000000000
11
-33.1118820468343
21
3.86296389164737
31
0.000000000000000
  0
LINE
  5
F1034E
330
F1034F
100
AcDbEntity
8
Geo
100
AcDbLine
10
-33.1118820468343
20
3.86296389164737
30
0.000000000000000
11
-33.0118820468343
21
3.76339850124491
31
0.000000000000000
  0
LINE
  5
F10350
330
F10351
100
AcDbEntity
8
Geo
100
AcDbLine
10
-33.0118820468343
20
3.76339850124491
30
0.000000000000000
11
-32.9118820468343
21
3.66400194222580
31
0.000000000000000
  0
LINE
  5
F10352
330
F10353
100
AcDbEntity
8
Geo
100
AcDbLine
10
-32.9118820468343
20
3.66400194222580
30
0.000000000000000
11
-32.8118820468343
21
3.56480182410618
31
0.000000000000000
  0
LINE
  5
F10354
330
F10355
100
AcDbEntity
8
Geo
100
AcDbLine
10
-32.8118820468343
20
3.56480182410618
30
0.000000000000000
11
-32.7118820468343
21
3.46582570183658
31
0.000000000000000
  0
LINE
  5
F10356
330
F10357
100
AcDbEntity
8
Geo
100
AcDbLine
10
-46.3965431795311
20
10.3712055507372
30
0.000000000000000
11
-46.3118820468343
21
10.3706082624841
31
0.000000000000000
  0
LINE
  5
F10358
330
F10359
100
AcDbEntity
8
Geo
100
AcDbLine
10
-46.3118820468343
20
10.3706082624841
30
0.000000000000000
11
-46.2118820468343
21
10.3683641177151
31
0.000000000000000
  0
LINE
  5
F1035A
330
F1035B
100
AcDbEntity
8
Geo
100
AcDbLine
10
-46.2118820468343
20
10.3683641177151
30
0.000000000000000
11
-46.1118820468343
21
10.3644541341280
31
0.000000000000000
  0
LINE
  5
F1035C
330
F1035D
100
AcDbEntity
8
Geo
100
AcDbLine
10
-46.1118820468343
20
10.3644541341280
30
0.000000000000000
11
-46.0118820468343
21
10.3588793978042
31
0.000000000000000
  0
LINE
  5
F1035E
330
F1035F
100
AcDbEntity
8
Geo
100
AcDbLine
10
-46.0118820468343
20
10.3588793978042
30
0.000000000000000
11
-45.9118820468343
21
10.3516414572458
31
0.000000000000000
  0
LINE
  5
F10360
330
F10361
100
AcDbEntity
8
Geo
100
AcDbLine
10
-45.9118820468343
20
10.3516414572458
30
0.000000000000000
11
-45.8118820468343
21
10.3427423229452
31
0.000000000000000
  0
LINE
  5
F10362
330
F10363
100
AcDbEntity
8
Geo
100
AcDbLine
10
-45.8118820468343
20
10.3427423229452
30
0.000000000000000
11
-45.7118820468343
21
10.3321844668270
31
0.000000000000000
  0
LINE
  5
F10364
330
F10365
100
AcDbEntity
8
Geo
100
AcDbLine
10
-45.7118820468343
20
10.3321844668270
30
0.000000000000000
11
-45.6118820468343
21
10.3199708215611
31
0.000000000000000
  0
LINE
  5
F10366
330
F10367
100
AcDbEntity
8
Geo
100
AcDbLine
10
-45.6118820468343
20
10.3199708215611
30
0.000000000000000
11
-45.5118820468343
21
10.3061047797482
31
0.000000000000000
  0
LINE
  5
F10368
330
F10369
100
AcDbEntity
8
Geo
100
AcDbLine
10
-45.5118820468343
20
10.3061047797482
30
0.000000000000000
11
-45.4118820468343
21
10.2905901929774
31
0.000000000000000
  0
LINE
  5
F1036A
330
F1036B
100
AcDbEntity
8
Geo
100
AcDbLine
10
-45.4118820468343
20
10.2905901929774
30
0.000000000000000
11
-45.3118820468343
21
10.2734313707564
31
0.000000000000000
  0
LINE
  5
F1036C
330
F1036D
100
AcDbEntity
8
Geo
100
AcDbLine
10
-45.3118820468343
20
10.2734313707564
30
0.000000000000000
11
-45.2118820468343
21
10.2546330793143
31
0.000000000000000
  0
LINE
  5
F1036E
330
F1036F
100
AcDbEntity
8
Geo
100
AcDbLine
10
-45.2118820468343
20
10.2546330793143
30
0.000000000000000
11
-45.1118820468343
21
10.2342005402781
31
0.000000000000000
  0
LINE
  5
F10370
330
F10371
100
AcDbEntity
8
Geo
100
AcDbLine
10
-45.1118820468343
20
10.2342005402781
30
0.000000000000000
11
-45.0118820468343
21
10.2121394292214
31
0.000000000000000
  0
LINE
  5
F10372
330
F10373
100
AcDbEntity
8
Geo
100
AcDbLine
10
-45.0118820468343
20
10.2121394292214
30
0.000000000000000
11
-44.9118820468344
21
10.1884558740889
31
0.000000000000000
  0
LINE
  5
F10374
330
F10375
100
AcDbEntity
8
Geo
100
AcDbLine
10
-44.9118820468344
20
10.1884558740889
30
0.000000000000000
11
-44.8118820468343
21
10.1631564534936
31
0.000000000000000
  0
LINE
  5
F10376
330
F10377
100
AcDbEntity
8
Geo
100
AcDbLine
10
-44.8118820468343
20
10.1631564534936
30
0.000000000000000
11
-44.7118820468343
21
10.1362481948898
31
0.000000000000000
  0
LINE
  5
F10378
330
F10379
100
AcDbEntity
8
Geo
100
AcDbLine
10
-44.7118820468343
20
10.1362481948898
30
0.000000000000000
11
-44.6118820468343
21
10.1077385726205
31
0.000000000000000
  0
LINE
  5
F1037A
330
F1037B
100
AcDbEntity
8
Geo
100
AcDbLine
10
-44.6118820468343
20
10.1077385726205
30
0.000000000000000
11
-44.5118820468343
21
10.0776355058421
31
0.000000000000000
  0
LINE
  5
F1037C
330
F1037D
100
AcDbEntity
8
Geo
100
AcDbLine
10
-44.5118820468343
20
10.0776355058421
30
0.000000000000000
11
-44.4118820468344
21
10.0459473563239
31
0.000000000000000
  0
LINE
  5
F1037E
330
F1037F
100
AcDbEntity
8
Geo
100
AcDbLine
10
-44.4118820468344
20
10.0459473563239
30
0.000000000000000
11
-44.3118820468343
21
10.0126829261260
31
0.000000000000000
  0
LINE
  5
F10380
330
F10381
100
AcDbEntity
8
Geo
100
AcDbLine
10
-44.3118820468343
20
10.0126829261260
30
0.000000000000000
11
-44.2118820468343
21
9.97785145515400
31
0.000000000000000
  0
LINE
  5
F10382
330
F10383
100
AcDbEntity
8
Geo
100
AcDbLine
10
-44.2118820468343
20
9.97785145515400
30
0.000000000000000
11
-44.1118820468344
21
9.94146261859249
31
0.000000000000000
  0
LINE
  5
F10384
330
F10385
100
AcDbEntity
8
Geo
100
AcDbLine
10
-44.1118820468344
20
9.94146261859249
30
0.000000000000000
11
-44.0118820468344
21
9.90352652421768
31
0.000000000000000
  0
LINE
  5
F10386
330
F10387
100
AcDbEntity
8
Geo
100
AcDbLine
10
-44.0118820468344
20
9.90352652421768
30
0.000000000000000
11
-43.9118820468344
21
9.86405370958963
31
0.000000000000000
  0
LINE
  5
F10388
330
F10389
100
AcDbEntity
8
Geo
100
AcDbLine
10
-43.9118820468344
20
9.86405370958963
30
0.000000000000000
11
-43.8118820468343
21
9.82305513912525
31
0.000000000000000
  0
LINE
  5
F1038A
330
F1038B
100
AcDbEntity
8
Geo
100
AcDbLine
10
-43.8118820468343
20
9.82305513912525
30
0.000000000000000
11
-43.7118820468343
21
9.78054220105272
31
0.000000000000000
  0
LINE
  5
F1038C
330
F1038D
100
AcDbEntity
8
Geo
100
AcDbLine
10
-43.7118820468343
20
9.78054220105272
30
0.000000000000000
11
-43.6118820468344
21
9.73652670424815
31
0.000000000000000
  0
LINE
  5
F1038E
330
F1038F
100
AcDbEntity
8
Geo
100
AcDbLine
10
-43.6118820468344
20
9.73652670424815
30
0.000000000000000
11
-43.5118820468344
21
9.69102087495541
31
0.000000000000000
  0
LINE
  5
F10390
330
F10391
100
AcDbEntity
8
Geo
100
AcDbLine
10
-43.5118820468344
20
9.69102087495541
30
0.000000000000000
11
-43.4118820468344
21
9.64403735339004
31
0.000000000000000
  0
LINE
  5
F10392
330
F10393
100
AcDbEntity
8
Geo
100
AcDbLine
10
-43.4118820468344
20
9.64403735339004
30
0.000000000000000
11
-43.3118820468344
21
9.59558919022814
31
0.000000000000000
  0
LINE
  5
F10394
330
F10395
100
AcDbEntity
8
Geo
100
AcDbLine
10
-43.3118820468344
20
9.59558919022814
30
0.000000000000000
11
-43.2118820468344
21
9.54568984298129
31
0.000000000000000
  0
LINE
  5
F10396
330
F10397
100
AcDbEntity
8
Geo
100
AcDbLine
10
-43.2118820468344
20
9.54568984298129
30
0.000000000000000
11
-43.1118820468344
21
9.49435317225844
31
0.000000000000000
  0
LINE
  5
F10398
330
F10399
100
AcDbEntity
8
Geo
100
AcDbLine
10
-43.1118820468344
20
9.49435317225844
30
0.000000000000000
11
-43.0118820468344
21
9.44159343791580
31
0.000000000000000
  0
LINE
  5
F1039A
330
F1039B
100
AcDbEntity
8
Geo
100
AcDbLine
10
-43.0118820468344
20
9.44159343791580
30
0.000000000000000
11
-42.9118820468344
21
9.38742529509589
31
0.000000000000000
  0
LINE
  5
F1039C
330
F1039D
100
AcDbEntity
8
Geo
100
AcDbLine
10
-42.9118820468344
20
9.38742529509589
30
0.000000000000000
11
-42.8118820468344
21
9.33186379015674
31
0.000000000000000
  0
LINE
  5
F1039E
330
F1039F
100
AcDbEntity
8
Geo
100
AcDbLine
10
-42.8118820468344
20
9.33186379015674
30
0.000000000000000
11
-42.7118820468344
21
9.27492435649248
31
0.000000000000000
  0
LINE
  5
F103A0
330
F103A1
100
AcDbEntity
8
Geo
100
AcDbLine
10
-42.7118820468344
20
9.27492435649248
30
0.000000000000000
11
-42.6118820468344
21
9.21662281024633
31
0.000000000000000
  0
LINE
  5
F103A2
330
F103A3
100
AcDbEntity
8
Geo
100
AcDbLine
10
-42.6118820468344
20
9.21662281024633
30
0.000000000000000
11
-42.5118820468344
21
9.15697534591737
31
0.000000000000000
  0
LINE
  5
F103A4
330
F103A5
100
AcDbEntity
8
Geo
100
AcDbLine
10
-42.5118820468344
20
9.15697534591737
30
0.000000000000000
11
-42.4118820468344
21
9.09599853186216
31
0.000000000000000
  0
LINE
  5
F103A6
330
F103A7
100
AcDbEntity
8
Geo
100
AcDbLine
10
-42.4118820468344
20
9.09599853186216
30
0.000000000000000
11
-42.3118820468344
21
9.03370930569252
31
0.000000000000000
  0
LINE
  5
F103A8
330
F103A9
100
AcDbEntity
8
Geo
100
AcDbLine
10
-42.3118820468344
20
9.03370930569252
30
0.000000000000000
11
-42.2118820468344
21
8.97012496957077
31
0.000000000000000
  0
LINE
  5
F103AA
330
F103AB
100
AcDbEntity
8
Geo
100
AcDbLine
10
-42.2118820468344
20
8.97012496957077
30
0.000000000000000
11
-42.1118820468344
21
8.90526318540364
31
0.000000000000000
  0
LINE
  5
F103AC
330
F103AD
100
AcDbEntity
8
Geo
100
AcDbLine
10
-42.1118820468344
20
8.90526318540364
30
0.000000000000000
11
-42.0118820468344
21
8.83914196993635
31
0.000000000000000
  0
LINE
  5
F103AE
330
F103AF
100
AcDbEntity
8
Geo
100
AcDbLine
10
-42.0118820468344
20
8.83914196993635
30
0.000000000000000
11
-41.9118820468344
21
8.77177968974802
31
0.000000000000000
  0
LINE
  5
F103B0
330
F103B1
100
AcDbEntity
8
Geo
100
AcDbLine
10
-41.9118820468344
20
8.77177968974802
30
0.000000000000000
11
-41.8118820468344
21
8.70319505615003
31
0.000000000000000
  0
LINE
  5
F103B2
330
F103B3
100
AcDbEntity
8
Geo
100
AcDbLine
10
-41.8118820468344
20
8.70319505615003
30
0.000000000000000
11
-41.7118820468344
21
8.63340711998848
31
0.000000000000000
  0
LINE
  5
F103B4
330
F103B5
100
AcDbEntity
8
Geo
100
AcDbLine
10
-41.7118820468344
20
8.63340711998848
30
0.000000000000000
11
-41.6118820468344
21
8.56243526635246
31
0.000000000000000
  0
LINE
  5
F103B6
330
F103B7
100
AcDbEntity
8
Geo
100
AcDbLine
10
-41.6118820468344
20
8.56243526635246
30
0.000000000000000
11
-41.5118820468344
21
8.49029920918941
31
0.000000000000000
  0
LINE
  5
F103B8
330
F103B9
100
AcDbEntity
8
Geo
100
AcDbLine
10
-41.5118820468344
20
8.49029920918941
30
0.000000000000000
11
-41.4118820468344
21
8.41701898582915
31
0.000000000000000
  0
LINE
  5
F103BA
330
F103BB
100
AcDbEntity
8
Geo
100
AcDbLine
10
-41.4118820468344
20
8.41701898582915
30
0.000000000000000
11
-41.3118820468344
21
8.34261495141809
31
0.000000000000000
  0
LINE
  5
F103BC
330
F103BD
100
AcDbEntity
8
Geo
100
AcDbLine
10
-41.3118820468344
20
8.34261495141809
30
0.000000000000000
11
-41.2118820468344
21
8.26710777326516
31
0.000000000000000
  0
LINE
  5
F103BE
330
F103BF
100
AcDbEntity
8
Geo
100
AcDbLine
10
-41.2118820468344
20
8.26710777326516
30
0.000000000000000
11
-41.1118820468344
21
8.19051842510100
31
0.000000000000000
  0
LINE
  5
F103C0
330
F103C1
100
AcDbEntity
8
Geo
100
AcDbLine
10
-41.1118820468344
20
8.19051842510100
30
0.000000000000000
11
-41.0118820468344
21
8.11286818125206
31
0.000000000000000
  0
LINE
  5
F103C2
330
F103C3
100
AcDbEntity
8
Geo
100
AcDbLine
10
-41.0118820468344
20
8.11286818125206
30
0.000000000000000
11
-40.9118820468344
21
8.03417861073125
31
0.000000000000000
  0
LINE
  5
F103C4
330
F103C5
100
AcDbEntity
8
Geo
100
AcDbLine
10
-40.9118820468344
20
8.03417861073125
30
0.000000000000000
11
-40.8118820468344
21
7.95447157124663
31
0.000000000000000
  0
LINE
  5
F103C6
330
F103C7
100
AcDbEntity
8
Geo
100
AcDbLine
10
-40.8118820468344
20
7.95447157124663
30
0.000000000000000
11
-40.7118820468344
21
7.87376920312997
31
0.000000000000000
  0
LINE
  5
F103C8
330
F103C9
100
AcDbEntity
8
Geo
100
AcDbLine
10
-40.7118820468344
20
7.87376920312997
30
0.000000000000000
11
-40.6118820468344
21
7.79209392318685
31
0.000000000000000
  0
LINE
  5
F103CA
330
F103CB
100
AcDbEntity
8
Geo
100
AcDbLine
10
-40.6118820468344
20
7.79209392318685
30
0.000000000000000
11
-40.5118820468344
21
7.70946841846985
31
0.000000000000000
  0
LINE
  5
F103CC
330
F103CD
100
AcDbEntity
8
Geo
100
AcDbLine
10
-40.5118820468344
20
7.70946841846985
30
0.000000000000000
11
-40.4118820468344
21
7.62591563997679
31
0.000000000000000
  0
LINE
  5
F103CE
330
F103CF
100
AcDbEntity
8
Geo
100
AcDbLine
10
-40.4118820468344
20
7.62591563997679
30
0.000000000000000
11
-40.3118820468344
21
7.54145879627555
31
0.000000000000000
  0
LINE
  5
F103D0
330
F103D1
100
AcDbEntity
8
Geo
100
AcDbLine
10
-40.3118820468344
20
7.54145879627555
30
0.000000000000000
11
-40.2118820468344
21
7.45612134705744
31
0.000000000000000
  0
LINE
  5
F103D2
330
F103D3
100
AcDbEntity
8
Geo
100
AcDbLine
10
-40.2118820468344
20
7.45612134705744
30
0.000000000000000
11
-40.1118820468344
21
7.36992699662076
31
0.000000000000000
  0
LINE
  5
F103D4
330
F103D5
100
AcDbEntity
8
Geo
100
AcDbLine
10
-40.1118820468344
20
7.36992699662076
30
0.000000000000000
11
-40.0118820468344
21
7.28289968728638
31
0.000000000000000
  0
LINE
  5
F103D6
330
F103D7
100
AcDbEntity
8
Geo
100
AcDbLine
10
-40.0118820468344
20
7.28289968728638
30
0.000000000000000
11
-39.9118820468344
21
7.19506359274732
31
0.000000000000000
  0
LINE
  5
F103D8
330
F103D9
100
AcDbEntity
8
Geo
100
AcDbLine
10
-39.9118820468344
20
7.19506359274732
30
0.000000000000000
11
-39.8118820468344
21
7.10644311135395
31
0.000000000000000
  0
LINE
  5
F103DA
330
F103DB
100
AcDbEntity
8
Geo
100
AcDbLine
10
-39.8118820468344
20
7.10644311135395
30
0.000000000000000
11
-39.7118820468344
21
7.01706285933682
31
0.000000000000000
  0
LINE
  5
F103DC
330
F103DD
100
AcDbEntity
8
Geo
100
AcDbLine
10
-39.7118820468344
20
7.01706285933682
30
0.000000000000000
11
-39.6118820468344
21
6.92694766396901
31
0.000000000000000
  0
LINE
  5
F103DE
330
F103DF
100
AcDbEntity
8
Geo
100
AcDbLine
10
-39.6118820468344
20
6.92694766396901
30
0.000000000000000
11
-39.5118820468344
21
6.83612255666979
31
0.000000000000000
  0
LINE
  5
F103E0
330
F103E1
100
AcDbEntity
8
Geo
100
AcDbLine
10
-39.5118820468344
20
6.83612255666979
30
0.000000000000000
11
-39.4118820468344
21
6.74461276605162
31
0.000000000000000
  0
LINE
  5
F103E2
330
F103E3
100
AcDbEntity
8
Geo
100
AcDbLine
10
-39.4118820468344
20
6.74461276605162
30
0.000000000000000
11
-39.3118820468344
21
6.65244371091238
31
0.000000000000000
  0
LINE
  5
F103E4
330
F103E5
100
AcDbEntity
8
Geo
100
AcDbLine
10
-39.3118820468344
20
6.65244371091238
30
0.000000000000000
11
-39.2118820468344
21
6.55964099317475
31
0.000000000000000
  0
LINE
  5
F103E6
330
F103E7
100
AcDbEntity
8
Geo
100
AcDbLine
10
-39.2118820468344
20
6.55964099317475
30
0.000000000000000
11
-39.1118820468344
21
6.46623039077471
31
0.000000000000000
  0
LINE
  5
F103E8
330
F103E9
100
AcDbEntity
8
Geo
100
AcDbLine
10
-39.1118820468344
20
6.46623039077471
30
0.000000000000000
11
-39.0118820468344
21
6.37223785050118
31
0.000000000000000
  0
LINE
  5
F103EA
330
F103EB
100
AcDbEntity
8
Geo
100
AcDbLine
10
-39.0118820468344
20
6.37223785050118
30
0.000000000000000
11
-38.9118820468344
21
6.27768948078876
31
0.000000000000000
  0
LINE
  5
F103EC
330
F103ED
100
AcDbEntity
8
Geo
100
AcDbLine
10
-38.9118820468344
20
6.27768948078876
30
0.000000000000000
11
-38.8118820468344
21
6.18261154446555
31
0.000000000000000
  0
LINE
  5
F103EE
330
F103EF
100
AcDbEntity
8
Geo
100
AcDbLine
10
-38.8118820468344
20
6.18261154446555
30
0.000000000000000
11
-38.7118820468344
21
6.08703045145804
31
0.000000000000000
  0
LINE
  5
F103F0
330
F103F1
100
AcDbEntity
8
Geo
100
AcDbLine
10
-38.7118820468344
20
6.08703045145804
30
0.000000000000000
11
-38.6118820468344
21
5.99097275145529
31
0.000000000000000
  0
LINE
  5
F103F2
330
F103F3
100
AcDbEntity
8
Geo
100
AcDbLine
10
-38.6118820468344
20
5.99097275145529
30
0.000000000000000
11
-38.5118820468344
21
5.89446512653407
31
0.000000000000000
  0
LINE
  5
F103F4
330
F103F5
100
AcDbEntity
8
Geo
100
AcDbLine
10
-38.5118820468344
20
5.89446512653407
30
0.000000000000000
11
-38.4118820468344
21
5.79753438374744
31
0.000000000000000
  0
LINE
  5
F103F6
330
F103F7
100
AcDbEntity
8
Geo
100
AcDbLine
10
-38.4118820468344
20
5.79753438374744
30
0.000000000000000
11
-38.3118820468343
21
5.70020744767846
31
0.000000000000000
  0
LINE
  5
F103F8
330
F103F9
100
AcDbEntity
8
Geo
100
AcDbLine
10
-38.3118820468343
20
5.70020744767846
30
0.000000000000000
11
-38.2118820468343
21
5.60251135296135
31
0.000000000000000
  0
LINE
  5
F103FA
330
F103FB
100
AcDbEntity
8
Geo
100
AcDbLine
10
-38.2118820468343
20
5.60251135296135
30
0.000000000000000
11
-38.1118820468343
21
5.50447323677201
31
0.000000000000000
  0
LINE
  5
F103FC
330
F103FD
100
AcDbEntity
8
Geo
100
AcDbLine
10
-38.1118820468343
20
5.50447323677201
30
0.000000000000000
11
-38.0118820468343
21
5.40612033129010
31
0.000000000000000
  0
LINE
  5
F103FE
330
F103FF
100
AcDbEntity
8
Geo
100
AcDbLine
10
-38.0118820468343
20
5.40612033129010
30
0.000000000000000
11
-37.9118820468343
21
5.30747995613474
31
0.000000000000000
  0
LINE
  5
F10400
330
F10401
100
AcDbEntity
8
Geo
100
AcDbLine
10
-37.9118820468343
20
5.30747995613474
30
0.000000000000000
11
-37.8118820468343
21
5.20857951077589
31
0.000000000000000
  0
LINE
  5
F10402
330
F10403
100
AcDbEntity
8
Geo
100
AcDbLine
10
-37.8118820468343
20
5.20857951077589
30
0.000000000000000
11
-37.7118820468343
21
5.10944646692354
31
0.000000000000000
  0
LINE
  5
F10404
330
F10405
100
AcDbEntity
8
Geo
100
AcDbLine
10
-37.7118820468343
20
5.10944646692354
30
0.000000000000000
11
-37.6118820468343
21
5.01010836089692
31
0.000000000000000
  0
LINE
  5
F10406
330
F10407
100
AcDbEntity
8
Geo
100
AcDbLine
10
-37.6118820468343
20
5.01010836089692
30
0.000000000000000
11
-37.5118820468343
21
4.91059278597560
31
0.000000000000000
  0
LINE
  5
F10408
330
F10409
100
AcDbEntity
8
Geo
100
AcDbLine
10
-37.5118820468343
20
4.91059278597560
30
0.000000000000000
11
-37.4118820468343
21
4.81092738473496
31
0.000000000000000
  0
LINE
  5
F1040A
330
F1040B
100
AcDbEntity
8
Geo
100
AcDbLine
10
-37.4118820468343
20
4.81092738473496
30
0.000000000000000
11
-37.3118820468343
21
4.71113984136784
31
0.000000000000000
  0
LINE
  5
F1040C
330
F1040D
100
AcDbEntity
8
Geo
100
AcDbLine
10
-37.3118820468343
20
4.71113984136784
30
0.000000000000000
11
-37.2118820468343
21
4.61125787399466
31
0.000000000000000
  0
LINE
  5
F1040E
330
F1040F
100
AcDbEntity
8
Geo
100
AcDbLine
10
-37.2118820468343
20
4.61125787399466
30
0.000000000000000
11
-37.1118820468343
21
4.51130922696409
31
0.000000000000000
  0
LINE
  5
F10410
330
F10411
100
AcDbEntity
8
Geo
100
AcDbLine
10
-37.1118820468343
20
4.51130922696409
30
0.000000000000000
11
-37.0118820468343
21
4.41132166314655
31
0.000000000000000
  0
LINE
  5
F10412
330
F10413
100
AcDbEntity
8
Geo
100
AcDbLine
10
-37.0118820468343
20
4.41132166314655
30
0.000000000000000
11
-36.9118820468343
21
4.31132295622240
31
0.000000000000000
  0
LINE
  5
F10414
330
F10415
100
AcDbEntity
8
Geo
100
AcDbLine
10
-36.9118820468343
20
4.31132295622240
30
0.000000000000000
11
-36.8118820468343
21
4.21134088296724
31
0.000000000000000
  0
LINE
  5
F10416
330
F10417
100
AcDbEntity
8
Geo
100
AcDbLine
10
-36.8118820468343
20
4.21134088296724
30
0.000000000000000
11
-36.7118820468343
21
4.11140321553631
31
0.000000000000000
  0
LINE
  5
F10418
330
F10419
100
AcDbEntity
8
Geo
100
AcDbLine
10
-36.7118820468343
20
4.11140321553631
30
0.000000000000000
11
-36.6118820468343
21
4.01153771375018
31
0.000000000000000
  0
LINE
  5
F1041A
330
F1041B
100
AcDbEntity
8
Geo
100
AcDbLine
10
-36.6118820468343
20
4.01153771375018
30
0.000000000000000
11
-36.5118820468343
21
3.91177211738390
31
0.000000000000000
  0
LINE
  5
F1041C
330
F1041D
100
AcDbEntity
8
Geo
100
AcDbLine
10
-36.5118820468343
20
3.91177211738390
30
0.000000000000000
11
-36.4118820468343
21
3.81213413846162
31
0.000000000000000
  0
LINE
  5
F1041E
330
F1041F
100
AcDbEntity
8
Geo
100
AcDbLine
10
-36.4118820468343
20
3.81213413846162
30
0.000000000000000
11
-36.3118820468343
21
3.71265145355905
31
0.000000000000000
  0
LINE
  5
F10420
330
F10421
100
AcDbEntity
8
Geo
100
AcDbLine
10
-36.3118820468343
20
3.71265145355905
30
0.000000000000000
11
-36.2118820468343
21
3.61335169611564
31
0.000000000000000
  0
LINE
  5
F10422
330
F10423
100
AcDbEntity
8
Geo
100
AcDbLine
10
-36.2118820468343
20
3.61335169611564
30
0.000000000000000
11
-36.1118820468343
21
3.51426244875886
31
0.000000000000000
  0
LINE
  5
F10424
330
F10425
100
AcDbEntity
8
Geo
100
AcDbLine
10
-36.1118820468343
20
3.51426244875886
30
0.000000000000000
11
-36.0118820468343
21
3.41541123564251
31
0.000000000000000
  0
LINE
  5
F10426
330
F10427
100
AcDbEntity
8
Geo
100
AcDbLine
10
-36.0118820468343
20
3.41541123564251
30
0.000000000000000
11
-35.9118820468343
21
3.31682551480127
31
0.000000000000000
  0
LINE
  5
F10428
330
F10429
100
AcDbEntity
8
Geo
100
AcDbLine
10
-35.9118820468343
20
3.31682551480127
30
0.000000000000000
11
-35.8118820468343
21
3.21853267052371
31
0.000000000000000
  0
LINE
  5
F1042A
330
F1042B
100
AcDbEntity
8
Geo
100
AcDbLine
10
-35.8118820468343
20
3.21853267052371
30
0.000000000000000
11
-35.7118820468343
21
3.12056000574565
31
0.000000000000000
  0
LINE
  5
F1042C
330
F1042D
100
AcDbEntity
8
Geo
100
AcDbLine
10
-35.7118820468343
20
3.12056000574565
30
0.000000000000000
11
-35.6118820468343
21
3.02293473446624
31
0.000000000000000
  0
LINE
  5
F1042E
330
F1042F
100
AcDbEntity
8
Geo
100
AcDbLine
10
-35.6118820468343
20
3.02293473446624
30
0.000000000000000
11
-35.5118820468343
21
2.92568397418866
31
0.000000000000000
  0
LINE
  5
F10430
330
F10431
100
AcDbEntity
8
Geo
100
AcDbLine
10
-35.5118820468343
20
2.92568397418866
30
0.000000000000000
11
-35.4118820468343
21
2.82883473838766
31
0.000000000000000
  0
LINE
  5
F10432
330
F10433
100
AcDbEntity
8
Geo
100
AcDbLine
10
-35.4118820468343
20
2.82883473838766
30
0.000000000000000
11
-35.3118820468343
21
2.73241392900602
31
0.000000000000000
  0
LINE
  5
F10434
330
F10435
100
AcDbEntity
8
Geo
100
AcDbLine
10
-35.3118820468343
20
2.73241392900602
30
0.000000000000000
11
-35.2118820468343
21
2.63644832898190
31
0.000000000000000
  0
LINE
  5
F10436
330
F10437
100
AcDbEntity
8
Geo
100
AcDbLine
10
-35.2118820468343
20
2.63644832898190
30
0.000000000000000
11
-35.1118820468343
21
2.54096459480936
31
0.000000000000000
  0
LINE
  5
F10438
330
F10439
100
AcDbEntity
8
Geo
100
AcDbLine
10
-35.1118820468343
20
2.54096459480936
30
0.000000000000000
11
-35.0118820468343
21
2.44598924913394
31
0.000000000000000
  0
LINE
  5
F1043A
330
F1043B
100
AcDbEntity
8
Geo
100
AcDbLine
10
-35.0118820468343
20
2.44598924913394
30
0.000000000000000
11
-34.9118820468343
21
2.35154867338542
31
0.000000000000000
  0
LINE
  5
F1043C
330
F1043D
100
AcDbEntity
8
Geo
100
AcDbLine
10
-34.9118820468343
20
2.35154867338542
30
0.000000000000000
11
-34.8118820468343
21
2.25766910044981
31
0.000000000000000
  0
LINE
  5
F1043E
330
F1043F
100
AcDbEntity
8
Geo
100
AcDbLine
10
-34.8118820468343
20
2.25766910044981
30
0.000000000000000
11
-34.7118820468343
21
2.16437660738261
31
0.000000000000000
  0
LINE
  5
F10440
330
F10441
100
AcDbEntity
8
Geo
100
AcDbLine
10
-34.7118820468343
20
2.16437660738261
30
0.000000000000000
11
-34.6118820468343
21
2.07169710816536
31
0.000000000000000
  0
LINE
  5
F10442
330
F10443
100
AcDbEntity
8
Geo
100
AcDbLine
10
-34.6118820468343
20
2.07169710816536
30
0.000000000000000
11
-34.5118820468343
21
1.97965634650748
31
0.000000000000000
  0
LINE
  5
F10444
330
F10445
100
AcDbEntity
8
Geo
100
AcDbLine
10
-34.5118820468343
20
1.97965634650748
30
0.000000000000000
11
-34.4118820468343
21
1.88827988869537
31
0.000000000000000
  0
LINE
  5
F10446
330
F10447
100
AcDbEntity
8
Geo
100
AcDbLine
10
-34.4118820468343
20
1.88827988869537
30
0.000000000000000
11
-34.3118820468343
21
1.79759311649089
31
0.000000000000000
  0
LINE
  5
F10448
330
F10449
100
AcDbEntity
8
Geo
100
AcDbLine
10
-34.3118820468343
20
1.79759311649089
30
0.000000000000000
11
-34.2118820468343
21
1.70762122008097
31
0.000000000000000
  0
LINE
  5
F1044A
330
F1044B
100
AcDbEntity
8
Geo
100
AcDbLine
10
-34.2118820468343
20
1.70762122008097
30
0.000000000000000
11
-34.1118820468343
21
1.61838919108055
31
0.000000000000000
  0
LINE
  5
F1044C
330
F1044D
100
AcDbEntity
8
Geo
100
AcDbLine
10
-34.1118820468343
20
1.61838919108055
30
0.000000000000000
11
-34.0118820468343
21
1.52992181559058
31
0.000000000000000
  0
LINE
  5
F1044E
330
F1044F
100
AcDbEntity
8
Geo
100
AcDbLine
10
-34.0118820468343
20
1.52992181559058
30
0.000000000000000
11
-33.9118820468343
21
1.44224366731320
31
0.000000000000000
  0
LINE
  5
F10450
330
F10451
100
AcDbEntity
8
Geo
100
AcDbLine
10
-33.9118820468343
20
1.44224366731320
30
0.000000000000000
11
-33.8118820468343
21
1.35537910072582
31
0.000000000000000
  0
LINE
  5
F10452
330
F10453
100
AcDbEntity
8
Geo
100
AcDbLine
10
-33.8118820468343
20
1.35537910072582
30
0.000000000000000
11
-33.7118820468343
21
1.26935224431618
31
0.000000000000000
  0
LINE
  5
F10454
330
F10455
100
AcDbEntity
8
Geo
100
AcDbLine
10
-33.7118820468343
20
1.26935224431618
30
0.000000000000000
11
-33.6118820468343
21
1.18418699388012
31
0.000000000000000
  0
LINE
  5
F10456
330
F10457
100
AcDbEntity
8
Geo
100
AcDbLine
10
-33.6118820468343
20
1.18418699388012
30
0.000000000000000
11
-33.5118820468343
21
1.09990700588406
31
0.000000000000000
  0
LINE
  5
F10458
330
F10459
100
AcDbEntity
8
Geo
100
AcDbLine
10
-33.5118820468343
20
1.09990700588406
30
0.000000000000000
11
-33.4118820468343
21
1.01653569089385
31
0.000000000000000
  0
LINE
  5
F1045A
330
F1045B
100
AcDbEntity
8
Geo
100
AcDbLine
10
-33.4118820468343
20
1.01653569089385
30
0.000000000000000
11
-33.3118820468343
21
0.934096207072016
31
0.000000000000000
  0
LINE
  5
F1045C
330
F1045D
100
AcDbEntity
8
Geo
100
AcDbLine
10
-33.3118820468343
20
0.934096207072016
30
0.000000000000000
11
-33.2118820468343
21
0.852611453745094
31
0.000000000000000
  0
LINE
  5
F1045E
330
F1045F
100
AcDbEntity
8
Geo
100
AcDbLine
10
-33.2118820468343
20
0.852611453745094
30
0.000000000000000
11
-33.1118820468343
21
0.772104065042843
31
0.000000000000000
  0
LINE
  5
F10460
330
F10461
100
AcDbEntity
8
Geo
100
AcDbLine
10
-33.1118820468343
20
0.772104065042843
30
0.000000000000000
11
-33.0118820468343
21
0.692596403611127
31
0.000000000000000
  0
LINE
  5
F10462
330
F10463
100
AcDbEntity
8
Geo
100
AcDbLine
10
-33.0118820468343
20
0.692596403611127
30
0.000000000000000
11
-32.9118820468343
21
0.614110554400225
31
0.000000000000000
  0
LINE
  5
F10464
330
F10465
100
AcDbEntity
8
Geo
100
AcDbLine
10
-32.9118820468343
20
0.614110554400225
30
0.000000000000000
11
-32.8118820468343
21
0.536668318530253
31
0.000000000000000
  0
LINE
  5
F10466
330
F10467
100
AcDbEntity
8
Geo
100
AcDbLine
10
-32.8118820468343
20
0.536668318530253
30
0.000000000000000
11
-32.7118820468343
21
0.460291207235445
31
0.000000000000000
  0
LINE
  5
F10468
330
F10469
100
AcDbEntity
8
Geo
100
AcDbLine
10
-55.6118820468343
20
9.28564838448572
30
0.000000000000000
11
-55.5118820468343
21
9.34805872070066
31
0.000000000000000
  0
LINE
  5
F1046A
330
F1046B
100
AcDbEntity
8
Geo
100
AcDbLine
10
-55.5118820468343
20
9.34805872070066
30
0.000000000000000
11
-55.5118820468343
21
9.34805872070066
31
0.000000000000000
  0
LINE
  5
F1046C
330
F1046D
100
AcDbEntity
8
Geo
100
AcDbLine
10
-55.5118820468343
20
9.34805872070066
30
0.000000000000000
11
-55.4118820468343
21
9.35070333512455
31
0.000000000000000
  0
LINE
  5
F1046E
330
F1046F
100
AcDbEntity
8
Geo
100
AcDbLine
10
-55.4118820468343
20
9.35070333512455
30
0.000000000000000
11
-55.3118820468343
21
9.29422554427789
31
0.000000000000000
  0
LINE
  5
F10470
330
F10471
100
AcDbEntity
8
Geo
100
AcDbLine
10
-55.3118820468343
20
9.29422554427789
30
0.000000000000000
11
-55.2118820468343
21
9.23638027953239
31
0.000000000000000
  0
LINE
  5
F10472
330
F10473
100
AcDbEntity
8
Geo
100
AcDbLine
10
-55.2118820468343
20
9.23638027953239
30
0.000000000000000
11
-55.1118820468343
21
9.17718360864522
31
0.000000000000000
  0
LINE
  5
F10474
330
F10475
100
AcDbEntity
8
Geo
100
AcDbLine
10
-55.1118820468343
20
9.17718360864522
30
0.000000000000000
11
-55.0118820468343
21
9.11665197475541
31
0.000000000000000
  0
LINE
  5
F10476
330
F10477
100
AcDbEntity
8
Geo
100
AcDbLine
10
-55.0118820468343
20
9.11665197475541
30
0.000000000000000
11
-54.9118820468343
21
9.05480219181652
31
0.000000000000000
  0
LINE
  5
F10478
330
F10479
100
AcDbEntity
8
Geo
100
AcDbLine
10
-54.9118820468343
20
9.05480219181652
30
0.000000000000000
11
-54.8118820468343
21
8.99165143992610
31
0.000000000000000
  0
LINE
  5
F1047A
330
F1047B
100
AcDbEntity
8
Geo
100
AcDbLine
10
-54.8118820468343
20
8.99165143992610
30
0.000000000000000
11
-54.7118820468343
21
8.92721726055362
31
0.000000000000000
  0
LINE
  5
F1047C
330
F1047D
100
AcDbEntity
8
Geo
100
AcDbLine
10
-54.7118820468343
20
8.92721726055362
30
0.000000000000000
11
-54.6118820468343
21
8.86151755166793
31
0.000000000000000
  0
LINE
  5
F1047E
330
F1047F
100
AcDbEntity
8
Geo
100
AcDbLine
10
-54.6118820468343
20
8.86151755166793
30
0.000000000000000
11
-54.5118820468343
21
8.79457056276572
31
0.000000000000000
  0
LINE
  5
F10480
330
F10481
100
AcDbEntity
8
Geo
100
AcDbLine
10
-54.5118820468343
20
8.79457056276572
30
0.000000000000000
11
-54.4118820468343
21
8.72639488980231
31
0.000000000000000
  0
LINE
  5
F10482
330
F10483
100
AcDbEntity
8
Geo
100
AcDbLine
10
-54.4118820468343
20
8.72639488980231
30
0.000000000000000
11
-54.3118820468343
21
8.65700947002630
31
0.000000000000000
  0
LINE
  5
F10484
330
F10485
100
AcDbEntity
8
Geo
100
AcDbLine
10
-54.3118820468343
20
8.65700947002630
30
0.000000000000000
11
-54.2118820468343
21
8.58643357671922
31
0.000000000000000
  0
LINE
  5
F10486
330
F10487
100
AcDbEntity
8
Geo
100
AcDbLine
10
-54.2118820468343
20
8.58643357671922
30
0.000000000000000
11
-54.1118820468343
21
8.51468681384211
31
0.000000000000000
  0
LINE
  5
F10488
330
F10489
100
AcDbEntity
8
Geo
100
AcDbLine
10
-54.1118820468343
20
8.51468681384211
30
0.000000000000000
11
-54.0118820468343
21
8.44178911058997
31
0.000000000000000
  0
LINE
  5
F1048A
330
F1048B
100
AcDbEntity
8
Geo
100
AcDbLine
10
-54.0118820468343
20
8.44178911058997
30
0.000000000000000
11
-53.9118820468343
21
8.36776071585610
31
0.000000000000000
  0
LINE
  5
F1048C
330
F1048D
100
AcDbEntity
8
Geo
100
AcDbLine
10
-53.9118820468343
20
8.36776071585610
30
0.000000000000000
11
-53.8118820468343
21
8.29262219260747
31
0.000000000000000
  0
LINE
  5
F1048E
330
F1048F
100
AcDbEntity
8
Geo
100
AcDbLine
10
-53.8118820468343
20
8.29262219260747
30
0.000000000000000
11
-53.7118820468343
21
8.21639441217296
31
0.000000000000000
  0
LINE
  5
F10490
330
F10491
100
AcDbEntity
8
Geo
100
AcDbLine
10
-53.7118820468343
20
8.21639441217296
30
0.000000000000000
11
-53.6118820468343
21
8.13909854844587
31
0.000000000000000
  0
LINE
  5
F10492
330
F10493
100
AcDbEntity
8
Geo
100
AcDbLine
10
-53.6118820468343
20
8.13909854844587
30
0.000000000000000
11
-53.5118820468343
21
8.06075607200246
31
0.000000000000000
  0
LINE
  5
F10494
330
F10495
100
AcDbEntity
8
Geo
100
AcDbLine
10
-53.5118820468343
20
8.06075607200246
30
0.000000000000000
11
-53.4118820468343
21
7.98138874413800
31
0.000000000000000
  0
LINE
  5
F10496
330
F10497
100
AcDbEntity
8
Geo
100
AcDbLine
10
-53.4118820468343
20
7.98138874413800
30
0.000000000000000
11
-53.3118820468343
21
7.90101861082211
31
0.000000000000000
  0
LINE
  5
F10498
330
F10499
100
AcDbEntity
8
Geo
100
AcDbLine
10
-53.3118820468343
20
7.90101861082211
30
0.000000000000000
11
-53.2118820468343
21
7.81966799657506
31
0.000000000000000
  0
LINE
  5
F1049A
330
F1049B
100
AcDbEntity
8
Geo
100
AcDbLine
10
-53.2118820468343
20
7.81966799657506
30
0.000000000000000
11
-53.1118820468343
21
7.73735949826660
31
0.000000000000000
  0
LINE
  5
F1049C
330
F1049D
100
AcDbEntity
8
Geo
100
AcDbLine
10
-53.1118820468343
20
7.73735949826660
30
0.000000000000000
11
-53.0118820468343
21
7.65411597883924
31
0.000000000000000
  0
LINE
  5
F1049E
330
F1049F
100
AcDbEntity
8
Geo
100
AcDbLine
10
-53.0118820468343
20
7.65411597883924
30
0.000000000000000
11
-52.9118820468343
21
7.56996056095758
31
0.000000000000000
  0
LINE
  5
F104A0
330
F104A1
100
AcDbEntity
8
Geo
100
AcDbLine
10
-52.9118820468343
20
7.56996056095758
30
0.000000000000000
11
-52.8118820468343
21
7.48491662058546
31
0.000000000000000
  0
LINE
  5
F104A2
330
F104A3
100
AcDbEntity
8
Geo
100
AcDbLine
10
-52.8118820468343
20
7.48491662058546
30
0.000000000000000
11
-52.7118820468343
21
7.39900778049282
31
0.000000000000000
  0
LINE
  5
F104A4
330
F104A5
100
AcDbEntity
8
Geo
100
AcDbLine
10
-52.7118820468343
20
7.39900778049282
30
0.000000000000000
11
-52.6118820468343
21
7.31225790369396
31
0.000000000000000
  0
LINE
  5
F104A6
330
F104A7
100
AcDbEntity
8
Geo
100
AcDbLine
10
-52.6118820468343
20
7.31225790369396
30
0.000000000000000
11
-52.5118820468343
21
7.22469108681909
31
0.000000000000000
  0
LINE
  5
F104A8
330
F104A9
100
AcDbEntity
8
Geo
100
AcDbLine
10
-52.5118820468343
20
7.22469108681909
30
0.000000000000000
11
-52.4118820468343
21
7.13633165342093
31
0.000000000000000
  0
LINE
  5
F104AA
330
F104AB
100
AcDbEntity
8
Geo
100
AcDbLine
10
-52.4118820468343
20
7.13633165342093
30
0.000000000000000
11
-52.3118820468343
21
7.04720414721841
31
0.000000000000000
  0
LINE
  5
F104AC
330
F104AD
100
AcDbEntity
8
Geo
100
AcDbLine
10
-52.3118820468343
20
7.04720414721841
30
0.000000000000000
11
-52.2118820468343
21
6.95733332527904
31
0.000000000000000
  0
LINE
  5
F104AE
330
F104AF
100
AcDbEntity
8
Geo
100
AcDbLine
10
-52.2118820468343
20
6.95733332527904
30
0.000000000000000
11
-52.1118820468343
21
6.86674415114216
31
0.000000000000000
  0
LINE
  5
F104B0
330
F104B1
100
AcDbEntity
8
Geo
100
AcDbLine
10
-52.1118820468343
20
6.86674415114216
30
0.000000000000000
11
-52.0118820468343
21
6.77546178788478
31
0.000000000000000
  0
LINE
  5
F104B2
330
F104B3
100
AcDbEntity
8
Geo
100
AcDbLine
10
-52.0118820468343
20
6.77546178788478
30
0.000000000000000
11
-51.9118820468343
21
6.68351159113195
31
0.000000000000000
  0
LINE
  5
F104B4
330
F104B5
100
AcDbEntity
8
Geo
100
AcDbLine
10
-51.9118820468343
20
6.68351159113195
30
0.000000000000000
11
-51.8118820468343
21
6.59091910201377
31
0.000000000000000
  0
LINE
  5
F104B6
330
F104B7
100
AcDbEntity
8
Geo
100
AcDbLine
10
-51.8118820468343
20
6.59091910201377
30
0.000000000000000
11
-51.7118820468343
21
6.49771004007072
31
0.000000000000000
  0
LINE
  5
F104B8
330
F104B9
100
AcDbEntity
8
Geo
100
AcDbLine
10
-51.7118820468343
20
6.49771004007072
30
0.000000000000000
11
-51.6118820468343
21
6.40391029610958
31
0.000000000000000
  0
LINE
  5
F104BA
330
F104BB
100
AcDbEntity
8
Geo
100
AcDbLine
10
-51.6118820468343
20
6.40391029610958
30
0.000000000000000
11
-51.5118820468343
21
6.30954592501165
31
0.000000000000000
  0
LINE
  5
F104BC
330
F104BD
100
AcDbEntity
8
Geo
100
AcDbLine
10
-51.5118820468343
20
6.30954592501165
30
0.000000000000000
11
-51.4118820468343
21
6.21464313849546
31
0.000000000000000
  0
LINE
  5
F104BE
330
F104BF
100
AcDbEntity
8
Geo
100
AcDbLine
10
-51.4118820468343
20
6.21464313849546
30
0.000000000000000
11
-51.3118820468343
21
6.11922829783595
31
0.000000000000000
  0
LINE
  5
F104C0
330
F104C1
100
AcDbEntity
8
Geo
100
AcDbLine
10
-51.3118820468343
20
6.11922829783595
30
0.000000000000000
11
-51.2118820468343
21
6.02332790654200
31
0.000000000000000
  0
LINE
  5
F104C2
330
F104C3
100
AcDbEntity
8
Geo
100
AcDbLine
10
-51.2118820468343
20
6.02332790654200
30
0.000000000000000
11
-51.1118820468343
21
5.92696860299455
31
0.000000000000000
  0
LINE
  5
F104C4
330
F104C5
100
AcDbEntity
8
Geo
100
AcDbLine
10
-51.1118820468343
20
5.92696860299455
30
0.000000000000000
11
-51.0118820468343
21
5.83017715304722
31
0.000000000000000
  0
LINE
  5
F104C6
330
F104C7
100
AcDbEntity
8
Geo
100
AcDbLine
10
-51.0118820468343
20
5.83017715304722
30
0.000000000000000
11
-50.9118820468343
21
5.73298044259152
31
0.000000000000000
  0
LINE
  5
F104C8
330
F104C9
100
AcDbEntity
8
Geo
100
AcDbLine
10
-50.9118820468343
20
5.73298044259152
30
0.000000000000000
11
-50.8118820468343
21
5.63540547008872
31
0.000000000000000
  0
LINE
  5
F104CA
330
F104CB
100
AcDbEntity
8
Geo
100
AcDbLine
10
-50.8118820468343
20
5.63540547008872
30
0.000000000000000
11
-50.7118820468343
21
5.53747933907044
31
0.000000000000000
  0
LINE
  5
F104CC
330
F104CD
100
AcDbEntity
8
Geo
100
AcDbLine
10
-50.7118820468343
20
5.53747933907044
30
0.000000000000000
11
-50.6118820468343
21
5.43922925061007
31
0.000000000000000
  0
LINE
  5
F104CE
330
F104CF
100
AcDbEntity
8
Geo
100
AcDbLine
10
-50.6118820468343
20
5.43922925061007
30
0.000000000000000
11
-50.5118820468343
21
5.34068249576711
31
0.000000000000000
  0
LINE
  5
F104D0
330
F104D1
100
AcDbEntity
8
Geo
100
AcDbLine
10
-50.5118820468343
20
5.34068249576711
30
0.000000000000000
11
-50.4118820468343
21
5.24186644800647
31
0.000000000000000
  0
LINE
  5
F104D2
330
F104D3
100
AcDbEntity
8
Geo
100
AcDbLine
10
-50.4118820468343
20
5.24186644800647
30
0.000000000000000
11
-50.3118820468343
21
5.14280855559492
31
0.000000000000000
  0
LINE
  5
F104D4
330
F104D5
100
AcDbEntity
8
Geo
100
AcDbLine
10
-50.3118820468343
20
5.14280855559492
30
0.000000000000000
11
-50.2118820468343
21
5.04353633397675
31
0.000000000000000
  0
LINE
  5
F104D6
330
F104D7
100
AcDbEntity
8
Geo
100
AcDbLine
10
-50.2118820468343
20
5.04353633397675
30
0.000000000000000
11
-50.1118820468343
21
4.94407735813076
31
0.000000000000000
  0
LINE
  5
F104D8
330
F104D9
100
AcDbEntity
8
Geo
100
AcDbLine
10
-50.1118820468343
20
4.94407735813076
30
0.000000000000000
11
-50.0118820468343
21
4.84445925491071
31
0.000000000000000
  0
LINE
  5
F104DA
330
F104DB
100
AcDbEntity
8
Geo
100
AcDbLine
10
-50.0118820468343
20
4.84445925491071
30
0.000000000000000
11
-49.9118820468343
21
4.74470969537140
31
0.000000000000000
  0
LINE
  5
F104DC
330
F104DD
100
AcDbEntity
8
Geo
100
AcDbLine
10
-49.9118820468343
20
4.74470969537140
30
0.000000000000000
11
-49.8118820468343
21
4.64485638708243
31
0.000000000000000
  0
LINE
  5
F104DE
330
F104DF
100
AcDbEntity
8
Geo
100
AcDbLine
10
-49.8118820468343
20
4.64485638708243
30
0.000000000000000
11
-49.7118820468343
21
4.54492706643182
31
0.000000000000000
  0
LINE
  5
F104E0
330
F104E1
100
AcDbEntity
8
Geo
100
AcDbLine
10
-49.7118820468343
20
4.54492706643182
30
0.000000000000000
11
-49.6118820468343
21
4.44494949092166
31
0.000000000000000
  0
LINE
  5
F104E2
330
F104E3
100
AcDbEntity
8
Geo
100
AcDbLine
10
-49.6118820468343
20
4.44494949092166
30
0.000000000000000
11
-49.5118820468343
21
4.34495143145784
31
0.000000000000000
  0
LINE
  5
F104E4
330
F104E5
100
AcDbEntity
8
Geo
100
AcDbLine
10
-49.5118820468343
20
4.34495143145784
30
0.000000000000000
11
-49.4118820468343
21
4.24496066463612
31
0.000000000000000
  0
LINE
  5
F104E6
330
F104E7
100
AcDbEntity
8
Geo
100
AcDbLine
10
-49.4118820468343
20
4.24496066463612
30
0.000000000000000
11
-49.3118820468343
21
4.14500496502657
31
0.000000000000000
  0
LINE
  5
F104E8
330
F104E9
100
AcDbEntity
8
Geo
100
AcDbLine
10
-49.3118820468343
20
4.14500496502657
30
0.000000000000000
11
-49.2118820468343
21
4.04511209745857
31
0.000000000000000
  0
LINE
  5
F104EA
330
F104EB
100
AcDbEntity
8
Geo
100
AcDbLine
10
-49.2118820468343
20
4.04511209745857
30
0.000000000000000
11
-49.1118820468343
21
3.94530980930861
31
0.000000000000000
  0
LINE
  5
F104EC
330
F104ED
100
AcDbEntity
8
Geo
100
AcDbLine
10
-49.1118820468343
20
3.94530980930861
30
0.000000000000000
11
-49.0118820468343
21
3.84562582279276
31
0.000000000000000
  0
LINE
  5
F104EE
330
F104EF
100
AcDbEntity
8
Geo
100
AcDbLine
10
-49.0118820468343
20
3.84562582279276
30
0.000000000000000
11
-48.9118820468343
21
3.74608782726631
31
0.000000000000000
  0
LINE
  5
F104F0
330
F104F1
100
AcDbEntity
8
Geo
100
AcDbLine
10
-48.9118820468343
20
3.74608782726631
30
0.000000000000000
11
-48.8118820468343
21
3.64672347153245
31
0.000000000000000
  0
LINE
  5
F104F2
330
F104F3
100
AcDbEntity
8
Geo
100
AcDbLine
10
-48.8118820468343
20
3.64672347153245
30
0.000000000000000
11
-48.7118820468343
21
3.54756035616218
31
0.000000000000000
  0
LINE
  5
F104F4
330
F104F5
100
AcDbEntity
8
Geo
100
AcDbLine
10
-48.7118820468343
20
3.54756035616218
30
0.000000000000000
11
-48.6118820468343
21
3.44862602582771
31
0.000000000000000
  0
LINE
  5
F104F6
330
F104F7
100
AcDbEntity
8
Geo
100
AcDbLine
10
-48.6118820468343
20
3.44862602582771
30
0.000000000000000
11
-48.5118820468343
21
3.34994796165133
31
0.000000000000000
  0
LINE
  5
F104F8
330
F104F9
100
AcDbEntity
8
Geo
100
AcDbLine
10
-48.5118820468343
20
3.34994796165133
30
0.000000000000000
11
-48.4118820468343
21
3.25155357357191
31
0.000000000000000
  0
LINE
  5
F104FA
330
F104FB
100
AcDbEntity
8
Geo
100
AcDbLine
10
-48.4118820468343
20
3.25155357357191
30
0.000000000000000
11
-48.3118820468343
21
3.15347019273126
31
0.000000000000000
  0
LINE
  5
F104FC
330
F104FD
100
AcDbEntity
8
Geo
100
AcDbLine
10
-48.3118820468343
20
3.15347019273126
30
0.000000000000000
11
-48.2118820468343
21
3.05572506388225
31
0.000000000000000
  0
LINE
  5
F104FE
330
F104FF
100
AcDbEntity
8
Geo
100
AcDbLine
10
-48.2118820468343
20
3.05572506388225
30
0.000000000000000
11
-48.1118820468343
21
2.95834533782108
31
0.000000000000000
  0
LINE
  5
F10500
330
F10501
100
AcDbEntity
8
Geo
100
AcDbLine
10
-48.1118820468343
20
2.95834533782108
30
0.000000000000000
11
-48.0118820468343
21
2.86135806384550
31
0.000000000000000
  0
LINE
  5
F10502
330
F10503
100
AcDbEntity
8
Geo
100
AcDbLine
10
-48.0118820468343
20
2.86135806384550
30
0.000000000000000
11
-47.9118820468343
21
2.76479018224132
31
0.000000000000000
  0
LINE
  5
F10504
330
F10505
100
AcDbEntity
8
Geo
100
AcDbLine
10
-47.9118820468343
20
2.76479018224132
30
0.000000000000000
11
-47.8118820468343
21
2.66866851679917
31
0.000000000000000
  0
LINE
  5
F10506
330
F10507
100
AcDbEntity
8
Geo
100
AcDbLine
10
-47.8118820468343
20
2.66866851679917
30
0.000000000000000
11
-47.7118820468343
21
2.57301976736360
31
0.000000000000000
  0
LINE
  5
F10508
330
F10509
100
AcDbEntity
8
Geo
100
AcDbLine
10
-47.7118820468343
20
2.57301976736360
30
0.000000000000000
11
-47.6118820468343
21
2.47787050241667
31
0.000000000000000
  0
LINE
  5
F1050A
330
F1050B
100
AcDbEntity
8
Geo
100
AcDbLine
10
-47.6118820468343
20
2.47787050241667
30
0.000000000000000
11
-47.5118820468343
21
2.38324715169795
31
0.000000000000000
  0
LINE
  5
F1050C
330
F1050D
100
AcDbEntity
8
Geo
100
AcDbLine
10
-47.5118820468343
20
2.38324715169795
30
0.000000000000000
11
-47.4118820468343
21
2.28917599886309
31
0.000000000000000
  0
LINE
  5
F1050E
330
F1050F
100
AcDbEntity
8
Geo
100
AcDbLine
10
-47.4118820468343
20
2.28917599886309
30
0.000000000000000
11
-47.3118820468343
21
2.19568317418300
31
0.000000000000000
  0
LINE
  5
F10510
330
F10511
100
AcDbEntity
8
Geo
100
AcDbLine
10
-47.3118820468343
20
2.19568317418300
30
0.000000000000000
11
-47.2118820468343
21
2.10279464728561
31
0.000000000000000
  0
LINE
  5
F10512
330
F10513
100
AcDbEntity
8
Geo
100
AcDbLine
10
-47.2118820468343
20
2.10279464728561
30
0.000000000000000
11
-47.1118820468343
21
2.01053621994223
31
0.000000000000000
  0
LINE
  5
F10514
330
F10515
100
AcDbEntity
8
Geo
100
AcDbLine
10
-47.1118820468343
20
2.01053621994223
30
0.000000000000000
11
-47.0118820468343
21
1.91893351890056
31
0.000000000000000
  0
LINE
  5
F10516
330
F10517
100
AcDbEntity
8
Geo
100
AcDbLine
10
-47.0118820468343
20
1.91893351890056
30
0.000000000000000
11
-46.9118820468343
21
1.82801198876634
31
0.000000000000000
  0
LINE
  5
F10518
330
F10519
100
AcDbEntity
8
Geo
100
AcDbLine
10
-46.9118820468343
20
1.82801198876634
30
0.000000000000000
11
-46.8118820468343
21
1.73779688493553
31
0.000000000000000
  0
LINE
  5
F1051A
330
F1051B
100
AcDbEntity
8
Geo
100
AcDbLine
10
-46.8118820468343
20
1.73779688493553
30
0.000000000000000
11
-46.7118820468343
21
1.64831326657912
31
0.000000000000000
  0
LINE
  5
F1051C
330
F1051D
100
AcDbEntity
8
Geo
100
AcDbLine
10
-46.7118820468343
20
1.64831326657912
30
0.000000000000000
11
-46.6118820468343
21
1.55958598968239
31
0.000000000000000
  0
LINE
  5
F1051E
330
F1051F
100
AcDbEntity
8
Geo
100
AcDbLine
10
-46.6118820468343
20
1.55958598968239
30
0.000000000000000
11
-46.5118820468343
21
1.47163970014062
31
0.000000000000000
  0
LINE
  5
F10520
330
F10521
100
AcDbEntity
8
Geo
100
AcDbLine
10
-46.5118820468343
20
1.47163970014062
30
0.000000000000000
11
-46.4118820468343
21
1.38449882691319
31
0.000000000000000
  0
LINE
  5
F10522
330
F10523
100
AcDbEntity
8
Geo
100
AcDbLine
10
-46.4118820468343
20
1.38449882691319
30
0.000000000000000
11
-46.3118820468343
21
1.29818757523792
31
0.000000000000000
  0
LINE
  5
F10524
330
F10525
100
AcDbEntity
8
Geo
100
AcDbLine
10
-46.3118820468343
20
1.29818757523792
30
0.000000000000000
11
-46.2118820468343
21
1.21272991990750
31
0.000000000000000
  0
LINE
  5
F10526
330
F10527
100
AcDbEntity
8
Geo
100
AcDbLine
10
-46.2118820468343
20
1.21272991990750
30
0.000000000000000
11
-46.1118820468343
21
1.12814959861003
31
0.000000000000000
  0
LINE
  5
F10528
330
F10529
100
AcDbEntity
8
Geo
100
AcDbLine
10
-46.1118820468343
20
1.12814959861003
30
0.000000000000000
11
-46.0118820468343
21
1.04447010533537
31
0.000000000000000
  0
LINE
  5
F1052A
330
F1052B
100
AcDbEntity
8
Geo
100
AcDbLine
10
-46.0118820468343
20
1.04447010533537
30
0.000000000000000
11
-45.9118820468343
21
0.961714683849135
31
0.000000000000000
  0
LINE
  5
F1052C
330
F1052D
100
AcDbEntity
8
Geo
100
AcDbLine
10
-45.9118820468343
20
0.961714683849135
30
0.000000000000000
11
-45.8118820468343
21
0.879906321236296
31
0.000000000000000
  0
LINE
  5
F1052E
330
F1052F
100
AcDbEntity
8
Geo
100
AcDbLine
10
-45.8118820468343
20
0.879906321236296
30
0.000000000000000
11
-45.7118820468343
21
0.799067741515996
31
0.000000000000000
  0
LINE
  5
F10530
330
F10531
100
AcDbEntity
8
Geo
100
AcDbLine
10
-45.7118820468343
20
0.799067741515996
30
0.000000000000000
11
-45.6118820468343
21
0.719221399329477
31
0.000000000000000
  0
LINE
  5
F10532
330
F10533
100
AcDbEntity
8
Geo
100
AcDbLine
10
-45.6118820468343
20
0.719221399329477
30
0.000000000000000
11
-45.5118820468343
21
0.640389473702824
31
0.000000000000000
  0
LINE
  5
F10534
330
F10535
100
AcDbEntity
8
Geo
100
AcDbLine
10
-45.5118820468343
20
0.640389473702824
30
0.000000000000000
11
-45.4118820468343
21
0.562593861886270
31
0.000000000000000
  0
LINE
  5
F10536
330
F10537
100
AcDbEntity
8
Geo
100
AcDbLine
10
-45.4118820468343
20
0.562593861886270
30
0.000000000000000
11
-45.3118820468343
21
0.485856173271758
31
0.000000000000000
  0
LINE
  5
F10538
330
F10539
100
AcDbEntity
8
Geo
100
AcDbLine
10
-45.3118820468343
20
0.485856173271758
30
0.000000000000000
11
-45.2118820468343
21
0.410197723390485
31
0.000000000000000
  0
LINE
  5
F1053A
330
F1053B
100
AcDbEntity
8
Geo
100
AcDbLine
10
-45.2118820468343
20
0.410197723390485
30
0.000000000000000
11
-45.1118820468343
21
0.335639527992044
31
0.000000000000000
  0
LINE
  5
F1053C
330
F1053D
100
AcDbEntity
8
Geo
100
AcDbLine
10
-45.1118820468343
20
0.335639527992044
30
0.000000000000000
11
-45.0118820468343
21
0.262202297206862
31
0.000000000000000
  0
LINE
  5
F1053E
330
F1053F
100
AcDbEntity
8
Geo
100
AcDbLine
10
-45.0118820468343
20
0.262202297206862
30
0.000000000000000
11
-44.9118820468344
21
0.189906429793512
31
0.000000000000000
  0
LINE
  5
F10540
330
F10541
100
AcDbEntity
8
Geo
100
AcDbLine
10
-44.9118820468344
20
0.189906429793512
30
0.000000000000000
11
-44.8118820468343
21
0.118772007472526
31
0.000000000000000
  0
LINE
  5
F10542
330
F10543
100
AcDbEntity
8
Geo
100
AcDbLine
10
-44.8118820468343
20
0.118772007472526
30
0.000000000000000
11
-44.7118820468343
21
0.0488187893482657
31
0.000000000000000
  0
LINE
  5
F10544
330
F10545
100
AcDbEntity
8
Geo
100
AcDbLine
10
-44.7118820468343
20
0.0488187893482657
30
0.000000000000000
11
-44.6118820468343
21
-0.0199337935795869
31
0.000000000000000
  0
LINE
  5
F10546
330
F10547
100
AcDbEntity
8
Geo
100
AcDbLine
10
-44.6118820468343
20
-0.0199337935795869
30
0.000000000000000
11
-44.5118820468343
21
-0.0874666438134080
31
0.000000000000000
  0
LINE
  5
F10548
330
F10549
100
AcDbEntity
8
Geo
100
AcDbLine
10
-44.5118820468343
20
-0.0874666438134080
30
0.000000000000000
11
-44.4118820468344
21
-0.153761002662367
31
0.000000000000000
  0
LINE
  5
F1054A
330
F1054B
100
AcDbEntity
8
Geo
100
AcDbLine
10
-44.4118820468344
20
-0.153761002662367
30
0.000000000000000
11
-44.3118820468343
21
-0.218798455453057
31
0.000000000000000
  0
LINE
  5
F1054C
330
F1054D
100
AcDbEntity
8
Geo
100
AcDbLine
10
-44.3118820468343
20
-0.218798455453057
30
0.000000000000000
11
-44.2118820468343
21
-0.282560936644557
31
0.000000000000000
  0
LINE
  5
F1054E
330
F1054F
100
AcDbEntity
8
Geo
100
AcDbLine
10
-44.2118820468343
20
-0.282560936644557
30
0.000000000000000
11
-44.1118820468344
21
-0.345030734846528
31
0.000000000000000
  0
LINE
  5
F10550
330
F10551
100
AcDbEntity
8
Geo
100
AcDbLine
10
-44.1118820468344
20
-0.345030734846528
30
0.000000000000000
11
-44.0118820468344
21
-0.406190497738928
31
0.000000000000000
  0
LINE
  5
F10552
330
F10553
100
AcDbEntity
8
Geo
100
AcDbLine
10
-44.0118820468344
20
-0.406190497738928
30
0.000000000000000
11
-43.9118820468344
21
-0.466023236891987
31
0.000000000000000
  0
LINE
  5
F10554
330
F10555
100
AcDbEntity
8
Geo
100
AcDbLine
10
-43.9118820468344
20
-0.466023236891987
30
0.000000000000000
11
-43.8118820468343
21
-0.524512332485106
31
0.000000000000000
  0
LINE
  5
F10556
330
F10557
100
AcDbEntity
8
Geo
100
AcDbLine
10
-43.8118820468343
20
-0.524512332485106
30
0.000000000000000
11
-43.7118820468343
21
-0.581641537923375
31
0.000000000000000
  0
LINE
  5
F10558
330
F10559
100
AcDbEntity
8
Geo
100
AcDbLine
10
-43.7118820468343
20
-0.581641537923375
30
0.000000000000000
11
-43.6118820468344
21
-0.637394984350397
31
0.000000000000000
  0
LINE
  5
F1055A
330
F1055B
100
AcDbEntity
8
Geo
100
AcDbLine
10
-43.6118820468344
20
-0.637394984350397
30
0.000000000000000
11
-43.5118820468344
21
-0.691757185056217
31
0.000000000000000
  0
LINE
  5
F1055C
330
F1055D
100
AcDbEntity
8
Geo
100
AcDbLine
10
-43.5118820468344
20
-0.691757185056217
30
0.000000000000000
11
-43.4118820468344
21
-0.744713039779072
31
0.000000000000000
  0
LINE
  5
F1055E
330
F1055F
100
AcDbEntity
8
Geo
100
AcDbLine
10
-43.4118820468344
20
-0.744713039779072
30
0.000000000000000
11
-43.3118820468344
21
-0.796247838899824
31
0.000000000000000
  0
LINE
  5
F10560
330
F10561
100
AcDbEntity
8
Geo
100
AcDbLine
10
-43.3118820468344
20
-0.796247838899824
30
0.000000000000000
11
-43.2118820468344
21
-0.846347267527863
31
0.000000000000000
  0
LINE
  5
F10562
330
F10563
100
AcDbEntity
8
Geo
100
AcDbLine
10
-43.2118820468344
20
-0.846347267527863
30
0.000000000000000
11
-43.1118820468344
21
-0.894997409477375
31
0.000000000000000
  0
LINE
  5
F10564
330
F10565
100
AcDbEntity
8
Geo
100
AcDbLine
10
-43.1118820468344
20
-0.894997409477375
30
0.000000000000000
11
-43.0118820468344
21
-0.942184751132858
31
0.000000000000000
  0
LINE
  5
F10566
330
F10567
100
AcDbEntity
8
Geo
100
AcDbLine
10
-43.0118820468344
20
-0.942184751132858
30
0.000000000000000
11
-42.9118820468344
21
-0.987896185202827
31
0.000000000000000
  0
LINE
  5
F10568
330
F10569
100
AcDbEntity
8
Geo
100
AcDbLine
10
-42.9118820468344
20
-0.987896185202827
30
0.000000000000000
11
-42.8118820468344
21
-1.03211901436063
31
0.000000000000000
  0
LINE
  5
F1056A
330
F1056B
100
AcDbEntity
8
Geo
100
AcDbLine
10
-42.8118820468344
20
-1.03211901436063
30
0.000000000000000
11
-42.7118820468344
21
-1.07484095477140
31
0.000000000000000
  0
LINE
  5
F1056C
330
F1056D
100
AcDbEntity
8
Geo
100
AcDbLine
10
-42.7118820468344
20
-1.07484095477140
30
0.000000000000000
11
-42.6118820468344
21
-1.11605013950417
31
0.000000000000000
  0
LINE
  5
F1056E
330
F1056F
100
AcDbEntity
8
Geo
100
AcDbLine
10
-42.6118820468344
20
-1.11605013950417
30
0.000000000000000
11
-42.5118820468344
21
-1.15573512182817
31
0.000000000000000
  0
LINE
  5
F10570
330
F10571
100
AcDbEntity
8
Geo
100
AcDbLine
10
-42.5118820468344
20
-1.15573512182817
30
0.000000000000000
11
-42.4118820468344
21
-1.19388487839235
31
0.000000000000000
  0
LINE
  5
F10572
330
F10573
100
AcDbEntity
8
Geo
100
AcDbLine
10
-42.4118820468344
20
-1.19388487839235
30
0.000000000000000
11
-42.3118820468344
21
-1.23048881228743
31
0.000000000000000
  0
LINE
  5
F10574
330
F10575
100
AcDbEntity
8
Geo
100
AcDbLine
10
-42.3118820468344
20
-1.23048881228743
30
0.000000000000000
11
-42.2118820468344
21
-1.26553675598935
31
0.000000000000000
  0
LINE
  5
F10576
330
F10577
100
AcDbEntity
8
Geo
100
AcDbLine
10
-42.2118820468344
20
-1.26553675598935
30
0.000000000000000
11
-42.1118820468344
21
-1.29901897418356
31
0.000000000000000
  0
LINE
  5
F10578
330
F10579
100
AcDbEntity
8
Geo
100
AcDbLine
10
-42.1118820468344
20
-1.29901897418356
30
0.000000000000000
11
-42.0118820468344
21
-1.33092616646916
31
0.000000000000000
  0
LINE
  5
F1057A
330
F1057B
100
AcDbEntity
8
Geo
100
AcDbLine
10
-42.0118820468344
20
-1.33092616646916
30
0.000000000000000
11
-41.9118820468344
21
-1.36124946994237
31
0.000000000000000
  0
LINE
  5
F1057C
330
F1057D
100
AcDbEntity
8
Geo
100
AcDbLine
10
-41.9118820468344
20
-1.36124946994237
30
0.000000000000000
11
-41.8118820468344
21
-1.38998046165830
31
0.000000000000000
  0
LINE
  5
F1057E
330
F1057F
100
AcDbEntity
8
Geo
100
AcDbLine
10
-41.8118820468344
20
-1.38998046165830
30
0.000000000000000
11
-41.7118820468344
21
-1.41711116097067
31
0.000000000000000
  0
LINE
  5
F10580
330
F10581
100
AcDbEntity
8
Geo
100
AcDbLine
10
-41.7118820468344
20
-1.41711116097067
30
0.000000000000000
11
-41.6118820468344
21
-1.44263403174855
31
0.000000000000000
  0
LINE
  5
F10582
330
F10583
100
AcDbEntity
8
Geo
100
AcDbLine
10
-41.6118820468344
20
-1.44263403174855
30
0.000000000000000
11
-41.5118820468344
21
-1.46654198446974
31
0.000000000000000
  0
LINE
  5
F10584
330
F10585
100
AcDbEntity
8
Geo
100
AcDbLine
10
-41.5118820468344
20
-1.46654198446974
30
0.000000000000000
11
-41.4118820468344
21
-1.48882837818998
31
0.000000000000000
  0
LINE
  5
F10586
330
F10587
100
AcDbEntity
8
Geo
100
AcDbLine
10
-41.4118820468344
20
-1.48882837818998
30
0.000000000000000
11
-41.3118820468344
21
-1.50948702238764
31
0.000000000000000
  0
LINE
  5
F10588
330
F10589
100
AcDbEntity
8
Geo
100
AcDbLine
10
-41.3118820468344
20
-1.50948702238764
30
0.000000000000000
11
-41.2118820468344
21
-1.52851217868330
31
0.000000000000000
  0
LINE
  5
F1058A
330
F1058B
100
AcDbEntity
8
Geo
100
AcDbLine
10
-41.2118820468344
20
-1.52851217868330
30
0.000000000000000
11
-41.1118820468344
21
-1.54589856243364
31
0.000000000000000
  0
LINE
  5
F1058C
330
F1058D
100
AcDbEntity
8
Geo
100
AcDbLine
10
-41.1118820468344
20
-1.54589856243364
30
0.000000000000000
11
-41.0118820468344
21
-1.56164134419941
31
0.000000000000000
  0
LINE
  5
F1058E
330
F1058F
100
AcDbEntity
8
Geo
100
AcDbLine
10
-41.0118820468344
20
-1.56164134419941
30
0.000000000000000
11
-40.9118820468344
21
-1.57573615108691
31
0.000000000000000
  0
LINE
  5
F10590
330
F10591
100
AcDbEntity
8
Geo
100
AcDbLine
10
-40.9118820468344
20
-1.57573615108691
30
0.000000000000000
11
-40.8118820468344
21
-1.58817906796262
31
0.000000000000000
  0
LINE
  5
F10592
330
F10593
100
AcDbEntity
8
Geo
100
AcDbLine
10
-40.8118820468344
20
-1.58817906796262
30
0.000000000000000
11
-40.7118820468344
21
-1.59896663854077
31
0.000000000000000
  0
LINE
  5
F10594
330
F10595
100
AcDbEntity
8
Geo
100
AcDbLine
10
-40.7118820468344
20
-1.59896663854077
30
0.000000000000000
11
-40.6118820468344
21
-1.60809586634332
31
0.000000000000000
  0
LINE
  5
F10596
330
F10597
100
AcDbEntity
8
Geo
100
AcDbLine
10
-40.6118820468344
20
-1.60809586634332
30
0.000000000000000
11
-40.5118820468344
21
-1.61556421553238
31
0.000000000000000
  0
LINE
  5
F10598
330
F10599
100
AcDbEntity
8
Geo
100
AcDbLine
10
-40.5118820468344
20
-1.61556421553238
30
0.000000000000000
11
-40.4118820468344
21
-1.62136961161451
31
0.000000000000000
  0
LINE
  5
F1059A
330
F1059B
100
AcDbEntity
8
Geo
100
AcDbLine
10
-40.4118820468344
20
-1.62136961161451
30
0.000000000000000
11
-40.3118820468344
21
-1.62551044201702
31
0.000000000000000
  0
LINE
  5
F1059C
330
F1059D
100
AcDbEntity
8
Geo
100
AcDbLine
10
-40.3118820468344
20
-1.62551044201702
30
0.000000000000000
11
-40.2118820468344
21
-1.62798555653587
31
0.000000000000000
  0
LINE
  5
F1059E
330
F1059F
100
AcDbEntity
8
Geo
100
AcDbLine
10
-40.2118820468344
20
-1.62798555653587
30
0.000000000000000
11
-40.1133583544743
21
-1.62879444926278
31
0.000000000000000
  0
LINE
  5
F105A0
330
F105A1
100
AcDbEntity
8
Geo
100
AcDbLine
10
-55.6118820468343
20
-0.834299644309039
30
0.000000000000000
11
-55.5118820468343
21
-0.941238455130663
31
0.000000000000000
  0
LINE
  5
F105A2
330
F105A3
100
AcDbEntity
8
Geo
100
AcDbLine
10
-55.5118820468343
20
-0.941238455130663
30
0.000000000000000
11
-55.5118820468343
21
-0.941238455130663
31
0.000000000000000
  0
LINE
  5
F105A4
330
F105A5
100
AcDbEntity
8
Geo
100
AcDbLine
10
-55.5118820468343
20
-0.941238455130663
30
0.000000000000000
11
-55.4118820468343
21
-1.01741404596556
31
0.000000000000000
  0
LINE
  5
F105A6
330
F105A7
100
AcDbEntity
8
Geo
100
AcDbLine
10
-55.4118820468343
20
-1.01741404596556
30
0.000000000000000
11
-55.3118820468343
21
-1.06064207118603
31
0.000000000000000
  0
LINE
  5
F105A8
330
F105A9
100
AcDbEntity
8
Geo
100
AcDbLine
10
-55.3118820468343
20
-1.06064207118603
30
0.000000000000000
11
-55.2118820468343
21
-1.10236128477153
31
0.000000000000000
  0
LINE
  5
F105AA
330
F105AB
100
AcDbEntity
8
Geo
100
AcDbLine
10
-55.2118820468343
20
-1.10236128477153
30
0.000000000000000
11
-55.1118820468343
21
-1.14256009831988
31
0.000000000000000
  0
LINE
  5
F105AC
330
F105AD
100
AcDbEntity
8
Geo
100
AcDbLine
10
-55.1118820468343
20
-1.14256009831988
30
0.000000000000000
11
-55.0118820468343
21
-1.18122734575246
31
0.000000000000000
  0
LINE
  5
F105AE
330
F105AF
100
AcDbEntity
8
Geo
100
AcDbLine
10
-55.0118820468343
20
-1.18122734575246
30
0.000000000000000
11
-54.9118820468343
21
-1.21835228641584
31
0.000000000000000
  0
LINE
  5
F105B0
330
F105B1
100
AcDbEntity
8
Geo
100
AcDbLine
10
-54.9118820468343
20
-1.21835228641584
30
0.000000000000000
11
-54.8118820468343
21
-1.25392460806520
31
0.000000000000000
  0
LINE
  5
F105B2
330
F105B3
100
AcDbEntity
8
Geo
100
AcDbLine
10
-54.8118820468343
20
-1.25392460806520
30
0.000000000000000
11
-54.7118820468343
21
-1.28793442972882
31
0.000000000000000
  0
LINE
  5
F105B4
330
F105B5
100
AcDbEntity
8
Geo
100
AcDbLine
10
-54.7118820468343
20
-1.28793442972882
30
0.000000000000000
11
-54.6118820468343
21
-1.32037230445271
31
0.000000000000000
  0
LINE
  5
F105B6
330
F105B7
100
AcDbEntity
8
Geo
100
AcDbLine
10
-54.6118820468343
20
-1.32037230445271
30
0.000000000000000
11
-54.5118820468343
21
-1.35122922192467
31
0.000000000000000
  0
LINE
  5
F105B8
330
F105B9
100
AcDbEntity
8
Geo
100
AcDbLine
10
-54.5118820468343
20
-1.35122922192467
30
0.000000000000000
11
-54.4118820468343
21
-1.38049661097715
31
0.000000000000000
  0
LINE
  5
F105BA
330
F105BB
100
AcDbEntity
8
Geo
100
AcDbLine
10
-54.4118820468343
20
-1.38049661097715
30
0.000000000000000
11
-54.3118820468343
21
-1.40816634196805
31
0.000000000000000
  0
LINE
  5
F105BC
330
F105BD
100
AcDbEntity
8
Geo
100
AcDbLine
10
-54.3118820468343
20
-1.40816634196805
30
0.000000000000000
11
-54.2118820468343
21
-1.43423072903890
31
0.000000000000000
  0
LINE
  5
F105BE
330
F105BF
100
AcDbEntity
8
Geo
100
AcDbLine
10
-54.2118820468343
20
-1.43423072903890
30
0.000000000000000
11
-54.1118820468343
21
-1.45868253224977
31
0.000000000000000
  0
LINE
  5
F105C0
330
F105C1
100
AcDbEntity
8
Geo
100
AcDbLine
10
-54.1118820468343
20
-1.45868253224977
30
0.000000000000000
11
-54.0118820468343
21
-1.48151495959033
31
0.000000000000000
  0
LINE
  5
F105C2
330
F105C3
100
AcDbEntity
8
Geo
100
AcDbLine
10
-54.0118820468343
20
-1.48151495959033
30
0.000000000000000
11
-53.9118820468343
21
-1.50272166886646
31
0.000000000000000
  0
LINE
  5
F105C4
330
F105C5
100
AcDbEntity
8
Geo
100
AcDbLine
10
-53.9118820468343
20
-1.50272166886646
30
0.000000000000000
11
-53.8118820468343
21
-1.52229676946195
31
0.000000000000000
  0
LINE
  5
F105C6
330
F105C7
100
AcDbEntity
8
Geo
100
AcDbLine
10
-53.8118820468343
20
-1.52229676946195
30
0.000000000000000
11
-53.7118820468343
21
-1.54023482397471
31
0.000000000000000
  0
LINE
  5
F105C8
330
F105C9
100
AcDbEntity
8
Geo
100
AcDbLine
10
-53.7118820468343
20
-1.54023482397471
30
0.000000000000000
11
-53.6118820468343
21
-1.55653084972717
31
0.000000000000000
  0
LINE
  5
F105CA
330
F105CB
100
AcDbEntity
8
Geo
100
AcDbLine
10
-53.6118820468343
20
-1.55653084972717
30
0.000000000000000
11
-53.5118820468343
21
-1.57118032015030
31
0.000000000000000
  0
LINE
  5
F105CC
330
F105CD
100
AcDbEntity
8
Geo
100
AcDbLine
10
-53.5118820468343
20
-1.57118032015030
30
0.000000000000000
11
-53.4118820468343
21
-1.58417916604094
31
0.000000000000000
  0
LINE
  5
F105CE
330
F105CF
100
AcDbEntity
8
Geo
100
AcDbLine
10
-53.4118820468343
20
-1.58417916604094
30
0.000000000000000
11
-53.3118820468343
21
-1.59552377669216
31
0.000000000000000
  0
LINE
  5
F105D0
330
F105D1
100
AcDbEntity
8
Geo
100
AcDbLine
10
-53.3118820468343
20
-1.59552377669216
30
0.000000000000000
11
-53.2118820468343
21
-1.60521100089617
31
0.000000000000000
  0
LINE
  5
F105D2
330
F105D3
100
AcDbEntity
8
Geo
100
AcDbLine
10
-53.2118820468343
20
-1.60521100089617
30
0.000000000000000
11
-53.1118820468343
21
-1.61323814781964
31
0.000000000000000
  0
LINE
  5
F105D4
330
F105D5
100
AcDbEntity
8
Geo
100
AcDbLine
10
-53.1118820468343
20
-1.61323814781964
30
0.000000000000000
11
-53.0118820468343
21
-1.61960298775115
31
0.000000000000000
  0
LINE
  5
F105D6
330
F105D7
100
AcDbEntity
8
Geo
100
AcDbLine
10
-53.0118820468343
20
-1.61960298775115
30
0.000000000000000
11
-52.9118820468343
21
-1.62430375272053
31
0.000000000000000
  0
LINE
  5
F105D8
330
F105D9
100
AcDbEntity
8
Geo
100
AcDbLine
10
-52.9118820468343
20
-1.62430375272053
30
0.000000000000000
11
-52.8118820468343
21
-1.62733913698997
31
0.000000000000000
  0
LINE
  5
F105DA
330
F105DB
100
AcDbEntity
8
Geo
100
AcDbLine
10
-52.8118820468343
20
-1.62733913698997
30
0.000000000000000
11
-52.7118820468343
21
-1.62870829741668
31
0.000000000000000
  0
LINE
  5
F105DC
330
F105DD
100
AcDbEntity
8
Geo
100
AcDbLine
10
-52.7118820468343
20
-1.62870829741668
30
0.000000000000000
11
-52.6797285429926
21
-1.62879444926278
31
0.000000000000000
  0
LINE
  5
F105DE
330
F105DF
100
AcDbEntity
8
Geo
100
AcDbLine
10
-33.8301734207513
20
10.3712055507372
30
0.000000000000000
11
-33.8118820468343
21
10.3711776708999
31
0.000000000000000
  0
LINE
  5
F105E0
330
F105E1
100
AcDbEntity
8
Geo
100
AcDbLine
10
-33.8118820468343
20
10.3711776708999
30
0.000000000000000
11
-33.7118820468343
21
10.3700395263954
31
0.000000000000000
  0
LINE
  5
F105E2
330
F105E3
100
AcDbEntity
8
Geo
100
AcDbLine
10
-33.7118820468343
20
10.3700395263954
30
0.000000000000000
11
-33.6118820468343
21
10.3672350776923
31
0.000000000000000
  0
LINE
  5
F105E4
330
F105E5
100
AcDbEntity
8
Geo
100
AcDbLine
10
-33.6118820468343
20
10.3672350776923
30
0.000000000000000
11
-33.5118820468343
21
10.3627651037861
31
0.000000000000000
  0
LINE
  5
F105E6
330
F105E7
100
AcDbEntity
8
Geo
100
AcDbLine
10
-33.5118820468343
20
10.3627651037861
30
0.000000000000000
11
-33.4118820468343
21
10.3566308463074
31
0.000000000000000
  0
LINE
  5
F105E8
330
F105E9
100
AcDbEntity
8
Geo
100
AcDbLine
10
-33.4118820468343
20
10.3566308463074
30
0.000000000000000
11
-33.3118820468343
21
10.3488340091773
31
0.000000000000000
  0
LINE
  5
F105EA
330
F105EB
100
AcDbEntity
8
Geo
100
AcDbLine
10
-33.3118820468343
20
10.3488340091773
30
0.000000000000000
11
-33.2118820468343
21
10.3393767581336
31
0.000000000000000
  0
LINE
  5
F105EC
330
F105ED
100
AcDbEntity
8
Geo
100
AcDbLine
10
-33.2118820468343
20
10.3393767581336
30
0.000000000000000
11
-33.1118820468343
21
10.3282617201298
31
0.000000000000000
  0
LINE
  5
F105EE
330
F105EF
100
AcDbEntity
8
Geo
100
AcDbLine
10
-33.1118820468343
20
10.3282617201298
30
0.000000000000000
11
-33.0118820468343
21
10.3154919826049
31
0.000000000000000
  0
LINE
  5
F105F0
330
F105F1
100
AcDbEntity
8
Geo
100
AcDbLine
10
-33.0118820468343
20
10.3154919826049
30
0.000000000000000
11
-32.9118820468343
21
10.3010710926261
31
0.000000000000000
  0
LINE
  5
F105F2
330
F105F3
100
AcDbEntity
8
Geo
100
AcDbLine
10
-32.9118820468343
20
10.3010710926261
30
0.000000000000000
11
-32.8118820468343
21
10.2850030559035
31
0.000000000000000
  0
LINE
  5
F105F4
330
F105F5
100
AcDbEntity
8
Geo
100
AcDbLine
10
-32.8118820468343
20
10.2850030559035
30
0.000000000000000
11
-32.7118820468343
21
10.2672923356774
31
0.000000000000000
  0
LINE
  5
F105F6
330
F105F7
100
AcDbEntity
8
Geo
100
AcDbLine
10
-28.7333984836878
20
-1.62879444926278
30
0.000000000000000
11
-28.8118820468342
21
-1.62486445295970
31
0.000000000000000
  0
LINE
  5
F105F8
330
F105F9
100
AcDbEntity
8
Geo
100
AcDbLine
10
-28.8118820468342
20
-1.62486445295970
30
0.000000000000000
11
-28.9118820468342
21
-1.61023118042455
31
0.000000000000000
  0
LINE
  5
F105FA
330
F105FB
100
AcDbEntity
8
Geo
100
AcDbLine
10
-28.9118820468342
20
-1.61023118042455
30
0.000000000000000
11
-29.0118820468342
21
-1.58713716706763
31
0.000000000000000
  0
LINE
  5
F105FC
330
F105FD
100
AcDbEntity
8
Geo
100
AcDbLine
10
-29.0118820468342
20
-1.58713716706763
30
0.000000000000000
11
-29.1118820468342
21
-1.55759801323903
31
0.000000000000000
  0
LINE
  5
F105FE
330
F105FF
100
AcDbEntity
8
Geo
100
AcDbLine
10
-29.1118820468342
20
-1.55759801323903
30
0.000000000000000
11
-29.2118820468342
21
-1.52319639643741
31
0.000000000000000
  0
LINE
  5
F10600
330
F10601
100
AcDbEntity
8
Geo
100
AcDbLine
10
-29.2118820468342
20
-1.52319639643741
30
0.000000000000000
11
-29.3118820468342
21
-1.48515937087816
31
0.000000000000000
  0
LINE
  5
F10602
330
F10603
100
AcDbEntity
8
Geo
100
AcDbLine
10
-29.3118820468342
20
-1.48515937087816
30
0.000000000000000
11
-29.4118820468342
21
-1.44442434363193
31
0.000000000000000
  0
LINE
  5
F10604
330
F10605
100
AcDbEntity
8
Geo
100
AcDbLine
10
-29.4118820468342
20
-1.44442434363193
30
0.000000000000000
11
-29.5118820468342
21
-1.40169475308366
31
0.000000000000000
  0
LINE
  5
F10606
330
F10607
100
AcDbEntity
8
Geo
100
AcDbLine
10
-29.5118820468342
20
-1.40169475308366
30
0.000000000000000
11
-29.6118820468342
21
-1.35748662161579
31
0.000000000000000
  0
LINE
  5
F10608
330
F10609
100
AcDbEntity
8
Geo
100
AcDbLine
10
-29.6118820468342
20
-1.35748662161579
30
0.000000000000000
11
-29.7118820468342
21
-1.31216717350078
31
0.000000000000000
  0
LINE
  5
F1060A
330
F1060B
100
AcDbEntity
8
Geo
100
AcDbLine
10
-29.7118820468342
20
-1.31216717350078
30
0.000000000000000
11
-29.8118820468342
21
-1.26598665308026
31
0.000000000000000
  0
LINE
  5
F1060C
330
F1060D
100
AcDbEntity
8
Geo
100
AcDbLine
10
-29.8118820468342
20
-1.26598665308026
30
0.000000000000000
11
-29.9118820468342
21
-1.21910438199200
31
0.000000000000000
  0
LINE
  5
F1060E
330
F1060F
100
AcDbEntity
8
Geo
100
AcDbLine
10
-29.9118820468342
20
-1.21910438199200
30
0.000000000000000
11
-30.0118820468342
21
-1.17160997983573
31
0.000000000000000
  0
LINE
  5
F10610
330
F10611
100
AcDbEntity
8
Geo
100
AcDbLine
10
-30.0118820468342
20
-1.17160997983573
30
0.000000000000000
11
-30.1118820468342
21
-1.12354055420592
31
0.000000000000000
  0
LINE
  5
F10612
330
F10613
100
AcDbEntity
8
Geo
100
AcDbLine
10
-30.1118820468342
20
-1.12354055420592
30
0.000000000000000
11
-30.2118820468342
21
-1.07489455178355
31
0.000000000000000
  0
LINE
  5
F10614
330
F10615
100
AcDbEntity
8
Geo
100
AcDbLine
10
-30.2118820468342
20
-1.07489455178355
30
0.000000000000000
11
-30.3118820468342
21
-1.02564285676051
31
0.000000000000000
  0
LINE
  5
F10616
330
F10617
100
AcDbEntity
8
Geo
100
AcDbLine
10
-30.3118820468342
20
-1.02564285676051
30
0.000000000000000
11
-30.4118820468342
21
-0.975737628465064
31
0.000000000000000
  0
LINE
  5
F10618
330
F10619
100
AcDbEntity
8
Geo
100
AcDbLine
10
-30.4118820468342
20
-0.975737628465064
30
0.000000000000000
11
-30.5118820468342
21
-0.925119287353992
31
0.000000000000000
  0
LINE
  5
F1061A
330
F1061B
100
AcDbEntity
8
Geo
100
AcDbLine
10
-30.5118820468342
20
-0.925119287353992
30
0.000000000000000
11
-30.6118820468342
21
-0.873721987324991
31
0.000000000000000
  0
LINE
  5
F1061C
330
F1061D
100
AcDbEntity
8
Geo
100
AcDbLine
10
-30.6118820468342
20
-0.873721987324991
30
0.000000000000000
11
-30.7118820468342
21
-0.821477851854693
31
0.000000000000000
  0
LINE
  5
F1061E
330
F1061F
100
AcDbEntity
8
Geo
100
AcDbLine
10
-30.7118820468342
20
-0.821477851854693
30
0.000000000000000
11
-30.8118820468342
21
-0.768320200796547
31
0.000000000000000
  0
LINE
  5
F10620
330
F10621
100
AcDbEntity
8
Geo
100
AcDbLine
10
-30.8118820468342
20
-0.768320200796547
30
0.000000000000000
11
-30.9118820468342
21
-0.714185952684925
31
0.000000000000000
  0
LINE
  5
F10622
330
F10623
100
AcDbEntity
8
Geo
100
AcDbLine
10
-30.9118820468342
20
-0.714185952684925
30
0.000000000000000
11
-31.0118820468342
21
-0.659017352985115
31
0.000000000000000
  0
LINE
  5
F10624
330
F10625
100
AcDbEntity
8
Geo
100
AcDbLine
10
-31.0118820468342
20
-0.659017352985115
30
0.000000000000000
11
-31.1118820468342
21
-0.602763150845009
31
0.000000000000000
  0
LINE
  5
F10626
330
F10627
100
AcDbEntity
8
Geo
100
AcDbLine
10
-31.1118820468342
20
-0.602763150845009
30
0.000000000000000
11
-31.2118820468342
21
-0.545379324561122
31
0.000000000000000
  0
LINE
  5
F10628
330
F10629
100
AcDbEntity
8
Geo
100
AcDbLine
10
-31.2118820468342
20
-0.545379324561122
30
0.000000000000000
11
-31.3118820468342
21
-0.486829438274975
31
0.000000000000000
  0
LINE
  5
F1062A
330
F1062B
100
AcDbEntity
8
Geo
100
AcDbLine
10
-31.3118820468342
20
-0.486829438274975
30
0.000000000000000
11
-31.4118820468343
21
-0.427084698567368
31
0.000000000000000
  0
LINE
  5
F1062C
330
F1062D
100
AcDbEntity
8
Geo
100
AcDbLine
10
-31.4118820468343
20
-0.427084698567368
30
0.000000000000000
11
-31.5118820468343
21
-0.366123768911285
31
0.000000000000000
  0
LINE
  5
F1062E
330
F1062F
100
AcDbEntity
8
Geo
100
AcDbLine
10
-31.5118820468343
20
-0.366123768911285
30
0.000000000000000
11
-31.6118820468343
21
-0.303932391764109
31
0.000000000000000
  0
LINE
  5
F10630
330
F10631
100
AcDbEntity
8
Geo
100
AcDbLine
10
-31.6118820468343
20
-0.303932391764109
30
0.000000000000000
11
-31.7118820468343
21
-0.240502861895316
31
0.000000000000000
  0
LINE
  5
F10632
330
F10633
100
AcDbEntity
8
Geo
100
AcDbLine
10
-31.7118820468343
20
-0.240502861895316
30
0.000000000000000
11
-31.8118820468343
21
-0.175833389905350
31
0.000000000000000
  0
LINE
  5
F10634
330
F10635
100
AcDbEntity
8
Geo
100
AcDbLine
10
-31.8118820468343
20
-0.175833389905350
30
0.000000000000000
11
-31.9118820468343
21
-0.109927391415315
31
0.000000000000000
  0
LINE
  5
F10636
330
F10637
100
AcDbEntity
8
Geo
100
AcDbLine
10
-31.9118820468343
20
-0.109927391415315
30
0.000000000000000
11
-32.0118820468343
21
-0.0427927347824744
31
0.000000000000000
  0
LINE
  5
F10638
330
F10639
100
AcDbEntity
8
Geo
100
AcDbLine
10
-32.0118820468343
20
-0.0427927347824744
30
0.000000000000000
11
-32.1118820468343
21
0.0255590218308859
31
0.000000000000000
  0
LINE
  5
F1063A
330
F1063B
100
AcDbEntity
8
Geo
100
AcDbLine
10
-32.1118820468343
20
0.0255590218308859
30
0.000000000000000
11
-32.2118820468343
21
0.0951133748385695
31
0.000000000000000
  0
LINE
  5
F1063C
330
F1063D
100
AcDbEntity
8
Geo
100
AcDbLine
10
-32.2118820468343
20
0.0951133748385695
30
0.000000000000000
11
-32.3118820468343
21
0.165853573254043
31
0.000000000000000
  0
LINE
  5
F1063E
330
F1063F
100
AcDbEntity
8
Geo
100
AcDbLine
10
-32.3118820468343
20
0.165853573254043
30
0.000000000000000
11
-32.4118820468343
21
0.237761243811192
31
0.000000000000000
  0
LINE
  5
F10640
330
F10641
100
AcDbEntity
8
Geo
100
AcDbLine
10
-32.4118820468343
20
0.237761243811192
30
0.000000000000000
11
-32.5118820468343
21
0.310816917853606
31
0.000000000000000
  0
LINE
  5
F10642
330
F10643
100
AcDbEntity
8
Geo
100
AcDbLine
10
-32.5118820468343
20
0.310816917853606
30
0.000000000000000
11
-32.7118820468343
21
0.460291207235445
31
0.000000000000000
  0
LINE
  5
F10644
330
F10645
100
AcDbEntity
8
Geo
100
AcDbLine
10
-30.4790055697761
20
10.3712055507372
30
0.000000000000000
11
-30.4118820468342
21
10.3708306944477
31
0.000000000000000
  0
LINE
  5
F10646
330
F10647
100
AcDbEntity
8
Geo
100
AcDbLine
10
-30.4118820468342
20
10.3708306944477
30
0.000000000000000
11
-30.3118820468342
21
10.3688833935491
31
0.000000000000000
  0
LINE
  5
F10648
330
F10649
100
AcDbEntity
8
Geo
100
AcDbLine
10
-30.3118820468342
20
10.3688833935491
30
0.000000000000000
11
-30.2118820468342
21
10.3652781789627
31
0.000000000000000
  0
LINE
  5
F1064A
330
F1064B
100
AcDbEntity
8
Geo
100
AcDbLine
10
-30.2118820468342
20
10.3652781789627
30
0.000000000000000
11
-30.1118820468342
21
10.3600227527054
31
0.000000000000000
  0
LINE
  5
F1064C
330
F1064D
100
AcDbEntity
8
Geo
100
AcDbLine
10
-30.1118820468342
20
10.3600227527054
30
0.000000000000000
11
-30.0118820468342
21
10.3531296409413
31
0.000000000000000
  0
LINE
  5
F1064E
330
F1064F
100
AcDbEntity
8
Geo
100
AcDbLine
10
-30.0118820468342
20
10.3531296409413
30
0.000000000000000
11
-29.9118820468342
21
10.3446184894112
31
0.000000000000000
  0
LINE
  5
F10650
330
F10651
100
AcDbEntity
8
Geo
100
AcDbLine
10
-29.9118820468342
20
10.3446184894112
30
0.000000000000000
11
-29.8118820468342
21
10.3345193355815
31
0.000000000000000
  0
LINE
  5
F10652
330
F10653
100
AcDbEntity
8
Geo
100
AcDbLine
10
-29.8118820468342
20
10.3345193355815
30
0.000000000000000
11
-29.7118820468342
21
10.3228771831398
31
0.000000000000000
  0
LINE
  5
F10654
330
F10655
100
AcDbEntity
8
Geo
100
AcDbLine
10
-29.7118820468342
20
10.3228771831398
30
0.000000000000000
11
-29.6118820468342
21
10.3097582787982
31
0.000000000000000
  0
LINE
  5
F10656
330
F10657
100
AcDbEntity
8
Geo
100
AcDbLine
10
-29.6118820468342
20
10.3097582787982
30
0.000000000000000
11
-29.5118820468342
21
10.2952585671641
31
0.000000000000000
  0
LINE
  5
F10658
330
F10659
100
AcDbEntity
8
Geo
100
AcDbLine
10
-29.5118820468342
20
10.2952585671641
30
0.000000000000000
11
-29.4118820468342
21
10.2795148656404
31
0.000000000000000
  0
LINE
  5
F1065A
330
F1065B
100
AcDbEntity
8
Geo
100
AcDbLine
10
-29.4118820468342
20
10.2795148656404
30
0.000000000000000
11
-29.3118820468342
21
10.2627193379501
31
0.000000000000000
  0
LINE
  5
F1065C
330
F1065D
100
AcDbEntity
8
Geo
100
AcDbLine
10
-29.3118820468342
20
10.2627193379501
30
0.000000000000000
11
-29.2118820468342
21
10.2451378177302
31
0.000000000000000
  0
LINE
  5
F1065E
330
F1065F
100
AcDbEntity
8
Geo
100
AcDbLine
10
-29.2118820468342
20
10.2451378177302
30
0.000000000000000
11
-29.1118820468342
21
10.2271323861724
31
0.000000000000000
  0
LINE
  5
F10660
330
F10661
100
AcDbEntity
8
Geo
100
AcDbLine
10
-29.1118820468342
20
10.2271323861724
30
0.000000000000000
11
-29.0118820468342
21
10.2091882487564
31
0.000000000000000
  0
LINE
  5
F10662
330
F10663
100
AcDbEntity
8
Geo
100
AcDbLine
10
-29.0118820468342
20
10.2091882487564
30
0.000000000000000
11
-28.9118820468342
21
10.1919442411885
31
0.000000000000000
  0
LINE
  5
F10664
330
F10665
100
AcDbEntity
8
Geo
100
AcDbLine
10
-28.9118820468342
20
10.1919442411885
30
0.000000000000000
11
-28.8118820468342
21
10.1762249972003
31
0.000000000000000
  0
LINE
  5
F10666
330
F10667
100
AcDbEntity
8
Geo
100
AcDbLine
10
-28.8118820468342
20
10.1762249972003
30
0.000000000000000
11
-28.7118820468342
21
10.1630705781101
31
0.000000000000000
  0
LINE
  5
F10668
330
F10669
100
AcDbEntity
8
Geo
100
AcDbLine
10
-28.7118820468342
20
10.1630705781101
30
0.000000000000000
11
-28.6118820468342
21
10.1537556484873
31
0.000000000000000
  0
LINE
  5
F1066A
330
F1066B
100
AcDbEntity
8
Geo
100
AcDbLine
10
-28.6118820468342
20
10.1537556484873
30
0.000000000000000
11
-28.5118820468342
21
10.1497842350613
31
0.000000000000000
  0
LINE
  5
F1066C
330
F1066D
100
AcDbEntity
8
Geo
100
AcDbLine
10
-28.5118820468342
20
10.1497842350613
30
0.000000000000000
11
-28.4118820468342
21
10.1528364138084
31
0.000000000000000
  0
LINE
  5
F1066E
330
F1066F
100
AcDbEntity
8
Geo
100
AcDbLine
10
-28.4118820468342
20
10.1528364138084
30
0.000000000000000
11
-28.3118820468342
21
10.1646279140251
31
0.000000000000000
  0
LINE
  5
F10670
330
F10671
100
AcDbEntity
8
Geo
100
AcDbLine
10
-28.3118820468342
20
10.1646279140251
30
0.000000000000000
11
-28.2118820468342
21
10.1866195592583
31
0.000000000000000
  0
LINE
  5
F10672
330
F10673
100
AcDbEntity
8
Geo
100
AcDbLine
10
-28.2118820468342
20
10.1866195592583
30
0.000000000000000
11
-28.1118820468342
21
10.2194762616025
31
0.000000000000000
  0
LINE
  5
F10674
330
F10675
100
AcDbEntity
8
Geo
100
AcDbLine
10
-28.1118820468342
20
10.2194762616025
30
0.000000000000000
11
-28.0118820468342
21
10.2621190858123
31
0.000000000000000
  0
LINE
  5
F10676
330
F10677
100
AcDbEntity
8
Geo
100
AcDbLine
10
-28.0118820468342
20
10.2621190858123
30
0.000000000000000
11
-27.9118820468342
21
10.3101325323718
31
0.000000000000000
  0
LINE
  5
F10678
330
F10679
100
AcDbEntity
8
Geo
100
AcDbLine
10
-27.9118820468342
20
10.3101325323718
30
0.000000000000000
11
-27.8118820468342
21
10.3531810320207
31
0.000000000000000
  0
LINE
  5
F1067A
330
F1067B
100
AcDbEntity
8
Geo
100
AcDbLine
10
-27.8118820468342
20
10.3531810320207
30
0.000000000000000
11
-27.7221188495714
21
10.3712055507372
31
0.000000000000000
  0
LINE
  5
F1067C
330
F1067D
100
AcDbEntity
8
Geo
100
AcDbLine
10
-32.7118820468343
20
3.46582570183658
30
0.000000000000000
11
-32.5118820468343
21
3.26865534591462
31
0.000000000000000
  0
LINE
  5
F1067E
330
F1067F
100
AcDbEntity
8
Geo
100
AcDbLine
10
-32.5118820468343
20
3.26865534591462
30
0.000000000000000
11
-32.4118820468343
21
3.17051588053778
31
0.000000000000000
  0
LINE
  5
F10680
330
F10681
100
AcDbEntity
8
Geo
100
AcDbLine
10
-32.4118820468343
20
3.17051588053778
30
0.000000000000000
11
-32.3118820468343
21
3.07270993234892
31
0.000000000000000
  0
LINE
  5
F10682
330
F10683
100
AcDbEntity
8
Geo
100
AcDbLine
10
-32.3118820468343
20
3.07270993234892
30
0.000000000000000
11
-32.2118820468343
21
2.97526466903832
31
0.000000000000000
  0
LINE
  5
F10684
330
F10685
100
AcDbEntity
8
Geo
100
AcDbLine
10
-32.2118820468343
20
2.97526466903832
30
0.000000000000000
11
-32.1118820468343
21
2.87820715811087
31
0.000000000000000
  0
LINE
  5
F10686
330
F10687
100
AcDbEntity
8
Geo
100
AcDbLine
10
-32.1118820468343
20
2.87820715811087
30
0.000000000000000
11
-32.0118820468343
21
2.78156435938338
31
0.000000000000000
  0
LINE
  5
F10688
330
F10689
100
AcDbEntity
8
Geo
100
AcDbLine
10
-32.0118820468343
20
2.78156435938338
30
0.000000000000000
11
-31.9118820468343
21
2.68536311756937
31
0.000000000000000
  0
LINE
  5
F1068A
330
F1068B
100
AcDbEntity
8
Geo
100
AcDbLine
10
-31.9118820468343
20
2.68536311756937
30
0.000000000000000
11
-31.8118820468343
21
2.58963015508604
31
0.000000000000000
  0
LINE
  5
F1068C
330
F1068D
100
AcDbEntity
8
Geo
100
AcDbLine
10
-31.8118820468343
20
2.58963015508604
30
0.000000000000000
11
-31.7118820468343
21
2.49439206541438
31
0.000000000000000
  0
LINE
  5
F1068E
330
F1068F
100
AcDbEntity
8
Geo
100
AcDbLine
10
-31.7118820468343
20
2.49439206541438
30
0.000000000000000
11
-31.6118820468343
21
2.39967530772675
31
0.000000000000000
  0
LINE
  5
F10690
330
F10691
100
AcDbEntity
8
Geo
100
AcDbLine
10
-31.6118820468343
20
2.39967530772675
30
0.000000000000000
11
-31.5118820468343
21
2.30550620417392
31
0.000000000000000
  0
LINE
  5
F10692
330
F10693
100
AcDbEntity
8
Geo
100
AcDbLine
10
-31.5118820468343
20
2.30550620417392
30
0.000000000000000
11
-31.4118820468343
21
2.21191094233509
31
0.000000000000000
  0
LINE
  5
F10694
330
F10695
100
AcDbEntity
8
Geo
100
AcDbLine
10
-31.4118820468343
20
2.21191094233509
30
0.000000000000000
11
-31.3118820468342
21
2.11891558705045
31
0.000000000000000
  0
LINE
  5
F10696
330
F10697
100
AcDbEntity
8
Geo
100
AcDbLine
10
-31.3118820468342
20
2.11891558705045
30
0.000000000000000
11
-31.2118820468342
21
2.02654610838122
31
0.000000000000000
  0
LINE
  5
F10698
330
F10699
100
AcDbEntity
8
Geo
100
AcDbLine
10
-31.2118820468342
20
2.02654610838122
30
0.000000000000000
11
-31.1118820468342
21
1.93482843600904
31
0.000000000000000
  0
LINE
  5
F1069A
330
F1069B
100
AcDbEntity
8
Geo
100
AcDbLine
10
-31.1118820468342
20
1.93482843600904
30
0.000000000000000
11
-31.0118820468342
21
1.84378855525676
31
0.000000000000000
  0
LINE
  5
F1069C
330
F1069D
100
AcDbEntity
8
Geo
100
AcDbLine
10
-31.0118820468342
20
1.84378855525676
30
0.000000000000000
11
-30.9118820468342
21
1.75345266636602
31
0.000000000000000
  0
LINE
  5
F1069E
330
F1069F
100
AcDbEntity
8
Geo
100
AcDbLine
10
-30.9118820468342
20
1.75345266636602
30
0.000000000000000
11
-30.8118820468342
21
1.66384743699975
31
0.000000000000000
  0
LINE
  5
F106A0
330
F106A1
100
AcDbEntity
8
Geo
100
AcDbLine
10
-30.8118820468342
20
1.66384743699975
30
0.000000000000000
11
-30.7118820468342
21
1.57500038845019
31
0.000000000000000
  0
LINE
  5
F106A2
330
F106A3
100
AcDbEntity
8
Geo
100
AcDbLine
10
-30.7118820468342
20
1.57500038845019
30
0.000000000000000
11
-30.6118820468342
21
1.48694046902056
31
0.000000000000000
  0
LINE
  5
F106A4
330
F106A5
100
AcDbEntity
8
Geo
100
AcDbLine
10
-30.6118820468342
20
1.48694046902056
30
0.000000000000000
11
-30.5118820468342
21
1.39969888379153
31
0.000000000000000
  0
LINE
  5
F106A6
330
F106A7
100
AcDbEntity
8
Geo
100
AcDbLine
10
-30.5118820468342
20
1.39969888379153
30
0.000000000000000
11
-30.4118820468342
21
1.31331026873673
31
0.000000000000000
  0
LINE
  5
F106A8
330
F106A9
100
AcDbEntity
8
Geo
100
AcDbLine
10
-30.4118820468342
20
1.31331026873673
30
0.000000000000000
11
-30.3118820468342
21
1.22781431913589
31
0.000000000000000
  0
LINE
  5
F106AA
330
F106AB
100
AcDbEntity
8
Geo
100
AcDbLine
10
-30.3118820468342
20
1.22781431913589
30
0.000000000000000
11
-30.2118820468342
21
1.14325800764600
31
0.000000000000000
  0
LINE
  5
F106AC
330
F106AD
100
AcDbEntity
8
Geo
100
AcDbLine
10
-30.2118820468342
20
1.14325800764600
30
0.000000000000000
11
-30.1118820468342
21
1.05969855641582
31
0.000000000000000
  0
LINE
  5
F106AE
330
F106AF
100
AcDbEntity
8
Geo
100
AcDbLine
10
-30.1118820468342
20
1.05969855641582
30
0.000000000000000
11
-30.0118820468342
21
0.977207360510786
31
0.000000000000000
  0
LINE
  5
F106B0
330
F106B1
100
AcDbEntity
8
Geo
100
AcDbLine
10
-30.0118820468342
20
0.977207360510786
30
0.000000000000000
11
-29.9118820468342
21
0.895875097071031
31
0.000000000000000
  0
LINE
  5
F106B2
330
F106B3
100
AcDbEntity
8
Geo
100
AcDbLine
10
-29.9118820468342
20
0.895875097071031
30
0.000000000000000
11
-29.8118820468342
21
0.815818296895476
31
0.000000000000000
  0
LINE
  5
F106B4
330
F106B5
100
AcDbEntity
8
Geo
100
AcDbLine
10
-29.8118820468342
20
0.815818296895476
30
0.000000000000000
11
-29.7118820468342
21
0.737187704212189
31
0.000000000000000
  0
LINE
  5
F106B6
330
F106B7
100
AcDbEntity
8
Geo
100
AcDbLine
10
-29.7118820468342
20
0.737187704212189
30
0.000000000000000
11
-29.6118820468342
21
0.660178809538237
31
0.000000000000000
  0
LINE
  5
F106B8
330
F106B9
100
AcDbEntity
8
Geo
100
AcDbLine
10
-29.6118820468342
20
0.660178809538237
30
0.000000000000000
11
-29.5118820468342
21
0.585045015849486
31
0.000000000000000
  0
LINE
  5
F106BA
330
F106BB
100
AcDbEntity
8
Geo
100
AcDbLine
10
-29.5118820468342
20
0.585045015849486
30
0.000000000000000
11
-29.4118820468342
21
0.512114000695177
31
0.000000000000000
  0
LINE
  5
F106BC
330
F106BD
100
AcDbEntity
8
Geo
100
AcDbLine
10
-29.4118820468342
20
0.512114000695177
30
0.000000000000000
11
-29.3118820468342
21
0.441807985284603
31
0.000000000000000
  0
LINE
  5
F106BE
330
F106BF
100
AcDbEntity
8
Geo
100
AcDbLine
10
-29.3118820468342
20
0.441807985284603
30
0.000000000000000
11
-29.2118820468342
21
0.374668847583391
31
0.000000000000000
  0
LINE
  5
F106C0
330
F106C1
100
AcDbEntity
8
Geo
100
AcDbLine
10
-29.2118820468342
20
0.374668847583391
30
0.000000000000000
11
-29.1118820468342
21
0.311389371604722
31
0.000000000000000
  0
LINE
  5
F106C2
330
F106C3
100
AcDbEntity
8
Geo
100
AcDbLine
10
-29.1118820468342
20
0.311389371604722
30
0.000000000000000
11
-29.0118820468342
21
0.252852490974063
31
0.000000000000000
  0
LINE
  5
F106C4
330
F106C5
100
AcDbEntity
8
Geo
100
AcDbLine
10
-29.0118820468342
20
0.252852490974063
30
0.000000000000000
11
-28.9118820468342
21
0.200181287180566
31
0.000000000000000
  0
LINE
  5
F106C6
330
F106C7
100
AcDbEntity
8
Geo
100
AcDbLine
10
-28.9118820468342
20
0.200181287180566
30
0.000000000000000
11
-28.8118820468342
21
0.154803929502326
31
0.000000000000000
  0
LINE
  5
F106C8
330
F106C9
100
AcDbEntity
8
Geo
100
AcDbLine
10
-28.8118820468342
20
0.154803929502326
30
0.000000000000000
11
-28.7118820468342
21
0.118539965101339
31
0.000000000000000
  0
LINE
  5
F106CA
330
F106CB
100
AcDbEntity
8
Geo
100
AcDbLine
10
-28.7118820468342
20
0.118539965101339
30
0.000000000000000
11
-28.6118820468342
21
0.0937177565530103
31
0.000000000000000
  0
LINE
  5
F106CC
330
F106CD
100
AcDbEntity
8
Geo
100
AcDbLine
10
-28.6118820468342
20
0.0937177565530103
30
0.000000000000000
11
-28.5118820468342
21
0.0833378976441157
31
0.000000000000000
  0
LINE
  5
F106CE
330
F106CF
100
AcDbEntity
8
Geo
100
AcDbLine
10
-28.5118820468342
20
0.0833378976441157
30
0.000000000000000
11
-28.4118820468342
21
0.0913046566086457
31
0.000000000000000
  0
LINE
  5
F106D0
330
F106D1
100
AcDbEntity
8
Geo
100
AcDbLine
10
-28.4118820468342
20
0.0913046566086457
30
0.000000000000000
11
-28.3118820468342
21
0.122757341999218
31
0.000000000000000
  0
LINE
  5
F106D2
330
F106D3
100
AcDbEntity
8
Geo
100
AcDbLine
10
-28.3118820468342
20
0.122757341999218
30
0.000000000000000
11
-28.2118820468342
21
0.184545876467971
31
0.000000000000000
  0
LINE
  5
F106D4
330
F106D5
100
AcDbEntity
8
Geo
100
AcDbLine
10
-28.2118820468342
20
0.184545876467971
30
0.000000000000000
11
-28.1118820468342
21
0.285908161251533
31
0.000000000000000
  0
LINE
  5
F106D6
330
F106D7
100
AcDbEntity
8
Geo
100
AcDbLine
10
-28.1118820468342
20
0.285908161251533
30
0.000000000000000
11
-28.0118820468342
21
0.439415527296040
31
0.000000000000000
  0
LINE
  5
F106D8
330
F106D9
100
AcDbEntity
8
Geo
100
AcDbLine
10
-28.0118820468342
20
0.439415527296040
30
0.000000000000000
11
-27.9118820468342
21
0.662242411434642
31
0.000000000000000
  0
LINE
  5
F106DA
330
F106DB
100
AcDbEntity
8
Geo
100
AcDbLine
10
-27.9118820468342
20
0.662242411434642
30
0.000000000000000
11
-27.8118820468342
21
0.977754139694300
31
0.000000000000000
  0
LINE
  5
F106DC
330
F106DD
100
AcDbEntity
8
Geo
100
AcDbLine
10
-27.8118820468342
20
0.977754139694300
30
0.000000000000000
11
-27.7118820468342
21
1.41722047556601
31
0.000000000000000
  0
LINE
  5
F106DE
330
F106DF
100
AcDbEntity
8
Geo
100
AcDbLine
10
-27.7118820468342
20
1.41722047556601
30
0.000000000000000
11
-27.6118820468343
21
2.02100703472442
31
0.000000000000000
  0
LINE
  5
F106E0
330
F106E1
100
AcDbEntity
8
Geo
100
AcDbLine
10
-27.6118820468343
20
2.02100703472442
30
0.000000000000000
11
-27.6118820468343
21
2.09976472375763
31
0.000000000000000
  0
LINE
  5
F106E2
330
F106E3
100
AcDbEntity
8
Geo
100
AcDbLine
10
-27.6118820468343
20
2.09976472375763
30
0.000000000000000
11
-27.6118820468343
21
2.13880402839949
31
0.000000000000000
  0
LINE
  5
F106E4
330
F106E5
100
AcDbEntity
8
Geo
100
AcDbLine
10
-27.6118820468343
20
2.13880402839949
30
0.000000000000000
11
-27.6118820468343
21
2.19166846924237
31
0.000000000000000
  0
LINE
  5
F106E6
330
F106E7
100
AcDbEntity
8
Geo
100
AcDbLine
10
-27.6118820468343
20
2.19166846924237
30
0.000000000000000
11
-27.7118820468342
21
2.87720900782546
31
0.000000000000000
  0
LINE
  5
F106E8
330
F106E9
100
AcDbEntity
8
Geo
100
AcDbLine
10
-27.7118820468342
20
2.87720900782546
30
0.000000000000000
11
-27.8118820468342
21
3.52463395465312
31
0.000000000000000
  0
LINE
  5
F106EA
330
F106EB
100
AcDbEntity
8
Geo
100
AcDbLine
10
-27.8118820468342
20
3.52463395465312
30
0.000000000000000
11
-27.9118820468342
21
4.12690385387099
31
0.000000000000000
  0
LINE
  5
F106EC
330
F106ED
100
AcDbEntity
8
Geo
100
AcDbLine
10
-27.9118820468342
20
4.12690385387099
30
0.000000000000000
11
-28.0118820468342
21
4.68077279756390
31
0.000000000000000
  0
LINE
  5
F106EE
330
F106EF
100
AcDbEntity
8
Geo
100
AcDbLine
10
-28.0118820468342
20
4.68077279756390
30
0.000000000000000
11
-28.1118820468342
21
5.18569893131699
31
0.000000000000000
  0
LINE
  5
F106F0
330
F106F1
100
AcDbEntity
8
Geo
100
AcDbLine
10
-28.1118820468342
20
5.18569893131699
30
0.000000000000000
11
-28.2118820468342
21
5.64298349523712
31
0.000000000000000
  0
LINE
  5
F106F2
330
F106F3
100
AcDbEntity
8
Geo
100
AcDbLine
10
-28.2118820468342
20
5.64298349523712
30
0.000000000000000
11
-28.3118820468342
21
6.05511256713597
31
0.000000000000000
  0
LINE
  5
F106F4
330
F106F5
100
AcDbEntity
8
Geo
100
AcDbLine
10
-28.3118820468342
20
6.05511256713597
30
0.000000000000000
11
-28.4118820468342
21
6.42526870008688
31
0.000000000000000
  0
LINE
  5
F106F6
330
F106F7
100
AcDbEntity
8
Geo
100
AcDbLine
10
-28.4118820468342
20
6.42526870008688
30
0.000000000000000
11
-28.5118820468342
21
6.75697925265955
31
0.000000000000000
  0
LINE
  5
F106F8
330
F106F9
100
AcDbEntity
8
Geo
100
AcDbLine
10
-28.5118820468342
20
6.75697925265955
30
0.000000000000000
11
-28.6118820468342
21
7.05387122033357
31
0.000000000000000
  0
LINE
  5
F106FA
330
F106FB
100
AcDbEntity
8
Geo
100
AcDbLine
10
-28.6118820468342
20
7.05387122033357
30
0.000000000000000
11
-28.7118820468342
21
7.31950681889196
31
0.000000000000000
  0
LINE
  5
F106FC
330
F106FD
100
AcDbEntity
8
Geo
100
AcDbLine
10
-28.7118820468342
20
7.31950681889196
30
0.000000000000000
11
-28.8118820468342
21
7.55727880155251
31
0.000000000000000
  0
LINE
  5
F106FE
330
F106FF
100
AcDbEntity
8
Geo
100
AcDbLine
10
-28.8118820468342
20
7.55727880155251
30
0.000000000000000
11
-28.9118820468342
21
7.77034890738948
31
0.000000000000000
  0
LINE
  5
F10700
330
F10701
100
AcDbEntity
8
Geo
100
AcDbLine
10
-28.9118820468342
20
7.77034890738948
30
0.000000000000000
11
-29.0118820468342
21
7.96161666856117
31
0.000000000000000
  0
LINE
  5
F10702
330
F10703
100
AcDbEntity
8
Geo
100
AcDbLine
10
-29.0118820468342
20
7.96161666856117
30
0.000000000000000
11
-29.1118820468342
21
8.13370897088736
31
0.000000000000000
  0
LINE
  5
F10704
330
F10705
100
AcDbEntity
8
Geo
100
AcDbLine
10
-29.1118820468342
20
8.13370897088736
30
0.000000000000000
11
-29.2118820468342
21
8.28898329298220
31
0.000000000000000
  0
LINE
  5
F10706
330
F10707
100
AcDbEntity
8
Geo
100
AcDbLine
10
-29.2118820468342
20
8.28898329298220
30
0.000000000000000
11
-29.3118820468342
21
8.42953951849196
31
0.000000000000000
  0
LINE
  5
F10708
330
F10709
100
AcDbEntity
8
Geo
100
AcDbLine
10
-29.3118820468342
20
8.42953951849196
30
0.000000000000000
11
-29.4118820468342
21
8.55723671546480
31
0.000000000000000
  0
LINE
  5
F1070A
330
F1070B
100
AcDbEntity
8
Geo
100
AcDbLine
10
-29.4118820468342
20
8.55723671546480
30
0.000000000000000
11
-29.5118820468342
21
8.67371239699595
31
0.000000000000000
  0
LINE
  5
F1070C
330
F1070D
100
AcDbEntity
8
Geo
100
AcDbLine
10
-29.5118820468342
20
8.67371239699595
30
0.000000000000000
11
-29.6118820468342
21
8.78040259924506
31
0.000000000000000
  0
LINE
  5
F1070E
330
F1070F
100
AcDbEntity
8
Geo
100
AcDbLine
10
-29.6118820468342
20
8.78040259924506
30
0.000000000000000
11
-29.7118820468342
21
8.87856170547439
31
0.000000000000000
  0
LINE
  5
F10710
330
F10711
100
AcDbEntity
8
Geo
100
AcDbLine
10
-29.7118820468342
20
8.87856170547439
30
0.000000000000000
11
-29.8118820468342
21
8.96928136394210
31
0.000000000000000
  0
LINE
  5
F10712
330
F10713
100
AcDbEntity
8
Geo
100
AcDbLine
10
-29.8118820468342
20
8.96928136394210
30
0.000000000000000
11
-29.9118820468342
21
9.05350813772449
31
0.000000000000000
  0
LINE
  5
F10714
330
F10715
100
AcDbEntity
8
Geo
100
AcDbLine
10
-29.9118820468342
20
9.05350813772449
30
0.000000000000000
11
-30.0118820468342
21
9.13205972031046
31
0.000000000000000
  0
LINE
  5
F10716
330
F10717
100
AcDbEntity
8
Geo
100
AcDbLine
10
-30.0118820468342
20
9.13205972031046
30
0.000000000000000
11
-30.1118820468342
21
9.20563967841938
31
0.000000000000000
  0
LINE
  5
F10718
330
F10719
100
AcDbEntity
8
Geo
100
AcDbLine
10
-30.1118820468342
20
9.20563967841938
30
0.000000000000000
11
-30.2118820468342
21
9.27485076272608
31
0.000000000000000
  0
LINE
  5
F1071A
330
F1071B
100
AcDbEntity
8
Geo
100
AcDbLine
10
-30.2118820468342
20
9.27485076272608
30
0.000000000000000
11
-30.3118820468342
21
9.34020687272429
31
0.000000000000000
  0
LINE
  5
F1071C
330
F1071D
100
AcDbEntity
8
Geo
100
AcDbLine
10
-30.3118820468342
20
9.34020687272429
30
0.000000000000000
11
-30.4118820468342
21
9.40214378459585
31
0.000000000000000
  0
LINE
  5
F1071E
330
F1071F
100
AcDbEntity
8
Geo
100
AcDbLine
10
-30.4118820468342
20
9.40214378459585
30
0.000000000000000
11
-30.5118820468342
21
9.46102875848047
31
0.000000000000000
  0
LINE
  5
F10720
330
F10721
100
AcDbEntity
8
Geo
100
AcDbLine
10
-30.5118820468342
20
9.46102875848047
30
0.000000000000000
11
-30.6118820468342
21
9.51716913953403
31
0.000000000000000
  0
LINE
  5
F10722
330
F10723
100
AcDbEntity
8
Geo
100
AcDbLine
10
-30.6118820468342
20
9.51716913953403
30
0.000000000000000
11
-30.7118820468342
21
9.57082005954584
31
0.000000000000000
  0
LINE
  5
F10724
330
F10725
100
AcDbEntity
8
Geo
100
AcDbLine
10
-30.7118820468342
20
9.57082005954584
30
0.000000000000000
11
-30.8118820468342
21
9.62219133536322
31
0.000000000000000
  0
LINE
  5
F10726
330
F10727
100
AcDbEntity
8
Geo
100
AcDbLine
10
-30.8118820468342
20
9.62219133536322
30
0.000000000000000
11
-30.9118820468342
21
9.67145364876765
31
0.000000000000000
  0
LINE
  5
F10728
330
F10729
100
AcDbEntity
8
Geo
100
AcDbLine
10
-30.9118820468342
20
9.67145364876765
30
0.000000000000000
11
-31.0118820468342
21
9.71874408094488
31
0.000000000000000
  0
LINE
  5
F1072A
330
F1072B
100
AcDbEntity
8
Geo
100
AcDbLine
10
-31.0118820468342
20
9.71874408094488
30
0.000000000000000
11
-31.1118820468342
21
9.76417106402067
31
0.000000000000000
  0
LINE
  5
F1072C
330
F1072D
100
AcDbEntity
8
Geo
100
AcDbLine
10
-31.1118820468342
20
9.76417106402067
30
0.000000000000000
11
-31.2118820468342
21
9.80781880270286
31
0.000000000000000
  0
LINE
  5
F1072E
330
F1072F
100
AcDbEntity
8
Geo
100
AcDbLine
10
-31.2118820468342
20
9.80781880270286
30
0.000000000000000
11
-31.3118820468342
21
9.84975121106667
31
0.000000000000000
  0
LINE
  5
F10730
330
F10731
100
AcDbEntity
8
Geo
100
AcDbLine
10
-31.3118820468342
20
9.84975121106667
30
0.000000000000000
11
-31.4118820468343
21
9.89001540297987
31
0.000000000000000
  0
LINE
  5
F10732
330
F10733
100
AcDbEntity
8
Geo
100
AcDbLine
10
-31.4118820468343
20
9.89001540297987
30
0.000000000000000
11
-31.5118820468343
21
9.92864476952593
31
0.000000000000000
  0
LINE
  5
F10734
330
F10735
100
AcDbEntity
8
Geo
100
AcDbLine
10
-31.5118820468343
20
9.92864476952593
30
0.000000000000000
11
-31.6118820468343
21
9.96566167292485
31
0.000000000000000
  0
LINE
  5
F10736
330
F10737
100
AcDbEntity
8
Geo
100
AcDbLine
10
-31.6118820468343
20
9.96566167292485
30
0.000000000000000
11
-31.7118820468343
21
10.0010797837141
31
0.000000000000000
  0
LINE
  5
F10738
330
F10739
100
AcDbEntity
8
Geo
100
AcDbLine
10
-31.7118820468343
20
10.0010797837141
30
0.000000000000000
11
-31.8118820468343
21
10.0349060861655
31
0.000000000000000
  0
LINE
  5
F1073A
330
F1073B
100
AcDbEntity
8
Geo
100
AcDbLine
10
-31.8118820468343
20
10.0349060861655
30
0.000000000000000
11
-31.9118820468343
21
10.0671425759027
31
0.000000000000000
  0
LINE
  5
F1073C
330
F1073D
100
AcDbEntity
8
Geo
100
AcDbLine
10
-31.9118820468343
20
10.0671425759027
30
0.000000000000000
11
-32.0118820468343
21
10.0977876732792
31
0.000000000000000
  0
LINE
  5
F1073E
330
F1073F
100
AcDbEntity
8
Geo
100
AcDbLine
10
-32.0118820468343
20
10.0977876732792
30
0.000000000000000
11
-32.1118820468343
21
10.1268373761315
31
0.000000000000000
  0
LINE
  5
F10740
330
F10741
100
AcDbEntity
8
Geo
100
AcDbLine
10
-32.1118820468343
20
10.1268373761315
30
0.000000000000000
11
-32.2118820468343
21
10.1542861758911
31
0.000000000000000
  0
LINE
  5
F10742
330
F10743
100
AcDbEntity
8
Geo
100
AcDbLine
10
-32.2118820468343
20
10.1542861758911
30
0.000000000000000
11
-32.3118820468343
21
10.1801277616163
31
0.000000000000000
  0
LINE
  5
F10744
330
F10745
100
AcDbEntity
8
Geo
100
AcDbLine
10
-32.3118820468343
20
10.1801277616163
30
0.000000000000000
11
-32.4118820468343
21
10.2043555371947
31
0.000000000000000
  0
LINE
  5
F10746
330
F10747
100
AcDbEntity
8
Geo
100
AcDbLine
10
-32.4118820468343
20
10.2043555371947
30
0.000000000000000
11
-32.5118820468343
21
10.2269629776847
31
0.000000000000000
  0
LINE
  5
F10748
330
F10749
100
AcDbEntity
8
Geo
100
AcDbLine
10
-32.5118820468343
20
10.2269629776847
30
0.000000000000000
11
-32.7118820468343
21
10.2672923356774
31
0.000000000000000
  0
LINE
  5
F1074A
330
F1074B
100
AcDbEntity
8
Geo
100
AcDbLine
10
-55.6118820468343
20
0.969729623110026
30
0.000000000000000
11
-55.5118820468343
21
0.852046869513682
31
0.000000000000000
  0
LINE
  5
F1074C
330
F1074D
100
AcDbEntity
8
Geo
100
AcDbLine
10
-55.5118820468343
20
0.852046869513682
30
0.000000000000000
11
-55.5118820468343
21
0.852046869513682
31
0.000000000000000
  0
LINE
  5
F1074E
330
F1074F
100
AcDbEntity
8
Geo
100
AcDbLine
10
-55.5118820468343
20
0.852046869513682
30
0.000000000000000
11
-55.4118820468343
21
0.753181085829743
31
0.000000000000000
  0
LINE
  5
F10750
330
F10751
100
AcDbEntity
8
Geo
100
AcDbLine
10
-55.4118820468343
20
0.753181085829743
30
0.000000000000000
11
-55.3118820468343
21
0.675478730287850
31
0.000000000000000
  0
LINE
  5
F10752
330
F10753
100
AcDbEntity
8
Geo
100
AcDbLine
10
-55.3118820468343
20
0.675478730287850
30
0.000000000000000
11
-55.2118820468343
21
0.598802941765956
31
0.000000000000000
  0
LINE
  5
F10754
330
F10755
100
AcDbEntity
8
Geo
100
AcDbLine
10
-55.2118820468343
20
0.598802941765956
30
0.000000000000000
11
-55.1118820468343
21
0.523175018601188
31
0.000000000000000
  0
LINE
  5
F10756
330
F10757
100
AcDbEntity
8
Geo
100
AcDbLine
10
-55.1118820468343
20
0.523175018601188
30
0.000000000000000
11
-55.0118820468343
21
0.448615968063693
31
0.000000000000000
  0
LINE
  5
F10758
330
F10759
100
AcDbEntity
8
Geo
100
AcDbLine
10
-55.0118820468343
20
0.448615968063693
30
0.000000000000000
11
-54.9118820468343
21
0.375146500521427
31
0.000000000000000
  0
LINE
  5
F1075A
330
F1075B
100
AcDbEntity
8
Geo
100
AcDbLine
10
-54.9118820468343
20
0.375146500521427
30
0.000000000000000
11
-54.8118820468343
21
0.302787023687413
31
0.000000000000000
  0
LINE
  5
F1075C
330
F1075D
100
AcDbEntity
8
Geo
100
AcDbLine
10
-54.8118820468343
20
0.302787023687413
30
0.000000000000000
11
-54.7118820468343
21
0.231557636951059
31
0.000000000000000
  0
LINE
  5
F1075E
330
F1075F
100
AcDbEntity
8
Geo
100
AcDbLine
10
-54.7118820468343
20
0.231557636951059
30
0.000000000000000
11
-54.6118820468343
21
0.161478125795115
31
0.000000000000000
  0
LINE
  5
F10760
330
F10761
100
AcDbEntity
8
Geo
100
AcDbLine
10
-54.6118820468343
20
0.161478125795115
30
0.000000000000000
11
-54.5118820468343
21
0.0925679562998525
31
0.000000000000000
  0
LINE
  5
F10762
330
F10763
100
AcDbEntity
8
Geo
100
AcDbLine
10
-54.5118820468343
20
0.0925679562998525
30
0.000000000000000
11
-54.4118820468343
21
0.0248462697359280
31
0.000000000000000
  0
LINE
  5
F10764
330
F10765
100
AcDbEntity
8
Geo
100
AcDbLine
10
-54.4118820468343
20
0.0248462697359280
30
0.000000000000000
11
-54.3118820468343
21
-0.0416681227525055
31
0.000000000000000
  0
LINE
  5
F10766
330
F10767
100
AcDbEntity
8
Geo
100
AcDbLine
10
-54.3118820468343
20
-0.0416681227525055
30
0.000000000000000
11
-54.2118820468343
21
-0.106956745372999
31
0.000000000000000
  0
LINE
  5
F10768
330
F10769
100
AcDbEntity
8
Geo
100
AcDbLine
10
-54.2118820468343
20
-0.106956745372999
30
0.000000000000000
11
-54.1118820468343
21
-0.171001462816853
31
0.000000000000000
  0
LINE
  5
F1076A
330
F1076B
100
AcDbEntity
8
Geo
100
AcDbLine
10
-54.1118820468343
20
-0.171001462816853
30
0.000000000000000
11
-54.0118820468343
21
-0.233784485296582
31
0.000000000000000
  0
LINE
  5
F1076C
330
F1076D
100
AcDbEntity
8
Geo
100
AcDbLine
10
-54.0118820468343
20
-0.233784485296582
30
0.000000000000000
11
-53.9118820468343
21
-0.295288373487415
31
0.000000000000000
  0
LINE
  5
F1076E
330
F1076F
100
AcDbEntity
8
Geo
100
AcDbLine
10
-53.9118820468343
20
-0.295288373487415
30
0.000000000000000
11
-53.8118820468343
21
-0.355496043371432
31
0.000000000000000
  0
LINE
  5
F10770
330
F10771
100
AcDbEntity
8
Geo
100
AcDbLine
10
-53.8118820468343
20
-0.355496043371432
30
0.000000000000000
11
-53.7118820468343
21
-0.414390770983026
31
0.000000000000000
  0
LINE
  5
F10772
330
F10773
100
AcDbEntity
8
Geo
100
AcDbLine
10
-53.7118820468343
20
-0.414390770983026
30
0.000000000000000
11
-53.6118820468343
21
-0.471956197054325
31
0.000000000000000
  0
LINE
  5
F10774
330
F10775
100
AcDbEntity
8
Geo
100
AcDbLine
10
-53.6118820468343
20
-0.471956197054325
30
0.000000000000000
11
-53.5118820468343
21
-0.528176331559346
31
0.000000000000000
  0
LINE
  5
F10776
330
F10777
100
AcDbEntity
8
Geo
100
AcDbLine
10
-53.5118820468343
20
-0.528176331559346
30
0.000000000000000
11
-53.4118820468343
21
-0.583035558155554
31
0.000000000000000
  0
LINE
  5
F10778
330
F10779
100
AcDbEntity
8
Geo
100
AcDbLine
10
-53.4118820468343
20
-0.583035558155554
30
0.000000000000000
11
-53.3118820468343
21
-0.636518638521634
31
0.000000000000000
  0
LINE
  5
F1077A
330
F1077B
100
AcDbEntity
8
Geo
100
AcDbLine
10
-53.3118820468343
20
-0.636518638521634
30
0.000000000000000
11
-53.2118820468343
21
-0.688610716590277
31
0.000000000000000
  0
LINE
  5
F1077C
330
F1077D
100
AcDbEntity
8
Geo
100
AcDbLine
10
-53.2118820468343
20
-0.688610716590277
30
0.000000000000000
11
-53.1118820468343
21
-0.739297322674741
31
0.000000000000000
  0
LINE
  5
F1077E
330
F1077F
100
AcDbEntity
8
Geo
100
AcDbLine
10
-53.1118820468343
20
-0.739297322674741
30
0.000000000000000
11
-53.0118820468343
21
-0.788564377488143
31
0.000000000000000
  0
LINE
  5
F10780
330
F10781
100
AcDbEntity
8
Geo
100
AcDbLine
10
-53.0118820468343
20
-0.788564377488143
30
0.000000000000000
11
-52.9118820468343
21
-0.836398196054262
31
0.000000000000000
  0
LINE
  5
F10782
330
F10783
100
AcDbEntity
8
Geo
100
AcDbLine
10
-52.9118820468343
20
-0.836398196054262
30
0.000000000000000
11
-52.8118820468343
21
-0.882785491508846
31
0.000000000000000
  0
LINE
  5
F10784
330
F10785
100
AcDbEntity
8
Geo
100
AcDbLine
10
-52.8118820468343
20
-0.882785491508846
30
0.000000000000000
11
-52.7118820468343
21
-0.927713378790317
31
0.000000000000000
  0
LINE
  5
F10786
330
F10787
100
AcDbEntity
8
Geo
100
AcDbLine
10
-52.7118820468343
20
-0.927713378790317
30
0.000000000000000
11
-52.6118820468343
21
-0.971169378218871
31
0.000000000000000
  0
LINE
  5
F10788
330
F10789
100
AcDbEntity
8
Geo
100
AcDbLine
10
-52.6118820468343
20
-0.971169378218871
30
0.000000000000000
11
-52.5118820468343
21
-1.01314141896298
31
0.000000000000000
  0
LINE
  5
F1078A
330
F1078B
100
AcDbEntity
8
Geo
100
AcDbLine
10
-52.5118820468343
20
-1.01314141896298
30
0.000000000000000
11
-52.4118820468343
21
-1.05361784239231
31
0.000000000000000
  0
LINE
  5
F1078C
330
F1078D
100
AcDbEntity
8
Geo
100
AcDbLine
10
-52.4118820468343
20
-1.05361784239231
30
0.000000000000000
11
-52.3118820468343
21
-1.09258740531617
31
0.000000000000000
  0
LINE
  5
F1078E
330
F1078F
100
AcDbEntity
8
Geo
100
AcDbLine
10
-52.3118820468343
20
-1.09258740531617
30
0.000000000000000
11
-52.2118820468343
21
-1.13003928310655
31
0.000000000000000
  0
LINE
  5
F10790
330
F10791
100
AcDbEntity
8
Geo
100
AcDbLine
10
-52.2118820468343
20
-1.13003928310655
30
0.000000000000000
11
-52.1118820468343
21
-1.16596307270488
31
0.000000000000000
  0
LINE
  5
F10792
330
F10793
100
AcDbEntity
8
Geo
100
AcDbLine
10
-52.1118820468343
20
-1.16596307270488
30
0.000000000000000
11
-52.0118820468343
21
-1.20034879551170
31
0.000000000000000
  0
LINE
  5
F10794
330
F10795
100
AcDbEntity
8
Geo
100
AcDbLine
10
-52.0118820468343
20
-1.20034879551170
30
0.000000000000000
11
-51.9118820468343
21
-1.23318690015844
31
0.000000000000000
  0
LINE
  5
F10796
330
F10797
100
AcDbEntity
8
Geo
100
AcDbLine
10
-51.9118820468343
20
-1.23318690015844
30
0.000000000000000
11
-51.8118820468343
21
-1.26446826516052
31
0.000000000000000
  0
LINE
  5
F10798
330
F10799
100
AcDbEntity
8
Geo
100
AcDbLine
10
-51.8118820468343
20
-1.26446826516052
30
0.000000000000000
11
-51.7118820468343
21
-1.29418420145102
31
0.000000000000000
  0
LINE
  5
F1079A
330
F1079B
100
AcDbEntity
8
Geo
100
AcDbLine
10
-51.7118820468343
20
-1.29418420145102
30
0.000000000000000
11
-51.6118820468343
21
-1.32232645479426
31
0.000000000000000
  0
LINE
  5
F1079C
330
F1079D
100
AcDbEntity
8
Geo
100
AcDbLine
10
-51.6118820468343
20
-1.32232645479426
30
0.000000000000000
11
-51.5118820468343
21
-1.34888720807860
31
0.000000000000000
  0
LINE
  5
F1079E
330
F1079F
100
AcDbEntity
8
Geo
100
AcDbLine
10
-51.5118820468343
20
-1.34888720807860
30
0.000000000000000
11
-51.4118820468343
21
-1.37385908348781
31
0.000000000000000
  0
LINE
  5
F107A0
330
F107A1
100
AcDbEntity
8
Geo
100
AcDbLine
10
-51.4118820468343
20
-1.37385908348781
30
0.000000000000000
11
-51.3118820468343
21
-1.39723514455040
31
0.000000000000000
  0
LINE
  5
F107A2
330
F107A3
100
AcDbEntity
8
Geo
100
AcDbLine
10
-51.3118820468343
20
-1.39723514455040
30
0.000000000000000
11
-51.2118820468343
21
-1.41900889806637
31
0.000000000000000
  0
LINE
  5
F107A4
330
F107A5
100
AcDbEntity
8
Geo
100
AcDbLine
10
-51.2118820468343
20
-1.41900889806637
30
0.000000000000000
11
-51.1118820468343
21
-1.43917429591087
31
0.000000000000000
  0
LINE
  5
F107A6
330
F107A7
100
AcDbEntity
8
Geo
100
AcDbLine
10
-51.1118820468343
20
-1.43917429591087
30
0.000000000000000
11
-51.0118820468343
21
-1.45772573671415
31
0.000000000000000
  0
LINE
  5
F107A8
330
F107A9
100
AcDbEntity
8
Geo
100
AcDbLine
10
-51.0118820468343
20
-1.45772573671415
30
0.000000000000000
11
-50.9118820468343
21
-1.47465806741752
31
0.000000000000000
  0
LINE
  5
F107AA
330
F107AB
100
AcDbEntity
8
Geo
100
AcDbLine
10
-50.9118820468343
20
-1.47465806741752
30
0.000000000000000
11
-50.8118820468343
21
-1.48996658470463
31
0.000000000000000
  0
LINE
  5
F107AC
330
F107AD
100
AcDbEntity
8
Geo
100
AcDbLine
10
-50.8118820468343
20
-1.48996658470463
30
0.000000000000000
11
-50.7118820468343
21
-1.50364703630802
31
0.000000000000000
  0
LINE
  5
F107AE
330
F107AF
100
AcDbEntity
8
Geo
100
AcDbLine
10
-50.7118820468343
20
-1.50364703630802
30
0.000000000000000
11
-50.6118820468343
21
-1.51569562219020
31
0.000000000000000
  0
LINE
  5
F107B0
330
F107B1
100
AcDbEntity
8
Geo
100
AcDbLine
10
-50.6118820468343
20
-1.51569562219020
30
0.000000000000000
11
-50.5118820468343
21
-1.52610899559923
31
0.000000000000000
  0
LINE
  5
F107B2
330
F107B3
100
AcDbEntity
8
Geo
100
AcDbLine
10
-50.5118820468343
20
-1.52610899559923
30
0.000000000000000
11
-50.4118820468343
21
-1.53488426399835
31
0.000000000000000
  0
LINE
  5
F107B4
330
F107B5
100
AcDbEntity
8
Geo
100
AcDbLine
10
-50.4118820468343
20
-1.53488426399835
30
0.000000000000000
11
-50.3118820468343
21
-1.54201898986942
31
0.000000000000000
  0
LINE
  5
F107B6
330
F107B7
100
AcDbEntity
8
Geo
100
AcDbLine
10
-50.3118820468343
20
-1.54201898986942
30
0.000000000000000
11
-50.2118820468343
21
-1.54751119139003
31
0.000000000000000
  0
LINE
  5
F107B8
330
F107B9
100
AcDbEntity
8
Geo
100
AcDbLine
10
-50.2118820468343
20
-1.54751119139003
30
0.000000000000000
11
-50.1118820468343
21
-1.55135934298396
31
0.000000000000000
  0
LINE
  5
F107BA
330
F107BB
100
AcDbEntity
8
Geo
100
AcDbLine
10
-50.1118820468343
20
-1.55135934298396
30
0.000000000000000
11
-50.0118820468343
21
-1.55356237574494
31
0.000000000000000
  0
LINE
  5
F107BC
330
F107BD
100
AcDbEntity
8
Geo
100
AcDbLine
10
-50.0118820468343
20
-1.55356237574494
30
0.000000000000000
11
-49.9280224940030
21
-1.62879444926278
31
0.000000000000000
  0
LINE
  5
F107BE
330
F107BF
100
AcDbEntity
8
Geo
100
AcDbLine
10
-43.6448371111826
20
10.3712055507372
30
0.000000000000000
11
-43.6118820468344
21
10.2964628426089
31
0.000000000000000
  0
LINE
  5
F107C0
330
F107C1
100
AcDbEntity
8
Geo
100
AcDbLine
10
-43.6118820468344
20
10.2964628426089
30
0.000000000000000
11
-43.5118820468344
21
10.2950975256662
31
0.000000000000000
  0
LINE
  5
F107C2
330
F107C3
100
AcDbEntity
8
Geo
100
AcDbLine
10
-43.5118820468344
20
10.2950975256662
30
0.000000000000000
11
-43.4118820468344
21
10.2920867212655
31
0.000000000000000
  0
LINE
  5
F107C4
330
F107C5
100
AcDbEntity
8
Geo
100
AcDbLine
10
-43.4118820468344
20
10.2920867212655
30
0.000000000000000
11
-43.3118820468344
21
10.2874312657219
31
0.000000000000000
  0
LINE
  5
F107C6
330
F107C7
100
AcDbEntity
8
Geo
100
AcDbLine
10
-43.3118820468344
20
10.2874312657219
30
0.000000000000000
11
-43.2118820468344
21
10.2811324521875
31
0.000000000000000
  0
LINE
  5
F107C8
330
F107C9
100
AcDbEntity
8
Geo
100
AcDbLine
10
-43.2118820468344
20
10.2811324521875
30
0.000000000000000
11
-43.1118820468344
21
10.2731920302924
31
0.000000000000000
  0
LINE
  5
F107CA
330
F107CB
100
AcDbEntity
8
Geo
100
AcDbLine
10
-43.1118820468344
20
10.2731920302924
30
0.000000000000000
11
-43.0118820468344
21
10.2636122056582
31
0.000000000000000
  0
LINE
  5
F107CC
330
F107CD
100
AcDbEntity
8
Geo
100
AcDbLine
10
-43.0118820468344
20
10.2636122056582
30
0.000000000000000
11
-42.9118820468344
21
10.2523956392856
31
0.000000000000000
  0
LINE
  5
F107CE
330
F107CF
100
AcDbEntity
8
Geo
100
AcDbLine
10
-42.9118820468344
20
10.2523956392856
30
0.000000000000000
11
-42.8118820468344
21
10.2395454468156
31
0.000000000000000
  0
LINE
  5
F107D0
330
F107D1
100
AcDbEntity
8
Geo
100
AcDbLine
10
-42.8118820468344
20
10.2395454468156
30
0.000000000000000
11
-42.7118820468344
21
10.2250651976632
31
0.000000000000000
  0
LINE
  5
F107D2
330
F107D3
100
AcDbEntity
8
Geo
100
AcDbLine
10
-42.7118820468344
20
10.2250651976632
30
0.000000000000000
11
-42.6118820468344
21
10.2089589140270
31
0.000000000000000
  0
LINE
  5
F107D4
330
F107D5
100
AcDbEntity
8
Geo
100
AcDbLine
10
-42.6118820468344
20
10.2089589140270
30
0.000000000000000
11
-42.5118820468344
21
10.1912310697709
31
0.000000000000000
  0
LINE
  5
F107D6
330
F107D7
100
AcDbEntity
8
Geo
100
AcDbLine
10
-42.5118820468344
20
10.1912310697709
30
0.000000000000000
11
-42.4118820468344
21
10.1718865891822
31
0.000000000000000
  0
LINE
  5
F107D8
330
F107D9
100
AcDbEntity
8
Geo
100
AcDbLine
10
-42.4118820468344
20
10.1718865891822
30
0.000000000000000
11
-42.3118820468344
21
10.1509308456032
31
0.000000000000000
  0
LINE
  5
F107DA
330
F107DB
100
AcDbEntity
8
Geo
100
AcDbLine
10
-42.3118820468344
20
10.1509308456032
30
0.000000000000000
11
-42.2118820468344
21
10.1283696599393
31
0.000000000000000
  0
LINE
  5
F107DC
330
F107DD
100
AcDbEntity
8
Geo
100
AcDbLine
10
-42.2118820468344
20
10.1283696599393
30
0.000000000000000
11
-42.1118820468344
21
10.1042092990412
31
0.000000000000000
  0
LINE
  5
F107DE
330
F107DF
100
AcDbEntity
8
Geo
100
AcDbLine
10
-42.1118820468344
20
10.1042092990412
30
0.000000000000000
11
-42.0118820468344
21
10.0784564739651
31
0.000000000000000
  0
LINE
  5
F107E0
330
F107E1
100
AcDbEntity
8
Geo
100
AcDbLine
10
-42.0118820468344
20
10.0784564739651
30
0.000000000000000
11
-41.9118820468344
21
10.0511183381078
31
0.000000000000000
  0
LINE
  5
F107E2
330
F107E3
100
AcDbEntity
8
Geo
100
AcDbLine
10
-41.9118820468344
20
10.0511183381078
30
0.000000000000000
11
-41.8118820468344
21
10.0222024852202
31
0.000000000000000
  0
LINE
  5
F107E4
330
F107E5
100
AcDbEntity
8
Geo
100
AcDbLine
10
-41.8118820468344
20
10.0222024852202
30
0.000000000000000
11
-41.7118820468344
21
9.99171694729772
31
0.000000000000000
  0
LINE
  5
F107E6
330
F107E7
100
AcDbEntity
8
Geo
100
AcDbLine
10
-41.7118820468344
20
9.99171694729772
30
0.000000000000000
11
-41.6118820468344
21
9.95967019234930
31
0.000000000000000
  0
LINE
  5
F107E8
330
F107E9
100
AcDbEntity
8
Geo
100
AcDbLine
10
-41.6118820468344
20
9.95967019234930
30
0.000000000000000
11
-41.5118820468344
21
9.92607112204528
31
0.000000000000000
  0
LINE
  5
F107EA
330
F107EB
100
AcDbEntity
8
Geo
100
AcDbLine
10
-41.5118820468344
20
9.92607112204528
30
0.000000000000000
11
-41.4118820468344
21
9.89092906924468
31
0.000000000000000
  0
LINE
  5
F107EC
330
F107ED
100
AcDbEntity
8
Geo
100
AcDbLine
10
-41.4118820468344
20
9.89092906924468
30
0.000000000000000
11
-41.3118820468344
21
9.85425379540289
31
0.000000000000000
  0
LINE
  5
F107EE
330
F107EF
100
AcDbEntity
8
Geo
100
AcDbLine
10
-41.3118820468344
20
9.85425379540289
30
0.000000000000000
11
-41.2118820468344
21
9.81605548786014
31
0.000000000000000
  0
LINE
  5
F107F0
330
F107F1
100
AcDbEntity
8
Geo
100
AcDbLine
10
-41.2118820468344
20
9.81605548786014
30
0.000000000000000
11
-41.1118820468344
21
9.77634475701181
31
0.000000000000000
  0
LINE
  5
F107F2
330
F107F3
100
AcDbEntity
8
Geo
100
AcDbLine
10
-41.1118820468344
20
9.77634475701181
30
0.000000000000000
11
-41.0118820468344
21
9.73513263336113
31
0.000000000000000
  0
LINE
  5
F107F4
330
F107F5
100
AcDbEntity
8
Geo
100
AcDbLine
10
-41.0118820468344
20
9.73513263336113
30
0.000000000000000
11
-40.9118820468344
21
9.69243056445523
31
0.000000000000000
  0
LINE
  5
F107F6
330
F107F7
100
AcDbEntity
8
Geo
100
AcDbLine
10
-40.9118820468344
20
9.69243056445523
30
0.000000000000000
11
-40.8118820468344
21
9.64825041170534
31
0.000000000000000
  0
LINE
  5
F107F8
330
F107F9
100
AcDbEntity
8
Geo
100
AcDbLine
10
-40.8118820468344
20
9.64825041170534
30
0.000000000000000
11
-40.7118820468344
21
9.60260444709204
31
0.000000000000000
  0
LINE
  5
F107FA
330
F107FB
100
AcDbEntity
8
Geo
100
AcDbLine
10
-40.7118820468344
20
9.60260444709204
30
0.000000000000000
11
-40.6118820468344
21
9.55550534975644
31
0.000000000000000
  0
LINE
  5
F107FC
330
F107FD
100
AcDbEntity
8
Geo
100
AcDbLine
10
-40.6118820468344
20
9.55550534975644
30
0.000000000000000
11
-40.5118820468344
21
9.50696620247829
31
0.000000000000000
  0
LINE
  5
F107FE
330
F107FF
100
AcDbEntity
8
Geo
100
AcDbLine
10
-40.5118820468344
20
9.50696620247829
30
0.000000000000000
11
-40.4118820468344
21
9.45700048804194
31
0.000000000000000
  0
LINE
  5
F10800
330
F10801
100
AcDbEntity
8
Geo
100
AcDbLine
10
-40.4118820468344
20
9.45700048804194
30
0.000000000000000
11
-40.3118820468344
21
9.40562208549124
31
0.000000000000000
  0
LINE
  5
F10802
330
F10803
100
AcDbEntity
8
Geo
100
AcDbLine
10
-40.3118820468344
20
9.40562208549124
30
0.000000000000000
11
-40.2118820468344
21
9.35284526627432
31
0.000000000000000
  0
LINE
  5
F10804
330
F10805
100
AcDbEntity
8
Geo
100
AcDbLine
10
-40.2118820468344
20
9.35284526627432
30
0.000000000000000
11
-40.1118820468344
21
9.29868469027938
31
0.000000000000000
  0
LINE
  5
F10806
330
F10807
100
AcDbEntity
8
Geo
100
AcDbLine
10
-40.1118820468344
20
9.29868469027938
30
0.000000000000000
11
-40.0118820468344
21
9.24315540176261
31
0.000000000000000
  0
LINE
  5
F10808
330
F10809
100
AcDbEntity
8
Geo
100
AcDbLine
10
-40.0118820468344
20
9.24315540176261
30
0.000000000000000
11
-39.9118820468344
21
9.18627282516932
31
0.000000000000000
  0
LINE
  5
F1080A
330
F1080B
100
AcDbEntity
8
Geo
100
AcDbLine
10
-39.9118820468344
20
9.18627282516932
30
0.000000000000000
11
-39.8118820468344
21
9.12805276084949
31
0.000000000000000
  0
LINE
  5
F1080C
330
F1080D
100
AcDbEntity
8
Geo
100
AcDbLine
10
-39.8118820468344
20
9.12805276084949
30
0.000000000000000
11
-39.7118820468344
21
9.06851138066884
31
0.000000000000000
  0
LINE
  5
F1080E
330
F1080F
100
AcDbEntity
8
Geo
100
AcDbLine
10
-39.7118820468344
20
9.06851138066884
30
0.000000000000000
11
-39.6118820468344
21
9.00766522351681
31
0.000000000000000
  0
LINE
  5
F10810
330
F10811
100
AcDbEntity
8
Geo
100
AcDbLine
10
-39.6118820468344
20
9.00766522351681
30
0.000000000000000
11
-39.5118820468344
21
8.94553119071246
31
0.000000000000000
  0
LINE
  5
F10812
330
F10813
100
AcDbEntity
8
Geo
100
AcDbLine
10
-39.5118820468344
20
8.94553119071246
30
0.000000000000000
11
-39.4118820468344
21
8.88212654130984
31
0.000000000000000
  0
LINE
  5
F10814
330
F10815
100
AcDbEntity
8
Geo
100
AcDbLine
10
-39.4118820468344
20
8.88212654130984
30
0.000000000000000
11
-39.3118820468344
21
8.81746888730386
31
0.000000000000000
  0
LINE
  5
F10816
330
F10817
100
AcDbEntity
8
Geo
100
AcDbLine
10
-39.3118820468344
20
8.81746888730386
30
0.000000000000000
11
-39.2118820468344
21
8.75157618873823
31
0.000000000000000
  0
LINE
  5
F10818
330
F10819
100
AcDbEntity
8
Geo
100
AcDbLine
10
-39.2118820468344
20
8.75157618873823
30
0.000000000000000
11
-39.1118820468344
21
8.68446674871663
31
0.000000000000000
  0
LINE
  5
F1081A
330
F1081B
100
AcDbEntity
8
Geo
100
AcDbLine
10
-39.1118820468344
20
8.68446674871663
30
0.000000000000000
11
-39.0118820468344
21
8.61615920831867
31
0.000000000000000
  0
LINE
  5
F1081C
330
F1081D
100
AcDbEntity
8
Geo
100
AcDbLine
10
-39.0118820468344
20
8.61615920831867
30
0.000000000000000
11
-38.9118820468344
21
8.54667254142192
31
0.000000000000000
  0
LINE
  5
F1081E
330
F1081F
100
AcDbEntity
8
Geo
100
AcDbLine
10
-38.9118820468344
20
8.54667254142192
30
0.000000000000000
11
-38.8118820468344
21
8.47602604943149
31
0.000000000000000
  0
LINE
  5
F10820
330
F10821
100
AcDbEntity
8
Geo
100
AcDbLine
10
-38.8118820468344
20
8.47602604943149
30
0.000000000000000
11
-38.7118820468344
21
8.40423935591867
31
0.000000000000000
  0
LINE
  5
F10822
330
F10823
100
AcDbEntity
8
Geo
100
AcDbLine
10
-38.7118820468344
20
8.40423935591867
30
0.000000000000000
11
-38.6118820468344
21
8.33133240117007
31
0.000000000000000
  0
LINE
  5
F10824
330
F10825
100
AcDbEntity
8
Geo
100
AcDbLine
10
-38.6118820468344
20
8.33133240117007
30
0.000000000000000
11
-38.5118820468344
21
8.25732543664879
31
0.000000000000000
  0
LINE
  5
F10826
330
F10827
100
AcDbEntity
8
Geo
100
AcDbLine
10
-38.5118820468344
20
8.25732543664879
30
0.000000000000000
11
-38.4118820468344
21
8.18223901936911
31
0.000000000000000
  0
LINE
  5
F10828
330
F10829
100
AcDbEntity
8
Geo
100
AcDbLine
10
-38.4118820468344
20
8.18223901936911
30
0.000000000000000
11
-38.3118820468343
21
8.10609400618634
31
0.000000000000000
  0
LINE
  5
F1082A
330
F1082B
100
AcDbEntity
8
Geo
100
AcDbLine
10
-38.3118820468343
20
8.10609400618634
30
0.000000000000000
11
-38.2118820468343
21
8.02891154800344
31
0.000000000000000
  0
LINE
  5
F1082C
330
F1082D
100
AcDbEntity
8
Geo
100
AcDbLine
10
-38.2118820468343
20
8.02891154800344
30
0.000000000000000
11
-38.1118820468343
21
7.95071308389583
31
0.000000000000000
  0
LINE
  5
F1082E
330
F1082F
100
AcDbEntity
8
Geo
100
AcDbLine
10
-38.1118820468343
20
7.95071308389583
30
0.000000000000000
11
-38.0118820468343
21
7.87152033515629
31
0.000000000000000
  0
LINE
  5
F10830
330
F10831
100
AcDbEntity
8
Geo
100
AcDbLine
10
-38.0118820468343
20
7.87152033515629
30
0.000000000000000
11
-37.9118820468343
21
7.79135529926137
31
0.000000000000000
  0
LINE
  5
F10832
330
F10833
100
AcDbEntity
8
Geo
100
AcDbLine
10
-37.9118820468343
20
7.79135529926137
30
0.000000000000000
11
-37.8118820468343
21
7.71024024376114
31
0.000000000000000
  0
LINE
  5
F10834
330
F10835
100
AcDbEntity
8
Geo
100
AcDbLine
10
-37.8118820468343
20
7.71024024376114
30
0.000000000000000
11
-37.7118820468343
21
7.62819770009389
31
0.000000000000000
  0
LINE
  5
F10836
330
F10837
100
AcDbEntity
8
Geo
100
AcDbLine
10
-37.7118820468343
20
7.62819770009389
30
0.000000000000000
11
-37.6118820468343
21
7.54525045732755
31
0.000000000000000
  0
LINE
  5
F10838
330
F10839
100
AcDbEntity
8
Geo
100
AcDbLine
10
-37.6118820468343
20
7.54525045732755
30
0.000000000000000
11
-37.5118820468343
21
7.46142155582954
31
0.000000000000000
  0
LINE
  5
F1083A
330
F1083B
100
AcDbEntity
8
Geo
100
AcDbLine
10
-37.5118820468343
20
7.46142155582954
30
0.000000000000000
11
-37.4118820468343
21
7.37673428086682
31
0.000000000000000
  0
LINE
  5
F1083C
330
F1083D
100
AcDbEntity
8
Geo
100
AcDbLine
10
-37.4118820468343
20
7.37673428086682
30
0.000000000000000
11
-37.3118820468343
21
7.29121215613789
31
0.000000000000000
  0
LINE
  5
F1083E
330
F1083F
100
AcDbEntity
8
Geo
100
AcDbLine
10
-37.3118820468343
20
7.29121215613789
30
0.000000000000000
11
-37.2118820468343
21
7.20487893723860
31
0.000000000000000
  0
LINE
  5
F10840
330
F10841
100
AcDbEntity
8
Geo
100
AcDbLine
10
-37.2118820468343
20
7.20487893723860
30
0.000000000000000
11
-37.1118820468343
21
7.11775860506353
31
0.000000000000000
  0
LINE
  5
F10842
330
F10843
100
AcDbEntity
8
Geo
100
AcDbLine
10
-37.1118820468343
20
7.11775860506353
30
0.000000000000000
11
-37.0118820468343
21
7.02987535914477
31
0.000000000000000
  0
LINE
  5
F10844
330
F10845
100
AcDbEntity
8
Geo
100
AcDbLine
10
-37.0118820468343
20
7.02987535914477
30
0.000000000000000
11
-36.9118820468343
21
6.94125361092998
31
0.000000000000000
  0
LINE
  5
F10846
330
F10847
100
AcDbEntity
8
Geo
100
AcDbLine
10
-36.9118820468343
20
6.94125361092998
30
0.000000000000000
11
-36.8118820468343
21
6.85191797700161
31
0.000000000000000
  0
LINE
  5
F10848
330
F10849
100
AcDbEntity
8
Geo
100
AcDbLine
10
-36.8118820468343
20
6.85191797700161
30
0.000000000000000
11
-36.7118820468343
21
6.76189327223910
31
0.000000000000000
  0
LINE
  5
F1084A
330
F1084B
100
AcDbEntity
8
Geo
100
AcDbLine
10
-36.7118820468343
20
6.76189327223910
30
0.000000000000000
11
-36.6118820468343
21
6.67120450292603
31
0.000000000000000
  0
LINE
  5
F1084C
330
F1084D
100
AcDbEntity
8
Geo
100
AcDbLine
10
-36.6118820468343
20
6.67120450292603
30
0.000000000000000
11
-36.5118820468343
21
6.57987685980408
31
0.000000000000000
  0
LINE
  5
F1084E
330
F1084F
100
AcDbEntity
8
Geo
100
AcDbLine
10
-36.5118820468343
20
6.57987685980408
30
0.000000000000000
11
-36.4118820468343
21
6.48793571107577
31
0.000000000000000
  0
LINE
  5
F10850
330
F10851
100
AcDbEntity
8
Geo
100
AcDbLine
10
-36.4118820468343
20
6.48793571107577
30
0.000000000000000
11
-36.3118820468343
21
6.39540659535790
31
0.000000000000000
  0
LINE
  5
F10852
330
F10853
100
AcDbEntity
8
Geo
100
AcDbLine
10
-36.3118820468343
20
6.39540659535790
30
0.000000000000000
11
-36.2118820468343
21
6.30231521458766
31
0.000000000000000
  0
LINE
  5
F10854
330
F10855
100
AcDbEntity
8
Geo
100
AcDbLine
10
-36.2118820468343
20
6.30231521458766
30
0.000000000000000
11
-36.1118820468343
21
6.20868742688335
31
0.000000000000000
  0
LINE
  5
F10856
330
F10857
100
AcDbEntity
8
Geo
100
AcDbLine
10
-36.1118820468343
20
6.20868742688335
30
0.000000000000000
11
-36.0118820468343
21
6.11454923936175
31
0.000000000000000
  0
LINE
  5
F10858
330
F10859
100
AcDbEntity
8
Geo
100
AcDbLine
10
-36.0118820468343
20
6.11454923936175
30
0.000000000000000
11
-35.9118820468343
21
6.01992680091409
31
0.000000000000000
  0
LINE
  5
F1085A
330
F1085B
100
AcDbEntity
8
Geo
100
AcDbLine
10
-35.9118820468343
20
6.01992680091409
30
0.000000000000000
11
-35.8118820468343
21
5.92484639494263
31
0.000000000000000
  0
LINE
  5
F1085C
330
F1085D
100
AcDbEntity
8
Geo
100
AcDbLine
10
-35.8118820468343
20
5.92484639494263
30
0.000000000000000
11
-35.7118820468343
21
5.82933443205988
31
0.000000000000000
  0
LINE
  5
F1085E
330
F1085F
100
AcDbEntity
8
Geo
100
AcDbLine
10
-35.7118820468343
20
5.82933443205988
30
0.000000000000000
11
-35.6118820468343
21
5.73341744275251
31
0.000000000000000
  0
LINE
  5
F10860
330
F10861
100
AcDbEntity
8
Geo
100
AcDbLine
10
-35.6118820468343
20
5.73341744275251
30
0.000000000000000
11
-35.5118820468343
21
5.63712207001190
31
0.000000000000000
  0
LINE
  5
F10862
330
F10863
100
AcDbEntity
8
Geo
100
AcDbLine
10
-35.5118820468343
20
5.63712207001190
30
0.000000000000000
11
-35.4118820468343
21
5.54047506193355
31
0.000000000000000
  0
LINE
  5
F10864
330
F10865
100
AcDbEntity
8
Geo
100
AcDbLine
10
-35.4118820468343
20
5.54047506193355
30
0.000000000000000
11
-35.3118820468343
21
5.44350326428712
31
0.000000000000000
  0
LINE
  5
F10866
330
F10867
100
AcDbEntity
8
Geo
100
AcDbLine
10
-35.3118820468343
20
5.44350326428712
30
0.000000000000000
11
-35.2118820468343
21
5.34623361305957
31
0.000000000000000
  0
LINE
  5
F10868
330
F10869
100
AcDbEntity
8
Geo
100
AcDbLine
10
-35.2118820468343
20
5.34623361305957
30
0.000000000000000
11
-35.1118820468343
21
5.24869312697301
31
0.000000000000000
  0
LINE
  5
F1086A
330
F1086B
100
AcDbEntity
8
Geo
100
AcDbLine
10
-35.1118820468343
20
5.24869312697301
30
0.000000000000000
11
-35.0118820468343
21
5.15090889997972
31
0.000000000000000
  0
LINE
  5
F1086C
330
F1086D
100
AcDbEntity
8
Geo
100
AcDbLine
10
-35.0118820468343
20
5.15090889997972
30
0.000000000000000
11
-34.9118820468343
21
5.05290809373623
31
0.000000000000000
  0
LINE
  5
F1086E
330
F1086F
100
AcDbEntity
8
Geo
100
AcDbLine
10
-34.9118820468343
20
5.05290809373623
30
0.000000000000000
11
-34.8118820468343
21
4.95471793005858
31
0.000000000000000
  0
LINE
  5
F10870
330
F10871
100
AcDbEntity
8
Geo
100
AcDbLine
10
-34.8118820468343
20
4.95471793005858
30
0.000000000000000
11
-34.7118820468343
21
4.85636568336086
31
0.000000000000000
  0
LINE
  5
F10872
330
F10873
100
AcDbEntity
8
Geo
100
AcDbLine
10
-34.7118820468343
20
4.85636568336086
30
0.000000000000000
11
-34.6118820468343
21
4.75787867307922
31
0.000000000000000
  0
LINE
  5
F10874
330
F10875
100
AcDbEntity
8
Geo
100
AcDbLine
10
-34.6118820468343
20
4.75787867307922
30
0.000000000000000
11
-34.5118820468343
21
4.65928425608322
31
0.000000000000000
  0
LINE
  5
F10876
330
F10877
100
AcDbEntity
8
Geo
100
AcDbLine
10
-34.5118820468343
20
4.65928425608322
30
0.000000000000000
11
-34.4118820468343
21
4.56060981907696
31
0.000000000000000
  0
LINE
  5
F10878
330
F10879
100
AcDbEntity
8
Geo
100
AcDbLine
10
-34.4118820468343
20
4.56060981907696
30
0.000000000000000
11
-34.3118820468343
21
4.46188277099181
31
0.000000000000000
  0
LINE
  5
F1087A
330
F1087B
100
AcDbEntity
8
Geo
100
AcDbLine
10
-34.3118820468343
20
4.46188277099181
30
0.000000000000000
11
-34.2118820468343
21
4.36313053537298
31
0.000000000000000
  0
LINE
  5
F1087C
330
F1087D
100
AcDbEntity
8
Geo
100
AcDbLine
10
-34.2118820468343
20
4.36313053537298
30
0.000000000000000
11
-34.1118820468343
21
4.26438054276205
31
0.000000000000000
  0
LINE
  5
F1087E
330
F1087F
100
AcDbEntity
8
Geo
100
AcDbLine
10
-34.1118820468343
20
4.26438054276205
30
0.000000000000000
11
-34.0118820468343
21
4.16566022307756
31
0.000000000000000
  0
LINE
  5
F10880
330
F10881
100
AcDbEntity
8
Geo
100
AcDbLine
10
-34.0118820468343
20
4.16566022307756
30
0.000000000000000
11
-33.9118820468343
21
4.06699699799577
31
0.000000000000000
  0
LINE
  5
F10882
330
F10883
100
AcDbEntity
8
Geo
100
AcDbLine
10
-33.9118820468343
20
4.06699699799577
30
0.000000000000000
11
-33.8118820468343
21
3.96841827333368
31
0.000000000000000
  0
LINE
  5
F10884
330
F10885
100
AcDbEntity
8
Geo
100
AcDbLine
10
-33.8118820468343
20
3.96841827333368
30
0.000000000000000
11
-33.7118820468343
21
3.86995143143651
31
0.000000000000000
  0
LINE
  5
F10886
330
F10887
100
AcDbEntity
8
Geo
100
AcDbLine
10
-33.7118820468343
20
3.86995143143651
30
0.000000000000000
11
-33.6118820468343
21
3.77162382357165
31
0.000000000000000
  0
LINE
  5
F10888
330
F10889
100
AcDbEntity
8
Geo
100
AcDbLine
10
-33.6118820468343
20
3.77162382357165
30
0.000000000000000
11
-33.5118820468343
21
3.67346276233126
31
0.000000000000000
  0
LINE
  5
F1088A
330
F1088B
100
AcDbEntity
8
Geo
100
AcDbLine
10
-33.5118820468343
20
3.67346276233126
30
0.000000000000000
11
-33.4118820468343
21
3.57549551404562
31
0.000000000000000
  0
LINE
  5
F1088C
330
F1088D
100
AcDbEntity
8
Geo
100
AcDbLine
10
-33.4118820468343
20
3.57549551404562
30
0.000000000000000
11
-33.3118820468343
21
3.47774929120933
31
0.000000000000000
  0
LINE
  5
F1088E
330
F1088F
100
AcDbEntity
8
Geo
100
AcDbLine
10
-33.3118820468343
20
3.47774929120933
30
0.000000000000000
11
-33.2118820468343
21
3.38025124492244
31
0.000000000000000
  0
LINE
  5
F10890
330
F10891
100
AcDbEntity
8
Geo
100
AcDbLine
10
-33.2118820468343
20
3.38025124492244
30
0.000000000000000
11
-33.1118820468343
21
3.28302845734869
31
0.000000000000000
  0
LINE
  5
F10892
330
F10893
100
AcDbEntity
8
Geo
100
AcDbLine
10
-33.1118820468343
20
3.28302845734869
30
0.000000000000000
11
-33.0118820468343
21
3.18610793419280
31
0.000000000000000
  0
LINE
  5
F10894
330
F10895
100
AcDbEntity
8
Geo
100
AcDbLine
10
-33.0118820468343
20
3.18610793419280
30
0.000000000000000
11
-32.9118820468343
21
3.08951659719913
31
0.000000000000000
  0
LINE
  5
F10896
330
F10897
100
AcDbEntity
8
Geo
100
AcDbLine
10
-32.9118820468343
20
3.08951659719913
30
0.000000000000000
11
-32.8118820468343
21
2.99328127667355
31
0.000000000000000
  0
LINE
  5
F10898
330
F10899
100
AcDbEntity
8
Geo
100
AcDbLine
10
-32.8118820468343
20
2.99328127667355
30
0.000000000000000
11
-32.7118820468343
21
2.89742870403072
31
0.000000000000000
  0
LINE
  5
F1089A
330
F1089B
100
AcDbEntity
8
Geo
100
AcDbLine
10
-55.6118820468343
20
10.1148494595257
30
0.000000000000000
11
-55.5118820468343
21
10.2055401773595
31
0.000000000000000
  0
LINE
  5
F1089C
330
F1089D
100
AcDbEntity
8
Geo
100
AcDbLine
10
-55.5118820468343
20
10.2055401773595
30
0.000000000000000
11
-55.5118820468343
21
10.2055401773595
31
0.000000000000000
  0
LINE
  5
F1089E
330
F1089F
100
AcDbEntity
8
Geo
100
AcDbLine
10
-55.5118820468343
20
10.2055401773595
30
0.000000000000000
11
-55.4118820468343
21
10.2440489889741
31
0.000000000000000
  0
LINE
  5
F108A0
330
F108A1
100
AcDbEntity
8
Geo
100
AcDbLine
10
-55.4118820468343
20
10.2440489889741
30
0.000000000000000
11
-55.3118820468343
21
10.2301164914777
31
0.000000000000000
  0
LINE
  5
F108A2
330
F108A3
100
AcDbEntity
8
Geo
100
AcDbLine
10
-55.3118820468343
20
10.2301164914777
30
0.000000000000000
11
-55.2118820468343
21
10.2145565563927
31
0.000000000000000
  0
LINE
  5
F108A4
330
F108A5
100
AcDbEntity
8
Geo
100
AcDbLine
10
-55.2118820468343
20
10.2145565563927
30
0.000000000000000
11
-55.1118820468343
21
10.1973735058232
31
0.000000000000000
  0
LINE
  5
F108A6
330
F108A7
100
AcDbEntity
8
Geo
100
AcDbLine
10
-55.1118820468343
20
10.1973735058232
30
0.000000000000000
11
-55.0118820468343
21
10.1785721127284
31
0.000000000000000
  0
LINE
  5
F108A8
330
F108A9
100
AcDbEntity
8
Geo
100
AcDbLine
10
-55.0118820468343
20
10.1785721127284
30
0.000000000000000
11
-54.9118820468343
21
10.1581575995964
31
0.000000000000000
  0
LINE
  5
F108AA
330
F108AB
100
AcDbEntity
8
Geo
100
AcDbLine
10
-54.9118820468343
20
10.1581575995964
30
0.000000000000000
11
-54.8118820468343
21
10.1361356369942
31
0.000000000000000
  0
LINE
  5
F108AC
330
F108AD
100
AcDbEntity
8
Geo
100
AcDbLine
10
-54.8118820468343
20
10.1361356369942
30
0.000000000000000
11
-54.7118820468343
21
10.1125123419921
31
0.000000000000000
  0
LINE
  5
F108AE
330
F108AF
100
AcDbEntity
8
Geo
100
AcDbLine
10
-54.7118820468343
20
10.1125123419921
30
0.000000000000000
11
-54.6118820468343
21
10.0872942764643
31
0.000000000000000
  0
LINE
  5
F108B0
330
F108B1
100
AcDbEntity
8
Geo
100
AcDbLine
10
-54.6118820468343
20
10.0872942764643
30
0.000000000000000
11
-54.5118820468343
21
10.0604884452672
31
0.000000000000000
  0
LINE
  5
F108B2
330
F108B3
100
AcDbEntity
8
Geo
100
AcDbLine
10
-54.5118820468343
20
10.0604884452672
30
0.000000000000000
11
-54.4118820468343
21
10.0321022942924
31
0.000000000000000
  0
LINE
  5
F108B4
330
F108B5
100
AcDbEntity
8
Geo
100
AcDbLine
10
-54.4118820468343
20
10.0321022942924
30
0.000000000000000
11
-54.3118820468343
21
10.0021437083994
31
0.000000000000000
  0
LINE
  5
F108B6
330
F108B7
100
AcDbEntity
8
Geo
100
AcDbLine
10
-54.3118820468343
20
10.0021437083994
30
0.000000000000000
11
-54.2118820468343
21
9.97062100922504
31
0.000000000000000
  0
LINE
  5
F108B8
330
F108B9
100
AcDbEntity
8
Geo
100
AcDbLine
10
-54.2118820468343
20
9.97062100922504
30
0.000000000000000
11
-54.1118820468343
21
9.93754295287188
31
0.000000000000000
  0
LINE
  5
F108BA
330
F108BB
100
AcDbEntity
8
Geo
100
AcDbLine
10
-54.1118820468343
20
9.93754295287188
30
0.000000000000000
11
-54.0118820468343
21
9.90291872747624
31
0.000000000000000
  0
LINE
  5
F108BC
330
F108BD
100
AcDbEntity
8
Geo
100
AcDbLine
10
-54.0118820468343
20
9.90291872747624
30
0.000000000000000
11
-53.9118820468343
21
9.86675795065588
31
0.000000000000000
  0
LINE
  5
F108BE
330
F108BF
100
AcDbEntity
8
Geo
100
AcDbLine
10
-53.9118820468343
20
9.86675795065588
30
0.000000000000000
11
-53.8118820468343
21
9.82907066683851
31
0.000000000000000
  0
LINE
  5
F108C0
330
F108C1
100
AcDbEntity
8
Geo
100
AcDbLine
10
-53.8118820468343
20
9.82907066683851
30
0.000000000000000
11
-53.7118820468343
21
9.78986734447174
31
0.000000000000000
  0
LINE
  5
F108C2
330
F108C3
100
AcDbEntity
8
Geo
100
AcDbLine
10
-53.7118820468343
20
9.78986734447174
30
0.000000000000000
11
-53.6118820468343
21
9.74915887311529
31
0.000000000000000
  0
LINE
  5
F108C4
330
F108C5
100
AcDbEntity
8
Geo
100
AcDbLine
10
-53.6118820468343
20
9.74915887311529
30
0.000000000000000
11
-53.5118820468343
21
9.70695656041609
31
0.000000000000000
  0
LINE
  5
F108C6
330
F108C7
100
AcDbEntity
8
Geo
100
AcDbLine
10
-53.5118820468343
20
9.70695656041609
30
0.000000000000000
11
-53.4118820468343
21
9.66327212896742
31
0.000000000000000
  0
LINE
  5
F108C8
330
F108C9
100
AcDbEntity
8
Geo
100
AcDbLine
10
-53.4118820468343
20
9.66327212896742
30
0.000000000000000
11
-53.3118820468343
21
9.61811771305270
31
0.000000000000000
  0
LINE
  5
F108CA
330
F108CB
100
AcDbEntity
8
Geo
100
AcDbLine
10
-53.3118820468343
20
9.61811771305270
30
0.000000000000000
11
-53.2118820468343
21
9.57150585527488
31
0.000000000000000
  0
LINE
  5
F108CC
330
F108CD
100
AcDbEntity
8
Geo
100
AcDbLine
10
-53.2118820468343
20
9.57150585527488
30
0.000000000000000
11
-53.1118820468343
21
9.52344950307252
31
0.000000000000000
  0
LINE
  5
F108CE
330
F108CF
100
AcDbEntity
8
Geo
100
AcDbLine
10
-53.1118820468343
20
9.52344950307252
30
0.000000000000000
11
-53.0118820468343
21
9.47396200512335
31
0.000000000000000
  0
LINE
  5
F108D0
330
F108D1
100
AcDbEntity
8
Geo
100
AcDbLine
10
-53.0118820468343
20
9.47396200512335
30
0.000000000000000
11
-52.9118820468343
21
9.42305710763637
31
0.000000000000000
  0
LINE
  5
F108D2
330
F108D3
100
AcDbEntity
8
Geo
100
AcDbLine
10
-52.9118820468343
20
9.42305710763637
30
0.000000000000000
11
-52.8118820468343
21
9.37074895053356
31
0.000000000000000
  0
LINE
  5
F108D4
330
F108D5
100
AcDbEntity
8
Geo
100
AcDbLine
10
-52.8118820468343
20
9.37074895053356
30
0.000000000000000
11
-52.7118820468343
21
9.31705206352223
31
0.000000000000000
  0
LINE
  5
F108D6
330
F108D7
100
AcDbEntity
8
Geo
100
AcDbLine
10
-52.7118820468343
20
9.31705206352223
30
0.000000000000000
11
-52.6118820468343
21
9.26198136205904
31
0.000000000000000
  0
LINE
  5
F108D8
330
F108D9
100
AcDbEntity
8
Geo
100
AcDbLine
10
-52.6118820468343
20
9.26198136205904
30
0.000000000000000
11
-52.5118820468343
21
9.20555214320698
31
0.000000000000000
  0
LINE
  5
F108DA
330
F108DB
100
AcDbEntity
8
Geo
100
AcDbLine
10
-52.5118820468343
20
9.20555214320698
30
0.000000000000000
11
-52.4118820468343
21
9.14778008138621
31
0.000000000000000
  0
LINE
  5
F108DC
330
F108DD
100
AcDbEntity
8
Geo
100
AcDbLine
10
-52.4118820468343
20
9.14778008138621
30
0.000000000000000
11
-52.3118820468343
21
9.08868122402022
31
0.000000000000000
  0
LINE
  5
F108DE
330
F108DF
100
AcDbEntity
8
Geo
100
AcDbLine
10
-52.3118820468343
20
9.08868122402022
30
0.000000000000000
11
-52.2118820468343
21
9.02827198707826
31
0.000000000000000
  0
LINE
  5
F108E0
330
F108E1
100
AcDbEntity
8
Geo
100
AcDbLine
10
-52.2118820468343
20
9.02827198707826
30
0.000000000000000
11
-52.1118820468343
21
8.96656915051550
31
0.000000000000000
  0
LINE
  5
F108E2
330
F108E3
100
AcDbEntity
8
Geo
100
AcDbLine
10
-52.1118820468343
20
8.96656915051550
30
0.000000000000000
11
-52.0118820468343
21
8.90358985361202
31
0.000000000000000
  0
LINE
  5
F108E4
330
F108E5
100
AcDbEntity
8
Geo
100
AcDbLine
10
-52.0118820468343
20
8.90358985361202
30
0.000000000000000
11
-51.9118820468343
21
8.83935159021200
31
0.000000000000000
  0
LINE
  5
F108E6
330
F108E7
100
AcDbEntity
8
Geo
100
AcDbLine
10
-51.9118820468343
20
8.83935159021200
30
0.000000000000000
11
-51.8118820468343
21
8.77387220386445
31
0.000000000000000
  0
LINE
  5
F108E8
330
F108E9
100
AcDbEntity
8
Geo
100
AcDbLine
10
-51.8118820468343
20
8.77387220386445
30
0.000000000000000
11
-51.7118820468343
21
8.70716988286675
31
0.000000000000000
  0
LINE
  5
F108EA
330
F108EB
100
AcDbEntity
8
Geo
100
AcDbLine
10
-51.7118820468343
20
8.70716988286675
30
0.000000000000000
11
-51.6118820468343
21
8.63926315521253
31
0.000000000000000
  0
LINE
  5
F108EC
330
F108ED
100
AcDbEntity
8
Geo
100
AcDbLine
10
-51.6118820468343
20
8.63926315521253
30
0.000000000000000
11
-51.5118820468343
21
8.57017088344504
31
0.000000000000000
  0
LINE
  5
F108EE
330
F108EF
100
AcDbEntity
8
Geo
100
AcDbLine
10
-51.5118820468343
20
8.57017088344504
30
0.000000000000000
11
-51.4118820468343
21
8.49991225941774
31
0.000000000000000
  0
LINE
  5
F108F0
330
F108F1
100
AcDbEntity
8
Geo
100
AcDbLine
10
-51.4118820468343
20
8.49991225941774
30
0.000000000000000
11
-51.3118820468343
21
8.42850679896331
31
0.000000000000000
  0
LINE
  5
F108F2
330
F108F3
100
AcDbEntity
8
Geo
100
AcDbLine
10
-51.3118820468343
20
8.42850679896331
30
0.000000000000000
11
-51.2118820468343
21
8.35597433647274
31
0.000000000000000
  0
LINE
  5
F108F4
330
F108F5
100
AcDbEntity
8
Geo
100
AcDbLine
10
-51.2118820468343
20
8.35597433647274
30
0.000000000000000
11
-51.1118820468343
21
8.28233501938590
31
0.000000000000000
  0
LINE
  5
F108F6
330
F108F7
100
AcDbEntity
8
Geo
100
AcDbLine
10
-51.1118820468343
20
8.28233501938590
30
0.000000000000000
11
-51.0118820468343
21
8.20760930259516
31
0.000000000000000
  0
LINE
  5
F108F8
330
F108F9
100
AcDbEntity
8
Geo
100
AcDbLine
10
-51.0118820468343
20
8.20760930259516
30
0.000000000000000
11
-50.9118820468343
21
8.13181794276357
31
0.000000000000000
  0
LINE
  5
F108FA
330
F108FB
100
AcDbEntity
8
Geo
100
AcDbLine
10
-50.9118820468343
20
8.13181794276357
30
0.000000000000000
11
-50.8118820468343
21
8.05498199255931
31
0.000000000000000
  0
LINE
  5
F108FC
330
F108FD
100
AcDbEntity
8
Geo
100
AcDbLine
10
-50.8118820468343
20
8.05498199255931
30
0.000000000000000
11
-50.7118820468343
21
7.97712279480782
31
0.000000000000000
  0
LINE
  5
F108FE
330
F108FF
100
AcDbEntity
8
Geo
100
AcDbLine
10
-50.7118820468343
20
7.97712279480782
30
0.000000000000000
11
-50.6118820468343
21
7.89826197656340
31
0.000000000000000
  0
LINE
  5
F10900
330
F10901
100
AcDbEntity
8
Geo
100
AcDbLine
10
-50.6118820468343
20
7.89826197656340
30
0.000000000000000
11
-50.5118820468343
21
7.81842144310183
31
0.000000000000000
  0
LINE
  5
F10902
330
F10903
100
AcDbEntity
8
Geo
100
AcDbLine
10
-50.5118820468343
20
7.81842144310183
30
0.000000000000000
11
-50.4118820468343
21
7.73762337183570
31
0.000000000000000
  0
LINE
  5
F10904
330
F10905
100
AcDbEntity
8
Geo
100
AcDbLine
10
-50.4118820468343
20
7.73762337183570
30
0.000000000000000
11
-50.3118820468343
21
7.65589020615415
31
0.000000000000000
  0
LINE
  5
F10906
330
F10907
100
AcDbEntity
8
Geo
100
AcDbLine
10
-50.3118820468343
20
7.65589020615415
30
0.000000000000000
11
-50.2118820468343
21
7.57324464918878
31
0.000000000000000
  0
LINE
  5
F10908
330
F10909
100
AcDbEntity
8
Geo
100
AcDbLine
10
-50.2118820468343
20
7.57324464918878
30
0.000000000000000
11
-50.1118820468343
21
7.48970965750734
31
0.000000000000000
  0
LINE
  5
F1090A
330
F1090B
100
AcDbEntity
8
Geo
100
AcDbLine
10
-50.1118820468343
20
7.48970965750734
30
0.000000000000000
11
-50.0118820468343
21
7.40530843473705
31
0.000000000000000
  0
LINE
  5
F1090C
330
F1090D
100
AcDbEntity
8
Geo
100
AcDbLine
10
-50.0118820468343
20
7.40530843473705
30
0.000000000000000
11
-49.9118820468343
21
7.32006442511933
31
0.000000000000000
  0
LINE
  5
F1090E
330
F1090F
100
AcDbEntity
8
Geo
100
AcDbLine
10
-49.9118820468343
20
7.32006442511933
30
0.000000000000000
11
-49.8118820468343
21
7.23400130699760
31
0.000000000000000
  0
LINE
  5
F10910
330
F10911
100
AcDbEntity
8
Geo
100
AcDbLine
10
-49.8118820468343
20
7.23400130699760
30
0.000000000000000
11
-49.7118820468343
21
7.14714298624019
31
0.000000000000000
  0
LINE
  5
F10912
330
F10913
100
AcDbEntity
8
Geo
100
AcDbLine
10
-49.7118820468343
20
7.14714298624019
30
0.000000000000000
11
-49.6118820468343
21
7.05951358959993
31
0.000000000000000
  0
LINE
  5
F10914
330
F10915
100
AcDbEntity
8
Geo
100
AcDbLine
10
-49.6118820468343
20
7.05951358959993
30
0.000000000000000
11
-49.5118820468343
21
6.97113745801242
31
0.000000000000000
  0
LINE
  5
F10916
330
F10917
100
AcDbEntity
8
Geo
100
AcDbLine
10
-49.5118820468343
20
6.97113745801242
30
0.000000000000000
11
-49.4118820468343
21
6.88203913983485
31
0.000000000000000
  0
LINE
  5
F10918
330
F10919
100
AcDbEntity
8
Geo
100
AcDbLine
10
-49.4118820468343
20
6.88203913983485
30
0.000000000000000
11
-49.3118820468343
21
6.79224338402714
31
0.000000000000000
  0
LINE
  5
F1091A
330
F1091B
100
AcDbEntity
8
Geo
100
AcDbLine
10
-49.3118820468343
20
6.79224338402714
30
0.000000000000000
11
-49.2118820468343
21
6.70177513327741
31
0.000000000000000
  0
LINE
  5
F1091C
330
F1091D
100
AcDbEntity
8
Geo
100
AcDbLine
10
-49.2118820468343
20
6.70177513327741
30
0.000000000000000
11
-49.1118820468343
21
6.61065951707361
31
0.000000000000000
  0
LINE
  5
F1091E
330
F1091F
100
AcDbEntity
8
Geo
100
AcDbLine
10
-49.1118820468343
20
6.61065951707361
30
0.000000000000000
11
-49.0118820468343
21
6.51892184472326
31
0.000000000000000
  0
LINE
  5
F10920
330
F10921
100
AcDbEntity
8
Geo
100
AcDbLine
10
-49.0118820468343
20
6.51892184472326
30
0.000000000000000
11
-48.9118820468343
21
6.42658759832323
31
0.000000000000000
  0
LINE
  5
F10922
330
F10923
100
AcDbEntity
8
Geo
100
AcDbLine
10
-48.9118820468343
20
6.42658759832323
30
0.000000000000000
11
-48.8118820468343
21
6.33368242568162
31
0.000000000000000
  0
LINE
  5
F10924
330
F10925
100
AcDbEntity
8
Geo
100
AcDbLine
10
-48.8118820468343
20
6.33368242568162
30
0.000000000000000
11
-48.7118820468343
21
6.24023213319343
31
0.000000000000000
  0
LINE
  5
F10926
330
F10927
100
AcDbEntity
8
Geo
100
AcDbLine
10
-48.7118820468343
20
6.24023213319343
30
0.000000000000000
11
-48.6118820468343
21
6.14626267867236
31
0.000000000000000
  0
LINE
  5
F10928
330
F10929
100
AcDbEntity
8
Geo
100
AcDbLine
10
-48.6118820468343
20
6.14626267867236
30
0.000000000000000
11
-48.5118820468343
21
6.05180016414046
31
0.000000000000000
  0
LINE
  5
F1092A
330
F1092B
100
AcDbEntity
8
Geo
100
AcDbLine
10
-48.5118820468343
20
6.05180016414046
30
0.000000000000000
11
-48.4118820468343
21
5.95687082857769
31
0.000000000000000
  0
LINE
  5
F1092C
330
F1092D
100
AcDbEntity
8
Geo
100
AcDbLine
10
-48.4118820468343
20
5.95687082857769
30
0.000000000000000
11
-48.3118820468343
21
5.86150104063354
31
0.000000000000000
  0
LINE
  5
F1092E
330
F1092F
100
AcDbEntity
8
Geo
100
AcDbLine
10
-48.3118820468343
20
5.86150104063354
30
0.000000000000000
11
-48.2118820468343
21
5.76571729130255
31
0.000000000000000
  0
LINE
  5
F10930
330
F10931
100
AcDbEntity
8
Geo
100
AcDbLine
10
-48.2118820468343
20
5.76571729130255
30
0.000000000000000
11
-48.1118820468343
21
5.66954618656586
31
0.000000000000000
  0
LINE
  5
F10932
330
F10933
100
AcDbEntity
8
Geo
100
AcDbLine
10
-48.1118820468343
20
5.66954618656586
30
0.000000000000000
11
-48.0118820468343
21
5.57301444000086
31
0.000000000000000
  0
LINE
  5
F10934
330
F10935
100
AcDbEntity
8
Geo
100
AcDbLine
10
-48.0118820468343
20
5.57301444000086
30
0.000000000000000
11
-47.9118820468343
21
5.47614886536090
31
0.000000000000000
  0
LINE
  5
F10936
330
F10937
100
AcDbEntity
8
Geo
100
AcDbLine
10
-47.9118820468343
20
5.47614886536090
30
0.000000000000000
11
-47.8118820468343
21
5.37897636912720
31
0.000000000000000
  0
LINE
  5
F10938
330
F10939
100
AcDbEntity
8
Geo
100
AcDbLine
10
-47.8118820468343
20
5.37897636912720
30
0.000000000000000
11
-47.7118820468343
21
5.28152394303500
31
0.000000000000000
  0
LINE
  5
F1093A
330
F1093B
100
AcDbEntity
8
Geo
100
AcDbLine
10
-47.7118820468343
20
5.28152394303500
30
0.000000000000000
11
-47.6118820468343
21
5.18381865657605
31
0.000000000000000
  0
LINE
  5
F1093C
330
F1093D
100
AcDbEntity
8
Geo
100
AcDbLine
10
-47.6118820468343
20
5.18381865657605
30
0.000000000000000
11
-47.5118820468343
21
5.08588764947945
31
0.000000000000000
  0
LINE
  5
F1093E
330
F1093F
100
AcDbEntity
8
Geo
100
AcDbLine
10
-47.5118820468343
20
5.08588764947945
30
0.000000000000000
11
-47.4118820468343
21
4.98775812417304
31
0.000000000000000
  0
LINE
  5
F10940
330
F10941
100
AcDbEntity
8
Geo
100
AcDbLine
10
-47.4118820468343
20
4.98775812417304
30
0.000000000000000
11
-47.3118820468343
21
4.88945733822732
31
0.000000000000000
  0
LINE
  5
F10942
330
F10943
100
AcDbEntity
8
Geo
100
AcDbLine
10
-47.3118820468343
20
4.88945733822732
30
0.000000000000000
11
-47.2118820468343
21
4.79101259678409
31
0.000000000000000
  0
LINE
  5
F10944
330
F10945
100
AcDbEntity
8
Geo
100
AcDbLine
10
-47.2118820468343
20
4.79101259678409
30
0.000000000000000
11
-47.1118820468343
21
4.69245124497187
31
0.000000000000000
  0
LINE
  5
F10946
330
F10947
100
AcDbEntity
8
Geo
100
AcDbLine
10
-47.1118820468343
20
4.69245124497187
30
0.000000000000000
11
-47.0118820468343
21
4.59380066031018
31
0.000000000000000
  0
LINE
  5
F10948
330
F10949
100
AcDbEntity
8
Geo
100
AcDbLine
10
-47.0118820468343
20
4.59380066031018
30
0.000000000000000
11
-46.9118820468343
21
4.49508824510490
31
0.000000000000000
  0
LINE
  5
F1094A
330
F1094B
100
AcDbEntity
8
Geo
100
AcDbLine
10
-46.9118820468343
20
4.49508824510490
30
0.000000000000000
11
-46.8118820468343
21
4.39634141883663
31
0.000000000000000
  0
LINE
  5
F1094C
330
F1094D
100
AcDbEntity
8
Geo
100
AcDbLine
10
-46.8118820468343
20
4.39634141883663
30
0.000000000000000
11
-46.7118820468343
21
4.29758761054440
31
0.000000000000000
  0
LINE
  5
F1094E
330
F1094F
100
AcDbEntity
8
Geo
100
AcDbLine
10
-46.7118820468343
20
4.29758761054440
30
0.000000000000000
11
-46.6118820468343
21
4.19885425120665
31
0.000000000000000
  0
LINE
  5
F10950
330
F10951
100
AcDbEntity
8
Geo
100
AcDbLine
10
-46.6118820468343
20
4.19885425120665
30
0.000000000000000
11
-46.5118820468343
21
4.10016876612165
31
0.000000000000000
  0
LINE
  5
F10952
330
F10953
100
AcDbEntity
8
Geo
100
AcDbLine
10
-46.5118820468343
20
4.10016876612165
30
0.000000000000000
11
-46.4118820468343
21
4.00155856728963
31
0.000000000000000
  0
LINE
  5
F10954
330
F10955
100
AcDbEntity
8
Geo
100
AcDbLine
10
-46.4118820468343
20
4.00155856728963
30
0.000000000000000
11
-46.3118820468343
21
3.90305104579840
31
0.000000000000000
  0
LINE
  5
F10956
330
F10957
100
AcDbEntity
8
Geo
100
AcDbLine
10
-46.3118820468343
20
3.90305104579840
30
0.000000000000000
11
-46.2118820468343
21
3.80467356421499
31
0.000000000000000
  0
LINE
  5
F10958
330
F10959
100
AcDbEntity
8
Geo
100
AcDbLine
10
-46.2118820468343
20
3.80467356421499
30
0.000000000000000
11
-46.1118820468343
21
3.70645344898504
31
0.000000000000000
  0
LINE
  5
F1095A
330
F1095B
100
AcDbEntity
8
Geo
100
AcDbLine
10
-46.1118820468343
20
3.70645344898504
30
0.000000000000000
11
-46.0118820468343
21
3.60841798284235
31
0.000000000000000
  0
LINE
  5
F1095C
330
F1095D
100
AcDbEntity
8
Geo
100
AcDbLine
10
-46.0118820468343
20
3.60841798284235
30
0.000000000000000
11
-45.9118820468343
21
3.51059439723047
31
0.000000000000000
  0
LINE
  5
F1095E
330
F1095F
100
AcDbEntity
8
Geo
100
AcDbLine
10
-45.9118820468343
20
3.51059439723047
30
0.000000000000000
11
-45.8118820468343
21
3.41300986473863
31
0.000000000000000
  0
LINE
  5
F10960
330
F10961
100
AcDbEntity
8
Geo
100
AcDbLine
10
-45.8118820468343
20
3.41300986473863
30
0.000000000000000
11
-45.7118820468343
21
3.31569149155394
31
0.000000000000000
  0
LINE
  5
F10962
330
F10963
100
AcDbEntity
8
Geo
100
AcDbLine
10
-45.7118820468343
20
3.31569149155394
30
0.000000000000000
11
-45.6118820468343
21
3.21866630993209
31
0.000000000000000
  0
LINE
  5
F10964
330
F10965
100
AcDbEntity
8
Geo
100
AcDbLine
10
-45.6118820468343
20
3.21866630993209
30
0.000000000000000
11
-45.5118820468343
21
3.12196127068855
31
0.000000000000000
  0
LINE
  5
F10966
330
F10967
100
AcDbEntity
8
Geo
100
AcDbLine
10
-45.5118820468343
20
3.12196127068855
30
0.000000000000000
11
-45.4118820468343
21
3.02560323571240
31
0.000000000000000
  0
LINE
  5
F10968
330
F10969
100
AcDbEntity
8
Geo
100
AcDbLine
10
-45.4118820468343
20
3.02560323571240
30
0.000000000000000
11
-45.3118820468343
21
2.92961897050490
31
0.000000000000000
  0
LINE
  5
F1096A
330
F1096B
100
AcDbEntity
8
Geo
100
AcDbLine
10
-45.3118820468343
20
2.92961897050490
30
0.000000000000000
11
-45.2118820468343
21
2.83403513674475
31
0.000000000000000
  0
LINE
  5
F1096C
330
F1096D
100
AcDbEntity
8
Geo
100
AcDbLine
10
-45.2118820468343
20
2.83403513674475
30
0.000000000000000
11
-45.1118820468343
21
2.73887828488229
31
0.000000000000000
  0
LINE
  5
F1096E
330
F1096F
100
AcDbEntity
8
Geo
100
AcDbLine
10
-45.1118820468343
20
2.73887828488229
30
0.000000000000000
11
-45.0118820468343
21
2.64417484676451
31
0.000000000000000
  0
LINE
  5
F10970
330
F10971
100
AcDbEntity
8
Geo
100
AcDbLine
10
-45.0118820468343
20
2.64417484676451
30
0.000000000000000
11
-44.9118820468344
21
2.54995112829305
31
0.000000000000000
  0
LINE
  5
F10972
330
F10973
100
AcDbEntity
8
Geo
100
AcDbLine
10
-44.9118820468344
20
2.54995112829305
30
0.000000000000000
11
-44.8118820468343
21
2.45623330211720
31
0.000000000000000
  0
LINE
  5
F10974
330
F10975
100
AcDbEntity
8
Geo
100
AcDbLine
10
-44.8118820468343
20
2.45623330211720
30
0.000000000000000
11
-44.7118820468343
21
2.36304740036384
31
0.000000000000000
  0
LINE
  5
F10976
330
F10977
100
AcDbEntity
8
Geo
100
AcDbLine
10
-44.7118820468343
20
2.36304740036384
30
0.000000000000000
11
-44.6118820468343
21
2.27041930740650
31
0.000000000000000
  0
LINE
  5
F10978
330
F10979
100
AcDbEntity
8
Geo
100
AcDbLine
10
-44.6118820468343
20
2.27041930740650
30
0.000000000000000
11
-44.5118820468343
21
2.17837475267540
31
0.000000000000000
  0
LINE
  5
F1097A
330
F1097B
100
AcDbEntity
8
Geo
100
AcDbLine
10
-44.5118820468343
20
2.17837475267540
30
0.000000000000000
11
-44.4118820468344
21
2.08693930351056
31
0.000000000000000
  0
LINE
  5
F1097C
330
F1097D
100
AcDbEntity
8
Geo
100
AcDbLine
10
-44.4118820468344
20
2.08693930351056
30
0.000000000000000
11
-44.3118820468343
21
1.99613835805995
31
0.000000000000000
  0
LINE
  5
F1097E
330
F1097F
100
AcDbEntity
8
Geo
100
AcDbLine
10
-44.3118820468343
20
1.99613835805995
30
0.000000000000000
11
-44.2118820468343
21
1.90599713822454
31
0.000000000000000
  0
LINE
  5
F10980
330
F10981
100
AcDbEntity
8
Geo
100
AcDbLine
10
-44.2118820468343
20
1.90599713822454
30
0.000000000000000
11
-44.1118820468344
21
1.81654068265249
31
0.000000000000000
  0
LINE
  5
F10982
330
F10983
100
AcDbEntity
8
Geo
100
AcDbLine
10
-44.1118820468344
20
1.81654068265249
30
0.000000000000000
11
-44.0118820468344
21
1.72779383978400
31
0.000000000000000
  0
LINE
  5
F10984
330
F10985
100
AcDbEntity
8
Geo
100
AcDbLine
10
-44.0118820468344
20
1.72779383978400
30
0.000000000000000
11
-43.9118820468344
21
1.63978126094925
31
0.000000000000000
  0
LINE
  5
F10986
330
F10987
100
AcDbEntity
8
Geo
100
AcDbLine
10
-43.9118820468344
20
1.63978126094925
30
0.000000000000000
11
-43.8118820468343
21
1.55252739352088
31
0.000000000000000
  0
LINE
  5
F10988
330
F10989
100
AcDbEntity
8
Geo
100
AcDbLine
10
-43.8118820468343
20
1.55252739352088
30
0.000000000000000
11
-43.7118820468343
21
1.46605647412324
31
0.000000000000000
  0
LINE
  5
F1098A
330
F1098B
100
AcDbEntity
8
Geo
100
AcDbLine
10
-43.7118820468343
20
1.46605647412324
30
0.000000000000000
11
-43.6118820468344
21
1.38039252190015
31
0.000000000000000
  0
LINE
  5
F1098C
330
F1098D
100
AcDbEntity
8
Geo
100
AcDbLine
10
-43.6118820468344
20
1.38039252190015
30
0.000000000000000
11
-43.5118820468344
21
1.29555933184310
31
0.000000000000000
  0
LINE
  5
F1098E
330
F1098F
100
AcDbEntity
8
Geo
100
AcDbLine
10
-43.5118820468344
20
1.29555933184310
30
0.000000000000000
11
-43.4118820468344
21
1.21158046818161
31
0.000000000000000
  0
LINE
  5
F10990
330
F10991
100
AcDbEntity
8
Geo
100
AcDbLine
10
-43.4118820468344
20
1.21158046818161
30
0.000000000000000
11
-43.3118820468344
21
1.12847925783784
31
0.000000000000000
  0
LINE
  5
F10992
330
F10993
100
AcDbEntity
8
Geo
100
AcDbLine
10
-43.3118820468344
20
1.12847925783784
30
0.000000000000000
11
-43.2118820468344
21
1.04627878394697
31
0.000000000000000
  0
LINE
  5
F10994
330
F10995
100
AcDbEntity
8
Geo
100
AcDbLine
10
-43.2118820468344
20
1.04627878394697
30
0.000000000000000
11
-43.1118820468344
21
0.965001879445444
31
0.000000000000000
  0
LINE
  5
F10996
330
F10997
100
AcDbEntity
8
Geo
100
AcDbLine
10
-43.1118820468344
20
0.965001879445444
30
0.000000000000000
11
-43.0118820468344
21
0.884671120728560
31
0.000000000000000
  0
LINE
  5
F10998
330
F10999
100
AcDbEntity
8
Geo
100
AcDbLine
10
-43.0118820468344
20
0.884671120728560
30
0.000000000000000
11
-42.9118820468344
21
0.805308821379435
31
0.000000000000000
  0
LINE
  5
F1099A
330
F1099B
100
AcDbEntity
8
Geo
100
AcDbLine
10
-42.9118820468344
20
0.805308821379435
30
0.000000000000000
11
-42.8118820468344
21
0.726937025970925
31
0.000000000000000
  0
LINE
  5
F1099C
330
F1099D
100
AcDbEntity
8
Geo
100
AcDbLine
10
-42.8118820468344
20
0.726937025970925
30
0.000000000000000
11
-42.7118820468344
21
0.649577503942273
31
0.000000000000000
  0
LINE
  5
F1099E
330
F1099F
100
AcDbEntity
8
Geo
100
AcDbLine
10
-42.7118820468344
20
0.649577503942273
30
0.000000000000000
11
-42.6118820468344
21
0.573251743552173
31
0.000000000000000
  0
LINE
  5
F109A0
330
F109A1
100
AcDbEntity
8
Geo
100
AcDbLine
10
-42.6118820468344
20
0.573251743552173
30
0.000000000000000
11
-42.5118820468344
21
0.497980945909965
31
0.000000000000000
  0
LINE
  5
F109A2
330
F109A3
100
AcDbEntity
8
Geo
100
AcDbLine
10
-42.5118820468344
20
0.497980945909965
30
0.000000000000000
11
-42.4118820468344
21
0.423786019086555
31
0.000000000000000
  0
LINE
  5
F109A4
330
F109A5
100
AcDbEntity
8
Geo
100
AcDbLine
10
-42.4118820468344
20
0.423786019086555
30
0.000000000000000
11
-42.3118820468344
21
0.350687572306770
31
0.000000000000000
  0
LINE
  5
F109A6
330
F109A7
100
AcDbEntity
8
Geo
100
AcDbLine
10
-42.3118820468344
20
0.350687572306770
30
0.000000000000000
11
-42.2118820468344
21
0.278705910224691
31
0.000000000000000
  0
LINE
  5
F109A8
330
F109A9
100
AcDbEntity
8
Geo
100
AcDbLine
10
-42.2118820468344
20
0.278705910224691
30
0.000000000000000
11
-42.1118820468344
21
0.207861027283613
31
0.000000000000000
  0
LINE
  5
F109AA
330
F109AB
100
AcDbEntity
8
Geo
100
AcDbLine
10
-42.1118820468344
20
0.207861027283613
30
0.000000000000000
11
-42.0118820468344
21
0.138172602162155
31
0.000000000000000
  0
LINE
  5
F109AC
330
F109AD
100
AcDbEntity
8
Geo
100
AcDbLine
10
-42.0118820468344
20
0.138172602162155
30
0.000000000000000
11
-41.9118820468344
21
0.0696599923080878
31
0.000000000000000
  0
LINE
  5
F109AE
330
F109AF
100
AcDbEntity
8
Geo
100
AcDbLine
10
-41.9118820468344
20
0.0696599923080878
30
0.000000000000000
11
-41.8118820468344
21
0.00234222856138988
31
0.000000000000000
  0
LINE
  5
F109B0
330
F109B1
100
AcDbEntity
8
Geo
100
AcDbLine
10
-41.8118820468344
20
0.00234222856138988
30
0.000000000000000
11
-41.7118820468344
21
-0.0637619901319670
31
0.000000000000000
  0
LINE
  5
F109B2
330
F109B3
100
AcDbEntity
8
Geo
100
AcDbLine
10
-41.7118820468344
20
-0.0637619901319670
30
0.000000000000000
11
-41.6118820468344
21
-0.128634301914065
31
0.000000000000000
  0
LINE
  5
F109B4
330
F109B5
100
AcDbEntity
8
Geo
100
AcDbLine
10
-41.6118820468344
20
-0.128634301914065
30
0.000000000000000
11
-41.5118820468344
21
-0.192256687115425
31
0.000000000000000
  0
LINE
  5
F109B6
330
F109B7
100
AcDbEntity
8
Geo
100
AcDbLine
10
-41.5118820468344
20
-0.192256687115425
30
0.000000000000000
11
-41.4118820468344
21
-0.254611473260362
31
0.000000000000000
  0
LINE
  5
F109B8
330
F109B9
100
AcDbEntity
8
Geo
100
AcDbLine
10
-41.4118820468344
20
-0.254611473260362
30
0.000000000000000
11
-41.3118820468344
21
-0.315681339975883
31
0.000000000000000
  0
LINE
  5
F109BA
330
F109BB
100
AcDbEntity
8
Geo
100
AcDbLine
10
-41.3118820468344
20
-0.315681339975883
30
0.000000000000000
11
-41.2118820468344
21
-0.375449323802804
31
0.000000000000000
  0
LINE
  5
F109BC
330
F109BD
100
AcDbEntity
8
Geo
100
AcDbLine
10
-41.2118820468344
20
-0.375449323802804
30
0.000000000000000
11
-41.1118820468344
21
-0.433898822907698
31
0.000000000000000
  0
LINE
  5
F109BE
330
F109BF
100
AcDbEntity
8
Geo
100
AcDbLine
10
-41.1118820468344
20
-0.433898822907698
30
0.000000000000000
11
-41.0118820468344
21
-0.491013601694423
31
0.000000000000000
  0
LINE
  5
F109C0
330
F109C1
100
AcDbEntity
8
Geo
100
AcDbLine
10
-41.0118820468344
20
-0.491013601694423
30
0.000000000000000
11
-40.9118820468344
21
-0.546777795313900
31
0.000000000000000
  0
LINE
  5
F109C2
330
F109C3
100
AcDbEntity
8
Geo
100
AcDbLine
10
-40.9118820468344
20
-0.546777795313900
30
0.000000000000000
11
-40.8118820468344
21
-0.601175914070905
31
0.000000000000000
  0
LINE
  5
F109C4
330
F109C5
100
AcDbEntity
8
Geo
100
AcDbLine
10
-40.8118820468344
20
-0.601175914070905
30
0.000000000000000
11
-40.7118820468344
21
-0.654192847726673
31
0.000000000000000
  0
LINE
  5
F109C6
330
F109C7
100
AcDbEntity
8
Geo
100
AcDbLine
10
-40.7118820468344
20
-0.654192847726673
30
0.000000000000000
11
-40.6118820468344
21
-0.705813869696085
31
0.000000000000000
  0
LINE
  5
F109C8
330
F109C9
100
AcDbEntity
8
Geo
100
AcDbLine
10
-40.6118820468344
20
-0.705813869696085
30
0.000000000000000
11
-40.5118820468344
21
-0.756024641138300
31
0.000000000000000
  0
LINE
  5
F109CA
330
F109CB
100
AcDbEntity
8
Geo
100
AcDbLine
10
-40.5118820468344
20
-0.756024641138300
30
0.000000000000000
11
-40.4118820468344
21
-0.804811214939653
31
0.000000000000000
  0
LINE
  5
F109CC
330
F109CD
100
AcDbEntity
8
Geo
100
AcDbLine
10
-40.4118820468344
20
-0.804811214939653
30
0.000000000000000
11
-40.3118820468344
21
-0.852160039587790
31
0.000000000000000
  0
LINE
  5
F109CE
330
F109CF
100
AcDbEntity
8
Geo
100
AcDbLine
10
-40.3118820468344
20
-0.852160039587790
30
0.000000000000000
11
-40.2118820468344
21
-0.898057962935868
31
0.000000000000000
  0
LINE
  5
F109D0
330
F109D1
100
AcDbEntity
8
Geo
100
AcDbLine
10
-40.2118820468344
20
-0.898057962935868
30
0.000000000000000
11
-40.1118820468344
21
-0.942492235855863
31
0.000000000000000
  0
LINE
  5
F109D2
330
F109D3
100
AcDbEntity
8
Geo
100
AcDbLine
10
-40.1118820468344
20
-0.942492235855863
30
0.000000000000000
11
-40.0118820468344
21
-0.985450515779894
31
0.000000000000000
  0
LINE
  5
F109D4
330
F109D5
100
AcDbEntity
8
Geo
100
AcDbLine
10
-40.0118820468344
20
-0.985450515779894
30
0.000000000000000
11
-39.9118820468344
21
-1.02692087012865
31
0.000000000000000
  0
LINE
  5
F109D6
330
F109D7
100
AcDbEntity
8
Geo
100
AcDbLine
10
-39.9118820468344
20
-1.02692087012865
30
0.000000000000000
11
-39.8118820468344
21
-1.06689177962590
31
0.000000000000000
  0
LINE
  5
F109D8
330
F109D9
100
AcDbEntity
8
Geo
100
AcDbLine
10
-39.8118820468344
20
-1.06689177962590
30
0.000000000000000
11
-39.7118820468344
21
-1.10535214149826
31
0.000000000000000
  0
LINE
  5
F109DA
330
F109DB
100
AcDbEntity
8
Geo
100
AcDbLine
10
-39.7118820468344
20
-1.10535214149826
30
0.000000000000000
11
-39.6118820468344
21
-1.14229127255915
31
0.000000000000000
  0
LINE
  5
F109DC
330
F109DD
100
AcDbEntity
8
Geo
100
AcDbLine
10
-39.6118820468344
20
-1.14229127255915
30
0.000000000000000
11
-39.5118820468344
21
-1.17769891217637
31
0.000000000000000
  0
LINE
  5
F109DE
330
F109DF
100
AcDbEntity
8
Geo
100
AcDbLine
10
-39.5118820468344
20
-1.17769891217637
30
0.000000000000000
11
-39.4118820468344
21
-1.21156522512214
31
0.000000000000000
  0
LINE
  5
F109E0
330
F109E1
100
AcDbEntity
8
Geo
100
AcDbLine
10
-39.4118820468344
20
-1.21156522512214
30
0.000000000000000
11
-39.3118820468344
21
-1.24388080430506
31
0.000000000000000
  0
LINE
  5
F109E2
330
F109E3
100
AcDbEntity
8
Geo
100
AcDbLine
10
-39.3118820468344
20
-1.24388080430506
30
0.000000000000000
11
-39.2118820468344
21
-1.27463667338315
31
0.000000000000000
  0
LINE
  5
F109E4
330
F109E5
100
AcDbEntity
8
Geo
100
AcDbLine
10
-39.2118820468344
20
-1.27463667338315
30
0.000000000000000
11
-39.1118820468344
21
-1.30382428925719
31
0.000000000000000
  0
LINE
  5
F109E6
330
F109E7
100
AcDbEntity
8
Geo
100
AcDbLine
10
-39.1118820468344
20
-1.30382428925719
30
0.000000000000000
11
-39.0118820468344
21
-1.33143554444380
31
0.000000000000000
  0
LINE
  5
F109E8
330
F109E9
100
AcDbEntity
8
Geo
100
AcDbLine
10
-39.0118820468344
20
-1.33143554444380
30
0.000000000000000
11
-38.9118820468344
21
-1.35746276932741
31
0.000000000000000
  0
LINE
  5
F109EA
330
F109EB
100
AcDbEntity
8
Geo
100
AcDbLine
10
-38.9118820468344
20
-1.35746276932741
30
0.000000000000000
11
-38.8118820468344
21
-1.38189873429067
31
0.000000000000000
  0
LINE
  5
F109EC
330
F109ED
100
AcDbEntity
8
Geo
100
AcDbLine
10
-38.8118820468344
20
-1.38189873429067
30
0.000000000000000
11
-38.7118820468344
21
-1.40473665172267
31
0.000000000000000
  0
LINE
  5
F109EE
330
F109EF
100
AcDbEntity
8
Geo
100
AcDbLine
10
-38.7118820468344
20
-1.40473665172267
30
0.000000000000000
11
-38.6118820468344
21
-1.42597017790430
31
0.000000000000000
  0
LINE
  5
F109F0
330
F109F1
100
AcDbEntity
8
Geo
100
AcDbLine
10
-38.6118820468344
20
-1.42597017790430
30
0.000000000000000
11
-38.5118820468344
21
-1.44559341477037
31
0.000000000000000
  0
LINE
  5
F109F2
330
F109F3
100
AcDbEntity
8
Geo
100
AcDbLine
10
-38.5118820468344
20
-1.44559341477037
30
0.000000000000000
11
-38.4118820468344
21
-1.46360091154793
31
0.000000000000000
  0
LINE
  5
F109F4
330
F109F5
100
AcDbEntity
8
Geo
100
AcDbLine
10
-38.4118820468344
20
-1.46360091154793
30
0.000000000000000
11
-38.3118820468343
21
-1.47998766627034
31
0.000000000000000
  0
LINE
  5
F109F6
330
F109F7
100
AcDbEntity
8
Geo
100
AcDbLine
10
-38.3118820468343
20
-1.47998766627034
30
0.000000000000000
11
-38.2118820468343
21
-1.49474912716664
31
0.000000000000000
  0
LINE
  5
F109F8
330
F109F9
100
AcDbEntity
8
Geo
100
AcDbLine
10
-38.2118820468343
20
-1.49474912716664
30
0.000000000000000
11
-38.1118820468343
21
-1.50788119392594
31
0.000000000000000
  0
LINE
  5
F109FA
330
F109FB
100
AcDbEntity
8
Geo
100
AcDbLine
10
-38.1118820468343
20
-1.50788119392594
30
0.000000000000000
11
-38.0118820468343
21
-1.51938021883637
31
0.000000000000000
  0
LINE
  5
F109FC
330
F109FD
100
AcDbEntity
8
Geo
100
AcDbLine
10
-38.0118820468343
20
-1.51938021883637
30
0.000000000000000
11
-37.9118820468343
21
-1.52924300779828
31
0.000000000000000
  0
LINE
  5
F109FE
330
F109FF
100
AcDbEntity
8
Geo
100
AcDbLine
10
-37.9118820468343
20
-1.52924300779828
30
0.000000000000000
11
-37.8118820468343
21
-1.53746682121148
31
0.000000000000000
  0
LINE
  5
F10A00
330
F10A01
100
AcDbEntity
8
Geo
100
AcDbLine
10
-37.8118820468343
20
-1.53746682121148
30
0.000000000000000
11
-37.7118820468343
21
-1.54404937473624
31
0.000000000000000
  0
LINE
  5
F10A02
330
F10A03
100
AcDbEntity
8
Geo
100
AcDbLine
10
-37.7118820468343
20
-1.54404937473624
30
0.000000000000000
11
-37.6118820468343
21
-1.54898883992780
31
0.000000000000000
  0
LINE
  5
F10A04
330
F10A05
100
AcDbEntity
8
Geo
100
AcDbLine
10
-37.6118820468343
20
-1.54898883992780
30
0.000000000000000
11
-37.5118820468343
21
-1.55228384474424
31
0.000000000000000
  0
LINE
  5
F10A06
330
F10A07
100
AcDbEntity
8
Geo
100
AcDbLine
10
-37.5118820468343
20
-1.55228384474424
30
0.000000000000000
11
-37.4118820468343
21
-1.55393347392764
31
0.000000000000000
  0
LINE
  5
F10A08
330
F10A09
100
AcDbEntity
8
Geo
100
AcDbLine
10
-37.4118820468343
20
-1.55393347392764
30
0.000000000000000
11
-37.3616514606265
21
-1.62879444926278
31
0.000000000000000
  0
LINE
  5
F10A0A
330
F10A0B
100
AcDbEntity
8
Geo
100
AcDbLine
10
64.3881179531657
20
9.37120555073722
30
0.000000000000000
11
64.3881179531657
21
4.37120555073722
31
0.000000000000000
  0
LINE
  5
F10A0C
330
F10A0D
100
AcDbEntity
8
Geo
100
AcDbLine
10
-55.6118820468343
20
4.37120555073722
30
0.000000000000000
11
-55.6118820468343
21
-1.47879444926278
31
0.000000000000000
  0
LINE
  5
F10A0E
330
F10A0F
100
AcDbEntity
8
Geo
100
AcDbLine
10
-55.6118820468343
20
-1.47879444926278
30
0.000000000000000
11
-55.4618820468343
21
-1.62879444926278
31
0.000000000000000
  0
LINE
  5
F10A10
330
F10A11
100
AcDbEntity
8
Geo
100
AcDbLine
10
-55.4618820468343
20
-1.62879444926278
30
0.000000000000000
11
-27.6118820468343
21
-1.62879444926278
31
0.000000000000000
  0
LINE
  5
F10A12
330
F10A13
100
AcDbEntity
8
Geo
100
AcDbLine
10
-27.6118820468343
20
-1.62879444926278
30
0.000000000000000
11
-27.6118820468343
21
-1.32879444926278
31
0.000000000000000
  0
LINE
  5
F10A14
330
F10A15
100
AcDbEntity
8
Geo
100
AcDbLine
10
-27.6118820468343
20
-1.32879444926278
30
0.000000000000000
11
16.3881179531657
21
-1.32879444926278
31
0.000000000000000
  0
LINE
  5
F10A16
330
F10A17
100
AcDbEntity
8
Geo
100
AcDbLine
10
16.3881179531657
20
-1.32879444926278
30
0.000000000000000
11
17.2881179531657
21
-1.62879444926278
31
0.000000000000000
  0
LINE
  5
F10A18
330
F10A19
100
AcDbEntity
8
Geo
100
AcDbLine
10
17.2881179531657
20
-1.62879444926278
30
0.000000000000000
11
63.3881179531657
21
-1.62879444926278
31
0.000000000000000
  0
LINE
  5
F10A1A
330
F10A1B
100
AcDbEntity
8
Geo
100
AcDbLine
10
63.3881179531657
20
-1.62879444926278
30
0.000000000000000
11
64.3881179531657
21
-0.628794449262784
31
0.000000000000000
  0
LINE
  5
F10A1C
330
F10A1D
100
AcDbEntity
8
Geo
100
AcDbLine
10
-55.6118820468343
20
10.2212055507372
30
0.000000000000000
11
-55.6118820468343
21
-1.47879444926278
31
0.000000000000000
  0
LINE
  5
F10A1E
330
F10A1F
100
AcDbEntity
8
Geo
100
AcDbLine
10
-55.4618820468343
20
10.3712055507372
30
0.000000000000000
11
-55.4618820468343
21
-1.62879444926278
31
0.000000000000000
  0
LINE
  5
F10A20
330
F10A21
100
AcDbEntity
8
Geo
100
AcDbLine
10
-55.4618820468343
20
10.3712055507372
30
0.000000000000000
11
-55.4618820468343
21
-1.62879444926278
31
0.000000000000000
  0
LINE
  5
F10A22
330
F10A23
100
AcDbEntity
8
Geo
100
AcDbLine
10
-27.6118820468343
20
10.3712055507372
30
0.000000000000000
11
-27.6118820468343
21
-1.62879444926278
31
0.000000000000000
  0
LINE
  5
F10A24
330
F10A25
100
AcDbEntity
8
Geo
100
AcDbLine
10
-27.6118820468343
20
10.0712055507372
30
0.000000000000000
11
-27.6118820468343
21
-1.32879444926278
31
0.000000000000000
  0
LINE
  5
F10A26
330
F10A27
100
AcDbEntity
8
Geo
100
AcDbLine
10
16.3881179531657
20
10.0712055507372
30
0.000000000000000
11
16.3881179531657
21
-1.32879444926278
31
0.000000000000000
  0
LINE
  5
F10A28
330
F10A29
100
AcDbEntity
8
Geo
100
AcDbLine
10
17.2881179531657
20
10.3712055507372
30
0.000000000000000
11
17.2881179531657
21
-1.62879444926278
31
0.000000000000000
  0
LINE
  5
F10A2A
330
F10A2B
100
AcDbEntity
8
Geo
100
AcDbLine
10
17.2881179531657
20
10.3712055507372
30
0.000000000000000
11
17.2881179531657
21
-1.62879444926278
31
0.000000000000000
  0
LINE
  5
F10A2C
330
F10A2D
100
AcDbEntity
8
Geo
100
AcDbLine
10
63.3881179531657
20
10.3712055507372
30
0.000000000000000
11
63.3881179531657
21
-1.62879444926278
31
0.000000000000000
  0
LINE
  5
F10A2E
330
F10A2F
100
AcDbEntity
8
Geo
100
AcDbLine
10
64.3881179531657
20
9.37120555073722
30
0.000000000000000
11
64.3881179531657
21
-0.628794449262784
31
0.000000000000000
  0
LINE
  5
F10A30
330
F10A31
100
AcDbEntity
8
Geo
 6
Dashdot
100
AcDbLine
10
-55.6118820468343
20
4.37120555073722
30
0.000000000000000
11
64.3881179531657
21
4.37120555073722
31
0.000000000000000
  0
LWPOLYLINE
  5
F10A32
330
F10A33
100
AcDbEntity
8
Rahmen
100
AcDbPolyline
90
   4
70
   1
43
   0.0
 10
-134.596704249783
 20
99.9002601908066
 10
143.339115351258
 20
99.9002601908066
 10
143.339115351258
 20
-100.082393755421
 10
-134.596704249783
 20
-100.082393755421
  0
TEXT
  5
F10A34
330
F10A35
 100
AcDbEntity
8
Text
100
AcDbText
10
-133.503902862099
20
-99.5823937554206
30
0.000000000000000
40
1.00000000000000
1
ISBESketcher - ©ISBE GmbH      lizensiert für: Schmid Werkzeuge
100
AcDbText
  0
LWPOLYLINE
  5
F10A36
330
F10A37
100
AcDbEntity
8
Rahmen
100
AcDbPolyline
90
   4
70
   1
43
   0.0
 10
103.451864700781
 20
-97.1682567215958
 10
143.339115351258
 20
-97.1682567215958
 10
143.339115351258
 20
-100.082393755421
 10
103.451864700781
 20
-100.082393755421
  0
TEXT
  5
F10A38
330
F10A39
 100
AcDbEntity
8
Text
100
AcDbText
10
104.500000000000
20
-99.4570685169124
30
0.000000000000000
40
1.50000000000000
1
Ers. durch:
100
AcDbText
  0
TEXT
  5
F10A3A
330
F10A3B
 100
AcDbEntity
8
Text
100
AcDbText
10
0.000000000000000
20
0.500000000000000
30
0.000000000000000
40
1.50000000000000
1

100
AcDbText
  0
LWPOLYLINE
  5
F10A3C
330
F10A3D
100
AcDbEntity
8
Rahmen
100
AcDbPolyline
90
   4
70
   1
43
   0.0
 10
63.3824804856895
 20
-97.1682567215958
 10
103.451864700781
 20
-97.1682567215958
 10
103.451864700781
 20
-100.082393755421
 10
63.3824804856895
 20
-100.082393755421
  0
TEXT
  5
F10A3E
330
F10A3F
 100
AcDbEntity
8
Text
100
AcDbText
10
64.5000000000000
20
-99.4570685169124
30
0.000000000000000
40
1.50000000000000
1
Ers. für:
100
AcDbText
  0
TEXT
  5
F10A40
330
F10A41
 100
AcDbEntity
8
Text
100
AcDbText
10
0.000000000000000
20
0.500000000000000
30
0.000000000000000
40
1.50000000000000
1

100
AcDbText
  0
LWPOLYLINE
  5
F10A42
330
F10A43
100
AcDbEntity
8
Rahmen
100
AcDbPolyline
90
   4
70
   1
43
   0.0
 10
130.043365134432
 20
-94.0719861231570
 10
143.339115351258
 20
-94.0719861231570
 10
143.339115351258
 20
-97.1682567215958
 10
130.043365134432
 20
-97.1682567215958
  0
TEXT
  5
F10A44
330
F10A45
 100
AcDbEntity
8
Text
100
AcDbText
10
131.166666666667
20
-96.4570685169124
30
0.000000000000000
40
1.50000000000000
1
Blätter
100
AcDbText
  0
TEXT
  5
F10A46
330
F10A47
 100
AcDbEntity
8
Text
100
AcDbText
10
0.000000000000000
20
0.500000000000000
30
0.000000000000000
40
1.50000000000000
1

100
AcDbText
  0
LWPOLYLINE
  5
F10A48
330
F10A49
100
AcDbEntity
8
Rahmen
100
AcDbPolyline
90
   4
70
   1
43
   0.0
 10
130.043365134432
 20
-91.1578490893322
 10
143.339115351258
 20
-91.1578490893322
 10
143.339115351258
 20
-94.0719861231570
 10
130.043365134432
 20
-94.0719861231570
  0
TEXT
  5
F10A4A
330
F10A4B
 100
AcDbEntity
8
Text
100
AcDbText
10
131.166666666667
20
-93.4570685169124
30
0.000000000000000
40
1.50000000000000
1
Blatt
100
AcDbText
  0
TEXT
  5
F10A4C
330
F10A4D
 100
AcDbEntity
8
Text
100
AcDbText
10
0.000000000000000
20
0.500000000000000
30
0.000000000000000
40
1.50000000000000
1

100
AcDbText
  0
LWPOLYLINE
  5
F10A4E
330
F10A4F
100
AcDbEntity
8
Rahmen
100
AcDbPolyline
90
   4
70
   1
43
   0.0
 10
63.3824804856895
 20
-91.1578490893322
 10
130.043365134432
 20
-91.1578490893322
 10
130.043365134432
 20
-97.1682567215958
 10
63.3824804856895
 20
-97.1682567215958
  0
TEXT
  5
F10A50
330
F10A51
 100
AcDbEntity
8
Text
100
AcDbText
10
64.5000000000000
20
-93.4570685169124
30
0.000000000000000
40
1.50000000000000
1
Datum:
100
AcDbText
  0
TEXT
  5
F10A52
330
F10A53
 100
AcDbEntity
8
Text
100
AcDbText
10
90.9139924833767
20
-96.4570685169124
30
0.000000000000000
40
1.50000000000000
1
10.03.2021
100
AcDbText
  0
LWPOLYLINE
  5
F10A54
330
F10A55
100
AcDbEntity
8
Rahmen
100
AcDbPolyline
90
   4
70
   1
43
   0.0
 10
63.3824804856895
 20
-85.1474414570685
 10
143.339115351258
 20
-85.1474414570685
 10
143.339115351258
 20
-91.1578490893322
 10
63.3824804856895
 20
-91.1578490893322
  0
TEXT
  5
F10A56
330
F10A57
 100
AcDbEntity
8
Text
100
AcDbText
10
0.000000000000000
20
0.500000000000000
30
0.000000000000000
40
1.50000000000000
1

100
AcDbText
  0
TEXT
  5
F10A58
330
F10A59
 100
AcDbEntity
8
Text
100
AcDbText
10
74.2675628794449
20
-92.0842729112460
30
0.000000000000000
40
2.50000000000000
1
VHM-HPC-Alu-Schruppfräser 0192-120-b
100
AcDbText
  0
LWPOLYLINE
  5
F10A5A
330
F10A5B
100
AcDbEntity
8
Rahmen
100
AcDbPolyline
90
   4
70
   1
43
   0.0
 10
103.451864700781
 20
-79.1370338248049
 10
143.339115351258
 20
-79.1370338248049
 10
143.339115351258
 20
-85.1474414570685
 10
103.451864700781
 20
-85.1474414570685
  0
TEXT
  5
F10A5C
330
F10A5D
 100
AcDbEntity
8
Text
100
AcDbText
10
104.500000000000
20
-81.4570685169124
30
0.000000000000000
40
1.50000000000000
1
Zu bearb. Material:
100
AcDbText
  0
TEXT
  5
F10A5E
330
F10A5F
 100
AcDbEntity
8
Text
100
AcDbText
10
0.000000000000000
20
0.500000000000000
30
0.000000000000000
40
1.50000000000000
1

100
AcDbText
  0
LWPOLYLINE
  5
F10A60
330
F10A61
100
AcDbEntity
8
Rahmen
100
AcDbPolyline
90
   4
70
   1
43
   0.0
 10
63.3824804856895
 20
-79.1370338248049
 10
103.451864700781
 20
-79.1370338248049
 10
103.451864700781
 20
-85.1474414570685
 10
63.3824804856895
 20
-85.1474414570685
  0
TEXT
  5
F10A62
330
F10A63
 100
AcDbEntity
8
Text
100
AcDbText
10
64.5000000000000
20
-81.4570685169124
30
0.000000000000000
40
1.50000000000000
1
Werkstoff:
100
AcDbText
  0
TEXT
  5
F10A64
330
F10A65
 100
AcDbEntity
8
Text
100
AcDbText
10
80.7679965307892
20
-84.4570685169124
30
0.000000000000000
40
1.50000000000000
1
VHM
100
AcDbText
  0
LWPOLYLINE
  5
F10A66
330
F10A67
100
AcDbEntity
8
Rahmen
100
AcDbPolyline
90
   4
70
   1
43
   0.0
 10
103.451864700781
 20
-76.0407632263660
 10
143.339115351258
 20
-76.0407632263660
 10
143.339115351258
 20
-79.1370338248049
 10
103.451864700781
 20
-79.1370338248049
  0
TEXT
  5
F10A68
330
F10A69
 100
AcDbEntity
8
Text
100
AcDbText
10
0.000000000000000
20
0.500000000000000
30
0.000000000000000
40
1.50000000000000
1

100
AcDbText
  0
TEXT
  5
F10A6A
330
F10A6B
 100
AcDbEntity
8
Text
100
AcDbText
10
0.000000000000000
20
0.500000000000000
30
0.000000000000000
40
1.50000000000000
1

100
AcDbText
  0
LWPOLYLINE
  5
F10A6C
330
F10A6D
100
AcDbEntity
8
Rahmen
100
AcDbPolyline
90
   4
70
   1
43
   0.0
 10
63.3824804856895
 20
-76.0407632263660
 10
103.451864700781
 20
-76.0407632263660
 10
103.451864700781
 20
-79.1370338248049
 10
63.3824804856895
 20
-79.1370338248049
  0
TEXT
  5
F10A6E
330
F10A6F
 100
AcDbEntity
8
Text
100
AcDbText
10
64.5000000000000
20
-78.4570685169124
30
0.000000000000000
40
1.50000000000000
1
Maßstab:
100
AcDbText
  0
TEXT
  5
F10A70
330
F10A71
 100
AcDbEntity
8
Text
100
AcDbText
10
89.0411968777103
20
-78.4570685169124
30
0.000000000000000
40
1.50000000000000
1
1 : 1
100
AcDbText
0
VIEWPORT
5
294
102
{ACAD_XDICTIONARY
360
58A
102
}
330
25D
100
AcDbEntity
67
1
8
0
60
1
100
AcDbViewport
10
0.0
20
0.0
30
0.0
40
10.0
41
10.0
68
-1
69
1
12
0.0
22
0.0
13
0.0
23
0.0
14
1.0
24
1.0
15
0.0
25
0.0
16
0.0
26
0.0
36
1.0
17
0.0
27
0.0
37
0.0
42
0.0
43
0.0
44
0.0
45
10.0
50
0.0
51
0.0000000000007958
72
100
90
32800
1

281
0
71
0
74
0
110
0.0
120
0.0
130
0.0
111
1.0
121
0.0
131
0.0
112
0.0
122
1.0
132
0.0
79
0
146
0.0
1001
VD_INVISIBLE_NOT_FOR_READ
1000
VD_INVISIBLE_NOT_FOR_READ
0
VIEWPORT
5
295
102
{ACAD_XDICTIONARY
360
58C
102
}
330
25D
100
AcDbEntity
67
1
8
0
60
1
100
AcDbViewport
10
0.0
20
0.0
30
0.0
40
10.0
41
10.0
68
0
69
2
12
0.0
22
0.0
13
0.0
23
0.0
14
1.0
24
1.0
15
0.0
25
0.0
16
0.0
26
0.0
36
1.0
17
0.0
27
0.0
37
0.0
42
0.0
43
0.0
44
0.0
45
10.0
50
0.0
51
0.0000000000007958
72
100
90
163872
1

281
0
71
0
74
0
110
0.0
120
0.0
130
0.0
111
1.0
121
0.0
131
0.0
112
0.0
122
1.0
132
0.0
79
0
146
0.0
1001
VD_INVISIBLE_NOT_FOR_READ
1000
VD_INVISIBLE_NOT_FOR_READ
0
ENDSEC
0
SECTION
2
OBJECTS
0
DICTIONARY
5
13
330
0
100
AcDbDictionary
281
1
3
ACAD_COLOR
350
FA7
3
ACAD_GROUP
350
14
3
ACAD_LAYOUT
350
FCF
3
ACAD_MATERIAL
350
F7A
3
ACAD_MLEADERSTYLE
350
FCD
3
ACAD_MLINESTYLE
350
16
3
ACAD_PLOTSETTINGS
350
17
3
ACAD_PLOTSTYLENAME
350
18
3
ACAD_SCALELIST
350
FAB
3
ACAD_TABLESTYLE
350
FA8
3
ACAD_VISUALSTYLE
350
F93
3
ACDB_RECOMPOSE_DATA
350
107E
3
AcDbVariableDictionary
350
FF0
3
DWGPROPS
350
107F
0
DICTIONARY
5
F10005
330
F10004
100
AcDbDictionary
280
1
281
1
3
ACAD_MTEXT_2008_RT
360
F10006
0
DICTIONARY
5
F1000F
330
F1000E
100
AcDbDictionary
280
1
281
1
3
ACAD_MTEXT_2008_RT
360
F10010
0
DICTIONARY
5
F10019
330
F10018
100
AcDbDictionary
280
1
281
1
3
ACAD_MTEXT_2008_RT
360
F1001A
0
DICTIONARY
5
F1001E
330
F1001D
100
AcDbDictionary
280
1
281
1
3
ACAD_MTEXT_2008_RT
360
F1001F
0
DICTIONARY
5
F10023
330
F10022
100
AcDbDictionary
280
1
281
1
3
ACAD_MTEXT_2008_RT
360
F10024
0
DICTIONARY
5
F1000A
330
F10009
100
AcDbDictionary
280
1
281
1
3
ACAD_MTEXT_2008_RT
360
F1000B
0
DICTIONARY
5
F10014
330
F10013
100
AcDbDictionary
280
1
281
1
3
ACAD_MTEXT_2008_RT
360
F10015
0
DICTIONARY
5
F10028
330
F10027
100
AcDbDictionary
280
1
281
1
3
ACAD_MTEXT_2008_RT
360
F10029
0
DICTIONARY
5
FA7
102
{ACAD_REACTORS
330
13
102
}
330
13
100
AcDbDictionary
281
1
0
DICTIONARY
5
14
330
13
100
AcDbDictionary
281
1
0
DICTIONARY
5
FCF
102
{ACAD_REACTORS
330
13
102
}
330
13
100
AcDbDictionary
281
1
3
Layout1
350
FD1
3
Model
350
FD0
0
DICTIONARY
5
F7A
102
{ACAD_REACTORS
330
13
102
}
330
13
100
AcDbDictionary
281
1
3
ByBlock
350
F83
3
ByLayer
350
F7B
3
Global
350
F8B
0
DICTIONARY
5
FCD
102
{ACAD_REACTORS
330
13
102
}
330
13
100
AcDbDictionary
281
1
3
Standard
350
FCE
0
DICTIONARY
5
16
330
13
100
AcDbDictionary
281
1
3
Standard
350
FAA
0
DICTIONARY
5
17
102
{ACAD_REACTORS
330
13
102
}
330
13
100
AcDbDictionary
281
1
0
ACDBDICTIONARYWDFLT
5
18
102
{ACAD_REACTORS
330
13
102
}
330
13
100
AcDbDictionary
281
1
3
Normal
350
19
100
AcDbDictionaryWithDefault
340
19
0
DICTIONARY
5
FAB
102
{ACAD_REACTORS
330
13
102
}
330
13
100
AcDbDictionary
281
1
3
A0
350
FAC
3
A1
350
FAD
3
A2
350
FAE
3
A3
350
FAF
3
A4
350
FB0
3
A5
350
FB1
3
A6
350
FB2
3
A7
350
FB3
3
A8
350
FB4
3
A9
350
FB5
3
B0
350
FB6
3
B1
350
FB7
3
B2
350
FB8
3
B3
350
FB9
3
B4
350
FBA
3
B5
350
FBB
3
B6
350
FBC
3
B7
350
FBD
3
B8
350
FBE
3
B9
350
FBF
3
C0
350
FC0
3
C1
350
FC1
3
C2
350
FC2
3
C3
350
FC3
3
C4
350
FC4
3
C5
350
FC5
3
C6
350
FC6
3
C7
350
FC7
3
C8
350
FC8
3
C9
350
FC9
3
D0
350
FCA
3
D1
350
FCB
3
D2
350
FCC
0
DICTIONARY
5
FA8
102
{ACAD_REACTORS
330
13
102
}
330
13
100
AcDbDictionary
281
1
3
Standard
350
FA9
0
DICTIONARY
5
F93
102
{ACAD_REACTORS
330
13
102
}
330
13
100
AcDbDictionary
281
1
3
2dWireframe
350
F99
3
3D Hidden
350
F9B
3
3dWireframe
350
F9A
3
Basic
350
F98
3
Brighten
350
F9F
3
ColorChange
350
FA3
3
Conceptual
350
F9C
3
Dim
350
F9E
3
EdgeColorOff
350
FA6
3
Facepattern
350
FA2
3
Flat
350
F94
3
FlatWithEdges
350
F95
3
Gouraud
350
F96
3
GouraudWithEdges
350
F97
3
JitterOff
350
FA4
3
Linepattern
350
FA1
3
OverhangOff
350
FA5
3
Realistic
350
F9D
3
Thicken
350
FA0
0
XRECORD
5
107E
102
{ACAD_REACTORS
330
13
102
}
330
13
100
AcDbXrecord
280
1
90
1
330
FA9
330
F10004
330
F1000E
330
F10018
330
F1001D
330
F10022
330
F10009
330
F10013
330
F10027
0
DICTIONARY
5
FF0
102
{ACAD_REACTORS
330
13
102
}
330
13
100
AcDbDictionary
281
1
3
CANNOSCALE
350
FF3
3
CMLEADERSTYLE
350
FF2
3
CTABLESTYLE
350
FF1
3
DIMASSOC
350
FF6
3
INDEXCTL
350
FF5
3
SORTENTS
350
FF4
3
XCLIPFRAME
350
1078
0
XRECORD
5
107F
102
{ACAD_REACTORS
330
13
102
}
330
13
100
AcDbXrecord
280
1
1
DWGPROPS COOKIE
2

3

4

6

7

8

9

300
=
301
=
302
=
303
=
304
=
305
=
306
=
307
=
308
=
309
=
40
0.0
41
0.0
42
0.0
1

90
0
0
XRECORD
5
F10006
102
{ACAD_REACTORS
330
F10005
102
}
330
F10005
100
AcDbXrecord
280
1
40
48458.0
1
0.15 x 45°
0
XRECORD
5
F10010
102
{ACAD_REACTORS
330
F1000F
102
}
330
F1000F
100
AcDbXrecord
280
1
40
48458.0
1
28
0
XRECORD
5
F1001A
102
{ACAD_REACTORS
330
F10019
102
}
330
F10019
100
AcDbXrecord
280
1
40
48458.0
1
72
0
XRECORD
5
F1001F
102
{ACAD_REACTORS
330
F1001E
102
}
330
F1001E
100
AcDbXrecord
280
1
40
48458.0
1
72.9
0
XRECORD
5
F10024
102
{ACAD_REACTORS
330
F10023
102
}
330
F10023
100
AcDbXrecord
280
1
40
48458.0
1
120
0
XRECORD
5
F1000B
102
{ACAD_REACTORS
330
F1000A
102
}
330
F1000A
100
AcDbXrecord
280
1
40
48458.0
1
Ø12
0
XRECORD
5
F10015
102
{ACAD_REACTORS
330
F10014
102
}
330
F10014
100
AcDbXrecord
280
1
40
48458.0
1
Ø11.4
0
XRECORD
5
F10029
102
{ACAD_REACTORS
330
F10028
102
}
330
F10028
100
AcDbXrecord
280
1
40
48458.0
1
Ø12
0
LAYOUT
5
FD1
102
{ACAD_XDICTIONARY
360
10A9
102
}
102
{ACAD_REACTORS
330
FCF
102
}
330
FCF
100
AcDbPlotSettings
1

2
Microsoft XPS Document Writer
4

6

40
0.0
41
0.0
42
0.0
43
0.0
44
0.0
45
0.0
46
0.0
47
0.0
48
0.0
49
0.0
140
0.0
141
0.0
142
1.0
143
1.0
70
688
72
0
73
0
74
5
7

75
16
147
1.0
148
0.0
149
0.0
100
AcDbLayout
1
Layout1
70
1
71
1
10
0.0
20
0.0
11
12.0
21
9.0
12
0.0
22
0.0
32
0.0
14
1.000000000000000E+20
24
1.000000000000000E+20
34
1.000000000000000E+20
15
-1.000000000000000E+20
25
-1.000000000000000E+20
35
-1.000000000000000E+20
146
0.0
13
0.0
23
0.0
33
0.0
16
1.0
26
0.0
36
0.0
17
0.0
27
1.0
37
0.0
76
0
330
25D
0
LAYOUT
5
FD0
102
{ACAD_XDICTIONARY
360
10A7
102
}
102
{ACAD_REACTORS
330
FCF
102
}
330
FCF
100
AcDbPlotSettings
1

2
Microsoft XPS Document Writer
4

6

40
0.0
41
0.0
42
0.0
43
0.0
44
0.0
45
0.0
46
0.0
47
0.0
48
0.0
49
0.0
140
0.0
141
0.0
142
1.0
143
1.0
70
1712
72
0
73
0
74
0
7

75
0
147
1.0
148
0.0
149
0.0
100
AcDbLayout
1
Model
70
1
71
0
10
0.0
20
0.0
11
12.0
21
9.0
12
0.0
22
0.0
32
0.0
14
0.0
24
0.0
34
0.0
15
0.0
25
0.0
35
0.0
146
0.0
13
0.0
23
0.0
33
0.0
16
1.0
26
0.0
36
0.0
17
0.0
27
1.0
37
0.0
76
0
330
261
331
26B
0
MATERIAL
5
F83
102
{ACAD_XDICTIONARY
360
F84
102
}
102
{ACAD_REACTORS
330
F7A
102
}
330
F7A
100
AcDbMaterial
1
ByBlock
72
0
43
0.0208333333333333
43
0.0
43
0.0
43
0.0
43
0.0
43
0.0208333333333333
43
0.0
43
0.0
43
0.0
43
0.0
43
1.0
43
0.0
43
0.0
43
0.0
43
0.0
43
1.0
77
0
47
0.0208333333333333
47
0.0
47
0.0
47
0.0
47
0.0
47
0.0208333333333333
47
0.0
47
0.0
47
0.0
47
0.0
47
1.0
47
0.0
47
0.0
47
0.0
47
0.0
47
1.0
171
0
49
0.0208333333333333
49
0.0
49
0.0
49
0.0
49
0.0
49
0.0208333333333333
49
0.0
49
0.0
49
0.0
49
0.0
49
1.0
49
0.0
49
0.0
49
0.0
49
0.0
49
1.0
175
0
142
0.0208333333333333
142
0.0
142
0.0
142
0.0
142
0.0
142
0.0208333333333333
142
0.0
142
0.0
142
0.0
142
0.0
142
1.0
142
0.0
142
0.0
142
0.0
142
0.0
142
1.0
179
0
144
0.0208333333333333
144
0.0
144
0.0
144
0.0
144
0.0
144
0.0208333333333333
144
0.0
144
0.0
144
0.0
144
0.0
144
1.0
144
0.0
144
0.0
144
0.0
144
0.0
144
1.0
147
0.0208333333333333
147
0.0
147
0.0
147
0.0
147
0.0
147
0.0208333333333333
147
0.0
147
0.0
147
0.0
147
0.0
147
1.0
147
0.0
147
0.0
147
0.0
147
0.0
147
1.0
0
MATERIAL
5
F7B
102
{ACAD_XDICTIONARY
360
F7C
102
}
102
{ACAD_REACTORS
330
F7A
102
}
330
F7A
100
AcDbMaterial
1
ByLayer
72
0
43
0.0208333333333333
43
0.0
43
0.0
43
0.0
43
0.0
43
0.0208333333333333
43
0.0
43
0.0
43
0.0
43
0.0
43
1.0
43
0.0
43
0.0
43
0.0
43
0.0
43
1.0
77
0
47
0.0208333333333333
47
0.0
47
0.0
47
0.0
47
0.0
47
0.0208333333333333
47
0.0
47
0.0
47
0.0
47
0.0
47
1.0
47
0.0
47
0.0
47
0.0
47
0.0
47
1.0
171
0
49
0.0208333333333333
49
0.0
49
0.0
49
0.0
49
0.0
49
0.0208333333333333
49
0.0
49
0.0
49
0.0
49
0.0
49
1.0
49
0.0
49
0.0
49
0.0
49
0.0
49
1.0
175
0
142
0.0208333333333333
142
0.0
142
0.0
142
0.0
142
0.0
142
0.0208333333333333
142
0.0
142
0.0
142
0.0
142
0.0
142
1.0
142
0.0
142
0.0
142
0.0
142
0.0
142
1.0
179
0
144
0.0208333333333333
144
0.0
144
0.0
144
0.0
144
0.0
144
0.0208333333333333
144
0.0
144
0.0
144
0.0
144
0.0
144
1.0
144
0.0
144
0.0
144
0.0
144
0.0
144
1.0
147
0.0208333333333333
147
0.0
147
0.0
147
0.0
147
0.0
147
0.0208333333333333
147
0.0
147
0.0
147
0.0
147
0.0
147
1.0
147
0.0
147
0.0
147
0.0
147
0.0
147
1.0
0
MATERIAL
5
F8B
102
{ACAD_XDICTIONARY
360
F8C
102
}
102
{ACAD_REACTORS
330
F7A
102
}
330
F7A
100
AcDbMaterial
1
Global
72
0
43
0.0208333333333333
43
0.0
43
0.0
43
0.0
43
0.0
43
0.0208333333333333
43
0.0
43
0.0
43
0.0
43
0.0
43
1.0
43
0.0
43
0.0
43
0.0
43
0.0
43
1.0
77
0
47
0.0208333333333333
47
0.0
47
0.0
47
0.0
47
0.0
47
0.0208333333333333
47
0.0
47
0.0
47
0.0
47
0.0
47
1.0
47
0.0
47
0.0
47
0.0
47
0.0
47
1.0
171
0
49
0.0208333333333333
49
0.0
49
0.0
49
0.0
49
0.0
49
0.0208333333333333
49
0.0
49
0.0
49
0.0
49
0.0
49
1.0
49
0.0
49
0.0
49
0.0
49
0.0
49
1.0
175
0
142
0.0208333333333333
142
0.0
142
0.0
142
0.0
142
0.0
142
0.0208333333333333
142
0.0
142
0.0
142
0.0
142
0.0
142
1.0
142
0.0
142
0.0
142
0.0
142
0.0
142
1.0
179
0
144
0.0208333333333333
144
0.0
144
0.0
144
0.0
144
0.0
144
0.0208333333333333
144
0.0
144
0.0
144
0.0
144
0.0
144
1.0
144
0.0
144
0.0
144
0.0
144
0.0
144
1.0
147
0.0208333333333333
147
0.0
147
0.0
147
0.0
147
0.0
147
0.0208333333333333
147
0.0
147
0.0
147
0.0
147
0.0
147
1.0
147
0.0
147
0.0
147
0.0
147
0.0
147
1.0
0
MLEADERSTYLE
5
FCE
102
{ACAD_REACTORS
330
FCD
102
}
330
FCD
100
AcDbMLeaderStyle
170
2
171
1
172
0
90
2
40
0.0
41
0.0
173
1
91
-1056964608
340
256
92
-2
290
1
42
0.09
291
1
43
0.36
3
Standard
44
0.18
300

342
253
174
1
178
6
175
1
176
0
93
-1056964608
45
0.18
292
0
297
0
46
0.18
94
-1056964608
47
1.0
49
1.0
140
1.0
293
1
141
0.0
294
1
177
0
142
1.0
295
0
296
0
143
0.125
1001
ACAD_MLEADERVER
1070
2
0
MLINESTYLE
5
FAA
102
{ACAD_REACTORS
330
16
102
}
330
16
100
AcDbMlineStyle
2
STANDARD
70
0
3

62
256
51
90.0
52
90.0
71
2
49
0.5
62
256
6
BYLAYER
49
-0.5
62
256
6
BYLAYER
0
ACDBPLACEHOLDER
5
19
102
{ACAD_REACTORS
330
18
102
}
330
18
0
SCALE
5
FAC
102
{ACAD_REACTORS
330
FAB
102
}
330
FAB
100
AcDbScale
70
0
300
1:1
140
1.0
141
1.0
290
1
0
SCALE
5
FAD
102
{ACAD_REACTORS
330
FAB
102
}
330
FAB
100
AcDbScale
70
0
300
1:2
140
1.0
141
2.0
290
0
0
SCALE
5
FAE
102
{ACAD_REACTORS
330
FAB
102
}
330
FAB
100
AcDbScale
70
0
300
1:4
140
1.0
141
4.0
290
0
0
SCALE
5
FAF
102
{ACAD_REACTORS
330
FAB
102
}
330
FAB
100
AcDbScale
70
0
300
1:5
140
1.0
141
5.0
290
0
0
SCALE
5
FB0
102
{ACAD_REACTORS
330
FAB
102
}
330
FAB
100
AcDbScale
70
0
300
1:8
140
1.0
141
8.0
290
0
0
SCALE
5
FB1
102
{ACAD_REACTORS
330
FAB
102
}
330
FAB
100
AcDbScale
70
0
300
1:10
140
1.0
141
10.0
290
0
0
SCALE
5
FB2
102
{ACAD_REACTORS
330
FAB
102
}
330
FAB
100
AcDbScale
70
0
300
1:16
140
1.0
141
16.0
290
0
0
SCALE
5
FB3
102
{ACAD_REACTORS
330
FAB
102
}
330
FAB
100
AcDbScale
70
0
300
1:20
140
1.0
141
20.0
290
0
0
SCALE
5
FB4
102
{ACAD_REACTORS
330
FAB
102
}
330
FAB
100
AcDbScale
70
0
300
1:30
140
1.0
141
30.0
290
0
0
SCALE
5
FB5
102
{ACAD_REACTORS
330
FAB
102
}
330
FAB
100
AcDbScale
70
0
300
1:40
140
1.0
141
40.0
290
0
0
SCALE
5
FB6
102
{ACAD_REACTORS
330
FAB
102
}
330
FAB
100
AcDbScale
70
0
300
1:50
140
1.0
141
50.0
290
0
0
SCALE
5
FB7
102
{ACAD_REACTORS
330
FAB
102
}
330
FAB
100
AcDbScale
70
0
300
1:100
140
1.0
141
100.0
290
0
0
SCALE
5
FB8
102
{ACAD_REACTORS
330
FAB
102
}
330
FAB
100
AcDbScale
70
0
300
2:1
140
2.0
141
1.0
290
0
0
SCALE
5
FB9
102
{ACAD_REACTORS
330
FAB
102
}
330
FAB
100
AcDbScale
70
0
300
4:1
140
4.0
141
1.0
290
0
0
SCALE
5
FBA
102
{ACAD_REACTORS
330
FAB
102
}
330
FAB
100
AcDbScale
70
0
300
8:1
140
8.0
141
1.0
290
0
0
SCALE
5
FBB
102
{ACAD_REACTORS
330
FAB
102
}
330
FAB
100
AcDbScale
70
0
300
10:1
140
10.0
141
1.0
290
0
0
SCALE
5
FBC
102
{ACAD_REACTORS
330
FAB
102
}
330
FAB
100
AcDbScale
70
0
300
100:1
140
100.0
141
1.0
290
0
0
SCALE
5
FBD
102
{ACAD_REACTORS
330
FAB
102
}
330
FAB
100
AcDbScale
70
0
300
1/128" = 1'-0"
140
0.0078125
141
12.0
290
0
0
SCALE
5
FBE
102
{ACAD_REACTORS
330
FAB
102
}
330
FAB
100
AcDbScale
70
0
300
1/64" = 1'-0"
140
0.015625
141
12.0
290
0
0
SCALE
5
FBF
102
{ACAD_REACTORS
330
FAB
102
}
330
FAB
100
AcDbScale
70
0
300
1/32" = 1'-0"
140
0.03125
141
12.0
290
0
0
SCALE
5
FC0
102
{ACAD_REACTORS
330
FAB
102
}
330
FAB
100
AcDbScale
70
0
300
1/16" = 1'-0"
140
0.0625
141
12.0
290
0
0
SCALE
5
FC1
102
{ACAD_REACTORS
330
FAB
102
}
330
FAB
100
AcDbScale
70
0
300
3/32" = 1'-0"
140
0.09375
141
12.0
290
0
0
SCALE
5
FC2
102
{ACAD_REACTORS
330
FAB
102
}
330
FAB
100
AcDbScale
70
0
300
1/8" = 1'-0"
140
0.125
141
12.0
290
0
0
SCALE
5
FC3
102
{ACAD_REACTORS
330
FAB
102
}
330
FAB
100
AcDbScale
70
0
300
3/16" = 1'-0"
140
0.1875
141
12.0
290
0
0
SCALE
5
FC4
102
{ACAD_REACTORS
330
FAB
102
}
330
FAB
100
AcDbScale
70
0
300
1/4" = 1'-0"
140
0.25
141
12.0
290
0
0
SCALE
5
FC5
102
{ACAD_REACTORS
330
FAB
102
}
330
FAB
100
AcDbScale
70
0
300
3/8" = 1'-0"
140
0.375
141
12.0
290
0
0
SCALE
5
FC6
102
{ACAD_REACTORS
330
FAB
102
}
330
FAB
100
AcDbScale
70
0
300
1/2" = 1'-0"
140
0.5
141
12.0
290
0
0
SCALE
5
FC7
102
{ACAD_REACTORS
330
FAB
102
}
330
FAB
100
AcDbScale
70
0
300
3/4" = 1'-0"
140
0.75
141
12.0
290
0
0
SCALE
5
FC8
102
{ACAD_REACTORS
330
FAB
102
}
330
FAB
100
AcDbScale
70
0
300
1" = 1'-0"
140
1.0
141
12.0
290
0
0
SCALE
5
FC9
102
{ACAD_REACTORS
330
FAB
102
}
330
FAB
100
AcDbScale
70
0
300
1-1/2" = 1'-0"
140
1.5
141
12.0
290
0
0
SCALE
5
FCA
102
{ACAD_REACTORS
330
FAB
102
}
330
FAB
100
AcDbScale
70
0
300
3" = 1'-0"
140
3.0
141
12.0
290
0
0
SCALE
5
FCB
102
{ACAD_REACTORS
330
FAB
102
}
330
FAB
100
AcDbScale
70
0
300
6" = 1'-0"
140
6.0
141
12.0
290
0
0
SCALE
5
FCC
102
{ACAD_REACTORS
330
FAB
102
}
330
FAB
100
AcDbScale
70
0
300
1'-0" = 1'-0"
140
12.0
141
12.0
290
0
0
TABLESTYLE
5
FA9
102
{ACAD_XDICTIONARY
360
FF8
102
}
102
{ACAD_REACTORS
330
FA8
102
}
330
FA8
100
AcDbTableStyle
3
Standard
70
0
71
0
40
0.06
41
0.06
280
0
281
0
7
Standard
140
0.18
170
2
62
0
63
7
283
0
274
-2
284
1
64
0
275
-2
285
1
65
0
276
-2
286
1
66
0
277
-2
287
1
67
0
278
-2
288
1
68
0
279
-2
289
1
69
0
7
Standard
140
0.25
170
5
62
0
63
7
283
0
274
-2
284
1
64
0
275
-2
285
1
65
0
276
-2
286
1
66
0
277
-2
287
1
67
0
278
-2
288
1
68
0
279
-2
289
1
69
0
7
Standard
140
0.18
170
5
62
0
63
7
283
0
274
-2
284
1
64
0
275
-2
285
1
65
0
276
-2
286
1
66
0
277
-2
287
1
67
0
278
-2
288
1
68
0
279
-2
289
1
69
0
0
VISUALSTYLE
5
F99
102
{ACAD_XDICTIONARY
360
108A
102
}
102
{ACAD_REACTORS
330
F93
102
}
330
F93
100
AcDbVisualStyle
2

70
4
71
0
72
2
73
0
90
0
40
-0.6
41
-30.0
62
5
63
7
74
1
91
4
64
7
65
257
75
1
175
1
42
1.0
92
0
66
257
43
1.0
76
1
77
6
78
2
67
7
79
5
170
0
171
0
290
0
174
0
93
1
44
0.0
173
0
291
0
45
0.0
1001
ACAD
1000
AcDbSavedByObjectVersion
1070
0
0
VISUALSTYLE
5
F9B
102
{ACAD_XDICTIONARY
360
108E
102
}
102
{ACAD_REACTORS
330
F93
102
}
330
F93
100
AcDbVisualStyle
2

70
6
71
1
72
2
73
2
90
0
40
-0.6
41
-30.0
62
5
63
7
74
2
91
2
64
7
65
257
75
2
175
1
42
179.0
92
0
66
257
43
1.0
76
1
77
6
78
2
67
7
79
3
170
0
171
0
290
0
174
0
93
1
44
0.0
173
0
291
0
45
0.0
1001
ACAD
1000
AcDbSavedByObjectVersion
1070
0
0
VISUALSTYLE
5
F9A
102
{ACAD_XDICTIONARY
360
108C
102
}
102
{ACAD_REACTORS
330
F93
102
}
330
F93
100
AcDbVisualStyle
2

70
5
71
0
72
2
73
0
90
0
40
-0.6
41
-30.0
62
5
63
7
74
1
91
4
64
7
65
257
75
1
175
1
42
1.0
92
0
66
257
43
1.0
76
1
77
6
78
2
67
7
79
5
170
0
171
0
290
0
174
0
93
1
44
0.0
173
0
291
0
45
0.0
1001
ACAD
1000
AcDbSavedByObjectVersion
1070
0
0
VISUALSTYLE
5
F98
102
{ACAD_XDICTIONARY
360
1088
102
}
102
{ACAD_REACTORS
330
F93
102
}
330
F93
100
AcDbVisualStyle
2

70
7
71
1
72
0
73
1
90
0
40
-0.6
41
-30.0
62
5
63
7
74
0
91
4
64
7
65
257
75
1
175
1
42
1.0
92
8
66
7
43
1.0
76
1
77
6
78
2
67
7
79
5
170
0
171
0
290
0
174
0
93
1
44
0.0
173
0
291
1
45
0.0
1001
ACAD
1000
AcDbSavedByObjectVersion
1070
0
0
VISUALSTYLE
5
F9F
102
{ACAD_XDICTIONARY
360
1096
102
}
102
{ACAD_REACTORS
330
F93
102
}
330
F93
100
AcDbVisualStyle
2

70
12
71
2
72
2
73
0
90
0
40
-0.6
41
-30.0
62
5
63
7
74
1
91
4
64
7
65
257
75
1
175
1
42
1.0
92
8
66
7
43
1.0
76
1
77
6
78
2
67
7
79
5
170
0
171
0
290
0
174
0
93
1
44
50.0
173
0
291
1
45
0.0
1001
ACAD
1000
AcDbSavedByObjectVersion
1070
0
0
VISUALSTYLE
5
FA3
102
{ACAD_XDICTIONARY
360
109E
102
}
102
{ACAD_REACTORS
330
F93
102
}
330
F93
100
AcDbVisualStyle
2

70
16
71
2
72
2
73
3
90
0
40
-0.6
41
-30.0
62
5
63
8
74
1
91
4
64
7
65
257
75
1
175
1
42
1.0
92
8
66
8
43
1.0
76
1
77
6
78
2
67
7
79
5
170
0
171
0
290
0
174
0
93
1
44
0.0
173
0
291
1
45
0.0
1001
ACAD
1000
AcDbSavedByObjectVersion
1070
0
0
VISUALSTYLE
5
F9C
102
{ACAD_XDICTIONARY
360
1090
102
}
102
{ACAD_REACTORS
330
F93
102
}
330
F93
100
AcDbVisualStyle
2

70
9
71
3
72
2
73
0
90
0
40
-0.6
41
-30.0
62
5
63
7
74
2
91
2
64
7
65
257
75
1
175
1
42
179.0
92
8
66
7
43
1.0
76
1
77
6
78
2
67
7
79
3
170
0
171
0
290
0
174
0
93
1
44
0.0
173
0
291
0
45
0.0
1001
ACAD
1000
AcDbSavedByObjectVersion
1070
0
0
VISUALSTYLE
5
F9E
102
{ACAD_XDICTIONARY
360
1094
102
}
102
{ACAD_REACTORS
330
F93
102
}
330
F93
100
AcDbVisualStyle
2

70
11
71
2
72
2
73
0
90
0
40
-0.6
41
-30.0
62
5
63
7
74
1
91
4
64
7
65
257
75
1
175
1
42
1.0
92
8
66
7
43
1.0
76
1
77
6
78
2
67
7
79
5
170
0
171
0
290
0
174
0
93
1
44
-50.0
173
0
291
1
45
0.0
1001
ACAD
1000
AcDbSavedByObjectVersion
1070
0
0
VISUALSTYLE
5
FA6
102
{ACAD_XDICTIONARY
360
10A4
102
}
102
{ACAD_REACTORS
330
F93
102
}
330
F93
100
AcDbVisualStyle
2

70
22
71
2
72
2
73
0
90
0
40
-0.6
41
-30.0
62
5
63
7
74
1
91
4
64
7
65
257
75
1
175
1
42
1.0
92
8
66
7
43
1.0
76
1
77
6
78
2
67
7
79
5
170
0
171
0
290
0
174
0
93
1
44
0.0
173
0
291
1
45
0.0
1001
ACAD
1000
AcDbSavedByObjectVersion
1070
0
0
VISUALSTYLE
5
FA2
102
{ACAD_XDICTIONARY
360
109C
102
}
102
{ACAD_REACTORS
330
F93
102
}
330
F93
100
AcDbVisualStyle
2

70
15
71
2
72
2
73
0
90
0
40
-0.6
41
-30.0
62
5
63
7
74
1
91
4
64
7
65
257
75
1
175
1
42
1.0
92
8
66
7
43
1.0
76
1
77
6
78
2
67
7
79
5
170
0
171
0
290
0
174
0
93
1
44
0.0
173
0
291
1
45
0.0
1001
ACAD
1000
AcDbSavedByObjectVersion
1070
0
0
VISUALSTYLE
5
F94
102
{ACAD_XDICTIONARY
360
1080
102
}
102
{ACAD_REACTORS
330
F93
102
}
330
F93
100
AcDbVisualStyle
2

70
0
71
2
72
1
73
1
90
2
40
-0.6
41
30.0
62
5
63
7
74
0
91
4
64
7
65
257
75
1
175
1
42
1.0
92
8
66
7
43
1.0
76
1
77
6
78
2
67
7
79
5
170
0
171
0
290
0
174
0
93
13
44
0.0
173
0
291
1
45
0.0
1001
ACAD
1000
AcDbSavedByObjectVersion
1070
0
0
VISUALSTYLE
5
F95
102
{ACAD_XDICTIONARY
360
1082
102
}
102
{ACAD_REACTORS
330
F93
102
}
330
F93
100
AcDbVisualStyle
2

70
1
71
2
72
1
73
1
90
2
40
-0.6
41
30.0
62
5
63
7
74
1
91
4
64
7
65
257
75
1
175
1
42
1.0
92
0
66
257
43
1.0
76
1
77
6
78
2
67
7
79
5
170
0
171
0
290
0
174
0
93
13
44
0.0
173
0
291
1
45
0.0
1001
ACAD
1000
AcDbSavedByObjectVersion
1070
0
0
VISUALSTYLE
5
F96
102
{ACAD_XDICTIONARY
360
1084
102
}
102
{ACAD_REACTORS
330
F93
102
}
330
F93
100
AcDbVisualStyle
2

70
2
71
2
72
2
73
1
90
2
40
-0.6
41
30.0
62
5
63
7
74
0
91
4
64
7
65
257
75
1
175
1
42
1.0
92
0
66
7
43
1.0
76
1
77
6
78
2
67
7
79
5
170
0
171
0
290
0
174
0
93
13
44
0.0
173
0
291
1
45
0.0
1001
ACAD
1000
AcDbSavedByObjectVersion
1070
0
0
VISUALSTYLE
5
F97
102
{ACAD_XDICTIONARY
360
1086
102
}
102
{ACAD_REACTORS
330
F93
102
}
330
F93
100
AcDbVisualStyle
2

70
3
71
2
72
2
73
1
90
2
40
-0.6
41
30.0
62
5
63
7
74
1
91
4
64
7
65
257
75
1
175
1
42
1.0
92
0
66
257
43
1.0
76
1
77
6
78
2
67
7
79
5
170
0
171
0
290
0
174
0
93
13
44
0.0
173
0
291
1
45
0.0
1001
ACAD
1000
AcDbSavedByObjectVersion
1070
0
0
VISUALSTYLE
5
FA4
102
{ACAD_XDICTIONARY
360
10A0
102
}
102
{ACAD_REACTORS
330
F93
102
}
330
F93
100
AcDbVisualStyle
2

70
20
71
2
72
2
73
0
90
0
40
-0.6
41
-30.0
62
5
63
7
74
1
91
4
64
7
65
257
75
1
175
1
42
1.0
92
10
66
7
43
1.0
76
1
77
6
78
2
67
7
79
5
170
0
171
0
290
0
174
0
93
1
44
0.0
173
0
291
1
45
0.0
1001
ACAD
1000
AcDbSavedByObjectVersion
1070
0
0
VISUALSTYLE
5
FA1
102
{ACAD_XDICTIONARY
360
109A
102
}
102
{ACAD_REACTORS
330
F93
102
}
330
F93
100
AcDbVisualStyle
2

70
14
71
2
72
2
73
0
90
0
40
-0.6
41
-30.0
62
5
63
7
74
1
91
4
64
7
65
257
75
7
175
7
42
1.0
92
8
66
7
43
1.0
76
1
77
6
78
2
67
7
79
5
170
0
171
0
290
0
174
0
93
1
44
0.0
173
0
291
1
45
0.0
1001
ACAD
1000
AcDbSavedByObjectVersion
1070
0
0
VISUALSTYLE
5
FA5
102
{ACAD_XDICTIONARY
360
10A2
102
}
102
{ACAD_REACTORS
330
F93
102
}
330
F93
100
AcDbVisualStyle
2

70
21
71
2
72
2
73
0
90
0
40
-0.6
41
-30.0
62
5
63
7
74
1
91
4
64
7
65
257
75
1
175
1
42
1.0
92
9
66
7
43
1.0
76
1
77
6
78
2
67
7
79
5
170
0
171
0
290
0
174
0
93
1
44
0.0
173
0
291
1
45
0.0
1001
ACAD
1000
AcDbSavedByObjectVersion
1070
0
0
VISUALSTYLE
5
F9D
102
{ACAD_XDICTIONARY
360
1092
102
}
102
{ACAD_REACTORS
330
F93
102
}
330
F93
100
AcDbVisualStyle
2

70
8
71
2
72
2
73
0
90
0
40
-0.6
41
-30.0
62
5
63
7
74
1
91
0
64
7
65
257
75
1
175
1
42
1.0
92
8
66
8
43
1.0
76
1
77
6
78
2
67
7
79
5
170
0
171
0
290
0
174
0
93
13
44
0.0
173
0
291
0
45
0.0
1001
ACAD
1000
AcDbSavedByObjectVersion
1070
0
0
VISUALSTYLE
5
FA0
102
{ACAD_XDICTIONARY
360
1098
102
}
102
{ACAD_REACTORS
330
F93
102
}
330
F93
100
AcDbVisualStyle
2

70
13
71
2
72
2
73
0
90
0
40
-0.6
41
-30.0
62
5
63
7
74
1
91
4
64
7
65
257
75
1
175
1
42
1.0
92
12
66
7
43
1.0
76
1
77
6
78
2
67
7
79
5
170
0
171
0
290
0
174
0
93
1
44
0.0
173
0
291
1
45
0.0
1001
ACAD
1000
AcDbSavedByObjectVersion
1070
0
0
DICTIONARYVAR
5
FF3
102
{ACAD_REACTORS
330
FF0
102
}
330
FF0
100
DictionaryVariables
280
0
1
1:1
0
DICTIONARYVAR
5
FF2
102
{ACAD_REACTORS
330
FF0
102
}
330
FF0
100
DictionaryVariables
280
0
1
STANDARD
0
DICTIONARYVAR
5
FF1
102
{ACAD_REACTORS
330
FF0
102
}
330
FF0
100
DictionaryVariables
280
0
1
STANDARD
0
DICTIONARYVAR
5
FF6
102
{ACAD_REACTORS
330
FF0
102
}
330
FF0
100
DictionaryVariables
280
0
1
1
0
DICTIONARYVAR
5
FF5
102
{ACAD_REACTORS
330
FF0
102
}
330
FF0
100
DictionaryVariables
280
0
1
0
0
DICTIONARYVAR
5
FF4
102
{ACAD_REACTORS
330
FF0
102
}
330
FF0
100
DictionaryVariables
280
0
1
127
0
DICTIONARYVAR
5
1078
102
{ACAD_REACTORS
330
FF0
102
}
330
FF0
100
DictionaryVariables
280
0
1
2
0
DICTIONARY
5
10A9
330
FD1
100
AcDbDictionary
280
1
281
1
3
ACAD_XREC_ROUNDTRIP
360
10AA
0
DICTIONARY
5
10A7
330
FD0
100
AcDbDictionary
280
1
281
1
3
ACAD_XREC_ROUNDTRIP
360
10A8
0
DICTIONARY
5
F84
330
F83
100
AcDbDictionary
280
1
281
1
3
ACAD_XREC_ROUNDTRIP
360
FFF
3
BUMPTILE
360
F86
3
DIFFUSETILE
360
F85
3
OPACITYTILE
360
F89
3
REFLECTIONTILE
360
F88
3
REFRACTIONTILE
360
F8A
3
SPECULARTILE
360
F87
0
DICTIONARY
5
F7C
330
F7B
100
AcDbDictionary
280
1
281
1
3
ACAD_XREC_ROUNDTRIP
360
FFE
3
BUMPTILE
360
F7E
3
DIFFUSETILE
360
F7D
3
OPACITYTILE
360
F81
3
REFLECTIONTILE
360
F80
3
REFRACTIONTILE
360
F82
3
SPECULARTILE
360
F7F
0
DICTIONARY
5
F8C
330
F8B
100
AcDbDictionary
280
1
281
1
3
ACAD_XREC_ROUNDTRIP
360
1000
3
BUMPTILE
360
F8E
3
DIFFUSETILE
360
F8D
3
OPACITYTILE
360
F91
3
REFLECTIONTILE
360
F90
3
REFRACTIONTILE
360
F92
3
SPECULARTILE
360
F8F
0
DICTIONARY
5
FF8
330
FA9
100
AcDbDictionary
280
1
281
1
3
ACAD_ROUNDTRIP_2008_TABLESTYLE_CELLSTYLEMAP
360
1079
3
ACAD_XREC_ROUNDTRIP
360
10A6
0
DICTIONARY
5
108A
330
F99
100
AcDbDictionary
280
1
281
1
3
ACAD_XREC_ROUNDTRIP
360
108B
0
DICTIONARY
5
108E
330
F9B
100
AcDbDictionary
280
1
281
1
3
ACAD_XREC_ROUNDTRIP
360
108F
0
DICTIONARY
5
108C
330
F9A
100
AcDbDictionary
280
1
281
1
3
ACAD_XREC_ROUNDTRIP
360
108D
0
DICTIONARY
5
1088
330
F98
100
AcDbDictionary
280
1
281
1
3
ACAD_XREC_ROUNDTRIP
360
1089
0
DICTIONARY
5
1096
330
F9F
100
AcDbDictionary
280
1
281
1
3
ACAD_XREC_ROUNDTRIP
360
1097
0
DICTIONARY
5
109E
330
FA3
100
AcDbDictionary
280
1
281
1
3
ACAD_XREC_ROUNDTRIP
360
109F
0
DICTIONARY
5
1090
330
F9C
100
AcDbDictionary
280
1
281
1
3
ACAD_XREC_ROUNDTRIP
360
1091
0
DICTIONARY
5
1094
330
F9E
100
AcDbDictionary
280
1
281
1
3
ACAD_XREC_ROUNDTRIP
360
1095
0
DICTIONARY
5
10A4
330
FA6
100
AcDbDictionary
280
1
281
1
3
ACAD_XREC_ROUNDTRIP
360
10A5
0
DICTIONARY
5
109C
330
FA2
100
AcDbDictionary
280
1
281
1
3
ACAD_XREC_ROUNDTRIP
360
109D
0
DICTIONARY
5
1080
330
F94
100
AcDbDictionary
280
1
281
1
3
ACAD_XREC_ROUNDTRIP
360
1081
0
DICTIONARY
5
1082
330
F95
100
AcDbDictionary
280
1
281
1
3
ACAD_XREC_ROUNDTRIP
360
1083
0
DICTIONARY
5
1084
330
F96
100
AcDbDictionary
280
1
281
1
3
ACAD_XREC_ROUNDTRIP
360
1085
0
DICTIONARY
5
1086
330
F97
100
AcDbDictionary
280
1
281
1
3
ACAD_XREC_ROUNDTRIP
360
1087
0
DICTIONARY
5
10A0
330
FA4
100
AcDbDictionary
280
1
281
1
3
ACAD_XREC_ROUNDTRIP
360
10A1
0
DICTIONARY
5
109A
330
FA1
100
AcDbDictionary
280
1
281
1
3
ACAD_XREC_ROUNDTRIP
360
109B
0
DICTIONARY
5
10A2
330
FA5
100
AcDbDictionary
280
1
281
1
3
ACAD_XREC_ROUNDTRIP
360
10A3
0
DICTIONARY
5
1092
330
F9D
100
AcDbDictionary
280
1
281
1
3
ACAD_XREC_ROUNDTRIP
360
1093
0
DICTIONARY
5
1098
330
FA0
100
AcDbDictionary
280
1
281
1
3
ACAD_XREC_ROUNDTRIP
360
1099
0
XRECORD
5
10AA
102
{ACAD_REACTORS
330
10A9
102
}
330
10A9
100
AcDbXrecord
280
1
102
SHADEPLOT
70
0
102
SHADEPLOTRESLEVEL
70
2
102
SHADEPLOTCUSTOMDPI
70
300
0
XRECORD
5
10A8
102
{ACAD_REACTORS
330
10A7
102
}
330
10A7
100
AcDbXrecord
280
1
102
SHADEPLOT
70
0
102
SHADEPLOTRESLEVEL
70
2
102
SHADEPLOTCUSTOMDPI
70
300
0
XRECORD
5
FFF
102
{ACAD_REACTORS
330
F84
102
}
330
F84
100
AcDbXrecord
280
1
102
MATERIAL
148
0.0
149
0.0
149
0.0
93
0
94
127
282
0
72
0
77
0
171
0
175
0
179
0
273
0
0
XRECORD
5
F86
102
{ACAD_REACTORS
330
F84
102
}
330
F84
100
AcDbXrecord
280
1
270
1
271
1
0
XRECORD
5
F85
102
{ACAD_REACTORS
330
F84
102
}
330
F84
100
AcDbXrecord
280
1
270
1
271
1
0
XRECORD
5
F89
102
{ACAD_REACTORS
330
F84
102
}
330
F84
100
AcDbXrecord
280
1
270
1
271
1
0
XRECORD
5
F88
102
{ACAD_REACTORS
330
F84
102
}
330
F84
100
AcDbXrecord
280
1
270
1
271
1
0
XRECORD
5
F8A
102
{ACAD_REACTORS
330
F84
102
}
330
F84
100
AcDbXrecord
280
1
270
1
271
1
0
XRECORD
5
F87
102
{ACAD_REACTORS
330
F84
102
}
330
F84
100
AcDbXrecord
280
1
270
1
271
1
0
XRECORD
5
FFE
102
{ACAD_REACTORS
330
F7C
102
}
330
F7C
100
AcDbXrecord
280
1
102
MATERIAL
148
0.0
149
0.0
149
0.0
93
0
94
127
282
0
72
0
77
0
171
0
175
0
179
0
273
0
0
XRECORD
5
F7E
102
{ACAD_REACTORS
330
F7C
102
}
330
F7C
100
AcDbXrecord
280
1
270
1
271
1
0
XRECORD
5
F7D
102
{ACAD_REACTORS
330
F7C
102
}
330
F7C
100
AcDbXrecord
280
1
270
1
271
1
0
XRECORD
5
F81
102
{ACAD_REACTORS
330
F7C
102
}
330
F7C
100
AcDbXrecord
280
1
270
1
271
1
0
XRECORD
5
F80
102
{ACAD_REACTORS
330
F7C
102
}
330
F7C
100
AcDbXrecord
280
1
270
1
271
1
0
XRECORD
5
F82
102
{ACAD_REACTORS
330
F7C
102
}
330
F7C
100
AcDbXrecord
280
1
270
1
271
1
0
XRECORD
5
F7F
102
{ACAD_REACTORS
330
F7C
102
}
330
F7C
100
AcDbXrecord
280
1
270
1
271
1
0
XRECORD
5
1000
102
{ACAD_REACTORS
330
F8C
102
}
330
F8C
100
AcDbXrecord
280
1
102
MATERIAL
148
0.0
149
0.0
149
0.0
93
0
94
127
282
0
72
0
77
0
171
0
175
0
179
0
273
0
0
XRECORD
5
F8E
102
{ACAD_REACTORS
330
F8C
102
}
330
F8C
100
AcDbXrecord
280
1
270
1
271
1
0
XRECORD
5
F8D
102
{ACAD_REACTORS
330
F8C
102
}
330
F8C
100
AcDbXrecord
280
1
270
1
271
1
0
XRECORD
5
F91
102
{ACAD_REACTORS
330
F8C
102
}
330
F8C
100
AcDbXrecord
280
1
270
1
271
1
0
XRECORD
5
F90
102
{ACAD_REACTORS
330
F8C
102
}
330
F8C
100
AcDbXrecord
280
1
270
1
271
1
0
XRECORD
5
F92
102
{ACAD_REACTORS
330
F8C
102
}
330
F8C
100
AcDbXrecord
280
1
270
1
271
1
0
XRECORD
5
F8F
102
{ACAD_REACTORS
330
F8C
102
}
330
F8C
100
AcDbXrecord
280
1
270
1
271
1
0
CELLSTYLEMAP
5
1079
102
{ACAD_REACTORS
330
FF8
102
}
330
FF8
100
AcDbCellStyleMap
90
3
300
CELLSTYLE
1
TABLEFORMAT_BEGIN
90
5
170
1
91
0
92
32768
62
257
93
1
300
CONTENTFORMAT
1
CONTENTFORMAT_BEGIN
90
0
91
0
92
512
93
0
300

40
0.0
140
1.0
94
5
62
0
340
253
144
0.25
309
CONTENTFORMAT_END
171
1
301
MARGIN
1
CELLMARGIN_BEGIN
40
0.06
40
0.06
40
0.06
40
0.06
40
0.18
40
0.18
309
CELLMARGIN_END
94
6
95
1
302
GRIDFORMAT
1
GRIDFORMAT_BEGIN
90
0
91
1
62
0
92
-2
340
0
93
0
40
0.045
309
GRIDFORMAT_END
95
2
302
GRIDFORMAT
1
GRIDFORMAT_BEGIN
90
0
91
1
62
0
92
-2
340
0
93
0
40
0.045
309
GRIDFORMAT_END
95
4
302
GRIDFORMAT
1
GRIDFORMAT_BEGIN
90
0
91
1
62
0
92
-2
340
0
93
0
40
0.045
309
GRIDFORMAT_END
95
8
302
GRIDFORMAT
1
GRIDFORMAT_BEGIN
90
0
91
1
62
0
92
-2
340
0
93
0
40
0.045
309
GRIDFORMAT_END
95
16
302
GRIDFORMAT
1
GRIDFORMAT_BEGIN
90
0
91
1
62
0
92
-2
340
0
93
0
40
0.045
309
GRIDFORMAT_END
95
32
302
GRIDFORMAT
1
GRIDFORMAT_BEGIN
90
0
91
1
62
0
92
-2
340
0
93
0
40
0.045
309
GRIDFORMAT_END
309
TABLEFORMAT_END
1
CELLSTYLE_BEGIN
90
1
91
1
300
_TITLE
309
CELLSTYLE_END
300
CELLSTYLE
1
TABLEFORMAT_BEGIN
90
5
170
1
91
0
92
0
62
257
93
1
300
CONTENTFORMAT
1
CONTENTFORMAT_BEGIN
90
0
91
0
92
512
93
0
300

40
0.0
140
1.0
94
5
62
0
340
253
144
0.18
309
CONTENTFORMAT_END
171
1
301
MARGIN
1
CELLMARGIN_BEGIN
40
0.06
40
0.06
40
0.06
40
0.06
40
0.18
40
0.18
309
CELLMARGIN_END
94
6
95
1
302
GRIDFORMAT
1
GRIDFORMAT_BEGIN
90
0
91
1
62
0
92
-2
340
0
93
0
40
0.045
309
GRIDFORMAT_END
95
2
302
GRIDFORMAT
1
GRIDFORMAT_BEGIN
90
0
91
1
62
0
92
-2
340
0
93
0
40
0.045
309
GRIDFORMAT_END
95
4
302
GRIDFORMAT
1
GRIDFORMAT_BEGIN
90
0
91
1
62
0
92
-2
340
0
93
0
40
0.045
309
GRIDFORMAT_END
95
8
302
GRIDFORMAT
1
GRIDFORMAT_BEGIN
90
0
91
1
62
0
92
-2
340
0
93
0
40
0.045
309
GRIDFORMAT_END
95
16
302
GRIDFORMAT
1
GRIDFORMAT_BEGIN
90
0
91
1
62
0
92
-2
340
0
93
0
40
0.045
309
GRIDFORMAT_END
95
32
302
GRIDFORMAT
1
GRIDFORMAT_BEGIN
90
0
91
1
62
0
92
-2
340
0
93
0
40
0.045
309
GRIDFORMAT_END
309
TABLEFORMAT_END
1
CELLSTYLE_BEGIN
90
2
91
1
300
_HEADER
309
CELLSTYLE_END
300
CELLSTYLE
1
TABLEFORMAT_BEGIN
90
5
170
1
91
0
92
0
62
257
93
1
300
CONTENTFORMAT
1
CONTENTFORMAT_BEGIN
90
0
91
0
92
512
93
0
300

40
0.0
140
1.0
94
2
62
0
340
253
144
0.18
309
CONTENTFORMAT_END
171
1
301
MARGIN
1
CELLMARGIN_BEGIN
40
0.06
40
0.06
40
0.06
40
0.06
40
0.18
40
0.18
309
CELLMARGIN_END
94
6
95
1
302
GRIDFORMAT
1
GRIDFORMAT_BEGIN
90
0
91
1
62
0
92
-2
340
0
93
0
40
0.045
309
GRIDFORMAT_END
95
2
302
GRIDFORMAT
1
GRIDFORMAT_BEGIN
90
0
91
1
62
0
92
-2
340
0
93
0
40
0.045
309
GRIDFORMAT_END
95
4
302
GRIDFORMAT
1
GRIDFORMAT_BEGIN
90
0
91
1
62
0
92
-2
340
0
93
0
40
0.045
309
GRIDFORMAT_END
95
8
302
GRIDFORMAT
1
GRIDFORMAT_BEGIN
90
0
91
1
62
0
92
-2
340
0
93
0
40
0.045
309
GRIDFORMAT_END
95
16
302
GRIDFORMAT
1
GRIDFORMAT_BEGIN
90
0
91
1
62
0
92
-2
340
0
93
0
40
0.045
309
GRIDFORMAT_END
95
32
302
GRIDFORMAT
1
GRIDFORMAT_BEGIN
90
0
91
1
62
0
92
-2
340
0
93
0
40
0.045
309
GRIDFORMAT_END
309
TABLEFORMAT_END
1
CELLSTYLE_BEGIN
90
3
91
2
300
_DATA
309
CELLSTYLE_END
0
XRECORD
5
10A6
102
{ACAD_REACTORS
330
FF8
102
}
330
FF8
100
AcDbXrecord
280
1
102
ACAD_ROUNDTRIP_PRE2007_TABLESTYLE
90
512
91
0
1

92
512
93
0
2

94
512
95
0
3

0
XRECORD
5
108B
102
{ACAD_REACTORS
330
108A
102
}
330
108A
100
AcDbXrecord
280
1
102
RTVSPropertyOp0
70
1
102
RTVSPropertyOp1
70
1
102
RTVSPropertyOp2
70
1
102
RTVSPropertyOp3
70
1
102
RTVSPropertyOp4
70
1
102
RTVSPropertyOp5
70
1
102
RTVSPropertyOp6
70
1
102
RTVSPropertyOp7
70
1
102
RTVSPropertyOp8
70
1
102
RTVSPropertyOp9
70
1
102
RTVSPropertyOp10
70
1
102
RTVSPropertyOp11
70
1
102
RTVSPropertyOp12
70
1
102
RTVSPropertyOp13
70
1
102
RTVSPropertyOp14
70
1
102
RTVSPropertyOp15
70
1
102
RTVSPropertyOp16
70
1
102
RTVSPropertyOp17
70
1
102
RTVSPropertyOp18
70
1
102
RTVSPropertyOp19
70
1
102
RTVSPropertyOp20
70
1
102
RTVSPropertyOp21
70
1
102
RTVSPropertyOp22
70
1
102
RTVSPropertyOp23
70
1
102
RTVSPropertyOp24
70
1
102
RTVSPropertyOp25
70
1
102
RTVSPropertyOp26
70
1
102
RTVSPropertyOp27
70
1
0
XRECORD
5
108F
102
{ACAD_REACTORS
330
108E
102
}
330
108E
100
AcDbXrecord
280
1
102
RTVSPropertyOp0
70
1
102
RTVSPropertyOp1
70
1
102
RTVSPropertyOp2
70
1
102
RTVSPropertyOp3
70
1
102
RTVSPropertyOp4
70
1
102
RTVSPropertyOp5
70
1
102
RTVSPropertyOp6
70
1
102
RTVSPropertyOp7
70
1
102
RTVSPropertyOp8
70
1
102
RTVSPropertyOp9
70
1
102
RTVSPropertyOp10
70
1
102
RTVSPropertyOp11
70
1
102
RTVSPropertyOp12
70
1
102
RTVSPropertyOp13
70
1
102
RTVSPropertyOp14
70
1
102
RTVSPropertyOp15
70
1
102
RTVSPropertyOp16
70
1
102
RTVSPropertyOp17
70
1
102
RTVSPropertyOp18
70
1
102
RTVSPropertyOp19
70
1
102
RTVSPropertyOp20
70
1
102
RTVSPropertyOp21
70
1
102
RTVSPropertyOp22
70
1
102
RTVSPropertyOp23
70
1
102
RTVSPropertyOp24
70
1
102
RTVSPropertyOp25
70
1
102
RTVSPropertyOp26
70
1
102
RTVSPropertyOp27
70
1
0
XRECORD
5
108D
102
{ACAD_REACTORS
330
108C
102
}
330
108C
100
AcDbXrecord
280
1
102
RTVSPropertyOp0
70
1
102
RTVSPropertyOp1
70
1
102
RTVSPropertyOp2
70
1
102
RTVSPropertyOp3
70
1
102
RTVSPropertyOp4
70
1
102
RTVSPropertyOp5
70
1
102
RTVSPropertyOp6
70
1
102
RTVSPropertyOp7
70
1
102
RTVSPropertyOp8
70
1
102
RTVSPropertyOp9
70
1
102
RTVSPropertyOp10
70
1
102
RTVSPropertyOp11
70
1
102
RTVSPropertyOp12
70
1
102
RTVSPropertyOp13
70
1
102
RTVSPropertyOp14
70
1
102
RTVSPropertyOp15
70
1
102
RTVSPropertyOp16
70
1
102
RTVSPropertyOp17
70
1
102
RTVSPropertyOp18
70
1
102
RTVSPropertyOp19
70
1
102
RTVSPropertyOp20
70
1
102
RTVSPropertyOp21
70
1
102
RTVSPropertyOp22
70
1
102
RTVSPropertyOp23
70
1
102
RTVSPropertyOp24
70
1
102
RTVSPropertyOp25
70
1
102
RTVSPropertyOp26
70
1
102
RTVSPropertyOp27
70
1
0
XRECORD
5
1089
102
{ACAD_REACTORS
330
1088
102
}
330
1088
100
AcDbXrecord
280
1
102
RTVSPropertyOp0
70
1
102
RTVSPropertyOp1
70
1
102
RTVSPropertyOp2
70
1
102
RTVSPropertyOp3
70
1
102
RTVSPropertyOp4
70
1
102
RTVSPropertyOp5
70
1
102
RTVSPropertyOp6
70
1
102
RTVSPropertyOp7
70
1
102
RTVSPropertyOp8
70
1
102
RTVSPropertyOp9
70
1
102
RTVSPropertyOp10
70
1
102
RTVSPropertyOp11
70
1
102
RTVSPropertyOp12
70
1
102
RTVSPropertyOp13
70
1
102
RTVSPropertyOp14
70
1
102
RTVSPropertyOp15
70
1
102
RTVSPropertyOp16
70
1
102
RTVSPropertyOp17
70
1
102
RTVSPropertyOp18
70
1
102
RTVSPropertyOp19
70
1
102
RTVSPropertyOp20
70
1
102
RTVSPropertyOp21
70
1
102
RTVSPropertyOp22
70
1
102
RTVSPropertyOp23
70
1
102
RTVSPropertyOp24
70
1
102
RTVSPropertyOp25
70
1
102
RTVSPropertyOp26
70
1
102
RTVSPropertyOp27
70
1
0
XRECORD
5
1097
102
{ACAD_REACTORS
330
1096
102
}
330
1096
100
AcDbXrecord
280
1
102
RTVSPropertyOp0
70
1
102
RTVSPropertyOp1
70
1
102
RTVSPropertyOp2
70
1
102
RTVSPropertyOp3
70
1
102
RTVSPropertyOp4
70
1
102
RTVSPropertyOp5
70
1
102
RTVSPropertyOp6
70
1
102
RTVSPropertyOp7
70
1
102
RTVSPropertyOp8
70
1
102
RTVSPropertyOp9
70
1
102
RTVSPropertyOp10
70
1
102
RTVSPropertyOp11
70
1
102
RTVSPropertyOp12
70
1
102
RTVSPropertyOp13
70
1
102
RTVSPropertyOp14
70
1
102
RTVSPropertyOp15
70
1
102
RTVSPropertyOp16
70
1
102
RTVSPropertyOp17
70
1
102
RTVSPropertyOp18
70
1
102
RTVSPropertyOp19
70
1
102
RTVSPropertyOp20
70
1
102
RTVSPropertyOp21
70
1
102
RTVSPropertyOp22
70
1
102
RTVSPropertyOp23
70
1
102
RTVSPropertyOp24
70
1
102
RTVSPropertyOp25
70
1
102
RTVSPropertyOp26
70
1
102
RTVSPropertyOp27
70
1
0
XRECORD
5
109F
102
{ACAD_REACTORS
330
109E
102
}
330
109E
100
AcDbXrecord
280
1
102
RTVSPropertyOp0
70
1
102
RTVSPropertyOp1
70
1
102
RTVSPropertyOp2
70
1
102
RTVSPropertyOp3
70
1
102
RTVSPropertyOp4
70
1
102
RTVSPropertyOp5
70
1
102
RTVSPropertyOp6
70
1
102
RTVSPropertyOp7
70
1
102
RTVSPropertyOp8
70
1
102
RTVSPropertyOp9
70
1
102
RTVSPropertyOp10
70
1
102
RTVSPropertyOp11
70
1
102
RTVSPropertyOp12
70
1
102
RTVSPropertyOp13
70
1
102
RTVSPropertyOp14
70
1
102
RTVSPropertyOp15
70
1
102
RTVSPropertyOp16
70
1
102
RTVSPropertyOp17
70
1
102
RTVSPropertyOp18
70
1
102
RTVSPropertyOp19
70
1
102
RTVSPropertyOp20
70
1
102
RTVSPropertyOp21
70
1
102
RTVSPropertyOp22
70
1
102
RTVSPropertyOp23
70
1
102
RTVSPropertyOp24
70
1
102
RTVSPropertyOp25
70
1
102
RTVSPropertyOp26
70
1
102
RTVSPropertyOp27
70
1
0
XRECORD
5
1091
102
{ACAD_REACTORS
330
1090
102
}
330
1090
100
AcDbXrecord
280
1
102
RTVSPropertyOp0
70
1
102
RTVSPropertyOp1
70
1
102
RTVSPropertyOp2
70
1
102
RTVSPropertyOp3
70
1
102
RTVSPropertyOp4
70
1
102
RTVSPropertyOp5
70
1
102
RTVSPropertyOp6
70
1
102
RTVSPropertyOp7
70
1
102
RTVSPropertyOp8
70
1
102
RTVSPropertyOp9
70
1
102
RTVSPropertyOp10
70
1
102
RTVSPropertyOp11
70
1
102
RTVSPropertyOp12
70
1
102
RTVSPropertyOp13
70
1
102
RTVSPropertyOp14
70
1
102
RTVSPropertyOp15
70
1
102
RTVSPropertyOp16
70
1
102
RTVSPropertyOp17
70
1
102
RTVSPropertyOp18
70
1
102
RTVSPropertyOp19
70
1
102
RTVSPropertyOp20
70
1
102
RTVSPropertyOp21
70
1
102
RTVSPropertyOp22
70
1
102
RTVSPropertyOp23
70
1
102
RTVSPropertyOp24
70
1
102
RTVSPropertyOp25
70
1
102
RTVSPropertyOp26
70
1
102
RTVSPropertyOp27
70
1
0
XRECORD
5
1095
102
{ACAD_REACTORS
330
1094
102
}
330
1094
100
AcDbXrecord
280
1
102
RTVSPropertyOp0
70
1
102
RTVSPropertyOp1
70
1
102
RTVSPropertyOp2
70
1
102
RTVSPropertyOp3
70
1
102
RTVSPropertyOp4
70
1
102
RTVSPropertyOp5
70
1
102
RTVSPropertyOp6
70
1
102
RTVSPropertyOp7
70
1
102
RTVSPropertyOp8
70
1
102
RTVSPropertyOp9
70
1
102
RTVSPropertyOp10
70
1
102
RTVSPropertyOp11
70
1
102
RTVSPropertyOp12
70
1
102
RTVSPropertyOp13
70
1
102
RTVSPropertyOp14
70
1
102
RTVSPropertyOp15
70
1
102
RTVSPropertyOp16
70
1
102
RTVSPropertyOp17
70
1
102
RTVSPropertyOp18
70
1
102
RTVSPropertyOp19
70
1
102
RTVSPropertyOp20
70
1
102
RTVSPropertyOp21
70
1
102
RTVSPropertyOp22
70
1
102
RTVSPropertyOp23
70
1
102
RTVSPropertyOp24
70
1
102
RTVSPropertyOp25
70
1
102
RTVSPropertyOp26
70
1
102
RTVSPropertyOp27
70
1
0
XRECORD
5
10A5
102
{ACAD_REACTORS
330
10A4
102
}
330
10A4
100
AcDbXrecord
280
1
102
RTVSPropertyOp0
70
0
102
RTVSPropertyOp1
70
0
102
RTVSPropertyOp2
70
0
102
RTVSPropertyOp3
70
0
102
RTVSPropertyOp4
70
0
102
RTVSPropertyOp5
70
0
102
RTVSPropertyOp6
70
0
102
RTVSPropertyOp7
70
0
102
RTVSPropertyOp8
70
0
102
RTVSPropertyOp9
70
0
102
RTVSPropertyOp10
70
0
102
RTVSPropertyOp11
70
0
102
RTVSPropertyOp12
70
0
102
RTVSPropertyOp13
70
0
102
RTVSPropertyOp14
70
2
102
RTVSPropertyOp15
70
0
102
RTVSPropertyOp16
70
0
102
RTVSPropertyOp17
70
0
102
RTVSPropertyOp18
70
0
102
RTVSPropertyOp19
70
0
102
RTVSPropertyOp20
70
0
102
RTVSPropertyOp21
70
0
102
RTVSPropertyOp22
70
0
102
RTVSPropertyOp23
70
0
102
RTVSPropertyOp24
70
0
102
RTVSPropertyOp25
70
0
102
RTVSPropertyOp26
70
0
102
RTVSPropertyOp27
70
0
0
XRECORD
5
109D
102
{ACAD_REACTORS
330
109C
102
}
330
109C
100
AcDbXrecord
280
1
102
RTVSPropertyOp0
70
1
102
RTVSPropertyOp1
70
1
102
RTVSPropertyOp2
70
1
102
RTVSPropertyOp3
70
1
102
RTVSPropertyOp4
70
1
102
RTVSPropertyOp5
70
1
102
RTVSPropertyOp6
70
1
102
RTVSPropertyOp7
70
1
102
RTVSPropertyOp8
70
1
102
RTVSPropertyOp9
70
1
102
RTVSPropertyOp10
70
1
102
RTVSPropertyOp11
70
1
102
RTVSPropertyOp12
70
1
102
RTVSPropertyOp13
70
1
102
RTVSPropertyOp14
70
1
102
RTVSPropertyOp15
70
1
102
RTVSPropertyOp16
70
1
102
RTVSPropertyOp17
70
1
102
RTVSPropertyOp18
70
1
102
RTVSPropertyOp19
70
1
102
RTVSPropertyOp20
70
1
102
RTVSPropertyOp21
70
1
102
RTVSPropertyOp22
70
1
102
RTVSPropertyOp23
70
1
102
RTVSPropertyOp24
70
1
102
RTVSPropertyOp25
70
1
102
RTVSPropertyOp26
70
1
102
RTVSPropertyOp27
70
1
0
XRECORD
5
1081
102
{ACAD_REACTORS
330
1080
102
}
330
1080
100
AcDbXrecord
280
1
102
RTVSPropertyOp0
70
1
102
RTVSPropertyOp1
70
1
102
RTVSPropertyOp2
70
1
102
RTVSPropertyOp3
70
1
102
RTVSPropertyOp4
70
1
102
RTVSPropertyOp5
70
1
102
RTVSPropertyOp6
70
1
102
RTVSPropertyOp7
70
1
102
RTVSPropertyOp8
70
1
102
RTVSPropertyOp9
70
1
102
RTVSPropertyOp10
70
1
102
RTVSPropertyOp11
70
1
102
RTVSPropertyOp12
70
1
102
RTVSPropertyOp13
70
1
102
RTVSPropertyOp14
70
1
102
RTVSPropertyOp15
70
1
102
RTVSPropertyOp16
70
1
102
RTVSPropertyOp17
70
1
102
RTVSPropertyOp18
70
1
102
RTVSPropertyOp19
70
1
102
RTVSPropertyOp20
70
1
102
RTVSPropertyOp21
70
1
102
RTVSPropertyOp22
70
1
102
RTVSPropertyOp23
70
1
102
RTVSPropertyOp24
70
1
102
RTVSPropertyOp25
70
1
102
RTVSPropertyOp26
70
1
102
RTVSPropertyOp27
70
1
0
XRECORD
5
1083
102
{ACAD_REACTORS
330
1082
102
}
330
1082
100
AcDbXrecord
280
1
102
RTVSPropertyOp0
70
1
102
RTVSPropertyOp1
70
1
102
RTVSPropertyOp2
70
1
102
RTVSPropertyOp3
70
1
102
RTVSPropertyOp4
70
1
102
RTVSPropertyOp5
70
1
102
RTVSPropertyOp6
70
1
102
RTVSPropertyOp7
70
1
102
RTVSPropertyOp8
70
1
102
RTVSPropertyOp9
70
1
102
RTVSPropertyOp10
70
1
102
RTVSPropertyOp11
70
1
102
RTVSPropertyOp12
70
1
102
RTVSPropertyOp13
70
1
102
RTVSPropertyOp14
70
1
102
RTVSPropertyOp15
70
1
102
RTVSPropertyOp16
70
1
102
RTVSPropertyOp17
70
1
102
RTVSPropertyOp18
70
1
102
RTVSPropertyOp19
70
1
102
RTVSPropertyOp20
70
1
102
RTVSPropertyOp21
70
1
102
RTVSPropertyOp22
70
1
102
RTVSPropertyOp23
70
1
102
RTVSPropertyOp24
70
1
102
RTVSPropertyOp25
70
1
102
RTVSPropertyOp26
70
1
102
RTVSPropertyOp27
70
1
0
XRECORD
5
1085
102
{ACAD_REACTORS
330
1084
102
}
330
1084
100
AcDbXrecord
280
1
102
RTVSPropertyOp0
70
1
102
RTVSPropertyOp1
70
1
102
RTVSPropertyOp2
70
1
102
RTVSPropertyOp3
70
1
102
RTVSPropertyOp4
70
1
102
RTVSPropertyOp5
70
1
102
RTVSPropertyOp6
70
1
102
RTVSPropertyOp7
70
1
102
RTVSPropertyOp8
70
1
102
RTVSPropertyOp9
70
1
102
RTVSPropertyOp10
70
1
102
RTVSPropertyOp11
70
1
102
RTVSPropertyOp12
70
1
102
RTVSPropertyOp13
70
1
102
RTVSPropertyOp14
70
1
102
RTVSPropertyOp15
70
1
102
RTVSPropertyOp16
70
1
102
RTVSPropertyOp17
70
1
102
RTVSPropertyOp18
70
1
102
RTVSPropertyOp19
70
1
102
RTVSPropertyOp20
70
1
102
RTVSPropertyOp21
70
1
102
RTVSPropertyOp22
70
1
102
RTVSPropertyOp23
70
1
102
RTVSPropertyOp24
70
1
102
RTVSPropertyOp25
70
1
102
RTVSPropertyOp26
70
1
102
RTVSPropertyOp27
70
1
0
XRECORD
5
1087
102
{ACAD_REACTORS
330
1086
102
}
330
1086
100
AcDbXrecord
280
1
102
RTVSPropertyOp0
70
1
102
RTVSPropertyOp1
70
1
102
RTVSPropertyOp2
70
1
102
RTVSPropertyOp3
70
1
102
RTVSPropertyOp4
70
1
102
RTVSPropertyOp5
70
1
102
RTVSPropertyOp6
70
1
102
RTVSPropertyOp7
70
1
102
RTVSPropertyOp8
70
1
102
RTVSPropertyOp9
70
1
102
RTVSPropertyOp10
70
1
102
RTVSPropertyOp11
70
1
102
RTVSPropertyOp12
70
1
102
RTVSPropertyOp13
70
1
102
RTVSPropertyOp14
70
1
102
RTVSPropertyOp15
70
1
102
RTVSPropertyOp16
70
1
102
RTVSPropertyOp17
70
1
102
RTVSPropertyOp18
70
1
102
RTVSPropertyOp19
70
1
102
RTVSPropertyOp20
70
1
102
RTVSPropertyOp21
70
1
102
RTVSPropertyOp22
70
1
102
RTVSPropertyOp23
70
1
102
RTVSPropertyOp24
70
1
102
RTVSPropertyOp25
70
1
102
RTVSPropertyOp26
70
1
102
RTVSPropertyOp27
70
1
0
XRECORD
5
10A1
102
{ACAD_REACTORS
330
10A0
102
}
330
10A0
100
AcDbXrecord
280
1
102
RTVSPropertyOp0
70
0
102
RTVSPropertyOp1
70
0
102
RTVSPropertyOp2
70
0
102
RTVSPropertyOp3
70
0
102
RTVSPropertyOp4
70
0
102
RTVSPropertyOp5
70
0
102
RTVSPropertyOp6
70
0
102
RTVSPropertyOp7
70
0
102
RTVSPropertyOp8
70
0
102
RTVSPropertyOp9
70
0
102
RTVSPropertyOp10
70
0
102
RTVSPropertyOp11
70
0
102
RTVSPropertyOp12
70
0
102
RTVSPropertyOp13
70
0
102
RTVSPropertyOp14
70
2
102
RTVSPropertyOp15
70
0
102
RTVSPropertyOp16
70
0
102
RTVSPropertyOp17
70
0
102
RTVSPropertyOp18
70
0
102
RTVSPropertyOp19
70
0
102
RTVSPropertyOp20
70
0
102
RTVSPropertyOp21
70
0
102
RTVSPropertyOp22
70
0
102
RTVSPropertyOp23
70
0
102
RTVSPropertyOp24
70
0
102
RTVSPropertyOp25
70
0
102
RTVSPropertyOp26
70
0
102
RTVSPropertyOp27
70
0
0
XRECORD
5
109B
102
{ACAD_REACTORS
330
109A
102
}
330
109A
100
AcDbXrecord
280
1
102
RTVSPropertyOp0
70
1
102
RTVSPropertyOp1
70
1
102
RTVSPropertyOp2
70
1
102
RTVSPropertyOp3
70
1
102
RTVSPropertyOp4
70
1
102
RTVSPropertyOp5
70
1
102
RTVSPropertyOp6
70
1
102
RTVSPropertyOp7
70
1
102
RTVSPropertyOp8
70
1
102
RTVSPropertyOp9
70
1
102
RTVSPropertyOp10
70
1
102
RTVSPropertyOp11
70
1
102
RTVSPropertyOp12
70
1
102
RTVSPropertyOp13
70
1
102
RTVSPropertyOp14
70
1
102
RTVSPropertyOp15
70
1
102
RTVSPropertyOp16
70
1
102
RTVSPropertyOp17
70
1
102
RTVSPropertyOp18
70
1
102
RTVSPropertyOp19
70
1
102
RTVSPropertyOp20
70
1
102
RTVSPropertyOp21
70
1
102
RTVSPropertyOp22
70
1
102
RTVSPropertyOp23
70
1
102
RTVSPropertyOp24
70
1
102
RTVSPropertyOp25
70
1
102
RTVSPropertyOp26
70
1
102
RTVSPropertyOp27
70
1
0
XRECORD
5
10A3
102
{ACAD_REACTORS
330
10A2
102
}
330
10A2
100
AcDbXrecord
280
1
102
RTVSPropertyOp0
70
0
102
RTVSPropertyOp1
70
0
102
RTVSPropertyOp2
70
0
102
RTVSPropertyOp3
70
0
102
RTVSPropertyOp4
70
0
102
RTVSPropertyOp5
70
0
102
RTVSPropertyOp6
70
0
102
RTVSPropertyOp7
70
0
102
RTVSPropertyOp8
70
0
102
RTVSPropertyOp9
70
0
102
RTVSPropertyOp10
70
0
102
RTVSPropertyOp11
70
0
102
RTVSPropertyOp12
70
0
102
RTVSPropertyOp13
70
0
102
RTVSPropertyOp14
70
2
102
RTVSPropertyOp15
70
0
102
RTVSPropertyOp16
70
0
102
RTVSPropertyOp17
70
0
102
RTVSPropertyOp18
70
0
102
RTVSPropertyOp19
70
0
102
RTVSPropertyOp20
70
0
102
RTVSPropertyOp21
70
0
102
RTVSPropertyOp22
70
0
102
RTVSPropertyOp23
70
0
102
RTVSPropertyOp24
70
0
102
RTVSPropertyOp25
70
0
102
RTVSPropertyOp26
70
0
102
RTVSPropertyOp27
70
0
0
XRECORD
5
1093
102
{ACAD_REACTORS
330
1092
102
}
330
1092
100
AcDbXrecord
280
1
102
RTVSPropertyOp0
70
1
102
RTVSPropertyOp1
70
1
102
RTVSPropertyOp2
70
1
102
RTVSPropertyOp3
70
1
102
RTVSPropertyOp4
70
1
102
RTVSPropertyOp5
70
1
102
RTVSPropertyOp6
70
1
102
RTVSPropertyOp7
70
1
102
RTVSPropertyOp8
70
1
102
RTVSPropertyOp9
70
1
102
RTVSPropertyOp10
70
1
102
RTVSPropertyOp11
70
1
102
RTVSPropertyOp12
70
1
102
RTVSPropertyOp13
70
1
102
RTVSPropertyOp14
70
1
102
RTVSPropertyOp15
70
1
102
RTVSPropertyOp16
70
1
102
RTVSPropertyOp17
70
1
102
RTVSPropertyOp18
70
1
102
RTVSPropertyOp19
70
1
102
RTVSPropertyOp20
70
1
102
RTVSPropertyOp21
70
1
102
RTVSPropertyOp22
70
1
102
RTVSPropertyOp23
70
1
102
RTVSPropertyOp24
70
1
102
RTVSPropertyOp25
70
1
102
RTVSPropertyOp26
70
1
102
RTVSPropertyOp27
70
1
0
XRECORD
5
1099
102
{ACAD_REACTORS
330
1098
102
}
330
1098
100
AcDbXrecord
280
1
102
RTVSPropertyOp0
70
1
102
RTVSPropertyOp1
70
1
102
RTVSPropertyOp2
70
1
102
RTVSPropertyOp3
70
1
102
RTVSPropertyOp4
70
1
102
RTVSPropertyOp5
70
1
102
RTVSPropertyOp6
70
1
102
RTVSPropertyOp7
70
1
102
RTVSPropertyOp8
70
1
102
RTVSPropertyOp9
70
1
102
RTVSPropertyOp10
70
1
102
RTVSPropertyOp11
70
1
102
RTVSPropertyOp12
70
1
102
RTVSPropertyOp13
70
1
102
RTVSPropertyOp14
70
1
102
RTVSPropertyOp15
70
1
102
RTVSPropertyOp16
70
1
102
RTVSPropertyOp17
70
1
102
RTVSPropertyOp18
70
1
102
RTVSPropertyOp19
70
1
102
RTVSPropertyOp20
70
1
102
RTVSPropertyOp21
70
1
102
RTVSPropertyOp22
70
1
102
RTVSPropertyOp23
70
1
102
RTVSPropertyOp24
70
1
102
RTVSPropertyOp25
70
1
102
RTVSPropertyOp26
70
1
102
RTVSPropertyOp27
70
1
0
ENDSEC
0
EOF
