0
SECTION
2
HEADER
9
$ACADVER
1
AC1015
9
$ACADMAINTVER
70
20
9
$DWGCODEPAGE
3
ANSI_1252
9
$INSBASE
10
0.0
20
0.0
30
0.0
9
$EXTMIN
10
-150.000000000000
20
-105.000000000000
30
0.0
9
$EXTMAX
10
150.000000000000
20
105.000000000000
30
0.0
9
$LIMMIN
10
0.0
20
0.0
9
$LIMMAX
10
12.0
20
9.0
9
$ORTHOMODE
70
0
9
$REGENMODE
70
1
9
$FILLMODE
70
1
9
$QTEXTMODE
70
0
9
$MIRRTEXT
70
1
9
$LTSCALE
40
1.0
9
$ATTMODE
70
1
9
$TEXTSIZE
40
0.2
9
$TRACEWID
40
0.05
9
$TEXTSTYLE
7
Standard
9
$CLAYER
8
0
9
$CELTYPE
6
ByLayer
9
$CECOLOR
62
256
9
$CELTSCALE
40
1.0
9
$DISPSILH
70
0
9
$DIMSCALE
40
1.0
9
$DIMASZ
40
2.5
9
$DIMEXO
40
0.625
9
$DIMDLI
40
0.38
9
$DIMRND
40
0.0
9
$DIMDLE
40
0.0
9
$DIMEXE
40
1.25
9
$DIMTP
40
0.0
9
$DIMTM
40
0.000000001
9
$DIMTXT
40
2.5
9
$DIMCEN
40
0.09
9
$DIMTSZ
40
0.0
9
$DIMTOL
70
1
9
$DIMLIM
70
0
9
$DIMTIH
70
0
9
$DIMTOH
70
0
9
$DIMSE1
70
0
9
$DIMSE2
70
0
9
$DIMTAD
70
1
9
$DIMZIN
70
0
9
$DIMBLK
1
VDDIM_DEFAULT
9
$DIMASO
70
1
9
$DIMSHO
70
1
9
$DIMPOST
1

9
$DIMAPOST
1

9
$DIMALT
70
0
9
$DIMALTD
70
2
9
$DIMALTF
40
25.4
9
$DIMLFAC
40
1.00000000000000
9
$DIMTOFL
70
0
9
$DIMTVP
40
0.0
9
$DIMTIX
70
0
9
$DIMSOXD
70
0
9
$DIMSAH
70
0
9
$DIMBLK1
1

9
$DIMBLK2
1

9
$DIMSTYLE
2
BEM-ISBE
9
$DIMCLRD
70
0
9
$DIMCLRE
70
0
9
$DIMCLRT
70
0
9
$DIMTFAC
40
0.5
9
$DIMGAP
40
0.625
9
$DIMJUST
70
0
9
$DIMSD1
70
0
9
$DIMSD2
70
0
9
$DIMTOLJ
70
1
9
$DIMTZIN
70
0
9
$DIMALTZ
70
0
9
$DIMALTTZ
70
0
9
$DIMUPT
70
0
9
$DIMDEC
70
3
9
$DIMTDEC
70
3
9
$DIMALTU
70
2
9
$DIMALTTD
70
2
9
$DIMTXSTY
7
Standard
9
$DIMAUNIT
70
0
9
$DIMADEC
70
3
9
$DIMALTRND
40
0.0
9
$DIMAZIN
70
0
9
$DIMDSEP
70
46
9
$DIMATFIT
70
3
9
$DIMFRAC
70
0
9
$DIMLDRBLK
1

9
$DIMLUNIT
70
2
9
$DIMLWD
70
-2
9
$DIMLWE
70
-2
9
$DIMTMOVE
70
0
9
$LUNITS
70
2
9
$LUPREC
70
4
9
$SKETCHINC
40
0.1
9
$FILLETRAD
40
0.5
9
$AUNITS
70
0
9
$AUPREC
70
0
9
$MENU
1
.
9
$ELEVATION
40
0.0
9
$PELEVATION
40
0.0
9
$THICKNESS
40
0.0
9
$LIMCHECK
70
0
9
$CHAMFERA
40
0.5
9
$CHAMFERB
40
0.5
9
$CHAMFERC
40
1.0
9
$CHAMFERD
40
0.0
9
$SKPOLY
70
0
9
$TDCREATE
40
0.0
9
$TDUCREATE
40
0.0
9
$TDUPDATE
40
0.0
9
$TDUUPDATE
40
0.0
9
$TDINDWG
40
0.0
9
$TDUSRTIMER
40
0.0
9
$USRTIMER
70
1
9
$ANGBASE
50
0.0
9
$ANGDIR
70
0
9
$PDMODE
70
0
9
$PDSIZE
40
0.0
9
$PLINEWID
40
0.0
9
$SPLFRAME
70
0
9
$SPLINETYPE
70
6
9
$SPLINESEGS
70
8
9
$HANDSEED
5
10AB
9
$SURFTAB1
70
6
9
$SURFTAB2
70
6
9
$SURFTYPE
70
6
9
$SURFU
70
6
9
$SURFV
70
6
9
$UCSBASE
2

9
$UCSNAME
2

9
$UCSORG
10
0.0
20
0.0
30
0.0
9
$UCSXDIR
10
1.0
20
0.0
30
0.0
9
$UCSYDIR
10
0.0
20
1.0
30
0.0
9
$UCSORTHOREF
2

9
$UCSORTHOVIEW
70
0
9
$UCSORGTOP
10
0.0
20
0.0
30
0.0
9
$UCSORGBOTTOM
10
0.0
20
0.0
30
0.0
9
$UCSORGLEFT
10
0.0
20
0.0
30
0.0
9
$UCSORGRIGHT
10
0.0
20
0.0
30
0.0
9
$UCSORGFRONT
10
0.0
20
0.0
30
0.0
9
$UCSORGBACK
10
0.0
20
0.0
30
0.0
9
$PUCSBASE
2

9
$PUCSNAME
2

9
$PUCSORG
10
0.0
20
0.0
30
0.0
9
$PUCSXDIR
10
1.0
20
0.0
30
0.0
9
$PUCSYDIR
10
0.0
20
1.0
30
0.0
9
$PUCSORTHOREF
2

9
$PUCSORTHOVIEW
70
0
9
$PUCSORGTOP
10
0.0
20
0.0
30
0.0
9
$PUCSORGBOTTOM
10
0.0
20
0.0
30
0.0
9
$PUCSORGLEFT
10
0.0
20
0.0
30
0.0
9
$PUCSORGRIGHT
10
0.0
20
0.0
30
0.0
9
$PUCSORGFRONT
10
0.0
20
0.0
30
0.0
9
$PUCSORGBACK
10
0.0
20
0.0
30
0.0
9
$USERI1
70
0
9
$USERI2
70
0
9
$USERI3
70
0
9
$USERI4
70
0
9
$USERI5
70
0
9
$USERR1
40
0.0
9
$USERR2
40
0.0
9
$USERR3
40
0.0
9
$USERR4
40
0.0
9
$USERR5
40
0.0
9
$WORLDVIEW
70
1
9
$SHADEDGE
70
3
9
$SHADEDIF
70
70
9
$TILEMODE
70
1
9
$MAXACTVP
70
64
9
$PINSBASE
10
0.0
20
0.0
30
0.0
9
$PLIMCHECK
70
0
9
$PEXTMIN
10
1.000000000000000E+20
20
1.000000000000000E+20
30
1.000000000000000E+20
9
$PEXTMAX
10
-1.000000000000000E+20
20
-1.000000000000000E+20
30
-1.000000000000000E+20
9
$PLIMMIN
10
0.0
20
0.0
9
$PLIMMAX
10
12.0
20
9.0
9
$UNITMODE
70
0
9
$VISRETAIN
70
1
9
$PLINEGEN
70
0
9
$PSLTSCALE
70
1
9
$TREEDEPTH
70
3020
9
$CMLSTYLE
2
Standard
9
$CMLJUST
70
0
9
$CMLSCALE
40
1.0
9
$PROXYGRAPHICS
70
1
9
$MEASUREMENT
70
0
9
$CELWEIGHT
370
-1
9
$ENDCAPS
280
0
9
$JOINSTYLE
280
0
9
$LWDISPLAY
290
0
9
$INSUNITS
70
4
9
$HYPERLINKBASE
1

9
$STYLESHEET
1

9
$XEDIT
290
1
9
$CEPSNTYPE
380
0
9
$PSTYLEMODE
290
0
9
$FINGERPRINTGUID
2
{FAEB1C30-E019-11D5-929B-00C0DF256EC4}
9
$VERSIONGUID
2
{04C5C4E4-4947-4D90-8812-D401569E61F7}
9
$EXTNAMES
290
1
9
$PSVPSCALE
40
0.0
9
$OLESTARTUP
290
0
0
ENDSEC
0
SECTION
2
CLASSES
0
CLASS
1
ACDBDICTIONARYWDFLT
2
AcDbDictionaryWithDefault
3
ObjectDBX Classes
90
0
280
0
281
0
0
CLASS
1
ACDBPLACEHOLDER
2
AcDbPlaceHolder
3
ObjectDBX Classes
90
0
280
0
281
0
0
CLASS
1
LAYOUT
2
AcDbLayout
3
ObjectDBX Classes
90
0
280
0
281
0
0
CLASS
1
MATERIAL
2
AcDbMaterial
3
ObjectDBX Classes
90
1153
280
0
281
0
0
CLASS
1
VISUALSTYLE
2
AcDbVisualStyle
3
ObjectDBX Classes
90
4095
280
0
281
0
0
CLASS
1
TABLESTYLE
2
AcDbTableStyle
3
ObjectDBX Classes
90
4095
280
0
281
0
0
CLASS
1
SCALE
2
AcDbScale
3
ObjectDBX Classes
90
1153
280
0
281
0
0
CLASS
1
MLEADERSTYLE
2
AcDbMLeaderStyle
3
ACDB_MLEADERSTYLE_CLASS
90
4095
280
0
281
0
0
CLASS
1
DICTIONARYVAR
2
AcDbDictionaryVar
3
ObjectDBX Classes
90
0
280
0
281
0
0
CLASS
1
CELLSTYLEMAP
2
AcDbCellStyleMap
3
ObjectDBX Classes
90
1152
280
0
281
0
0
ENDSEC
0
SECTION
2
TABLES
0
TABLE
2
VPORT
5
24A
330
0
100
AcDbSymbolTable
70
1
0
VPORT
5
26B
330
24A
100
AcDbSymbolTableRecord
100
AcDbViewportTableRecord
2
*Active
70
0
10
0.0
20
0.0
11
1.0
21
1.0
12
0.000000000000000
22
0.000000000000000
13
0.0
23
0.0
14
10.0
24
10.0
15
10.0
25
10.0
16
0.0
26
0.0
36
1.0
17
0.0
27
0.0
37
0.0
40
210.000000000000
41
1.42857142857143
42
1.0
43
0.0
44
0.0
50
0.0
51
0.0000000000007958
71
0
72
100
73
1
74
3
75
0
76
0
77
0
78
1
281
0
65
1
110
0.0
120
0.0
130
0.0
111
1.0
121
0.0
131
0.0
112
0.0
122
1.0
132
0.0
79
0
146
0.0
0
ENDTAB
0
TABLE
2
LTYPE
5
247
330
0
100
AcDbSymbolTable
70
25
0
LTYPE
5
256
330
247
100
AcDbSymbolTableRecord
100
AcDbLinetypeTableRecord
2
ByBlock
70
0
3

72
65
73
0
40
0.0
0
LTYPE
5
257
330
247
100
AcDbSymbolTableRecord
100
AcDbLinetypeTableRecord
2
ByLayer
70
0
3

72
65
73
0
40
0.0
0
LTYPE
5
258
330
247
100
AcDbSymbolTableRecord
100
AcDbLinetypeTableRecord
2
Continuous
70
0
3
Solid line
72
65
73
0
40
0.0
0
LTYPE
5
273
330
247
100
AcDbSymbolTableRecord
100
AcDbLinetypeTableRecord
2
CENTER
70
0
3
Center ____ _ ____ _ ____ _ ____ _ ____ _ ____
72
65
73
4
40
2.0
49
1.25
74
0
49
-0.25
74
0
49
0.25
74
0
49
-0.25
74
0
0
LTYPE
5
274
330
247
100
AcDbSymbolTableRecord
100
AcDbLinetypeTableRecord
2
DASHDOT
70
0
3
Dashdot __ . __ . __ . __ . __ . __ . __ . __
72
65
73
4
40
1.0
49
0.5
74
0
49
-0.25
74
0
49
0.0
74
0
49
-0.25
74
0
0
LTYPE
5
275
330
247
100
AcDbSymbolTableRecord
100
AcDbLinetypeTableRecord
2
DASHED
70
0
3
Dashed __ __ __ __ __ __ __ __ __ __ __ __ __ _
72
65
73
2
40
0.75
49
0.5
74
0
49
-0.25
74
0
0
LTYPE
5
276
330
247
100
AcDbSymbolTableRecord
100
AcDbLinetypeTableRecord
2
HIDDEN
70
0
3
Hidden __ __ __ __ __ __ __ __ __ __ __ __ __ __
72
65
73
2
40
0.375
49
0.25
74
0
49
-0.125
74
0
0
LTYPE
5
277
330
247
100
AcDbSymbolTableRecord
100
AcDbLinetypeTableRecord
2
HIDDEN2
70
0
3
Hidden2 _ _ _ _ _ _ _ _ _ _ _ _ _ _ _ _ _
72
65
73
2
40
0.1875
49
0.125
74
0
49
-0.0625
74
0
0
LTYPE
5
278
330
247
100
AcDbSymbolTableRecord
100
AcDbLinetypeTableRecord
2
BORDER
70
0
3
Border __ __ . __ __ . __ __ . __ __ . __ __ .
72
65
73
6
40
1.75
49
0.5
74
0
49
-0.25
74
0
49
0.5
74
0
49
-0.25
74
0
49
0.0
74
0
49
-0.25
74
0
0
LTYPE
5
279
330
247
100
AcDbSymbolTableRecord
100
AcDbLinetypeTableRecord
2
BORDER2
70
0
3
Border2 __.__.__.__.__.__.__.__.__.__.__.
72
65
73
6
40
0.875
49
0.25
74
0
49
-0.125
74
0
49
0.25
74
0
49
-0.125
74
0
49
0.0
74
0
49
-0.125
74
0
0
LTYPE
5
27A
330
247
100
AcDbSymbolTableRecord
100
AcDbLinetypeTableRecord
2
BORDERX2
70
0
3
Borderx2  ____  ____  .  ____  ____  .  ___
72
65
73
6
40
3.5
49
1.0
74
0
49
-0.5
74
0
49
1.0
74
0
49
-0.5
74
0
49
0.0
74
0
49
-0.5
74
0
0
LTYPE
5
27B
330
247
100
AcDbSymbolTableRecord
100
AcDbLinetypeTableRecord
2
CENTER2
70
0
3
Center2  ___ _ ___ _ ___ _ ___ _ ___ _ ___
72
65
73
4
40
1.125
49
0.75
74
0
49
-0.125
74
0
49
0.125
74
0
49
-0.125
74
0
0
LTYPE
5
27C
330
247
100
AcDbSymbolTableRecord
100
AcDbLinetypeTableRecord
2
CENTERX2
70
0
3
Centerx2  ________  __  ________  __  _____
72
65
73
4
40
4.0
49
2.5
74
0
49
-0.5
74
0
49
0.5
74
0
49
-0.5
74
0
0
LTYPE
5
27D
330
247
100
AcDbSymbolTableRecord
100
AcDbLinetypeTableRecord
2
DASHDOT2
70
0
3
Dashdot2  _._._._._._._._._._._._._._._.
72
65
73
4
40
0.5
49
0.25
74
0
49
-0.125
74
0
49
0.0
74
0
49
-0.125
74
0
0
LTYPE
5
27E
330
247
100
AcDbSymbolTableRecord
100
AcDbLinetypeTableRecord
2
DASHDOTX2
70
0
3
Dashdotx2 ____  .  ____  .  ____  .  ___
72
65
73
4
40
2.0
49
1.0
74
0
49
-0.5
74
0
49
0.0
74
0
49
-0.5
74
0
0
LTYPE
5
27F
330
247
100
AcDbSymbolTableRecord
100
AcDbLinetypeTableRecord
2
DASHED2
70
0
3
Dashed2 _ _ _ _ _ _ _ _ _ _ _ _ _ _ _ _ _
72
65
73
2
40
0.375
49
0.25
74
0
49
-0.125
74
0
0
LTYPE
5
280
330
247
100
AcDbSymbolTableRecord
100
AcDbLinetypeTableRecord
2
DASHEDX2
70
0
3
Dashedx2 ____  ____  ____  ____  ____  ___
72
65
73
2
40
1.5
49
1.0
74
0
49
-0.5
74
0
0
LTYPE
5
281
330
247
100
AcDbSymbolTableRecord
100
AcDbLinetypeTableRecord
2
DIVIDE
70
0
3
Divide ____ . . ____ . . ____ . . ____ . . ____
72
65
73
6
40
1.25
49
0.5
74
0
49
-0.25
74
0
49
0.0
74
0
49
-0.25
74
0
49
0.0
74
0
49
-0.25
74
0
0
LTYPE
5
282
330
247
100
AcDbSymbolTableRecord
100
AcDbLinetypeTableRecord
2
DIVIDE2
70
0
3
Divide2 __..__..__..__..__..__..__..__.._
72
65
73
6
40
0.625
49
0.25
74
0
49
-0.125
74
0
49
0.0
74
0
49
-0.125
74
0
49
0.0
74
0
49
-0.125
74
0
0
LTYPE
5
283
330
247
100
AcDbSymbolTableRecord
100
AcDbLinetypeTableRecord
2
DIVIDEX2
70
0
3
Dividex2 ________  .  .  ________  .  .  _
72
65
73
6
40
2.5
49
1.0
74
0
49
-0.5
74
0
49
0.0
74
0
49
-0.5
74
0
49
0.0
74
0
49
-0.5
74
0
0
LTYPE
5
284
330
247
100
AcDbSymbolTableRecord
100
AcDbLinetypeTableRecord
2
DOT
70
0
3
Dot . . . . . . . . . . . . . . . . . . . . . . . .
72
65
73
2
40
0.25
49
0.0
74
0
49
-0.25
74
0
0
LTYPE
5
285
330
247
100
AcDbSymbolTableRecord
100
AcDbLinetypeTableRecord
2
DOT2
70
0
3
Dot2 ........................................
72
65
73
2
40
0.125
49
0.0
74
0
49
-0.125
74
0
0
LTYPE
5
286
330
247
100
AcDbSymbolTableRecord
100
AcDbLinetypeTableRecord
2
DOTX2
70
0
3
Dotx2 .  .  .  .  .  .  .  .  .  .  .  .  .  .
72
65
73
2
40
0.5
49
0.0
74
0
49
-0.5
74
0
0
LTYPE
5
287
330
247
100
AcDbSymbolTableRecord
100
AcDbLinetypeTableRecord
2
HIDDENX2
70
0
3
Hiddenx2 ____ ____ ____ ____ ____ ____ ____
72
65
73
2
40
0.75
49
0.5
74
0
49
-0.25
74
0
0
LTYPE
5
288
330
247
100
AcDbSymbolTableRecord
100
AcDbLinetypeTableRecord
2
PHANTOM
70
0
3
Phantom ______  __  __  ______  __  __  ______
72
65
73
6
40
2.5
49
1.25
74
0
49
-0.25
74
0
49
0.25
74
0
49
-0.25
74
0
49
0.25
74
0
49
-0.25
74
0
0
LTYPE
5
289
330
247
100
AcDbSymbolTableRecord
100
AcDbLinetypeTableRecord
2
PHANTOM2
70
0
3
Phantom2 ___ _ _ ___ _ _ ___ _ _ ___ _ _
72
65
73
6
40
1.25
49
0.625
74
0
49
-0.125
74
0
49
0.125
74
0
49
-0.125
74
0
49
0.125
74
0
49
-0.125
74
0
0
LTYPE
5
28A
330
247
100
AcDbSymbolTableRecord
100
AcDbLinetypeTableRecord
2
PHANTOMX2
70
0
3
Phantomx2 ____________    ____    ____   _
72
65
73
6
40
5.0
49
2.5
74
0
49
-0.5
74
0
49
0.5
74
0
49
-0.5
74
0
49
0.5
74
0
49
-0.5
74
0
0
ENDTAB
0
TABLE
2
LAYER
5
244
330
0
100
AcDbSymbolTable
70
6
0
LAYER
5
252
330
244
100
AcDbSymbolTableRecord
100
AcDbLayerTableRecord
2
0
70
0
62
7
6
Continuous
370
0
390
251
0
LAYER
5
23F
330
244
100
AcDbSymbolTableRecord
100
AcDbLayerTableRecord
2
Bemassung
70
0
 62
   7
6
Continuous
370
0
390
251
0
LAYER
5
240
330
244
100
AcDbSymbolTableRecord
100
AcDbLayerTableRecord
2
Rahmen
70
0
 62
   7
6
Continuous
370
0
390
251
0
LAYER
5
241
330
244
100
AcDbSymbolTableRecord
100
AcDbLayerTableRecord
2
Geo
70
0
 62
   7
6
Continuous
370
0
390
251
0
LAYER
5
33A
330
244
100
AcDbSymbolTableRecord
100
AcDbLayerTableRecord
2
Defpoints
70
0
62
7
6
Continuous
290
0
370
-3
390
251
0
LAYER
5
57E
330
244
100
AcDbSymbolTableRecord
100
AcDbLayerTableRecord
2
Text
70
0
 62
   7
6
Continuous
370
0
390
251
1001
AcAecLayerStandard
1000

1000

0
ENDTAB
0
TABLE
2
STYLE
5
245
330
0
100
AcDbSymbolTable
70
2
0
STYLE
5
253
330
245
100
AcDbSymbolTableRecord
100
AcDbTextStyleTableRecord
2
Standard
70
0
40
0.0
41
1.0
50
0.0
71
0
42
0.2
3
Arial
4

1001
ACAD
1000
Arial
1071
0
0
STYLE
5
132
330
245
100
AcDbSymbolTableRecord
100
AcDbTextStyleTableRecord
2
Beschriftung
70
0
40
0.0
41
1.0
50
0.0
71
0
42
0.2
3
Arial
4

1001
ACAD
1000
Arial
1071
0
1001
AcadAnnotative
1000
AnnotativeData
1070
1
1070
1
0
ENDTAB
0
TABLE
2
VIEW
5
248
330
0
100
AcDbSymbolTable
70
0
0
ENDTAB
0
TABLE
2
UCS
5
249
330
0
100
AcDbSymbolTable
70
0
0
ENDTAB
0
TABLE
2
APPID
5
24B
330
0
100
AcDbSymbolTable
70
13
0
APPID
5
254
330
24B
100
AcDbSymbolTableRecord
100
AcDbRegAppTableRecord
2
ACAD
70
0
0
APPID
5
26C
330
24B
100
AcDbSymbolTableRecord
100
AcDbRegAppTableRecord
2
VD_INVISIBLE_NOT_FOR_READ
70
0
0
APPID
5
26D
330
24B
100
AcDbSymbolTableRecord
100
AcDbRegAppTableRecord
2
VD_TEMPHATCH
70
0
0
APPID
5
26E
330
24B
100
AcDbSymbolTableRecord
100
AcDbRegAppTableRecord
2
VDEXTRAPARAM
70
0
0
APPID
5
26F
330
24B
100
AcDbSymbolTableRecord
100
AcDbRegAppTableRecord
2
PE_URL
70
0
0
APPID
5
270
330
24B
100
AcDbSymbolTableRecord
100
AcDbRegAppTableRecord
2
VD_UNKNOWN
70
0
0
APPID
5
28F
330
24B
100
AcDbSymbolTableRecord
100
AcDbRegAppTableRecord
2
AcadAnnotative
70
0
0
APPID
5
290
330
24B
100
AcDbSymbolTableRecord
100
AcDbRegAppTableRecord
2
ACAD_DSTYLE_DIMJAG
70
0
0
APPID
5
291
330
24B
100
AcDbSymbolTableRecord
100
AcDbRegAppTableRecord
2
ACAD_DSTYLE_DIMTALN
70
0
0
APPID
5
293
330
24B
100
AcDbSymbolTableRecord
100
AcDbRegAppTableRecord
2
ACAD_PSEXT
70
0
0
APPID
5
42A
330
24B
100
AcDbSymbolTableRecord
100
AcDbRegAppTableRecord
2
ACAD_MLEADERVER
70
0
0
APPID
5
532
330
24B
100
AcDbSymbolTableRecord
100
AcDbRegAppTableRecord
2
ACAD_EXEMPT_FROM_CAD_STANDARDS
70
0
0
APPID
5
57F
330
24B
100
AcDbSymbolTableRecord
100
AcDbRegAppTableRecord
2
AcAecLayerStandard
70
0
0
ENDTAB
0
TABLE
2
DIMSTYLE
5
24C
330
0
100
AcDbSymbolTable
70
3
100
AcDbDimStyleTable
71
2
340
27
340
269
0
DIMSTYLE
105
269
330
24C
100
AcDbSymbolTableRecord
100
AcDbDimStyleTableRecord
2
Standard
70
0
172
1
174
1
288
1
340
253
342
23C
0
DIMSTYLE
105
137
330
24C
100
AcDbSymbolTableRecord
100
AcDbDimStyleTableRecord
2
Beschriftung
70
0
41
2.5
42
0.625
44
1.25
73
0
74
0
77
1
140
2.5
147
0.625
172
1
174
1
271
2
288
1
340
253
342
23C
1001
AcadAnnotative
1000
AnnotativeData
1070
1
1070
1
1001
ACAD_DSTYLE_DIMJAG
1070
388
1040
1.5
1001
ACAD_DSTYLE_DIMTALN
1070
392
1070
0
0
DIMSTYLE
105
27
102
{ACAD_REACTORS
330
F10003
330
F10012
330
F10017
330
F10021
330
F10008
330
F1000D
330
F1001C
102
}
330
24C
100
AcDbSymbolTableRecord
100
AcDbDimStyleTableRecord
2
BEM-ISBE
70
0
41
2.5
42
0.625
44
1.25
48
0.000000001
71
1
73
0
74
0
77
1
140
2.5
144
1.00000000000000
146
0.5
147
0.625
171
 3
172
 1
179
 3
271
 3
272
 3
274
 3
340
253
342
23C
1001
ACAD_DSTYLE_DIMJAG
1070
388
1040
1.5
1001
ACAD_DSTYLE_DIMTALN
1070
392
1070
1
0
ENDTAB
0
TABLE
2
BLOCK_RECORD
5
243
330
0
100
AcDbSymbolTable
70
5
0
BLOCK_RECORD
5
261
330
243
100
AcDbSymbolTableRecord
100
AcDbBlockTableRecord
2
*Model_Space
340
FD0
0
BLOCK_RECORD
5
25D
330
243
100
AcDbSymbolTableRecord
100
AcDbBlockTableRecord
2
*Paper_Space
340
FD1
0
BLOCK_RECORD
5
265
330
243
100
AcDbSymbolTableRecord
100
AcDbBlockTableRecord
2
*Paper_Space0
340
0
0
BLOCK_RECORD
5
23C
330
243
100
AcDbSymbolTableRecord
100
AcDbBlockTableRecord
2
VDDIM_DEFAULT
340
0
102
{BLKREFS
102
}
0
BLOCK_RECORD
5
23E
330
243
100
AcDbSymbolTableRecord
100
AcDbBlockTableRecord
2
VDDIM_NONE
340
0
0
BLOCK_RECORD
5
F10002
330
243
100
AcDbSymbolTableRecord
100
AcDbBlockTableRecord
2
*D3
340
0
0
BLOCK_RECORD
5
F10011
330
243
100
AcDbSymbolTableRecord
100
AcDbBlockTableRecord
2
*D6
340
0
0
BLOCK_RECORD
5
F10016
330
243
100
AcDbSymbolTableRecord
100
AcDbBlockTableRecord
2
*D7
340
0
0
BLOCK_RECORD
5
F10020
330
243
100
AcDbSymbolTableRecord
100
AcDbBlockTableRecord
2
*D9
340
0
0
BLOCK_RECORD
5
F10007
330
243
100
AcDbSymbolTableRecord
100
AcDbBlockTableRecord
2
*D4
340
0
0
BLOCK_RECORD
5
F1000C
330
243
100
AcDbSymbolTableRecord
100
AcDbBlockTableRecord
2
*D5
340
0
0
BLOCK_RECORD
5
F1001B
330
243
100
AcDbSymbolTableRecord
100
AcDbBlockTableRecord
2
*D8
340
0
0
ENDTAB
0
ENDSEC
0
SECTION
2
BLOCKS
0
BLOCK
5
262
330
261
100
AcDbEntity
8
0
100
AcDbBlockBegin
2
*Model_Space
70
0
10
0.0
20
0.0
30
0.0
3
*Model_Space
1

0
ENDBLK
5
263
330
261
100
AcDbEntity
8
0
100
AcDbBlockEnd
0
BLOCK
5
25E
330
25D
100
AcDbEntity
67
1
8
0
100
AcDbBlockBegin
2
*Paper_Space
70
0
10
0.0
20
0.0
30
0.0
3
*Paper_Space
1

0
ENDBLK
5
25F
330
25D
100
AcDbEntity
67
1
8
0
100
AcDbBlockEnd
0
BLOCK
5
266
330
265
100
AcDbEntity
8
0
100
AcDbBlockBegin
2
*Paper_Space0
70
0
10
0.0
20
0.0
30
0.0
3
*Paper_Space0
1

0
VIEWPORT
5
296
102
{ACAD_XDICTIONARY
360
58E
102
}
330
265
100
AcDbEntity
8
0
60
1
100
AcDbViewport
10
0.0
20
0.0
30
0.0
40
10.0
41
10.0
69
0
12
0.0
22
0.0
13
0.0
23
0.0
14
1.0
24
1.0
15
0.0
25
0.0
16
0.0
26
0.0
36
1.0
17
0.0
27
0.0
37
0.0
42
0.0
43
0.0
44
0.0
45
10.0
50
0.0
51
0.0000000000007958
72
100
90
163872
1

281
0
71
0
74
0
110
0.0
120
0.0
130
0.0
111
1.0
121
0.0
131
0.0
112
0.0
122
1.0
132
0.0
79
0
146
0.0
1001
VD_INVISIBLE_NOT_FOR_READ
1000
VD_INVISIBLE_NOT_FOR_READ
0
VIEWPORT
5
297
102
{ACAD_XDICTIONARY
360
590
102
}
330
265
100
AcDbEntity
8
0
60
1
100
AcDbViewport
10
0.0
20
0.0
30
0.0
40
10.0
41
10.0
69
0
12
0.0
22
0.0
13
0.0
23
0.0
14
1.0
24
1.0
15
0.0
25
0.0
16
0.0
26
0.0
36
1.0
17
0.0
27
0.0
37
0.0
42
0.0
43
0.0
44
0.0
45
10.0
50
0.0
51
0.0000000000007958
72
100
90
163872
1

281
0
71
0
74
0
110
0.0
120
0.0
130
0.0
111
1.0
121
0.0
131
0.0
112
0.0
122
1.0
132
0.0
79
0
146
0.0
1001
VD_INVISIBLE_NOT_FOR_READ
1000
VD_INVISIBLE_NOT_FOR_READ
0
ENDBLK
5
267
330
265
100
AcDbEntity
8
0
100
AcDbBlockEnd
0
BLOCK
5
28B
330
23C
100
AcDbEntity
8
0
100
AcDbBlockBegin
2
VDDIM_DEFAULT
70
0
10
0.0
20
0.0
30
0.0
3
VDDIM_DEFAULT
1

0
LWPOLYLINE
5
23D
330
23C
100
AcDbEntity
8
0
6
Continuous
62
0
100
AcDbPolyline
90
4
70
0
43
0.0
10
0.0
20
0.0
10
-1.0
20
-0.1665
10
-1.0
20
0.1665
10
0.0
20
0.0
1001
VDEXTRAPARAM
1071
1
1071
0
1071
0
1040
1.0
1000

1000

1040
0.0
1040
0.0
0
HATCH
5
292
330
23C
100
AcDbEntity
8
0
6
Continuous
62
0
100
AcDbHatch
10
0.0
20
0.0
30
0.0
210
0.0
220
0.0
230
1.0
2
SOLID
70
1
71
0
91
1
92
2
72
0
73
1
93
3
10
0.0
20
0.0
10
-1.0
20
-0.1665
10
-1.0
20
0.1665
97
0
75
0
76
1
98
1
10
0.0
20
0.0
1001
VDEXTRAPARAM
1071
1
1071
0
1071
0
1040
1.0
1000

1000

1040
0.0
1040
0.0
1001
VD_TEMPHATCH
1000
VD_TEMPHATCH
0
ENDBLK
5
28C
330
23C
100
AcDbEntity
8
0
100
AcDbBlockEnd
0
BLOCK
5
28D
330
23E
100
AcDbEntity
8
0
100
AcDbBlockBegin
2
VDDIM_NONE
70
0
10
0.0
20
0.0
30
0.0
3
VDDIM_NONE
1

0
ENDBLK
5
28E
330
23E
100
AcDbEntity
8
0
100
AcDbBlockEnd
  0
BLOCK
  5
F10025
330
F10002
100
AcDbEntity
  8
0
100
AcDbBlockBegin
  2
*D3
 70
     1
 10
0.0
 20
0.0
 30
0.0
  3
*D3
  1

  0
LINE
  5
F10026
330
F10002
100
AcDbEntity
  8
Bemassung
 62
     0
370
    -2
100
AcDbLine
10
-50.4492293744334
20
-7.43245693563009
30
0.000000000000000
11
-50.4492293744334
21
34.5675430643699
31
0.000000000000000
  0
LINE
  5
F10027
330
F10002
100
AcDbEntity
  8
Bemassung
 62
     0
370
    -2
100
AcDbLine
10
-50.2492293744334
20
14.5675430643699
30
0.000000000000000
11
-50.2492293744334
21
18.5675430643699
31
0.000000000000000
  0
LINE
  5
F10028
330
F10002
100
AcDbEntity
  8
Bemassung
 62
     0
370
    -2
100
AcDbLine
10
-67.7787851314597
20
16.5675430643699
30
0.000000000000000
11
-50.2492293744334
21
16.5675430643699
31
0.000000000000000
  0
INSERT
  5
F10029
330
F10002
100
AcDbEntity
  8
Bemassung
 62
     0
370
    -2
100
AcDbBlockReference
  2
VDDIM_DEFAULT
10
-50.4492293744334
20
16.5675430643699
30
0.000000000000000
 41
2.50000000000000
 42
2.50000000000000
 43
2.50000000000000
  0
INSERT
  5
F1002A
330
F10002
100
AcDbEntity
  8
Bemassung
 62
     0
370
    -2
100
AcDbBlockReference
  2
VDDIM_DEFAULT
10
-50.2492293744334
20
16.5675430643699
30
0.000000000000000
 41
2.50000000000000
 42
2.50000000000000
 43
2.50000000000000
 50
180.000000000000
  0
MTEXT
  5
F1002B
330
F10002
100
AcDbEntity
  8
Bemassung
 62
     0
100
AcDbMText
10
-54.4514959202176
20
17.2342097310366
30
0.000000000000000
 40
2.50000000000000
 41
0.0
 71
     8
 72
     1
  1
0.2 x 45°
 11
1.00000000000000
 21
0.000000000000000
 31
0.0
 73
     1
 44
1.0
1001
ACAD
1000
MTEXTBEGIN
1070
73
1070
1
1070
44
1040
1.0
1070
74
1070
0
1000
MTEXTEND
  0
POINT
  5
F1002C
330
F10002
100
AcDbEntity
  8
Bemassung
 62
     0
100
AcDbPoint
10
-50.4492293744334
20
-7.43245693563009
30
0.000000000000000
  0
POINT
  5
F1002D
330
F10002
100
AcDbEntity
  8
Bemassung
 62
     0
100
AcDbPoint
10
-50.2492293744334
20
14.5675430643699
30
0.000000000000000
  0
ENDBLK
  5
F1002E
330
F10002
100
AcDbEntity
  8
0
100
AcDbBlockEnd
  0
BLOCK
  5
F1002F
330
F10011
100
AcDbEntity
  8
0
100
AcDbBlockBegin
  2
*D6
 70
     1
 10
0.0
 20
0.0
 30
0.0
  3
*D6
  1

  0
LINE
  5
F10030
330
F10011
100
AcDbEntity
  8
Bemassung
 62
     0
370
    -2
100
AcDbLine
10
-30.4492293744334
20
2.86754306436991
30
0.000000000000000
11
-30.4492293744334
21
-7.43245693563009
31
0.000000000000000
  0
LINE
  5
F10031
330
F10011
100
AcDbEntity
  8
Bemassung
 62
     0
370
    -2
100
AcDbLine
10
-50.4492293744334
20
-7.43245693563009
30
0.000000000000000
11
-50.4492293744334
21
34.5675430643699
31
0.000000000000000
  0
LINE
  5
F10032
330
F10011
100
AcDbEntity
  8
Bemassung
 62
     0
370
    -2
100
AcDbLine
10
-30.4492293744334
20
-5.43245693563009
30
0.000000000000000
11
-50.4492293744334
21
-5.43245693563009
31
0.000000000000000
  0
INSERT
  5
F10033
330
F10011
100
AcDbEntity
  8
Bemassung
 62
     0
370
    -2
100
AcDbBlockReference
  2
VDDIM_DEFAULT
10
-30.4492293744334
20
-5.43245693563009
30
0.000000000000000
 41
2.50000000000000
 42
2.50000000000000
 43
2.50000000000000
  0
INSERT
  5
F10034
330
F10011
100
AcDbEntity
  8
Bemassung
 62
     0
370
    -2
100
AcDbBlockReference
  2
VDDIM_DEFAULT
10
-50.4492293744334
20
-5.43245693563009
30
0.000000000000000
 41
2.50000000000000
 42
2.50000000000000
 43
2.50000000000000
 50
180.000000000000
  0
MTEXT
  5
F10035
330
F10011
100
AcDbEntity
  8
Bemassung
 62
     0
100
AcDbMText
10
-40.4492293744334
20
-4.76579026896342
30
0.000000000000000
 40
2.50000000000000
 41
0.0
 71
     8
 72
     1
  1
20
 11
1.00000000000000
 21
0.000000000000000
 31
0.0
 73
     1
 44
1.0
1001
ACAD
1000
MTEXTBEGIN
1070
73
1070
1
1070
44
1040
1.0
1070
74
1070
0
1000
MTEXTEND
  0
POINT
  5
F10036
330
F10011
100
AcDbEntity
  8
Bemassung
 62
     0
100
AcDbPoint
10
-30.4492293744334
20
2.86754306436991
30
0.000000000000000
  0
POINT
  5
F10037
330
F10011
100
AcDbEntity
  8
Bemassung
 62
     0
100
AcDbPoint
10
-50.4492293744334
20
-7.43245693563009
30
0.000000000000000
  0
ENDBLK
  5
F10038
330
F10011
100
AcDbEntity
  8
0
100
AcDbBlockEnd
  0
BLOCK
  5
F10039
330
F10016
100
AcDbEntity
  8
0
100
AcDbBlockBegin
  2
*D7
 70
     1
 10
0.0
 20
0.0
 30
0.0
  3
*D7
  1

  0
LINE
  5
F1003A
330
F10016
100
AcDbEntity
  8
Bemassung
 62
     0
370
    -2
100
AcDbLine
10
57.5507706255666
20
13.5675430643699
30
0.000000000000000
11
57.5507706255666
21
34.5675430643699
31
0.000000000000000
  0
LINE
  5
F1003B
330
F10016
100
AcDbEntity
  8
Bemassung
 62
     0
370
    -2
100
AcDbLine
10
-50.4492293744334
20
-7.43245693563009
30
0.000000000000000
11
-50.4492293744334
21
34.5675430643699
31
0.000000000000000
  0
LINE
  5
F1003C
330
F10016
100
AcDbEntity
  8
Bemassung
 62
     0
370
    -2
100
AcDbLine
10
57.5507706255666
20
32.5675430643699
30
0.000000000000000
11
-50.4492293744334
21
32.5675430643699
31
0.000000000000000
  0
INSERT
  5
F1003D
330
F10016
100
AcDbEntity
  8
Bemassung
 62
     0
370
    -2
100
AcDbBlockReference
  2
VDDIM_DEFAULT
10
57.5507706255666
20
32.5675430643699
30
0.000000000000000
 41
2.50000000000000
 42
2.50000000000000
 43
2.50000000000000
  0
INSERT
  5
F1003E
330
F10016
100
AcDbEntity
  8
Bemassung
 62
     0
370
    -2
100
AcDbBlockReference
  2
VDDIM_DEFAULT
10
-50.4492293744334
20
32.5675430643699
30
0.000000000000000
 41
2.50000000000000
 42
2.50000000000000
 43
2.50000000000000
 50
180.000000000000
  0
MTEXT
  5
F1003F
330
F10016
100
AcDbEntity
  8
Bemassung
 62
     0
100
AcDbMText
10
3.55077062556664
20
33.2342097310366
30
0.000000000000000
 40
2.50000000000000
 41
0.0
 71
     8
 72
     1
  1
108
 11
1.00000000000000
 21
0.000000000000000
 31
0.0
 73
     1
 44
1.0
1001
ACAD
1000
MTEXTBEGIN
1070
73
1070
1
1070
44
1040
1.0
1070
74
1070
0
1000
MTEXTEND
  0
POINT
  5
F10040
330
F10016
100
AcDbEntity
  8
Bemassung
 62
     0
100
AcDbPoint
10
57.5507706255666
20
13.5675430643699
30
0.000000000000000
  0
POINT
  5
F10041
330
F10016
100
AcDbEntity
  8
Bemassung
 62
     0
100
AcDbPoint
10
-50.4492293744334
20
-7.43245693563009
30
0.000000000000000
  0
ENDBLK
  5
F10042
330
F10016
100
AcDbEntity
  8
0
100
AcDbBlockEnd
  0
BLOCK
  5
F10043
330
F10020
100
AcDbEntity
  8
0
100
AcDbBlockBegin
  2
*D9
 70
     1
 10
0.0
 20
0.0
 30
0.0
  3
*D9
  1

  0
LINE
  5
F10044
330
F10020
100
AcDbEntity
  8
Bemassung
 62
     0
370
    -2
100
AcDbLine
10
-50.4492293744334
20
14.3675430643699
30
0.000000000000000
11
-50.4492293744334
21
24.3487632181534
31
0.000000000000000
  0
LINE
  5
F10045
330
F10020
100
AcDbEntity
  8
Bemassung
 62
     0
370
    -2
100
AcDbLine
10
11.5507706255666
20
14.5675430643699
30
0.000000000000000
11
11.5507706255666
21
24.3487632181534
31
0.000000000000000
  0
LINE
  5
F10046
330
F10020
100
AcDbEntity
  8
Bemassung
 62
     0
370
    -2
100
AcDbLine
10
-50.4492293744334
20
22.3487632181534
30
0.000000000000000
11
11.5507706255666
21
22.3487632181534
31
0.000000000000000
  0
INSERT
  5
F10047
330
F10020
100
AcDbEntity
  8
Bemassung
 62
     0
370
    -2
100
AcDbBlockReference
  2
VDDIM_DEFAULT
10
-50.4492293744334
20
22.3487632181534
30
0.000000000000000
 41
2.50000000000000
 42
2.50000000000000
 43
2.50000000000000
 50
180.000000000000
  0
INSERT
  5
F10048
330
F10020
100
AcDbEntity
  8
Bemassung
 62
     0
370
    -2
100
AcDbBlockReference
  2
VDDIM_DEFAULT
10
11.5507706255666
20
22.3487632181534
30
0.000000000000000
 41
2.50000000000000
 42
2.50000000000000
 43
2.50000000000000
  0
MTEXT
  5
F10049
330
F10020
100
AcDbEntity
  8
Bemassung
 62
     0
100
AcDbMText
10
-19.4492293744334
20
23.0154298848201
30
0.000000000000000
 40
2.50000000000000
 41
0.0
 71
     8
 72
     1
  1
62
 11
1.00000000000000
 21
0.000000000000000
 31
0.0
 73
     1
 44
1.0
1001
ACAD
1000
MTEXTBEGIN
1070
73
1070
1
1070
44
1040
1.0
1070
74
1070
0
1000
MTEXTEND
  0
POINT
  5
F1004A
330
F10020
100
AcDbEntity
  8
Bemassung
 62
     0
100
AcDbPoint
10
-50.4492293744334
20
14.3675430643699
30
0.000000000000000
  0
POINT
  5
F1004B
330
F10020
100
AcDbEntity
  8
Bemassung
 62
     0
100
AcDbPoint
10
11.5507706255666
20
14.5675430643699
30
0.000000000000000
  0
ENDBLK
  5
F1004C
330
F10020
100
AcDbEntity
  8
0
100
AcDbBlockEnd
  0
BLOCK
  5
F1004D
330
F10007
100
AcDbEntity
  8
0
100
AcDbBlockBegin
  2
*D4
 70
     1
 10
0.0
 20
0.0
 30
0.0
  3
*D4
  1

  0
LINE
  5
F1004E
330
F10007
100
AcDbEntity
  8
Bemassung
 62
     0
370
    -2
100
AcDbLine
10
-50.2492293744334
20
2.56754306436991
30
0.000000000000000
11
-62.4492293744334
21
2.56754306436991
31
0.000000000000000
  0
LINE
  5
F1004F
330
F10007
100
AcDbEntity
  8
Bemassung
 62
     0
370
    -2
100
AcDbLine
10
-50.2492293744334
20
14.5675430643699
30
0.000000000000000
11
-62.4492293744334
21
14.5675430643699
31
0.000000000000000
  0
LINE
  5
F10050
330
F10007
100
AcDbEntity
  8
Bemassung
 62
     0
370
    -2
100
AcDbLine
10
-60.4492293744334
20
2.56754306436991
30
0.000000000000000
11
-60.4492293744334
21
14.5675430643699
31
0.000000000000000
  0
INSERT
  5
F10051
330
F10007
100
AcDbEntity
  8
Bemassung
 62
     0
370
    -2
100
AcDbBlockReference
  2
VDDIM_DEFAULT
10
-60.4492293744334
20
2.56754306436991
30
0.000000000000000
 41
2.50000000000000
 42
2.50000000000000
 43
2.50000000000000
 50
270.000000000000
  0
INSERT
  5
F10052
330
F10007
100
AcDbEntity
  8
Bemassung
 62
     0
370
    -2
100
AcDbBlockReference
  2
VDDIM_DEFAULT
10
-60.4492293744334
20
14.5675430643699
30
0.000000000000000
 41
2.50000000000000
 42
2.50000000000000
 43
2.50000000000000
 50
90.0000000000000
  0
MTEXT
  5
F10053
330
F10007
100
AcDbEntity
  8
Bemassung
 62
     0
100
AcDbMText
10
-61.1158960411000
20
8.09156844968268
30
0.000000000000000
 40
2.50000000000000
 41
0.0
 71
     8
 72
     1
  1
Ø12
 11
6.12323399573677e-17
 21
1.00000000000000
 31
0.0
 73
     1
 44
1.0
1001
ACAD
1000
MTEXTBEGIN
1070
73
1070
1
1070
44
1040
1.0
1070
74
1070
0
1000
MTEXTEND
  0
POINT
  5
F10054
330
F10007
100
AcDbEntity
  8
Bemassung
 62
     0
100
AcDbPoint
10
-50.2492293744334
20
2.56754306436991
30
0.000000000000000
  0
POINT
  5
F10055
330
F10007
100
AcDbEntity
  8
Bemassung
 62
     0
100
AcDbPoint
10
-50.2492293744334
20
14.5675430643699
30
0.000000000000000
  0
ENDBLK
  5
F10056
330
F10007
100
AcDbEntity
  8
0
100
AcDbBlockEnd
  0
BLOCK
  5
F10057
330
F1000C
100
AcDbEntity
  8
0
100
AcDbBlockBegin
  2
*D5
 70
     1
 10
0.0
 20
0.0
 30
0.0
  3
*D5
  1

  0
LINE
  5
F10058
330
F1000C
100
AcDbEntity
  8
Bemassung
 62
     0
370
    -2
100
AcDbLine
10
56.5507706255666
20
2.56754306436991
30
0.000000000000000
11
69.5507706255666
21
2.56754306436991
31
0.000000000000000
  0
LINE
  5
F10059
330
F1000C
100
AcDbEntity
  8
Bemassung
 62
     0
370
    -2
100
AcDbLine
10
56.5507706255666
20
14.5675430643699
30
0.000000000000000
11
69.5507706255666
21
14.5675430643699
31
0.000000000000000
  0
LINE
  5
F1005A
330
F1000C
100
AcDbEntity
  8
Bemassung
 62
     0
370
    -2
100
AcDbLine
10
67.5507706255666
20
2.56754306436991
30
0.000000000000000
11
67.5507706255666
21
14.5675430643699
31
0.000000000000000
  0
INSERT
  5
F1005B
330
F1000C
100
AcDbEntity
  8
Bemassung
 62
     0
370
    -2
100
AcDbBlockReference
  2
VDDIM_DEFAULT
10
67.5507706255666
20
2.56754306436991
30
0.000000000000000
 41
2.50000000000000
 42
2.50000000000000
 43
2.50000000000000
 50
90.0000000000000
  0
INSERT
  5
F1005C
330
F1000C
100
AcDbEntity
  8
Bemassung
 62
     0
370
    -2
100
AcDbBlockReference
  2
VDDIM_DEFAULT
10
67.5507706255666
20
14.5675430643699
30
0.000000000000000
 41
2.50000000000000
 42
2.50000000000000
 43
2.50000000000000
 50
270.000000000000
  0
MTEXT
  5
F1005D
330
F1000C
100
AcDbEntity
  8
Bemassung
 62
     0
100
AcDbMText
10
66.8841039589000
20
8.56754306436991
30
0.000000000000000
 40
2.50000000000000
 41
0.0
 71
     8
 72
     1
  1
Ø12h6
 11
6.12323399573677e-17
 21
1.00000000000000
 31
0.0
 73
     1
 44
1.0
  0
POINT
  5
F1005E
330
F1000C
100
AcDbEntity
  8
Bemassung
 62
     0
100
AcDbPoint
10
56.5507706255666
20
2.56754306436991
30
0.000000000000000
  0
POINT
  5
F1005F
330
F1000C
100
AcDbEntity
  8
Bemassung
 62
     0
100
AcDbPoint
10
56.5507706255666
20
14.5675430643699
30
0.000000000000000
  0
ENDBLK
  5
F10060
330
F1000C
100
AcDbEntity
  8
0
100
AcDbBlockEnd
  0
BLOCK
  5
F10061
330
F1001B
100
AcDbEntity
  8
0
100
AcDbBlockBegin
  2
*D8
 70
     1
 10
0.0
 20
0.0
 30
0.0
  3
*D8
  1

  0
LINE
  5
F10062
330
F1001B
100
AcDbEntity
  8
Bemassung
 62
     0
370
    -2
100
AcDbLine
10
-30.4492293744334
20
14.2675430643699
30
0.000000000000000
11
-4.11624849032006
21
14.2675430643699
31
0.000000000000000
  0
LINE
  5
F10063
330
F1001B
100
AcDbEntity
  8
Bemassung
 62
     0
370
    -2
100
AcDbLine
10
-30.4492293744334
20
2.86754306436991
30
0.000000000000000
11
-4.11624849032006
21
2.86754306436991
31
0.000000000000000
  0
LINE
  5
F10064
330
F1001B
100
AcDbEntity
  8
Bemassung
 62
     0
370
    -2
100
AcDbLine
10
-6.11624849032006
20
14.2675430643699
30
0.000000000000000
11
-6.11624849032006
21
-14.3744333635539
31
0.000000000000000
  0
INSERT
  5
F10065
330
F1001B
100
AcDbEntity
  8
Bemassung
 62
     0
370
    -2
100
AcDbBlockReference
  2
VDDIM_DEFAULT
10
-6.11624849032006
20
14.2675430643699
30
0.000000000000000
 41
2.50000000000000
 42
2.50000000000000
 43
2.50000000000000
 50
270.000000000000
  0
INSERT
  5
F10066
330
F1001B
100
AcDbEntity
  8
Bemassung
 62
     0
370
    -2
100
AcDbBlockReference
  2
VDDIM_DEFAULT
10
-6.11624849032006
20
2.86754306436991
30
0.000000000000000
 41
2.50000000000000
 42
2.50000000000000
 43
2.50000000000000
 50
90.0000000000000
  0
MTEXT
  5
F10067
330
F1001B
100
AcDbEntity
  8
Bemassung
 62
     0
100
AcDbMText
10
-6.78291515698673
20
-9.80507706255667
30
0.000000000000000
 40
2.50000000000000
 41
0.0
 71
     8
 72
     1
  1
Ø11.4
 11
6.12323399573677e-17
 21
1.00000000000000
 31
0.0
 73
     1
 44
1.0
1001
ACAD
1000
MTEXTBEGIN
1070
73
1070
1
1070
44
1040
1.0
1070
74
1070
0
1000
MTEXTEND
  0
POINT
  5
F10068
330
F1001B
100
AcDbEntity
  8
Bemassung
 62
     0
100
AcDbPoint
10
-30.4492293744334
20
14.2675430643699
30
0.000000000000000
  0
POINT
  5
F10069
330
F1001B
100
AcDbEntity
  8
Bemassung
 62
     0
100
AcDbPoint
10
-30.4492293744334
20
2.86754306436991
30
0.000000000000000
  0
ENDBLK
  5
F1006A
330
F1001B
100
AcDbEntity
  8
0
100
AcDbBlockEnd
0
ENDSEC
0
SECTION
2
ENTITIES
  0
DIMENSION
  5
F10003
330
261
100
AcDbEntity
  8
Bemassung
100
AcDbDimension
  2
*D3
10
-50.2492293744334
20
16.5675430643699
30
0.000000000000000
11
-54.4514959202176
21
17.2342097310366
31
0.000000000000000
 70
32
 1
0.2 x 45°
 71
     8
  3
BEM-ISBE
100
AcDbAlignedDimension
13
-50.4492293744334
23
-7.43245693563009
33
0.000000000000000
14
-50.2492293744334
24
14.5675430643699
34
0.000000000000000
100
AcDbRotatedDimension
1001
ACAD
1000
DSTYLE
1002
{
1070
284
1070
8
1070
78
1070
8
1070
144
1040
1.00000000000000
1070
147
1040
0.625
1070
 72
1070
 0
1070
 71
1070
 0
1002
}
  0
DIMENSION
  5
F10012
330
261
100
AcDbEntity
  8
Bemassung
100
AcDbDimension
  2
*D6
10
-50.4492293744334
20
-5.43245693563009
30
0.000000000000000
11
-40.4492293744334
21
-4.76579026896342
31
0.000000000000000
 70
32
 1
20
 71
     8
  3
BEM-ISBE
100
AcDbAlignedDimension
13
-30.4492293744334
23
2.86754306436991
33
0.000000000000000
14
-50.4492293744334
24
-7.43245693563009
34
0.000000000000000
100
AcDbRotatedDimension
1001
ACAD
1000
DSTYLE
1002
{
1070
284
1070
8
1070
78
1070
8
1070
144
1040
1.00000000000000
1070
147
1040
0.625
1070
 72
1070
 0
1070
 71
1070
 0
1002
}
  0
DIMENSION
  5
F10017
330
261
100
AcDbEntity
  8
Bemassung
100
AcDbDimension
  2
*D7
10
-50.4492293744334
20
32.5675430643699
30
0.000000000000000
11
3.55077062556664
21
33.2342097310366
31
0.000000000000000
 70
32
 1
108
 71
     8
  3
BEM-ISBE
100
AcDbAlignedDimension
13
57.5507706255666
23
13.5675430643699
33
0.000000000000000
14
-50.4492293744334
24
-7.43245693563009
34
0.000000000000000
100
AcDbRotatedDimension
1001
ACAD
1000
DSTYLE
1002
{
1070
284
1070
8
1070
78
1070
8
1070
144
1040
1.00000000000000
1070
147
1040
0.625
1070
 72
1070
 0
1070
 71
1070
 0
1002
}
  0
DIMENSION
  5
F10021
330
261
100
AcDbEntity
  8
Bemassung
100
AcDbDimension
  2
*D9
10
11.5507706255666
20
22.3487632181534
30
0.000000000000000
11
-19.4492293744334
21
23.0154298848201
31
0.000000000000000
 70
32
 1
62
 71
     8
  3
BEM-ISBE
100
AcDbAlignedDimension
13
-50.4492293744334
23
14.3675430643699
33
0.000000000000000
14
11.5507706255666
24
14.5675430643699
34
0.000000000000000
100
AcDbRotatedDimension
1001
ACAD
1000
DSTYLE
1002
{
1070
284
1070
8
1070
78
1070
8
1070
144
1040
1.00000000000000
1070
147
1040
0.625
1070
 72
1070
 0
1070
 71
1070
 0
1002
}
  0
DIMENSION
  5
F10008
330
261
100
AcDbEntity
  8
Bemassung
100
AcDbDimension
  2
*D4
10
-60.4492293744334
20
14.5675430643699
30
0.000000000000000
11
-61.1158960411000
21
8.09156844968268
31
0.000000000000000
 70
32
 1
Ø12
 71
     8
  3
BEM-ISBE
100
AcDbAlignedDimension
13
-50.2492293744334
23
2.56754306436991
33
0.000000000000000
14
-50.2492293744334
24
14.5675430643699
34
0.000000000000000
50
90.0000000000000
100
AcDbRotatedDimension
1001
ACAD
1000
DSTYLE
1002
{
1070
284
1070
8
1070
78
1070
8
1070
144
1040
1.00000000000000
1070
147
1040
0.625
1070
 72
1070
 0
1070
 71
1070
 0
1002
}
  0
DIMENSION
  5
F1000D
330
261
100
AcDbEntity
  8
Bemassung
100
AcDbDimension
  2
*D5
10
67.5507706255666
20
14.5675430643699
30
0.000000000000000
11
66.8841039589000
21
8.56754306436991
31
0.000000000000000
 70
32
 1
Ø12h6
 71
     8
  3
BEM-ISBE
100
AcDbAlignedDimension
13
56.5507706255666
23
2.56754306436991
33
0.000000000000000
14
56.5507706255666
24
14.5675430643699
34
0.000000000000000
50
90.0000000000000
100
AcDbRotatedDimension
1001
ACAD
1000
DSTYLE
1002
{
1070
284
1070
8
1070
78
1070
8
1070
144
1040
1.00000000000000
1070
147
1040
0.625
1070
 72
1070
 0
1070
 71
1070
 0
1002
}
  0
DIMENSION
  5
F1001C
330
261
100
AcDbEntity
  8
Bemassung
100
AcDbDimension
  2
*D8
10
-6.11624849032006
20
2.86754306436991
30
0.000000000000000
11
-6.78291515698673
21
-9.80507706255667
31
0.000000000000000
 70
32
 1
Ø11.4
 71
     8
  3
BEM-ISBE
100
AcDbAlignedDimension
13
-30.4492293744334
23
14.2675430643699
33
0.000000000000000
14
-30.4492293744334
24
2.86754306436991
34
0.000000000000000
50
90.0000000000000
100
AcDbRotatedDimension
1001
ACAD
1000
DSTYLE
1002
{
1070
284
1070
8
1070
78
1070
8
1070
144
1040
1.00000000000000
1070
147
1040
0.625
1070
 72
1070
 0
1070
 71
1070
 0
1002
}
  0
LINE
  5
F1006B
330
F1006C
100
AcDbEntity
8
Geo
100
AcDbLine
10
-50.4492293744334
20
8.56754306436991
30
0.000000000000000
11
-50.4492293744334
21
14.3675430643699
31
0.000000000000000
  0
LINE
  5
F1006D
330
F1006E
100
AcDbEntity
8
Geo
100
AcDbLine
10
-50.4492293744334
20
14.3675430643699
30
0.000000000000000
11
-50.2492293744334
21
14.5675430643699
31
0.000000000000000
  0
LINE
  5
F1006F
330
F10070
100
AcDbEntity
8
Geo
100
AcDbLine
10
-50.2492293744334
20
14.5675430643699
30
0.000000000000000
11
-30.4492293744334
21
14.5675430643699
31
0.000000000000000
  0
LINE
  5
F10071
330
F10072
100
AcDbEntity
8
Geo
100
AcDbLine
10
-30.4492293744334
20
14.5675430643699
30
0.000000000000000
11
-30.4492293744334
21
14.2675430643699
31
0.000000000000000
  0
LINE
  5
F10073
330
F10074
100
AcDbEntity
8
Geo
100
AcDbLine
10
-30.4492293744334
20
14.2675430643699
30
0.000000000000000
11
11.5507706255666
21
14.2675430643699
31
0.000000000000000
  0
LINE
  5
F10075
330
F10076
100
AcDbEntity
8
Geo
100
AcDbLine
10
11.5507706255666
20
14.2675430643699
30
0.000000000000000
11
11.5507706255666
21
14.5675430643699
31
0.000000000000000
  0
LINE
  5
F10077
330
F10078
100
AcDbEntity
8
Geo
100
AcDbLine
10
11.5507706255666
20
14.5675430643699
30
0.000000000000000
11
56.5507706255666
21
14.5675430643699
31
0.000000000000000
  0
LINE
  5
F10079
330
F1007A
100
AcDbEntity
8
Geo
100
AcDbLine
10
56.5507706255666
20
14.5675430643699
30
0.000000000000000
11
57.5507706255666
21
13.5675430643699
31
0.000000000000000
  0
LINE
  5
F1007B
330
F1007C
100
AcDbEntity
8
Geo
100
AcDbLine
10
-50.4492293744334
20
14.3674749081400
30
0.000000000000000
11
-50.3492293744334
21
14.4667527970997
31
0.000000000000000
  0
LINE
  5
F1007D
330
F1007E
100
AcDbEntity
8
Geo
100
AcDbLine
10
-50.3492293744334
20
14.4667527970997
30
0.000000000000000
11
-50.2492293744334
21
14.5651962567353
31
0.000000000000000
  0
LINE
  5
F1007F
330
F10080
100
AcDbEntity
8
Geo
100
AcDbLine
10
-50.2492293744334
20
14.5651962567353
30
0.000000000000000
11
-50.1492293744334
21
14.5622631774857
31
0.000000000000000
  0
LINE
  5
F10081
330
F10082
100
AcDbEntity
8
Geo
100
AcDbLine
10
-50.1492293744334
20
14.5622631774857
30
0.000000000000000
11
-50.0492293744334
21
14.5581576696670
31
0.000000000000000
  0
LINE
  5
F10083
330
F10084
100
AcDbEntity
8
Geo
100
AcDbLine
10
-50.0492293744334
20
14.5581576696670
30
0.000000000000000
11
-49.9492293744334
21
14.5528805362216
31
0.000000000000000
  0
LINE
  5
F10085
330
F10086
100
AcDbEntity
8
Geo
100
AcDbLine
10
-49.9492293744334
20
14.5528805362216
30
0.000000000000000
11
-49.8492293744334
21
14.5464328092348
31
0.000000000000000
  0
LINE
  5
F10087
330
F10088
100
AcDbEntity
8
Geo
100
AcDbLine
10
-49.8492293744334
20
14.5464328092348
30
0.000000000000000
11
-49.7492293744334
21
14.5388157497328
31
0.000000000000000
  0
LINE
  5
F10089
330
F1008A
100
AcDbEntity
8
Geo
100
AcDbLine
10
-49.7492293744334
20
14.5388157497328
30
0.000000000000000
11
-49.6492293744334
21
14.5300308474362
31
0.000000000000000
  0
LINE
  5
F1008B
330
F1008C
100
AcDbEntity
8
Geo
100
AcDbLine
10
-49.6492293744334
20
14.5300308474362
30
0.000000000000000
11
-49.5492293744334
21
14.5200798204686
31
0.000000000000000
  0
LINE
  5
F1008D
330
F1008E
100
AcDbEntity
8
Geo
100
AcDbLine
10
-49.5492293744334
20
14.5200798204686
30
0.000000000000000
11
-49.4492293744334
21
14.5089646150207
31
0.000000000000000
  0
LINE
  5
F1008F
330
F10090
100
AcDbEntity
8
Geo
100
AcDbLine
10
-49.4492293744334
20
14.5089646150207
30
0.000000000000000
11
-49.3492293744334
21
14.4966874049696
31
0.000000000000000
  0
LINE
  5
F10091
330
F10092
100
AcDbEntity
8
Geo
100
AcDbLine
10
-49.3492293744334
20
14.4966874049696
30
0.000000000000000
11
-49.2492293744334
21
14.4832505914536
31
0.000000000000000
  0
LINE
  5
F10093
330
F10094
100
AcDbEntity
8
Geo
100
AcDbLine
10
-49.2492293744334
20
14.4832505914536
30
0.000000000000000
11
-49.1492293744334
21
14.4686568024024
31
0.000000000000000
  0
LINE
  5
F10095
330
F10096
100
AcDbEntity
8
Geo
100
AcDbLine
10
-49.1492293744334
20
14.4686568024024
30
0.000000000000000
11
-49.0492293744334
21
14.4529088920236
31
0.000000000000000
  0
LINE
  5
F10097
330
F10098
100
AcDbEntity
8
Geo
100
AcDbLine
10
-49.0492293744334
20
14.4529088920236
30
0.000000000000000
11
-48.9492293744334
21
14.4360099402441
31
0.000000000000000
  0
LINE
  5
F10099
330
F1009A
100
AcDbEntity
8
Geo
100
AcDbLine
10
-48.9492293744334
20
14.4360099402441
30
0.000000000000000
11
-48.8492293744334
21
14.4179632521081
31
0.000000000000000
  0
LINE
  5
F1009B
330
F1009C
100
AcDbEntity
8
Geo
100
AcDbLine
10
-48.8492293744334
20
14.4179632521081
30
0.000000000000000
11
-48.7492293744334
21
14.3987723571301
31
0.000000000000000
  0
LINE
  5
F1009D
330
F1009E
100
AcDbEntity
8
Geo
100
AcDbLine
10
-48.7492293744334
20
14.3987723571301
30
0.000000000000000
11
-48.6492293744334
21
14.3784410086052
31
0.000000000000000
  0
LINE
  5
F1009F
330
F100A0
100
AcDbEntity
8
Geo
100
AcDbLine
10
-48.6492293744334
20
14.3784410086052
30
0.000000000000000
11
-48.5492293744334
21
14.3569731828749
31
0.000000000000000
  0
LINE
  5
F100A1
330
F100A2
100
AcDbEntity
8
Geo
100
AcDbLine
10
-48.5492293744334
20
14.3569731828749
30
0.000000000000000
11
-48.4492293744334
21
14.3343730785493
31
0.000000000000000
  0
LINE
  5
F100A3
330
F100A4
100
AcDbEntity
8
Geo
100
AcDbLine
10
-48.4492293744334
20
14.3343730785493
30
0.000000000000000
11
-48.3492293744334
21
14.3106451156858
31
0.000000000000000
  0
LINE
  5
F100A5
330
F100A6
100
AcDbEntity
8
Geo
100
AcDbLine
10
-48.3492293744334
20
14.3106451156858
30
0.000000000000000
11
-48.2492293744334
21
14.2857939349252
31
0.000000000000000
  0
LINE
  5
F100A7
330
F100A8
100
AcDbEntity
8
Geo
100
AcDbLine
10
-48.2492293744334
20
14.2857939349252
30
0.000000000000000
11
-48.1492293744334
21
14.2598243965834
31
0.000000000000000
  0
LINE
  5
F100A9
330
F100AA
100
AcDbEntity
8
Geo
100
AcDbLine
10
-48.1492293744334
20
14.2598243965834
30
0.000000000000000
11
-48.0492293744334
21
14.2327415797013
31
0.000000000000000
  0
LINE
  5
F100AB
330
F100AC
100
AcDbEntity
8
Geo
100
AcDbLine
10
-48.0492293744334
20
14.2327415797013
30
0.000000000000000
11
-47.9492293744334
21
14.2045507810514
31
0.000000000000000
  0
LINE
  5
F100AD
330
F100AE
100
AcDbEntity
8
Geo
100
AcDbLine
10
-47.9492293744334
20
14.2045507810514
30
0.000000000000000
11
-47.8492293744334
21
14.1752575141017
31
0.000000000000000
  0
LINE
  5
F100AF
330
F100B0
100
AcDbEntity
8
Geo
100
AcDbLine
10
-47.8492293744334
20
14.1752575141017
30
0.000000000000000
11
-47.7492293744334
21
14.1448675079375
31
0.000000000000000
  0
LINE
  5
F100B1
330
F100B2
100
AcDbEntity
8
Geo
100
AcDbLine
10
-47.7492293744334
20
14.1448675079375
30
0.000000000000000
11
-47.6492293744334
21
14.1133867061410
31
0.000000000000000
  0
LINE
  5
F100B3
330
F100B4
100
AcDbEntity
8
Geo
100
AcDbLine
10
-47.6492293744334
20
14.1133867061410
30
0.000000000000000
11
-47.5492293744334
21
14.0808212656288
31
0.000000000000000
  0
LINE
  5
F100B5
330
F100B6
100
AcDbEntity
8
Geo
100
AcDbLine
10
-47.5492293744334
20
14.0808212656288
30
0.000000000000000
11
-47.4492293744334
21
14.0471775554475
31
0.000000000000000
  0
LINE
  5
F100B7
330
F100B8
100
AcDbEntity
8
Geo
100
AcDbLine
10
-47.4492293744334
20
14.0471775554475
30
0.000000000000000
11
-47.3492293744334
21
14.0124621555286
31
0.000000000000000
  0
LINE
  5
F100B9
330
F100BA
100
AcDbEntity
8
Geo
100
AcDbLine
10
-47.3492293744334
20
14.0124621555286
30
0.000000000000000
11
-47.2492293744334
21
13.9766818554012
31
0.000000000000000
  0
LINE
  5
F100BB
330
F100BC
100
AcDbEntity
8
Geo
100
AcDbLine
10
-47.2492293744334
20
13.9766818554012
30
0.000000000000000
11
-47.1492293744334
21
13.9398436528643
31
0.000000000000000
  0
LINE
  5
F100BD
330
F100BE
100
AcDbEntity
8
Geo
100
AcDbLine
10
-47.1492293744334
20
13.9398436528643
30
0.000000000000000
11
-47.0492293744334
21
13.9019547526179
31
0.000000000000000
  0
LINE
  5
F100BF
330
F100C0
100
AcDbEntity
8
Geo
100
AcDbLine
10
-47.0492293744334
20
13.9019547526179
30
0.000000000000000
11
-46.9492293744334
21
13.8630225648545
31
0.000000000000000
  0
LINE
  5
F100C1
330
F100C2
100
AcDbEntity
8
Geo
100
AcDbLine
10
-46.9492293744334
20
13.8630225648545
30
0.000000000000000
11
-46.8492293744334
21
13.8230547038092
31
0.000000000000000
  0
LINE
  5
F100C3
330
F100C4
100
AcDbEntity
8
Geo
100
AcDbLine
10
-46.8492293744334
20
13.8230547038092
30
0.000000000000000
11
-46.7492293744334
21
13.7820589862712
31
0.000000000000000
  0
LINE
  5
F100C5
330
F100C6
100
AcDbEntity
8
Geo
100
AcDbLine
10
-46.7492293744334
20
13.7820589862712
30
0.000000000000000
11
-46.6492293744334
21
13.7400434300542
31
0.000000000000000
  0
LINE
  5
F100C7
330
F100C8
100
AcDbEntity
8
Geo
100
AcDbLine
10
-46.6492293744334
20
13.7400434300542
30
0.000000000000000
11
-46.5492293744334
21
13.6970162524292
31
0.000000000000000
  0
LINE
  5
F100C9
330
F100CA
100
AcDbEntity
8
Geo
100
AcDbLine
10
-46.5492293744334
20
13.6970162524292
30
0.000000000000000
11
-46.4492293744334
21
13.6529858685166
31
0.000000000000000
  0
LINE
  5
F100CB
330
F100CC
100
AcDbEntity
8
Geo
100
AcDbLine
10
-46.4492293744334
20
13.6529858685166
30
0.000000000000000
11
-46.3492293744334
21
13.6079608896409
31
0.000000000000000
  0
LINE
  5
F100CD
330
F100CE
100
AcDbEntity
8
Geo
100
AcDbLine
10
-46.3492293744334
20
13.6079608896409
30
0.000000000000000
11
-46.2492293744334
21
13.5619501216463
31
0.000000000000000
  0
LINE
  5
F100CF
330
F100D0
100
AcDbEntity
8
Geo
100
AcDbLine
10
-46.2492293744334
20
13.5619501216463
30
0.000000000000000
11
-46.1492293744334
21
13.5149625631746
31
0.000000000000000
  0
LINE
  5
F100D1
330
F100D2
100
AcDbEntity
8
Geo
100
AcDbLine
10
-46.1492293744334
20
13.5149625631746
30
0.000000000000000
11
-46.0492293744334
21
13.4670074039053
31
0.000000000000000
  0
LINE
  5
F100D3
330
F100D4
100
AcDbEntity
8
Geo
100
AcDbLine
10
-46.0492293744334
20
13.4670074039053
30
0.000000000000000
11
-45.9492293744334
21
13.4180940227580
31
0.000000000000000
  0
LINE
  5
F100D5
330
F100D6
100
AcDbEntity
8
Geo
100
AcDbLine
10
-45.9492293744334
20
13.4180940227580
30
0.000000000000000
11
-45.8492293744334
21
13.3682319860585
31
0.000000000000000
  0
LINE
  5
F100D7
330
F100D8
100
AcDbEntity
8
Geo
100
AcDbLine
10
-45.8492293744334
20
13.3682319860585
30
0.000000000000000
11
-45.7492293744334
21
13.3174310456677
31
0.000000000000000
  0
LINE
  5
F100D9
330
F100DA
100
AcDbEntity
8
Geo
100
AcDbLine
10
-45.7492293744334
20
13.3174310456677
30
0.000000000000000
11
-45.6492293744334
21
13.2657011370742
31
0.000000000000000
  0
LINE
  5
F100DB
330
F100DC
100
AcDbEntity
8
Geo
100
AcDbLine
10
-45.6492293744334
20
13.2657011370742
30
0.000000000000000
11
-45.5492293744334
21
13.2130523774514
31
0.000000000000000
  0
LINE
  5
F100DD
330
F100DE
100
AcDbEntity
8
Geo
100
AcDbLine
10
-45.5492293744334
20
13.2130523774514
30
0.000000000000000
11
-45.4492293744334
21
13.1594950636787
31
0.000000000000000
  0
LINE
  5
F100DF
330
F100E0
100
AcDbEntity
8
Geo
100
AcDbLine
10
-45.4492293744334
20
13.1594950636787
30
0.000000000000000
11
-45.3492293744334
21
13.1050396703277
31
0.000000000000000
  0
LINE
  5
F100E1
330
F100E2
100
AcDbEntity
8
Geo
100
AcDbLine
10
-45.3492293744334
20
13.1050396703277
30
0.000000000000000
11
-45.2492293744334
21
13.0496968476134
31
0.000000000000000
  0
LINE
  5
F100E3
330
F100E4
100
AcDbEntity
8
Geo
100
AcDbLine
10
-45.2492293744334
20
13.0496968476134
30
0.000000000000000
11
-45.1492293744334
21
12.9934774193117
31
0.000000000000000
  0
LINE
  5
F100E5
330
F100E6
100
AcDbEntity
8
Geo
100
AcDbLine
10
-45.1492293744334
20
12.9934774193117
30
0.000000000000000
11
-45.0492293744334
21
12.9363923806421
31
0.000000000000000
  0
LINE
  5
F100E7
330
F100E8
100
AcDbEntity
8
Geo
100
AcDbLine
10
-45.0492293744334
20
12.9363923806421
30
0.000000000000000
11
-44.9492293744334
21
12.8784528961177
31
0.000000000000000
  0
LINE
  5
F100E9
330
F100EA
100
AcDbEntity
8
Geo
100
AcDbLine
10
-44.9492293744334
20
12.8784528961177
30
0.000000000000000
11
-44.8492293744334
21
12.8196702973610
31
0.000000000000000
  0
LINE
  5
F100EB
330
F100EC
100
AcDbEntity
8
Geo
100
AcDbLine
10
-44.8492293744334
20
12.8196702973610
30
0.000000000000000
11
-44.7492293744334
21
12.7600560808886
31
0.000000000000000
  0
LINE
  5
F100ED
330
F100EE
100
AcDbEntity
8
Geo
100
AcDbLine
10
-44.7492293744334
20
12.7600560808886
30
0.000000000000000
11
-44.6492293744334
21
12.6996219058620
31
0.000000000000000
  0
LINE
  5
F100EF
330
F100F0
100
AcDbEntity
8
Geo
100
AcDbLine
10
-44.6492293744334
20
12.6996219058620
30
0.000000000000000
11
-44.5492293744334
21
12.6383795918078
31
0.000000000000000
  0
LINE
  5
F100F1
330
F100F2
100
AcDbEntity
8
Geo
100
AcDbLine
10
-44.5492293744334
20
12.6383795918078
30
0.000000000000000
11
-44.4492293744334
21
12.5763411163057
31
0.000000000000000
  0
LINE
  5
F100F3
330
F100F4
100
AcDbEntity
8
Geo
100
AcDbLine
10
-44.4492293744334
20
12.5763411163057
30
0.000000000000000
11
-44.3492293744334
21
12.5135186126464
31
0.000000000000000
  0
LINE
  5
F100F5
330
F100F6
100
AcDbEntity
8
Geo
100
AcDbLine
10
-44.3492293744334
20
12.5135186126464
30
0.000000000000000
11
-44.2492293744334
21
12.4499243674582
31
0.000000000000000
  0
LINE
  5
F100F7
330
F100F8
100
AcDbEntity
8
Geo
100
AcDbLine
10
-44.2492293744334
20
12.4499243674582
30
0.000000000000000
11
-44.1492293744334
21
12.3855708183042
31
0.000000000000000
  0
LINE
  5
F100F9
330
F100FA
100
AcDbEntity
8
Geo
100
AcDbLine
10
-44.1492293744334
20
12.3855708183042
30
0.000000000000000
11
-44.0492293744334
21
12.3204705512499
31
0.000000000000000
  0
LINE
  5
F100FB
330
F100FC
100
AcDbEntity
8
Geo
100
AcDbLine
10
-44.0492293744334
20
12.3204705512499
30
0.000000000000000
11
-43.9492293744334
21
12.2546362984014
31
0.000000000000000
  0
LINE
  5
F100FD
330
F100FE
100
AcDbEntity
8
Geo
100
AcDbLine
10
-43.9492293744334
20
12.2546362984014
30
0.000000000000000
11
-43.8492293744334
21
12.1880809354155
31
0.000000000000000
  0
LINE
  5
F100FF
330
F10100
100
AcDbEntity
8
Geo
100
AcDbLine
10
-43.8492293744334
20
12.1880809354155
30
0.000000000000000
11
-43.7492293744334
21
12.1208174789815
31
0.000000000000000
  0
LINE
  5
F10101
330
F10102
100
AcDbEntity
8
Geo
100
AcDbLine
10
-43.7492293744334
20
12.1208174789815
30
0.000000000000000
11
-43.6492293744334
21
12.0528590842755
31
0.000000000000000
  0
LINE
  5
F10103
330
F10104
100
AcDbEntity
8
Geo
100
AcDbLine
10
-43.6492293744334
20
12.0528590842755
30
0.000000000000000
11
-43.5492293744334
21
11.9842190423871
31
0.000000000000000
  0
LINE
  5
F10105
330
F10106
100
AcDbEntity
8
Geo
100
AcDbLine
10
-43.5492293744334
20
11.9842190423871
30
0.000000000000000
11
-43.4492293744334
21
11.9149107777206
31
0.000000000000000
  0
LINE
  5
F10107
330
F10108
100
AcDbEntity
8
Geo
100
AcDbLine
10
-43.4492293744334
20
11.9149107777206
30
0.000000000000000
11
-43.3492293744334
21
11.8449478453692
31
0.000000000000000
  0
LINE
  5
F10109
330
F1010A
100
AcDbEntity
8
Geo
100
AcDbLine
10
-43.3492293744334
20
11.8449478453692
30
0.000000000000000
11
-43.2492293744334
21
11.7743439284640
31
0.000000000000000
  0
LINE
  5
F1010B
330
F1010C
100
AcDbEntity
8
Geo
100
AcDbLine
10
-43.2492293744334
20
11.7743439284640
30
0.000000000000000
11
-43.1492293744334
21
11.7031128354975
31
0.000000000000000
  0
LINE
  5
F1010D
330
F1010E
100
AcDbEntity
8
Geo
100
AcDbLine
10
-43.1492293744334
20
11.7031128354975
30
0.000000000000000
11
-43.0492293744334
21
11.6312684976239
31
0.000000000000000
  0
LINE
  5
F1010F
330
F10110
100
AcDbEntity
8
Geo
100
AcDbLine
10
-43.0492293744334
20
11.6312684976239
30
0.000000000000000
11
-42.9492293744334
21
11.5588249659333
31
0.000000000000000
  0
LINE
  5
F10111
330
F10112
100
AcDbEntity
8
Geo
100
AcDbLine
10
-42.9492293744334
20
11.5588249659333
30
0.000000000000000
11
-42.8492293744334
21
11.4857964087048
31
0.000000000000000
  0
LINE
  5
F10113
330
F10114
100
AcDbEntity
8
Geo
100
AcDbLine
10
-42.8492293744334
20
11.4857964087048
30
0.000000000000000
11
-42.7492293744334
21
11.4121971086345
31
0.000000000000000
  0
LINE
  5
F10115
330
F10116
100
AcDbEntity
8
Geo
100
AcDbLine
10
-42.7492293744334
20
11.4121971086345
30
0.000000000000000
11
-42.6492293744334
21
11.3380414600430
31
0.000000000000000
  0
LINE
  5
F10117
330
F10118
100
AcDbEntity
8
Geo
100
AcDbLine
10
-42.6492293744334
20
11.3380414600430
30
0.000000000000000
11
-42.5492293744334
21
11.2633439660594
31
0.000000000000000
  0
LINE
  5
F10119
330
F1011A
100
AcDbEntity
8
Geo
100
AcDbLine
10
-42.5492293744334
20
11.2633439660594
30
0.000000000000000
11
-42.4492293744334
21
11.1881192357856
31
0.000000000000000
  0
LINE
  5
F1011B
330
F1011C
100
AcDbEntity
8
Geo
100
AcDbLine
10
-42.4492293744334
20
11.1881192357856
30
0.000000000000000
11
-42.3492293744334
21
11.1123819814386
31
0.000000000000000
  0
LINE
  5
F1011D
330
F1011E
100
AcDbEntity
8
Geo
100
AcDbLine
10
-42.3492293744334
20
11.1123819814386
30
0.000000000000000
11
-42.2492293744334
21
11.0361470154730
31
0.000000000000000
  0
LINE
  5
F1011F
330
F10120
100
AcDbEntity
8
Geo
100
AcDbLine
10
-42.2492293744334
20
11.0361470154730
30
0.000000000000000
11
-42.1492293744334
21
10.9594292476846
31
0.000000000000000
  0
LINE
  5
F10121
330
F10122
100
AcDbEntity
8
Geo
100
AcDbLine
10
-42.1492293744334
20
10.9594292476846
30
0.000000000000000
11
-42.0492293744334
21
10.8822436822940
31
0.000000000000000
  0
LINE
  5
F10123
330
F10124
100
AcDbEntity
8
Geo
100
AcDbLine
10
-42.0492293744334
20
10.8822436822940
30
0.000000000000000
11
-41.9492293744334
21
10.8046054150120
31
0.000000000000000
  0
LINE
  5
F10125
330
F10126
100
AcDbEntity
8
Geo
100
AcDbLine
10
-41.9492293744334
20
10.8046054150120
30
0.000000000000000
11
-41.8492293744334
21
10.7265296300876
31
0.000000000000000
  0
LINE
  5
F10127
330
F10128
100
AcDbEntity
8
Geo
100
AcDbLine
10
-41.8492293744334
20
10.7265296300876
30
0.000000000000000
11
-41.7492293744334
21
10.6480315973382
31
0.000000000000000
  0
LINE
  5
F10129
330
F1012A
100
AcDbEntity
8
Geo
100
AcDbLine
10
-41.7492293744334
20
10.6480315973382
30
0.000000000000000
11
-41.6492293744334
21
10.5691266691628
31
0.000000000000000
  0
LINE
  5
F1012B
330
F1012C
100
AcDbEntity
8
Geo
100
AcDbLine
10
-41.6492293744334
20
10.5691266691628
30
0.000000000000000
11
-41.5492293744334
21
10.4898302775401
31
0.000000000000000
  0
LINE
  5
F1012D
330
F1012E
100
AcDbEntity
8
Geo
100
AcDbLine
10
-41.5492293744334
20
10.4898302775401
30
0.000000000000000
11
-41.4492293744334
21
10.4101579310097
31
0.000000000000000
  0
LINE
  5
F1012F
330
F10130
100
AcDbEntity
8
Geo
100
AcDbLine
10
-41.4492293744334
20
10.4101579310097
30
0.000000000000000
11
-41.3492293744334
21
10.3301252116395
31
0.000000000000000
  0
LINE
  5
F10131
330
F10132
100
AcDbEntity
8
Geo
100
AcDbLine
10
-41.3492293744334
20
10.3301252116395
30
0.000000000000000
11
-41.2492293744334
21
10.2497477719777
31
0.000000000000000
  0
LINE
  5
F10133
330
F10134
100
AcDbEntity
8
Geo
100
AcDbLine
10
-41.2492293744334
20
10.2497477719777
30
0.000000000000000
11
-41.1492293744334
21
10.1690413319922
31
0.000000000000000
  0
LINE
  5
F10135
330
F10136
100
AcDbEntity
8
Geo
100
AcDbLine
10
-41.1492293744334
20
10.1690413319922
30
0.000000000000000
11
-41.0492293744334
21
10.0880216759955
31
0.000000000000000
  0
LINE
  5
F10137
330
F10138
100
AcDbEntity
8
Geo
100
AcDbLine
10
-41.0492293744334
20
10.0880216759955
30
0.000000000000000
11
-40.9492293744334
21
10.0067046495580
31
0.000000000000000
  0
LINE
  5
F10139
330
F1013A
100
AcDbEntity
8
Geo
100
AcDbLine
10
-40.9492293744334
20
10.0067046495580
30
0.000000000000000
11
-40.8492293744334
21
9.92510615640866
31
0.000000000000000
  0
LINE
  5
F1013B
330
F1013C
100
AcDbEntity
8
Geo
100
AcDbLine
10
-40.8492293744334
20
9.92510615640866
30
0.000000000000000
11
-40.7492293744334
21
9.84324215532516
31
0.000000000000000
  0
LINE
  5
F1013D
330
F1013E
100
AcDbEntity
8
Geo
100
AcDbLine
10
-40.7492293744334
20
9.84324215532516
30
0.000000000000000
11
-40.6492293744334
21
9.76112865701219
31
0.000000000000000
  0
LINE
  5
F1013F
330
F10140
100
AcDbEntity
8
Geo
100
AcDbLine
10
-40.6492293744334
20
9.76112865701219
30
0.000000000000000
11
-40.5492293744334
21
9.67878172097035
31
0.000000000000000
  0
LINE
  5
F10141
330
F10142
100
AcDbEntity
8
Geo
100
AcDbLine
10
-40.5492293744334
20
9.67878172097035
30
0.000000000000000
11
-40.4492293744334
21
9.59621745235528
31
0.000000000000000
  0
LINE
  5
F10143
330
F10144
100
AcDbEntity
8
Geo
100
AcDbLine
10
-40.4492293744334
20
9.59621745235528
30
0.000000000000000
11
-40.3492293744334
21
9.51345199882783
31
0.000000000000000
  0
LINE
  5
F10145
330
F10146
100
AcDbEntity
8
Geo
100
AcDbLine
10
-40.3492293744334
20
9.51345199882783
30
0.000000000000000
11
-40.2492293744334
21
9.43050154739597
31
0.000000000000000
  0
LINE
  5
F10147
330
F10148
100
AcDbEntity
8
Geo
100
AcDbLine
10
-40.2492293744334
20
9.43050154739597
30
0.000000000000000
11
-40.1492293744334
21
9.34738232124898
31
0.000000000000000
  0
LINE
  5
F10149
330
F1014A
100
AcDbEntity
8
Geo
100
AcDbLine
10
-40.1492293744334
20
9.34738232124898
30
0.000000000000000
11
-40.0492293744334
21
9.26411057658456
31
0.000000000000000
  0
LINE
  5
F1014B
330
F1014C
100
AcDbEntity
8
Geo
100
AcDbLine
10
-40.0492293744334
20
9.26411057658456
30
0.000000000000000
11
-39.9492293744334
21
9.18070259942953
31
0.000000000000000
  0
LINE
  5
F1014D
330
F1014E
100
AcDbEntity
8
Geo
100
AcDbLine
10
-39.9492293744334
20
9.18070259942953
30
0.000000000000000
11
-39.8492293744334
21
9.09717470245461
31
0.000000000000000
  0
LINE
  5
F1014F
330
F10150
100
AcDbEntity
8
Geo
100
AcDbLine
10
-39.8492293744334
20
9.09717470245461
30
0.000000000000000
11
-39.7492293744334
21
9.01354322178406
31
0.000000000000000
  0
LINE
  5
F10151
330
F10152
100
AcDbEntity
8
Geo
100
AcDbLine
10
-39.7492293744334
20
9.01354322178406
30
0.000000000000000
11
-39.6492293744334
21
8.92982451380073
31
0.000000000000000
  0
LINE
  5
F10153
330
F10154
100
AcDbEntity
8
Geo
100
AcDbLine
10
-39.6492293744334
20
8.92982451380073
30
0.000000000000000
11
-39.5492293744334
21
8.84603495194710
31
0.000000000000000
  0
LINE
  5
F10155
330
F10156
100
AcDbEntity
8
Geo
100
AcDbLine
10
-39.5492293744334
20
8.84603495194710
30
0.000000000000000
11
-39.4492293744334
21
8.76219092352305
31
0.000000000000000
  0
LINE
  5
F10157
330
F10158
100
AcDbEntity
8
Geo
100
AcDbLine
10
-39.4492293744334
20
8.76219092352305
30
0.000000000000000
11
-39.3492293744334
21
8.67830882648084
31
0.000000000000000
  0
LINE
  5
F10159
330
F1015A
100
AcDbEntity
8
Geo
100
AcDbLine
10
-39.3492293744334
20
8.67830882648084
30
0.000000000000000
11
-39.2492293744334
21
8.59440506621807
31
0.000000000000000
  0
LINE
  5
F1015B
330
F1015C
100
AcDbEntity
8
Geo
100
AcDbLine
10
-39.2492293744334
20
8.59440506621807
30
0.000000000000000
11
-39.1492293744334
21
8.51049605236919
31
0.000000000000000
  0
LINE
  5
F1015D
330
F1015E
100
AcDbEntity
8
Geo
100
AcDbLine
10
-39.1492293744334
20
8.51049605236919
30
0.000000000000000
11
-39.0492293744334
21
8.42659819559609
31
0.000000000000000
  0
LINE
  5
F1015F
330
F10160
100
AcDbEntity
8
Geo
100
AcDbLine
10
-39.0492293744334
20
8.42659819559609
30
0.000000000000000
11
-38.9492293744334
21
8.34272790437863
31
0.000000000000000
  0
LINE
  5
F10161
330
F10162
100
AcDbEntity
8
Geo
100
AcDbLine
10
-38.9492293744334
20
8.34272790437863
30
0.000000000000000
11
-38.8492293744334
21
8.25890158180547
31
0.000000000000000
  0
LINE
  5
F10163
330
F10164
100
AcDbEntity
8
Geo
100
AcDbLine
10
-38.8492293744334
20
8.25890158180547
30
0.000000000000000
11
-38.7492293744334
21
8.17513562236602
31
0.000000000000000
  0
LINE
  5
F10165
330
F10166
100
AcDbEntity
8
Geo
100
AcDbLine
10
-38.7492293744334
20
8.17513562236602
30
0.000000000000000
11
-38.6492293744334
21
8.09144640874406
31
0.000000000000000
  0
LINE
  5
F10167
330
F10168
100
AcDbEntity
8
Geo
100
AcDbLine
10
-38.6492293744334
20
8.09144640874406
30
0.000000000000000
11
-38.5492293744334
21
8.00785030861366
31
0.000000000000000
  0
LINE
  5
F10169
330
F1016A
100
AcDbEntity
8
Geo
100
AcDbLine
10
-38.5492293744334
20
8.00785030861366
30
0.000000000000000
11
-38.4492293744334
21
7.92436367143805
31
0.000000000000000
  0
LINE
  5
F1016B
330
F1016C
100
AcDbEntity
8
Geo
100
AcDbLine
10
-38.4492293744334
20
7.92436367143805
30
0.000000000000000
11
-38.3492293744334
21
7.84100282527204
31
0.000000000000000
  0
LINE
  5
F1016D
330
F1016E
100
AcDbEntity
8
Geo
100
AcDbLine
10
-38.3492293744334
20
7.84100282527204
30
0.000000000000000
11
-38.2492293744334
21
7.75778407356862
31
0.000000000000000
  0
LINE
  5
F1016F
330
F10170
100
AcDbEntity
8
Geo
100
AcDbLine
10
-38.2492293744334
20
7.75778407356862
30
0.000000000000000
11
-38.1492293744334
21
7.67472369199040
31
0.000000000000000
  0
LINE
  5
F10171
330
F10172
100
AcDbEntity
8
Geo
100
AcDbLine
10
-38.1492293744334
20
7.67472369199040
30
0.000000000000000
11
-38.0492293744334
21
7.59183792522644
31
0.000000000000000
  0
LINE
  5
F10173
330
F10174
100
AcDbEntity
8
Geo
100
AcDbLine
10
-38.0492293744334
20
7.59183792522644
30
0.000000000000000
11
-37.9492293744334
21
7.50914298381522
31
0.000000000000000
  0
LINE
  5
F10175
330
F10176
100
AcDbEntity
8
Geo
100
AcDbLine
10
-37.9492293744334
20
7.50914298381522
30
0.000000000000000
11
-37.8492293744334
21
7.42665504097415
31
0.000000000000000
  0
LINE
  5
F10177
330
F10178
100
AcDbEntity
8
Geo
100
AcDbLine
10
-37.8492293744334
20
7.42665504097415
30
0.000000000000000
11
-37.7492293744334
21
7.34439022943653
31
0.000000000000000
  0
LINE
  5
F10179
330
F1017A
100
AcDbEntity
8
Geo
100
AcDbLine
10
-37.7492293744334
20
7.34439022943653
30
0.000000000000000
11
-37.6492293744334
21
7.26236463829635
31
0.000000000000000
  0
LINE
  5
F1017B
330
F1017C
100
AcDbEntity
8
Geo
100
AcDbLine
10
-37.6492293744334
20
7.26236463829635
30
0.000000000000000
11
-37.5492293744334
21
7.18059430986160
31
0.000000000000000
  0
LINE
  5
F1017D
330
F1017E
100
AcDbEntity
8
Geo
100
AcDbLine
10
-37.5492293744334
20
7.18059430986160
30
0.000000000000000
11
-37.4492293744334
21
7.09909523651681
31
0.000000000000000
  0
LINE
  5
F1017F
330
F10180
100
AcDbEntity
8
Geo
100
AcDbLine
10
-37.4492293744334
20
7.09909523651681
30
0.000000000000000
11
-37.3492293744334
21
7.01788335759528
31
0.000000000000000
  0
LINE
  5
F10181
330
F10182
100
AcDbEntity
8
Geo
100
AcDbLine
10
-37.3492293744334
20
7.01788335759528
30
0.000000000000000
11
-37.2492293744334
21
6.93697455626173
31
0.000000000000000
  0
LINE
  5
F10183
330
F10184
100
AcDbEntity
8
Geo
100
AcDbLine
10
-37.2492293744334
20
6.93697455626173
30
0.000000000000000
11
-37.1492293744334
21
6.85638465640590
31
0.000000000000000
  0
LINE
  5
F10185
330
F10186
100
AcDbEntity
8
Geo
100
AcDbLine
10
-37.1492293744334
20
6.85638465640590
30
0.000000000000000
11
-37.0492293744334
21
6.77612941954781
31
0.000000000000000
  0
LINE
  5
F10187
330
F10188
100
AcDbEntity
8
Geo
100
AcDbLine
10
-37.0492293744334
20
6.77612941954781
30
0.000000000000000
11
-36.9492293744334
21
6.69622454175512
31
0.000000000000000
  0
LINE
  5
F10189
330
F1018A
100
AcDbEntity
8
Geo
100
AcDbLine
10
-36.9492293744334
20
6.69622454175512
30
0.000000000000000
11
-36.8492293744334
21
6.61668565057335
31
0.000000000000000
  0
LINE
  5
F1018B
330
F1018C
100
AcDbEntity
8
Geo
100
AcDbLine
10
-36.8492293744334
20
6.61668565057335
30
0.000000000000000
11
-36.7492293744334
21
6.53752830196952
31
0.000000000000000
  0
LINE
  5
F1018D
330
F1018E
100
AcDbEntity
8
Geo
100
AcDbLine
10
-36.7492293744334
20
6.53752830196952
30
0.000000000000000
11
-36.6492293744334
21
6.45876797728977
31
0.000000000000000
  0
LINE
  5
F1018F
330
F10190
100
AcDbEntity
8
Geo
100
AcDbLine
10
-36.6492293744334
20
6.45876797728977
30
0.000000000000000
11
-36.5492293744334
21
6.38042008023149
31
0.000000000000000
  0
LINE
  5
F10191
330
F10192
100
AcDbEntity
8
Geo
100
AcDbLine
10
-36.5492293744334
20
6.38042008023149
30
0.000000000000000
11
-36.4492293744334
21
6.30249993383083
31
0.000000000000000
  0
LINE
  5
F10193
330
F10194
100
AcDbEntity
8
Geo
100
AcDbLine
10
-36.4492293744334
20
6.30249993383083
30
0.000000000000000
11
-36.3492293744334
21
6.22502277746577
31
0.000000000000000
  0
LINE
  5
F10195
330
F10196
100
AcDbEntity
8
Geo
100
AcDbLine
10
-36.3492293744334
20
6.22502277746577
30
0.000000000000000
11
-36.2492293744334
21
6.14800376387569
31
0.000000000000000
  0
LINE
  5
F10197
330
F10198
100
AcDbEntity
8
Geo
100
AcDbLine
10
-36.2492293744334
20
6.14800376387569
30
0.000000000000000
11
-36.1492293744334
21
6.07145795619785
31
0.000000000000000
  0
LINE
  5
F10199
330
F1019A
100
AcDbEntity
8
Geo
100
AcDbLine
10
-36.1492293744334
20
6.07145795619785
30
0.000000000000000
11
-36.0492293744334
21
5.99540032502139
31
0.000000000000000
  0
LINE
  5
F1019B
330
F1019C
100
AcDbEntity
8
Geo
100
AcDbLine
10
-36.0492293744334
20
5.99540032502139
30
0.000000000000000
11
-35.9492293744334
21
5.91984574545940
31
0.000000000000000
  0
LINE
  5
F1019D
330
F1019E
100
AcDbEntity
8
Geo
100
AcDbLine
10
-35.9492293744334
20
5.91984574545940
30
0.000000000000000
11
-35.8492293744334
21
5.84480899423972
31
0.000000000000000
  0
LINE
  5
F1019F
330
F101A0
100
AcDbEntity
8
Geo
100
AcDbLine
10
-35.8492293744334
20
5.84480899423972
30
0.000000000000000
11
-35.7492293744334
21
5.77030474681496
31
0.000000000000000
  0
LINE
  5
F101A1
330
F101A2
100
AcDbEntity
8
Geo
100
AcDbLine
10
-35.7492293744334
20
5.77030474681496
30
0.000000000000000
11
-35.6492293744334
21
5.69634757449228
31
0.000000000000000
  0
LINE
  5
F101A3
330
F101A4
100
AcDbEntity
8
Geo
100
AcDbLine
10
-35.6492293744334
20
5.69634757449228
30
0.000000000000000
11
-35.5492293744334
21
5.62295194158364
31
0.000000000000000
  0
LINE
  5
F101A5
330
F101A6
100
AcDbEntity
8
Geo
100
AcDbLine
10
-35.5492293744334
20
5.62295194158364
30
0.000000000000000
11
-35.4492293744334
21
5.55013220257684
31
0.000000000000000
  0
LINE
  5
F101A7
330
F101A8
100
AcDbEntity
8
Geo
100
AcDbLine
10
-50.4492293744334
20
8.53942531869597
30
0.000000000000000
11
-50.3492293744334
21
8.47097946219042
31
0.000000000000000
  0
LINE
  5
F101A9
330
F101AA
100
AcDbEntity
8
Geo
100
AcDbLine
10
-50.3492293744334
20
8.47097946219042
30
0.000000000000000
11
-50.2492293744334
21
8.39974501876526
31
0.000000000000000
  0
LINE
  5
F101AB
330
F101AC
100
AcDbEntity
8
Geo
100
AcDbLine
10
-50.2492293744334
20
8.39974501876526
30
0.000000000000000
11
-50.1492293744334
21
8.31588701853504
31
0.000000000000000
  0
LINE
  5
F101AD
330
F101AE
100
AcDbEntity
8
Geo
100
AcDbLine
10
-50.1492293744334
20
8.31588701853504
30
0.000000000000000
11
-50.0492293744334
21
8.23207823640545
31
0.000000000000000
  0
LINE
  5
F101AF
330
F101B0
100
AcDbEntity
8
Geo
100
AcDbLine
10
-50.0492293744334
20
8.23207823640545
30
0.000000000000000
11
-49.9492293744334
21
8.14833506343538
31
0.000000000000000
  0
LINE
  5
F101B1
330
F101B2
100
AcDbEntity
8
Geo
100
AcDbLine
10
-49.9492293744334
20
8.14833506343538
30
0.000000000000000
11
-49.8492293744334
21
8.06467387785211
31
0.000000000000000
  0
LINE
  5
F101B3
330
F101B4
100
AcDbEntity
8
Geo
100
AcDbLine
10
-49.8492293744334
20
8.06467387785211
30
0.000000000000000
11
-49.7492293744334
21
7.98111104184807
31
0.000000000000000
  0
LINE
  5
F101B5
330
F101B6
100
AcDbEntity
8
Geo
100
AcDbLine
10
-49.7492293744334
20
7.98111104184807
30
0.000000000000000
11
-49.6492293744334
21
7.89766289838080
31
0.000000000000000
  0
LINE
  5
F101B7
330
F101B8
100
AcDbEntity
8
Geo
100
AcDbLine
10
-49.6492293744334
20
7.89766289838080
30
0.000000000000000
11
-49.5492293744334
21
7.81434576797663
31
0.000000000000000
  0
LINE
  5
F101B9
330
F101BA
100
AcDbEntity
8
Geo
100
AcDbLine
10
-49.5492293744334
20
7.81434576797663
30
0.000000000000000
11
-49.4492293744334
21
7.73117594553876
31
0.000000000000000
  0
LINE
  5
F101BB
330
F101BC
100
AcDbEntity
8
Geo
100
AcDbLine
10
-49.4492293744334
20
7.73117594553876
30
0.000000000000000
11
-49.3492293744334
21
7.64816969716036
31
0.000000000000000
  0
LINE
  5
F101BD
330
F101BE
100
AcDbEntity
8
Geo
100
AcDbLine
10
-49.3492293744334
20
7.64816969716036
30
0.000000000000000
11
-49.2492293744334
21
7.56534325694331
31
0.000000000000000
  0
LINE
  5
F101BF
330
F101C0
100
AcDbEntity
8
Geo
100
AcDbLine
10
-49.2492293744334
20
7.56534325694331
30
0.000000000000000
11
-49.1492293744334
21
7.48271282382315
31
0.000000000000000
  0
LINE
  5
F101C1
330
F101C2
100
AcDbEntity
8
Geo
100
AcDbLine
10
-49.1492293744334
20
7.48271282382315
30
0.000000000000000
11
-49.0492293744334
21
7.40029455840100
31
0.000000000000000
  0
LINE
  5
F101C3
330
F101C4
100
AcDbEntity
8
Geo
100
AcDbLine
10
-49.0492293744334
20
7.40029455840100
30
0.000000000000000
11
-48.9492293744334
21
7.31810457978285
31
0.000000000000000
  0
LINE
  5
F101C5
330
F101C6
100
AcDbEntity
8
Geo
100
AcDbLine
10
-48.9492293744334
20
7.31810457978285
30
0.000000000000000
11
-48.8492293744334
21
7.23615896242710
31
0.000000000000000
  0
LINE
  5
F101C7
330
F101C8
100
AcDbEntity
8
Geo
100
AcDbLine
10
-48.8492293744334
20
7.23615896242710
30
0.000000000000000
11
-48.7492293744334
21
7.15447373300074
31
0.000000000000000
  0
LINE
  5
F101C9
330
F101CA
100
AcDbEntity
8
Geo
100
AcDbLine
10
-48.7492293744334
20
7.15447373300074
30
0.000000000000000
11
-48.6492293744334
21
7.07306486724487
31
0.000000000000000
  0
LINE
  5
F101CB
330
F101CC
100
AcDbEntity
8
Geo
100
AcDbLine
10
-48.6492293744334
20
7.07306486724487
30
0.000000000000000
11
-48.5492293744334
21
6.99194828685030
31
0.000000000000000
  0
LINE
  5
F101CD
330
F101CE
100
AcDbEntity
8
Geo
100
AcDbLine
10
-48.5492293744334
20
6.99194828685030
30
0.000000000000000
11
-48.4492293744334
21
6.91113985634354
31
0.000000000000000
  0
LINE
  5
F101CF
330
F101D0
100
AcDbEntity
8
Geo
100
AcDbLine
10
-48.4492293744334
20
6.91113985634354
30
0.000000000000000
11
-48.3492293744334
21
6.83065537998415
31
0.000000000000000
  0
LINE
  5
F101D1
330
F101D2
100
AcDbEntity
8
Geo
100
AcDbLine
10
-48.3492293744334
20
6.83065537998415
30
0.000000000000000
11
-48.2492293744334
21
6.75051059867372
31
0.000000000000000
  0
LINE
  5
F101D3
330
F101D4
100
AcDbEntity
8
Geo
100
AcDbLine
10
-48.2492293744334
20
6.75051059867372
30
0.000000000000000
11
-48.1492293744334
21
6.67072118687737
31
0.000000000000000
  0
LINE
  5
F101D5
330
F101D6
100
AcDbEntity
8
Geo
100
AcDbLine
10
-48.1492293744334
20
6.67072118687737
30
0.000000000000000
11
-48.0492293744334
21
6.59130274955815
31
0.000000000000000
  0
LINE
  5
F101D7
330
F101D8
100
AcDbEntity
8
Geo
100
AcDbLine
10
-48.0492293744334
20
6.59130274955815
30
0.000000000000000
11
-47.9492293744334
21
6.51227081912509
31
0.000000000000000
  0
LINE
  5
F101D9
330
F101DA
100
AcDbEntity
8
Geo
100
AcDbLine
10
-47.9492293744334
20
6.51227081912509
30
0.000000000000000
11
-47.8492293744334
21
6.43364085239542
31
0.000000000000000
  0
LINE
  5
F101DB
330
F101DC
100
AcDbEntity
8
Geo
100
AcDbLine
10
-47.8492293744334
20
6.43364085239542
30
0.000000000000000
11
-47.7492293744334
21
6.35542822757156
31
0.000000000000000
  0
LINE
  5
F101DD
330
F101DE
100
AcDbEntity
8
Geo
100
AcDbLine
10
-47.7492293744334
20
6.35542822757156
30
0.000000000000000
11
-47.6492293744334
21
6.27764824123352
31
0.000000000000000
  0
LINE
  5
F101DF
330
F101E0
100
AcDbEntity
8
Geo
100
AcDbLine
10
-47.6492293744334
20
6.27764824123352
30
0.000000000000000
11
-47.5492293744334
21
6.20031610534722
31
0.000000000000000
  0
LINE
  5
F101E1
330
F101E2
100
AcDbEntity
8
Geo
100
AcDbLine
10
-47.5492293744334
20
6.20031610534722
30
0.000000000000000
11
-47.4492293744334
21
6.12344694428939
31
0.000000000000000
  0
LINE
  5
F101E3
330
F101E4
100
AcDbEntity
8
Geo
100
AcDbLine
10
-47.4492293744334
20
6.12344694428939
30
0.000000000000000
11
-47.3492293744334
21
6.04705579188960
31
0.000000000000000
  0
LINE
  5
F101E5
330
F101E6
100
AcDbEntity
8
Geo
100
AcDbLine
10
-47.3492293744334
20
6.04705579188960
30
0.000000000000000
11
-47.2492293744334
21
5.97115758848999
31
0.000000000000000
  0
LINE
  5
F101E7
330
F101E8
100
AcDbEntity
8
Geo
100
AcDbLine
10
-47.2492293744334
20
5.97115758848999
30
0.000000000000000
11
-47.1492293744334
21
5.89576717802328
31
0.000000000000000
  0
LINE
  5
F101E9
330
F101EA
100
AcDbEntity
8
Geo
100
AcDbLine
10
-47.1492293744334
20
5.89576717802328
30
0.000000000000000
11
-47.0492293744334
21
5.82089930510962
31
0.000000000000000
  0
LINE
  5
F101EB
330
F101EC
100
AcDbEntity
8
Geo
100
AcDbLine
10
-47.0492293744334
20
5.82089930510962
30
0.000000000000000
11
-46.9492293744334
21
5.74656861217293
31
0.000000000000000
  0
LINE
  5
F101ED
330
F101EE
100
AcDbEntity
8
Geo
100
AcDbLine
10
-46.9492293744334
20
5.74656861217293
30
0.000000000000000
11
-46.8492293744334
21
5.67278963657714
31
0.000000000000000
  0
LINE
  5
F101EF
330
F101F0
100
AcDbEntity
8
Geo
100
AcDbLine
10
-46.8492293744334
20
5.67278963657714
30
0.000000000000000
11
-46.7492293744334
21
5.59957680778304
31
0.000000000000000
  0
LINE
  5
F101F1
330
F101F2
100
AcDbEntity
8
Geo
100
AcDbLine
10
-46.7492293744334
20
5.59957680778304
30
0.000000000000000
11
-46.6492293744334
21
5.52694444452618
31
0.000000000000000
  0
LINE
  5
F101F3
330
F101F4
100
AcDbEntity
8
Geo
100
AcDbLine
10
-46.6492293744334
20
5.52694444452618
30
0.000000000000000
11
-46.5492293744334
21
5.45490675201650
31
0.000000000000000
  0
LINE
  5
F101F5
330
F101F6
100
AcDbEntity
8
Geo
100
AcDbLine
10
-46.5492293744334
20
5.45490675201650
30
0.000000000000000
11
-46.4492293744334
21
5.38347781916011
31
0.000000000000000
  0
LINE
  5
F101F7
330
F101F8
100
AcDbEntity
8
Geo
100
AcDbLine
10
-46.4492293744334
20
5.38347781916011
30
0.000000000000000
11
-46.3492293744334
21
5.31267161580379
31
0.000000000000000
  0
LINE
  5
F101F9
330
F101FA
100
AcDbEntity
8
Geo
100
AcDbLine
10
-46.3492293744334
20
5.31267161580379
30
0.000000000000000
11
-46.2492293744334
21
5.24250199000285
31
0.000000000000000
  0
LINE
  5
F101FB
330
F101FC
100
AcDbEntity
8
Geo
100
AcDbLine
10
-46.2492293744334
20
5.24250199000285
30
0.000000000000000
11
-46.1492293744334
21
5.17298266531276
31
0.000000000000000
  0
LINE
  5
F101FD
330
F101FE
100
AcDbEntity
8
Geo
100
AcDbLine
10
-46.1492293744334
20
5.17298266531276
30
0.000000000000000
11
-46.0492293744334
21
5.10412723810512
31
0.000000000000000
  0
LINE
  5
F101FF
330
F10200
100
AcDbEntity
8
Geo
100
AcDbLine
10
-46.0492293744334
20
5.10412723810512
30
0.000000000000000
11
-45.9492293744334
21
5.03594917490856
31
0.000000000000000
  0
LINE
  5
F10201
330
F10202
100
AcDbEntity
8
Geo
100
AcDbLine
10
-45.9492293744334
20
5.03594917490856
30
0.000000000000000
11
-45.8492293744334
21
4.96846180977497
31
0.000000000000000
  0
LINE
  5
F10203
330
F10204
100
AcDbEntity
8
Geo
100
AcDbLine
10
-45.8492293744334
20
4.96846180977497
30
0.000000000000000
11
-45.7492293744334
21
4.90167834167169
31
0.000000000000000
  0
LINE
  5
F10205
330
F10206
100
AcDbEntity
8
Geo
100
AcDbLine
10
-45.7492293744334
20
4.90167834167169
30
0.000000000000000
11
-45.6492293744334
21
4.83561183190006
31
0.000000000000000
  0
LINE
  5
F10207
330
F10208
100
AcDbEntity
8
Geo
100
AcDbLine
10
-45.6492293744334
20
4.83561183190006
30
0.000000000000000
11
-45.5492293744334
21
4.77027520154099
31
0.000000000000000
  0
LINE
  5
F10209
330
F1020A
100
AcDbEntity
8
Geo
100
AcDbLine
10
-45.5492293744334
20
4.77027520154099
30
0.000000000000000
11
-45.4492293744334
21
4.70568122892783
31
0.000000000000000
  0
LINE
  5
F1020B
330
F1020C
100
AcDbEntity
8
Geo
100
AcDbLine
10
-45.4492293744334
20
4.70568122892783
30
0.000000000000000
11
-45.3492293744334
21
4.64184254714728
31
0.000000000000000
  0
LINE
  5
F1020D
330
F1020E
100
AcDbEntity
8
Geo
100
AcDbLine
10
-45.3492293744334
20
4.64184254714728
30
0.000000000000000
11
-45.2492293744334
21
4.57877164156862
31
0.000000000000000
  0
LINE
  5
F1020F
330
F10210
100
AcDbEntity
8
Geo
100
AcDbLine
10
-45.2492293744334
20
4.57877164156862
30
0.000000000000000
11
-45.1492293744334
21
4.51648084740186
31
0.000000000000000
  0
LINE
  5
F10211
330
F10212
100
AcDbEntity
8
Geo
100
AcDbLine
10
-45.1492293744334
20
4.51648084740186
30
0.000000000000000
11
-45.0492293744334
21
4.45498234728527
31
0.000000000000000
  0
LINE
  5
F10213
330
F10214
100
AcDbEntity
8
Geo
100
AcDbLine
10
-45.0492293744334
20
4.45498234728527
30
0.000000000000000
11
-44.9492293744334
21
4.39428816890273
31
0.000000000000000
  0
LINE
  5
F10215
330
F10216
100
AcDbEntity
8
Geo
100
AcDbLine
10
-44.9492293744334
20
4.39428816890273
30
0.000000000000000
11
-44.8492293744334
21
4.33441018263141
31
0.000000000000000
  0
LINE
  5
F10217
330
F10218
100
AcDbEntity
8
Geo
100
AcDbLine
10
-44.8492293744334
20
4.33441018263141
30
0.000000000000000
11
-44.7492293744334
21
4.27536009922017
31
0.000000000000000
  0
LINE
  5
F10219
330
F1021A
100
AcDbEntity
8
Geo
100
AcDbLine
10
-44.7492293744334
20
4.27536009922017
30
0.000000000000000
11
-44.6492293744334
21
4.21714946749922
31
0.000000000000000
  0
LINE
  5
F1021B
330
F1021C
100
AcDbEntity
8
Geo
100
AcDbLine
10
-44.6492293744334
20
4.21714946749922
30
0.000000000000000
11
-44.5492293744334
21
4.15978967212146
31
0.000000000000000
  0
LINE
  5
F1021D
330
F1021E
100
AcDbEntity
8
Geo
100
AcDbLine
10
-44.5492293744334
20
4.15978967212146
30
0.000000000000000
11
-44.4492293744334
21
4.10329193133587
31
0.000000000000000
  0
LINE
  5
F1021F
330
F10220
100
AcDbEntity
8
Geo
100
AcDbLine
10
-44.4492293744334
20
4.10329193133587
30
0.000000000000000
11
-44.3492293744334
21
4.04766729479349
31
0.000000000000000
  0
LINE
  5
F10221
330
F10222
100
AcDbEntity
8
Geo
100
AcDbLine
10
-44.3492293744334
20
4.04766729479349
30
0.000000000000000
11
-44.2492293744334
21
3.99292664138639
31
0.000000000000000
  0
LINE
  5
F10223
330
F10224
100
AcDbEntity
8
Geo
100
AcDbLine
10
-44.2492293744334
20
3.99292664138639
30
0.000000000000000
11
-44.1492293744334
21
3.93908067711997
31
0.000000000000000
  0
LINE
  5
F10225
330
F10226
100
AcDbEntity
8
Geo
100
AcDbLine
10
-44.1492293744334
20
3.93908067711997
30
0.000000000000000
11
-44.0492293744334
21
3.88613993301913
31
0.000000000000000
  0
LINE
  5
F10227
330
F10228
100
AcDbEntity
8
Geo
100
AcDbLine
10
-44.0492293744334
20
3.88613993301913
30
0.000000000000000
11
-43.9492293744334
21
3.83411476306868
31
0.000000000000000
  0
LINE
  5
F10229
330
F1022A
100
AcDbEntity
8
Geo
100
AcDbLine
10
-43.9492293744334
20
3.83411476306868
30
0.000000000000000
11
-43.8492293744334
21
3.78301534218826
31
0.000000000000000
  0
LINE
  5
F1022B
330
F1022C
100
AcDbEntity
8
Geo
100
AcDbLine
10
-43.8492293744334
20
3.78301534218826
30
0.000000000000000
11
-43.7492293744334
21
3.73285166424245
31
0.000000000000000
  0
LINE
  5
F1022D
330
F1022E
100
AcDbEntity
8
Geo
100
AcDbLine
10
-43.7492293744334
20
3.73285166424245
30
0.000000000000000
11
-43.6492293744334
21
3.68363354008613
31
0.000000000000000
  0
LINE
  5
F1022F
330
F10230
100
AcDbEntity
8
Geo
100
AcDbLine
10
-43.6492293744334
20
3.68363354008613
30
0.000000000000000
11
-43.5492293744334
21
3.63537059564575
31
0.000000000000000
  0
LINE
  5
F10231
330
F10232
100
AcDbEntity
8
Geo
100
AcDbLine
10
-43.5492293744334
20
3.63537059564575
30
0.000000000000000
11
-43.4492293744334
21
3.58807227003670
31
0.000000000000000
  0
LINE
  5
F10233
330
F10234
100
AcDbEntity
8
Geo
100
AcDbLine
10
-43.4492293744334
20
3.58807227003670
30
0.000000000000000
11
-43.3492293744334
21
3.54174781371725
31
0.000000000000000
  0
LINE
  5
F10235
330
F10236
100
AcDbEntity
8
Geo
100
AcDbLine
10
-43.3492293744334
20
3.54174781371725
30
0.000000000000000
11
-43.2492293744334
21
3.49640628667936
31
0.000000000000000
  0
LINE
  5
F10237
330
F10238
100
AcDbEntity
8
Geo
100
AcDbLine
10
-43.2492293744334
20
3.49640628667936
30
0.000000000000000
11
-43.1492293744334
21
3.45205655667676
31
0.000000000000000
  0
LINE
  5
F10239
330
F1023A
100
AcDbEntity
8
Geo
100
AcDbLine
10
-43.1492293744334
20
3.45205655667676
30
0.000000000000000
11
-43.0492293744334
21
3.40870729749062
31
0.000000000000000
  0
LINE
  5
F1023B
330
F1023C
100
AcDbEntity
8
Geo
100
AcDbLine
10
-43.0492293744334
20
3.40870729749062
30
0.000000000000000
11
-42.9492293744334
21
3.36636698723319
31
0.000000000000000
  0
LINE
  5
F1023D
330
F1023E
100
AcDbEntity
8
Geo
100
AcDbLine
10
-42.9492293744334
20
3.36636698723319
30
0.000000000000000
11
-42.8492293744334
21
3.32504390668962
31
0.000000000000000
  0
LINE
  5
F1023F
330
F10240
100
AcDbEntity
8
Geo
100
AcDbLine
10
-42.8492293744334
20
3.32504390668962
30
0.000000000000000
11
-42.7492293744334
21
3.28474613769847
31
0.000000000000000
  0
LINE
  5
F10241
330
F10242
100
AcDbEntity
8
Geo
100
AcDbLine
10
-42.7492293744334
20
3.28474613769847
30
0.000000000000000
11
-42.6492293744334
21
3.24548156157110
31
0.000000000000000
  0
LINE
  5
F10243
330
F10244
100
AcDbEntity
8
Geo
100
AcDbLine
10
-42.6492293744334
20
3.24548156157110
30
0.000000000000000
11
-42.5492293744334
21
3.20725785755022
31
0.000000000000000
  0
LINE
  5
F10245
330
F10246
100
AcDbEntity
8
Geo
100
AcDbLine
10
-42.5492293744334
20
3.20725785755022
30
0.000000000000000
11
-42.4492293744334
21
3.17008250130805
31
0.000000000000000
  0
LINE
  5
F10247
330
F10248
100
AcDbEntity
8
Geo
100
AcDbLine
10
-42.4492293744334
20
3.17008250130805
30
0.000000000000000
11
-42.3492293744334
21
3.13396276348423
31
0.000000000000000
  0
LINE
  5
F10249
330
F1024A
100
AcDbEntity
8
Geo
100
AcDbLine
10
-42.3492293744334
20
3.13396276348423
30
0.000000000000000
11
-42.2492293744334
21
3.09890570826388
31
0.000000000000000
  0
LINE
  5
F1024B
330
F1024C
100
AcDbEntity
8
Geo
100
AcDbLine
10
-42.2492293744334
20
3.09890570826388
30
0.000000000000000
11
-42.1492293744334
21
3.06491819199597
31
0.000000000000000
  0
LINE
  5
F1024D
330
F1024E
100
AcDbEntity
8
Geo
100
AcDbLine
10
-42.1492293744334
20
3.06491819199597
30
0.000000000000000
11
-42.0492293744334
21
3.03200686185239
31
0.000000000000000
  0
LINE
  5
F1024F
330
F10250
100
AcDbEntity
8
Geo
100
AcDbLine
10
-42.0492293744334
20
3.03200686185239
30
0.000000000000000
11
-41.9492293744334
21
3.00017815452792
31
0.000000000000000
  0
LINE
  5
F10251
330
F10252
100
AcDbEntity
8
Geo
100
AcDbLine
10
-41.9492293744334
20
3.00017815452792
30
0.000000000000000
11
-41.8492293744334
21
2.96943829498139
31
0.000000000000000
  0
LINE
  5
F10253
330
F10254
100
AcDbEntity
8
Geo
100
AcDbLine
10
-41.8492293744334
20
2.96943829498139
30
0.000000000000000
11
-41.7492293744334
21
2.93979329521815
31
0.000000000000000
  0
LINE
  5
F10255
330
F10256
100
AcDbEntity
8
Geo
100
AcDbLine
10
-41.7492293744334
20
2.93979329521815
30
0.000000000000000
11
-41.6492293744334
21
2.91124895311436
31
0.000000000000000
  0
LINE
  5
F10257
330
F10258
100
AcDbEntity
8
Geo
100
AcDbLine
10
-41.6492293744334
20
2.91124895311436
30
0.000000000000000
11
-41.5492293744334
21
2.88381085128295
31
0.000000000000000
  0
LINE
  5
F10259
330
F1025A
100
AcDbEntity
8
Geo
100
AcDbLine
10
-41.5492293744334
20
2.88381085128295
30
0.000000000000000
11
-41.4492293744334
21
2.85748435598188
31
0.000000000000000
  0
LINE
  5
F1025B
330
F1025C
100
AcDbEntity
8
Geo
100
AcDbLine
10
-41.4492293744334
20
2.85748435598188
30
0.000000000000000
11
-41.3492293744334
21
2.83227461606458
31
0.000000000000000
  0
LINE
  5
F1025D
330
F1025E
100
AcDbEntity
8
Geo
100
AcDbLine
10
-41.3492293744334
20
2.83227461606458
30
0.000000000000000
11
-41.2492293744334
21
2.80818656197295
31
0.000000000000000
  0
LINE
  5
F1025F
330
F10260
100
AcDbEntity
8
Geo
100
AcDbLine
10
-41.2492293744334
20
2.80818656197295
30
0.000000000000000
11
-41.1492293744334
21
2.78522490477313
31
0.000000000000000
  0
LINE
  5
F10261
330
F10262
100
AcDbEntity
8
Geo
100
AcDbLine
10
-41.1492293744334
20
2.78522490477313
30
0.000000000000000
11
-41.0492293744334
21
2.76339413523404
31
0.000000000000000
  0
LINE
  5
F10263
330
F10264
100
AcDbEntity
8
Geo
100
AcDbLine
10
-41.0492293744334
20
2.76339413523404
30
0.000000000000000
11
-40.9492293744334
21
2.74269852294916
31
0.000000000000000
  0
LINE
  5
F10265
330
F10266
100
AcDbEntity
8
Geo
100
AcDbLine
10
-40.9492293744334
20
2.74269852294916
30
0.000000000000000
11
-40.8492293744334
21
2.72314211550148
31
0.000000000000000
  0
LINE
  5
F10267
330
F10268
100
AcDbEntity
8
Geo
100
AcDbLine
10
-40.8492293744334
20
2.72314211550148
30
0.000000000000000
11
-40.7492293744334
21
2.70472873767186
31
0.000000000000000
  0
LINE
  5
F10269
330
F1026A
100
AcDbEntity
8
Geo
100
AcDbLine
10
-40.7492293744334
20
2.70472873767186
30
0.000000000000000
11
-40.6492293744334
21
2.68746199069101
31
0.000000000000000
  0
LINE
  5
F1026B
330
F1026C
100
AcDbEntity
8
Geo
100
AcDbLine
10
-40.6492293744334
20
2.68746199069101
30
0.000000000000000
11
-40.5492293744334
21
2.67134525153520
31
0.000000000000000
  0
LINE
  5
F1026D
330
F1026E
100
AcDbEntity
8
Geo
100
AcDbLine
10
-40.5492293744334
20
2.67134525153520
30
0.000000000000000
11
-40.4492293744334
21
2.65638167226574
31
0.000000000000000
  0
LINE
  5
F1026F
330
F10270
100
AcDbEntity
8
Geo
100
AcDbLine
10
-40.4492293744334
20
2.65638167226574
30
0.000000000000000
11
-40.3492293744334
21
2.64257417941257
31
0.000000000000000
  0
LINE
  5
F10271
330
F10272
100
AcDbEntity
8
Geo
100
AcDbLine
10
-40.3492293744334
20
2.64257417941257
30
0.000000000000000
11
-40.2492293744334
21
2.62992547340185
31
0.000000000000000
  0
LINE
  5
F10273
330
F10274
100
AcDbEntity
8
Geo
100
AcDbLine
10
-40.2492293744334
20
2.62992547340185
30
0.000000000000000
11
-40.1492293744334
21
2.61843802802786
31
0.000000000000000
  0
LINE
  5
F10275
330
F10276
100
AcDbEntity
8
Geo
100
AcDbLine
10
-40.1492293744334
20
2.61843802802786
30
0.000000000000000
11
-40.0492293744334
21
2.60811408996917
31
0.000000000000000
  0
LINE
  5
F10277
330
F10278
100
AcDbEntity
8
Geo
100
AcDbLine
10
-40.0492293744334
20
2.60811408996917
30
0.000000000000000
11
-39.9492293744334
21
2.59895567834921
31
0.000000000000000
  0
LINE
  5
F10279
330
F1027A
100
AcDbEntity
8
Geo
100
AcDbLine
10
-39.9492293744334
20
2.59895567834921
30
0.000000000000000
11
-39.8492293744334
21
2.59096458434142
31
0.000000000000000
  0
LINE
  5
F1027B
330
F1027C
100
AcDbEntity
8
Geo
100
AcDbLine
10
-39.8492293744334
20
2.59096458434142
30
0.000000000000000
11
-39.7492293744334
21
2.58414237081892
31
0.000000000000000
  0
LINE
  5
F1027D
330
F1027E
100
AcDbEntity
8
Geo
100
AcDbLine
10
-39.7492293744334
20
2.58414237081892
30
0.000000000000000
11
-39.6492293744334
21
2.57849037204884
31
0.000000000000000
  0
LINE
  5
F1027F
330
F10280
100
AcDbEntity
8
Geo
100
AcDbLine
10
-39.6492293744334
20
2.57849037204884
30
0.000000000000000
11
-39.5492293744334
21
2.57400969343139
31
0.000000000000000
  0
LINE
  5
F10281
330
F10282
100
AcDbEntity
8
Geo
100
AcDbLine
10
-39.5492293744334
20
2.57400969343139
30
0.000000000000000
11
-39.4492293744334
21
2.57070121128365
31
0.000000000000000
  0
LINE
  5
F10283
330
F10284
100
AcDbEntity
8
Geo
100
AcDbLine
10
-39.4492293744334
20
2.57070121128365
30
0.000000000000000
11
-39.3492293744334
21
2.56856557266818
31
0.000000000000000
  0
LINE
  5
F10285
330
F10286
100
AcDbEntity
8
Geo
100
AcDbLine
10
-39.3492293744334
20
2.56856557266818
30
0.000000000000000
11
-39.2492293744334
21
2.56760319526650
31
0.000000000000000
  0
LINE
  5
F10287
330
F10288
100
AcDbEntity
8
Geo
100
AcDbLine
10
-39.2492293744334
20
2.56760319526650
30
0.000000000000000
11
-39.2172161250624
21
2.56754306436991
31
0.000000000000000
  0
LINE
  5
F10289
330
F1028A
100
AcDbEntity
8
Geo
100
AcDbLine
10
-39.2172161250624
20
14.5675430643699
30
0.000000000000000
11
-39.1492293744334
21
14.5672718614425
31
0.000000000000000
  0
LINE
  5
F1028B
330
F1028C
100
AcDbEntity
8
Geo
100
AcDbLine
10
-39.1492293744334
20
14.5672718614425
30
0.000000000000000
11
-39.0492293744334
21
14.5658873812599
31
0.000000000000000
  0
LINE
  5
F1028D
330
F1028E
100
AcDbEntity
8
Geo
100
AcDbLine
10
-39.0492293744334
20
14.5658873812599
30
0.000000000000000
11
-38.9492293744334
21
14.5633297636979
31
0.000000000000000
  0
LINE
  5
F1028F
330
F10290
100
AcDbEntity
8
Geo
100
AcDbLine
10
-38.9492293744334
20
14.5633297636979
30
0.000000000000000
11
-38.8492293744334
21
14.5595995089672
31
0.000000000000000
  0
LINE
  5
F10291
330
F10292
100
AcDbEntity
8
Geo
100
AcDbLine
10
-38.8492293744334
20
14.5595995089672
30
0.000000000000000
11
-38.7492293744334
21
14.5546973466195
31
0.000000000000000
  0
LINE
  5
F10293
330
F10294
100
AcDbEntity
8
Geo
100
AcDbLine
10
-38.7492293744334
20
14.5546973466195
30
0.000000000000000
11
-38.6492293744334
21
14.5486242354043
31
0.000000000000000
  0
LINE
  5
F10295
330
F10296
100
AcDbEntity
8
Geo
100
AcDbLine
10
-38.6492293744334
20
14.5486242354043
30
0.000000000000000
11
-38.5492293744334
21
14.5413813630816
31
0.000000000000000
  0
LINE
  5
F10297
330
F10298
100
AcDbEntity
8
Geo
100
AcDbLine
10
-38.5492293744334
20
14.5413813630816
30
0.000000000000000
11
-38.4492293744334
21
14.5329701461896
31
0.000000000000000
  0
LINE
  5
F10299
330
F1029A
100
AcDbEntity
8
Geo
100
AcDbLine
10
-38.4492293744334
20
14.5329701461896
30
0.000000000000000
11
-38.3492293744334
21
14.5233922297679
31
0.000000000000000
  0
LINE
  5
F1029B
330
F1029C
100
AcDbEntity
8
Geo
100
AcDbLine
10
-38.3492293744334
20
14.5233922297679
30
0.000000000000000
11
-38.2492293744334
21
14.5126494870352
31
0.000000000000000
  0
LINE
  5
F1029D
330
F1029E
100
AcDbEntity
8
Geo
100
AcDbLine
10
-38.2492293744334
20
14.5126494870352
30
0.000000000000000
11
-38.1492293744334
21
14.5007440190236
31
0.000000000000000
  0
LINE
  5
F1029F
330
F102A0
100
AcDbEntity
8
Geo
100
AcDbLine
10
-38.1492293744334
20
14.5007440190236
30
0.000000000000000
11
-38.0492293744334
21
14.4876781541672
31
0.000000000000000
  0
LINE
  5
F102A1
330
F102A2
100
AcDbEntity
8
Geo
100
AcDbLine
10
-38.0492293744334
20
14.4876781541672
30
0.000000000000000
11
-37.9492293744334
21
14.4734544478468
31
0.000000000000000
  0
LINE
  5
F102A3
330
F102A4
100
AcDbEntity
8
Geo
100
AcDbLine
10
-37.9492293744334
20
14.4734544478468
30
0.000000000000000
11
-37.8492293744334
21
14.4580756818903
31
0.000000000000000
  0
LINE
  5
F102A5
330
F102A6
100
AcDbEntity
8
Geo
100
AcDbLine
10
-37.8492293744334
20
14.4580756818903
30
0.000000000000000
11
-37.7492293744334
21
14.4415448640287
31
0.000000000000000
  0
LINE
  5
F102A7
330
F102A8
100
AcDbEntity
8
Geo
100
AcDbLine
10
-37.7492293744334
20
14.4415448640287
30
0.000000000000000
11
-37.6492293744334
21
14.4238652273073
31
0.000000000000000
  0
LINE
  5
F102A9
330
F102AA
100
AcDbEntity
8
Geo
100
AcDbLine
10
-37.6492293744334
20
14.4238652273073
30
0.000000000000000
11
-37.5492293744334
21
14.4050402294543
31
0.000000000000000
  0
LINE
  5
F102AB
330
F102AC
100
AcDbEntity
8
Geo
100
AcDbLine
10
-37.5492293744334
20
14.4050402294543
30
0.000000000000000
11
-37.4492293744334
21
14.3850735522035
31
0.000000000000000
  0
LINE
  5
F102AD
330
F102AE
100
AcDbEntity
8
Geo
100
AcDbLine
10
-37.4492293744334
20
14.3850735522035
30
0.000000000000000
11
-37.3492293744334
21
14.3639691005753
31
0.000000000000000
  0
LINE
  5
F102AF
330
F102B0
100
AcDbEntity
8
Geo
100
AcDbLine
10
-37.3492293744334
20
14.3639691005753
30
0.000000000000000
11
-37.2492293744334
21
14.3417310021120
31
0.000000000000000
  0
LINE
  5
F102B1
330
F102B2
100
AcDbEntity
8
Geo
100
AcDbLine
10
-37.2492293744334
20
14.3417310021120
30
0.000000000000000
11
-37.1492293744334
21
14.3183636060713
31
0.000000000000000
  0
LINE
  5
F102B3
330
F102B4
100
AcDbEntity
8
Geo
100
AcDbLine
10
-37.1492293744334
20
14.3183636060713
30
0.000000000000000
11
-37.0492293744334
21
14.2938714825752
31
0.000000000000000
  0
LINE
  5
F102B5
330
F102B6
100
AcDbEntity
8
Geo
100
AcDbLine
10
-37.0492293744334
20
14.2938714825752
30
0.000000000000000
11
-36.9492293744334
21
14.2682594217165
31
0.000000000000000
  0
LINE
  5
F102B7
330
F102B8
100
AcDbEntity
8
Geo
100
AcDbLine
10
-36.9492293744334
20
14.2682594217165
30
0.000000000000000
11
-36.8492293744334
21
14.2415324326218
31
0.000000000000000
  0
LINE
  5
F102B9
330
F102BA
100
AcDbEntity
8
Geo
100
AcDbLine
10
-36.8492293744334
20
14.2415324326218
30
0.000000000000000
11
-36.7492293744334
21
14.2136957424717
31
0.000000000000000
  0
LINE
  5
F102BB
330
F102BC
100
AcDbEntity
8
Geo
100
AcDbLine
10
-36.7492293744334
20
14.2136957424717
30
0.000000000000000
11
-36.6492293744334
21
14.1847547954791
31
0.000000000000000
  0
LINE
  5
F102BD
330
F102BE
100
AcDbEntity
8
Geo
100
AcDbLine
10
-36.6492293744334
20
14.1847547954791
30
0.000000000000000
11
-36.5492293744334
21
14.1547152518234
31
0.000000000000000
  0
LINE
  5
F102BF
330
F102C0
100
AcDbEntity
8
Geo
100
AcDbLine
10
-36.5492293744334
20
14.1547152518234
30
0.000000000000000
11
-36.4492293744334
21
14.1235829865445
31
0.000000000000000
  0
LINE
  5
F102C1
330
F102C2
100
AcDbEntity
8
Geo
100
AcDbLine
10
-36.4492293744334
20
14.1235829865445
30
0.000000000000000
11
-36.3492293744334
21
14.0913640883933
31
0.000000000000000
  0
LINE
  5
F102C3
330
F102C4
100
AcDbEntity
8
Geo
100
AcDbLine
10
-36.3492293744334
20
14.0913640883933
30
0.000000000000000
11
-36.2492293744334
21
14.0580648586408
31
0.000000000000000
  0
LINE
  5
F102C5
330
F102C6
100
AcDbEntity
8
Geo
100
AcDbLine
10
-36.2492293744334
20
14.0580648586408
30
0.000000000000000
11
-36.1492293744334
21
14.0236918098461
31
0.000000000000000
  0
LINE
  5
F102C7
330
F102C8
100
AcDbEntity
8
Geo
100
AcDbLine
10
-36.1492293744334
20
14.0236918098461
30
0.000000000000000
11
-36.0492293744334
21
13.9882516645823
31
0.000000000000000
  0
LINE
  5
F102C9
330
F102CA
100
AcDbEntity
8
Geo
100
AcDbLine
10
-36.0492293744334
20
13.9882516645823
30
0.000000000000000
11
-35.9492293744334
21
13.9517513541219
31
0.000000000000000
  0
LINE
  5
F102CB
330
F102CC
100
AcDbEntity
8
Geo
100
AcDbLine
10
-35.9492293744334
20
13.9517513541219
30
0.000000000000000
11
-35.8492293744334
21
13.9141980170812
31
0.000000000000000
  0
LINE
  5
F102CD
330
F102CE
100
AcDbEntity
8
Geo
100
AcDbLine
10
-35.8492293744334
20
13.9141980170812
30
0.000000000000000
11
-35.7492293744334
21
13.8755989980242
31
0.000000000000000
  0
LINE
  5
F102CF
330
F102D0
100
AcDbEntity
8
Geo
100
AcDbLine
10
-35.7492293744334
20
13.8755989980242
30
0.000000000000000
11
-35.6492293744334
21
13.8359618460260
31
0.000000000000000
  0
LINE
  5
F102D1
330
F102D2
100
AcDbEntity
8
Geo
100
AcDbLine
10
-35.6492293744334
20
13.8359618460260
30
0.000000000000000
11
-35.5492293744334
21
13.7952943131965
31
0.000000000000000
  0
LINE
  5
F102D3
330
F102D4
100
AcDbEntity
8
Geo
100
AcDbLine
10
-35.5492293744334
20
13.7952943131965
30
0.000000000000000
11
-35.4492293744334
21
13.7536043531644
31
0.000000000000000
  0
LINE
  5
F102D5
330
F102D6
100
AcDbEntity
8
Geo
100
AcDbLine
10
-41.4636192651105
20
14.5675430643699
30
0.000000000000000
11
-41.4492293744334
21
14.5675309152899
31
0.000000000000000
  0
LINE
  5
F102D7
330
F102D8
100
AcDbEntity
8
Geo
100
AcDbLine
10
-41.4492293744334
20
14.5675309152899
30
0.000000000000000
11
-41.3492293744334
21
14.5667753323209
31
0.000000000000000
  0
LINE
  5
F102D9
330
F102DA
100
AcDbEntity
8
Geo
100
AcDbLine
10
-41.3492293744334
20
14.5667753323209
30
0.000000000000000
11
-41.2492293744334
21
14.5648464383098
31
0.000000000000000
  0
LINE
  5
F102DB
330
F102DC
100
AcDbEntity
8
Geo
100
AcDbLine
10
-41.2492293744334
20
14.5648464383098
30
0.000000000000000
11
-41.1492293744334
21
14.5617446105036
31
0.000000000000000
  0
LINE
  5
F102DD
330
F102DE
100
AcDbEntity
8
Geo
100
AcDbLine
10
-41.1492293744334
20
14.5617446105036
30
0.000000000000000
11
-41.0492293744334
21
14.5574704555481
31
0.000000000000000
  0
LINE
  5
F102DF
330
F102E0
100
AcDbEntity
8
Geo
100
AcDbLine
10
-41.0492293744334
20
14.5574704555481
30
0.000000000000000
11
-40.9492293744334
21
14.5520248093691
31
0.000000000000000
  0
LINE
  5
F102E1
330
F102E2
100
AcDbEntity
8
Geo
100
AcDbLine
10
-40.9492293744334
20
14.5520248093691
30
0.000000000000000
11
-40.8492293744334
21
14.5454087370090
31
0.000000000000000
  0
LINE
  5
F102E3
330
F102E4
100
AcDbEntity
8
Geo
100
AcDbLine
10
-40.8492293744334
20
14.5454087370090
30
0.000000000000000
11
-40.7492293744334
21
14.5376235324185
31
0.000000000000000
  0
LINE
  5
F102E5
330
F102E6
100
AcDbEntity
8
Geo
100
AcDbLine
10
-40.7492293744334
20
14.5376235324185
30
0.000000000000000
11
-40.6492293744334
21
14.5286707182036
31
0.000000000000000
  0
LINE
  5
F102E7
330
F102E8
100
AcDbEntity
8
Geo
100
AcDbLine
10
-40.6492293744334
20
14.5286707182036
30
0.000000000000000
11
-40.5492293744334
21
14.5185520453275
31
0.000000000000000
  0
LINE
  5
F102E9
330
F102EA
100
AcDbEntity
8
Geo
100
AcDbLine
10
-40.5492293744334
20
14.5185520453275
30
0.000000000000000
11
-40.4492293744334
21
14.5072694927686
31
0.000000000000000
  0
LINE
  5
F102EB
330
F102EC
100
AcDbEntity
8
Geo
100
AcDbLine
10
-40.4492293744334
20
14.5072694927686
30
0.000000000000000
11
-40.3492293744334
21
14.4948252671332
31
0.000000000000000
  0
LINE
  5
F102ED
330
F102EE
100
AcDbEntity
8
Geo
100
AcDbLine
10
-40.3492293744334
20
14.4948252671332
30
0.000000000000000
11
-40.2492293744334
21
14.4812218022239
31
0.000000000000000
  0
LINE
  5
F102EF
330
F102F0
100
AcDbEntity
8
Geo
100
AcDbLine
10
-40.2492293744334
20
14.4812218022239
30
0.000000000000000
11
-40.1492293744334
21
14.4664617585637
31
0.000000000000000
  0
LINE
  5
F102F1
330
F102F2
100
AcDbEntity
8
Geo
100
AcDbLine
10
-40.1492293744334
20
14.4664617585637
30
0.000000000000000
11
-40.0492293744334
21
14.4505480228757
31
0.000000000000000
  0
LINE
  5
F102F3
330
F102F4
100
AcDbEntity
8
Geo
100
AcDbLine
10
-40.0492293744334
20
14.4505480228757
30
0.000000000000000
11
-39.9492293744334
21
14.4334837075184
31
0.000000000000000
  0
LINE
  5
F102F5
330
F102F6
100
AcDbEntity
8
Geo
100
AcDbLine
10
-39.9492293744334
20
14.4334837075184
30
0.000000000000000
11
-39.8492293744334
21
14.4152721498772
31
0.000000000000000
  0
LINE
  5
F102F7
330
F102F8
100
AcDbEntity
8
Geo
100
AcDbLine
10
-39.8492293744334
20
14.4152721498772
30
0.000000000000000
11
-39.7492293744334
21
14.3959169117114
31
0.000000000000000
  0
LINE
  5
F102F9
330
F102FA
100
AcDbEntity
8
Geo
100
AcDbLine
10
-39.7492293744334
20
14.3959169117114
30
0.000000000000000
11
-39.6492293744334
21
14.3754217784578
31
0.000000000000000
  0
LINE
  5
F102FB
330
F102FC
100
AcDbEntity
8
Geo
100
AcDbLine
10
-39.6492293744334
20
14.3754217784578
30
0.000000000000000
11
-39.5492293744334
21
14.3537907584904
31
0.000000000000000
  0
LINE
  5
F102FD
330
F102FE
100
AcDbEntity
8
Geo
100
AcDbLine
10
-39.5492293744334
20
14.3537907584904
30
0.000000000000000
11
-39.4492293744334
21
14.3310280823361
31
0.000000000000000
  0
LINE
  5
F102FF
330
F10300
100
AcDbEntity
8
Geo
100
AcDbLine
10
-39.4492293744334
20
14.3310280823361
30
0.000000000000000
11
-39.3492293744334
21
14.3071382018480
31
0.000000000000000
  0
LINE
  5
F10301
330
F10302
100
AcDbEntity
8
Geo
100
AcDbLine
10
-39.3492293744334
20
14.3071382018480
30
0.000000000000000
11
-39.2492293744334
21
14.2821257893338
31
0.000000000000000
  0
LINE
  5
F10303
330
F10304
100
AcDbEntity
8
Geo
100
AcDbLine
10
-39.2492293744334
20
14.2821257893338
30
0.000000000000000
11
-39.1492293744334
21
14.2559957366429
31
0.000000000000000
  0
LINE
  5
F10305
330
F10306
100
AcDbEntity
8
Geo
100
AcDbLine
10
-39.1492293744334
20
14.2559957366429
30
0.000000000000000
11
-39.0492293744334
21
14.2287531542091
31
0.000000000000000
  0
LINE
  5
F10307
330
F10308
100
AcDbEntity
8
Geo
100
AcDbLine
10
-39.0492293744334
20
14.2287531542091
30
0.000000000000000
11
-38.9492293744334
21
14.2004033700512
31
0.000000000000000
  0
LINE
  5
F10309
330
F1030A
100
AcDbEntity
8
Geo
100
AcDbLine
10
-38.9492293744334
20
14.2004033700512
30
0.000000000000000
11
-38.8492293744334
21
14.1709519287311
31
0.000000000000000
  0
LINE
  5
F1030B
330
F1030C
100
AcDbEntity
8
Geo
100
AcDbLine
10
-38.8492293744334
20
14.1709519287311
30
0.000000000000000
11
-38.7492293744334
21
14.1404045902694
31
0.000000000000000
  0
LINE
  5
F1030D
330
F1030E
100
AcDbEntity
8
Geo
100
AcDbLine
10
-38.7492293744334
20
14.1404045902694
30
0.000000000000000
11
-38.6492293744334
21
14.1087673290189
31
0.000000000000000
  0
LINE
  5
F1030F
330
F10310
100
AcDbEntity
8
Geo
100
AcDbLine
10
-38.6492293744334
20
14.1087673290189
30
0.000000000000000
11
-38.5492293744334
21
14.0760463324959
31
0.000000000000000
  0
LINE
  5
F10311
330
F10312
100
AcDbEntity
8
Geo
100
AcDbLine
10
-38.5492293744334
20
14.0760463324959
30
0.000000000000000
11
-38.4492293744334
21
14.0422480001704
31
0.000000000000000
  0
LINE
  5
F10313
330
F10314
100
AcDbEntity
8
Geo
100
AcDbLine
10
-38.4492293744334
20
14.0422480001704
30
0.000000000000000
11
-38.3492293744334
21
14.0073789422142
31
0.000000000000000
  0
LINE
  5
F10315
330
F10316
100
AcDbEntity
8
Geo
100
AcDbLine
10
-38.3492293744334
20
14.0073789422142
30
0.000000000000000
11
-38.2492293744334
21
13.9714459782084
31
0.000000000000000
  0
LINE
  5
F10317
330
F10318
100
AcDbEntity
8
Geo
100
AcDbLine
10
-38.2492293744334
20
13.9714459782084
30
0.000000000000000
11
-38.1492293744334
21
13.9344561358095
31
0.000000000000000
  0
LINE
  5
F10319
330
F1031A
100
AcDbEntity
8
Geo
100
AcDbLine
10
-38.1492293744334
20
13.9344561358095
30
0.000000000000000
11
-38.0492293744334
21
13.8964166493749
31
0.000000000000000
  0
LINE
  5
F1031B
330
F1031C
100
AcDbEntity
8
Geo
100
AcDbLine
10
-38.0492293744334
20
13.8964166493749
30
0.000000000000000
11
-37.9492293744334
21
13.8573349585481
31
0.000000000000000
  0
LINE
  5
F1031D
330
F1031E
100
AcDbEntity
8
Geo
100
AcDbLine
10
-37.9492293744334
20
13.8573349585481
30
0.000000000000000
11
-37.8492293744334
21
13.8172187068037
31
0.000000000000000
  0
LINE
  5
F1031F
330
F10320
100
AcDbEntity
8
Geo
100
AcDbLine
10
-37.8492293744334
20
13.8172187068037
30
0.000000000000000
11
-37.7492293744334
21
13.7760757399525
31
0.000000000000000
  0
LINE
  5
F10321
330
F10322
100
AcDbEntity
8
Geo
100
AcDbLine
10
-37.7492293744334
20
13.7760757399525
30
0.000000000000000
11
-37.6492293744334
21
13.7339141046070
31
0.000000000000000
  0
LINE
  5
F10323
330
F10324
100
AcDbEntity
8
Geo
100
AcDbLine
10
-37.6492293744334
20
13.7339141046070
30
0.000000000000000
11
-37.5492293744334
21
13.6907420466076
31
0.000000000000000
  0
LINE
  5
F10325
330
F10326
100
AcDbEntity
8
Geo
100
AcDbLine
10
-37.5492293744334
20
13.6907420466076
30
0.000000000000000
11
-37.4492293744334
21
13.6465680094102
31
0.000000000000000
  0
LINE
  5
F10327
330
F10328
100
AcDbEntity
8
Geo
100
AcDbLine
10
-37.4492293744334
20
13.6465680094102
30
0.000000000000000
11
-37.3492293744334
21
13.6014006324344
31
0.000000000000000
  0
LINE
  5
F10329
330
F1032A
100
AcDbEntity
8
Geo
100
AcDbLine
10
-37.3492293744334
20
13.6014006324344
30
0.000000000000000
11
-37.2492293744334
21
13.5552487493743
31
0.000000000000000
  0
LINE
  5
F1032B
330
F1032C
100
AcDbEntity
8
Geo
100
AcDbLine
10
-37.2492293744334
20
13.5552487493743
30
0.000000000000000
11
-37.1492293744334
21
13.5081213864705
31
0.000000000000000
  0
LINE
  5
F1032D
330
F1032E
100
AcDbEntity
8
Geo
100
AcDbLine
10
-37.1492293744334
20
13.5081213864705
30
0.000000000000000
11
-37.0492293744334
21
13.4600277607450
31
0.000000000000000
  0
LINE
  5
F1032F
330
F10330
100
AcDbEntity
8
Geo
100
AcDbLine
10
-37.0492293744334
20
13.4600277607450
30
0.000000000000000
11
-36.9492293744334
21
13.4109772781982
31
0.000000000000000
  0
LINE
  5
F10331
330
F10332
100
AcDbEntity
8
Geo
100
AcDbLine
10
-36.9492293744334
20
13.4109772781982
30
0.000000000000000
11
-36.8492293744334
21
13.3609795319698
31
0.000000000000000
  0
LINE
  5
F10333
330
F10334
100
AcDbEntity
8
Geo
100
AcDbLine
10
-36.8492293744334
20
13.3609795319698
30
0.000000000000000
11
-36.7492293744334
21
13.3100443004623
31
0.000000000000000
  0
LINE
  5
F10335
330
F10336
100
AcDbEntity
8
Geo
100
AcDbLine
10
-36.7492293744334
20
13.3100443004623
30
0.000000000000000
11
-36.6492293744334
21
13.2581815454286
31
0.000000000000000
  0
LINE
  5
F10337
330
F10338
100
AcDbEntity
8
Geo
100
AcDbLine
10
-36.6492293744334
20
13.2581815454286
30
0.000000000000000
11
-36.5492293744334
21
13.2054014100238
31
0.000000000000000
  0
LINE
  5
F10339
330
F1033A
100
AcDbEntity
8
Geo
100
AcDbLine
10
-36.5492293744334
20
13.2054014100238
30
0.000000000000000
11
-36.4492293744334
21
13.1517142168213
31
0.000000000000000
  0
LINE
  5
F1033B
330
F1033C
100
AcDbEntity
8
Geo
100
AcDbLine
10
-36.4492293744334
20
13.1517142168213
30
0.000000000000000
11
-36.3492293744334
21
13.0971304657940
31
0.000000000000000
  0
LINE
  5
F1033D
330
F1033E
100
AcDbEntity
8
Geo
100
AcDbLine
10
-36.3492293744334
20
13.0971304657940
30
0.000000000000000
11
-36.2492293744334
21
13.0416608322610
31
0.000000000000000
  0
LINE
  5
F1033F
330
F10340
100
AcDbEntity
8
Geo
100
AcDbLine
10
-36.2492293744334
20
13.0416608322610
30
0.000000000000000
11
-36.1492293744334
21
12.9853161647993
31
0.000000000000000
  0
LINE
  5
F10341
330
F10342
100
AcDbEntity
8
Geo
100
AcDbLine
10
-36.1492293744334
20
12.9853161647993
30
0.000000000000000
11
-36.0492293744334
21
12.9281074831223
31
0.000000000000000
  0
LINE
  5
F10343
330
F10344
100
AcDbEntity
8
Geo
100
AcDbLine
10
-36.0492293744334
20
12.9281074831223
30
0.000000000000000
11
-35.9492293744334
21
12.8700459759246
31
0.000000000000000
  0
LINE
  5
F10345
330
F10346
100
AcDbEntity
8
Geo
100
AcDbLine
10
-35.9492293744334
20
12.8700459759246
30
0.000000000000000
11
-35.8492293744334
21
12.8111429986939
31
0.000000000000000
  0
LINE
  5
F10347
330
F10348
100
AcDbEntity
8
Geo
100
AcDbLine
10
-35.8492293744334
20
12.8111429986939
30
0.000000000000000
11
-35.7492293744334
21
12.7514100714897
31
0.000000000000000
  0
LINE
  5
F10349
330
F1034A
100
AcDbEntity
8
Geo
100
AcDbLine
10
-35.7492293744334
20
12.7514100714897
30
0.000000000000000
11
-35.6492293744334
21
12.6908588766908
31
0.000000000000000
  0
LINE
  5
F1034B
330
F1034C
100
AcDbEntity
8
Geo
100
AcDbLine
10
-35.6492293744334
20
12.6908588766908
30
0.000000000000000
11
-35.5492293744334
21
12.6295012567100
31
0.000000000000000
  0
LINE
  5
F1034D
330
F1034E
100
AcDbEntity
8
Geo
100
AcDbLine
10
-35.5492293744334
20
12.6295012567100
30
0.000000000000000
11
-35.4492293744334
21
12.5673492116784
31
0.000000000000000
  0
LINE
  5
F1034F
330
F10350
100
AcDbEntity
8
Geo
100
AcDbLine
10
-50.4492293744334
20
14.0466859207007
30
0.000000000000000
11
-50.3492293744334
21
14.1338075392731
31
0.000000000000000
  0
LINE
  5
F10351
330
F10352
100
AcDbEntity
8
Geo
100
AcDbLine
10
-50.3492293744334
20
14.1338075392731
30
0.000000000000000
11
-50.2492293744334
21
14.2197977677327
31
0.000000000000000
  0
LINE
  5
F10353
330
F10354
100
AcDbEntity
8
Geo
100
AcDbLine
10
-50.2492293744334
20
14.2197977677327
30
0.000000000000000
11
-50.1492293744334
21
14.1910946964141
31
0.000000000000000
  0
LINE
  5
F10355
330
F10356
100
AcDbEntity
8
Geo
100
AcDbLine
10
-50.1492293744334
20
14.1910946964141
30
0.000000000000000
11
-50.0492293744334
21
14.1612917884945
31
0.000000000000000
  0
LINE
  5
F10357
330
F10358
100
AcDbEntity
8
Geo
100
AcDbLine
10
-50.0492293744334
20
14.1612917884945
30
0.000000000000000
11
-49.9492293744334
21
14.1303948727333
31
0.000000000000000
  0
LINE
  5
F10359
330
F1035A
100
AcDbEntity
8
Geo
100
AcDbLine
10
-49.9492293744334
20
14.1303948727333
30
0.000000000000000
11
-49.8492293744334
21
14.0984099918525
31
0.000000000000000
  0
LINE
  5
F1035B
330
F1035C
100
AcDbEntity
8
Geo
100
AcDbLine
10
-49.8492293744334
20
14.0984099918525
30
0.000000000000000
11
-49.7492293744334
21
14.0653434013546
31
0.000000000000000
  0
LINE
  5
F1035D
330
F1035E
100
AcDbEntity
8
Geo
100
AcDbLine
10
-49.7492293744334
20
14.0653434013546
30
0.000000000000000
11
-49.6492293744334
21
14.0312015683000
31
0.000000000000000
  0
LINE
  5
F1035F
330
F10360
100
AcDbEntity
8
Geo
100
AcDbLine
10
-49.6492293744334
20
14.0312015683000
30
0.000000000000000
11
-49.5492293744334
21
13.9959911700412
31
0.000000000000000
  0
LINE
  5
F10361
330
F10362
100
AcDbEntity
8
Geo
100
AcDbLine
10
-49.5492293744334
20
13.9959911700412
30
0.000000000000000
11
-49.4492293744334
21
13.9597190929176
31
0.000000000000000
  0
LINE
  5
F10363
330
F10364
100
AcDbEntity
8
Geo
100
AcDbLine
10
-49.4492293744334
20
13.9597190929176
30
0.000000000000000
11
-49.3492293744334
21
13.9223924309083
31
0.000000000000000
  0
LINE
  5
F10365
330
F10366
100
AcDbEntity
8
Geo
100
AcDbLine
10
-49.3492293744334
20
13.9223924309083
30
0.000000000000000
11
-49.2492293744334
21
13.8840184842450
31
0.000000000000000
  0
LINE
  5
F10367
330
F10368
100
AcDbEntity
8
Geo
100
AcDbLine
10
-49.2492293744334
20
13.8840184842450
30
0.000000000000000
11
-49.1492293744334
21
13.8446047579837
31
0.000000000000000
  0
LINE
  5
F10369
330
F1036A
100
AcDbEntity
8
Geo
100
AcDbLine
10
-49.1492293744334
20
13.8446047579837
30
0.000000000000000
11
-49.0492293744334
21
13.8041589605376
31
0.000000000000000
  0
LINE
  5
F1036B
330
F1036C
100
AcDbEntity
8
Geo
100
AcDbLine
10
-49.0492293744334
20
13.8041589605376
30
0.000000000000000
11
-48.9492293744334
21
13.7626890021689
31
0.000000000000000
  0
LINE
  5
F1036D
330
F1036E
100
AcDbEntity
8
Geo
100
AcDbLine
10
-48.9492293744334
20
13.7626890021689
30
0.000000000000000
11
-48.8492293744334
21
13.7202029934420
31
0.000000000000000
  0
LINE
  5
F1036F
330
F10370
100
AcDbEntity
8
Geo
100
AcDbLine
10
-48.8492293744334
20
13.7202029934420
30
0.000000000000000
11
-48.7492293744334
21
13.6767092436375
31
0.000000000000000
  0
LINE
  5
F10371
330
F10372
100
AcDbEntity
8
Geo
100
AcDbLine
10
-48.7492293744334
20
13.6767092436375
30
0.000000000000000
11
-48.6492293744334
21
13.6322162591265
31
0.000000000000000
  0
LINE
  5
F10373
330
F10374
100
AcDbEntity
8
Geo
100
AcDbLine
10
-48.6492293744334
20
13.6322162591265
30
0.000000000000000
11
-48.5492293744334
21
13.5867327417076
31
0.000000000000000
  0
LINE
  5
F10375
330
F10376
100
AcDbEntity
8
Geo
100
AcDbLine
10
-48.5492293744334
20
13.5867327417076
30
0.000000000000000
11
-48.4492293744334
21
13.5402675869043
31
0.000000000000000
  0
LINE
  5
F10377
330
F10378
100
AcDbEntity
8
Geo
100
AcDbLine
10
-48.4492293744334
20
13.5402675869043
30
0.000000000000000
11
-48.3492293744334
21
13.4928298822262
31
0.000000000000000
  0
LINE
  5
F10379
330
F1037A
100
AcDbEntity
8
Geo
100
AcDbLine
10
-48.3492293744334
20
13.4928298822262
30
0.000000000000000
11
-48.2492293744334
21
13.4444289053908
31
0.000000000000000
  0
LINE
  5
F1037B
330
F1037C
100
AcDbEntity
8
Geo
100
AcDbLine
10
-48.2492293744334
20
13.4444289053908
30
0.000000000000000
11
-48.1492293744334
21
13.3950741225094
31
0.000000000000000
  0
LINE
  5
F1037D
330
F1037E
100
AcDbEntity
8
Geo
100
AcDbLine
10
-48.1492293744334
20
13.3950741225094
30
0.000000000000000
11
-48.0492293744334
21
13.3447751862357
31
0.000000000000000
  0
LINE
  5
F1037F
330
F10380
100
AcDbEntity
8
Geo
100
AcDbLine
10
-48.0492293744334
20
13.3447751862357
30
0.000000000000000
11
-47.9492293744334
21
13.2935419338781
31
0.000000000000000
  0
LINE
  5
F10381
330
F10382
100
AcDbEntity
8
Geo
100
AcDbLine
10
-47.9492293744334
20
13.2935419338781
30
0.000000000000000
11
-47.8492293744334
21
13.2413843854754
31
0.000000000000000
  0
LINE
  5
F10383
330
F10384
100
AcDbEntity
8
Geo
100
AcDbLine
10
-47.8492293744334
20
13.2413843854754
30
0.000000000000000
11
-47.7492293744334
21
13.1883127418375
31
0.000000000000000
  0
LINE
  5
F10385
330
F10386
100
AcDbEntity
8
Geo
100
AcDbLine
10
-47.7492293744334
20
13.1883127418375
30
0.000000000000000
11
-47.6492293744334
21
13.1343373825500
31
0.000000000000000
  0
LINE
  5
F10387
330
F10388
100
AcDbEntity
8
Geo
100
AcDbLine
10
-47.6492293744334
20
13.1343373825500
30
0.000000000000000
11
-47.5492293744334
21
13.0794688639446
31
0.000000000000000
  0
LINE
  5
F10389
330
F1038A
100
AcDbEntity
8
Geo
100
AcDbLine
10
-47.5492293744334
20
13.0794688639446
30
0.000000000000000
11
-47.4492293744334
21
13.0237179170342
31
0.000000000000000
  0
LINE
  5
F1038B
330
F1038C
100
AcDbEntity
8
Geo
100
AcDbLine
10
-47.4492293744334
20
13.0237179170342
30
0.000000000000000
11
-47.3492293744334
21
12.9670954454141
31
0.000000000000000
  0
LINE
  5
F1038D
330
F1038E
100
AcDbEntity
8
Geo
100
AcDbLine
10
-47.3492293744334
20
12.9670954454141
30
0.000000000000000
11
-47.2492293744334
21
12.9096125231300
31
0.000000000000000
  0
LINE
  5
F1038F
330
F10390
100
AcDbEntity
8
Geo
100
AcDbLine
10
-47.2492293744334
20
12.9096125231300
30
0.000000000000000
11
-47.1492293744334
21
12.8512803925114
31
0.000000000000000
  0
LINE
  5
F10391
330
F10392
100
AcDbEntity
8
Geo
100
AcDbLine
10
-47.1492293744334
20
12.8512803925114
30
0.000000000000000
11
-47.0492293744334
21
12.7921104619738
31
0.000000000000000
  0
LINE
  5
F10393
330
F10394
100
AcDbEntity
8
Geo
100
AcDbLine
10
-47.0492293744334
20
12.7921104619738
30
0.000000000000000
11
-46.9492293744334
21
12.7321143037867
31
0.000000000000000
  0
LINE
  5
F10395
330
F10396
100
AcDbEntity
8
Geo
100
AcDbLine
10
-46.9492293744334
20
12.7321143037867
30
0.000000000000000
11
-46.8492293744334
21
12.6713036518106
31
0.000000000000000
  0
LINE
  5
F10397
330
F10398
100
AcDbEntity
8
Geo
100
AcDbLine
10
-46.8492293744334
20
12.6713036518106
30
0.000000000000000
11
-46.7492293744334
21
12.6096903992022
31
0.000000000000000
  0
LINE
  5
F10399
330
F1039A
100
AcDbEntity
8
Geo
100
AcDbLine
10
-46.7492293744334
20
12.6096903992022
30
0.000000000000000
11
-46.6492293744334
21
12.5472865960883
31
0.000000000000000
  0
LINE
  5
F1039B
330
F1039C
100
AcDbEntity
8
Geo
100
AcDbLine
10
-46.6492293744334
20
12.5472865960883
30
0.000000000000000
11
-46.5492293744334
21
12.4841044472092
31
0.000000000000000
  0
LINE
  5
F1039D
330
F1039E
100
AcDbEntity
8
Geo
100
AcDbLine
10
-46.5492293744334
20
12.4841044472092
30
0.000000000000000
11
-46.4492293744334
21
12.4201563095314
31
0.000000000000000
  0
LINE
  5
F1039F
330
F103A0
100
AcDbEntity
8
Geo
100
AcDbLine
10
-46.4492293744334
20
12.4201563095314
30
0.000000000000000
11
-46.3492293744334
21
12.3554546898314
31
0.000000000000000
  0
LINE
  5
F103A1
330
F103A2
100
AcDbEntity
8
Geo
100
AcDbLine
10
-46.3492293744334
20
12.3554546898314
30
0.000000000000000
11
-46.2492293744334
21
12.2900122422489
31
0.000000000000000
  0
LINE
  5
F103A3
330
F103A4
100
AcDbEntity
8
Geo
100
AcDbLine
10
-46.2492293744334
20
12.2900122422489
30
0.000000000000000
11
-46.1492293744334
21
12.2238417658130
31
0.000000000000000
  0
LINE
  5
F103A5
330
F103A6
100
AcDbEntity
8
Geo
100
AcDbLine
10
-46.1492293744334
20
12.2238417658130
30
0.000000000000000
11
-46.0492293744334
21
12.1569562019378
31
0.000000000000000
  0
LINE
  5
F103A7
330
F103A8
100
AcDbEntity
8
Geo
100
AcDbLine
10
-46.0492293744334
20
12.1569562019378
30
0.000000000000000
11
-45.9492293744334
21
12.0893686318923
31
0.000000000000000
  0
LINE
  5
F103A9
330
F103AA
100
AcDbEntity
8
Geo
100
AcDbLine
10
-45.9492293744334
20
12.0893686318923
30
0.000000000000000
11
-45.8492293744334
21
12.0210922742416
31
0.000000000000000
  0
LINE
  5
F103AB
330
F103AC
100
AcDbEntity
8
Geo
100
AcDbLine
10
-45.8492293744334
20
12.0210922742416
30
0.000000000000000
11
-45.7492293744334
21
11.9521404822618
31
0.000000000000000
  0
LINE
  5
F103AD
330
F103AE
100
AcDbEntity
8
Geo
100
AcDbLine
10
-45.7492293744334
20
11.9521404822618
30
0.000000000000000
11
-45.6492293744334
21
11.8825267413281
31
0.000000000000000
  0
LINE
  5
F103AF
330
F103B0
100
AcDbEntity
8
Geo
100
AcDbLine
10
-45.6492293744334
20
11.8825267413281
30
0.000000000000000
11
-45.5492293744334
21
11.8122646662779
31
0.000000000000000
  0
LINE
  5
F103B1
330
F103B2
100
AcDbEntity
8
Geo
100
AcDbLine
10
-45.5492293744334
20
11.8122646662779
30
0.000000000000000
11
-45.4492293744334
21
11.7413679987475
31
0.000000000000000
  0
LINE
  5
F103B3
330
F103B4
100
AcDbEntity
8
Geo
100
AcDbLine
10
-45.4492293744334
20
11.7413679987475
30
0.000000000000000
11
-45.3492293744334
21
11.6698506044848
31
0.000000000000000
  0
LINE
  5
F103B5
330
F103B6
100
AcDbEntity
8
Geo
100
AcDbLine
10
-45.3492293744334
20
11.6698506044848
30
0.000000000000000
11
-45.2492293744334
21
11.5977264706379
31
0.000000000000000
  0
LINE
  5
F103B7
330
F103B8
100
AcDbEntity
8
Geo
100
AcDbLine
10
-45.2492293744334
20
11.5977264706379
30
0.000000000000000
11
-45.1492293744334
21
11.5250097030185
31
0.000000000000000
  0
LINE
  5
F103B9
330
F103BA
100
AcDbEntity
8
Geo
100
AcDbLine
10
-45.1492293744334
20
11.5250097030185
30
0.000000000000000
11
-45.0492293744334
21
11.4517145233443
31
0.000000000000000
  0
LINE
  5
F103BB
330
F103BC
100
AcDbEntity
8
Geo
100
AcDbLine
10
-45.0492293744334
20
11.4517145233443
30
0.000000000000000
11
-44.9492293744334
21
11.3778552664566
31
0.000000000000000
  0
LINE
  5
F103BD
330
F103BE
100
AcDbEntity
8
Geo
100
AcDbLine
10
-44.9492293744334
20
11.3778552664566
30
0.000000000000000
11
-44.8492293744334
21
11.3034463775176
31
0.000000000000000
  0
LINE
  5
F103BF
330
F103C0
100
AcDbEntity
8
Geo
100
AcDbLine
10
-44.8492293744334
20
11.3034463775176
30
0.000000000000000
11
-44.7492293744334
21
11.2285024091843
31
0.000000000000000
  0
LINE
  5
F103C1
330
F103C2
100
AcDbEntity
8
Geo
100
AcDbLine
10
-44.7492293744334
20
11.2285024091843
30
0.000000000000000
11
-44.6492293744334
21
11.1530380187633
31
0.000000000000000
  0
LINE
  5
F103C3
330
F103C4
100
AcDbEntity
8
Geo
100
AcDbLine
10
-44.6492293744334
20
11.1530380187633
30
0.000000000000000
11
-44.5492293744334
21
11.0770679653434
31
0.000000000000000
  0
LINE
  5
F103C5
330
F103C6
100
AcDbEntity
8
Geo
100
AcDbLine
10
-44.5492293744334
20
11.0770679653434
30
0.000000000000000
11
-44.4492293744334
21
11.0006071069096
31
0.000000000000000
  0
LINE
  5
F103C7
330
F103C8
100
AcDbEntity
8
Geo
100
AcDbLine
10
-44.4492293744334
20
11.0006071069096
30
0.000000000000000
11
-44.3492293744334
21
10.9236703974369
31
0.000000000000000
  0
LINE
  5
F103C9
330
F103CA
100
AcDbEntity
8
Geo
100
AcDbLine
10
-44.3492293744334
20
10.9236703974369
30
0.000000000000000
11
-44.2492293744334
21
10.8462728839658
31
0.000000000000000
  0
LINE
  5
F103CB
330
F103CC
100
AcDbEntity
8
Geo
100
AcDbLine
10
-44.2492293744334
20
10.8462728839658
30
0.000000000000000
11
-44.1492293744334
21
10.7684297036594
31
0.000000000000000
  0
LINE
  5
F103CD
330
F103CE
100
AcDbEntity
8
Geo
100
AcDbLine
10
-44.1492293744334
20
10.7684297036594
30
0.000000000000000
11
-44.0492293744334
21
10.6901560808428
31
0.000000000000000
  0
LINE
  5
F103CF
330
F103D0
100
AcDbEntity
8
Geo
100
AcDbLine
10
-44.0492293744334
20
10.6901560808428
30
0.000000000000000
11
-43.9492293744334
21
10.6114673240259
31
0.000000000000000
  0
LINE
  5
F103D1
330
F103D2
100
AcDbEntity
8
Geo
100
AcDbLine
10
-43.9492293744334
20
10.6114673240259
30
0.000000000000000
11
-43.8492293744334
21
10.5323788229090
31
0.000000000000000
  0
LINE
  5
F103D3
330
F103D4
100
AcDbEntity
8
Geo
100
AcDbLine
10
-43.8492293744334
20
10.5323788229090
30
0.000000000000000
11
-43.7492293744334
21
10.4529060453733
31
0.000000000000000
  0
LINE
  5
F103D5
330
F103D6
100
AcDbEntity
8
Geo
100
AcDbLine
10
-43.7492293744334
20
10.4529060453733
30
0.000000000000000
11
-43.6492293744334
21
10.3730645344556
31
0.000000000000000
  0
LINE
  5
F103D7
330
F103D8
100
AcDbEntity
8
Geo
100
AcDbLine
10
-43.6492293744334
20
10.3730645344556
30
0.000000000000000
11
-43.5492293744334
21
10.2928699053082
31
0.000000000000000
  0
LINE
  5
F103D9
330
F103DA
100
AcDbEntity
8
Geo
100
AcDbLine
10
-43.5492293744334
20
10.2928699053082
30
0.000000000000000
11
-43.4492293744334
21
10.2123378421454
31
0.000000000000000
  0
LINE
  5
F103DB
330
F103DC
100
AcDbEntity
8
Geo
100
AcDbLine
10
-43.4492293744334
20
10.2123378421454
30
0.000000000000000
11
-43.3492293744334
21
10.1314840951756
31
0.000000000000000
  0
LINE
  5
F103DD
330
F103DE
100
AcDbEntity
8
Geo
100
AcDbLine
10
-43.3492293744334
20
10.1314840951756
30
0.000000000000000
11
-43.2492293744334
21
10.0503244775213
31
0.000000000000000
  0
LINE
  5
F103DF
330
F103E0
100
AcDbEntity
8
Geo
100
AcDbLine
10
-43.2492293744334
20
10.0503244775213
30
0.000000000000000
11
-43.1492293744334
21
9.96887486212600
31
0.000000000000000
  0
LINE
  5
F103E1
330
F103E2
100
AcDbEntity
8
Geo
100
AcDbLine
10
-43.1492293744334
20
9.96887486212600
30
0.000000000000000
11
-43.0492293744334
21
9.88715117865024
31
0.000000000000000
  0
LINE
  5
F103E3
330
F103E4
100
AcDbEntity
8
Geo
100
AcDbLine
10
-43.0492293744334
20
9.88715117865024
30
0.000000000000000
11
-42.9492293744334
21
9.80516941035585
31
0.000000000000000
  0
LINE
  5
F103E5
330
F103E6
100
AcDbEntity
8
Geo
100
AcDbLine
10
-42.9492293744334
20
9.80516941035585
30
0.000000000000000
11
-42.8492293744334
21
9.72294559098011
31
0.000000000000000
  0
LINE
  5
F103E7
330
F103E8
100
AcDbEntity
8
Geo
100
AcDbLine
10
-42.8492293744334
20
9.72294559098011
30
0.000000000000000
11
-42.7492293744334
21
9.64049580159987
31
0.000000000000000
  0
LINE
  5
F103E9
330
F103EA
100
AcDbEntity
8
Geo
100
AcDbLine
10
-42.7492293744334
20
9.64049580159987
30
0.000000000000000
11
-42.6492293744334
21
9.55783616748650
31
0.000000000000000
  0
LINE
  5
F103EB
330
F103EC
100
AcDbEntity
8
Geo
100
AcDbLine
10
-42.6492293744334
20
9.55783616748650
30
0.000000000000000
11
-42.5492293744334
21
9.47498285495214
31
0.000000000000000
  0
LINE
  5
F103ED
330
F103EE
100
AcDbEntity
8
Geo
100
AcDbLine
10
-42.5492293744334
20
9.47498285495214
30
0.000000000000000
11
-42.4492293744334
21
9.39195206818795
31
0.000000000000000
  0
LINE
  5
F103EF
330
F103F0
100
AcDbEntity
8
Geo
100
AcDbLine
10
-42.4492293744334
20
9.39195206818795
30
0.000000000000000
11
-42.3492293744334
21
9.30876004609493
31
0.000000000000000
  0
LINE
  5
F103F1
330
F103F2
100
AcDbEntity
8
Geo
100
AcDbLine
10
-42.3492293744334
20
9.30876004609493
30
0.000000000000000
11
-42.2492293744334
21
9.22542305910800
31
0.000000000000000
  0
LINE
  5
F103F3
330
F103F4
100
AcDbEntity
8
Geo
100
AcDbLine
10
-42.2492293744334
20
9.22542305910800
30
0.000000000000000
11
-42.1492293744334
21
9.14195740601385
31
0.000000000000000
  0
LINE
  5
F103F5
330
F103F6
100
AcDbEntity
8
Geo
100
AcDbLine
10
-42.1492293744334
20
9.14195740601385
30
0.000000000000000
11
-42.0492293744334
21
9.05837941076329
31
0.000000000000000
  0
LINE
  5
F103F7
330
F103F8
100
AcDbEntity
8
Geo
100
AcDbLine
10
-42.0492293744334
20
9.05837941076329
30
0.000000000000000
11
-41.9492293744334
21
8.97470541927865
31
0.000000000000000
  0
LINE
  5
F103F9
330
F103FA
100
AcDbEntity
8
Geo
100
AcDbLine
10
-41.9492293744334
20
8.97470541927865
30
0.000000000000000
11
-41.8492293744334
21
8.89095179625691
31
0.000000000000000
  0
LINE
  5
F103FB
330
F103FC
100
AcDbEntity
8
Geo
100
AcDbLine
10
-41.8492293744334
20
8.89095179625691
30
0.000000000000000
11
-41.7492293744334
21
8.80713492196912
31
0.000000000000000
  0
LINE
  5
F103FD
330
F103FE
100
AcDbEntity
8
Geo
100
AcDbLine
10
-41.7492293744334
20
8.80713492196912
30
0.000000000000000
11
-41.6492293744334
21
8.72327118905683
31
0.000000000000000
  0
LINE
  5
F103FF
330
F10400
100
AcDbEntity
8
Geo
100
AcDbLine
10
-41.6492293744334
20
8.72327118905683
30
0.000000000000000
11
-41.5492293744334
21
8.63937699932605
31
0.000000000000000
  0
LINE
  5
F10401
330
F10402
100
AcDbEntity
8
Geo
100
AcDbLine
10
-41.5492293744334
20
8.63937699932605
30
0.000000000000000
11
-41.4492293744334
21
8.55546876053944
31
0.000000000000000
  0
LINE
  5
F10403
330
F10404
100
AcDbEntity
8
Geo
100
AcDbLine
10
-41.4492293744334
20
8.55546876053944
30
0.000000000000000
11
-41.3492293744334
21
8.47156288320732
31
0.000000000000000
  0
LINE
  5
F10405
330
F10406
100
AcDbEntity
8
Geo
100
AcDbLine
10
-41.3492293744334
20
8.47156288320732
30
0.000000000000000
11
-41.2492293744334
21
8.38767577737818
31
0.000000000000000
  0
LINE
  5
F10407
330
F10408
100
AcDbEntity
8
Geo
100
AcDbLine
10
-41.2492293744334
20
8.38767577737818
30
0.000000000000000
11
-41.1492293744334
21
8.30382384942923
31
0.000000000000000
  0
LINE
  5
F10409
330
F1040A
100
AcDbEntity
8
Geo
100
AcDbLine
10
-41.1492293744334
20
8.30382384942923
30
0.000000000000000
11
-41.0492293744334
21
8.22002349885770
31
0.000000000000000
  0
LINE
  5
F1040B
330
F1040C
100
AcDbEntity
8
Geo
100
AcDbLine
10
-41.0492293744334
20
8.22002349885770
30
0.000000000000000
11
-40.9492293744334
21
8.13629111507348
31
0.000000000000000
  0
LINE
  5
F1040D
330
F1040E
100
AcDbEntity
8
Geo
100
AcDbLine
10
-40.9492293744334
20
8.13629111507348
30
0.000000000000000
11
-40.8492293744334
21
8.05264307419372
31
0.000000000000000
  0
LINE
  5
F1040F
330
F10410
100
AcDbEntity
8
Geo
100
AcDbLine
10
-40.8492293744334
20
8.05264307419372
30
0.000000000000000
11
-40.7492293744334
21
7.96909573584007
31
0.000000000000000
  0
LINE
  5
F10411
330
F10412
100
AcDbEntity
8
Geo
100
AcDbLine
10
-40.7492293744334
20
7.96909573584007
30
0.000000000000000
11
-40.6492293744334
21
7.88566543993908
31
0.000000000000000
  0
LINE
  5
F10413
330
F10414
100
AcDbEntity
8
Geo
100
AcDbLine
10
-40.6492293744334
20
7.88566543993908
30
0.000000000000000
11
-40.5492293744334
21
7.80236850352649
31
0.000000000000000
  0
LINE
  5
F10415
330
F10416
100
AcDbEntity
8
Geo
100
AcDbLine
10
-40.5492293744334
20
7.80236850352649
30
0.000000000000000
11
-40.4492293744334
21
7.71922121755604
31
0.000000000000000
  0
LINE
  5
F10417
330
F10418
100
AcDbEntity
8
Geo
100
AcDbLine
10
-40.4492293744334
20
7.71922121755604
30
0.000000000000000
11
-40.3492293744334
21
7.63623984371330
31
0.000000000000000
  0
LINE
  5
F10419
330
F1041A
100
AcDbEntity
8
Geo
100
AcDbLine
10
-40.3492293744334
20
7.63623984371330
30
0.000000000000000
11
-40.2492293744334
21
7.55344061123524
31
0.000000000000000
  0
LINE
  5
F1041B
330
F1041C
100
AcDbEntity
8
Geo
100
AcDbLine
10
-40.2492293744334
20
7.55344061123524
30
0.000000000000000
11
-40.1492293744334
21
7.47083971373622
31
0.000000000000000
  0
LINE
  5
F1041D
330
F1041E
100
AcDbEntity
8
Geo
100
AcDbLine
10
-40.1492293744334
20
7.47083971373622
30
0.000000000000000
11
-40.0492293744334
21
7.38845330604085
31
0.000000000000000
  0
LINE
  5
F1041F
330
F10420
100
AcDbEntity
8
Geo
100
AcDbLine
10
-40.0492293744334
20
7.38845330604085
30
0.000000000000000
11
-39.9492293744334
21
7.30629750102451
31
0.000000000000000
  0
LINE
  5
F10421
330
F10422
100
AcDbEntity
8
Geo
100
AcDbLine
10
-39.9492293744334
20
7.30629750102451
30
0.000000000000000
11
-39.8492293744334
21
7.22438836646202
31
0.000000000000000
  0
LINE
  5
F10423
330
F10424
100
AcDbEntity
8
Geo
100
AcDbLine
10
-39.8492293744334
20
7.22438836646202
30
0.000000000000000
11
-39.7492293744334
21
7.14274192188517
31
0.000000000000000
  0
LINE
  5
F10425
330
F10426
100
AcDbEntity
8
Geo
100
AcDbLine
10
-39.7492293744334
20
7.14274192188517
30
0.000000000000000
11
-39.6492293744334
21
7.06137413544968
31
0.000000000000000
  0
LINE
  5
F10427
330
F10428
100
AcDbEntity
8
Geo
100
AcDbLine
10
-39.6492293744334
20
7.06137413544968
30
0.000000000000000
11
-39.5492293744334
21
6.98030092081215
31
0.000000000000000
  0
LINE
  5
F10429
330
F1042A
100
AcDbEntity
8
Geo
100
AcDbLine
10
-39.5492293744334
20
6.98030092081215
30
0.000000000000000
11
-39.4492293744334
21
6.89953813401778
31
0.000000000000000
  0
LINE
  5
F1042B
330
F1042C
100
AcDbEntity
8
Geo
100
AcDbLine
10
-39.4492293744334
20
6.89953813401778
30
0.000000000000000
11
-39.3492293744334
21
6.81910157039926
31
0.000000000000000
  0
LINE
  5
F1042D
330
F1042E
100
AcDbEntity
8
Geo
100
AcDbLine
10
-39.3492293744334
20
6.81910157039926
30
0.000000000000000
11
-39.2492293744334
21
6.73900696148757
31
0.000000000000000
  0
LINE
  5
F1042F
330
F10430
100
AcDbEntity
8
Geo
100
AcDbLine
10
-39.2492293744334
20
6.73900696148757
30
0.000000000000000
11
-39.1492293744334
21
6.65926997193525
31
0.000000000000000
  0
LINE
  5
F10431
330
F10432
100
AcDbEntity
8
Geo
100
AcDbLine
10
-39.1492293744334
20
6.65926997193525
30
0.000000000000000
11
-39.0492293744334
21
6.57990619645279
31
0.000000000000000
  0
LINE
  5
F10433
330
F10434
100
AcDbEntity
8
Geo
100
AcDbLine
10
-39.0492293744334
20
6.57990619645279
30
0.000000000000000
11
-38.9492293744334
21
6.50093115675863
31
0.000000000000000
  0
LINE
  5
F10435
330
F10436
100
AcDbEntity
8
Geo
100
AcDbLine
10
-38.9492293744334
20
6.50093115675863
30
0.000000000000000
11
-38.8492293744334
21
6.42236029854348
31
0.000000000000000
  0
LINE
  5
F10437
330
F10438
100
AcDbEntity
8
Geo
100
AcDbLine
10
-38.8492293744334
20
6.42236029854348
30
0.000000000000000
11
-38.7492293744334
21
6.34420898844950
31
0.000000000000000
  0
LINE
  5
F10439
330
F1043A
100
AcDbEntity
8
Geo
100
AcDbLine
10
-38.7492293744334
20
6.34420898844950
30
0.000000000000000
11
-38.6492293744334
21
6.26649251106496
31
0.000000000000000
  0
LINE
  5
F1043B
330
F1043C
100
AcDbEntity
8
Geo
100
AcDbLine
10
-38.6492293744334
20
6.26649251106496
30
0.000000000000000
11
-38.5492293744334
21
6.18922606593489
31
0.000000000000000
  0
LINE
  5
F1043D
330
F1043E
100
AcDbEntity
8
Geo
100
AcDbLine
10
-38.5492293744334
20
6.18922606593489
30
0.000000000000000
11
-38.4492293744334
21
6.11242476458845
31
0.000000000000000
  0
LINE
  5
F1043F
330
F10440
100
AcDbEntity
8
Geo
100
AcDbLine
10
-38.4492293744334
20
6.11242476458845
30
0.000000000000000
11
-38.3492293744334
21
6.03610362758340
31
0.000000000000000
  0
LINE
  5
F10441
330
F10442
100
AcDbEntity
8
Geo
100
AcDbLine
10
-38.3492293744334
20
6.03610362758340
30
0.000000000000000
11
-38.2492293744334
21
5.96027758156850
31
0.000000000000000
  0
LINE
  5
F10443
330
F10444
100
AcDbEntity
8
Geo
100
AcDbLine
10
-38.2492293744334
20
5.96027758156850
30
0.000000000000000
11
-38.1492293744334
21
5.88496145636414
31
0.000000000000000
  0
LINE
  5
F10445
330
F10446
100
AcDbEntity
8
Geo
100
AcDbLine
10
-38.1492293744334
20
5.88496145636414
30
0.000000000000000
11
-38.0492293744334
21
5.81016998206201
31
0.000000000000000
  0
LINE
  5
F10447
330
F10448
100
AcDbEntity
8
Geo
100
AcDbLine
10
-38.0492293744334
20
5.81016998206201
30
0.000000000000000
11
-37.9492293744334
21
5.73591778614422
31
0.000000000000000
  0
LINE
  5
F10449
330
F1044A
100
AcDbEntity
8
Geo
100
AcDbLine
10
-37.9492293744334
20
5.73591778614422
30
0.000000000000000
11
-37.8492293744334
21
5.66221939062250
31
0.000000000000000
  0
LINE
  5
F1044B
330
F1044C
100
AcDbEntity
8
Geo
100
AcDbLine
10
-37.8492293744334
20
5.66221939062250
30
0.000000000000000
11
-37.7492293744334
21
5.58908920919803
31
0.000000000000000
  0
LINE
  5
F1044D
330
F1044E
100
AcDbEntity
8
Geo
100
AcDbLine
10
-37.7492293744334
20
5.58908920919803
30
0.000000000000000
11
-37.6492293744334
21
5.51654154444246
31
0.000000000000000
  0
LINE
  5
F1044F
330
F10450
100
AcDbEntity
8
Geo
100
AcDbLine
10
-37.6492293744334
20
5.51654154444246
30
0.000000000000000
11
-37.5492293744334
21
5.44459058500067
31
0.000000000000000
  0
LINE
  5
F10451
330
F10452
100
AcDbEntity
8
Geo
100
AcDbLine
10
-37.5492293744334
20
5.44459058500067
30
0.000000000000000
11
-37.4492293744334
21
5.37325040281577
31
0.000000000000000
  0
LINE
  5
F10453
330
F10454
100
AcDbEntity
8
Geo
100
AcDbLine
10
-37.4492293744334
20
5.37325040281577
30
0.000000000000000
11
-37.3492293744334
21
5.30253495037698
31
0.000000000000000
  0
LINE
  5
F10455
330
F10456
100
AcDbEntity
8
Geo
100
AcDbLine
10
-37.3492293744334
20
5.30253495037698
30
0.000000000000000
11
-37.2492293744334
21
5.23245805799081
31
0.000000000000000
  0
LINE
  5
F10457
330
F10458
100
AcDbEntity
8
Geo
100
AcDbLine
10
-37.2492293744334
20
5.23245805799081
30
0.000000000000000
11
-37.1492293744334
21
5.16303343107623
31
0.000000000000000
  0
LINE
  5
F10459
330
F1045A
100
AcDbEntity
8
Geo
100
AcDbLine
10
-37.1492293744334
20
5.16303343107623
30
0.000000000000000
11
-37.0492293744334
21
5.09427464748415
31
0.000000000000000
  0
LINE
  5
F1045B
330
F1045C
100
AcDbEntity
8
Geo
100
AcDbLine
10
-37.0492293744334
20
5.09427464748415
30
0.000000000000000
11
-36.9492293744334
21
5.02619515484194
31
0.000000000000000
  0
LINE
  5
F1045D
330
F1045E
100
AcDbEntity
8
Geo
100
AcDbLine
10
-36.9492293744334
20
5.02619515484194
30
0.000000000000000
11
-36.8492293744334
21
4.95880826792337
31
0.000000000000000
  0
LINE
  5
F1045F
330
F10460
100
AcDbEntity
8
Geo
100
AcDbLine
10
-36.8492293744334
20
4.95880826792337
30
0.000000000000000
11
-36.7492293744334
21
4.89212716604456
31
0.000000000000000
  0
LINE
  5
F10461
330
F10462
100
AcDbEntity
8
Geo
100
AcDbLine
10
-36.7492293744334
20
4.89212716604456
30
0.000000000000000
11
-36.6492293744334
21
4.82616489048640
31
0.000000000000000
  0
LINE
  5
F10463
330
F10464
100
AcDbEntity
8
Geo
100
AcDbLine
10
-36.6492293744334
20
4.82616489048640
30
0.000000000000000
11
-36.5492293744334
21
4.76093434194398
31
0.000000000000000
  0
LINE
  5
F10465
330
F10466
100
AcDbEntity
8
Geo
100
AcDbLine
10
-36.5492293744334
20
4.76093434194398
30
0.000000000000000
11
-36.4492293744334
21
4.69644827800352
31
0.000000000000000
  0
LINE
  5
F10467
330
F10468
100
AcDbEntity
8
Geo
100
AcDbLine
10
-36.4492293744334
20
4.69644827800352
30
0.000000000000000
11
-36.3492293744334
21
4.63271931064727
31
0.000000000000000
  0
LINE
  5
F10469
330
F1046A
100
AcDbEntity
8
Geo
100
AcDbLine
10
-36.3492293744334
20
4.63271931064727
30
0.000000000000000
11
-36.2492293744334
21
4.56975990378691
31
0.000000000000000
  0
LINE
  5
F1046B
330
F1046C
100
AcDbEntity
8
Geo
100
AcDbLine
10
-36.2492293744334
20
4.56975990378691
30
0.000000000000000
11
-36.1492293744334
21
4.50758237082587
31
0.000000000000000
  0
LINE
  5
F1046D
330
F1046E
100
AcDbEntity
8
Geo
100
AcDbLine
10
-36.1492293744334
20
4.50758237082587
30
0.000000000000000
11
-36.0492293744334
21
4.44619887225115
31
0.000000000000000
  0
LINE
  5
F1046F
330
F10470
100
AcDbEntity
8
Geo
100
AcDbLine
10
-36.0492293744334
20
4.44619887225115
30
0.000000000000000
11
-35.9492293744334
21
4.38562141325501
31
0.000000000000000
  0
LINE
  5
F10471
330
F10472
100
AcDbEntity
8
Geo
100
AcDbLine
10
-35.9492293744334
20
4.38562141325501
30
0.000000000000000
11
-35.8492293744334
21
4.32586184138698
31
0.000000000000000
  0
LINE
  5
F10473
330
F10474
100
AcDbEntity
8
Geo
100
AcDbLine
10
-35.8492293744334
20
4.32586184138698
30
0.000000000000000
11
-35.7492293744334
21
4.26693184423682
31
0.000000000000000
  0
LINE
  5
F10475
330
F10476
100
AcDbEntity
8
Geo
100
AcDbLine
10
-35.7492293744334
20
4.26693184423682
30
0.000000000000000
11
-35.6492293744334
21
4.20884294714864
31
0.000000000000000
  0
LINE
  5
F10477
330
F10478
100
AcDbEntity
8
Geo
100
AcDbLine
10
-35.6492293744334
20
4.20884294714864
30
0.000000000000000
11
-35.5492293744334
21
4.15160651096687
31
0.000000000000000
  0
LINE
  5
F10479
330
F1047A
100
AcDbEntity
8
Geo
100
AcDbLine
10
-35.5492293744334
20
4.15160651096687
30
0.000000000000000
11
-35.4492293744334
21
4.09523372981427
31
0.000000000000000
  0
LINE
  5
F1047B
330
F1047C
100
AcDbEntity
8
Geo
100
AcDbLine
10
-50.4492293744334
20
6.66517781029291
30
0.000000000000000
11
-50.3492293744334
21
6.61134782988262
31
0.000000000000000
  0
LINE
  5
F1047D
330
F1047E
100
AcDbEntity
8
Geo
100
AcDbLine
10
-50.3492293744334
20
6.61134782988262
30
0.000000000000000
11
-50.2492293744334
21
6.55458087686798
31
0.000000000000000
  0
LINE
  5
F1047F
330
F10480
100
AcDbEntity
8
Geo
100
AcDbLine
10
-50.2492293744334
20
6.55458087686798
30
0.000000000000000
11
-50.1492293744334
21
6.47573355063955
31
0.000000000000000
  0
LINE
  5
F10481
330
F10482
100
AcDbEntity
8
Geo
100
AcDbLine
10
-50.1492293744334
20
6.47573355063955
30
0.000000000000000
11
-50.0492293744334
21
6.39729533395895
31
0.000000000000000
  0
LINE
  5
F10483
330
F10484
100
AcDbEntity
8
Geo
100
AcDbLine
10
-50.0492293744334
20
6.39729533395895
30
0.000000000000000
11
-49.9492293744334
21
6.31928156752673
31
0.000000000000000
  0
LINE
  5
F10485
330
F10486
100
AcDbEntity
8
Geo
100
AcDbLine
10
-49.9492293744334
20
6.31928156752673
30
0.000000000000000
11
-49.8492293744334
21
6.24170750903079
31
0.000000000000000
  0
LINE
  5
F10487
330
F10488
100
AcDbEntity
8
Geo
100
AcDbLine
10
-49.8492293744334
20
6.24170750903079
30
0.000000000000000
11
-49.7492293744334
21
6.16458833016234
31
0.000000000000000
  0
LINE
  5
F10489
330
F1048A
100
AcDbEntity
8
Geo
100
AcDbLine
10
-49.7492293744334
20
6.16458833016234
30
0.000000000000000
11
-49.6492293744334
21
6.08793911364865
31
0.000000000000000
  0
LINE
  5
F1048B
330
F1048C
100
AcDbEntity
8
Geo
100
AcDbLine
10
-49.6492293744334
20
6.08793911364865
30
0.000000000000000
11
-49.5492293744334
21
6.01177485030321
31
0.000000000000000
  0
LINE
  5
F1048D
330
F1048E
100
AcDbEntity
8
Geo
100
AcDbLine
10
-49.5492293744334
20
6.01177485030321
30
0.000000000000000
11
-49.4492293744334
21
5.93611043609392
31
0.000000000000000
  0
LINE
  5
F1048F
330
F10490
100
AcDbEntity
8
Geo
100
AcDbLine
10
-49.4492293744334
20
5.93611043609392
30
0.000000000000000
11
-49.3492293744334
21
5.86096066922973
31
0.000000000000000
  0
LINE
  5
F10491
330
F10492
100
AcDbEntity
8
Geo
100
AcDbLine
10
-49.3492293744334
20
5.86096066922973
30
0.000000000000000
11
-49.2492293744334
21
5.78634024726649
31
0.000000000000000
  0
LINE
  5
F10493
330
F10494
100
AcDbEntity
8
Geo
100
AcDbLine
10
-49.2492293744334
20
5.78634024726649
30
0.000000000000000
11
-49.1492293744334
21
5.71226376423242
31
0.000000000000000
  0
LINE
  5
F10495
330
F10496
100
AcDbEntity
8
Geo
100
AcDbLine
10
-49.1492293744334
20
5.71226376423242
30
0.000000000000000
11
-49.0492293744334
21
5.63874570777387
31
0.000000000000000
  0
LINE
  5
F10497
330
F10498
100
AcDbEntity
8
Geo
100
AcDbLine
10
-49.0492293744334
20
5.63874570777387
30
0.000000000000000
11
-48.9492293744334
21
5.56580045632190
31
0.000000000000000
  0
LINE
  5
F10499
330
F1049A
100
AcDbEntity
8
Geo
100
AcDbLine
10
-48.9492293744334
20
5.56580045632190
30
0.000000000000000
11
-48.8492293744334
21
5.49344227628011
31
0.000000000000000
  0
LINE
  5
F1049B
330
F1049C
100
AcDbEntity
8
Geo
100
AcDbLine
10
-48.8492293744334
20
5.49344227628011
30
0.000000000000000
11
-48.7492293744334
21
5.42168531923457
31
0.000000000000000
  0
LINE
  5
F1049D
330
F1049E
100
AcDbEntity
8
Geo
100
AcDbLine
10
-48.7492293744334
20
5.42168531923457
30
0.000000000000000
11
-48.6492293744334
21
5.35054361918599
31
0.000000000000000
  0
LINE
  5
F1049F
330
F104A0
100
AcDbEntity
8
Geo
100
AcDbLine
10
-48.6492293744334
20
5.35054361918599
30
0.000000000000000
11
-48.5492293744334
21
5.28003108980509
31
0.000000000000000
  0
LINE
  5
F104A1
330
F104A2
100
AcDbEntity
8
Geo
100
AcDbLine
10
-48.5492293744334
20
5.28003108980509
30
0.000000000000000
11
-48.4492293744334
21
5.21016152171133
31
0.000000000000000
  0
LINE
  5
F104A3
330
F104A4
100
AcDbEntity
8
Geo
100
AcDbLine
10
-48.4492293744334
20
5.21016152171133
30
0.000000000000000
11
-48.3492293744334
21
5.14094857977583
31
0.000000000000000
  0
LINE
  5
F104A5
330
F104A6
100
AcDbEntity
8
Geo
100
AcDbLine
10
-48.3492293744334
20
5.14094857977583
30
0.000000000000000
11
-48.2492293744334
21
5.07240580044882
31
0.000000000000000
  0
LINE
  5
F104A7
330
F104A8
100
AcDbEntity
8
Geo
100
AcDbLine
10
-48.2492293744334
20
5.07240580044882
30
0.000000000000000
11
-48.1492293744334
21
5.00454658911223
31
0.000000000000000
  0
LINE
  5
F104A9
330
F104AA
100
AcDbEntity
8
Geo
100
AcDbLine
10
-48.1492293744334
20
5.00454658911223
30
0.000000000000000
11
-48.0492293744334
21
4.93738421745792
31
0.000000000000000
  0
LINE
  5
F104AB
330
F104AC
100
AcDbEntity
8
Geo
100
AcDbLine
10
-48.0492293744334
20
4.93738421745792
30
0.000000000000000
11
-47.9492293744334
21
4.87093182089199
31
0.000000000000000
  0
LINE
  5
F104AD
330
F104AE
100
AcDbEntity
8
Geo
100
AcDbLine
10
-47.9492293744334
20
4.87093182089199
30
0.000000000000000
11
-47.8492293744334
21
4.80520239596589
31
0.000000000000000
  0
LINE
  5
F104AF
330
F104B0
100
AcDbEntity
8
Geo
100
AcDbLine
10
-47.8492293744334
20
4.80520239596589
30
0.000000000000000
11
-47.7492293744334
21
4.74020879783450
31
0.000000000000000
  0
LINE
  5
F104B1
330
F104B2
100
AcDbEntity
8
Geo
100
AcDbLine
10
-47.7492293744334
20
4.74020879783450
30
0.000000000000000
11
-47.6492293744334
21
4.67596373774202
31
0.000000000000000
  0
LINE
  5
F104B3
330
F104B4
100
AcDbEntity
8
Geo
100
AcDbLine
10
-47.6492293744334
20
4.67596373774202
30
0.000000000000000
11
-47.5492293744334
21
4.61247978053592
31
0.000000000000000
  0
LINE
  5
F104B5
330
F104B6
100
AcDbEntity
8
Geo
100
AcDbLine
10
-47.5492293744334
20
4.61247978053592
30
0.000000000000000
11
-47.4492293744334
21
4.54976934220956
31
0.000000000000000
  0
LINE
  5
F104B7
330
F104B8
100
AcDbEntity
8
Geo
100
AcDbLine
10
-47.4492293744334
20
4.54976934220956
30
0.000000000000000
11
-47.3492293744334
21
4.48784468747390
31
0.000000000000000
  0
LINE
  5
F104B9
330
F104BA
100
AcDbEntity
8
Geo
100
AcDbLine
10
-47.3492293744334
20
4.48784468747390
30
0.000000000000000
11
-47.2492293744334
21
4.42671792735881
31
0.000000000000000
  0
LINE
  5
F104BB
330
F104BC
100
AcDbEntity
8
Geo
100
AcDbLine
10
-47.2492293744334
20
4.42671792735881
30
0.000000000000000
11
-47.1492293744334
21
4.36640101684443
31
0.000000000000000
  0
LINE
  5
F104BD
330
F104BE
100
AcDbEntity
8
Geo
100
AcDbLine
10
-47.1492293744334
20
4.36640101684443
30
0.000000000000000
11
-47.0492293744334
21
4.30690575252305
31
0.000000000000000
  0
LINE
  5
F104BF
330
F104C0
100
AcDbEntity
8
Geo
100
AcDbLine
10
-47.0492293744334
20
4.30690575252305
30
0.000000000000000
11
-46.9492293744334
21
4.24824377029197
31
0.000000000000000
  0
LINE
  5
F104C1
330
F104C2
100
AcDbEntity
8
Geo
100
AcDbLine
10
-46.9492293744334
20
4.24824377029197
30
0.000000000000000
11
-46.8492293744334
21
4.19042654307781
31
0.000000000000000
  0
LINE
  5
F104C3
330
F104C4
100
AcDbEntity
8
Geo
100
AcDbLine
10
-46.8492293744334
20
4.19042654307781
30
0.000000000000000
11
-46.7492293744334
21
4.13346537859262
31
0.000000000000000
  0
LINE
  5
F104C5
330
F104C6
100
AcDbEntity
8
Geo
100
AcDbLine
10
-46.7492293744334
20
4.13346537859262
30
0.000000000000000
11
-46.6492293744334
21
4.07737141712242
31
0.000000000000000
  0
LINE
  5
F104C7
330
F104C8
100
AcDbEntity
8
Geo
100
AcDbLine
10
-46.6492293744334
20
4.07737141712242
30
0.000000000000000
11
-46.5492293744334
21
4.02215562934835
31
0.000000000000000
  0
LINE
  5
F104C9
330
F104CA
100
AcDbEntity
8
Geo
100
AcDbLine
10
-46.5492293744334
20
4.02215562934835
30
0.000000000000000
11
-46.4492293744334
21
3.96782881420113
31
0.000000000000000
  0
LINE
  5
F104CB
330
F104CC
100
AcDbEntity
8
Geo
100
AcDbLine
10
-46.4492293744334
20
3.96782881420113
30
0.000000000000000
11
-46.3492293744334
21
3.91440159674895
31
0.000000000000000
  0
LINE
  5
F104CD
330
F104CE
100
AcDbEntity
8
Geo
100
AcDbLine
10
-46.3492293744334
20
3.91440159674895
30
0.000000000000000
11
-46.2492293744334
21
3.86188442611954
31
0.000000000000000
  0
LINE
  5
F104CF
330
F104D0
100
AcDbEntity
8
Geo
100
AcDbLine
10
-46.2492293744334
20
3.86188442611954
30
0.000000000000000
11
-46.1492293744334
21
3.81028757345652
31
0.000000000000000
  0
LINE
  5
F104D1
330
F104D2
100
AcDbEntity
8
Geo
100
AcDbLine
10
-46.1492293744334
20
3.81028757345652
30
0.000000000000000
11
-46.0492293744334
21
3.75962112991059
31
0.000000000000000
  0
LINE
  5
F104D3
330
F104D4
100
AcDbEntity
8
Geo
100
AcDbLine
10
-46.0492293744334
20
3.75962112991059
30
0.000000000000000
11
-45.9492293744334
21
3.70989500466597
31
0.000000000000000
  0
LINE
  5
F104D5
330
F104D6
100
AcDbEntity
8
Geo
100
AcDbLine
10
-45.9492293744334
20
3.70989500466597
30
0.000000000000000
11
-45.8492293744334
21
3.66111892300237
31
0.000000000000000
  0
LINE
  5
F104D7
330
F104D8
100
AcDbEntity
8
Geo
100
AcDbLine
10
-45.8492293744334
20
3.66111892300237
30
0.000000000000000
11
-45.7492293744334
21
3.61330242439295
31
0.000000000000000
  0
LINE
  5
F104D9
330
F104DA
100
AcDbEntity
8
Geo
100
AcDbLine
10
-45.7492293744334
20
3.61330242439295
30
0.000000000000000
11
-45.6492293744334
21
3.56645486063862
31
0.000000000000000
  0
LINE
  5
F104DB
330
F104DC
100
AcDbEntity
8
Geo
100
AcDbLine
10
-45.6492293744334
20
3.56645486063862
30
0.000000000000000
11
-45.5492293744334
21
3.52058539403905
31
0.000000000000000
  0
LINE
  5
F104DD
330
F104DE
100
AcDbEntity
8
Geo
100
AcDbLine
10
-45.5492293744334
20
3.52058539403905
30
0.000000000000000
11
-45.4492293744334
21
3.47570299560075
31
0.000000000000000
  0
LINE
  5
F104DF
330
F104E0
100
AcDbEntity
8
Geo
100
AcDbLine
10
-45.4492293744334
20
3.47570299560075
30
0.000000000000000
11
-45.3492293744334
21
3.43181644328251
31
0.000000000000000
  0
LINE
  5
F104E1
330
F104E2
100
AcDbEntity
8
Geo
100
AcDbLine
10
-45.3492293744334
20
3.43181644328251
30
0.000000000000000
11
-45.2492293744334
21
3.38893432027868
31
0.000000000000000
  0
LINE
  5
F104E3
330
F104E4
100
AcDbEntity
8
Geo
100
AcDbLine
10
-45.2492293744334
20
3.38893432027868
30
0.000000000000000
11
-45.1492293744334
21
3.34706501334045
31
0.000000000000000
  0
LINE
  5
F104E5
330
F104E6
100
AcDbEntity
8
Geo
100
AcDbLine
10
-45.1492293744334
20
3.34706501334045
30
0.000000000000000
11
-45.0492293744334
21
3.30621671113563
31
0.000000000000000
  0
LINE
  5
F104E7
330
F104E8
100
AcDbEntity
8
Geo
100
AcDbLine
10
-45.0492293744334
20
3.30621671113563
30
0.000000000000000
11
-44.9492293744334
21
3.26639740264713
31
0.000000000000000
  0
LINE
  5
F104E9
330
F104EA
100
AcDbEntity
8
Geo
100
AcDbLine
10
-44.9492293744334
20
3.26639740264713
30
0.000000000000000
11
-44.8492293744334
21
3.22761487561049
31
0.000000000000000
  0
LINE
  5
F104EB
330
F104EC
100
AcDbEntity
8
Geo
100
AcDbLine
10
-44.8492293744334
20
3.22761487561049
30
0.000000000000000
11
-44.7492293744334
21
3.18987671499077
31
0.000000000000000
  0
LINE
  5
F104ED
330
F104EE
100
AcDbEntity
8
Geo
100
AcDbLine
10
-44.7492293744334
20
3.18987671499077
30
0.000000000000000
11
-44.6492293744334
21
3.15319030149915
31
0.000000000000000
  0
LINE
  5
F104EF
330
F104F0
100
AcDbEntity
8
Geo
100
AcDbLine
10
-44.6492293744334
20
3.15319030149915
30
0.000000000000000
11
-44.5492293744334
21
3.11756281014938
31
0.000000000000000
  0
LINE
  5
F104F1
330
F104F2
100
AcDbEntity
8
Geo
100
AcDbLine
10
-44.5492293744334
20
3.11756281014938
30
0.000000000000000
11
-44.4492293744334
21
3.08300120885453
31
0.000000000000000
  0
LINE
  5
F104F3
330
F104F4
100
AcDbEntity
8
Geo
100
AcDbLine
10
-44.4492293744334
20
3.08300120885453
30
0.000000000000000
11
-44.3492293744334
21
3.04951225706426
31
0.000000000000000
  0
LINE
  5
F104F5
330
F104F6
100
AcDbEntity
8
Geo
100
AcDbLine
10
-44.3492293744334
20
3.04951225706426
30
0.000000000000000
11
-44.2492293744334
21
3.01710250444279
31
0.000000000000000
  0
LINE
  5
F104F7
330
F104F8
100
AcDbEntity
8
Geo
100
AcDbLine
10
-44.2492293744334
20
3.01710250444279
30
0.000000000000000
11
-44.1492293744334
21
2.98577828958794
31
0.000000000000000
  0
LINE
  5
F104F9
330
F104FA
100
AcDbEntity
8
Geo
100
AcDbLine
10
-44.1492293744334
20
2.98577828958794
30
0.000000000000000
11
-44.0492293744334
21
2.95554573879146
31
0.000000000000000
  0
LINE
  5
F104FB
330
F104FC
100
AcDbEntity
8
Geo
100
AcDbLine
10
-44.0492293744334
20
2.95554573879146
30
0.000000000000000
11
-43.9492293744334
21
2.92641076484088
31
0.000000000000000
  0
LINE
  5
F104FD
330
F104FE
100
AcDbEntity
8
Geo
100
AcDbLine
10
-43.9492293744334
20
2.92641076484088
30
0.000000000000000
11
-43.8492293744334
21
2.89837906586308
31
0.000000000000000
  0
LINE
  5
F104FF
330
F10500
100
AcDbEntity
8
Geo
100
AcDbLine
10
-43.8492293744334
20
2.89837906586308
30
0.000000000000000
11
-43.7492293744334
21
2.87145612420988
31
0.000000000000000
  0
LINE
  5
F10501
330
F10502
100
AcDbEntity
8
Geo
100
AcDbLine
10
-43.7492293744334
20
2.87145612420988
30
0.000000000000000
11
-43.6492293744334
21
2.84564720538581
31
0.000000000000000
  0
LINE
  5
F10503
330
F10504
100
AcDbEntity
8
Geo
100
AcDbLine
10
-43.6492293744334
20
2.84564720538581
30
0.000000000000000
11
-43.5492293744334
21
2.82095735701831
31
0.000000000000000
  0
LINE
  5
F10505
330
F10506
100
AcDbEntity
8
Geo
100
AcDbLine
10
-43.5492293744334
20
2.82095735701831
30
0.000000000000000
11
-43.4492293744334
21
2.79739140787055
31
0.000000000000000
  0
LINE
  5
F10507
330
F10508
100
AcDbEntity
8
Geo
100
AcDbLine
10
-43.4492293744334
20
2.79739140787055
30
0.000000000000000
11
-43.3492293744334
21
2.77495396689699
31
0.000000000000000
  0
LINE
  5
F10509
330
F1050A
100
AcDbEntity
8
Geo
100
AcDbLine
10
-43.3492293744334
20
2.77495396689699
30
0.000000000000000
11
-43.2492293744334
21
2.75364942234199
31
0.000000000000000
  0
LINE
  5
F1050B
330
F1050C
100
AcDbEntity
8
Geo
100
AcDbLine
10
-43.2492293744334
20
2.75364942234199
30
0.000000000000000
11
-43.1492293744334
21
2.73348194088161
31
0.000000000000000
  0
LINE
  5
F1050D
330
F1050E
100
AcDbEntity
8
Geo
100
AcDbLine
10
-43.1492293744334
20
2.73348194088161
30
0.000000000000000
11
-43.0492293744334
21
2.71445546680866
31
0.000000000000000
  0
LINE
  5
F1050F
330
F10510
100
AcDbEntity
8
Geo
100
AcDbLine
10
-43.0492293744334
20
2.71445546680866
30
0.000000000000000
11
-42.9492293744334
21
2.69657372126128
31
0.000000000000000
  0
LINE
  5
F10511
330
F10512
100
AcDbEntity
8
Geo
100
AcDbLine
10
-42.9492293744334
20
2.69657372126128
30
0.000000000000000
11
-42.8492293744334
21
2.67984020149524
31
0.000000000000000
  0
LINE
  5
F10513
330
F10514
100
AcDbEntity
8
Geo
100
AcDbLine
10
-42.8492293744334
20
2.67984020149524
30
0.000000000000000
11
-42.7492293744334
21
2.66425818019986
31
0.000000000000000
  0
LINE
  5
F10515
330
F10516
100
AcDbEntity
8
Geo
100
AcDbLine
10
-42.7492293744334
20
2.66425818019986
30
0.000000000000000
11
-42.6492293744334
21
2.64983070485804
31
0.000000000000000
  0
LINE
  5
F10517
330
F10518
100
AcDbEntity
8
Geo
100
AcDbLine
10
-42.6492293744334
20
2.64983070485804
30
0.000000000000000
11
-42.5492293744334
21
2.63656059715017
31
0.000000000000000
  0
LINE
  5
F10519
330
F1051A
100
AcDbEntity
8
Geo
100
AcDbLine
10
-42.5492293744334
20
2.63656059715017
30
0.000000000000000
11
-42.4492293744334
21
2.62445045240233
31
0.000000000000000
  0
LINE
  5
F1051B
330
F1051C
100
AcDbEntity
8
Geo
100
AcDbLine
10
-42.4492293744334
20
2.62445045240233
30
0.000000000000000
11
-42.3492293744334
21
2.61350263907867
31
0.000000000000000
  0
LINE
  5
F1051D
330
F1051E
100
AcDbEntity
8
Geo
100
AcDbLine
10
-42.3492293744334
20
2.61350263907867
30
0.000000000000000
11
-42.2492293744334
21
2.60371929831819
31
0.000000000000000
  0
LINE
  5
F1051F
330
F10520
100
AcDbEntity
8
Geo
100
AcDbLine
10
-42.2492293744334
20
2.60371929831819
30
0.000000000000000
11
-42.1492293744334
21
2.59510234351603
31
0.000000000000000
  0
LINE
  5
F10521
330
F10522
100
AcDbEntity
8
Geo
100
AcDbLine
10
-42.1492293744334
20
2.59510234351603
30
0.000000000000000
11
-42.0492293744334
21
2.58765345994918
31
0.000000000000000
  0
LINE
  5
F10523
330
F10524
100
AcDbEntity
8
Geo
100
AcDbLine
10
-42.0492293744334
20
2.58765345994918
30
0.000000000000000
11
-41.9492293744334
21
2.58137410444695
31
0.000000000000000
  0
LINE
  5
F10525
330
F10526
100
AcDbEntity
8
Geo
100
AcDbLine
10
-41.9492293744334
20
2.58137410444695
30
0.000000000000000
11
-41.8492293744334
21
2.57626550510601
31
0.000000000000000
  0
LINE
  5
F10527
330
F10528
100
AcDbEntity
8
Geo
100
AcDbLine
10
-41.8492293744334
20
2.57626550510601
30
0.000000000000000
11
-41.7492293744334
21
2.57232866105020
31
0.000000000000000
  0
LINE
  5
F10529
330
F1052A
100
AcDbEntity
8
Geo
100
AcDbLine
10
-41.7492293744334
20
2.57232866105020
30
0.000000000000000
11
-41.6492293744334
21
2.56956434223514
31
0.000000000000000
  0
LINE
  5
F1052B
330
F1052C
100
AcDbEntity
8
Geo
100
AcDbLine
10
-41.6492293744334
20
2.56956434223514
30
0.000000000000000
11
-41.5492293744334
21
2.56797308929764
31
0.000000000000000
  0
LINE
  5
F1052D
330
F1052E
100
AcDbEntity
8
Geo
100
AcDbLine
10
-41.5492293744334
20
2.56797308929764
30
0.000000000000000
11
-41.4636192651104
21
2.56754306436991
31
0.000000000000000
  0
LINE
  5
F1052F
330
F10530
100
AcDbEntity
8
Geo
100
AcDbLine
10
-35.4492293744334
20
5.55013220257684
30
0.000000000000000
11
-35.3492293744334
21
5.47790259932819
31
0.000000000000000
  0
LINE
  5
F10531
330
F10532
100
AcDbEntity
8
Geo
100
AcDbLine
10
-35.3492293744334
20
5.47790259932819
30
0.000000000000000
11
-35.2492293744334
21
5.40627725827708
31
0.000000000000000
  0
LINE
  5
F10533
330
F10534
100
AcDbEntity
8
Geo
100
AcDbLine
10
-35.2492293744334
20
5.40627725827708
30
0.000000000000000
11
-35.1492293744334
21
5.33527018768322
31
0.000000000000000
  0
LINE
  5
F10535
330
F10536
100
AcDbEntity
8
Geo
100
AcDbLine
10
-35.1492293744334
20
5.33527018768322
30
0.000000000000000
11
-35.0492293744334
21
5.26489527488705
31
0.000000000000000
  0
LINE
  5
F10537
330
F10538
100
AcDbEntity
8
Geo
100
AcDbLine
10
-35.0492293744334
20
5.26489527488705
30
0.000000000000000
11
-34.9492293744334
21
5.19516628359535
31
0.000000000000000
  0
LINE
  5
F10539
330
F1053A
100
AcDbEntity
8
Geo
100
AcDbLine
10
-34.9492293744334
20
5.19516628359535
30
0.000000000000000
11
-34.8492293744334
21
5.12609685120036
31
0.000000000000000
  0
LINE
  5
F1053B
330
F1053C
100
AcDbEntity
8
Geo
100
AcDbLine
10
-34.8492293744334
20
5.12609685120036
30
0.000000000000000
11
-34.7492293744334
21
5.05770048616308
31
0.000000000000000
  0
LINE
  5
F1053D
330
F1053E
100
AcDbEntity
8
Geo
100
AcDbLine
10
-34.7492293744334
20
5.05770048616308
30
0.000000000000000
11
-34.6492293744334
21
4.98999056555104
31
0.000000000000000
  0
LINE
  5
F1053F
330
F10540
100
AcDbEntity
8
Geo
100
AcDbLine
10
-34.6492293744334
20
4.98999056555104
30
0.000000000000000
11
-34.5492293744334
21
4.92298033295138
31
0.000000000000000
  0
LINE
  5
F10541
330
F10542
100
AcDbEntity
8
Geo
100
AcDbLine
10
-34.5492293744334
20
4.92298033295138
30
0.000000000000000
11
-34.4492293744334
21
4.85668289723177
31
0.000000000000000
  0
LINE
  5
F10543
330
F10544
100
AcDbEntity
8
Geo
100
AcDbLine
10
-34.4492293744334
20
4.85668289723177
30
0.000000000000000
11
-34.3492293744334
21
4.79111123306074
31
0.000000000000000
  0
LINE
  5
F10545
330
F10546
100
AcDbEntity
8
Geo
100
AcDbLine
10
-34.3492293744334
20
4.79111123306074
30
0.000000000000000
11
-34.2492293744334
21
4.72627818480861
31
0.000000000000000
  0
LINE
  5
F10547
330
F10548
100
AcDbEntity
8
Geo
100
AcDbLine
10
-34.2492293744334
20
4.72627818480861
30
0.000000000000000
11
-34.1492293744334
21
4.66219647653083
31
0.000000000000000
  0
LINE
  5
F10549
330
F1054A
100
AcDbEntity
8
Geo
100
AcDbLine
10
-34.1492293744334
20
4.66219647653083
30
0.000000000000000
11
-34.0492293744334
21
4.59887873230042
31
0.000000000000000
  0
LINE
  5
F1054B
330
F1054C
100
AcDbEntity
8
Geo
100
AcDbLine
10
-34.0492293744334
20
4.59887873230042
30
0.000000000000000
11
-33.9492293744334
21
4.53633751333343
31
0.000000000000000
  0
LINE
  5
F1054D
330
F1054E
100
AcDbEntity
8
Geo
100
AcDbLine
10
-33.9492293744334
20
4.53633751333343
30
0.000000000000000
11
-33.8492293744334
21
4.47458538127272
31
0.000000000000000
  0
LINE
  5
F1054F
330
F10550
100
AcDbEntity
8
Geo
100
AcDbLine
10
-33.8492293744334
20
4.47458538127272
30
0.000000000000000
11
-33.7492293744334
21
4.41363500080010
31
0.000000000000000
  0
LINE
  5
F10551
330
F10552
100
AcDbEntity
8
Geo
100
AcDbLine
10
-33.7492293744334
20
4.41363500080010
30
0.000000000000000
11
-33.6492293744334
21
4.35349929956552
31
0.000000000000000
  0
LINE
  5
F10553
330
F10554
100
AcDbEntity
8
Geo
100
AcDbLine
10
-33.6492293744334
20
4.35349929956552
30
0.000000000000000
11
-33.5492293744334
21
4.29419170937961
31
0.000000000000000
  0
LINE
  5
F10555
330
F10556
100
AcDbEntity
8
Geo
100
AcDbLine
10
-33.5492293744334
20
4.29419170937961
30
0.000000000000000
11
-33.4492293744334
21
4.23572651981355
31
0.000000000000000
  0
LINE
  5
F10557
330
F10558
100
AcDbEntity
8
Geo
100
AcDbLine
10
-33.4492293744334
20
4.23572651981355
30
0.000000000000000
11
-33.3492293744334
21
4.17811938386597
31
0.000000000000000
  0
LINE
  5
F10559
330
F1055A
100
AcDbEntity
8
Geo
100
AcDbLine
10
-33.3492293744334
20
4.17811938386597
30
0.000000000000000
11
-33.2492293744334
21
4.12138802523332
31
0.000000000000000
  0
LINE
  5
F1055B
330
F1055C
100
AcDbEntity
8
Geo
100
AcDbLine
10
-33.2492293744334
20
4.12138802523332
30
0.000000000000000
11
-33.1492293744334
21
4.06555320796338
31
0.000000000000000
  0
LINE
  5
F1055D
330
F1055E
100
AcDbEntity
8
Geo
100
AcDbLine
10
-33.1492293744334
20
4.06555320796338
30
0.000000000000000
11
-33.0492293744334
21
4.01064004185628
31
0.000000000000000
  0
LINE
  5
F1055F
330
F10560
100
AcDbEntity
8
Geo
100
AcDbLine
10
-33.0492293744334
20
4.01064004185628
30
0.000000000000000
11
-32.9492293744334
21
3.95667971086675
31
0.000000000000000
  0
LINE
  5
F10561
330
F10562
100
AcDbEntity
8
Geo
100
AcDbLine
10
-32.9492293744334
20
3.95667971086675
30
0.000000000000000
11
-32.8492293744334
21
3.90371172695732
31
0.000000000000000
  0
LINE
  5
F10563
330
F10564
100
AcDbEntity
8
Geo
100
AcDbLine
10
-32.8492293744334
20
3.90371172695732
30
0.000000000000000
11
-32.7492293744334
21
3.85178682849887
31
0.000000000000000
  0
LINE
  5
F10565
330
F10566
100
AcDbEntity
8
Geo
100
AcDbLine
10
-32.7492293744334
20
3.85178682849887
30
0.000000000000000
11
-32.6492293744334
21
3.80097066088684
31
0.000000000000000
  0
LINE
  5
F10567
330
F10568
100
AcDbEntity
8
Geo
100
AcDbLine
10
-32.6492293744334
20
3.80097066088684
30
0.000000000000000
11
-32.5492293744334
21
3.75134839867899
31
0.000000000000000
  0
LINE
  5
F10569
330
F1056A
100
AcDbEntity
8
Geo
100
AcDbLine
10
-32.5492293744334
20
3.75134839867899
30
0.000000000000000
11
-32.4492293744334
21
3.70303049564513
31
0.000000000000000
  0
LINE
  5
F1056B
330
F1056C
100
AcDbEntity
8
Geo
100
AcDbLine
10
-32.4492293744334
20
3.70303049564513
30
0.000000000000000
11
-32.3492293744334
21
3.65615978620745
31
0.000000000000000
  0
LINE
  5
F1056D
330
F1056E
100
AcDbEntity
8
Geo
100
AcDbLine
10
-32.3492293744334
20
3.65615978620745
30
0.000000000000000
11
-32.2492293744334
21
3.61092021709797
31
0.000000000000000
  0
LINE
  5
F1056F
330
F10570
100
AcDbEntity
8
Geo
100
AcDbLine
10
-32.2492293744334
20
3.61092021709797
30
0.000000000000000
11
-32.1492293744334
21
3.56754757598845
31
0.000000000000000
  0
LINE
  5
F10571
330
F10572
100
AcDbEntity
8
Geo
100
AcDbLine
10
-32.1492293744334
20
3.56754757598845
30
0.000000000000000
11
-32.0492293744334
21
3.52634272840143
31
0.000000000000000
  0
LINE
  5
F10573
330
F10574
100
AcDbEntity
8
Geo
100
AcDbLine
10
-32.0492293744334
20
3.52634272840143
30
0.000000000000000
11
-31.9492293744334
21
3.48768811461882
31
0.000000000000000
  0
LINE
  5
F10575
330
F10576
100
AcDbEntity
8
Geo
100
AcDbLine
10
-31.9492293744334
20
3.48768811461882
30
0.000000000000000
11
-31.8492293744334
21
3.45206865701344
31
0.000000000000000
  0
LINE
  5
F10577
330
F10578
100
AcDbEntity
8
Geo
100
AcDbLine
10
-31.8492293744334
20
3.45206865701344
30
0.000000000000000
11
-31.7492293744334
21
3.42009888234181
31
0.000000000000000
  0
LINE
  5
F10579
330
F1057A
100
AcDbEntity
8
Geo
100
AcDbLine
10
-31.7492293744334
20
3.42009888234181
30
0.000000000000000
11
-31.6492293744334
21
3.39255912063505
31
0.000000000000000
  0
LINE
  5
F1057B
330
F1057C
100
AcDbEntity
8
Geo
100
AcDbLine
10
-31.6492293744334
20
3.39255912063505
30
0.000000000000000
11
-31.5492293744334
21
3.37044532135970
31
0.000000000000000
  0
LINE
  5
F1057D
330
F1057E
100
AcDbEntity
8
Geo
100
AcDbLine
10
-31.5492293744334
20
3.37044532135970
30
0.000000000000000
11
-31.4492293744334
21
3.35503964456406
31
0.000000000000000
  0
LINE
  5
F1057F
330
F10580
100
AcDbEntity
8
Geo
100
AcDbLine
10
-31.4492293744334
20
3.35503964456406
30
0.000000000000000
11
-31.3492293744334
21
3.34801298065348
31
0.000000000000000
  0
LINE
  5
F10581
330
F10582
100
AcDbEntity
8
Geo
100
AcDbLine
10
-31.3492293744334
20
3.34801298065348
30
0.000000000000000
11
-31.2492293744334
21
3.35157651301060
31
0.000000000000000
  0
LINE
  5
F10583
330
F10584
100
AcDbEntity
8
Geo
100
AcDbLine
10
-31.2492293744334
20
3.35157651301060
30
0.000000000000000
11
-31.1492293744334
21
3.36870808090202
31
0.000000000000000
  0
LINE
  5
F10585
330
F10586
100
AcDbEntity
8
Geo
100
AcDbLine
10
-31.1492293744334
20
3.36870808090202
30
0.000000000000000
11
-31.0492293744334
21
3.40349117029679
31
0.000000000000000
  0
LINE
  5
F10587
330
F10588
100
AcDbEntity
8
Geo
100
AcDbLine
10
-31.0492293744334
20
3.40349117029679
30
0.000000000000000
11
-30.9492293744334
21
3.46162028914430
31
0.000000000000000
  0
LINE
  5
F10589
330
F1058A
100
AcDbEntity
8
Geo
100
AcDbLine
10
-30.9492293744334
20
3.46162028914430
30
0.000000000000000
11
-30.8492293744333
21
3.55114550768205
31
0.000000000000000
  0
LINE
  5
F1058B
330
F1058C
100
AcDbEntity
8
Geo
100
AcDbLine
10
-30.8492293744333
20
3.55114550768205
30
0.000000000000000
11
-30.7492293744333
21
3.68354700488652
31
0.000000000000000
  0
LINE
  5
F1058D
330
F1058E
100
AcDbEntity
8
Geo
100
AcDbLine
10
-30.7492293744333
20
3.68354700488652
30
0.000000000000000
11
-30.6492293744333
21
3.87523549079757
31
0.000000000000000
  0
LINE
  5
F1058F
330
F10590
100
AcDbEntity
8
Geo
100
AcDbLine
10
-30.6492293744333
20
3.87523549079757
30
0.000000000000000
11
-30.5492293744333
21
4.14953621190918
31
0.000000000000000
  0
LINE
  5
F10591
330
F10592
100
AcDbEntity
8
Geo
100
AcDbLine
10
-30.5492293744333
20
4.14953621190918
30
0.000000000000000
11
-30.4492293744334
21
4.53906427659408
31
0.000000000000000
  0
LINE
  5
F10593
330
F10594
100
AcDbEntity
8
Geo
100
AcDbLine
10
-30.4492293744334
20
4.53906427659408
30
0.000000000000000
11
-30.4492293744334
21
4.70933102664746
31
0.000000000000000
  0
LINE
  5
F10595
330
F10596
100
AcDbEntity
8
Geo
100
AcDbLine
10
-30.4492293744334
20
4.70933102664746
30
0.000000000000000
11
-30.4492293744334
21
4.71722254316565
31
0.000000000000000
  0
LINE
  5
F10597
330
F10598
100
AcDbEntity
8
Geo
100
AcDbLine
10
-30.4492293744334
20
4.71722254316565
30
0.000000000000000
11
-30.4492293744334
21
4.65207747260127
31
0.000000000000000
  0
LINE
  5
F10599
330
F1059A
100
AcDbEntity
8
Geo
100
AcDbLine
10
-30.4492293744334
20
4.65207747260127
30
0.000000000000000
11
-30.5492293744333
21
5.11875156531095
31
0.000000000000000
  0
LINE
  5
F1059B
330
F1059C
100
AcDbEntity
8
Geo
100
AcDbLine
10
-30.5492293744333
20
5.11875156531095
30
0.000000000000000
11
-30.6492293744333
21
5.57614334892535
31
0.000000000000000
  0
LINE
  5
F1059D
330
F1059E
100
AcDbEntity
8
Geo
100
AcDbLine
10
-30.6492293744333
20
5.57614334892535
30
0.000000000000000
11
-30.7492293744333
21
6.01684291935184
31
0.000000000000000
  0
LINE
  5
F1059F
330
F105A0
100
AcDbEntity
8
Geo
100
AcDbLine
10
-30.7492293744333
20
6.01684291935184
30
0.000000000000000
11
-30.8492293744333
21
6.43601431035598
31
0.000000000000000
  0
LINE
  5
F105A1
330
F105A2
100
AcDbEntity
8
Geo
100
AcDbLine
10
-30.8492293744333
20
6.43601431035598
30
0.000000000000000
11
-30.9492293744334
21
6.83080279704068
31
0.000000000000000
  0
LINE
  5
F105A3
330
F105A4
100
AcDbEntity
8
Geo
100
AcDbLine
10
-30.9492293744334
20
6.83080279704068
30
0.000000000000000
11
-31.0492293744334
21
7.19984163089599
31
0.000000000000000
  0
LINE
  5
F105A5
330
F105A6
100
AcDbEntity
8
Geo
100
AcDbLine
10
-31.0492293744334
20
7.19984163089599
30
0.000000000000000
11
-31.1492293744334
21
7.54285273110467
31
0.000000000000000
  0
LINE
  5
F105A7
330
F105A8
100
AcDbEntity
8
Geo
100
AcDbLine
10
-31.1492293744334
20
7.54285273110467
30
0.000000000000000
11
-31.2492293744334
21
7.86033074612147
31
0.000000000000000
  0
LINE
  5
F105A9
330
F105AA
100
AcDbEntity
8
Geo
100
AcDbLine
10
-31.2492293744334
20
7.86033074612147
30
0.000000000000000
11
-31.3492293744334
21
8.15329802101612
31
0.000000000000000
  0
LINE
  5
F105AB
330
F105AC
100
AcDbEntity
8
Geo
100
AcDbLine
10
-31.3492293744334
20
8.15329802101612
30
0.000000000000000
11
-31.4492293744334
21
8.42311802674758
31
0.000000000000000
  0
LINE
  5
F105AD
330
F105AE
100
AcDbEntity
8
Geo
100
AcDbLine
10
-31.4492293744334
20
8.42311802674758
30
0.000000000000000
11
-31.5492293744334
21
8.67135584197011
31
0.000000000000000
  0
LINE
  5
F105AF
330
F105B0
100
AcDbEntity
8
Geo
100
AcDbLine
10
-31.5492293744334
20
8.67135584197011
30
0.000000000000000
11
-31.6492293744334
21
8.89967576487594
31
0.000000000000000
  0
LINE
  5
F105B1
330
F105B2
100
AcDbEntity
8
Geo
100
AcDbLine
10
-31.6492293744334
20
8.89967576487594
30
0.000000000000000
11
-31.7492293744334
21
9.10976773505780
31
0.000000000000000
  0
LINE
  5
F105B3
330
F105B4
100
AcDbEntity
8
Geo
100
AcDbLine
10
-31.7492293744334
20
9.10976773505780
30
0.000000000000000
11
-31.8492293744334
21
9.30329577563950
31
0.000000000000000
  0
LINE
  5
F105B5
330
F105B6
100
AcDbEntity
8
Geo
100
AcDbLine
10
-31.8492293744334
20
9.30329577563950
30
0.000000000000000
11
-31.9492293744334
21
9.48186303131731
31
0.000000000000000
  0
LINE
  5
F105B7
330
F105B8
100
AcDbEntity
8
Geo
100
AcDbLine
10
-31.9492293744334
20
9.48186303131731
30
0.000000000000000
11
-32.0492293744334
21
9.64698914376843
31
0.000000000000000
  0
LINE
  5
F105B9
330
F105BA
100
AcDbEntity
8
Geo
100
AcDbLine
10
-32.0492293744334
20
9.64698914376843
30
0.000000000000000
11
-32.1492293744334
21
9.80009667067713
31
0.000000000000000
  0
LINE
  5
F105BB
330
F105BC
100
AcDbEntity
8
Geo
100
AcDbLine
10
-32.1492293744334
20
9.80009667067713
30
0.000000000000000
11
-32.2492293744334
21
9.94250403441387
31
0.000000000000000
  0
LINE
  5
F105BD
330
F105BE
100
AcDbEntity
8
Geo
100
AcDbLine
10
-32.2492293744334
20
9.94250403441387
30
0.000000000000000
11
-32.3492293744334
21
10.0754231049070
31
0.000000000000000
  0
LINE
  5
F105BF
330
F105C0
100
AcDbEntity
8
Geo
100
AcDbLine
10
-32.3492293744334
20
10.0754231049070
30
0.000000000000000
11
-32.4492293744334
21
10.1999600042060
31
0.000000000000000
  0
LINE
  5
F105C1
330
F105C2
100
AcDbEntity
8
Geo
100
AcDbLine
10
-32.4492293744334
20
10.1999600042060
30
0.000000000000000
11
-32.5492293744334
21
10.3171180922668
31
0.000000000000000
  0
LINE
  5
F105C3
330
F105C4
100
AcDbEntity
8
Geo
100
AcDbLine
10
-32.5492293744334
20
10.3171180922668
30
0.000000000000000
11
-32.6492293744334
21
10.4278023765942
31
0.000000000000000
  0
LINE
  5
F105C5
330
F105C6
100
AcDbEntity
8
Geo
100
AcDbLine
10
-32.6492293744334
20
10.4278023765942
30
0.000000000000000
11
-32.7492293744334
21
10.5328248013426
31
0.000000000000000
  0
LINE
  5
F105C7
330
F105C8
100
AcDbEntity
8
Geo
100
AcDbLine
10
-32.7492293744334
20
10.5328248013426
30
0.000000000000000
11
-32.8492293744334
21
10.6329100299150
31
0.000000000000000
  0
LINE
  5
F105C9
330
F105CA
100
AcDbEntity
8
Geo
100
AcDbLine
10
-32.8492293744334
20
10.6329100299150
30
0.000000000000000
11
-32.9492293744334
21
10.7287014516436
31
0.000000000000000
  0
LINE
  5
F105CB
330
F105CC
100
AcDbEntity
8
Geo
100
AcDbLine
10
-32.9492293744334
20
10.7287014516436
30
0.000000000000000
11
-33.0492293744334
21
10.8207672278589
31
0.000000000000000
  0
LINE
  5
F105CD
330
F105CE
100
AcDbEntity
8
Geo
100
AcDbLine
10
-33.0492293744334
20
10.8207672278589
30
0.000000000000000
11
-33.1492293744334
21
10.9096062534598
31
0.000000000000000
  0
LINE
  5
F105CF
330
F105D0
100
AcDbEntity
8
Geo
100
AcDbLine
10
-33.1492293744334
20
10.9096062534598
30
0.000000000000000
11
-33.2492293744334
21
10.9956539531240
31
0.000000000000000
  0
LINE
  5
F105D1
330
F105D2
100
AcDbEntity
8
Geo
100
AcDbLine
10
-33.2492293744334
20
10.9956539531240
30
0.000000000000000
11
-33.3492293744334
21
11.0792878612309
31
0.000000000000000
  0
LINE
  5
F105D3
330
F105D4
100
AcDbEntity
8
Geo
100
AcDbLine
10
-33.3492293744334
20
11.0792878612309
30
0.000000000000000
11
-33.4492293744334
21
11.1608329550045
31
0.000000000000000
  0
LINE
  5
F105D5
330
F105D6
100
AcDbEntity
8
Geo
100
AcDbLine
10
-33.4492293744334
20
11.1608329550045
30
0.000000000000000
11
-33.5492293744334
21
11.2405667239852
31
0.000000000000000
  0
LINE
  5
F105D7
330
F105D8
100
AcDbEntity
8
Geo
100
AcDbLine
10
-33.5492293744334
20
11.2405667239852
30
0.000000000000000
11
-33.6492293744334
21
11.3187239677306
31
0.000000000000000
  0
LINE
  5
F105D9
330
F105DA
100
AcDbEntity
8
Geo
100
AcDbLine
10
-33.6492293744334
20
11.3187239677306
30
0.000000000000000
11
-33.7492293744334
21
11.3955013190996
31
0.000000000000000
  0
LINE
  5
F105DB
330
F105DC
100
AcDbEntity
8
Geo
100
AcDbLine
10
-33.7492293744334
20
11.3955013190996
30
0.000000000000000
11
-33.8492293744334
21
11.4710614936765
31
0.000000000000000
  0
LINE
  5
F105DD
330
F105DE
100
AcDbEntity
8
Geo
100
AcDbLine
10
-33.8492293744334
20
11.4710614936765
30
0.000000000000000
11
-33.9492293744334
21
11.5455372676319
31
0.000000000000000
  0
LINE
  5
F105DF
330
F105E0
100
AcDbEntity
8
Geo
100
AcDbLine
10
-33.9492293744334
20
11.5455372676319
30
0.000000000000000
11
-34.0492293744334
21
11.6190351871476
31
0.000000000000000
  0
LINE
  5
F105E1
330
F105E2
100
AcDbEntity
8
Geo
100
AcDbLine
10
-34.0492293744334
20
11.6190351871476
30
0.000000000000000
11
-34.1492293744334
21
11.6916390128535
31
0.000000000000000
  0
LINE
  5
F105E3
330
F105E4
100
AcDbEntity
8
Geo
100
AcDbLine
10
-34.1492293744334
20
11.6916390128535
30
0.000000000000000
11
-34.2492293744334
21
11.7634129028026
31
0.000000000000000
  0
LINE
  5
F105E5
330
F105E6
100
AcDbEntity
8
Geo
100
AcDbLine
10
-34.2492293744334
20
11.7634129028026
30
0.000000000000000
11
-34.3492293744334
21
11.8344043375211
31
0.000000000000000
  0
LINE
  5
F105E7
330
F105E8
100
AcDbEntity
8
Geo
100
AcDbLine
10
-34.3492293744334
20
11.8344043375211
30
0.000000000000000
11
-34.4492293744334
21
11.9046467907313
31
0.000000000000000
  0
LINE
  5
F105E9
330
F105EA
100
AcDbEntity
8
Geo
100
AcDbLine
10
-34.4492293744334
20
11.9046467907313
30
0.000000000000000
11
-34.5492293744334
21
11.9741621495118
31
0.000000000000000
  0
LINE
  5
F105EB
330
F105EC
100
AcDbEntity
8
Geo
100
AcDbLine
10
-34.5492293744334
20
11.9741621495118
30
0.000000000000000
11
-34.6492293744334
21
12.0429628879756
31
0.000000000000000
  0
LINE
  5
F105ED
330
F105EE
100
AcDbEntity
8
Geo
100
AcDbLine
10
-34.6492293744334
20
12.0429628879756
30
0.000000000000000
11
-34.7492293744334
21
12.1110539989959
31
0.000000000000000
  0
LINE
  5
F105EF
330
F105F0
100
AcDbEntity
8
Geo
100
AcDbLine
10
-34.7492293744334
20
12.1110539989959
30
0.000000000000000
11
-34.8492293744334
21
12.1784346891086
31
0.000000000000000
  0
LINE
  5
F105F1
330
F105F2
100
AcDbEntity
8
Geo
100
AcDbLine
10
-34.8492293744334
20
12.1784346891086
30
0.000000000000000
11
-34.9492293744334
21
12.2450998424240
31
0.000000000000000
  0
LINE
  5
F105F3
330
F105F4
100
AcDbEntity
8
Geo
100
AcDbLine
10
-34.9492293744334
20
12.2450998424240
30
0.000000000000000
11
-35.0492293744334
21
12.3110412601874
31
0.000000000000000
  0
LINE
  5
F105F5
330
F105F6
100
AcDbEntity
8
Geo
100
AcDbLine
10
-35.0492293744334
20
12.3110412601874
30
0.000000000000000
11
-35.1492293744334
21
12.3762486834906
31
0.000000000000000
  0
LINE
  5
F105F7
330
F105F8
100
AcDbEntity
8
Geo
100
AcDbLine
10
-35.1492293744334
20
12.3762486834906
30
0.000000000000000
11
-35.2492293744334
21
12.4407106075488
31
0.000000000000000
  0
LINE
  5
F105F9
330
F105FA
100
AcDbEntity
8
Geo
100
AcDbLine
10
-35.2492293744334
20
12.4407106075488
30
0.000000000000000
11
-35.3492293744334
21
12.5044148968831
31
0.000000000000000
  0
LINE
  5
F105FB
330
F105FC
100
AcDbEntity
8
Geo
100
AcDbLine
10
-35.3492293744334
20
12.5044148968831
30
0.000000000000000
11
-35.4492293744334
21
12.5673492116784
31
0.000000000000000
  0
LINE
  5
F105FD
330
F105FE
100
AcDbEntity
8
Geo
100
AcDbLine
10
-31.5074094859095
20
2.56754306436991
30
0.000000000000000
11
-31.5492293744334
21
2.56844122266003
31
0.000000000000000
  0
LINE
  5
F105FF
330
F10600
100
AcDbEntity
8
Geo
100
AcDbLine
10
-31.5492293744334
20
2.56844122266003
30
0.000000000000000
11
-31.6492293744334
21
2.57674279485211
31
0.000000000000000
  0
LINE
  5
F10601
330
F10602
100
AcDbEntity
8
Geo
100
AcDbLine
10
-31.6492293744334
20
2.57674279485211
30
0.000000000000000
11
-31.7492293744334
21
2.59209392589526
31
0.000000000000000
  0
LINE
  5
F10603
330
F10604
100
AcDbEntity
8
Geo
100
AcDbLine
10
-31.7492293744334
20
2.59209392589526
30
0.000000000000000
11
-31.8492293744334
21
2.61282493939880
31
0.000000000000000
  0
LINE
  5
F10605
330
F10606
100
AcDbEntity
8
Geo
100
AcDbLine
10
-31.8492293744334
20
2.61282493939880
30
0.000000000000000
11
-31.9492293744334
21
2.63761734830556
31
0.000000000000000
  0
LINE
  5
F10607
330
F10608
100
AcDbEntity
8
Geo
100
AcDbLine
10
-31.9492293744334
20
2.63761734830556
30
0.000000000000000
11
-32.0492293744334
21
2.66544206882001
31
0.000000000000000
  0
LINE
  5
F10609
330
F1060A
100
AcDbEntity
8
Geo
100
AcDbLine
10
-32.0492293744334
20
2.66544206882001
30
0.000000000000000
11
-32.1492293744334
21
2.69550665375569
31
0.000000000000000
  0
LINE
  5
F1060B
330
F1060C
100
AcDbEntity
8
Geo
100
AcDbLine
10
-32.1492293744334
20
2.69550665375569
30
0.000000000000000
11
-32.2492293744334
21
2.72721068248822
31
0.000000000000000
  0
LINE
  5
F1060D
330
F1060E
100
AcDbEntity
8
Geo
100
AcDbLine
10
-32.2492293744334
20
2.72721068248822
30
0.000000000000000
11
-32.3492293744334
21
2.76010836535264
31
0.000000000000000
  0
LINE
  5
F1060F
330
F10610
100
AcDbEntity
8
Geo
100
AcDbLine
10
-32.3492293744334
20
2.76010836535264
30
0.000000000000000
11
-32.4492293744334
21
2.79387742332900
31
0.000000000000000
  0
LINE
  5
F10611
330
F10612
100
AcDbEntity
8
Geo
100
AcDbLine
10
-32.4492293744334
20
2.79387742332900
30
0.000000000000000
11
-32.5492293744334
21
2.82829335541319
31
0.000000000000000
  0
LINE
  5
F10613
330
F10614
100
AcDbEntity
8
Geo
100
AcDbLine
10
-32.5492293744334
20
2.82829335541319
30
0.000000000000000
11
-32.6492293744334
21
2.86320828358409
31
0.000000000000000
  0
LINE
  5
F10615
330
F10616
100
AcDbEntity
8
Geo
100
AcDbLine
10
-32.6492293744334
20
2.86320828358409
30
0.000000000000000
11
-32.7492293744334
21
2.89853365404772
31
0.000000000000000
  0
LINE
  5
F10617
330
F10618
100
AcDbEntity
8
Geo
100
AcDbLine
10
-32.7492293744334
20
2.89853365404772
30
0.000000000000000
11
-32.8492293744334
21
2.93422616420930
31
0.000000000000000
  0
LINE
  5
F10619
330
F1061A
100
AcDbEntity
8
Geo
100
AcDbLine
10
-32.8492293744334
20
2.93422616420930
30
0.000000000000000
11
-32.9492293744334
21
2.97027637203547
31
0.000000000000000
  0
LINE
  5
F1061B
330
F1061C
100
AcDbEntity
8
Geo
100
AcDbLine
10
-32.9492293744334
20
2.97027637203547
30
0.000000000000000
11
-33.0492293744334
21
3.00669952502540
31
0.000000000000000
  0
LINE
  5
F1061D
330
F1061E
100
AcDbEntity
8
Geo
100
AcDbLine
10
-33.0492293744334
20
3.00669952502540
30
0.000000000000000
11
-33.1492293744334
21
3.04352821841684
31
0.000000000000000
  0
LINE
  5
F1061F
330
F10620
100
AcDbEntity
8
Geo
100
AcDbLine
10
-33.1492293744334
20
3.04352821841684
30
0.000000000000000
11
-33.2492293744334
21
3.08080655603331
31
0.000000000000000
  0
LINE
  5
F10621
330
F10622
100
AcDbEntity
8
Geo
100
AcDbLine
10
-33.2492293744334
20
3.08080655603331
30
0.000000000000000
11
-33.3492293744334
21
3.11858554247257
31
0.000000000000000
  0
LINE
  5
F10623
330
F10624
100
AcDbEntity
8
Geo
100
AcDbLine
10
-33.3492293744334
20
3.11858554247257
30
0.000000000000000
11
-33.4492293744334
21
3.15691948264365
31
0.000000000000000
  0
LINE
  5
F10625
330
F10626
100
AcDbEntity
8
Geo
100
AcDbLine
10
-33.4492293744334
20
3.15691948264365
30
0.000000000000000
11
-33.5492293744334
21
3.19586320466710
31
0.000000000000000
  0
LINE
  5
F10627
330
F10628
100
AcDbEntity
8
Geo
100
AcDbLine
10
-33.5492293744334
20
3.19586320466710
30
0.000000000000000
11
-33.6492293744334
21
3.23546995562662
31
0.000000000000000
  0
LINE
  5
F10629
330
F1062A
100
AcDbEntity
8
Geo
100
AcDbLine
10
-33.6492293744334
20
3.23546995562662
30
0.000000000000000
11
-33.7492293744334
21
3.27578984738157
31
0.000000000000000
  0
LINE
  5
F1062B
330
F1062C
100
AcDbEntity
8
Geo
100
AcDbLine
10
-33.7492293744334
20
3.27578984738157
30
0.000000000000000
11
-33.8492293744334
21
3.31686875237175
31
0.000000000000000
  0
LINE
  5
F1062D
330
F1062E
100
AcDbEntity
8
Geo
100
AcDbLine
10
-33.8492293744334
20
3.31686875237175
30
0.000000000000000
11
-33.9492293744334
21
3.35874756777590
31
0.000000000000000
  0
LINE
  5
F1062F
330
F10630
100
AcDbEntity
8
Geo
100
AcDbLine
10
-33.9492293744334
20
3.35874756777590
30
0.000000000000000
11
-34.0492293744334
21
3.40146178117027
31
0.000000000000000
  0
LINE
  5
F10631
330
F10632
100
AcDbEntity
8
Geo
100
AcDbLine
10
-34.0492293744334
20
3.40146178117027
30
0.000000000000000
11
-34.1492293744334
21
3.44504128255778
31
0.000000000000000
  0
LINE
  5
F10633
330
F10634
100
AcDbEntity
8
Geo
100
AcDbLine
10
-34.1492293744334
20
3.44504128255778
30
0.000000000000000
11
-34.2492293744334
21
3.48951037682283
31
0.000000000000000
  0
LINE
  5
F10635
330
F10636
100
AcDbEntity
8
Geo
100
AcDbLine
10
-34.2492293744334
20
3.48951037682283
30
0.000000000000000
11
-34.3492293744334
21
3.53488795777014
31
0.000000000000000
  0
LINE
  5
F10637
330
F10638
100
AcDbEntity
8
Geo
100
AcDbLine
10
-34.3492293744334
20
3.53488795777014
30
0.000000000000000
11
-34.4492293744334
21
3.58118781032862
31
0.000000000000000
  0
LINE
  5
F10639
330
F1063A
100
AcDbEntity
8
Geo
100
AcDbLine
10
-34.4492293744334
20
3.58118781032862
30
0.000000000000000
11
-34.5492293744334
21
3.62841901159019
31
0.000000000000000
  0
LINE
  5
F1063B
330
F1063C
100
AcDbEntity
8
Geo
100
AcDbLine
10
-34.5492293744334
20
3.62841901159019
30
0.000000000000000
11
-34.6492293744334
21
3.67658640440154
31
0.000000000000000
  0
LINE
  5
F1063D
330
F1063E
100
AcDbEntity
8
Geo
100
AcDbLine
10
-34.6492293744334
20
3.67658640440154
30
0.000000000000000
11
-34.7492293744334
21
3.72569111948499
31
0.000000000000000
  0
LINE
  5
F1063F
330
F10640
100
AcDbEntity
8
Geo
100
AcDbLine
10
-34.7492293744334
20
3.72569111948499
30
0.000000000000000
11
-34.8492293744334
21
3.77573112373701
31
0.000000000000000
  0
LINE
  5
F10641
330
F10642
100
AcDbEntity
8
Geo
100
AcDbLine
10
-34.8492293744334
20
3.77573112373701
30
0.000000000000000
11
-34.9492293744334
21
3.82670177360851
31
0.000000000000000
  0
LINE
  5
F10643
330
F10644
100
AcDbEntity
8
Geo
100
AcDbLine
10
-34.9492293744334
20
3.82670177360851
30
0.000000000000000
11
-35.0492293744334
21
3.87859635344313
31
0.000000000000000
  0
LINE
  5
F10645
330
F10646
100
AcDbEntity
8
Geo
100
AcDbLine
10
-35.0492293744334
20
3.87859635344313
30
0.000000000000000
11
-35.1492293744334
21
3.93140657944212
31
0.000000000000000
  0
LINE
  5
F10647
330
F10648
100
AcDbEntity
8
Geo
100
AcDbLine
10
-35.1492293744334
20
3.93140657944212
30
0.000000000000000
11
-35.2492293744334
21
3.98512305061453
31
0.000000000000000
  0
LINE
  5
F10649
330
F1064A
100
AcDbEntity
8
Geo
100
AcDbLine
10
-35.2492293744334
20
3.98512305061453
30
0.000000000000000
11
-35.3492293744334
21
4.03973562871587
31
0.000000000000000
  0
LINE
  5
F1064B
330
F1064C
100
AcDbEntity
8
Geo
100
AcDbLine
10
-35.3492293744334
20
4.03973562871587
30
0.000000000000000
11
-35.4492293744334
21
4.09523372981427
31
0.000000000000000
  0
LINE
  5
F1064D
330
F1064E
100
AcDbEntity
8
Geo
100
AcDbLine
10
-35.4492293744334
20
13.7536043531644
30
0.000000000000000
11
-35.3492293744334
21
13.7109001195214
31
0.000000000000000
  0
LINE
  5
F1064F
330
F10650
100
AcDbEntity
8
Geo
100
AcDbLine
10
-35.3492293744334
20
13.7109001195214
30
0.000000000000000
11
-35.2492293744334
21
13.6671899642276
31
0.000000000000000
  0
LINE
  5
F10651
330
F10652
100
AcDbEntity
8
Geo
100
AcDbLine
10
-35.2492293744334
20
13.6671899642276
30
0.000000000000000
11
-35.1492293744334
21
13.6224824359782
31
0.000000000000000
  0
LINE
  5
F10653
330
F10654
100
AcDbEntity
8
Geo
100
AcDbLine
10
-35.1492293744334
20
13.6224824359782
30
0.000000000000000
11
-35.0492293744334
21
13.5767862785315
31
0.000000000000000
  0
LINE
  5
F10655
330
F10656
100
AcDbEntity
8
Geo
100
AcDbLine
10
-35.0492293744334
20
13.5767862785315
30
0.000000000000000
11
-34.9492293744334
21
13.5301104290001
31
0.000000000000000
  0
LINE
  5
F10657
330
F10658
100
AcDbEntity
8
Geo
100
AcDbLine
10
-34.9492293744334
20
13.5301104290001
30
0.000000000000000
11
-34.8492293744334
21
13.4824640161107
31
0.000000000000000
  0
LINE
  5
F10659
330
F1065A
100
AcDbEntity
8
Geo
100
AcDbLine
10
-34.8492293744334
20
13.4824640161107
30
0.000000000000000
11
-34.7492293744334
21
13.4338563584568
31
0.000000000000000
  0
LINE
  5
F1065B
330
F1065C
100
AcDbEntity
8
Geo
100
AcDbLine
10
-34.7492293744334
20
13.4338563584568
30
0.000000000000000
11
-34.6492293744334
21
13.3842969628159
31
0.000000000000000
  0
LINE
  5
F1065D
330
F1065E
100
AcDbEntity
8
Geo
100
AcDbLine
10
-34.6492293744334
20
13.3842969628159
30
0.000000000000000
11
-34.5492293744334
21
13.3337955227228
31
0.000000000000000
  0
LINE
  5
F1065F
330
F10660
100
AcDbEntity
8
Geo
100
AcDbLine
10
-34.5492293744334
20
13.3337955227228
30
0.000000000000000
11
-34.4492293744334
21
13.2823619177245
31
0.000000000000000
  0
LINE
  5
F10661
330
F10662
100
AcDbEntity
8
Geo
100
AcDbLine
10
-34.4492293744334
20
13.2823619177245
30
0.000000000000000
11
-34.3492293744334
21
13.2300062141948
31
0.000000000000000
  0
LINE
  5
F10663
330
F10664
100
AcDbEntity
8
Geo
100
AcDbLine
10
-34.3492293744334
20
13.2300062141948
30
0.000000000000000
11
-34.2492293744334
21
13.1767386693588
31
0.000000000000000
  0
LINE
  5
F10665
330
F10666
100
AcDbEntity
8
Geo
100
AcDbLine
10
-34.2492293744334
20
13.1767386693588
30
0.000000000000000
11
-34.1492293744334
21
13.1225697414437
31
0.000000000000000
  0
LINE
  5
F10667
330
F10668
100
AcDbEntity
8
Geo
100
AcDbLine
10
-34.1492293744334
20
13.1225697414437
30
0.000000000000000
11
-34.0492293744334
21
13.0675101108447
31
0.000000000000000
  0
LINE
  5
F10669
330
F1066A
100
AcDbEntity
8
Geo
100
AcDbLine
10
-34.0492293744334
20
13.0675101108447
30
0.000000000000000
11
-33.9492293744334
21
13.0115707201449
31
0.000000000000000
  0
LINE
  5
F1066B
330
F1066C
100
AcDbEntity
8
Geo
100
AcDbLine
10
-33.9492293744334
20
13.0115707201449
30
0.000000000000000
11
-33.8492293744334
21
12.9547628450939
31
0.000000000000000
  0
LINE
  5
F1066D
330
F1066E
100
AcDbEntity
8
Geo
100
AcDbLine
10
-33.8492293744334
20
12.9547628450939
30
0.000000000000000
11
-33.7492293744334
21
12.8970982146607
31
0.000000000000000
  0
LINE
  5
F1066F
330
F10670
100
AcDbEntity
8
Geo
100
AcDbLine
10
-33.7492293744334
20
12.8970982146607
30
0.000000000000000
11
-33.6492293744334
21
12.8385892065127
31
0.000000000000000
  0
LINE
  5
F10671
330
F10672
100
AcDbEntity
8
Geo
100
AcDbLine
10
-33.6492293744334
20
12.8385892065127
30
0.000000000000000
11
-33.5492293744334
21
12.7792491553504
31
0.000000000000000
  0
LINE
  5
F10673
330
F10674
100
AcDbEntity
8
Geo
100
AcDbLine
10
-33.5492293744334
20
12.7792491553504
30
0.000000000000000
11
-33.4492293744334
21
12.7190928261225
31
0.000000000000000
  0
LINE
  5
F10675
330
F10676
100
AcDbEntity
8
Geo
100
AcDbLine
10
-33.4492293744334
20
12.7190928261225
30
0.000000000000000
11
-33.3492293744334
21
12.6581371230650
31
0.000000000000000
  0
LINE
  5
F10677
330
F10678
100
AcDbEntity
8
Geo
100
AcDbLine
10
-33.3492293744334
20
12.6581371230650
30
0.000000000000000
11
-33.2492293744334
21
12.5964021296588
31
0.000000000000000
  0
LINE
  5
F10679
330
F1067A
100
AcDbEntity
8
Geo
100
AcDbLine
10
-33.2492293744334
20
12.5964021296588
30
0.000000000000000
11
-33.1492293744334
21
12.5339126049968
31
0.000000000000000
  0
LINE
  5
F1067B
330
F1067C
100
AcDbEntity
8
Geo
100
AcDbLine
10
-33.1492293744334
20
12.5339126049968
30
0.000000000000000
11
-33.0492293744334
21
12.4707000998229
31
0.000000000000000
  0
LINE
  5
F1067D
330
F1067E
100
AcDbEntity
8
Geo
100
AcDbLine
10
-33.0492293744334
20
12.4707000998229
30
0.000000000000000
11
-32.9492293744334
21
12.4068059018586
31
0.000000000000000
  0
LINE
  5
F1067F
330
F10680
100
AcDbEntity
8
Geo
100
AcDbLine
10
-32.9492293744334
20
12.4068059018586
30
0.000000000000000
11
-32.8492293744334
21
12.3422850762388
31
0.000000000000000
  0
LINE
  5
F10681
330
F10682
100
AcDbEntity
8
Geo
100
AcDbLine
10
-32.8492293744334
20
12.3422850762388
30
0.000000000000000
11
-32.7492293744334
21
12.2772119342077
31
0.000000000000000
  0
LINE
  5
F10683
330
F10684
100
AcDbEntity
8
Geo
100
AcDbLine
10
-32.7492293744334
20
12.2772119342077
30
0.000000000000000
11
-32.6492293744334
21
12.2116873428465
31
0.000000000000000
  0
LINE
  5
F10685
330
F10686
100
AcDbEntity
8
Geo
100
AcDbLine
10
-32.6492293744334
20
12.2116873428465
30
0.000000000000000
11
-32.5492293744334
21
12.1458483814398
31
0.000000000000000
  0
LINE
  5
F10687
330
F10688
100
AcDbEntity
8
Geo
100
AcDbLine
10
-32.5492293744334
20
12.1458483814398
30
0.000000000000000
11
-32.4492293744334
21
12.0798809565321
31
0.000000000000000
  0
LINE
  5
F10689
330
F1068A
100
AcDbEntity
8
Geo
100
AcDbLine
10
-32.4492293744334
20
12.0798809565321
30
0.000000000000000
11
-32.3492293744334
21
12.0140361073030
31
0.000000000000000
  0
LINE
  5
F1068B
330
F1068C
100
AcDbEntity
8
Geo
100
AcDbLine
10
-32.3492293744334
20
12.0140361073030
30
0.000000000000000
11
-32.2492293744334
21
11.9486508635833
31
0.000000000000000
  0
LINE
  5
F1068D
330
F1068E
100
AcDbEntity
8
Geo
100
AcDbLine
10
-32.2492293744334
20
11.9486508635833
30
0.000000000000000
11
-32.1492293744334
21
11.8841746562361
31
0.000000000000000
  0
LINE
  5
F1068F
330
F10690
100
AcDbEntity
8
Geo
100
AcDbLine
10
-32.1492293744334
20
11.8841746562361
30
0.000000000000000
11
-32.0492293744334
21
11.8212024154132
31
0.000000000000000
  0
LINE
  5
F10691
330
F10692
100
AcDbEntity
8
Geo
100
AcDbLine
10
-32.0492293744334
20
11.8212024154132
30
0.000000000000000
11
-31.9492293744334
21
11.7605156119327
31
0.000000000000000
  0
LINE
  5
F10693
330
F10694
100
AcDbEntity
8
Geo
100
AcDbLine
10
-31.9492293744334
20
11.7605156119327
30
0.000000000000000
11
-31.8492293744334
21
11.7031325763566
31
0.000000000000000
  0
LINE
  5
F10695
330
F10696
100
AcDbEntity
8
Geo
100
AcDbLine
10
-31.8492293744334
20
11.7031325763566
30
0.000000000000000
11
-31.7492293744334
21
11.6503694287481
31
0.000000000000000
  0
LINE
  5
F10697
330
F10698
100
AcDbEntity
8
Geo
100
AcDbLine
10
-31.7492293744334
20
11.6503694287481
30
0.000000000000000
11
-31.6492293744334
21
11.6039128017514
31
0.000000000000000
  0
LINE
  5
F10699
330
F1069A
100
AcDbEntity
8
Geo
100
AcDbLine
10
-31.6492293744334
20
11.6039128017514
30
0.000000000000000
11
-31.5492293744334
21
11.5659051254956
31
0.000000000000000
  0
LINE
  5
F1069B
330
F1069C
100
AcDbEntity
8
Geo
100
AcDbLine
10
-31.5492293744334
20
11.5659051254956
30
0.000000000000000
11
-31.4492293744334
21
11.5390423658190
31
0.000000000000000
  0
LINE
  5
F1069D
330
F1069E
100
AcDbEntity
8
Geo
100
AcDbLine
10
-31.4492293744334
20
11.5390423658190
30
0.000000000000000
11
-31.3492293744334
21
11.5266824164754
31
0.000000000000000
  0
LINE
  5
F1069F
330
F106A0
100
AcDbEntity
8
Geo
100
AcDbLine
10
-31.3492293744334
20
11.5266824164754
30
0.000000000000000
11
-31.2492293744334
21
11.5329592130918
31
0.000000000000000
  0
LINE
  5
F106A1
330
F106A2
100
AcDbEntity
8
Geo
100
AcDbLine
10
-31.2492293744334
20
11.5329592130918
30
0.000000000000000
11
-31.1492293744334
21
11.5628919279700
31
0.000000000000000
  0
LINE
  5
F106A3
330
F106A4
100
AcDbEntity
8
Geo
100
AcDbLine
10
-31.1492293744334
20
11.5628919279700
30
0.000000000000000
11
-31.0492293744334
21
11.6224682738177
31
0.000000000000000
  0
LINE
  5
F106A5
330
F106A6
100
AcDbEntity
8
Geo
100
AcDbLine
10
-31.0492293744334
20
11.6224682738177
30
0.000000000000000
11
-30.9492293744334
21
11.7186623279701
31
0.000000000000000
  0
LINE
  5
F106A7
330
F106A8
100
AcDbEntity
8
Geo
100
AcDbLine
10
-30.9492293744334
20
11.7186623279701
30
0.000000000000000
11
-30.8492293744333
21
11.8593139484467
31
0.000000000000000
  0
LINE
  5
F106A9
330
F106AA
100
AcDbEntity
8
Geo
100
AcDbLine
10
-30.8492293744333
20
11.8593139484467
30
0.000000000000000
11
-30.7492293744333
21
12.0527378209008
31
0.000000000000000
  0
LINE
  5
F106AB
330
F106AC
100
AcDbEntity
8
Geo
100
AcDbLine
10
-30.7492293744333
20
12.0527378209008
30
0.000000000000000
11
-30.6492293744333
21
12.3068277065168
31
0.000000000000000
  0
LINE
  5
F106AD
330
F106AE
100
AcDbEntity
8
Geo
100
AcDbLine
10
-30.6492293744333
20
12.3068277065168
30
0.000000000000000
11
-30.5492293744333
21
12.6272493901538
31
0.000000000000000
  0
LINE
  5
F106AF
330
F106B0
100
AcDbEntity
8
Geo
100
AcDbLine
10
-30.5492293744333
20
12.6272493901538
30
0.000000000000000
11
-30.4492293744334
21
13.0140426602813
31
0.000000000000000
  0
LINE
  5
F106B1
330
F106B2
100
AcDbEntity
8
Geo
100
AcDbLine
10
-30.4492293744334
20
13.0140426602813
30
0.000000000000000
11
-30.4492293744334
21
12.7632789797933
31
0.000000000000000
  0
LINE
  5
F106B3
330
F106B4
100
AcDbEntity
8
Geo
100
AcDbLine
10
-30.4492293744334
20
12.7632789797933
30
0.000000000000000
11
-30.4492293744334
21
12.7705219941283
31
0.000000000000000
  0
LINE
  5
F106B5
330
F106B6
100
AcDbEntity
8
Geo
100
AcDbLine
10
-30.4492293744334
20
12.7705219941283
30
0.000000000000000
11
-30.4492293744334
21
13.1138744644854
31
0.000000000000000
  0
LINE
  5
F106B7
330
F106B8
100
AcDbEntity
8
Geo
100
AcDbLine
10
-30.4492293744334
20
13.1138744644854
30
0.000000000000000
11
-30.5492293744333
21
13.4773126308586
31
0.000000000000000
  0
LINE
  5
F106B9
330
F106BA
100
AcDbEntity
8
Geo
100
AcDbLine
10
-30.5492293744333
20
13.4773126308586
30
0.000000000000000
11
-30.6492293744333
21
13.7686513830303
31
0.000000000000000
  0
LINE
  5
F106BB
330
F106BC
100
AcDbEntity
8
Geo
100
AcDbLine
10
-30.6492293744333
20
13.7686513830303
30
0.000000000000000
11
-30.7492293744333
21
13.9983743792060
31
0.000000000000000
  0
LINE
  5
F106BD
330
F106BE
100
AcDbEntity
8
Geo
100
AcDbLine
10
-30.7492293744333
20
13.9983743792060
30
0.000000000000000
11
-30.8492293744333
21
14.1761601105598
31
0.000000000000000
  0
LINE
  5
F106BF
330
F106C0
100
AcDbEntity
8
Geo
100
AcDbLine
10
-30.8492293744333
20
14.1761601105598
30
0.000000000000000
11
-30.9492293744334
21
14.3106896969954
31
0.000000000000000
  0
LINE
  5
F106C1
330
F106C2
100
AcDbEntity
8
Geo
100
AcDbLine
10
-30.9492293744334
20
14.3106896969954
30
0.000000000000000
11
-31.0492293744334
21
14.4095797630627
31
0.000000000000000
  0
LINE
  5
F106C3
330
F106C4
100
AcDbEntity
8
Geo
100
AcDbLine
10
-31.0492293744334
20
14.4095797630627
30
0.000000000000000
11
-31.1492293744334
21
14.4793963880674
31
0.000000000000000
  0
LINE
  5
F106C5
330
F106C6
100
AcDbEntity
8
Geo
100
AcDbLine
10
-31.1492293744334
20
14.4793963880674
30
0.000000000000000
11
-31.2492293744334
21
14.5257181823836
31
0.000000000000000
  0
LINE
  5
F106C7
330
F106C8
100
AcDbEntity
8
Geo
100
AcDbLine
10
-31.2492293744334
20
14.5257181823836
30
0.000000000000000
11
-31.3492293744334
21
14.5532260700140
31
0.000000000000000
  0
LINE
  5
F106C9
330
F106CA
100
AcDbEntity
8
Geo
100
AcDbLine
10
-31.3492293744334
20
14.5532260700140
30
0.000000000000000
11
-31.4492293744334
21
14.5658045965564
31
0.000000000000000
  0
LINE
  5
F106CB
330
F106CC
100
AcDbEntity
8
Geo
100
AcDbLine
10
-31.4492293744334
20
14.5658045965564
30
0.000000000000000
11
-31.5074094859095
21
14.5675430643699
31
0.000000000000000
  0
LINE
  5
F106CD
330
F106CE
100
AcDbEntity
8
Geo
100
AcDbLine
10
-50.4492293744334
20
7.94905270648313
30
0.000000000000000
11
-50.3492293744334
21
7.88187918545584
31
0.000000000000000
  0
LINE
  5
F106CF
330
F106D0
100
AcDbEntity
8
Geo
100
AcDbLine
10
-50.3492293744334
20
7.88187918545584
30
0.000000000000000
11
-50.2492293744334
21
7.81200526487680
31
0.000000000000000
  0
LINE
  5
F106D1
330
F106D2
100
AcDbEntity
8
Geo
100
AcDbLine
10
-50.2492293744334
20
7.81200526487680
30
0.000000000000000
11
-50.1492293744334
21
7.72989229545739
31
0.000000000000000
  0
LINE
  5
F106D3
330
F106D4
100
AcDbEntity
8
Geo
100
AcDbLine
10
-50.1492293744334
20
7.72989229545739
30
0.000000000000000
11
-50.0492293744334
21
7.64794315114971
31
0.000000000000000
  0
LINE
  5
F106D5
330
F106D6
100
AcDbEntity
8
Geo
100
AcDbLine
10
-50.0492293744334
20
7.64794315114971
30
0.000000000000000
11
-49.9492293744334
21
7.56617385931054
31
0.000000000000000
  0
LINE
  5
F106D7
330
F106D8
100
AcDbEntity
8
Geo
100
AcDbLine
10
-49.9492293744334
20
7.56617385931054
30
0.000000000000000
11
-49.8492293744334
21
7.48460041212166
31
0.000000000000000
  0
LINE
  5
F106D9
330
F106DA
100
AcDbEntity
8
Geo
100
AcDbLine
10
-49.8492293744334
20
7.48460041212166
30
0.000000000000000
11
-49.7492293744334
21
7.40323876346217
31
0.000000000000000
  0
LINE
  5
F106DB
330
F106DC
100
AcDbEntity
8
Geo
100
AcDbLine
10
-49.7492293744334
20
7.40323876346217
30
0.000000000000000
11
-49.6492293744334
21
7.32210482578830
31
0.000000000000000
  0
LINE
  5
F106DD
330
F106DE
100
AcDbEntity
8
Geo
100
AcDbLine
10
-49.6492293744334
20
7.32210482578830
30
0.000000000000000
11
-49.5492293744334
21
7.24121446702125
31
0.000000000000000
  0
LINE
  5
F106DF
330
F106E0
100
AcDbEntity
8
Geo
100
AcDbLine
10
-49.5492293744334
20
7.24121446702125
30
0.000000000000000
11
-49.4492293744334
21
7.16058350744384
31
0.000000000000000
  0
LINE
  5
F106E1
330
F106E2
100
AcDbEntity
8
Geo
100
AcDbLine
10
-49.4492293744334
20
7.16058350744384
30
0.000000000000000
11
-49.3492293744334
21
7.08022771660640
31
0.000000000000000
  0
LINE
  5
F106E3
330
F106E4
100
AcDbEntity
8
Geo
100
AcDbLine
10
-49.3492293744334
20
7.08022771660640
30
0.000000000000000
11
-49.2492293744334
21
7.00016281024262
31
0.000000000000000
  0
LINE
  5
F106E5
330
F106E6
100
AcDbEntity
8
Geo
100
AcDbLine
10
-49.2492293744334
20
7.00016281024262
30
0.000000000000000
11
-49.1492293744334
21
6.92040444719592
31
0.000000000000000
  0
LINE
  5
F106E7
330
F106E8
100
AcDbEntity
8
Geo
100
AcDbLine
10
-49.1492293744334
20
6.92040444719592
30
0.000000000000000
11
-49.0492293744334
21
6.84096822635695
31
0.000000000000000
  0
LINE
  5
F106E9
330
F106EA
100
AcDbEntity
8
Geo
100
AcDbLine
10
-49.0492293744334
20
6.84096822635695
30
0.000000000000000
11
-48.9492293744334
21
6.76186968361278
31
0.000000000000000
  0
LINE
  5
F106EB
330
F106EC
100
AcDbEntity
8
Geo
100
AcDbLine
10
-48.9492293744334
20
6.76186968361278
30
0.000000000000000
11
-48.8492293744334
21
6.68312428880845
31
0.000000000000000
  0
LINE
  5
F106ED
330
F106EE
100
AcDbEntity
8
Geo
100
AcDbLine
10
-48.8492293744334
20
6.68312428880845
30
0.000000000000000
11
-48.7492293744334
21
6.60474744272146
31
0.000000000000000
  0
LINE
  5
F106EF
330
F106F0
100
AcDbEntity
8
Geo
100
AcDbLine
10
-48.7492293744334
20
6.60474744272146
30
0.000000000000000
11
-48.6492293744334
21
6.52675447404968
31
0.000000000000000
  0
LINE
  5
F106F1
330
F106F2
100
AcDbEntity
8
Geo
100
AcDbLine
10
-48.6492293744334
20
6.52675447404968
30
0.000000000000000
11
-48.5492293744334
21
6.44916063641347
31
0.000000000000000
  0
LINE
  5
F106F3
330
F106F4
100
AcDbEntity
8
Geo
100
AcDbLine
10
-48.5492293744334
20
6.44916063641347
30
0.000000000000000
11
-48.4492293744334
21
6.37198110537235
31
0.000000000000000
  0
LINE
  5
F106F5
330
F106F6
100
AcDbEntity
8
Geo
100
AcDbLine
10
-48.4492293744334
20
6.37198110537235
30
0.000000000000000
11
-48.3492293744334
21
6.29523097545710
31
0.000000000000000
  0
LINE
  5
F106F7
330
F106F8
100
AcDbEntity
8
Geo
100
AcDbLine
10
-48.3492293744334
20
6.29523097545710
30
0.000000000000000
11
-48.2492293744334
21
6.21892525721753
31
0.000000000000000
  0
LINE
  5
F106F9
330
F106FA
100
AcDbEntity
8
Geo
100
AcDbLine
10
-48.2492293744334
20
6.21892525721753
30
0.000000000000000
11
-48.1492293744334
21
6.14307887428685
31
0.000000000000000
  0
LINE
  5
F106FB
330
F106FC
100
AcDbEntity
8
Geo
100
AcDbLine
10
-48.1492293744334
20
6.14307887428685
30
0.000000000000000
11
-48.0492293744334
21
6.06770666046289
31
0.000000000000000
  0
LINE
  5
F106FD
330
F106FE
100
AcDbEntity
8
Geo
100
AcDbLine
10
-48.0492293744334
20
6.06770666046289
30
0.000000000000000
11
-47.9492293744334
21
5.99282335680695
31
0.000000000000000
  0
LINE
  5
F106FF
330
F10700
100
AcDbEntity
8
Geo
100
AcDbLine
10
-47.9492293744334
20
5.99282335680695
30
0.000000000000000
11
-47.8492293744334
21
5.91844360876086
31
0.000000000000000
  0
LINE
  5
F10701
330
F10702
100
AcDbEntity
8
Geo
100
AcDbLine
10
-47.8492293744334
20
5.91844360876086
30
0.000000000000000
11
-47.7492293744334
21
5.84458196328258
31
0.000000000000000
  0
LINE
  5
F10703
330
F10704
100
AcDbEntity
8
Geo
100
AcDbLine
10
-47.7492293744334
20
5.84458196328258
30
0.000000000000000
11
-47.6492293744334
21
5.77125286600121
31
0.000000000000000
  0
LINE
  5
F10705
330
F10706
100
AcDbEntity
8
Geo
100
AcDbLine
10
-47.6492293744334
20
5.77125286600121
30
0.000000000000000
11
-47.5492293744334
21
5.69847065839176
31
0.000000000000000
  0
LINE
  5
F10707
330
F10708
100
AcDbEntity
8
Geo
100
AcDbLine
10
-47.5492293744334
20
5.69847065839176
30
0.000000000000000
11
-47.4492293744334
21
5.62624957497023
31
0.000000000000000
  0
LINE
  5
F10709
330
F1070A
100
AcDbEntity
8
Geo
100
AcDbLine
10
-47.4492293744334
20
5.62624957497023
30
0.000000000000000
11
-47.3492293744334
21
5.55460374050976
31
0.000000000000000
  0
LINE
  5
F1070B
330
F1070C
100
AcDbEntity
8
Geo
100
AcDbLine
10
-47.3492293744334
20
5.55460374050976
30
0.000000000000000
11
-47.2492293744334
21
5.48354716727806
31
0.000000000000000
  0
LINE
  5
F1070D
330
F1070E
100
AcDbEntity
8
Geo
100
AcDbLine
10
-47.2492293744334
20
5.48354716727806
30
0.000000000000000
11
-47.1492293744334
21
5.41309375229700
31
0.000000000000000
  0
LINE
  5
F1070F
330
F10710
100
AcDbEntity
8
Geo
100
AcDbLine
10
-47.1492293744334
20
5.41309375229700
30
0.000000000000000
11
-47.0492293744334
21
5.34325727462465
31
0.000000000000000
  0
LINE
  5
F10711
330
F10712
100
AcDbEntity
8
Geo
100
AcDbLine
10
-47.0492293744334
20
5.34325727462465
30
0.000000000000000
11
-46.9492293744334
21
5.27405139266039
31
0.000000000000000
  0
LINE
  5
F10713
330
F10714
100
AcDbEntity
8
Geo
100
AcDbLine
10
-46.9492293744334
20
5.27405139266039
30
0.000000000000000
11
-46.8492293744334
21
5.20548964147370
31
0.000000000000000
  0
LINE
  5
F10715
330
F10716
100
AcDbEntity
8
Geo
100
AcDbLine
10
-46.8492293744334
20
5.20548964147370
30
0.000000000000000
11
-46.7492293744334
21
5.13758543015696
31
0.000000000000000
  0
LINE
  5
F10717
330
F10718
100
AcDbEntity
8
Geo
100
AcDbLine
10
-46.7492293744334
20
5.13758543015696
30
0.000000000000000
11
-46.6492293744334
21
5.07035203920298
31
0.000000000000000
  0
LINE
  5
F10719
330
F1071A
100
AcDbEntity
8
Geo
100
AcDbLine
10
-46.6492293744334
20
5.07035203920298
30
0.000000000000000
11
-46.5492293744334
21
5.00380261790761
31
0.000000000000000
  0
LINE
  5
F1071B
330
F1071C
100
AcDbEntity
8
Geo
100
AcDbLine
10
-46.5492293744334
20
5.00380261790761
30
0.000000000000000
11
-46.4492293744334
21
4.93795018179806
31
0.000000000000000
  0
LINE
  5
F1071D
330
F1071E
100
AcDbEntity
8
Geo
100
AcDbLine
10
-46.4492293744334
20
4.93795018179806
30
0.000000000000000
11
-46.3492293744334
21
4.87280761008738
31
0.000000000000000
  0
LINE
  5
F1071F
330
F10720
100
AcDbEntity
8
Geo
100
AcDbLine
10
-46.3492293744334
20
4.87280761008738
30
0.000000000000000
11
-46.2492293744334
21
4.80838764315554
31
0.000000000000000
  0
LINE
  5
F10721
330
F10722
100
AcDbEntity
8
Geo
100
AcDbLine
10
-46.2492293744334
20
4.80838764315554
30
0.000000000000000
11
-46.1492293744334
21
4.74470288005775
31
0.000000000000000
  0
LINE
  5
F10723
330
F10724
100
AcDbEntity
8
Geo
100
AcDbLine
10
-46.1492293744334
20
4.74470288005775
30
0.000000000000000
11
-46.0492293744334
21
4.68176577606036
31
0.000000000000000
  0
LINE
  5
F10725
330
F10726
100
AcDbEntity
8
Geo
100
AcDbLine
10
-46.0492293744334
20
4.68176577606036
30
0.000000000000000
11
-45.9492293744334
21
4.61958864020489
31
0.000000000000000
  0
LINE
  5
F10727
330
F10728
100
AcDbEntity
8
Geo
100
AcDbLine
10
-45.9492293744334
20
4.61958864020489
30
0.000000000000000
11
-45.8492293744334
21
4.55818363290066
31
0.000000000000000
  0
LINE
  5
F10729
330
F1072A
100
AcDbEntity
8
Geo
100
AcDbLine
10
-45.8492293744334
20
4.55818363290066
30
0.000000000000000
11
-45.7492293744334
21
4.49756276354654
31
0.000000000000000
  0
LINE
  5
F1072B
330
F1072C
100
AcDbEntity
8
Geo
100
AcDbLine
10
-45.7492293744334
20
4.49756276354654
30
0.000000000000000
11
-45.6492293744334
21
4.43773788818213
31
0.000000000000000
  0
LINE
  5
F1072D
330
F1072E
100
AcDbEntity
8
Geo
100
AcDbLine
10
-45.6492293744334
20
4.43773788818213
30
0.000000000000000
11
-45.5492293744334
21
4.37872070716903
31
0.000000000000000
  0
LINE
  5
F1072F
330
F10730
100
AcDbEntity
8
Geo
100
AcDbLine
10
-45.5492293744334
20
4.37872070716903
30
0.000000000000000
11
-45.4492293744334
21
4.32052276290251
31
0.000000000000000
  0
LINE
  5
F10731
330
F10732
100
AcDbEntity
8
Geo
100
AcDbLine
10
-45.4492293744334
20
4.32052276290251
30
0.000000000000000
11
-45.3492293744334
21
4.26315543755409
31
0.000000000000000
  0
LINE
  5
F10733
330
F10734
100
AcDbEntity
8
Geo
100
AcDbLine
10
-45.3492293744334
20
4.26315543755409
30
0.000000000000000
11
-45.2492293744334
21
4.20662995084544
31
0.000000000000000
  0
LINE
  5
F10735
330
F10736
100
AcDbEntity
8
Geo
100
AcDbLine
10
-45.2492293744334
20
4.20662995084544
30
0.000000000000000
11
-45.1492293744334
21
4.15095735785407
31
0.000000000000000
  0
LINE
  5
F10737
330
F10738
100
AcDbEntity
8
Geo
100
AcDbLine
10
-45.1492293744334
20
4.15095735785407
30
0.000000000000000
11
-45.0492293744334
21
4.09614854685121
31
0.000000000000000
  0
LINE
  5
F10739
330
F1073A
100
AcDbEntity
8
Geo
100
AcDbLine
10
-45.0492293744334
20
4.09614854685121
30
0.000000000000000
11
-44.9492293744334
21
4.04221423717231
31
0.000000000000000
  0
LINE
  5
F1073B
330
F1073C
100
AcDbEntity
8
Geo
100
AcDbLine
10
-44.9492293744334
20
4.04221423717231
30
0.000000000000000
11
-44.8492293744334
21
3.98916497712060
31
0.000000000000000
  0
LINE
  5
F1073D
330
F1073E
100
AcDbEntity
8
Geo
100
AcDbLine
10
-44.8492293744334
20
3.98916497712060
30
0.000000000000000
11
-44.7492293744334
21
3.93701114190408
31
0.000000000000000
  0
LINE
  5
F1073F
330
F10740
100
AcDbEntity
8
Geo
100
AcDbLine
10
-44.7492293744334
20
3.93701114190408
30
0.000000000000000
11
-44.6492293744334
21
3.88576293160636
31
0.000000000000000
  0
LINE
  5
F10741
330
F10742
100
AcDbEntity
8
Geo
100
AcDbLine
10
-44.6492293744334
20
3.88576293160636
30
0.000000000000000
11
-44.5492293744334
21
3.83543036919177
31
0.000000000000000
  0
LINE
  5
F10743
330
F10744
100
AcDbEntity
8
Geo
100
AcDbLine
10
-44.5492293744334
20
3.83543036919177
30
0.000000000000000
11
-44.4492293744334
21
3.78602329854509
31
0.000000000000000
  0
LINE
  5
F10745
330
F10746
100
AcDbEntity
8
Geo
100
AcDbLine
10
-44.4492293744334
20
3.78602329854509
30
0.000000000000000
11
-44.3492293744334
21
3.73755138254635
31
0.000000000000000
  0
LINE
  5
F10747
330
F10748
100
AcDbEntity
8
Geo
100
AcDbLine
10
-44.3492293744334
20
3.73755138254635
30
0.000000000000000
11
-44.2492293744334
21
3.69002410118092
31
0.000000000000000
  0
LINE
  5
F10749
330
F1074A
100
AcDbEntity
8
Geo
100
AcDbLine
10
-44.2492293744334
20
3.69002410118092
30
0.000000000000000
11
-44.1492293744334
21
3.64345074968553
31
0.000000000000000
  0
LINE
  5
F1074B
330
F1074C
100
AcDbEntity
8
Geo
100
AcDbLine
10
-44.1492293744334
20
3.64345074968553
30
0.000000000000000
11
-44.0492293744334
21
3.59784043673027
31
0.000000000000000
  0
LINE
  5
F1074D
330
F1074E
100
AcDbEntity
8
Geo
100
AcDbLine
10
-44.0492293744334
20
3.59784043673027
30
0.000000000000000
11
-43.9492293744334
21
3.55320208263718
31
0.000000000000000
  0
LINE
  5
F1074F
330
F10750
100
AcDbEntity
8
Geo
100
AcDbLine
10
-43.9492293744334
20
3.55320208263718
30
0.000000000000000
11
-43.8492293744334
21
3.50954441763564
31
0.000000000000000
  0
LINE
  5
F10751
330
F10752
100
AcDbEntity
8
Geo
100
AcDbLine
10
-43.8492293744334
20
3.50954441763564
30
0.000000000000000
11
-43.7492293744334
21
3.46687598015491
31
0.000000000000000
  0
LINE
  5
F10753
330
F10754
100
AcDbEntity
8
Geo
100
AcDbLine
10
-43.7492293744334
20
3.46687598015491
30
0.000000000000000
11
-43.6492293744334
21
3.42520511515427
31
0.000000000000000
  0
LINE
  5
F10755
330
F10756
100
AcDbEntity
8
Geo
100
AcDbLine
10
-43.6492293744334
20
3.42520511515427
30
0.000000000000000
11
-43.5492293744334
21
3.38453997249086
31
0.000000000000000
  0
LINE
  5
F10757
330
F10758
100
AcDbEntity
8
Geo
100
AcDbLine
10
-43.5492293744334
20
3.38453997249086
30
0.000000000000000
11
-43.4492293744334
21
3.34488850532582
31
0.000000000000000
  0
LINE
  5
F10759
330
F1075A
100
AcDbEntity
8
Geo
100
AcDbLine
10
-43.4492293744334
20
3.34488850532582
30
0.000000000000000
11
-43.3492293744334
21
3.30625846856881
31
0.000000000000000
  0
LINE
  5
F1075B
330
F1075C
100
AcDbEntity
8
Geo
100
AcDbLine
10
-43.3492293744334
20
3.30625846856881
30
0.000000000000000
11
-43.2492293744334
21
3.26865741736133
31
0.000000000000000
  0
LINE
  5
F1075D
330
F1075E
100
AcDbEntity
8
Geo
100
AcDbLine
10
-43.2492293744334
20
3.26865741736133
30
0.000000000000000
11
-43.1492293744334
21
3.23209270559911
31
0.000000000000000
  0
LINE
  5
F1075F
330
F10760
100
AcDbEntity
8
Geo
100
AcDbLine
10
-43.1492293744334
20
3.23209270559911
30
0.000000000000000
11
-43.0492293744334
21
3.19657148449387
31
0.000000000000000
  0
LINE
  5
F10761
330
F10762
100
AcDbEntity
8
Geo
100
AcDbLine
10
-43.0492293744334
20
3.19657148449387
30
0.000000000000000
11
-42.9492293744334
21
3.16210070117468
31
0.000000000000000
  0
LINE
  5
F10763
330
F10764
100
AcDbEntity
8
Geo
100
AcDbLine
10
-42.9492293744334
20
3.16210070117468
30
0.000000000000000
11
-42.8492293744334
21
3.12868709732930
31
0.000000000000000
  0
LINE
  5
F10765
330
F10766
100
AcDbEntity
8
Geo
100
AcDbLine
10
-42.8492293744334
20
3.12868709732930
30
0.000000000000000
11
-42.7492293744334
21
3.09633720788564
31
0.000000000000000
  0
LINE
  5
F10767
330
F10768
100
AcDbEntity
8
Geo
100
AcDbLine
10
-42.7492293744334
20
3.09633720788564
30
0.000000000000000
11
-42.6492293744334
21
3.06505735973366
31
0.000000000000000
  0
LINE
  5
F10769
330
F1076A
100
AcDbEntity
8
Geo
100
AcDbLine
10
-42.6492293744334
20
3.06505735973366
30
0.000000000000000
11
-42.5492293744334
21
3.03485367048803
31
0.000000000000000
  0
LINE
  5
F1076B
330
F1076C
100
AcDbEntity
8
Geo
100
AcDbLine
10
-42.5492293744334
20
3.03485367048803
30
0.000000000000000
11
-42.4492293744334
21
3.00573204729160
31
0.000000000000000
  0
LINE
  5
F1076D
330
F1076E
100
AcDbEntity
8
Geo
100
AcDbLine
10
-42.4492293744334
20
3.00573204729160
30
0.000000000000000
11
-42.3492293744334
21
2.97769818566017
31
0.000000000000000
  0
LINE
  5
F1076F
330
F10770
100
AcDbEntity
8
Geo
100
AcDbLine
10
-42.3492293744334
20
2.97769818566017
30
0.000000000000000
11
-42.2492293744334
21
2.95075756836851
31
0.000000000000000
  0
LINE
  5
F10771
330
F10772
100
AcDbEntity
8
Geo
100
AcDbLine
10
-42.2492293744334
20
2.95075756836851
30
0.000000000000000
11
-42.1492293744334
21
2.92491546437811
31
0.000000000000000
  0
LINE
  5
F10773
330
F10774
100
AcDbEntity
8
Geo
100
AcDbLine
10
-42.1492293744334
20
2.92491546437811
30
0.000000000000000
11
-42.0492293744334
21
2.90017692780666
31
0.000000000000000
  0
LINE
  5
F10775
330
F10776
100
AcDbEntity
8
Geo
100
AcDbLine
10
-42.0492293744334
20
2.90017692780666
30
0.000000000000000
11
-41.9492293744334
21
2.87654679693961
31
0.000000000000000
  0
LINE
  5
F10777
330
F10778
100
AcDbEntity
8
Geo
100
AcDbLine
10
-41.9492293744334
20
2.87654679693961
30
0.000000000000000
11
-41.8492293744334
21
2.85402969328388
31
0.000000000000000
  0
LINE
  5
F10779
330
F1077A
100
AcDbEntity
8
Geo
100
AcDbLine
10
-41.8492293744334
20
2.85402969328388
30
0.000000000000000
11
-41.7492293744334
21
2.83263002066401
31
0.000000000000000
  0
LINE
  5
F1077B
330
F1077C
100
AcDbEntity
8
Geo
100
AcDbLine
10
-41.7492293744334
20
2.83263002066401
30
0.000000000000000
11
-41.6492293744334
21
2.81235196436091
31
0.000000000000000
  0
LINE
  5
F1077D
330
F1077E
100
AcDbEntity
8
Geo
100
AcDbLine
10
-41.6492293744334
20
2.81235196436091
30
0.000000000000000
11
-41.5492293744334
21
2.79319949029326
31
0.000000000000000
  0
LINE
  5
F1077F
330
F10780
100
AcDbEntity
8
Geo
100
AcDbLine
10
-41.5492293744334
20
2.79319949029326
30
0.000000000000000
11
-41.4492293744334
21
2.77517634424191
31
0.000000000000000
  0
LINE
  5
F10781
330
F10782
100
AcDbEntity
8
Geo
100
AcDbLine
10
-41.4492293744334
20
2.77517634424191
30
0.000000000000000
11
-41.3492293744334
21
2.75828605111727
31
0.000000000000000
  0
LINE
  5
F10783
330
F10784
100
AcDbEntity
8
Geo
100
AcDbLine
10
-41.3492293744334
20
2.75828605111727
30
0.000000000000000
11
-41.2492293744334
21
2.74253191426992
31
0.000000000000000
  0
LINE
  5
F10785
330
F10786
100
AcDbEntity
8
Geo
100
AcDbLine
10
-41.2492293744334
20
2.74253191426992
30
0.000000000000000
11
-41.1492293744334
21
2.72791701484456
31
0.000000000000000
  0
LINE
  5
F10787
330
F10788
100
AcDbEntity
8
Geo
100
AcDbLine
10
-41.1492293744334
20
2.72791701484456
30
0.000000000000000
11
-41.0492293744334
21
2.71444421117742
31
0.000000000000000
  0
LINE
  5
F10789
330
F1078A
100
AcDbEntity
8
Geo
100
AcDbLine
10
-41.0492293744334
20
2.71444421117742
30
0.000000000000000
11
-40.9492293744334
21
2.70211613823720
31
0.000000000000000
  0
LINE
  5
F1078B
330
F1078C
100
AcDbEntity
8
Geo
100
AcDbLine
10
-40.9492293744334
20
2.70211613823720
30
0.000000000000000
11
-40.8492293744334
21
2.69093520710977
31
0.000000000000000
  0
LINE
  5
F1078D
330
F1078E
100
AcDbEntity
8
Geo
100
AcDbLine
10
-40.8492293744334
20
2.69093520710977
30
0.000000000000000
11
-40.7492293744334
21
2.68090360452659
31
0.000000000000000
  0
LINE
  5
F1078F
330
F10790
100
AcDbEntity
8
Geo
100
AcDbLine
10
-40.7492293744334
20
2.68090360452659
30
0.000000000000000
11
-40.6492293744334
21
2.67202329243705
31
0.000000000000000
  0
LINE
  5
F10791
330
F10792
100
AcDbEntity
8
Geo
100
AcDbLine
10
-40.6492293744334
20
2.67202329243705
30
0.000000000000000
11
-40.5492293744334
21
2.66429600762475
31
0.000000000000000
  0
LINE
  5
F10793
330
F10794
100
AcDbEntity
8
Geo
100
AcDbLine
10
-40.5492293744334
20
2.66429600762475
30
0.000000000000000
11
-40.4492293744334
21
2.65772326136783
31
0.000000000000000
  0
LINE
  5
F10795
330
F10796
100
AcDbEntity
8
Geo
100
AcDbLine
10
-40.4492293744334
20
2.65772326136783
30
0.000000000000000
11
-40.3492293744334
21
2.65230633914341
31
0.000000000000000
  0
LINE
  5
F10797
330
F10798
100
AcDbEntity
8
Geo
100
AcDbLine
10
-40.3492293744334
20
2.65230633914341
30
0.000000000000000
11
-40.2492293744334
21
2.64804630037615
31
0.000000000000000
  0
LINE
  5
F10799
330
F1079A
100
AcDbEntity
8
Geo
100
AcDbLine
10
-40.2492293744334
20
2.64804630037615
30
0.000000000000000
11
-40.1492293744334
21
2.64494397823108
31
0.000000000000000
  0
LINE
  5
F1079B
330
F1079C
100
AcDbEntity
8
Geo
100
AcDbLine
10
-40.1492293744334
20
2.64494397823108
30
0.000000000000000
11
-40.0492293744334
21
2.64299997945065
31
0.000000000000000
  0
LINE
  5
F1079D
330
F1079E
100
AcDbEntity
8
Geo
100
AcDbLine
10
-40.0492293744334
20
2.64299997945065
30
0.000000000000000
11
-39.9492293744334
21
2.64221468423604
31
0.000000000000000
  0
LINE
  5
F1079F
330
F107A0
100
AcDbEntity
8
Geo
100
AcDbLine
10
-39.9492293744334
20
2.64221468423604
30
0.000000000000000
11
-39.9314641884226
21
2.56754306436991
31
0.000000000000000
  0
LINE
  5
F107A1
330
F107A2
100
AcDbEntity
8
Geo
100
AcDbLine
10
-39.9314641884226
20
14.5675430643699
30
0.000000000000000
11
-39.8492293744334
21
14.4924978825670
31
0.000000000000000
  0
LINE
  5
F107A3
330
F107A4
100
AcDbEntity
8
Geo
100
AcDbLine
10
-39.8492293744334
20
14.4924978825670
30
0.000000000000000
11
-39.7492293744334
21
14.4909655365389
31
0.000000000000000
  0
LINE
  5
F107A5
330
F107A6
100
AcDbEntity
8
Geo
100
AcDbLine
10
-39.7492293744334
20
14.4909655365389
30
0.000000000000000
11
-39.6492293744334
21
14.4882747061109
31
0.000000000000000
  0
LINE
  5
F107A7
330
F107A8
100
AcDbEntity
8
Geo
100
AcDbLine
10
-39.6492293744334
20
14.4882747061109
30
0.000000000000000
11
-39.5492293744334
21
14.4844259175472
31
0.000000000000000
  0
LINE
  5
F107A9
330
F107AA
100
AcDbEntity
8
Geo
100
AcDbLine
10
-39.5492293744334
20
14.4844259175472
30
0.000000000000000
11
-39.4492293744334
21
14.4794199235818
31
0.000000000000000
  0
LINE
  5
F107AB
330
F107AC
100
AcDbEntity
8
Geo
100
AcDbLine
10
-39.4492293744334
20
14.4794199235818
30
0.000000000000000
11
-39.3492293744334
21
14.4732577032713
31
0.000000000000000
  0
LINE
  5
F107AD
330
F107AE
100
AcDbEntity
8
Geo
100
AcDbLine
10
-39.3492293744334
20
14.4732577032713
30
0.000000000000000
11
-39.2492293744334
21
14.4659404618034
31
0.000000000000000
  0
LINE
  5
F107AF
330
F107B0
100
AcDbEntity
8
Geo
100
AcDbLine
10
-39.2492293744334
20
14.4659404618034
30
0.000000000000000
11
-39.1492293744334
21
14.4574696302613
31
0.000000000000000
  0
LINE
  5
F107B1
330
F107B2
100
AcDbEntity
8
Geo
100
AcDbLine
10
-39.1492293744334
20
14.4574696302613
30
0.000000000000000
11
-39.0492293744334
21
14.4478468653436
31
0.000000000000000
  0
LINE
  5
F107B3
330
F107B4
100
AcDbEntity
8
Geo
100
AcDbLine
10
-39.0492293744334
20
14.4478468653436
30
0.000000000000000
11
-38.9492293744334
21
14.4370740490407
31
0.000000000000000
  0
LINE
  5
F107B5
330
F107B6
100
AcDbEntity
8
Geo
100
AcDbLine
10
-38.9492293744334
20
14.4370740490407
30
0.000000000000000
11
-38.8492293744334
21
14.4251532882660
31
0.000000000000000
  0
LINE
  5
F107B7
330
F107B8
100
AcDbEntity
8
Geo
100
AcDbLine
10
-38.8492293744334
20
14.4251532882660
30
0.000000000000000
11
-38.7492293744334
21
14.4120869144447
31
0.000000000000000
  0
LINE
  5
F107B9
330
F107BA
100
AcDbEntity
8
Geo
100
AcDbLine
10
-38.7492293744334
20
14.4120869144447
30
0.000000000000000
11
-38.6492293744334
21
14.3978774830571
31
0.000000000000000
  0
LINE
  5
F107BB
330
F107BC
100
AcDbEntity
8
Geo
100
AcDbLine
10
-38.6492293744334
20
14.3978774830571
30
0.000000000000000
11
-38.5492293744334
21
14.3825277731394
31
0.000000000000000
  0
LINE
  5
F107BD
330
F107BE
100
AcDbEntity
8
Geo
100
AcDbLine
10
-38.5492293744334
20
14.3825277731394
30
0.000000000000000
11
-38.4492293744334
21
14.3660407867396
31
0.000000000000000
  0
LINE
  5
F107BF
330
F107C0
100
AcDbEntity
8
Geo
100
AcDbLine
10
-38.4492293744334
20
14.3660407867396
30
0.000000000000000
11
-38.3492293744334
21
14.3484197483309
31
0.000000000000000
  0
LINE
  5
F107C1
330
F107C2
100
AcDbEntity
8
Geo
100
AcDbLine
10
-38.3492293744334
20
14.3484197483309
30
0.000000000000000
11
-38.2492293744334
21
14.3296681041808
31
0.000000000000000
  0
LINE
  5
F107C3
330
F107C4
100
AcDbEntity
8
Geo
100
AcDbLine
10
-38.2492293744334
20
14.3296681041808
30
0.000000000000000
11
-38.1492293744334
21
14.3097895216770
31
0.000000000000000
  0
LINE
  5
F107C5
330
F107C6
100
AcDbEntity
8
Geo
100
AcDbLine
10
-38.1492293744334
20
14.3097895216770
30
0.000000000000000
11
-38.0492293744334
21
14.2887878886104
31
0.000000000000000
  0
LINE
  5
F107C7
330
F107C8
100
AcDbEntity
8
Geo
100
AcDbLine
10
-38.0492293744334
20
14.2887878886104
30
0.000000000000000
11
-37.9492293744334
21
14.2666673124146
31
0.000000000000000
  0
LINE
  5
F107C9
330
F107CA
100
AcDbEntity
8
Geo
100
AcDbLine
10
-37.9492293744334
20
14.2666673124146
30
0.000000000000000
11
-37.8492293744334
21
14.2434321193624
31
0.000000000000000
  0
LINE
  5
F107CB
330
F107CC
100
AcDbEntity
8
Geo
100
AcDbLine
10
-37.8492293744334
20
14.2434321193624
30
0.000000000000000
11
-37.7492293744334
21
14.2190868537203
31
0.000000000000000
  0
LINE
  5
F107CD
330
F107CE
100
AcDbEntity
8
Geo
100
AcDbLine
10
-37.7492293744334
20
14.2190868537203
30
0.000000000000000
11
-37.6492293744334
21
14.1936362768587
31
0.000000000000000
  0
LINE
  5
F107CF
330
F107D0
100
AcDbEntity
8
Geo
100
AcDbLine
10
-37.6492293744334
20
14.1936362768587
30
0.000000000000000
11
-37.5492293744334
21
14.1670853663219
31
0.000000000000000
  0
LINE
  5
F107D1
330
F107D2
100
AcDbEntity
8
Geo
100
AcDbLine
10
-37.5492293744334
20
14.1670853663219
30
0.000000000000000
11
-37.4492293744334
21
14.1394393148537
31
0.000000000000000
  0
LINE
  5
F107D3
330
F107D4
100
AcDbEntity
8
Geo
100
AcDbLine
10
-37.4492293744334
20
14.1394393148537
30
0.000000000000000
11
-37.3492293744334
21
14.1107035293822
31
0.000000000000000
  0
LINE
  5
F107D5
330
F107D6
100
AcDbEntity
8
Geo
100
AcDbLine
10
-37.3492293744334
20
14.1107035293822
30
0.000000000000000
11
-37.2492293744334
21
14.0808836299622
31
0.000000000000000
  0
LINE
  5
F107D7
330
F107D8
100
AcDbEntity
8
Geo
100
AcDbLine
10
-37.2492293744334
20
14.0808836299622
30
0.000000000000000
11
-37.1492293744334
21
14.0499854486762
31
0.000000000000000
  0
LINE
  5
F107D9
330
F107DA
100
AcDbEntity
8
Geo
100
AcDbLine
10
-37.1492293744334
20
14.0499854486762
30
0.000000000000000
11
-37.0492293744334
21
14.0180150284935
31
0.000000000000000
  0
LINE
  5
F107DB
330
F107DC
100
AcDbEntity
8
Geo
100
AcDbLine
10
-37.0492293744334
20
14.0180150284935
30
0.000000000000000
11
-36.9492293744334
21
13.9849786220889
31
0.000000000000000
  0
LINE
  5
F107DD
330
F107DE
100
AcDbEntity
8
Geo
100
AcDbLine
10
-36.9492293744334
20
13.9849786220889
30
0.000000000000000
11
-36.8492293744334
21
13.9508826906191
31
0.000000000000000
  0
LINE
  5
F107DF
330
F107E0
100
AcDbEntity
8
Geo
100
AcDbLine
10
-36.8492293744334
20
13.9508826906191
30
0.000000000000000
11
-36.7492293744334
21
13.9157339024595
31
0.000000000000000
  0
LINE
  5
F107E1
330
F107E2
100
AcDbEntity
8
Geo
100
AcDbLine
10
-36.7492293744334
20
13.9157339024595
30
0.000000000000000
11
-36.6492293744334
21
13.8795391318999
31
0.000000000000000
  0
LINE
  5
F107E3
330
F107E4
100
AcDbEntity
8
Geo
100
AcDbLine
10
-36.6492293744334
20
13.8795391318999
30
0.000000000000000
11
-36.5492293744334
21
13.8423054578000
31
0.000000000000000
  0
LINE
  5
F107E5
330
F107E6
100
AcDbEntity
8
Geo
100
AcDbLine
10
-36.5492293744334
20
13.8423054578000
30
0.000000000000000
11
-36.4492293744334
21
13.8040401622053
31
0.000000000000000
  0
LINE
  5
F107E7
330
F107E8
100
AcDbEntity
8
Geo
100
AcDbLine
10
-36.4492293744334
20
13.8040401622053
30
0.000000000000000
11
-36.3492293744334
21
13.7647507289221
31
0.000000000000000
  0
LINE
  5
F107E9
330
F107EA
100
AcDbEntity
8
Geo
100
AcDbLine
10
-36.3492293744334
20
13.7647507289221
30
0.000000000000000
11
-36.2492293744334
21
13.7244448420548
31
0.000000000000000
  0
LINE
  5
F107EB
330
F107EC
100
AcDbEntity
8
Geo
100
AcDbLine
10
-36.2492293744334
20
13.7244448420548
30
0.000000000000000
11
-36.1492293744334
21
13.6831303845023
31
0.000000000000000
  0
LINE
  5
F107ED
330
F107EE
100
AcDbEntity
8
Geo
100
AcDbLine
10
-36.1492293744334
20
13.6831303845023
30
0.000000000000000
11
-36.0492293744334
21
13.6408154364168
31
0.000000000000000
  0
LINE
  5
F107EF
330
F107F0
100
AcDbEntity
8
Geo
100
AcDbLine
10
-36.0492293744334
20
13.6408154364168
30
0.000000000000000
11
-35.9492293744334
21
13.5975082736232
31
0.000000000000000
  0
LINE
  5
F107F1
330
F107F2
100
AcDbEntity
8
Geo
100
AcDbLine
10
-35.9492293744334
20
13.5975082736232
30
0.000000000000000
11
-35.8492293744334
21
13.5532173660005
31
0.000000000000000
  0
LINE
  5
F107F3
330
F107F4
100
AcDbEntity
8
Geo
100
AcDbLine
10
-35.8492293744334
20
13.5532173660005
30
0.000000000000000
11
-35.7492293744334
21
13.5079513758258
31
0.000000000000000
  0
LINE
  5
F107F5
330
F107F6
100
AcDbEntity
8
Geo
100
AcDbLine
10
-35.7492293744334
20
13.5079513758258
30
0.000000000000000
11
-35.6492293744334
21
13.4617191560794
31
0.000000000000000
  0
LINE
  5
F107F7
330
F107F8
100
AcDbEntity
8
Geo
100
AcDbLine
10
-35.6492293744334
20
13.4617191560794
30
0.000000000000000
11
-35.5492293744334
21
13.4145297487140
31
0.000000000000000
  0
LINE
  5
F107F9
330
F107FA
100
AcDbEntity
8
Geo
100
AcDbLine
10
-35.5492293744334
20
13.4145297487140
30
0.000000000000000
11
-35.4492293744334
21
13.3663923828859
31
0.000000000000000
  0
LINE
  5
F107FB
330
F107FC
100
AcDbEntity
8
Geo
100
AcDbLine
10
-50.4492293744334
20
14.2604226837400
30
0.000000000000000
11
-50.3492293744334
21
14.3529070068778
31
0.000000000000000
  0
LINE
  5
F107FD
330
F107FE
100
AcDbEntity
8
Geo
100
AcDbLine
10
-50.3492293744334
20
14.3529070068778
30
0.000000000000000
11
-50.2492293744334
21
14.4445232203969
31
0.000000000000000
  0
LINE
  5
F107FF
330
F10800
100
AcDbEntity
8
Geo
100
AcDbLine
10
-50.2492293744334
20
14.4445232203969
30
0.000000000000000
11
-50.1492293744334
21
14.4333826726560
31
0.000000000000000
  0
LINE
  5
F10801
330
F10802
100
AcDbEntity
8
Geo
100
AcDbLine
10
-50.1492293744334
20
14.4333826726560
30
0.000000000000000
11
-50.0492293744334
21
14.4210949023913
31
0.000000000000000
  0
LINE
  5
F10803
330
F10804
100
AcDbEntity
8
Geo
100
AcDbLine
10
-50.0492293744334
20
14.4210949023913
30
0.000000000000000
11
-49.9492293744334
21
14.4076623128063
31
0.000000000000000
  0
LINE
  5
F10805
330
F10806
100
AcDbEntity
8
Geo
100
AcDbLine
10
-49.9492293744334
20
14.4076623128063
30
0.000000000000000
11
-49.8492293744334
21
14.3930875310047
31
0.000000000000000
  0
LINE
  5
F10807
330
F10808
100
AcDbEntity
8
Geo
100
AcDbLine
10
-49.8492293744334
20
14.3930875310047
30
0.000000000000000
11
-49.7492293744334
21
14.3773734074768
31
0.000000000000000
  0
LINE
  5
F10809
330
F1080A
100
AcDbEntity
8
Geo
100
AcDbLine
10
-49.7492293744334
20
14.3773734074768
30
0.000000000000000
11
-49.6492293744334
21
14.3605230155416
31
0.000000000000000
  0
LINE
  5
F1080B
330
F1080C
100
AcDbEntity
8
Geo
100
AcDbLine
10
-49.6492293744334
20
14.3605230155416
30
0.000000000000000
11
-49.5492293744334
21
14.3425396507458
31
0.000000000000000
  0
LINE
  5
F1080D
330
F1080E
100
AcDbEntity
8
Geo
100
AcDbLine
10
-49.5492293744334
20
14.3425396507458
30
0.000000000000000
11
-49.4492293744334
21
14.3234268302197
31
0.000000000000000
  0
LINE
  5
F1080F
330
F10810
100
AcDbEntity
8
Geo
100
AcDbLine
10
-49.4492293744334
20
14.3234268302197
30
0.000000000000000
11
-49.3492293744334
21
14.3031882919886
31
0.000000000000000
  0
LINE
  5
F10811
330
F10812
100
AcDbEntity
8
Geo
100
AcDbLine
10
-49.3492293744334
20
14.3031882919886
30
0.000000000000000
11
-49.2492293744334
21
14.2818279942426
31
0.000000000000000
  0
LINE
  5
F10813
330
F10814
100
AcDbEntity
8
Geo
100
AcDbLine
10
-49.2492293744334
20
14.2818279942426
30
0.000000000000000
11
-49.1492293744334
21
14.2593501145616
31
0.000000000000000
  0
LINE
  5
F10815
330
F10816
100
AcDbEntity
8
Geo
100
AcDbLine
10
-49.1492293744334
20
14.2593501145616
30
0.000000000000000
11
-49.0492293744334
21
14.2357590490990
31
0.000000000000000
  0
LINE
  5
F10817
330
F10818
100
AcDbEntity
8
Geo
100
AcDbLine
10
-49.0492293744334
20
14.2357590490990
30
0.000000000000000
11
-48.9492293744334
21
14.2110594117214
31
0.000000000000000
  0
LINE
  5
F10819
330
F1081A
100
AcDbEntity
8
Geo
100
AcDbLine
10
-48.9492293744334
20
14.2110594117214
30
0.000000000000000
11
-48.8492293744334
21
14.1852560331064
31
0.000000000000000
  0
LINE
  5
F1081B
330
F1081C
100
AcDbEntity
8
Geo
100
AcDbLine
10
-48.8492293744334
20
14.1852560331064
30
0.000000000000000
11
-48.7492293744334
21
14.1583539597979
31
0.000000000000000
  0
LINE
  5
F1081D
330
F1081E
100
AcDbEntity
8
Geo
100
AcDbLine
10
-48.7492293744334
20
14.1583539597979
30
0.000000000000000
11
-48.6492293744334
21
14.1303584532191
31
0.000000000000000
  0
LINE
  5
F1081F
330
F10820
100
AcDbEntity
8
Geo
100
AcDbLine
10
-48.6492293744334
20
14.1303584532191
30
0.000000000000000
11
-48.5492293744334
21
14.1012749886434
31
0.000000000000000
  0
LINE
  5
F10821
330
F10822
100
AcDbEntity
8
Geo
100
AcDbLine
10
-48.5492293744334
20
14.1012749886434
30
0.000000000000000
11
-48.4492293744334
21
14.0711092541237
31
0.000000000000000
  0
LINE
  5
F10823
330
F10824
100
AcDbEntity
8
Geo
100
AcDbLine
10
-48.4492293744334
20
14.0711092541237
30
0.000000000000000
11
-48.3492293744334
21
14.0398671493798
31
0.000000000000000
  0
LINE
  5
F10825
330
F10826
100
AcDbEntity
8
Geo
100
AcDbLine
10
-48.3492293744334
20
14.0398671493798
30
0.000000000000000
11
-48.2492293744334
21
14.0075547846445
31
0.000000000000000
  0
LINE
  5
F10827
330
F10828
100
AcDbEntity
8
Geo
100
AcDbLine
10
-48.2492293744334
20
14.0075547846445
30
0.000000000000000
11
-48.1492293744334
21
13.9741784794689
31
0.000000000000000
  0
LINE
  5
F10829
330
F1082A
100
AcDbEntity
8
Geo
100
AcDbLine
10
-48.1492293744334
20
13.9741784794689
30
0.000000000000000
11
-48.0492293744334
21
13.9397447614862
31
0.000000000000000
  0
LINE
  5
F1082B
330
F1082C
100
AcDbEntity
8
Geo
100
AcDbLine
10
-48.0492293744334
20
13.9397447614862
30
0.000000000000000
11
-47.9492293744334
21
13.9042603651350
31
0.000000000000000
  0
LINE
  5
F1082D
330
F1082E
100
AcDbEntity
8
Geo
100
AcDbLine
10
-47.9492293744334
20
13.9042603651350
30
0.000000000000000
11
-47.8492293744334
21
13.8677322303422
31
0.000000000000000
  0
LINE
  5
F1082F
330
F10830
100
AcDbEntity
8
Geo
100
AcDbLine
10
-47.8492293744334
20
13.8677322303422
30
0.000000000000000
11
-47.7492293744334
21
13.8301675011660
31
0.000000000000000
  0
LINE
  5
F10831
330
F10832
100
AcDbEntity
8
Geo
100
AcDbLine
10
-47.7492293744334
20
13.8301675011660
30
0.000000000000000
11
-47.6492293744334
21
13.7915735243984
31
0.000000000000000
  0
LINE
  5
F10833
330
F10834
100
AcDbEntity
8
Geo
100
AcDbLine
10
-47.6492293744334
20
13.7915735243984
30
0.000000000000000
11
-47.5492293744334
21
13.7519578481283
31
0.000000000000000
  0
LINE
  5
F10835
330
F10836
100
AcDbEntity
8
Geo
100
AcDbLine
10
-47.5492293744334
20
13.7519578481283
30
0.000000000000000
11
-47.4492293744334
21
13.7113282202656
31
0.000000000000000
  0
LINE
  5
F10837
330
F10838
100
AcDbEntity
8
Geo
100
AcDbLine
10
-47.4492293744334
20
13.7113282202656
30
0.000000000000000
11
-47.3492293744334
21
13.6696925870256
31
0.000000000000000
  0
LINE
  5
F10839
330
F1083A
100
AcDbEntity
8
Geo
100
AcDbLine
10
-47.3492293744334
20
13.6696925870256
30
0.000000000000000
11
-47.2492293744334
21
13.6270590913748
31
0.000000000000000
  0
LINE
  5
F1083B
330
F1083C
100
AcDbEntity
8
Geo
100
AcDbLine
10
-47.2492293744334
20
13.6270590913748
30
0.000000000000000
11
-47.1492293744334
21
13.5834360714386
31
0.000000000000000
  0
LINE
  5
F1083D
330
F1083E
100
AcDbEntity
8
Geo
100
AcDbLine
10
-47.1492293744334
20
13.5834360714386
30
0.000000000000000
11
-47.0492293744334
21
13.5388320588707
31
0.000000000000000
  0
LINE
  5
F1083F
330
F10840
100
AcDbEntity
8
Geo
100
AcDbLine
10
-47.0492293744334
20
13.5388320588707
30
0.000000000000000
11
-46.9492293744334
21
13.4932557771840
31
0.000000000000000
  0
LINE
  5
F10841
330
F10842
100
AcDbEntity
8
Geo
100
AcDbLine
10
-46.9492293744334
20
13.4932557771840
30
0.000000000000000
11
-46.8492293744334
21
13.4467161400447
31
0.000000000000000
  0
LINE
  5
F10843
330
F10844
100
AcDbEntity
8
Geo
100
AcDbLine
10
-46.8492293744334
20
13.4467161400447
30
0.000000000000000
11
-46.7492293744334
21
13.3992222495293
31
0.000000000000000
  0
LINE
  5
F10845
330
F10846
100
AcDbEntity
8
Geo
100
AcDbLine
10
-46.7492293744334
20
13.3992222495293
30
0.000000000000000
11
-46.6492293744334
21
13.3507833943439
31
0.000000000000000
  0
LINE
  5
F10847
330
F10848
100
AcDbEntity
8
Geo
100
AcDbLine
10
-46.6492293744334
20
13.3507833943439
30
0.000000000000000
11
-46.5492293744334
21
13.3014090480081
31
0.000000000000000
  0
LINE
  5
F10849
330
F1084A
100
AcDbEntity
8
Geo
100
AcDbLine
10
-46.5492293744334
20
13.3014090480081
30
0.000000000000000
11
-46.4492293744334
21
13.2511088670017
31
0.000000000000000
  0
LINE
  5
F1084B
330
F1084C
100
AcDbEntity
8
Geo
100
AcDbLine
10
-46.4492293744334
20
13.2511088670017
30
0.000000000000000
11
-46.3492293744334
21
13.1998926888764
31
0.000000000000000
  0
LINE
  5
F1084D
330
F1084E
100
AcDbEntity
8
Geo
100
AcDbLine
10
-46.3492293744334
20
13.1998926888764
30
0.000000000000000
11
-46.2492293744334
21
13.1477705303319
31
0.000000000000000
  0
LINE
  5
F1084F
330
F10850
100
AcDbEntity
8
Geo
100
AcDbLine
10
-46.2492293744334
20
13.1477705303319
30
0.000000000000000
11
-46.1492293744334
21
13.0947525852565
31
0.000000000000000
  0
LINE
  5
F10851
330
F10852
100
AcDbEntity
8
Geo
100
AcDbLine
10
-46.1492293744334
20
13.0947525852565
30
0.000000000000000
11
-46.0492293744334
21
13.0408492227338
31
0.000000000000000
  0
LINE
  5
F10853
330
F10854
100
AcDbEntity
8
Geo
100
AcDbLine
10
-46.0492293744334
20
13.0408492227338
30
0.000000000000000
11
-45.9492293744334
21
12.9860709850143
31
0.000000000000000
  0
LINE
  5
F10855
330
F10856
100
AcDbEntity
8
Geo
100
AcDbLine
10
-45.9492293744334
20
12.9860709850143
30
0.000000000000000
11
-45.8492293744334
21
12.9304285854542
31
0.000000000000000
  0
LINE
  5
F10857
330
F10858
100
AcDbEntity
8
Geo
100
AcDbLine
10
-45.8492293744334
20
12.9304285854542
30
0.000000000000000
11
-45.7492293744334
21
12.8739329064195
31
0.000000000000000
  0
LINE
  5
F10859
330
F1085A
100
AcDbEntity
8
Geo
100
AcDbLine
10
-45.7492293744334
20
12.8739329064195
30
0.000000000000000
11
-45.6492293744334
21
12.8165949971581
31
0.000000000000000
  0
LINE
  5
F1085B
330
F1085C
100
AcDbEntity
8
Geo
100
AcDbLine
10
-45.6492293744334
20
12.8165949971581
30
0.000000000000000
11
-45.5492293744334
21
12.7584260716385
31
0.000000000000000
  0
LINE
  5
F1085D
330
F1085E
100
AcDbEntity
8
Geo
100
AcDbLine
10
-45.5492293744334
20
12.7584260716385
30
0.000000000000000
11
-45.4492293744334
21
12.6994375063568
31
0.000000000000000
  0
LINE
  5
F1085F
330
F10860
100
AcDbEntity
8
Geo
100
AcDbLine
10
-45.4492293744334
20
12.6994375063568
30
0.000000000000000
11
-45.3492293744334
21
12.6396408381117
31
0.000000000000000
  0
LINE
  5
F10861
330
F10862
100
AcDbEntity
8
Geo
100
AcDbLine
10
-45.3492293744334
20
12.6396408381117
30
0.000000000000000
11
-45.2492293744334
21
12.5790477617483
31
0.000000000000000
  0
LINE
  5
F10863
330
F10864
100
AcDbEntity
8
Geo
100
AcDbLine
10
-45.2492293744334
20
12.5790477617483
30
0.000000000000000
11
-45.1492293744334
21
12.5176701278703
31
0.000000000000000
  0
LINE
  5
F10865
330
F10866
100
AcDbEntity
8
Geo
100
AcDbLine
10
-45.1492293744334
20
12.5176701278703
30
0.000000000000000
11
-45.0492293744334
21
12.4555199405231
31
0.000000000000000
  0
LINE
  5
F10867
330
F10868
100
AcDbEntity
8
Geo
100
AcDbLine
10
-45.0492293744334
20
12.4555199405231
30
0.000000000000000
11
-44.9492293744334
21
12.3926093548455
31
0.000000000000000
  0
LINE
  5
F10869
330
F1086A
100
AcDbEntity
8
Geo
100
AcDbLine
10
-44.9492293744334
20
12.3926093548455
30
0.000000000000000
11
-44.8492293744334
21
12.3289506746926
31
0.000000000000000
  0
LINE
  5
F1086B
330
F1086C
100
AcDbEntity
8
Geo
100
AcDbLine
10
-44.8492293744334
20
12.3289506746926
30
0.000000000000000
11
-44.7492293744334
21
12.2645563502296
31
0.000000000000000
  0
LINE
  5
F1086D
330
F1086E
100
AcDbEntity
8
Geo
100
AcDbLine
10
-44.7492293744334
20
12.2645563502296
30
0.000000000000000
11
-44.6492293744334
21
12.1994389754966
31
0.000000000000000
  0
LINE
  5
F1086F
330
F10870
100
AcDbEntity
8
Geo
100
AcDbLine
10
-44.6492293744334
20
12.1994389754966
30
0.000000000000000
11
-44.5492293744334
21
12.1336112859456
31
0.000000000000000
  0
LINE
  5
F10871
330
F10872
100
AcDbEntity
8
Geo
100
AcDbLine
10
-44.5492293744334
20
12.1336112859456
30
0.000000000000000
11
-44.4492293744334
21
12.0670861559498
31
0.000000000000000
  0
LINE
  5
F10873
330
F10874
100
AcDbEntity
8
Geo
100
AcDbLine
10
-44.4492293744334
20
12.0670861559498
30
0.000000000000000
11
-44.3492293744334
21
11.9998765962857
31
0.000000000000000
  0
LINE
  5
F10875
330
F10876
100
AcDbEntity
8
Geo
100
AcDbLine
10
-44.3492293744334
20
11.9998765962857
30
0.000000000000000
11
-44.2492293744334
21
11.9319957515881
31
0.000000000000000
  0
LINE
  5
F10877
330
F10878
100
AcDbEntity
8
Geo
100
AcDbLine
10
-44.2492293744334
20
11.9319957515881
30
0.000000000000000
11
-44.1492293744334
21
11.8634568977801
31
0.000000000000000
  0
LINE
  5
F10879
330
F1087A
100
AcDbEntity
8
Geo
100
AcDbLine
10
-44.1492293744334
20
11.8634568977801
30
0.000000000000000
11
-44.0492293744334
21
11.7942734394756
31
0.000000000000000
  0
LINE
  5
F1087B
330
F1087C
100
AcDbEntity
8
Geo
100
AcDbLine
10
-44.0492293744334
20
11.7942734394756
30
0.000000000000000
11
-43.9492293744334
21
11.7244589073587
31
0.000000000000000
  0
LINE
  5
F1087D
330
F1087E
100
AcDbEntity
8
Geo
100
AcDbLine
10
-43.9492293744334
20
11.7244589073587
30
0.000000000000000
11
-43.8492293744334
21
11.6540269555368
31
0.000000000000000
  0
LINE
  5
F1087F
330
F10880
100
AcDbEntity
8
Geo
100
AcDbLine
10
-43.8492293744334
20
11.6540269555368
30
0.000000000000000
11
-43.7492293744334
21
11.5829913588701
31
0.000000000000000
  0
LINE
  5
F10881
330
F10882
100
AcDbEntity
8
Geo
100
AcDbLine
10
-43.7492293744334
20
11.5829913588701
30
0.000000000000000
11
-43.6492293744334
21
11.5113660102780
31
0.000000000000000
  0
LINE
  5
F10883
330
F10884
100
AcDbEntity
8
Geo
100
AcDbLine
10
-43.6492293744334
20
11.5113660102780
30
0.000000000000000
11
-43.5492293744334
21
11.4391649180217
31
0.000000000000000
  0
LINE
  5
F10885
330
F10886
100
AcDbEntity
8
Geo
100
AcDbLine
10
-43.5492293744334
20
11.4391649180217
30
0.000000000000000
11
-43.4492293744334
21
11.3664022029644
31
0.000000000000000
  0
LINE
  5
F10887
330
F10888
100
AcDbEntity
8
Geo
100
AcDbLine
10
-43.4492293744334
20
11.3664022029644
30
0.000000000000000
11
-43.3492293744334
21
11.2930920958100
31
0.000000000000000
  0
LINE
  5
F10889
330
F1088A
100
AcDbEntity
8
Geo
100
AcDbLine
10
-43.3492293744334
20
11.2930920958100
30
0.000000000000000
11
-43.2492293744334
21
11.2192489343194
31
0.000000000000000
  0
LINE
  5
F1088B
330
F1088C
100
AcDbEntity
8
Geo
100
AcDbLine
10
-43.2492293744334
20
11.2192489343194
30
0.000000000000000
11
-43.1492293744334
21
11.1448871605066
31
0.000000000000000
  0
LINE
  5
F1088D
330
F1088E
100
AcDbEntity
8
Geo
100
AcDbLine
10
-43.1492293744334
20
11.1448871605066
30
0.000000000000000
11
-43.0492293744334
21
11.0700213178143
31
0.000000000000000
  0
LINE
  5
F1088F
330
F10890
100
AcDbEntity
8
Geo
100
AcDbLine
10
-43.0492293744334
20
11.0700213178143
30
0.000000000000000
11
-42.9492293744334
21
10.9946660482693
31
0.000000000000000
  0
LINE
  5
F10891
330
F10892
100
AcDbEntity
8
Geo
100
AcDbLine
10
-42.9492293744334
20
10.9946660482693
30
0.000000000000000
11
-42.8492293744334
21
10.9188360896190
31
0.000000000000000
  0
LINE
  5
F10893
330
F10894
100
AcDbEntity
8
Geo
100
AcDbLine
10
-42.8492293744334
20
10.9188360896190
30
0.000000000000000
11
-42.7492293744334
21
10.8425462724491
31
0.000000000000000
  0
LINE
  5
F10895
330
F10896
100
AcDbEntity
8
Geo
100
AcDbLine
10
-42.7492293744334
20
10.8425462724491
30
0.000000000000000
11
-42.6492293744334
21
10.7658115172828
31
0.000000000000000
  0
LINE
  5
F10897
330
F10898
100
AcDbEntity
8
Geo
100
AcDbLine
10
-42.6492293744334
20
10.7658115172828
30
0.000000000000000
11
-42.5492293744334
21
10.6886468316630
31
0.000000000000000
  0
LINE
  5
F10899
330
F1089A
100
AcDbEntity
8
Geo
100
AcDbLine
10
-42.5492293744334
20
10.6886468316630
30
0.000000000000000
11
-42.4492293744334
21
10.6110673072172
31
0.000000000000000
  0
LINE
  5
F1089B
330
F1089C
100
AcDbEntity
8
Geo
100
AcDbLine
10
-42.4492293744334
20
10.6110673072172
30
0.000000000000000
11
-42.3492293744334
21
10.5330881167054
31
0.000000000000000
  0
LINE
  5
F1089D
330
F1089E
100
AcDbEntity
8
Geo
100
AcDbLine
10
-42.3492293744334
20
10.5330881167054
30
0.000000000000000
11
-42.2492293744334
21
10.4547245110534
31
0.000000000000000
  0
LINE
  5
F1089F
330
F108A0
100
AcDbEntity
8
Geo
100
AcDbLine
10
-42.2492293744334
20
10.4547245110534
30
0.000000000000000
11
-42.1492293744334
21
10.3759918163695
31
0.000000000000000
  0
LINE
  5
F108A1
330
F108A2
100
AcDbEntity
8
Geo
100
AcDbLine
10
-42.1492293744334
20
10.3759918163695
30
0.000000000000000
11
-42.0492293744334
21
10.2969054309473
31
0.000000000000000
  0
LINE
  5
F108A3
330
F108A4
100
AcDbEntity
8
Geo
100
AcDbLine
10
-42.0492293744334
20
10.2969054309473
30
0.000000000000000
11
-41.9492293744334
21
10.2174808222543
31
0.000000000000000
  0
LINE
  5
F108A5
330
F108A6
100
AcDbEntity
8
Geo
100
AcDbLine
10
-41.9492293744334
20
10.2174808222543
30
0.000000000000000
11
-41.8492293744334
21
10.1377335239063
31
0.000000000000000
  0
LINE
  5
F108A7
330
F108A8
100
AcDbEntity
8
Geo
100
AcDbLine
10
-41.8492293744334
20
10.1377335239063
30
0.000000000000000
11
-41.7492293744334
21
10.0576791326301
31
0.000000000000000
  0
LINE
  5
F108A9
330
F108AA
100
AcDbEntity
8
Geo
100
AcDbLine
10
-41.7492293744334
20
10.0576791326301
30
0.000000000000000
11
-41.6492293744334
21
9.97733330521262
31
0.000000000000000
  0
LINE
  5
F108AB
330
F108AC
100
AcDbEntity
8
Geo
100
AcDbLine
10
-41.6492293744334
20
9.97733330521262
30
0.000000000000000
11
-41.5492293744334
21
9.89671175543883
31
0.000000000000000
  0
LINE
  5
F108AD
330
F108AE
100
AcDbEntity
8
Geo
100
AcDbLine
10
-41.5492293744334
20
9.89671175543883
30
0.000000000000000
11
-41.4492293744334
21
9.81583025101877
31
0.000000000000000
  0
LINE
  5
F108AF
330
F108B0
100
AcDbEntity
8
Geo
100
AcDbLine
10
-41.4492293744334
20
9.81583025101877
30
0.000000000000000
11
-41.3492293744334
21
9.73470461050356
31
0.000000000000000
  0
LINE
  5
F108B1
330
F108B2
100
AcDbEntity
8
Geo
100
AcDbLine
10
-41.3492293744334
20
9.73470461050356
30
0.000000000000000
11
-41.2492293744334
21
9.65335070019168
31
0.000000000000000
  0
LINE
  5
F108B3
330
F108B4
100
AcDbEntity
8
Geo
100
AcDbLine
10
-41.2492293744334
20
9.65335070019168
30
0.000000000000000
11
-41.1492293744334
21
9.57178443102589
31
0.000000000000000
  0
LINE
  5
F108B5
330
F108B6
100
AcDbEntity
8
Geo
100
AcDbLine
10
-41.1492293744334
20
9.57178443102589
30
0.000000000000000
11
-41.0492293744334
21
9.49002175548144
31
0.000000000000000
  0
LINE
  5
F108B7
330
F108B8
100
AcDbEntity
8
Geo
100
AcDbLine
10
-41.0492293744334
20
9.49002175548144
30
0.000000000000000
11
-40.9492293744334
21
9.40807866444614
31
0.000000000000000
  0
LINE
  5
F108B9
330
F108BA
100
AcDbEntity
8
Geo
100
AcDbLine
10
-40.9492293744334
20
9.40807866444614
30
0.000000000000000
11
-40.8492293744334
21
9.32597118409286
31
0.000000000000000
  0
LINE
  5
F108BB
330
F108BC
100
AcDbEntity
8
Geo
100
AcDbLine
10
-40.8492293744334
20
9.32597118409286
30
0.000000000000000
11
-40.7492293744334
21
9.24371537274526
31
0.000000000000000
  0
LINE
  5
F108BD
330
F108BE
100
AcDbEntity
8
Geo
100
AcDbLine
10
-40.7492293744334
20
9.24371537274526
30
0.000000000000000
11
-40.6492293744334
21
9.16132731773707
31
0.000000000000000
  0
LINE
  5
F108BF
330
F108C0
100
AcDbEntity
8
Geo
100
AcDbLine
10
-40.6492293744334
20
9.16132731773707
30
0.000000000000000
11
-40.5492293744334
21
9.07882313226586
31
0.000000000000000
  0
LINE
  5
F108C1
330
F108C2
100
AcDbEntity
8
Geo
100
AcDbLine
10
-40.5492293744334
20
9.07882313226586
30
0.000000000000000
11
-40.4492293744334
21
8.99621895224159
31
0.000000000000000
  0
LINE
  5
F108C3
330
F108C4
100
AcDbEntity
8
Geo
100
AcDbLine
10
-40.4492293744334
20
8.99621895224159
30
0.000000000000000
11
-40.3492293744334
21
8.91353093313087
31
0.000000000000000
  0
LINE
  5
F108C5
330
F108C6
100
AcDbEntity
8
Geo
100
AcDbLine
10
-40.3492293744334
20
8.91353093313087
30
0.000000000000000
11
-40.2492293744334
21
8.83077524679730
31
0.000000000000000
  0
LINE
  5
F108C7
330
F108C8
100
AcDbEntity
8
Geo
100
AcDbLine
10
-40.2492293744334
20
8.83077524679730
30
0.000000000000000
11
-40.1492293744334
21
8.74796807833860
31
0.000000000000000
  0
LINE
  5
F108C9
330
F108CA
100
AcDbEntity
8
Geo
100
AcDbLine
10
-40.1492293744334
20
8.74796807833860
30
0.000000000000000
11
-40.0492293744334
21
8.66512562292121
31
0.000000000000000
  0
LINE
  5
F108CB
330
F108CC
100
AcDbEntity
8
Geo
100
AcDbLine
10
-40.0492293744334
20
8.66512562292121
30
0.000000000000000
11
-39.9492293744334
21
8.58226408261291
31
0.000000000000000
  0
LINE
  5
F108CD
330
F108CE
100
AcDbEntity
8
Geo
100
AcDbLine
10
-39.9492293744334
20
8.58226408261291
30
0.000000000000000
11
-39.8492293744334
21
8.49939966321399
31
0.000000000000000
  0
LINE
  5
F108CF
330
F108D0
100
AcDbEntity
8
Geo
100
AcDbLine
10
-39.8492293744334
20
8.49939966321399
30
0.000000000000000
11
-39.7492293744334
21
8.41654857108788
31
0.000000000000000
  0
LINE
  5
F108D1
330
F108D2
100
AcDbEntity
8
Geo
100
AcDbLine
10
-39.7492293744334
20
8.41654857108788
30
0.000000000000000
11
-39.6492293744334
21
8.33372700999147
31
0.000000000000000
  0
LINE
  5
F108D3
330
F108D4
100
AcDbEntity
8
Geo
100
AcDbLine
10
-39.6492293744334
20
8.33372700999147
30
0.000000000000000
11
-39.5492293744334
21
8.25095117790606
31
0.000000000000000
  0
LINE
  5
F108D5
330
F108D6
100
AcDbEntity
8
Geo
100
AcDbLine
10
-39.5492293744334
20
8.25095117790606
30
0.000000000000000
11
-39.4492293744334
21
8.16823726386944
31
0.000000000000000
  0
LINE
  5
F108D7
330
F108D8
100
AcDbEntity
8
Geo
100
AcDbLine
10
-39.4492293744334
20
8.16823726386944
30
0.000000000000000
11
-39.3492293744334
21
8.08560144480964
31
0.000000000000000
  0
LINE
  5
F108D9
330
F108DA
100
AcDbEntity
8
Geo
100
AcDbLine
10
-39.3492293744334
20
8.08560144480964
30
0.000000000000000
11
-39.2492293744334
21
8.00305988238112
31
0.000000000000000
  0
LINE
  5
F108DB
330
F108DC
100
AcDbEntity
8
Geo
100
AcDbLine
10
-39.2492293744334
20
8.00305988238112
30
0.000000000000000
11
-39.1492293744334
21
7.92062871980395
31
0.000000000000000
  0
LINE
  5
F108DD
330
F108DE
100
AcDbEntity
8
Geo
100
AcDbLine
10
-39.1492293744334
20
7.92062871980395
30
0.000000000000000
11
-39.0492293744334
21
7.83832407870650
31
0.000000000000000
  0
LINE
  5
F108DF
330
F108E0
100
AcDbEntity
8
Geo
100
AcDbLine
10
-39.0492293744334
20
7.83832407870650
30
0.000000000000000
11
-38.9492293744334
21
7.75616205597250
31
0.000000000000000
  0
LINE
  5
F108E1
330
F108E2
100
AcDbEntity
8
Geo
100
AcDbLine
10
-38.9492293744334
20
7.75616205597250
30
0.000000000000000
11
-38.8492293744334
21
7.67415872059282
31
0.000000000000000
  0
LINE
  5
F108E3
330
F108E4
100
AcDbEntity
8
Geo
100
AcDbLine
10
-38.8492293744334
20
7.67415872059282
30
0.000000000000000
11
-38.7492293744334
21
7.59233011052274
31
0.000000000000000
  0
LINE
  5
F108E5
330
F108E6
100
AcDbEntity
8
Geo
100
AcDbLine
10
-38.7492293744334
20
7.59233011052274
30
0.000000000000000
11
-38.6492293744334
21
7.51069222954533
31
0.000000000000000
  0
LINE
  5
F108E7
330
F108E8
100
AcDbEntity
8
Geo
100
AcDbLine
10
-38.6492293744334
20
7.51069222954533
30
0.000000000000000
11
-38.5492293744334
21
7.42926104414146
31
0.000000000000000
  0
LINE
  5
F108E9
330
F108EA
100
AcDbEntity
8
Geo
100
AcDbLine
10
-38.5492293744334
20
7.42926104414146
30
0.000000000000000
11
-38.4492293744334
21
7.34805248036710
31
0.000000000000000
  0
LINE
  5
F108EB
330
F108EC
100
AcDbEntity
8
Geo
100
AcDbLine
10
-38.4492293744334
20
7.34805248036710
30
0.000000000000000
11
-38.3492293744334
21
7.26708242073862
31
0.000000000000000
  0
LINE
  5
F108ED
330
F108EE
100
AcDbEntity
8
Geo
100
AcDbLine
10
-38.3492293744334
20
7.26708242073862
30
0.000000000000000
11
-38.2492293744334
21
7.18636670112648
31
0.000000000000000
  0
LINE
  5
F108EF
330
F108F0
100
AcDbEntity
8
Geo
100
AcDbLine
10
-38.2492293744334
20
7.18636670112648
30
0.000000000000000
11
-38.1492293744334
21
7.10592110765810
31
0.000000000000000
  0
LINE
  5
F108F1
330
F108F2
100
AcDbEntity
8
Geo
100
AcDbLine
10
-38.1492293744334
20
7.10592110765810
30
0.000000000000000
11
-38.0492293744334
21
7.02576137363050
31
0.000000000000000
  0
LINE
  5
F108F3
330
F108F4
100
AcDbEntity
8
Geo
100
AcDbLine
10
-38.0492293744334
20
7.02576137363050
30
0.000000000000000
11
-37.9492293744334
21
6.94590317643319
31
0.000000000000000
  0
LINE
  5
F108F5
330
F108F6
100
AcDbEntity
8
Geo
100
AcDbLine
10
-37.9492293744334
20
6.94590317643319
30
0.000000000000000
11
-37.8492293744334
21
6.86636213448208
31
0.000000000000000
  0
LINE
  5
F108F7
330
F108F8
100
AcDbEntity
8
Geo
100
AcDbLine
10
-37.8492293744334
20
6.86636213448208
30
0.000000000000000
11
-37.7492293744334
21
6.78715380416480
31
0.000000000000000
  0
LINE
  5
F108F9
330
F108FA
100
AcDbEntity
8
Geo
100
AcDbLine
10
-37.7492293744334
20
6.78715380416480
30
0.000000000000000
11
-37.6492293744334
21
6.70829367679833
31
0.000000000000000
  0
LINE
  5
F108FB
330
F108FC
100
AcDbEntity
8
Geo
100
AcDbLine
10
-37.6492293744334
20
6.70829367679833
30
0.000000000000000
11
-37.5492293744334
21
6.62979717559919
31
0.000000000000000
  0
LINE
  5
F108FD
330
F108FE
100
AcDbEntity
8
Geo
100
AcDbLine
10
-37.5492293744334
20
6.62979717559919
30
0.000000000000000
11
-37.4492293744334
21
6.55167965266703
31
0.000000000000000
  0
LINE
  5
F108FF
330
F10900
100
AcDbEntity
8
Geo
100
AcDbLine
10
-37.4492293744334
20
6.55167965266703
30
0.000000000000000
11
-37.3492293744334
21
6.47395638598212
31
0.000000000000000
  0
LINE
  5
F10901
330
F10902
100
AcDbEntity
8
Geo
100
AcDbLine
10
-37.3492293744334
20
6.47395638598212
30
0.000000000000000
11
-37.2492293744334
21
6.39664257641734
31
0.000000000000000
  0
LINE
  5
F10903
330
F10904
100
AcDbEntity
8
Geo
100
AcDbLine
10
-37.2492293744334
20
6.39664257641734
30
0.000000000000000
11
-37.1492293744334
21
6.31975334476521
31
0.000000000000000
  0
LINE
  5
F10905
330
F10906
100
AcDbEntity
8
Geo
100
AcDbLine
10
-37.1492293744334
20
6.31975334476521
30
0.000000000000000
11
-37.0492293744334
21
6.24330372878065
31
0.000000000000000
  0
LINE
  5
F10907
330
F10908
100
AcDbEntity
8
Geo
100
AcDbLine
10
-37.0492293744334
20
6.24330372878065
30
0.000000000000000
11
-36.9492293744334
21
6.16730868023992
31
0.000000000000000
  0
LINE
  5
F10909
330
F1090A
100
AcDbEntity
8
Geo
100
AcDbLine
10
-36.9492293744334
20
6.16730868023992
30
0.000000000000000
11
-36.8492293744334
21
6.09178306201640
31
0.000000000000000
  0
LINE
  5
F1090B
330
F1090C
100
AcDbEntity
8
Geo
100
AcDbLine
10
-36.8492293744334
20
6.09178306201640
30
0.000000000000000
11
-36.7492293744334
21
6.01674164517377
31
0.000000000000000
  0
LINE
  5
F1090D
330
F1090E
100
AcDbEntity
8
Geo
100
AcDbLine
10
-36.7492293744334
20
6.01674164517377
30
0.000000000000000
11
-36.6492293744334
21
5.94219910607711
31
0.000000000000000
  0
LINE
  5
F1090F
330
F10910
100
AcDbEntity
8
Geo
100
AcDbLine
10
-36.6492293744334
20
5.94219910607711
30
0.000000000000000
11
-36.5492293744334
21
5.86817002352257
31
0.000000000000000
  0
LINE
  5
F10911
330
F10912
100
AcDbEntity
8
Geo
100
AcDbLine
10
-36.5492293744334
20
5.86817002352257
30
0.000000000000000
11
-36.4492293744334
21
5.79466887588605
31
0.000000000000000
  0
LINE
  5
F10913
330
F10914
100
AcDbEntity
8
Geo
100
AcDbLine
10
-36.4492293744334
20
5.79466887588605
30
0.000000000000000
11
-36.3492293744334
21
5.72171003829164
31
0.000000000000000
  0
LINE
  5
F10915
330
F10916
100
AcDbEntity
8
Geo
100
AcDbLine
10
-36.3492293744334
20
5.72171003829164
30
0.000000000000000
11
-36.2492293744334
21
5.64930777980007
31
0.000000000000000
  0
LINE
  5
F10917
330
F10918
100
AcDbEntity
8
Geo
100
AcDbLine
10
-36.2492293744334
20
5.64930777980007
30
0.000000000000000
11
-36.1492293744334
21
5.57747626061814
31
0.000000000000000
  0
LINE
  5
F10919
330
F1091A
100
AcDbEntity
8
Geo
100
AcDbLine
10
-36.1492293744334
20
5.57747626061814
30
0.000000000000000
11
-36.0492293744334
21
5.50622952932919
31
0.000000000000000
  0
LINE
  5
F1091B
330
F1091C
100
AcDbEntity
8
Geo
100
AcDbLine
10
-36.0492293744334
20
5.50622952932919
30
0.000000000000000
11
-35.9492293744334
21
5.43558152014561
31
0.000000000000000
  0
LINE
  5
F1091D
330
F1091E
100
AcDbEntity
8
Geo
100
AcDbLine
10
-35.9492293744334
20
5.43558152014561
30
0.000000000000000
11
-35.8492293744334
21
5.36554605018358
31
0.000000000000000
  0
LINE
  5
F1091F
330
F10920
100
AcDbEntity
8
Geo
100
AcDbLine
10
-35.8492293744334
20
5.36554605018358
30
0.000000000000000
11
-35.7492293744334
21
5.29613681676080
31
0.000000000000000
  0
LINE
  5
F10921
330
F10922
100
AcDbEntity
8
Geo
100
AcDbLine
10
-35.7492293744334
20
5.29613681676080
30
0.000000000000000
11
-35.6492293744334
21
5.22736739471756
31
0.000000000000000
  0
LINE
  5
F10923
330
F10924
100
AcDbEntity
8
Geo
100
AcDbLine
10
-35.6492293744334
20
5.22736739471756
30
0.000000000000000
11
-35.5492293744334
21
5.15925123376187
31
0.000000000000000
  0
LINE
  5
F10925
330
F10926
100
AcDbEntity
8
Geo
100
AcDbLine
10
-35.5492293744334
20
5.15925123376187
30
0.000000000000000
11
-35.4492293744334
21
5.09180165583898
31
0.000000000000000
  0
LINE
  5
F10927
330
F10928
100
AcDbEntity
8
Geo
100
AcDbLine
10
57.5507706255666
20
13.5675430643699
30
0.000000000000000
11
57.5507706255666
21
8.56754306436991
31
0.000000000000000
  0
LINE
  5
F10929
330
F1092A
100
AcDbEntity
8
Geo
100
AcDbLine
10
-50.4492293744334
20
8.56754306436991
30
0.000000000000000
11
-50.4492293744334
21
2.76754306436991
31
0.000000000000000
  0
LINE
  5
F1092B
330
F1092C
100
AcDbEntity
8
Geo
100
AcDbLine
10
-50.4492293744334
20
2.76754306436991
30
0.000000000000000
11
-50.2492293744334
21
2.56754306436991
31
0.000000000000000
  0
LINE
  5
F1092D
330
F1092E
100
AcDbEntity
8
Geo
100
AcDbLine
10
-50.2492293744334
20
2.56754306436991
30
0.000000000000000
11
-30.4492293744334
21
2.56754306436991
31
0.000000000000000
  0
LINE
  5
F1092F
330
F10930
100
AcDbEntity
8
Geo
100
AcDbLine
10
-30.4492293744334
20
2.56754306436991
30
0.000000000000000
11
-30.4492293744334
21
2.86754306436991
31
0.000000000000000
  0
LINE
  5
F10931
330
F10932
100
AcDbEntity
8
Geo
100
AcDbLine
10
-30.4492293744334
20
2.86754306436991
30
0.000000000000000
11
11.5507706255666
21
2.86754306436991
31
0.000000000000000
  0
LINE
  5
F10933
330
F10934
100
AcDbEntity
8
Geo
100
AcDbLine
10
11.5507706255666
20
2.86754306436991
30
0.000000000000000
11
11.5507706255666
21
2.56754306436991
31
0.000000000000000
  0
LINE
  5
F10935
330
F10936
100
AcDbEntity
8
Geo
100
AcDbLine
10
11.5507706255666
20
2.56754306436991
30
0.000000000000000
11
56.5507706255666
21
2.56754306436991
31
0.000000000000000
  0
LINE
  5
F10937
330
F10938
100
AcDbEntity
8
Geo
100
AcDbLine
10
56.5507706255666
20
2.56754306436991
30
0.000000000000000
11
57.5507706255666
21
3.56754306436991
31
0.000000000000000
  0
LINE
  5
F10939
330
F1093A
100
AcDbEntity
8
Geo
100
AcDbLine
10
-50.4492293744334
20
14.3675430643699
30
0.000000000000000
11
-50.4492293744334
21
2.76754306436991
31
0.000000000000000
  0
LINE
  5
F1093B
330
F1093C
100
AcDbEntity
8
Geo
100
AcDbLine
10
-50.2492293744334
20
14.5675430643699
30
0.000000000000000
11
-50.2492293744334
21
2.56754306436991
31
0.000000000000000
  0
LINE
  5
F1093D
330
F1093E
100
AcDbEntity
8
Geo
100
AcDbLine
10
-50.2492293744334
20
14.5675430643699
30
0.000000000000000
11
-50.2492293744334
21
2.56754306436991
31
0.000000000000000
  0
LINE
  5
F1093F
330
F10940
100
AcDbEntity
8
Geo
100
AcDbLine
10
-30.4492293744334
20
14.5675430643699
30
0.000000000000000
11
-30.4492293744334
21
2.56754306436991
31
0.000000000000000
  0
LINE
  5
F10941
330
F10942
100
AcDbEntity
8
Geo
100
AcDbLine
10
-30.4492293744334
20
14.2675430643699
30
0.000000000000000
11
-30.4492293744334
21
2.86754306436991
31
0.000000000000000
  0
LINE
  5
F10943
330
F10944
100
AcDbEntity
8
Geo
100
AcDbLine
10
11.5507706255666
20
14.2675430643699
30
0.000000000000000
11
11.5507706255666
21
2.86754306436991
31
0.000000000000000
  0
LINE
  5
F10945
330
F10946
100
AcDbEntity
8
Geo
100
AcDbLine
10
11.5507706255666
20
14.2675430643699
30
0.000000000000000
11
11.5507706255666
21
2.86754306436991
31
0.000000000000000
  0
LINE
  5
F10947
330
F10948
100
AcDbEntity
8
Geo
100
AcDbLine
10
56.5507706255666
20
14.5675430643699
30
0.000000000000000
11
56.5507706255666
21
2.56754306436991
31
0.000000000000000
  0
LINE
  5
F10949
330
F1094A
100
AcDbEntity
8
Geo
100
AcDbLine
10
57.5507706255666
20
13.5675430643699
30
0.000000000000000
11
57.5507706255666
21
3.56754306436991
31
0.000000000000000
  0
LINE
  5
F1094B
330
F1094C
100
AcDbEntity
8
Geo
 6
Dashdot
100
AcDbLine
10
-50.4492293744334
20
8.56754306436991
30
0.000000000000000
11
57.5507706255666
21
8.56754306436991
31
0.000000000000000
  0
LWPOLYLINE
  5
F1094D
330
F1094E
100
AcDbEntity
8
Rahmen
100
AcDbPolyline
90
   4
70
   1
43
   0.0
 10
-134.605621033545
 20
99.8594741613781
 10
143.363553943790
 20
99.8594741613781
 10
143.363553943790
 20
-100.049864007253
 10
-134.605621033545
 20
-100.049864007253
  0
TEXT
  5
F1094F
330
F10950
 100
AcDbEntity
8
Text
100
AcDbText
10
-133.653671804170
20
-99.5498640072529
30
0.000000000000000
40
1.00000000000000
1
ISBESketcher - ©ISBE GmbH      lizensiert für: Schmid Werkzeuge
100
AcDbText
  0
LWPOLYLINE
  5
F10951
330
F10952
100
AcDbEntity
8
Rahmen
100
AcDbPolyline
90
   4
70
   1
43
   0.0
 10
103.381686310063
 20
-97.0036264732548
 10
143.363553943790
 20
-97.0036264732548
 10
143.363553943790
 20
-100.049864007253
 10
103.381686310063
 20
-100.049864007253
  0
TEXT
  5
F10953
330
F10954
 100
AcDbEntity
8
Text
100
AcDbText
10
104.500000000000
20
-99.5231187669991
30
0.000000000000000
40
1.50000000000000
1
Ers. durch:
100
AcDbText
  0
TEXT
  5
F10955
330
F10956
 100
AcDbEntity
8
Text
100
AcDbText
10
0.000000000000000
20
0.500000000000000
30
0.000000000000000
40
1.50000000000000
1

100
AcDbText
  0
LWPOLYLINE
  5
F10957
330
F10958
100
AcDbEntity
8
Rahmen
100
AcDbPolyline
90
   4
70
   1
43
   0.0
 10
63.3998186763372
 20
-97.0036264732548
 10
103.381686310063
 20
-97.0036264732548
 10
103.381686310063
 20
-100.049864007253
 10
63.3998186763372
 20
-100.049864007253
  0
TEXT
  5
F10959
330
F1095A
 100
AcDbEntity
8
Text
100
AcDbText
10
64.5000000000000
20
-99.5231187669991
30
0.000000000000000
40
1.50000000000000
1
Ers. für:
100
AcDbText
  0
TEXT
  5
F1095B
330
F1095C
 100
AcDbEntity
8
Text
100
AcDbText
10
0.000000000000000
20
0.500000000000000
30
0.000000000000000
40
1.50000000000000
1

100
AcDbText
  0
LWPOLYLINE
  5
F1095D
330
F1095E
100
AcDbEntity
8
Rahmen
100
AcDbPolyline
90
   4
70
   1
43
   0.0
 10
130.036264732548
 20
-94.1477787851315
 10
143.363553943790
 20
-94.1477787851315
 10
143.363553943790
 20
-97.0036264732548
 10
130.036264732548
 20
-97.0036264732548
  0
TEXT
  5
F1095F
330
F10960
 100
AcDbEntity
8
Text
100
AcDbText
10
131.166666666667
20
-96.5231187669991
30
0.000000000000000
40
1.50000000000000
1
Blätter
100
AcDbText
  0
TEXT
  5
F10961
330
F10962
 100
AcDbEntity
8
Text
100
AcDbText
10
0.000000000000000
20
0.500000000000000
30
0.000000000000000
40
1.50000000000000
1

100
AcDbText
  0
LWPOLYLINE
  5
F10963
330
F10964
100
AcDbEntity
8
Rahmen
100
AcDbPolyline
90
   4
70
   1
43
   0.0
 10
130.036264732548
 20
-91.1015412511333
 10
143.363553943790
 20
-91.1015412511333
 10
143.363553943790
 20
-94.1477787851315
 10
130.036264732548
 20
-94.1477787851315
  0
TEXT
  5
F10965
330
F10966
 100
AcDbEntity
8
Text
100
AcDbText
10
131.166666666667
20
-93.5231187669991
30
0.000000000000000
40
1.50000000000000
1
Blatt
100
AcDbText
  0
TEXT
  5
F10967
330
F10968
 100
AcDbEntity
8
Text
100
AcDbText
10
0.000000000000000
20
0.500000000000000
30
0.000000000000000
40
1.50000000000000
1

100
AcDbText
  0
LWPOLYLINE
  5
F10969
330
F1096A
100
AcDbEntity
8
Rahmen
100
AcDbPolyline
90
   4
70
   1
43
   0.0
 10
63.3998186763372
 20
-91.1015412511333
 10
130.036264732548
 20
-91.1015412511333
 10
130.036264732548
 20
-97.0036264732548
 10
63.3998186763372
 20
-97.0036264732548
  0
TEXT
  5
F1096B
330
F1096C
 100
AcDbEntity
8
Text
100
AcDbText
10
64.5000000000000
20
-93.5231187669991
30
0.000000000000000
40
1.50000000000000
1
Datum:
100
AcDbText
  0
TEXT
  5
F1096D
330
F1096E
 100
AcDbEntity
8
Text
100
AcDbText
10
90.6456633423995
20
-96.5231187669991
30
0.000000000000000
40
1.50000000000000
1
26.03.2020
100
AcDbText
  0
LWPOLYLINE
  5
F1096F
330
F10970
100
AcDbEntity
8
Rahmen
100
AcDbPolyline
90
   4
70
   1
43
   0.0
 10
63.3998186763372
 20
-85.0090661831369
 10
143.363553943790
 20
-85.0090661831369
 10
143.363553943790
 20
-91.1015412511333
 10
63.3998186763372
 20
-91.1015412511333
  0
TEXT
  5
F10971
330
F10972
 100
AcDbEntity
8
Text
100
AcDbText
10
0.000000000000000
20
0.500000000000000
30
0.000000000000000
40
1.50000000000000
1

100
AcDbText
  0
TEXT
  5
F10973
330
F10974
 100
AcDbEntity
8
Text
100
AcDbText
10
64.4700815956482
20
-89.6417346630402
30
0.000000000000000
40
2.50000000000000
1
VHM-HPC-Schruppfräser-0142-120-bwf
100
AcDbText
  0
LWPOLYLINE
  5
F10975
330
F10976
100
AcDbEntity
8
Rahmen
100
AcDbPolyline
90
   4
70
   1
43
   0.0
 10
103.381686310063
 20
-79.1069809610154
 10
143.363553943790
 20
-79.1069809610154
 10
143.363553943790
 20
-85.0090661831369
 10
103.381686310063
 20
-85.0090661831369
  0
TEXT
  5
F10977
330
F10978
 100
AcDbEntity
8
Text
100
AcDbText
10
104.500000000000
20
-81.5231187669991
30
0.000000000000000
40
1.50000000000000
1
Zu bearb. Material:
100
AcDbText
  0
TEXT
  5
F10979
330
F1097A
 100
AcDbEntity
8
Text
100
AcDbText
10
0.000000000000000
20
0.500000000000000
30
0.000000000000000
40
1.50000000000000
1

100
AcDbText
  0
LWPOLYLINE
  5
F1097B
330
F1097C
100
AcDbEntity
8
Rahmen
100
AcDbPolyline
90
   4
70
   1
43
   0.0
 10
63.3998186763372
 20
-79.1069809610154
 10
103.381686310063
 20
-79.1069809610154
 10
103.381686310063
 20
-85.0090661831369
 10
63.3998186763372
 20
-85.0090661831369
  0
TEXT
  5
F1097D
330
F1097E
 100
AcDbEntity
8
Text
100
AcDbText
10
64.5000000000000
20
-81.5231187669991
30
0.000000000000000
40
1.50000000000000
1
Werkstoff:
100
AcDbText
  0
TEXT
  5
F1097F
330
F10980
 100
AcDbEntity
8
Text
100
AcDbText
10
80.6441523118767
20
-84.5231187669991
30
0.000000000000000
40
1.50000000000000
1
VHM
100
AcDbText
  0
LWPOLYLINE
  5
F10981
330
F10982
100
AcDbEntity
8
Rahmen
100
AcDbPolyline
90
   4
70
   1
43
   0.0
 10
103.381686310063
 20
-76.0607434270172
 10
143.363553943790
 20
-76.0607434270172
 10
143.363553943790
 20
-79.1069809610154
 10
103.381686310063
 20
-79.1069809610154
  0
TEXT
  5
F10983
330
F10984
 100
AcDbEntity
8
Text
100
AcDbText
10
0.000000000000000
20
0.500000000000000
30
0.000000000000000
40
1.50000000000000
1

100
AcDbText
  0
TEXT
  5
F10985
330
F10986
 100
AcDbEntity
8
Text
100
AcDbText
10
0.000000000000000
20
0.500000000000000
30
0.000000000000000
40
1.50000000000000
1

100
AcDbText
  0
LWPOLYLINE
  5
F10987
330
F10988
100
AcDbEntity
8
Rahmen
100
AcDbPolyline
90
   4
70
   1
43
   0.0
 10
63.3998186763372
 20
-76.0607434270172
 10
103.381686310063
 20
-76.0607434270172
 10
103.381686310063
 20
-79.1069809610154
 10
63.3998186763372
 20
-79.1069809610154
  0
TEXT
  5
F10989
330
F1098A
 100
AcDbEntity
8
Text
100
AcDbText
10
64.5000000000000
20
-78.5231187669991
30
0.000000000000000
40
1.50000000000000
1
Maßstab:
100
AcDbText
  0
TEXT
  5
F1098B
330
F1098C
 100
AcDbEntity
8
Text
100
AcDbText
10
88.9297370806890
20
-78.5231187669991
30
0.000000000000000
40
1.50000000000000
1
1 : 1
100
AcDbText
0
VIEWPORT
5
294
102
{ACAD_XDICTIONARY
360
58A
102
}
330
25D
100
AcDbEntity
67
1
8
0
60
1
100
AcDbViewport
10
0.0
20
0.0
30
0.0
40
10.0
41
10.0
68
-1
69
1
12
0.0
22
0.0
13
0.0
23
0.0
14
1.0
24
1.0
15
0.0
25
0.0
16
0.0
26
0.0
36
1.0
17
0.0
27
0.0
37
0.0
42
0.0
43
0.0
44
0.0
45
10.0
50
0.0
51
0.0000000000007958
72
100
90
32800
1

281
0
71
0
74
0
110
0.0
120
0.0
130
0.0
111
1.0
121
0.0
131
0.0
112
0.0
122
1.0
132
0.0
79
0
146
0.0
1001
VD_INVISIBLE_NOT_FOR_READ
1000
VD_INVISIBLE_NOT_FOR_READ
0
VIEWPORT
5
295
102
{ACAD_XDICTIONARY
360
58C
102
}
330
25D
100
AcDbEntity
67
1
8
0
60
1
100
AcDbViewport
10
0.0
20
0.0
30
0.0
40
10.0
41
10.0
68
0
69
2
12
0.0
22
0.0
13
0.0
23
0.0
14
1.0
24
1.0
15
0.0
25
0.0
16
0.0
26
0.0
36
1.0
17
0.0
27
0.0
37
0.0
42
0.0
43
0.0
44
0.0
45
10.0
50
0.0
51
0.0000000000007958
72
100
90
163872
1

281
0
71
0
74
0
110
0.0
120
0.0
130
0.0
111
1.0
121
0.0
131
0.0
112
0.0
122
1.0
132
0.0
79
0
146
0.0
1001
VD_INVISIBLE_NOT_FOR_READ
1000
VD_INVISIBLE_NOT_FOR_READ
0
ENDSEC
0
SECTION
2
OBJECTS
0
DICTIONARY
5
13
330
0
100
AcDbDictionary
281
1
3
ACAD_COLOR
350
FA7
3
ACAD_GROUP
350
14
3
ACAD_LAYOUT
350
FCF
3
ACAD_MATERIAL
350
F7A
3
ACAD_MLEADERSTYLE
350
FCD
3
ACAD_MLINESTYLE
350
16
3
ACAD_PLOTSETTINGS
350
17
3
ACAD_PLOTSTYLENAME
350
18
3
ACAD_SCALELIST
350
FAB
3
ACAD_TABLESTYLE
350
FA8
3
ACAD_VISUALSTYLE
350
F93
3
ACDB_RECOMPOSE_DATA
350
107E
3
AcDbVariableDictionary
350
FF0
3
DWGPROPS
350
107F
0
DICTIONARY
5
F10005
330
F10004
100
AcDbDictionary
280
1
281
1
3
ACAD_MTEXT_2008_RT
360
F10006
0
DICTIONARY
5
F10014
330
F10013
100
AcDbDictionary
280
1
281
1
3
ACAD_MTEXT_2008_RT
360
F10015
0
DICTIONARY
5
F10019
330
F10018
100
AcDbDictionary
280
1
281
1
3
ACAD_MTEXT_2008_RT
360
F1001A
0
DICTIONARY
5
F10023
330
F10022
100
AcDbDictionary
280
1
281
1
3
ACAD_MTEXT_2008_RT
360
F10024
0
DICTIONARY
5
F1000A
330
F10009
100
AcDbDictionary
280
1
281
1
3
ACAD_MTEXT_2008_RT
360
F1000B
0
DICTIONARY
5
F1000F
330
F1000E
100
AcDbDictionary
280
1
281
1
3
ACAD_MTEXT_2008_RT
360
F10010
0
DICTIONARY
5
F1001E
330
F1001D
100
AcDbDictionary
280
1
281
1
3
ACAD_MTEXT_2008_RT
360
F1001F
0
DICTIONARY
5
FA7
102
{ACAD_REACTORS
330
13
102
}
330
13
100
AcDbDictionary
281
1
0
DICTIONARY
5
14
330
13
100
AcDbDictionary
281
1
0
DICTIONARY
5
FCF
102
{ACAD_REACTORS
330
13
102
}
330
13
100
AcDbDictionary
281
1
3
Layout1
350
FD1
3
Model
350
FD0
0
DICTIONARY
5
F7A
102
{ACAD_REACTORS
330
13
102
}
330
13
100
AcDbDictionary
281
1
3
ByBlock
350
F83
3
ByLayer
350
F7B
3
Global
350
F8B
0
DICTIONARY
5
FCD
102
{ACAD_REACTORS
330
13
102
}
330
13
100
AcDbDictionary
281
1
3
Standard
350
FCE
0
DICTIONARY
5
16
330
13
100
AcDbDictionary
281
1
3
Standard
350
FAA
0
DICTIONARY
5
17
102
{ACAD_REACTORS
330
13
102
}
330
13
100
AcDbDictionary
281
1
0
ACDBDICTIONARYWDFLT
5
18
102
{ACAD_REACTORS
330
13
102
}
330
13
100
AcDbDictionary
281
1
3
Normal
350
19
100
AcDbDictionaryWithDefault
340
19
0
DICTIONARY
5
FAB
102
{ACAD_REACTORS
330
13
102
}
330
13
100
AcDbDictionary
281
1
3
A0
350
FAC
3
A1
350
FAD
3
A2
350
FAE
3
A3
350
FAF
3
A4
350
FB0
3
A5
350
FB1
3
A6
350
FB2
3
A7
350
FB3
3
A8
350
FB4
3
A9
350
FB5
3
B0
350
FB6
3
B1
350
FB7
3
B2
350
FB8
3
B3
350
FB9
3
B4
350
FBA
3
B5
350
FBB
3
B6
350
FBC
3
B7
350
FBD
3
B8
350
FBE
3
B9
350
FBF
3
C0
350
FC0
3
C1
350
FC1
3
C2
350
FC2
3
C3
350
FC3
3
C4
350
FC4
3
C5
350
FC5
3
C6
350
FC6
3
C7
350
FC7
3
C8
350
FC8
3
C9
350
FC9
3
D0
350
FCA
3
D1
350
FCB
3
D2
350
FCC
0
DICTIONARY
5
FA8
102
{ACAD_REACTORS
330
13
102
}
330
13
100
AcDbDictionary
281
1
3
Standard
350
FA9
0
DICTIONARY
5
F93
102
{ACAD_REACTORS
330
13
102
}
330
13
100
AcDbDictionary
281
1
3
2dWireframe
350
F99
3
3D Hidden
350
F9B
3
3dWireframe
350
F9A
3
Basic
350
F98
3
Brighten
350
F9F
3
ColorChange
350
FA3
3
Conceptual
350
F9C
3
Dim
350
F9E
3
EdgeColorOff
350
FA6
3
Facepattern
350
FA2
3
Flat
350
F94
3
FlatWithEdges
350
F95
3
Gouraud
350
F96
3
GouraudWithEdges
350
F97
3
JitterOff
350
FA4
3
Linepattern
350
FA1
3
OverhangOff
350
FA5
3
Realistic
350
F9D
3
Thicken
350
FA0
0
XRECORD
5
107E
102
{ACAD_REACTORS
330
13
102
}
330
13
100
AcDbXrecord
280
1
90
1
330
FA9
330
F10004
330
F10013
330
F10018
330
F10022
330
F10009
330
F1000E
330
F1001D
0
DICTIONARY
5
FF0
102
{ACAD_REACTORS
330
13
102
}
330
13
100
AcDbDictionary
281
1
3
CANNOSCALE
350
FF3
3
CMLEADERSTYLE
350
FF2
3
CTABLESTYLE
350
FF1
3
DIMASSOC
350
FF6
3
INDEXCTL
350
FF5
3
SORTENTS
350
FF4
3
XCLIPFRAME
350
1078
0
XRECORD
5
107F
102
{ACAD_REACTORS
330
13
102
}
330
13
100
AcDbXrecord
280
1
1
DWGPROPS COOKIE
2

3

4

6

7

8

9

300
=
301
=
302
=
303
=
304
=
305
=
306
=
307
=
308
=
309
=
40
0.0
41
0.0
42
0.0
1

90
0
0
XRECORD
5
F10006
102
{ACAD_REACTORS
330
F10005
102
}
330
F10005
100
AcDbXrecord
280
1
40
48458.0
1
0.2 x 45°
0
XRECORD
5
F10015
102
{ACAD_REACTORS
330
F10014
102
}
330
F10014
100
AcDbXrecord
280
1
40
48458.0
1
20
0
XRECORD
5
F1001A
102
{ACAD_REACTORS
330
F10019
102
}
330
F10019
100
AcDbXrecord
280
1
40
48458.0
1
108
0
XRECORD
5
F10024
102
{ACAD_REACTORS
330
F10023
102
}
330
F10023
100
AcDbXrecord
280
1
40
48458.0
1
62
0
XRECORD
5
F1000B
102
{ACAD_REACTORS
330
F1000A
102
}
330
F1000A
100
AcDbXrecord
280
1
40
48458.0
1
Ø12
0
XRECORD
5
F1001F
102
{ACAD_REACTORS
330
F1001E
102
}
330
F1001E
100
AcDbXrecord
280
1
40
48458.0
1
Ø11.4
0
LAYOUT
5
FD1
102
{ACAD_XDICTIONARY
360
10A9
102
}
102
{ACAD_REACTORS
330
FCF
102
}
330
FCF
100
AcDbPlotSettings
1

2
Microsoft XPS Document Writer
4

6

40
0.0
41
0.0
42
0.0
43
0.0
44
0.0
45
0.0
46
0.0
47
0.0
48
0.0
49
0.0
140
0.0
141
0.0
142
1.0
143
1.0
70
688
72
0
73
0
74
5
7

75
16
147
1.0
148
0.0
149
0.0
100
AcDbLayout
1
Layout1
70
1
71
1
10
0.0
20
0.0
11
12.0
21
9.0
12
0.0
22
0.0
32
0.0
14
1.000000000000000E+20
24
1.000000000000000E+20
34
1.000000000000000E+20
15
-1.000000000000000E+20
25
-1.000000000000000E+20
35
-1.000000000000000E+20
146
0.0
13
0.0
23
0.0
33
0.0
16
1.0
26
0.0
36
0.0
17
0.0
27
1.0
37
0.0
76
0
330
25D
0
LAYOUT
5
FD0
102
{ACAD_XDICTIONARY
360
10A7
102
}
102
{ACAD_REACTORS
330
FCF
102
}
330
FCF
100
AcDbPlotSettings
1

2
Microsoft XPS Document Writer
4

6

40
0.0
41
0.0
42
0.0
43
0.0
44
0.0
45
0.0
46
0.0
47
0.0
48
0.0
49
0.0
140
0.0
141
0.0
142
1.0
143
1.0
70
1712
72
0
73
0
74
0
7

75
0
147
1.0
148
0.0
149
0.0
100
AcDbLayout
1
Model
70
1
71
0
10
0.0
20
0.0
11
12.0
21
9.0
12
0.0
22
0.0
32
0.0
14
0.0
24
0.0
34
0.0
15
0.0
25
0.0
35
0.0
146
0.0
13
0.0
23
0.0
33
0.0
16
1.0
26
0.0
36
0.0
17
0.0
27
1.0
37
0.0
76
0
330
261
331
26B
0
MATERIAL
5
F83
102
{ACAD_XDICTIONARY
360
F84
102
}
102
{ACAD_REACTORS
330
F7A
102
}
330
F7A
100
AcDbMaterial
1
ByBlock
72
0
43
0.0208333333333333
43
0.0
43
0.0
43
0.0
43
0.0
43
0.0208333333333333
43
0.0
43
0.0
43
0.0
43
0.0
43
1.0
43
0.0
43
0.0
43
0.0
43
0.0
43
1.0
77
0
47
0.0208333333333333
47
0.0
47
0.0
47
0.0
47
0.0
47
0.0208333333333333
47
0.0
47
0.0
47
0.0
47
0.0
47
1.0
47
0.0
47
0.0
47
0.0
47
0.0
47
1.0
171
0
49
0.0208333333333333
49
0.0
49
0.0
49
0.0
49
0.0
49
0.0208333333333333
49
0.0
49
0.0
49
0.0
49
0.0
49
1.0
49
0.0
49
0.0
49
0.0
49
0.0
49
1.0
175
0
142
0.0208333333333333
142
0.0
142
0.0
142
0.0
142
0.0
142
0.0208333333333333
142
0.0
142
0.0
142
0.0
142
0.0
142
1.0
142
0.0
142
0.0
142
0.0
142
0.0
142
1.0
179
0
144
0.0208333333333333
144
0.0
144
0.0
144
0.0
144
0.0
144
0.0208333333333333
144
0.0
144
0.0
144
0.0
144
0.0
144
1.0
144
0.0
144
0.0
144
0.0
144
0.0
144
1.0
147
0.0208333333333333
147
0.0
147
0.0
147
0.0
147
0.0
147
0.0208333333333333
147
0.0
147
0.0
147
0.0
147
0.0
147
1.0
147
0.0
147
0.0
147
0.0
147
0.0
147
1.0
0
MATERIAL
5
F7B
102
{ACAD_XDICTIONARY
360
F7C
102
}
102
{ACAD_REACTORS
330
F7A
102
}
330
F7A
100
AcDbMaterial
1
ByLayer
72
0
43
0.0208333333333333
43
0.0
43
0.0
43
0.0
43
0.0
43
0.0208333333333333
43
0.0
43
0.0
43
0.0
43
0.0
43
1.0
43
0.0
43
0.0
43
0.0
43
0.0
43
1.0
77
0
47
0.0208333333333333
47
0.0
47
0.0
47
0.0
47
0.0
47
0.0208333333333333
47
0.0
47
0.0
47
0.0
47
0.0
47
1.0
47
0.0
47
0.0
47
0.0
47
0.0
47
1.0
171
0
49
0.0208333333333333
49
0.0
49
0.0
49
0.0
49
0.0
49
0.0208333333333333
49
0.0
49
0.0
49
0.0
49
0.0
49
1.0
49
0.0
49
0.0
49
0.0
49
0.0
49
1.0
175
0
142
0.0208333333333333
142
0.0
142
0.0
142
0.0
142
0.0
142
0.0208333333333333
142
0.0
142
0.0
142
0.0
142
0.0
142
1.0
142
0.0
142
0.0
142
0.0
142
0.0
142
1.0
179
0
144
0.0208333333333333
144
0.0
144
0.0
144
0.0
144
0.0
144
0.0208333333333333
144
0.0
144
0.0
144
0.0
144
0.0
144
1.0
144
0.0
144
0.0
144
0.0
144
0.0
144
1.0
147
0.0208333333333333
147
0.0
147
0.0
147
0.0
147
0.0
147
0.0208333333333333
147
0.0
147
0.0
147
0.0
147
0.0
147
1.0
147
0.0
147
0.0
147
0.0
147
0.0
147
1.0
0
MATERIAL
5
F8B
102
{ACAD_XDICTIONARY
360
F8C
102
}
102
{ACAD_REACTORS
330
F7A
102
}
330
F7A
100
AcDbMaterial
1
Global
72
0
43
0.0208333333333333
43
0.0
43
0.0
43
0.0
43
0.0
43
0.0208333333333333
43
0.0
43
0.0
43
0.0
43
0.0
43
1.0
43
0.0
43
0.0
43
0.0
43
0.0
43
1.0
77
0
47
0.0208333333333333
47
0.0
47
0.0
47
0.0
47
0.0
47
0.0208333333333333
47
0.0
47
0.0
47
0.0
47
0.0
47
1.0
47
0.0
47
0.0
47
0.0
47
0.0
47
1.0
171
0
49
0.0208333333333333
49
0.0
49
0.0
49
0.0
49
0.0
49
0.0208333333333333
49
0.0
49
0.0
49
0.0
49
0.0
49
1.0
49
0.0
49
0.0
49
0.0
49
0.0
49
1.0
175
0
142
0.0208333333333333
142
0.0
142
0.0
142
0.0
142
0.0
142
0.0208333333333333
142
0.0
142
0.0
142
0.0
142
0.0
142
1.0
142
0.0
142
0.0
142
0.0
142
0.0
142
1.0
179
0
144
0.0208333333333333
144
0.0
144
0.0
144
0.0
144
0.0
144
0.0208333333333333
144
0.0
144
0.0
144
0.0
144
0.0
144
1.0
144
0.0
144
0.0
144
0.0
144
0.0
144
1.0
147
0.0208333333333333
147
0.0
147
0.0
147
0.0
147
0.0
147
0.0208333333333333
147
0.0
147
0.0
147
0.0
147
0.0
147
1.0
147
0.0
147
0.0
147
0.0
147
0.0
147
1.0
0
MLEADERSTYLE
5
FCE
102
{ACAD_REACTORS
330
FCD
102
}
330
FCD
100
AcDbMLeaderStyle
170
2
171
1
172
0
90
2
40
0.0
41
0.0
173
1
91
-1056964608
340
256
92
-2
290
1
42
0.09
291
1
43
0.36
3
Standard
44
0.18
300

342
253
174
1
178
6
175
1
176
0
93
-1056964608
45
0.18
292
0
297
0
46
0.18
94
-1056964608
47
1.0
49
1.0
140
1.0
293
1
141
0.0
294
1
177
0
142
1.0
295
0
296
0
143
0.125
1001
ACAD_MLEADERVER
1070
2
0
MLINESTYLE
5
FAA
102
{ACAD_REACTORS
330
16
102
}
330
16
100
AcDbMlineStyle
2
STANDARD
70
0
3

62
256
51
90.0
52
90.0
71
2
49
0.5
62
256
6
BYLAYER
49
-0.5
62
256
6
BYLAYER
0
ACDBPLACEHOLDER
5
19
102
{ACAD_REACTORS
330
18
102
}
330
18
0
SCALE
5
FAC
102
{ACAD_REACTORS
330
FAB
102
}
330
FAB
100
AcDbScale
70
0
300
1:1
140
1.0
141
1.0
290
1
0
SCALE
5
FAD
102
{ACAD_REACTORS
330
FAB
102
}
330
FAB
100
AcDbScale
70
0
300
1:2
140
1.0
141
2.0
290
0
0
SCALE
5
FAE
102
{ACAD_REACTORS
330
FAB
102
}
330
FAB
100
AcDbScale
70
0
300
1:4
140
1.0
141
4.0
290
0
0
SCALE
5
FAF
102
{ACAD_REACTORS
330
FAB
102
}
330
FAB
100
AcDbScale
70
0
300
1:5
140
1.0
141
5.0
290
0
0
SCALE
5
FB0
102
{ACAD_REACTORS
330
FAB
102
}
330
FAB
100
AcDbScale
70
0
300
1:8
140
1.0
141
8.0
290
0
0
SCALE
5
FB1
102
{ACAD_REACTORS
330
FAB
102
}
330
FAB
100
AcDbScale
70
0
300
1:10
140
1.0
141
10.0
290
0
0
SCALE
5
FB2
102
{ACAD_REACTORS
330
FAB
102
}
330
FAB
100
AcDbScale
70
0
300
1:16
140
1.0
141
16.0
290
0
0
SCALE
5
FB3
102
{ACAD_REACTORS
330
FAB
102
}
330
FAB
100
AcDbScale
70
0
300
1:20
140
1.0
141
20.0
290
0
0
SCALE
5
FB4
102
{ACAD_REACTORS
330
FAB
102
}
330
FAB
100
AcDbScale
70
0
300
1:30
140
1.0
141
30.0
290
0
0
SCALE
5
FB5
102
{ACAD_REACTORS
330
FAB
102
}
330
FAB
100
AcDbScale
70
0
300
1:40
140
1.0
141
40.0
290
0
0
SCALE
5
FB6
102
{ACAD_REACTORS
330
FAB
102
}
330
FAB
100
AcDbScale
70
0
300
1:50
140
1.0
141
50.0
290
0
0
SCALE
5
FB7
102
{ACAD_REACTORS
330
FAB
102
}
330
FAB
100
AcDbScale
70
0
300
1:100
140
1.0
141
100.0
290
0
0
SCALE
5
FB8
102
{ACAD_REACTORS
330
FAB
102
}
330
FAB
100
AcDbScale
70
0
300
2:1
140
2.0
141
1.0
290
0
0
SCALE
5
FB9
102
{ACAD_REACTORS
330
FAB
102
}
330
FAB
100
AcDbScale
70
0
300
4:1
140
4.0
141
1.0
290
0
0
SCALE
5
FBA
102
{ACAD_REACTORS
330
FAB
102
}
330
FAB
100
AcDbScale
70
0
300
8:1
140
8.0
141
1.0
290
0
0
SCALE
5
FBB
102
{ACAD_REACTORS
330
FAB
102
}
330
FAB
100
AcDbScale
70
0
300
10:1
140
10.0
141
1.0
290
0
0
SCALE
5
FBC
102
{ACAD_REACTORS
330
FAB
102
}
330
FAB
100
AcDbScale
70
0
300
100:1
140
100.0
141
1.0
290
0
0
SCALE
5
FBD
102
{ACAD_REACTORS
330
FAB
102
}
330
FAB
100
AcDbScale
70
0
300
1/128" = 1'-0"
140
0.0078125
141
12.0
290
0
0
SCALE
5
FBE
102
{ACAD_REACTORS
330
FAB
102
}
330
FAB
100
AcDbScale
70
0
300
1/64" = 1'-0"
140
0.015625
141
12.0
290
0
0
SCALE
5
FBF
102
{ACAD_REACTORS
330
FAB
102
}
330
FAB
100
AcDbScale
70
0
300
1/32" = 1'-0"
140
0.03125
141
12.0
290
0
0
SCALE
5
FC0
102
{ACAD_REACTORS
330
FAB
102
}
330
FAB
100
AcDbScale
70
0
300
1/16" = 1'-0"
140
0.0625
141
12.0
290
0
0
SCALE
5
FC1
102
{ACAD_REACTORS
330
FAB
102
}
330
FAB
100
AcDbScale
70
0
300
3/32" = 1'-0"
140
0.09375
141
12.0
290
0
0
SCALE
5
FC2
102
{ACAD_REACTORS
330
FAB
102
}
330
FAB
100
AcDbScale
70
0
300
1/8" = 1'-0"
140
0.125
141
12.0
290
0
0
SCALE
5
FC3
102
{ACAD_REACTORS
330
FAB
102
}
330
FAB
100
AcDbScale
70
0
300
3/16" = 1'-0"
140
0.1875
141
12.0
290
0
0
SCALE
5
FC4
102
{ACAD_REACTORS
330
FAB
102
}
330
FAB
100
AcDbScale
70
0
300
1/4" = 1'-0"
140
0.25
141
12.0
290
0
0
SCALE
5
FC5
102
{ACAD_REACTORS
330
FAB
102
}
330
FAB
100
AcDbScale
70
0
300
3/8" = 1'-0"
140
0.375
141
12.0
290
0
0
SCALE
5
FC6
102
{ACAD_REACTORS
330
FAB
102
}
330
FAB
100
AcDbScale
70
0
300
1/2" = 1'-0"
140
0.5
141
12.0
290
0
0
SCALE
5
FC7
102
{ACAD_REACTORS
330
FAB
102
}
330
FAB
100
AcDbScale
70
0
300
3/4" = 1'-0"
140
0.75
141
12.0
290
0
0
SCALE
5
FC8
102
{ACAD_REACTORS
330
FAB
102
}
330
FAB
100
AcDbScale
70
0
300
1" = 1'-0"
140
1.0
141
12.0
290
0
0
SCALE
5
FC9
102
{ACAD_REACTORS
330
FAB
102
}
330
FAB
100
AcDbScale
70
0
300
1-1/2" = 1'-0"
140
1.5
141
12.0
290
0
0
SCALE
5
FCA
102
{ACAD_REACTORS
330
FAB
102
}
330
FAB
100
AcDbScale
70
0
300
3" = 1'-0"
140
3.0
141
12.0
290
0
0
SCALE
5
FCB
102
{ACAD_REACTORS
330
FAB
102
}
330
FAB
100
AcDbScale
70
0
300
6" = 1'-0"
140
6.0
141
12.0
290
0
0
SCALE
5
FCC
102
{ACAD_REACTORS
330
FAB
102
}
330
FAB
100
AcDbScale
70
0
300
1'-0" = 1'-0"
140
12.0
141
12.0
290
0
0
TABLESTYLE
5
FA9
102
{ACAD_XDICTIONARY
360
FF8
102
}
102
{ACAD_REACTORS
330
FA8
102
}
330
FA8
100
AcDbTableStyle
3
Standard
70
0
71
0
40
0.06
41
0.06
280
0
281
0
7
Standard
140
0.18
170
2
62
0
63
7
283
0
274
-2
284
1
64
0
275
-2
285
1
65
0
276
-2
286
1
66
0
277
-2
287
1
67
0
278
-2
288
1
68
0
279
-2
289
1
69
0
7
Standard
140
0.25
170
5
62
0
63
7
283
0
274
-2
284
1
64
0
275
-2
285
1
65
0
276
-2
286
1
66
0
277
-2
287
1
67
0
278
-2
288
1
68
0
279
-2
289
1
69
0
7
Standard
140
0.18
170
5
62
0
63
7
283
0
274
-2
284
1
64
0
275
-2
285
1
65
0
276
-2
286
1
66
0
277
-2
287
1
67
0
278
-2
288
1
68
0
279
-2
289
1
69
0
0
VISUALSTYLE
5
F99
102
{ACAD_XDICTIONARY
360
108A
102
}
102
{ACAD_REACTORS
330
F93
102
}
330
F93
100
AcDbVisualStyle
2

70
4
71
0
72
2
73
0
90
0
40
-0.6
41
-30.0
62
5
63
7
74
1
91
4
64
7
65
257
75
1
175
1
42
1.0
92
0
66
257
43
1.0
76
1
77
6
78
2
67
7
79
5
170
0
171
0
290
0
174
0
93
1
44
0.0
173
0
291
0
45
0.0
1001
ACAD
1000
AcDbSavedByObjectVersion
1070
0
0
VISUALSTYLE
5
F9B
102
{ACAD_XDICTIONARY
360
108E
102
}
102
{ACAD_REACTORS
330
F93
102
}
330
F93
100
AcDbVisualStyle
2

70
6
71
1
72
2
73
2
90
0
40
-0.6
41
-30.0
62
5
63
7
74
2
91
2
64
7
65
257
75
2
175
1
42
179.0
92
0
66
257
43
1.0
76
1
77
6
78
2
67
7
79
3
170
0
171
0
290
0
174
0
93
1
44
0.0
173
0
291
0
45
0.0
1001
ACAD
1000
AcDbSavedByObjectVersion
1070
0
0
VISUALSTYLE
5
F9A
102
{ACAD_XDICTIONARY
360
108C
102
}
102
{ACAD_REACTORS
330
F93
102
}
330
F93
100
AcDbVisualStyle
2

70
5
71
0
72
2
73
0
90
0
40
-0.6
41
-30.0
62
5
63
7
74
1
91
4
64
7
65
257
75
1
175
1
42
1.0
92
0
66
257
43
1.0
76
1
77
6
78
2
67
7
79
5
170
0
171
0
290
0
174
0
93
1
44
0.0
173
0
291
0
45
0.0
1001
ACAD
1000
AcDbSavedByObjectVersion
1070
0
0
VISUALSTYLE
5
F98
102
{ACAD_XDICTIONARY
360
1088
102
}
102
{ACAD_REACTORS
330
F93
102
}
330
F93
100
AcDbVisualStyle
2

70
7
71
1
72
0
73
1
90
0
40
-0.6
41
-30.0
62
5
63
7
74
0
91
4
64
7
65
257
75
1
175
1
42
1.0
92
8
66
7
43
1.0
76
1
77
6
78
2
67
7
79
5
170
0
171
0
290
0
174
0
93
1
44
0.0
173
0
291
1
45
0.0
1001
ACAD
1000
AcDbSavedByObjectVersion
1070
0
0
VISUALSTYLE
5
F9F
102
{ACAD_XDICTIONARY
360
1096
102
}
102
{ACAD_REACTORS
330
F93
102
}
330
F93
100
AcDbVisualStyle
2

70
12
71
2
72
2
73
0
90
0
40
-0.6
41
-30.0
62
5
63
7
74
1
91
4
64
7
65
257
75
1
175
1
42
1.0
92
8
66
7
43
1.0
76
1
77
6
78
2
67
7
79
5
170
0
171
0
290
0
174
0
93
1
44
50.0
173
0
291
1
45
0.0
1001
ACAD
1000
AcDbSavedByObjectVersion
1070
0
0
VISUALSTYLE
5
FA3
102
{ACAD_XDICTIONARY
360
109E
102
}
102
{ACAD_REACTORS
330
F93
102
}
330
F93
100
AcDbVisualStyle
2

70
16
71
2
72
2
73
3
90
0
40
-0.6
41
-30.0
62
5
63
8
74
1
91
4
64
7
65
257
75
1
175
1
42
1.0
92
8
66
8
43
1.0
76
1
77
6
78
2
67
7
79
5
170
0
171
0
290
0
174
0
93
1
44
0.0
173
0
291
1
45
0.0
1001
ACAD
1000
AcDbSavedByObjectVersion
1070
0
0
VISUALSTYLE
5
F9C
102
{ACAD_XDICTIONARY
360
1090
102
}
102
{ACAD_REACTORS
330
F93
102
}
330
F93
100
AcDbVisualStyle
2

70
9
71
3
72
2
73
0
90
0
40
-0.6
41
-30.0
62
5
63
7
74
2
91
2
64
7
65
257
75
1
175
1
42
179.0
92
8
66
7
43
1.0
76
1
77
6
78
2
67
7
79
3
170
0
171
0
290
0
174
0
93
1
44
0.0
173
0
291
0
45
0.0
1001
ACAD
1000
AcDbSavedByObjectVersion
1070
0
0
VISUALSTYLE
5
F9E
102
{ACAD_XDICTIONARY
360
1094
102
}
102
{ACAD_REACTORS
330
F93
102
}
330
F93
100
AcDbVisualStyle
2

70
11
71
2
72
2
73
0
90
0
40
-0.6
41
-30.0
62
5
63
7
74
1
91
4
64
7
65
257
75
1
175
1
42
1.0
92
8
66
7
43
1.0
76
1
77
6
78
2
67
7
79
5
170
0
171
0
290
0
174
0
93
1
44
-50.0
173
0
291
1
45
0.0
1001
ACAD
1000
AcDbSavedByObjectVersion
1070
0
0
VISUALSTYLE
5
FA6
102
{ACAD_XDICTIONARY
360
10A4
102
}
102
{ACAD_REACTORS
330
F93
102
}
330
F93
100
AcDbVisualStyle
2

70
22
71
2
72
2
73
0
90
0
40
-0.6
41
-30.0
62
5
63
7
74
1
91
4
64
7
65
257
75
1
175
1
42
1.0
92
8
66
7
43
1.0
76
1
77
6
78
2
67
7
79
5
170
0
171
0
290
0
174
0
93
1
44
0.0
173
0
291
1
45
0.0
1001
ACAD
1000
AcDbSavedByObjectVersion
1070
0
0
VISUALSTYLE
5
FA2
102
{ACAD_XDICTIONARY
360
109C
102
}
102
{ACAD_REACTORS
330
F93
102
}
330
F93
100
AcDbVisualStyle
2

70
15
71
2
72
2
73
0
90
0
40
-0.6
41
-30.0
62
5
63
7
74
1
91
4
64
7
65
257
75
1
175
1
42
1.0
92
8
66
7
43
1.0
76
1
77
6
78
2
67
7
79
5
170
0
171
0
290
0
174
0
93
1
44
0.0
173
0
291
1
45
0.0
1001
ACAD
1000
AcDbSavedByObjectVersion
1070
0
0
VISUALSTYLE
5
F94
102
{ACAD_XDICTIONARY
360
1080
102
}
102
{ACAD_REACTORS
330
F93
102
}
330
F93
100
AcDbVisualStyle
2

70
0
71
2
72
1
73
1
90
2
40
-0.6
41
30.0
62
5
63
7
74
0
91
4
64
7
65
257
75
1
175
1
42
1.0
92
8
66
7
43
1.0
76
1
77
6
78
2
67
7
79
5
170
0
171
0
290
0
174
0
93
13
44
0.0
173
0
291
1
45
0.0
1001
ACAD
1000
AcDbSavedByObjectVersion
1070
0
0
VISUALSTYLE
5
F95
102
{ACAD_XDICTIONARY
360
1082
102
}
102
{ACAD_REACTORS
330
F93
102
}
330
F93
100
AcDbVisualStyle
2

70
1
71
2
72
1
73
1
90
2
40
-0.6
41
30.0
62
5
63
7
74
1
91
4
64
7
65
257
75
1
175
1
42
1.0
92
0
66
257
43
1.0
76
1
77
6
78
2
67
7
79
5
170
0
171
0
290
0
174
0
93
13
44
0.0
173
0
291
1
45
0.0
1001
ACAD
1000
AcDbSavedByObjectVersion
1070
0
0
VISUALSTYLE
5
F96
102
{ACAD_XDICTIONARY
360
1084
102
}
102
{ACAD_REACTORS
330
F93
102
}
330
F93
100
AcDbVisualStyle
2

70
2
71
2
72
2
73
1
90
2
40
-0.6
41
30.0
62
5
63
7
74
0
91
4
64
7
65
257
75
1
175
1
42
1.0
92
0
66
7
43
1.0
76
1
77
6
78
2
67
7
79
5
170
0
171
0
290
0
174
0
93
13
44
0.0
173
0
291
1
45
0.0
1001
ACAD
1000
AcDbSavedByObjectVersion
1070
0
0
VISUALSTYLE
5
F97
102
{ACAD_XDICTIONARY
360
1086
102
}
102
{ACAD_REACTORS
330
F93
102
}
330
F93
100
AcDbVisualStyle
2

70
3
71
2
72
2
73
1
90
2
40
-0.6
41
30.0
62
5
63
7
74
1
91
4
64
7
65
257
75
1
175
1
42
1.0
92
0
66
257
43
1.0
76
1
77
6
78
2
67
7
79
5
170
0
171
0
290
0
174
0
93
13
44
0.0
173
0
291
1
45
0.0
1001
ACAD
1000
AcDbSavedByObjectVersion
1070
0
0
VISUALSTYLE
5
FA4
102
{ACAD_XDICTIONARY
360
10A0
102
}
102
{ACAD_REACTORS
330
F93
102
}
330
F93
100
AcDbVisualStyle
2

70
20
71
2
72
2
73
0
90
0
40
-0.6
41
-30.0
62
5
63
7
74
1
91
4
64
7
65
257
75
1
175
1
42
1.0
92
10
66
7
43
1.0
76
1
77
6
78
2
67
7
79
5
170
0
171
0
290
0
174
0
93
1
44
0.0
173
0
291
1
45
0.0
1001
ACAD
1000
AcDbSavedByObjectVersion
1070
0
0
VISUALSTYLE
5
FA1
102
{ACAD_XDICTIONARY
360
109A
102
}
102
{ACAD_REACTORS
330
F93
102
}
330
F93
100
AcDbVisualStyle
2

70
14
71
2
72
2
73
0
90
0
40
-0.6
41
-30.0
62
5
63
7
74
1
91
4
64
7
65
257
75
7
175
7
42
1.0
92
8
66
7
43
1.0
76
1
77
6
78
2
67
7
79
5
170
0
171
0
290
0
174
0
93
1
44
0.0
173
0
291
1
45
0.0
1001
ACAD
1000
AcDbSavedByObjectVersion
1070
0
0
VISUALSTYLE
5
FA5
102
{ACAD_XDICTIONARY
360
10A2
102
}
102
{ACAD_REACTORS
330
F93
102
}
330
F93
100
AcDbVisualStyle
2

70
21
71
2
72
2
73
0
90
0
40
-0.6
41
-30.0
62
5
63
7
74
1
91
4
64
7
65
257
75
1
175
1
42
1.0
92
9
66
7
43
1.0
76
1
77
6
78
2
67
7
79
5
170
0
171
0
290
0
174
0
93
1
44
0.0
173
0
291
1
45
0.0
1001
ACAD
1000
AcDbSavedByObjectVersion
1070
0
0
VISUALSTYLE
5
F9D
102
{ACAD_XDICTIONARY
360
1092
102
}
102
{ACAD_REACTORS
330
F93
102
}
330
F93
100
AcDbVisualStyle
2

70
8
71
2
72
2
73
0
90
0
40
-0.6
41
-30.0
62
5
63
7
74
1
91
0
64
7
65
257
75
1
175
1
42
1.0
92
8
66
8
43
1.0
76
1
77
6
78
2
67
7
79
5
170
0
171
0
290
0
174
0
93
13
44
0.0
173
0
291
0
45
0.0
1001
ACAD
1000
AcDbSavedByObjectVersion
1070
0
0
VISUALSTYLE
5
FA0
102
{ACAD_XDICTIONARY
360
1098
102
}
102
{ACAD_REACTORS
330
F93
102
}
330
F93
100
AcDbVisualStyle
2

70
13
71
2
72
2
73
0
90
0
40
-0.6
41
-30.0
62
5
63
7
74
1
91
4
64
7
65
257
75
1
175
1
42
1.0
92
12
66
7
43
1.0
76
1
77
6
78
2
67
7
79
5
170
0
171
0
290
0
174
0
93
1
44
0.0
173
0
291
1
45
0.0
1001
ACAD
1000
AcDbSavedByObjectVersion
1070
0
0
DICTIONARYVAR
5
FF3
102
{ACAD_REACTORS
330
FF0
102
}
330
FF0
100
DictionaryVariables
280
0
1
1:1
0
DICTIONARYVAR
5
FF2
102
{ACAD_REACTORS
330
FF0
102
}
330
FF0
100
DictionaryVariables
280
0
1
STANDARD
0
DICTIONARYVAR
5
FF1
102
{ACAD_REACTORS
330
FF0
102
}
330
FF0
100
DictionaryVariables
280
0
1
STANDARD
0
DICTIONARYVAR
5
FF6
102
{ACAD_REACTORS
330
FF0
102
}
330
FF0
100
DictionaryVariables
280
0
1
1
0
DICTIONARYVAR
5
FF5
102
{ACAD_REACTORS
330
FF0
102
}
330
FF0
100
DictionaryVariables
280
0
1
0
0
DICTIONARYVAR
5
FF4
102
{ACAD_REACTORS
330
FF0
102
}
330
FF0
100
DictionaryVariables
280
0
1
127
0
DICTIONARYVAR
5
1078
102
{ACAD_REACTORS
330
FF0
102
}
330
FF0
100
DictionaryVariables
280
0
1
2
0
DICTIONARY
5
10A9
330
FD1
100
AcDbDictionary
280
1
281
1
3
ACAD_XREC_ROUNDTRIP
360
10AA
0
DICTIONARY
5
10A7
330
FD0
100
AcDbDictionary
280
1
281
1
3
ACAD_XREC_ROUNDTRIP
360
10A8
0
DICTIONARY
5
F84
330
F83
100
AcDbDictionary
280
1
281
1
3
ACAD_XREC_ROUNDTRIP
360
FFF
3
BUMPTILE
360
F86
3
DIFFUSETILE
360
F85
3
OPACITYTILE
360
F89
3
REFLECTIONTILE
360
F88
3
REFRACTIONTILE
360
F8A
3
SPECULARTILE
360
F87
0
DICTIONARY
5
F7C
330
F7B
100
AcDbDictionary
280
1
281
1
3
ACAD_XREC_ROUNDTRIP
360
FFE
3
BUMPTILE
360
F7E
3
DIFFUSETILE
360
F7D
3
OPACITYTILE
360
F81
3
REFLECTIONTILE
360
F80
3
REFRACTIONTILE
360
F82
3
SPECULARTILE
360
F7F
0
DICTIONARY
5
F8C
330
F8B
100
AcDbDictionary
280
1
281
1
3
ACAD_XREC_ROUNDTRIP
360
1000
3
BUMPTILE
360
F8E
3
DIFFUSETILE
360
F8D
3
OPACITYTILE
360
F91
3
REFLECTIONTILE
360
F90
3
REFRACTIONTILE
360
F92
3
SPECULARTILE
360
F8F
0
DICTIONARY
5
FF8
330
FA9
100
AcDbDictionary
280
1
281
1
3
ACAD_ROUNDTRIP_2008_TABLESTYLE_CELLSTYLEMAP
360
1079
3
ACAD_XREC_ROUNDTRIP
360
10A6
0
DICTIONARY
5
108A
330
F99
100
AcDbDictionary
280
1
281
1
3
ACAD_XREC_ROUNDTRIP
360
108B
0
DICTIONARY
5
108E
330
F9B
100
AcDbDictionary
280
1
281
1
3
ACAD_XREC_ROUNDTRIP
360
108F
0
DICTIONARY
5
108C
330
F9A
100
AcDbDictionary
280
1
281
1
3
ACAD_XREC_ROUNDTRIP
360
108D
0
DICTIONARY
5
1088
330
F98
100
AcDbDictionary
280
1
281
1
3
ACAD_XREC_ROUNDTRIP
360
1089
0
DICTIONARY
5
1096
330
F9F
100
AcDbDictionary
280
1
281
1
3
ACAD_XREC_ROUNDTRIP
360
1097
0
DICTIONARY
5
109E
330
FA3
100
AcDbDictionary
280
1
281
1
3
ACAD_XREC_ROUNDTRIP
360
109F
0
DICTIONARY
5
1090
330
F9C
100
AcDbDictionary
280
1
281
1
3
ACAD_XREC_ROUNDTRIP
360
1091
0
DICTIONARY
5
1094
330
F9E
100
AcDbDictionary
280
1
281
1
3
ACAD_XREC_ROUNDTRIP
360
1095
0
DICTIONARY
5
10A4
330
FA6
100
AcDbDictionary
280
1
281
1
3
ACAD_XREC_ROUNDTRIP
360
10A5
0
DICTIONARY
5
109C
330
FA2
100
AcDbDictionary
280
1
281
1
3
ACAD_XREC_ROUNDTRIP
360
109D
0
DICTIONARY
5
1080
330
F94
100
AcDbDictionary
280
1
281
1
3
ACAD_XREC_ROUNDTRIP
360
1081
0
DICTIONARY
5
1082
330
F95
100
AcDbDictionary
280
1
281
1
3
ACAD_XREC_ROUNDTRIP
360
1083
0
DICTIONARY
5
1084
330
F96
100
AcDbDictionary
280
1
281
1
3
ACAD_XREC_ROUNDTRIP
360
1085
0
DICTIONARY
5
1086
330
F97
100
AcDbDictionary
280
1
281
1
3
ACAD_XREC_ROUNDTRIP
360
1087
0
DICTIONARY
5
10A0
330
FA4
100
AcDbDictionary
280
1
281
1
3
ACAD_XREC_ROUNDTRIP
360
10A1
0
DICTIONARY
5
109A
330
FA1
100
AcDbDictionary
280
1
281
1
3
ACAD_XREC_ROUNDTRIP
360
109B
0
DICTIONARY
5
10A2
330
FA5
100
AcDbDictionary
280
1
281
1
3
ACAD_XREC_ROUNDTRIP
360
10A3
0
DICTIONARY
5
1092
330
F9D
100
AcDbDictionary
280
1
281
1
3
ACAD_XREC_ROUNDTRIP
360
1093
0
DICTIONARY
5
1098
330
FA0
100
AcDbDictionary
280
1
281
1
3
ACAD_XREC_ROUNDTRIP
360
1099
0
XRECORD
5
10AA
102
{ACAD_REACTORS
330
10A9
102
}
330
10A9
100
AcDbXrecord
280
1
102
SHADEPLOT
70
0
102
SHADEPLOTRESLEVEL
70
2
102
SHADEPLOTCUSTOMDPI
70
300
0
XRECORD
5
10A8
102
{ACAD_REACTORS
330
10A7
102
}
330
10A7
100
AcDbXrecord
280
1
102
SHADEPLOT
70
0
102
SHADEPLOTRESLEVEL
70
2
102
SHADEPLOTCUSTOMDPI
70
300
0
XRECORD
5
FFF
102
{ACAD_REACTORS
330
F84
102
}
330
F84
100
AcDbXrecord
280
1
102
MATERIAL
148
0.0
149
0.0
149
0.0
93
0
94
127
282
0
72
0
77
0
171
0
175
0
179
0
273
0
0
XRECORD
5
F86
102
{ACAD_REACTORS
330
F84
102
}
330
F84
100
AcDbXrecord
280
1
270
1
271
1
0
XRECORD
5
F85
102
{ACAD_REACTORS
330
F84
102
}
330
F84
100
AcDbXrecord
280
1
270
1
271
1
0
XRECORD
5
F89
102
{ACAD_REACTORS
330
F84
102
}
330
F84
100
AcDbXrecord
280
1
270
1
271
1
0
XRECORD
5
F88
102
{ACAD_REACTORS
330
F84
102
}
330
F84
100
AcDbXrecord
280
1
270
1
271
1
0
XRECORD
5
F8A
102
{ACAD_REACTORS
330
F84
102
}
330
F84
100
AcDbXrecord
280
1
270
1
271
1
0
XRECORD
5
F87
102
{ACAD_REACTORS
330
F84
102
}
330
F84
100
AcDbXrecord
280
1
270
1
271
1
0
XRECORD
5
FFE
102
{ACAD_REACTORS
330
F7C
102
}
330
F7C
100
AcDbXrecord
280
1
102
MATERIAL
148
0.0
149
0.0
149
0.0
93
0
94
127
282
0
72
0
77
0
171
0
175
0
179
0
273
0
0
XRECORD
5
F7E
102
{ACAD_REACTORS
330
F7C
102
}
330
F7C
100
AcDbXrecord
280
1
270
1
271
1
0
XRECORD
5
F7D
102
{ACAD_REACTORS
330
F7C
102
}
330
F7C
100
AcDbXrecord
280
1
270
1
271
1
0
XRECORD
5
F81
102
{ACAD_REACTORS
330
F7C
102
}
330
F7C
100
AcDbXrecord
280
1
270
1
271
1
0
XRECORD
5
F80
102
{ACAD_REACTORS
330
F7C
102
}
330
F7C
100
AcDbXrecord
280
1
270
1
271
1
0
XRECORD
5
F82
102
{ACAD_REACTORS
330
F7C
102
}
330
F7C
100
AcDbXrecord
280
1
270
1
271
1
0
XRECORD
5
F7F
102
{ACAD_REACTORS
330
F7C
102
}
330
F7C
100
AcDbXrecord
280
1
270
1
271
1
0
XRECORD
5
1000
102
{ACAD_REACTORS
330
F8C
102
}
330
F8C
100
AcDbXrecord
280
1
102
MATERIAL
148
0.0
149
0.0
149
0.0
93
0
94
127
282
0
72
0
77
0
171
0
175
0
179
0
273
0
0
XRECORD
5
F8E
102
{ACAD_REACTORS
330
F8C
102
}
330
F8C
100
AcDbXrecord
280
1
270
1
271
1
0
XRECORD
5
F8D
102
{ACAD_REACTORS
330
F8C
102
}
330
F8C
100
AcDbXrecord
280
1
270
1
271
1
0
XRECORD
5
F91
102
{ACAD_REACTORS
330
F8C
102
}
330
F8C
100
AcDbXrecord
280
1
270
1
271
1
0
XRECORD
5
F90
102
{ACAD_REACTORS
330
F8C
102
}
330
F8C
100
AcDbXrecord
280
1
270
1
271
1
0
XRECORD
5
F92
102
{ACAD_REACTORS
330
F8C
102
}
330
F8C
100
AcDbXrecord
280
1
270
1
271
1
0
XRECORD
5
F8F
102
{ACAD_REACTORS
330
F8C
102
}
330
F8C
100
AcDbXrecord
280
1
270
1
271
1
0
CELLSTYLEMAP
5
1079
102
{ACAD_REACTORS
330
FF8
102
}
330
FF8
100
AcDbCellStyleMap
90
3
300
CELLSTYLE
1
TABLEFORMAT_BEGIN
90
5
170
1
91
0
92
32768
62
257
93
1
300
CONTENTFORMAT
1
CONTENTFORMAT_BEGIN
90
0
91
0
92
512
93
0
300

40
0.0
140
1.0
94
5
62
0
340
253
144
0.25
309
CONTENTFORMAT_END
171
1
301
MARGIN
1
CELLMARGIN_BEGIN
40
0.06
40
0.06
40
0.06
40
0.06
40
0.18
40
0.18
309
CELLMARGIN_END
94
6
95
1
302
GRIDFORMAT
1
GRIDFORMAT_BEGIN
90
0
91
1
62
0
92
-2
340
0
93
0
40
0.045
309
GRIDFORMAT_END
95
2
302
GRIDFORMAT
1
GRIDFORMAT_BEGIN
90
0
91
1
62
0
92
-2
340
0
93
0
40
0.045
309
GRIDFORMAT_END
95
4
302
GRIDFORMAT
1
GRIDFORMAT_BEGIN
90
0
91
1
62
0
92
-2
340
0
93
0
40
0.045
309
GRIDFORMAT_END
95
8
302
GRIDFORMAT
1
GRIDFORMAT_BEGIN
90
0
91
1
62
0
92
-2
340
0
93
0
40
0.045
309
GRIDFORMAT_END
95
16
302
GRIDFORMAT
1
GRIDFORMAT_BEGIN
90
0
91
1
62
0
92
-2
340
0
93
0
40
0.045
309
GRIDFORMAT_END
95
32
302
GRIDFORMAT
1
GRIDFORMAT_BEGIN
90
0
91
1
62
0
92
-2
340
0
93
0
40
0.045
309
GRIDFORMAT_END
309
TABLEFORMAT_END
1
CELLSTYLE_BEGIN
90
1
91
1
300
_TITLE
309
CELLSTYLE_END
300
CELLSTYLE
1
TABLEFORMAT_BEGIN
90
5
170
1
91
0
92
0
62
257
93
1
300
CONTENTFORMAT
1
CONTENTFORMAT_BEGIN
90
0
91
0
92
512
93
0
300

40
0.0
140
1.0
94
5
62
0
340
253
144
0.18
309
CONTENTFORMAT_END
171
1
301
MARGIN
1
CELLMARGIN_BEGIN
40
0.06
40
0.06
40
0.06
40
0.06
40
0.18
40
0.18
309
CELLMARGIN_END
94
6
95
1
302
GRIDFORMAT
1
GRIDFORMAT_BEGIN
90
0
91
1
62
0
92
-2
340
0
93
0
40
0.045
309
GRIDFORMAT_END
95
2
302
GRIDFORMAT
1
GRIDFORMAT_BEGIN
90
0
91
1
62
0
92
-2
340
0
93
0
40
0.045
309
GRIDFORMAT_END
95
4
302
GRIDFORMAT
1
GRIDFORMAT_BEGIN
90
0
91
1
62
0
92
-2
340
0
93
0
40
0.045
309
GRIDFORMAT_END
95
8
302
GRIDFORMAT
1
GRIDFORMAT_BEGIN
90
0
91
1
62
0
92
-2
340
0
93
0
40
0.045
309
GRIDFORMAT_END
95
16
302
GRIDFORMAT
1
GRIDFORMAT_BEGIN
90
0
91
1
62
0
92
-2
340
0
93
0
40
0.045
309
GRIDFORMAT_END
95
32
302
GRIDFORMAT
1
GRIDFORMAT_BEGIN
90
0
91
1
62
0
92
-2
340
0
93
0
40
0.045
309
GRIDFORMAT_END
309
TABLEFORMAT_END
1
CELLSTYLE_BEGIN
90
2
91
1
300
_HEADER
309
CELLSTYLE_END
300
CELLSTYLE
1
TABLEFORMAT_BEGIN
90
5
170
1
91
0
92
0
62
257
93
1
300
CONTENTFORMAT
1
CONTENTFORMAT_BEGIN
90
0
91
0
92
512
93
0
300

40
0.0
140
1.0
94
2
62
0
340
253
144
0.18
309
CONTENTFORMAT_END
171
1
301
MARGIN
1
CELLMARGIN_BEGIN
40
0.06
40
0.06
40
0.06
40
0.06
40
0.18
40
0.18
309
CELLMARGIN_END
94
6
95
1
302
GRIDFORMAT
1
GRIDFORMAT_BEGIN
90
0
91
1
62
0
92
-2
340
0
93
0
40
0.045
309
GRIDFORMAT_END
95
2
302
GRIDFORMAT
1
GRIDFORMAT_BEGIN
90
0
91
1
62
0
92
-2
340
0
93
0
40
0.045
309
GRIDFORMAT_END
95
4
302
GRIDFORMAT
1
GRIDFORMAT_BEGIN
90
0
91
1
62
0
92
-2
340
0
93
0
40
0.045
309
GRIDFORMAT_END
95
8
302
GRIDFORMAT
1
GRIDFORMAT_BEGIN
90
0
91
1
62
0
92
-2
340
0
93
0
40
0.045
309
GRIDFORMAT_END
95
16
302
GRIDFORMAT
1
GRIDFORMAT_BEGIN
90
0
91
1
62
0
92
-2
340
0
93
0
40
0.045
309
GRIDFORMAT_END
95
32
302
GRIDFORMAT
1
GRIDFORMAT_BEGIN
90
0
91
1
62
0
92
-2
340
0
93
0
40
0.045
309
GRIDFORMAT_END
309
TABLEFORMAT_END
1
CELLSTYLE_BEGIN
90
3
91
2
300
_DATA
309
CELLSTYLE_END
0
XRECORD
5
10A6
102
{ACAD_REACTORS
330
FF8
102
}
330
FF8
100
AcDbXrecord
280
1
102
ACAD_ROUNDTRIP_PRE2007_TABLESTYLE
90
512
91
0
1

92
512
93
0
2

94
512
95
0
3

0
XRECORD
5
108B
102
{ACAD_REACTORS
330
108A
102
}
330
108A
100
AcDbXrecord
280
1
102
RTVSPropertyOp0
70
1
102
RTVSPropertyOp1
70
1
102
RTVSPropertyOp2
70
1
102
RTVSPropertyOp3
70
1
102
RTVSPropertyOp4
70
1
102
RTVSPropertyOp5
70
1
102
RTVSPropertyOp6
70
1
102
RTVSPropertyOp7
70
1
102
RTVSPropertyOp8
70
1
102
RTVSPropertyOp9
70
1
102
RTVSPropertyOp10
70
1
102
RTVSPropertyOp11
70
1
102
RTVSPropertyOp12
70
1
102
RTVSPropertyOp13
70
1
102
RTVSPropertyOp14
70
1
102
RTVSPropertyOp15
70
1
102
RTVSPropertyOp16
70
1
102
RTVSPropertyOp17
70
1
102
RTVSPropertyOp18
70
1
102
RTVSPropertyOp19
70
1
102
RTVSPropertyOp20
70
1
102
RTVSPropertyOp21
70
1
102
RTVSPropertyOp22
70
1
102
RTVSPropertyOp23
70
1
102
RTVSPropertyOp24
70
1
102
RTVSPropertyOp25
70
1
102
RTVSPropertyOp26
70
1
102
RTVSPropertyOp27
70
1
0
XRECORD
5
108F
102
{ACAD_REACTORS
330
108E
102
}
330
108E
100
AcDbXrecord
280
1
102
RTVSPropertyOp0
70
1
102
RTVSPropertyOp1
70
1
102
RTVSPropertyOp2
70
1
102
RTVSPropertyOp3
70
1
102
RTVSPropertyOp4
70
1
102
RTVSPropertyOp5
70
1
102
RTVSPropertyOp6
70
1
102
RTVSPropertyOp7
70
1
102
RTVSPropertyOp8
70
1
102
RTVSPropertyOp9
70
1
102
RTVSPropertyOp10
70
1
102
RTVSPropertyOp11
70
1
102
RTVSPropertyOp12
70
1
102
RTVSPropertyOp13
70
1
102
RTVSPropertyOp14
70
1
102
RTVSPropertyOp15
70
1
102
RTVSPropertyOp16
70
1
102
RTVSPropertyOp17
70
1
102
RTVSPropertyOp18
70
1
102
RTVSPropertyOp19
70
1
102
RTVSPropertyOp20
70
1
102
RTVSPropertyOp21
70
1
102
RTVSPropertyOp22
70
1
102
RTVSPropertyOp23
70
1
102
RTVSPropertyOp24
70
1
102
RTVSPropertyOp25
70
1
102
RTVSPropertyOp26
70
1
102
RTVSPropertyOp27
70
1
0
XRECORD
5
108D
102
{ACAD_REACTORS
330
108C
102
}
330
108C
100
AcDbXrecord
280
1
102
RTVSPropertyOp0
70
1
102
RTVSPropertyOp1
70
1
102
RTVSPropertyOp2
70
1
102
RTVSPropertyOp3
70
1
102
RTVSPropertyOp4
70
1
102
RTVSPropertyOp5
70
1
102
RTVSPropertyOp6
70
1
102
RTVSPropertyOp7
70
1
102
RTVSPropertyOp8
70
1
102
RTVSPropertyOp9
70
1
102
RTVSPropertyOp10
70
1
102
RTVSPropertyOp11
70
1
102
RTVSPropertyOp12
70
1
102
RTVSPropertyOp13
70
1
102
RTVSPropertyOp14
70
1
102
RTVSPropertyOp15
70
1
102
RTVSPropertyOp16
70
1
102
RTVSPropertyOp17
70
1
102
RTVSPropertyOp18
70
1
102
RTVSPropertyOp19
70
1
102
RTVSPropertyOp20
70
1
102
RTVSPropertyOp21
70
1
102
RTVSPropertyOp22
70
1
102
RTVSPropertyOp23
70
1
102
RTVSPropertyOp24
70
1
102
RTVSPropertyOp25
70
1
102
RTVSPropertyOp26
70
1
102
RTVSPropertyOp27
70
1
0
XRECORD
5
1089
102
{ACAD_REACTORS
330
1088
102
}
330
1088
100
AcDbXrecord
280
1
102
RTVSPropertyOp0
70
1
102
RTVSPropertyOp1
70
1
102
RTVSPropertyOp2
70
1
102
RTVSPropertyOp3
70
1
102
RTVSPropertyOp4
70
1
102
RTVSPropertyOp5
70
1
102
RTVSPropertyOp6
70
1
102
RTVSPropertyOp7
70
1
102
RTVSPropertyOp8
70
1
102
RTVSPropertyOp9
70
1
102
RTVSPropertyOp10
70
1
102
RTVSPropertyOp11
70
1
102
RTVSPropertyOp12
70
1
102
RTVSPropertyOp13
70
1
102
RTVSPropertyOp14
70
1
102
RTVSPropertyOp15
70
1
102
RTVSPropertyOp16
70
1
102
RTVSPropertyOp17
70
1
102
RTVSPropertyOp18
70
1
102
RTVSPropertyOp19
70
1
102
RTVSPropertyOp20
70
1
102
RTVSPropertyOp21
70
1
102
RTVSPropertyOp22
70
1
102
RTVSPropertyOp23
70
1
102
RTVSPropertyOp24
70
1
102
RTVSPropertyOp25
70
1
102
RTVSPropertyOp26
70
1
102
RTVSPropertyOp27
70
1
0
XRECORD
5
1097
102
{ACAD_REACTORS
330
1096
102
}
330
1096
100
AcDbXrecord
280
1
102
RTVSPropertyOp0
70
1
102
RTVSPropertyOp1
70
1
102
RTVSPropertyOp2
70
1
102
RTVSPropertyOp3
70
1
102
RTVSPropertyOp4
70
1
102
RTVSPropertyOp5
70
1
102
RTVSPropertyOp6
70
1
102
RTVSPropertyOp7
70
1
102
RTVSPropertyOp8
70
1
102
RTVSPropertyOp9
70
1
102
RTVSPropertyOp10
70
1
102
RTVSPropertyOp11
70
1
102
RTVSPropertyOp12
70
1
102
RTVSPropertyOp13
70
1
102
RTVSPropertyOp14
70
1
102
RTVSPropertyOp15
70
1
102
RTVSPropertyOp16
70
1
102
RTVSPropertyOp17
70
1
102
RTVSPropertyOp18
70
1
102
RTVSPropertyOp19
70
1
102
RTVSPropertyOp20
70
1
102
RTVSPropertyOp21
70
1
102
RTVSPropertyOp22
70
1
102
RTVSPropertyOp23
70
1
102
RTVSPropertyOp24
70
1
102
RTVSPropertyOp25
70
1
102
RTVSPropertyOp26
70
1
102
RTVSPropertyOp27
70
1
0
XRECORD
5
109F
102
{ACAD_REACTORS
330
109E
102
}
330
109E
100
AcDbXrecord
280
1
102
RTVSPropertyOp0
70
1
102
RTVSPropertyOp1
70
1
102
RTVSPropertyOp2
70
1
102
RTVSPropertyOp3
70
1
102
RTVSPropertyOp4
70
1
102
RTVSPropertyOp5
70
1
102
RTVSPropertyOp6
70
1
102
RTVSPropertyOp7
70
1
102
RTVSPropertyOp8
70
1
102
RTVSPropertyOp9
70
1
102
RTVSPropertyOp10
70
1
102
RTVSPropertyOp11
70
1
102
RTVSPropertyOp12
70
1
102
RTVSPropertyOp13
70
1
102
RTVSPropertyOp14
70
1
102
RTVSPropertyOp15
70
1
102
RTVSPropertyOp16
70
1
102
RTVSPropertyOp17
70
1
102
RTVSPropertyOp18
70
1
102
RTVSPropertyOp19
70
1
102
RTVSPropertyOp20
70
1
102
RTVSPropertyOp21
70
1
102
RTVSPropertyOp22
70
1
102
RTVSPropertyOp23
70
1
102
RTVSPropertyOp24
70
1
102
RTVSPropertyOp25
70
1
102
RTVSPropertyOp26
70
1
102
RTVSPropertyOp27
70
1
0
XRECORD
5
1091
102
{ACAD_REACTORS
330
1090
102
}
330
1090
100
AcDbXrecord
280
1
102
RTVSPropertyOp0
70
1
102
RTVSPropertyOp1
70
1
102
RTVSPropertyOp2
70
1
102
RTVSPropertyOp3
70
1
102
RTVSPropertyOp4
70
1
102
RTVSPropertyOp5
70
1
102
RTVSPropertyOp6
70
1
102
RTVSPropertyOp7
70
1
102
RTVSPropertyOp8
70
1
102
RTVSPropertyOp9
70
1
102
RTVSPropertyOp10
70
1
102
RTVSPropertyOp11
70
1
102
RTVSPropertyOp12
70
1
102
RTVSPropertyOp13
70
1
102
RTVSPropertyOp14
70
1
102
RTVSPropertyOp15
70
1
102
RTVSPropertyOp16
70
1
102
RTVSPropertyOp17
70
1
102
RTVSPropertyOp18
70
1
102
RTVSPropertyOp19
70
1
102
RTVSPropertyOp20
70
1
102
RTVSPropertyOp21
70
1
102
RTVSPropertyOp22
70
1
102
RTVSPropertyOp23
70
1
102
RTVSPropertyOp24
70
1
102
RTVSPropertyOp25
70
1
102
RTVSPropertyOp26
70
1
102
RTVSPropertyOp27
70
1
0
XRECORD
5
1095
102
{ACAD_REACTORS
330
1094
102
}
330
1094
100
AcDbXrecord
280
1
102
RTVSPropertyOp0
70
1
102
RTVSPropertyOp1
70
1
102
RTVSPropertyOp2
70
1
102
RTVSPropertyOp3
70
1
102
RTVSPropertyOp4
70
1
102
RTVSPropertyOp5
70
1
102
RTVSPropertyOp6
70
1
102
RTVSPropertyOp7
70
1
102
RTVSPropertyOp8
70
1
102
RTVSPropertyOp9
70
1
102
RTVSPropertyOp10
70
1
102
RTVSPropertyOp11
70
1
102
RTVSPropertyOp12
70
1
102
RTVSPropertyOp13
70
1
102
RTVSPropertyOp14
70
1
102
RTVSPropertyOp15
70
1
102
RTVSPropertyOp16
70
1
102
RTVSPropertyOp17
70
1
102
RTVSPropertyOp18
70
1
102
RTVSPropertyOp19
70
1
102
RTVSPropertyOp20
70
1
102
RTVSPropertyOp21
70
1
102
RTVSPropertyOp22
70
1
102
RTVSPropertyOp23
70
1
102
RTVSPropertyOp24
70
1
102
RTVSPropertyOp25
70
1
102
RTVSPropertyOp26
70
1
102
RTVSPropertyOp27
70
1
0
XRECORD
5
10A5
102
{ACAD_REACTORS
330
10A4
102
}
330
10A4
100
AcDbXrecord
280
1
102
RTVSPropertyOp0
70
0
102
RTVSPropertyOp1
70
0
102
RTVSPropertyOp2
70
0
102
RTVSPropertyOp3
70
0
102
RTVSPropertyOp4
70
0
102
RTVSPropertyOp5
70
0
102
RTVSPropertyOp6
70
0
102
RTVSPropertyOp7
70
0
102
RTVSPropertyOp8
70
0
102
RTVSPropertyOp9
70
0
102
RTVSPropertyOp10
70
0
102
RTVSPropertyOp11
70
0
102
RTVSPropertyOp12
70
0
102
RTVSPropertyOp13
70
0
102
RTVSPropertyOp14
70
2
102
RTVSPropertyOp15
70
0
102
RTVSPropertyOp16
70
0
102
RTVSPropertyOp17
70
0
102
RTVSPropertyOp18
70
0
102
RTVSPropertyOp19
70
0
102
RTVSPropertyOp20
70
0
102
RTVSPropertyOp21
70
0
102
RTVSPropertyOp22
70
0
102
RTVSPropertyOp23
70
0
102
RTVSPropertyOp24
70
0
102
RTVSPropertyOp25
70
0
102
RTVSPropertyOp26
70
0
102
RTVSPropertyOp27
70
0
0
XRECORD
5
109D
102
{ACAD_REACTORS
330
109C
102
}
330
109C
100
AcDbXrecord
280
1
102
RTVSPropertyOp0
70
1
102
RTVSPropertyOp1
70
1
102
RTVSPropertyOp2
70
1
102
RTVSPropertyOp3
70
1
102
RTVSPropertyOp4
70
1
102
RTVSPropertyOp5
70
1
102
RTVSPropertyOp6
70
1
102
RTVSPropertyOp7
70
1
102
RTVSPropertyOp8
70
1
102
RTVSPropertyOp9
70
1
102
RTVSPropertyOp10
70
1
102
RTVSPropertyOp11
70
1
102
RTVSPropertyOp12
70
1
102
RTVSPropertyOp13
70
1
102
RTVSPropertyOp14
70
1
102
RTVSPropertyOp15
70
1
102
RTVSPropertyOp16
70
1
102
RTVSPropertyOp17
70
1
102
RTVSPropertyOp18
70
1
102
RTVSPropertyOp19
70
1
102
RTVSPropertyOp20
70
1
102
RTVSPropertyOp21
70
1
102
RTVSPropertyOp22
70
1
102
RTVSPropertyOp23
70
1
102
RTVSPropertyOp24
70
1
102
RTVSPropertyOp25
70
1
102
RTVSPropertyOp26
70
1
102
RTVSPropertyOp27
70
1
0
XRECORD
5
1081
102
{ACAD_REACTORS
330
1080
102
}
330
1080
100
AcDbXrecord
280
1
102
RTVSPropertyOp0
70
1
102
RTVSPropertyOp1
70
1
102
RTVSPropertyOp2
70
1
102
RTVSPropertyOp3
70
1
102
RTVSPropertyOp4
70
1
102
RTVSPropertyOp5
70
1
102
RTVSPropertyOp6
70
1
102
RTVSPropertyOp7
70
1
102
RTVSPropertyOp8
70
1
102
RTVSPropertyOp9
70
1
102
RTVSPropertyOp10
70
1
102
RTVSPropertyOp11
70
1
102
RTVSPropertyOp12
70
1
102
RTVSPropertyOp13
70
1
102
RTVSPropertyOp14
70
1
102
RTVSPropertyOp15
70
1
102
RTVSPropertyOp16
70
1
102
RTVSPropertyOp17
70
1
102
RTVSPropertyOp18
70
1
102
RTVSPropertyOp19
70
1
102
RTVSPropertyOp20
70
1
102
RTVSPropertyOp21
70
1
102
RTVSPropertyOp22
70
1
102
RTVSPropertyOp23
70
1
102
RTVSPropertyOp24
70
1
102
RTVSPropertyOp25
70
1
102
RTVSPropertyOp26
70
1
102
RTVSPropertyOp27
70
1
0
XRECORD
5
1083
102
{ACAD_REACTORS
330
1082
102
}
330
1082
100
AcDbXrecord
280
1
102
RTVSPropertyOp0
70
1
102
RTVSPropertyOp1
70
1
102
RTVSPropertyOp2
70
1
102
RTVSPropertyOp3
70
1
102
RTVSPropertyOp4
70
1
102
RTVSPropertyOp5
70
1
102
RTVSPropertyOp6
70
1
102
RTVSPropertyOp7
70
1
102
RTVSPropertyOp8
70
1
102
RTVSPropertyOp9
70
1
102
RTVSPropertyOp10
70
1
102
RTVSPropertyOp11
70
1
102
RTVSPropertyOp12
70
1
102
RTVSPropertyOp13
70
1
102
RTVSPropertyOp14
70
1
102
RTVSPropertyOp15
70
1
102
RTVSPropertyOp16
70
1
102
RTVSPropertyOp17
70
1
102
RTVSPropertyOp18
70
1
102
RTVSPropertyOp19
70
1
102
RTVSPropertyOp20
70
1
102
RTVSPropertyOp21
70
1
102
RTVSPropertyOp22
70
1
102
RTVSPropertyOp23
70
1
102
RTVSPropertyOp24
70
1
102
RTVSPropertyOp25
70
1
102
RTVSPropertyOp26
70
1
102
RTVSPropertyOp27
70
1
0
XRECORD
5
1085
102
{ACAD_REACTORS
330
1084
102
}
330
1084
100
AcDbXrecord
280
1
102
RTVSPropertyOp0
70
1
102
RTVSPropertyOp1
70
1
102
RTVSPropertyOp2
70
1
102
RTVSPropertyOp3
70
1
102
RTVSPropertyOp4
70
1
102
RTVSPropertyOp5
70
1
102
RTVSPropertyOp6
70
1
102
RTVSPropertyOp7
70
1
102
RTVSPropertyOp8
70
1
102
RTVSPropertyOp9
70
1
102
RTVSPropertyOp10
70
1
102
RTVSPropertyOp11
70
1
102
RTVSPropertyOp12
70
1
102
RTVSPropertyOp13
70
1
102
RTVSPropertyOp14
70
1
102
RTVSPropertyOp15
70
1
102
RTVSPropertyOp16
70
1
102
RTVSPropertyOp17
70
1
102
RTVSPropertyOp18
70
1
102
RTVSPropertyOp19
70
1
102
RTVSPropertyOp20
70
1
102
RTVSPropertyOp21
70
1
102
RTVSPropertyOp22
70
1
102
RTVSPropertyOp23
70
1
102
RTVSPropertyOp24
70
1
102
RTVSPropertyOp25
70
1
102
RTVSPropertyOp26
70
1
102
RTVSPropertyOp27
70
1
0
XRECORD
5
1087
102
{ACAD_REACTORS
330
1086
102
}
330
1086
100
AcDbXrecord
280
1
102
RTVSPropertyOp0
70
1
102
RTVSPropertyOp1
70
1
102
RTVSPropertyOp2
70
1
102
RTVSPropertyOp3
70
1
102
RTVSPropertyOp4
70
1
102
RTVSPropertyOp5
70
1
102
RTVSPropertyOp6
70
1
102
RTVSPropertyOp7
70
1
102
RTVSPropertyOp8
70
1
102
RTVSPropertyOp9
70
1
102
RTVSPropertyOp10
70
1
102
RTVSPropertyOp11
70
1
102
RTVSPropertyOp12
70
1
102
RTVSPropertyOp13
70
1
102
RTVSPropertyOp14
70
1
102
RTVSPropertyOp15
70
1
102
RTVSPropertyOp16
70
1
102
RTVSPropertyOp17
70
1
102
RTVSPropertyOp18
70
1
102
RTVSPropertyOp19
70
1
102
RTVSPropertyOp20
70
1
102
RTVSPropertyOp21
70
1
102
RTVSPropertyOp22
70
1
102
RTVSPropertyOp23
70
1
102
RTVSPropertyOp24
70
1
102
RTVSPropertyOp25
70
1
102
RTVSPropertyOp26
70
1
102
RTVSPropertyOp27
70
1
0
XRECORD
5
10A1
102
{ACAD_REACTORS
330
10A0
102
}
330
10A0
100
AcDbXrecord
280
1
102
RTVSPropertyOp0
70
0
102
RTVSPropertyOp1
70
0
102
RTVSPropertyOp2
70
0
102
RTVSPropertyOp3
70
0
102
RTVSPropertyOp4
70
0
102
RTVSPropertyOp5
70
0
102
RTVSPropertyOp6
70
0
102
RTVSPropertyOp7
70
0
102
RTVSPropertyOp8
70
0
102
RTVSPropertyOp9
70
0
102
RTVSPropertyOp10
70
0
102
RTVSPropertyOp11
70
0
102
RTVSPropertyOp12
70
0
102
RTVSPropertyOp13
70
0
102
RTVSPropertyOp14
70
2
102
RTVSPropertyOp15
70
0
102
RTVSPropertyOp16
70
0
102
RTVSPropertyOp17
70
0
102
RTVSPropertyOp18
70
0
102
RTVSPropertyOp19
70
0
102
RTVSPropertyOp20
70
0
102
RTVSPropertyOp21
70
0
102
RTVSPropertyOp22
70
0
102
RTVSPropertyOp23
70
0
102
RTVSPropertyOp24
70
0
102
RTVSPropertyOp25
70
0
102
RTVSPropertyOp26
70
0
102
RTVSPropertyOp27
70
0
0
XRECORD
5
109B
102
{ACAD_REACTORS
330
109A
102
}
330
109A
100
AcDbXrecord
280
1
102
RTVSPropertyOp0
70
1
102
RTVSPropertyOp1
70
1
102
RTVSPropertyOp2
70
1
102
RTVSPropertyOp3
70
1
102
RTVSPropertyOp4
70
1
102
RTVSPropertyOp5
70
1
102
RTVSPropertyOp6
70
1
102
RTVSPropertyOp7
70
1
102
RTVSPropertyOp8
70
1
102
RTVSPropertyOp9
70
1
102
RTVSPropertyOp10
70
1
102
RTVSPropertyOp11
70
1
102
RTVSPropertyOp12
70
1
102
RTVSPropertyOp13
70
1
102
RTVSPropertyOp14
70
1
102
RTVSPropertyOp15
70
1
102
RTVSPropertyOp16
70
1
102
RTVSPropertyOp17
70
1
102
RTVSPropertyOp18
70
1
102
RTVSPropertyOp19
70
1
102
RTVSPropertyOp20
70
1
102
RTVSPropertyOp21
70
1
102
RTVSPropertyOp22
70
1
102
RTVSPropertyOp23
70
1
102
RTVSPropertyOp24
70
1
102
RTVSPropertyOp25
70
1
102
RTVSPropertyOp26
70
1
102
RTVSPropertyOp27
70
1
0
XRECORD
5
10A3
102
{ACAD_REACTORS
330
10A2
102
}
330
10A2
100
AcDbXrecord
280
1
102
RTVSPropertyOp0
70
0
102
RTVSPropertyOp1
70
0
102
RTVSPropertyOp2
70
0
102
RTVSPropertyOp3
70
0
102
RTVSPropertyOp4
70
0
102
RTVSPropertyOp5
70
0
102
RTVSPropertyOp6
70
0
102
RTVSPropertyOp7
70
0
102
RTVSPropertyOp8
70
0
102
RTVSPropertyOp9
70
0
102
RTVSPropertyOp10
70
0
102
RTVSPropertyOp11
70
0
102
RTVSPropertyOp12
70
0
102
RTVSPropertyOp13
70
0
102
RTVSPropertyOp14
70
2
102
RTVSPropertyOp15
70
0
102
RTVSPropertyOp16
70
0
102
RTVSPropertyOp17
70
0
102
RTVSPropertyOp18
70
0
102
RTVSPropertyOp19
70
0
102
RTVSPropertyOp20
70
0
102
RTVSPropertyOp21
70
0
102
RTVSPropertyOp22
70
0
102
RTVSPropertyOp23
70
0
102
RTVSPropertyOp24
70
0
102
RTVSPropertyOp25
70
0
102
RTVSPropertyOp26
70
0
102
RTVSPropertyOp27
70
0
0
XRECORD
5
1093
102
{ACAD_REACTORS
330
1092
102
}
330
1092
100
AcDbXrecord
280
1
102
RTVSPropertyOp0
70
1
102
RTVSPropertyOp1
70
1
102
RTVSPropertyOp2
70
1
102
RTVSPropertyOp3
70
1
102
RTVSPropertyOp4
70
1
102
RTVSPropertyOp5
70
1
102
RTVSPropertyOp6
70
1
102
RTVSPropertyOp7
70
1
102
RTVSPropertyOp8
70
1
102
RTVSPropertyOp9
70
1
102
RTVSPropertyOp10
70
1
102
RTVSPropertyOp11
70
1
102
RTVSPropertyOp12
70
1
102
RTVSPropertyOp13
70
1
102
RTVSPropertyOp14
70
1
102
RTVSPropertyOp15
70
1
102
RTVSPropertyOp16
70
1
102
RTVSPropertyOp17
70
1
102
RTVSPropertyOp18
70
1
102
RTVSPropertyOp19
70
1
102
RTVSPropertyOp20
70
1
102
RTVSPropertyOp21
70
1
102
RTVSPropertyOp22
70
1
102
RTVSPropertyOp23
70
1
102
RTVSPropertyOp24
70
1
102
RTVSPropertyOp25
70
1
102
RTVSPropertyOp26
70
1
102
RTVSPropertyOp27
70
1
0
XRECORD
5
1099
102
{ACAD_REACTORS
330
1098
102
}
330
1098
100
AcDbXrecord
280
1
102
RTVSPropertyOp0
70
1
102
RTVSPropertyOp1
70
1
102
RTVSPropertyOp2
70
1
102
RTVSPropertyOp3
70
1
102
RTVSPropertyOp4
70
1
102
RTVSPropertyOp5
70
1
102
RTVSPropertyOp6
70
1
102
RTVSPropertyOp7
70
1
102
RTVSPropertyOp8
70
1
102
RTVSPropertyOp9
70
1
102
RTVSPropertyOp10
70
1
102
RTVSPropertyOp11
70
1
102
RTVSPropertyOp12
70
1
102
RTVSPropertyOp13
70
1
102
RTVSPropertyOp14
70
1
102
RTVSPropertyOp15
70
1
102
RTVSPropertyOp16
70
1
102
RTVSPropertyOp17
70
1
102
RTVSPropertyOp18
70
1
102
RTVSPropertyOp19
70
1
102
RTVSPropertyOp20
70
1
102
RTVSPropertyOp21
70
1
102
RTVSPropertyOp22
70
1
102
RTVSPropertyOp23
70
1
102
RTVSPropertyOp24
70
1
102
RTVSPropertyOp25
70
1
102
RTVSPropertyOp26
70
1
102
RTVSPropertyOp27
70
1
0
ENDSEC
0
EOF
