0
SECTION
2
HEADER
9
$ACADVER
1
AC1015
9
$ACADMAINTVER
70
20
9
$DWGCODEPAGE
3
ANSI_1252
9
$INSBASE
10
0.0
20
0.0
30
0.0
9
$EXTMIN
10
-150.000000000000
20
-105.000000000000
30
0.0
9
$EXTMAX
10
150.000000000000
20
105.000000000000
30
0.0
9
$LIMMIN
10
0.0
20
0.0
9
$LIMMAX
10
12.0
20
9.0
9
$ORTHOMODE
70
0
9
$REGENMODE
70
1
9
$FILLMODE
70
1
9
$QTEXTMODE
70
0
9
$MIRRTEXT
70
1
9
$LTSCALE
40
1.0
9
$ATTMODE
70
1
9
$TEXTSIZE
40
0.2
9
$TRACEWID
40
0.05
9
$TEXTSTYLE
7
Standard
9
$CLAYER
8
0
9
$CELTYPE
6
ByLayer
9
$CECOLOR
62
256
9
$CELTSCALE
40
1.0
9
$DISPSILH
70
0
9
$DIMSCALE
40
1.0
9
$DIMASZ
40
2.5
9
$DIMEXO
40
0.625
9
$DIMDLI
40
0.38
9
$DIMRND
40
0.0
9
$DIMDLE
40
0.0
9
$DIMEXE
40
1.25
9
$DIMTP
40
0.0
9
$DIMTM
40
0.000000001
9
$DIMTXT
40
2.5
9
$DIMCEN
40
0.09
9
$DIMTSZ
40
0.0
9
$DIMTOL
70
1
9
$DIMLIM
70
0
9
$DIMTIH
70
0
9
$DIMTOH
70
0
9
$DIMSE1
70
0
9
$DIMSE2
70
0
9
$DIMTAD
70
1
9
$DIMZIN
70
0
9
$DIMBLK
1
VDDIM_DEFAULT
9
$DIMASO
70
1
9
$DIMSHO
70
1
9
$DIMPOST
1

9
$DIMAPOST
1

9
$DIMALT
70
0
9
$DIMALTD
70
2
9
$DIMALTF
40
25.4
9
$DIMLFAC
40
1.00000000000000
9
$DIMTOFL
70
0
9
$DIMTVP
40
0.0
9
$DIMTIX
70
0
9
$DIMSOXD
70
0
9
$DIMSAH
70
0
9
$DIMBLK1
1

9
$DIMBLK2
1

9
$DIMSTYLE
2
BEM-ISBE
9
$DIMCLRD
70
0
9
$DIMCLRE
70
0
9
$DIMCLRT
70
0
9
$DIMTFAC
40
0.5
9
$DIMGAP
40
0.625
9
$DIMJUST
70
0
9
$DIMSD1
70
0
9
$DIMSD2
70
0
9
$DIMTOLJ
70
1
9
$DIMTZIN
70
0
9
$DIMALTZ
70
0
9
$DIMALTTZ
70
0
9
$DIMUPT
70
0
9
$DIMDEC
70
3
9
$DIMTDEC
70
3
9
$DIMALTU
70
2
9
$DIMALTTD
70
2
9
$DIMTXSTY
7
Standard
9
$DIMAUNIT
70
0
9
$DIMADEC
70
3
9
$DIMALTRND
40
0.0
9
$DIMAZIN
70
0
9
$DIMDSEP
70
46
9
$DIMATFIT
70
3
9
$DIMFRAC
70
0
9
$DIMLDRBLK
1

9
$DIMLUNIT
70
2
9
$DIMLWD
70
-2
9
$DIMLWE
70
-2
9
$DIMTMOVE
70
0
9
$LUNITS
70
2
9
$LUPREC
70
4
9
$SKETCHINC
40
0.1
9
$FILLETRAD
40
0.5
9
$AUNITS
70
0
9
$AUPREC
70
0
9
$MENU
1
.
9
$ELEVATION
40
0.0
9
$PELEVATION
40
0.0
9
$THICKNESS
40
0.0
9
$LIMCHECK
70
0
9
$CHAMFERA
40
0.5
9
$CHAMFERB
40
0.5
9
$CHAMFERC
40
1.0
9
$CHAMFERD
40
0.0
9
$SKPOLY
70
0
9
$TDCREATE
40
0.0
9
$TDUCREATE
40
0.0
9
$TDUPDATE
40
0.0
9
$TDUUPDATE
40
0.0
9
$TDINDWG
40
0.0
9
$TDUSRTIMER
40
0.0
9
$USRTIMER
70
1
9
$ANGBASE
50
0.0
9
$ANGDIR
70
0
9
$PDMODE
70
0
9
$PDSIZE
40
0.0
9
$PLINEWID
40
0.0
9
$SPLFRAME
70
0
9
$SPLINETYPE
70
6
9
$SPLINESEGS
70
8
9
$HANDSEED
5
10AB
9
$SURFTAB1
70
6
9
$SURFTAB2
70
6
9
$SURFTYPE
70
6
9
$SURFU
70
6
9
$SURFV
70
6
9
$UCSBASE
2

9
$UCSNAME
2

9
$UCSORG
10
0.0
20
0.0
30
0.0
9
$UCSXDIR
10
1.0
20
0.0
30
0.0
9
$UCSYDIR
10
0.0
20
1.0
30
0.0
9
$UCSORTHOREF
2

9
$UCSORTHOVIEW
70
0
9
$UCSORGTOP
10
0.0
20
0.0
30
0.0
9
$UCSORGBOTTOM
10
0.0
20
0.0
30
0.0
9
$UCSORGLEFT
10
0.0
20
0.0
30
0.0
9
$UCSORGRIGHT
10
0.0
20
0.0
30
0.0
9
$UCSORGFRONT
10
0.0
20
0.0
30
0.0
9
$UCSORGBACK
10
0.0
20
0.0
30
0.0
9
$PUCSBASE
2

9
$PUCSNAME
2

9
$PUCSORG
10
0.0
20
0.0
30
0.0
9
$PUCSXDIR
10
1.0
20
0.0
30
0.0
9
$PUCSYDIR
10
0.0
20
1.0
30
0.0
9
$PUCSORTHOREF
2

9
$PUCSORTHOVIEW
70
0
9
$PUCSORGTOP
10
0.0
20
0.0
30
0.0
9
$PUCSORGBOTTOM
10
0.0
20
0.0
30
0.0
9
$PUCSORGLEFT
10
0.0
20
0.0
30
0.0
9
$PUCSORGRIGHT
10
0.0
20
0.0
30
0.0
9
$PUCSORGFRONT
10
0.0
20
0.0
30
0.0
9
$PUCSORGBACK
10
0.0
20
0.0
30
0.0
9
$USERI1
70
0
9
$USERI2
70
0
9
$USERI3
70
0
9
$USERI4
70
0
9
$USERI5
70
0
9
$USERR1
40
0.0
9
$USERR2
40
0.0
9
$USERR3
40
0.0
9
$USERR4
40
0.0
9
$USERR5
40
0.0
9
$WORLDVIEW
70
1
9
$SHADEDGE
70
3
9
$SHADEDIF
70
70
9
$TILEMODE
70
1
9
$MAXACTVP
70
64
9
$PINSBASE
10
0.0
20
0.0
30
0.0
9
$PLIMCHECK
70
0
9
$PEXTMIN
10
1.000000000000000E+20
20
1.000000000000000E+20
30
1.000000000000000E+20
9
$PEXTMAX
10
-1.000000000000000E+20
20
-1.000000000000000E+20
30
-1.000000000000000E+20
9
$PLIMMIN
10
0.0
20
0.0
9
$PLIMMAX
10
12.0
20
9.0
9
$UNITMODE
70
0
9
$VISRETAIN
70
1
9
$PLINEGEN
70
0
9
$PSLTSCALE
70
1
9
$TREEDEPTH
70
3020
9
$CMLSTYLE
2
Standard
9
$CMLJUST
70
0
9
$CMLSCALE
40
1.0
9
$PROXYGRAPHICS
70
1
9
$MEASUREMENT
70
0
9
$CELWEIGHT
370
-1
9
$ENDCAPS
280
0
9
$JOINSTYLE
280
0
9
$LWDISPLAY
290
0
9
$INSUNITS
70
4
9
$HYPERLINKBASE
1

9
$STYLESHEET
1

9
$XEDIT
290
1
9
$CEPSNTYPE
380
0
9
$PSTYLEMODE
290
0
9
$FINGERPRINTGUID
2
{FAEB1C30-E019-11D5-929B-00C0DF256EC4}
9
$VERSIONGUID
2
{04C5C4E4-4947-4D90-8812-D401569E61F7}
9
$EXTNAMES
290
1
9
$PSVPSCALE
40
0.0
9
$OLESTARTUP
290
0
0
ENDSEC
0
SECTION
2
CLASSES
0
CLASS
1
ACDBDICTIONARYWDFLT
2
AcDbDictionaryWithDefault
3
ObjectDBX Classes
90
0
280
0
281
0
0
CLASS
1
ACDBPLACEHOLDER
2
AcDbPlaceHolder
3
ObjectDBX Classes
90
0
280
0
281
0
0
CLASS
1
LAYOUT
2
AcDbLayout
3
ObjectDBX Classes
90
0
280
0
281
0
0
CLASS
1
MATERIAL
2
AcDbMaterial
3
ObjectDBX Classes
90
1153
280
0
281
0
0
CLASS
1
VISUALSTYLE
2
AcDbVisualStyle
3
ObjectDBX Classes
90
4095
280
0
281
0
0
CLASS
1
TABLESTYLE
2
AcDbTableStyle
3
ObjectDBX Classes
90
4095
280
0
281
0
0
CLASS
1
SCALE
2
AcDbScale
3
ObjectDBX Classes
90
1153
280
0
281
0
0
CLASS
1
MLEADERSTYLE
2
AcDbMLeaderStyle
3
ACDB_MLEADERSTYLE_CLASS
90
4095
280
0
281
0
0
CLASS
1
DICTIONARYVAR
2
AcDbDictionaryVar
3
ObjectDBX Classes
90
0
280
0
281
0
0
CLASS
1
CELLSTYLEMAP
2
AcDbCellStyleMap
3
ObjectDBX Classes
90
1152
280
0
281
0
0
ENDSEC
0
SECTION
2
TABLES
0
TABLE
2
VPORT
5
24A
330
0
100
AcDbSymbolTable
70
1
0
VPORT
5
26B
330
24A
100
AcDbSymbolTableRecord
100
AcDbViewportTableRecord
2
*Active
70
0
10
0.0
20
0.0
11
1.0
21
1.0
12
0.000000000000000
22
0.000000000000000
13
0.0
23
0.0
14
10.0
24
10.0
15
10.0
25
10.0
16
0.0
26
0.0
36
1.0
17
0.0
27
0.0
37
0.0
40
210.000000000000
41
1.42857142857143
42
1.0
43
0.0
44
0.0
50
0.0
51
0.0000000000007958
71
0
72
100
73
1
74
3
75
0
76
0
77
0
78
1
281
0
65
1
110
0.0
120
0.0
130
0.0
111
1.0
121
0.0
131
0.0
112
0.0
122
1.0
132
0.0
79
0
146
0.0
0
ENDTAB
0
TABLE
2
LTYPE
5
247
330
0
100
AcDbSymbolTable
70
25
0
LTYPE
5
256
330
247
100
AcDbSymbolTableRecord
100
AcDbLinetypeTableRecord
2
ByBlock
70
0
3

72
65
73
0
40
0.0
0
LTYPE
5
257
330
247
100
AcDbSymbolTableRecord
100
AcDbLinetypeTableRecord
2
ByLayer
70
0
3

72
65
73
0
40
0.0
0
LTYPE
5
258
330
247
100
AcDbSymbolTableRecord
100
AcDbLinetypeTableRecord
2
Continuous
70
0
3
Solid line
72
65
73
0
40
0.0
0
LTYPE
5
273
330
247
100
AcDbSymbolTableRecord
100
AcDbLinetypeTableRecord
2
CENTER
70
0
3
Center ____ _ ____ _ ____ _ ____ _ ____ _ ____
72
65
73
4
40
2.0
49
1.25
74
0
49
-0.25
74
0
49
0.25
74
0
49
-0.25
74
0
0
LTYPE
5
274
330
247
100
AcDbSymbolTableRecord
100
AcDbLinetypeTableRecord
2
DASHDOT
70
0
3
Dashdot __ . __ . __ . __ . __ . __ . __ . __
72
65
73
4
40
1.0
49
0.5
74
0
49
-0.25
74
0
49
0.0
74
0
49
-0.25
74
0
0
LTYPE
5
275
330
247
100
AcDbSymbolTableRecord
100
AcDbLinetypeTableRecord
2
DASHED
70
0
3
Dashed __ __ __ __ __ __ __ __ __ __ __ __ __ _
72
65
73
2
40
0.75
49
0.5
74
0
49
-0.25
74
0
0
LTYPE
5
276
330
247
100
AcDbSymbolTableRecord
100
AcDbLinetypeTableRecord
2
HIDDEN
70
0
3
Hidden __ __ __ __ __ __ __ __ __ __ __ __ __ __
72
65
73
2
40
0.375
49
0.25
74
0
49
-0.125
74
0
0
LTYPE
5
277
330
247
100
AcDbSymbolTableRecord
100
AcDbLinetypeTableRecord
2
HIDDEN2
70
0
3
Hidden2 _ _ _ _ _ _ _ _ _ _ _ _ _ _ _ _ _
72
65
73
2
40
0.1875
49
0.125
74
0
49
-0.0625
74
0
0
LTYPE
5
278
330
247
100
AcDbSymbolTableRecord
100
AcDbLinetypeTableRecord
2
BORDER
70
0
3
Border __ __ . __ __ . __ __ . __ __ . __ __ .
72
65
73
6
40
1.75
49
0.5
74
0
49
-0.25
74
0
49
0.5
74
0
49
-0.25
74
0
49
0.0
74
0
49
-0.25
74
0
0
LTYPE
5
279
330
247
100
AcDbSymbolTableRecord
100
AcDbLinetypeTableRecord
2
BORDER2
70
0
3
Border2 __.__.__.__.__.__.__.__.__.__.__.
72
65
73
6
40
0.875
49
0.25
74
0
49
-0.125
74
0
49
0.25
74
0
49
-0.125
74
0
49
0.0
74
0
49
-0.125
74
0
0
LTYPE
5
27A
330
247
100
AcDbSymbolTableRecord
100
AcDbLinetypeTableRecord
2
BORDERX2
70
0
3
Borderx2  ____  ____  .  ____  ____  .  ___
72
65
73
6
40
3.5
49
1.0
74
0
49
-0.5
74
0
49
1.0
74
0
49
-0.5
74
0
49
0.0
74
0
49
-0.5
74
0
0
LTYPE
5
27B
330
247
100
AcDbSymbolTableRecord
100
AcDbLinetypeTableRecord
2
CENTER2
70
0
3
Center2  ___ _ ___ _ ___ _ ___ _ ___ _ ___
72
65
73
4
40
1.125
49
0.75
74
0
49
-0.125
74
0
49
0.125
74
0
49
-0.125
74
0
0
LTYPE
5
27C
330
247
100
AcDbSymbolTableRecord
100
AcDbLinetypeTableRecord
2
CENTERX2
70
0
3
Centerx2  ________  __  ________  __  _____
72
65
73
4
40
4.0
49
2.5
74
0
49
-0.5
74
0
49
0.5
74
0
49
-0.5
74
0
0
LTYPE
5
27D
330
247
100
AcDbSymbolTableRecord
100
AcDbLinetypeTableRecord
2
DASHDOT2
70
0
3
Dashdot2  _._._._._._._._._._._._._._._.
72
65
73
4
40
0.5
49
0.25
74
0
49
-0.125
74
0
49
0.0
74
0
49
-0.125
74
0
0
LTYPE
5
27E
330
247
100
AcDbSymbolTableRecord
100
AcDbLinetypeTableRecord
2
DASHDOTX2
70
0
3
Dashdotx2 ____  .  ____  .  ____  .  ___
72
65
73
4
40
2.0
49
1.0
74
0
49
-0.5
74
0
49
0.0
74
0
49
-0.5
74
0
0
LTYPE
5
27F
330
247
100
AcDbSymbolTableRecord
100
AcDbLinetypeTableRecord
2
DASHED2
70
0
3
Dashed2 _ _ _ _ _ _ _ _ _ _ _ _ _ _ _ _ _
72
65
73
2
40
0.375
49
0.25
74
0
49
-0.125
74
0
0
LTYPE
5
280
330
247
100
AcDbSymbolTableRecord
100
AcDbLinetypeTableRecord
2
DASHEDX2
70
0
3
Dashedx2 ____  ____  ____  ____  ____  ___
72
65
73
2
40
1.5
49
1.0
74
0
49
-0.5
74
0
0
LTYPE
5
281
330
247
100
AcDbSymbolTableRecord
100
AcDbLinetypeTableRecord
2
DIVIDE
70
0
3
Divide ____ . . ____ . . ____ . . ____ . . ____
72
65
73
6
40
1.25
49
0.5
74
0
49
-0.25
74
0
49
0.0
74
0
49
-0.25
74
0
49
0.0
74
0
49
-0.25
74
0
0
LTYPE
5
282
330
247
100
AcDbSymbolTableRecord
100
AcDbLinetypeTableRecord
2
DIVIDE2
70
0
3
Divide2 __..__..__..__..__..__..__..__.._
72
65
73
6
40
0.625
49
0.25
74
0
49
-0.125
74
0
49
0.0
74
0
49
-0.125
74
0
49
0.0
74
0
49
-0.125
74
0
0
LTYPE
5
283
330
247
100
AcDbSymbolTableRecord
100
AcDbLinetypeTableRecord
2
DIVIDEX2
70
0
3
Dividex2 ________  .  .  ________  .  .  _
72
65
73
6
40
2.5
49
1.0
74
0
49
-0.5
74
0
49
0.0
74
0
49
-0.5
74
0
49
0.0
74
0
49
-0.5
74
0
0
LTYPE
5
284
330
247
100
AcDbSymbolTableRecord
100
AcDbLinetypeTableRecord
2
DOT
70
0
3
Dot . . . . . . . . . . . . . . . . . . . . . . . .
72
65
73
2
40
0.25
49
0.0
74
0
49
-0.25
74
0
0
LTYPE
5
285
330
247
100
AcDbSymbolTableRecord
100
AcDbLinetypeTableRecord
2
DOT2
70
0
3
Dot2 ........................................
72
65
73
2
40
0.125
49
0.0
74
0
49
-0.125
74
0
0
LTYPE
5
286
330
247
100
AcDbSymbolTableRecord
100
AcDbLinetypeTableRecord
2
DOTX2
70
0
3
Dotx2 .  .  .  .  .  .  .  .  .  .  .  .  .  .
72
65
73
2
40
0.5
49
0.0
74
0
49
-0.5
74
0
0
LTYPE
5
287
330
247
100
AcDbSymbolTableRecord
100
AcDbLinetypeTableRecord
2
HIDDENX2
70
0
3
Hiddenx2 ____ ____ ____ ____ ____ ____ ____
72
65
73
2
40
0.75
49
0.5
74
0
49
-0.25
74
0
0
LTYPE
5
288
330
247
100
AcDbSymbolTableRecord
100
AcDbLinetypeTableRecord
2
PHANTOM
70
0
3
Phantom ______  __  __  ______  __  __  ______
72
65
73
6
40
2.5
49
1.25
74
0
49
-0.25
74
0
49
0.25
74
0
49
-0.25
74
0
49
0.25
74
0
49
-0.25
74
0
0
LTYPE
5
289
330
247
100
AcDbSymbolTableRecord
100
AcDbLinetypeTableRecord
2
PHANTOM2
70
0
3
Phantom2 ___ _ _ ___ _ _ ___ _ _ ___ _ _
72
65
73
6
40
1.25
49
0.625
74
0
49
-0.125
74
0
49
0.125
74
0
49
-0.125
74
0
49
0.125
74
0
49
-0.125
74
0
0
LTYPE
5
28A
330
247
100
AcDbSymbolTableRecord
100
AcDbLinetypeTableRecord
2
PHANTOMX2
70
0
3
Phantomx2 ____________    ____    ____   _
72
65
73
6
40
5.0
49
2.5
74
0
49
-0.5
74
0
49
0.5
74
0
49
-0.5
74
0
49
0.5
74
0
49
-0.5
74
0
0
ENDTAB
0
TABLE
2
LAYER
5
244
330
0
100
AcDbSymbolTable
70
6
0
LAYER
5
252
330
244
100
AcDbSymbolTableRecord
100
AcDbLayerTableRecord
2
0
70
0
62
7
6
Continuous
370
0
390
251
0
LAYER
5
23F
330
244
100
AcDbSymbolTableRecord
100
AcDbLayerTableRecord
2
Bemassung
70
0
 62
   7
6
Continuous
370
0
390
251
0
LAYER
5
240
330
244
100
AcDbSymbolTableRecord
100
AcDbLayerTableRecord
2
Rahmen
70
0
 62
   7
6
Continuous
370
0
390
251
0
LAYER
5
241
330
244
100
AcDbSymbolTableRecord
100
AcDbLayerTableRecord
2
Geo
70
0
 62
   7
6
Continuous
370
0
390
251
0
LAYER
5
33A
330
244
100
AcDbSymbolTableRecord
100
AcDbLayerTableRecord
2
Defpoints
70
0
62
7
6
Continuous
290
0
370
-3
390
251
0
LAYER
5
57E
330
244
100
AcDbSymbolTableRecord
100
AcDbLayerTableRecord
2
Text
70
0
 62
   7
6
Continuous
370
0
390
251
1001
AcAecLayerStandard
1000

1000

0
ENDTAB
0
TABLE
2
STYLE
5
245
330
0
100
AcDbSymbolTable
70
2
0
STYLE
5
253
330
245
100
AcDbSymbolTableRecord
100
AcDbTextStyleTableRecord
2
Standard
70
0
40
0.0
41
1.0
50
0.0
71
0
42
0.2
3
Arial
4

1001
ACAD
1000
Arial
1071
0
0
STYLE
5
132
330
245
100
AcDbSymbolTableRecord
100
AcDbTextStyleTableRecord
2
Beschriftung
70
0
40
0.0
41
1.0
50
0.0
71
0
42
0.2
3
Arial
4

1001
ACAD
1000
Arial
1071
0
1001
AcadAnnotative
1000
AnnotativeData
1070
1
1070
1
0
ENDTAB
0
TABLE
2
VIEW
5
248
330
0
100
AcDbSymbolTable
70
0
0
ENDTAB
0
TABLE
2
UCS
5
249
330
0
100
AcDbSymbolTable
70
0
0
ENDTAB
0
TABLE
2
APPID
5
24B
330
0
100
AcDbSymbolTable
70
13
0
APPID
5
254
330
24B
100
AcDbSymbolTableRecord
100
AcDbRegAppTableRecord
2
ACAD
70
0
0
APPID
5
26C
330
24B
100
AcDbSymbolTableRecord
100
AcDbRegAppTableRecord
2
VD_INVISIBLE_NOT_FOR_READ
70
0
0
APPID
5
26D
330
24B
100
AcDbSymbolTableRecord
100
AcDbRegAppTableRecord
2
VD_TEMPHATCH
70
0
0
APPID
5
26E
330
24B
100
AcDbSymbolTableRecord
100
AcDbRegAppTableRecord
2
VDEXTRAPARAM
70
0
0
APPID
5
26F
330
24B
100
AcDbSymbolTableRecord
100
AcDbRegAppTableRecord
2
PE_URL
70
0
0
APPID
5
270
330
24B
100
AcDbSymbolTableRecord
100
AcDbRegAppTableRecord
2
VD_UNKNOWN
70
0
0
APPID
5
28F
330
24B
100
AcDbSymbolTableRecord
100
AcDbRegAppTableRecord
2
AcadAnnotative
70
0
0
APPID
5
290
330
24B
100
AcDbSymbolTableRecord
100
AcDbRegAppTableRecord
2
ACAD_DSTYLE_DIMJAG
70
0
0
APPID
5
291
330
24B
100
AcDbSymbolTableRecord
100
AcDbRegAppTableRecord
2
ACAD_DSTYLE_DIMTALN
70
0
0
APPID
5
293
330
24B
100
AcDbSymbolTableRecord
100
AcDbRegAppTableRecord
2
ACAD_PSEXT
70
0
0
APPID
5
42A
330
24B
100
AcDbSymbolTableRecord
100
AcDbRegAppTableRecord
2
ACAD_MLEADERVER
70
0
0
APPID
5
532
330
24B
100
AcDbSymbolTableRecord
100
AcDbRegAppTableRecord
2
ACAD_EXEMPT_FROM_CAD_STANDARDS
70
0
0
APPID
5
57F
330
24B
100
AcDbSymbolTableRecord
100
AcDbRegAppTableRecord
2
AcAecLayerStandard
70
0
0
ENDTAB
0
TABLE
2
DIMSTYLE
5
24C
330
0
100
AcDbSymbolTable
70
3
100
AcDbDimStyleTable
71
2
340
27
340
269
0
DIMSTYLE
105
269
330
24C
100
AcDbSymbolTableRecord
100
AcDbDimStyleTableRecord
2
Standard
70
0
172
1
174
1
288
1
340
253
342
23C
0
DIMSTYLE
105
137
330
24C
100
AcDbSymbolTableRecord
100
AcDbDimStyleTableRecord
2
Beschriftung
70
0
41
2.5
42
0.625
44
1.25
73
0
74
0
77
1
140
2.5
147
0.625
172
1
174
1
271
2
288
1
340
253
342
23C
1001
AcadAnnotative
1000
AnnotativeData
1070
1
1070
1
1001
ACAD_DSTYLE_DIMJAG
1070
388
1040
1.5
1001
ACAD_DSTYLE_DIMTALN
1070
392
1070
0
0
DIMSTYLE
105
27
102
{ACAD_REACTORS
330
F10012
330
F10017
330
F1001C
330
F10021
330
F10008
330
F10003
330
F1000D
330
F10026
102
}
330
24C
100
AcDbSymbolTableRecord
100
AcDbDimStyleTableRecord
2
BEM-ISBE
70
0
41
2.5
42
0.625
44
1.25
48
0.000000001
71
1
73
0
74
0
77
1
140
2.5
144
1.00000000000000
146
0.5
147
0.625
171
 3
172
 1
179
 3
271
 3
272
 3
274
 3
340
253
342
23C
1001
ACAD_DSTYLE_DIMJAG
1070
388
1040
1.5
1001
ACAD_DSTYLE_DIMTALN
1070
392
1070
1
0
ENDTAB
0
TABLE
2
BLOCK_RECORD
5
243
330
0
100
AcDbSymbolTable
70
5
0
BLOCK_RECORD
5
261
330
243
100
AcDbSymbolTableRecord
100
AcDbBlockTableRecord
2
*Model_Space
340
FD0
0
BLOCK_RECORD
5
25D
330
243
100
AcDbSymbolTableRecord
100
AcDbBlockTableRecord
2
*Paper_Space
340
FD1
0
BLOCK_RECORD
5
265
330
243
100
AcDbSymbolTableRecord
100
AcDbBlockTableRecord
2
*Paper_Space0
340
0
0
BLOCK_RECORD
5
23C
330
243
100
AcDbSymbolTableRecord
100
AcDbBlockTableRecord
2
VDDIM_DEFAULT
340
0
102
{BLKREFS
102
}
0
BLOCK_RECORD
5
23E
330
243
100
AcDbSymbolTableRecord
100
AcDbBlockTableRecord
2
VDDIM_NONE
340
0
0
BLOCK_RECORD
5
F10011
330
243
100
AcDbSymbolTableRecord
100
AcDbBlockTableRecord
2
*D6
340
0
0
BLOCK_RECORD
5
F10016
330
243
100
AcDbSymbolTableRecord
100
AcDbBlockTableRecord
2
*D7
340
0
0
BLOCK_RECORD
5
F1001B
330
243
100
AcDbSymbolTableRecord
100
AcDbBlockTableRecord
2
*D8
340
0
0
BLOCK_RECORD
5
F10020
330
243
100
AcDbSymbolTableRecord
100
AcDbBlockTableRecord
2
*D9
340
0
0
BLOCK_RECORD
5
F10007
330
243
100
AcDbSymbolTableRecord
100
AcDbBlockTableRecord
2
*D4
340
0
0
BLOCK_RECORD
5
F10002
330
243
100
AcDbSymbolTableRecord
100
AcDbBlockTableRecord
2
*D3
340
0
0
BLOCK_RECORD
5
F1000C
330
243
100
AcDbSymbolTableRecord
100
AcDbBlockTableRecord
2
*D5
340
0
0
BLOCK_RECORD
5
F10025
330
243
100
AcDbSymbolTableRecord
100
AcDbBlockTableRecord
2
*D10
340
0
0
ENDTAB
0
ENDSEC
0
SECTION
2
BLOCKS
0
BLOCK
5
262
330
261
100
AcDbEntity
8
0
100
AcDbBlockBegin
2
*Model_Space
70
0
10
0.0
20
0.0
30
0.0
3
*Model_Space
1

0
ENDBLK
5
263
330
261
100
AcDbEntity
8
0
100
AcDbBlockEnd
0
BLOCK
5
25E
330
25D
100
AcDbEntity
67
1
8
0
100
AcDbBlockBegin
2
*Paper_Space
70
0
10
0.0
20
0.0
30
0.0
3
*Paper_Space
1

0
ENDBLK
5
25F
330
25D
100
AcDbEntity
67
1
8
0
100
AcDbBlockEnd
0
BLOCK
5
266
330
265
100
AcDbEntity
8
0
100
AcDbBlockBegin
2
*Paper_Space0
70
0
10
0.0
20
0.0
30
0.0
3
*Paper_Space0
1

0
VIEWPORT
5
296
102
{ACAD_XDICTIONARY
360
58E
102
}
330
265
100
AcDbEntity
8
0
60
1
100
AcDbViewport
10
0.0
20
0.0
30
0.0
40
10.0
41
10.0
69
0
12
0.0
22
0.0
13
0.0
23
0.0
14
1.0
24
1.0
15
0.0
25
0.0
16
0.0
26
0.0
36
1.0
17
0.0
27
0.0
37
0.0
42
0.0
43
0.0
44
0.0
45
10.0
50
0.0
51
0.0000000000007958
72
100
90
163872
1

281
0
71
0
74
0
110
0.0
120
0.0
130
0.0
111
1.0
121
0.0
131
0.0
112
0.0
122
1.0
132
0.0
79
0
146
0.0
1001
VD_INVISIBLE_NOT_FOR_READ
1000
VD_INVISIBLE_NOT_FOR_READ
0
VIEWPORT
5
297
102
{ACAD_XDICTIONARY
360
590
102
}
330
265
100
AcDbEntity
8
0
60
1
100
AcDbViewport
10
0.0
20
0.0
30
0.0
40
10.0
41
10.0
69
0
12
0.0
22
0.0
13
0.0
23
0.0
14
1.0
24
1.0
15
0.0
25
0.0
16
0.0
26
0.0
36
1.0
17
0.0
27
0.0
37
0.0
42
0.0
43
0.0
44
0.0
45
10.0
50
0.0
51
0.0000000000007958
72
100
90
163872
1

281
0
71
0
74
0
110
0.0
120
0.0
130
0.0
111
1.0
121
0.0
131
0.0
112
0.0
122
1.0
132
0.0
79
0
146
0.0
1001
VD_INVISIBLE_NOT_FOR_READ
1000
VD_INVISIBLE_NOT_FOR_READ
0
ENDBLK
5
267
330
265
100
AcDbEntity
8
0
100
AcDbBlockEnd
0
BLOCK
5
28B
330
23C
100
AcDbEntity
8
0
100
AcDbBlockBegin
2
VDDIM_DEFAULT
70
0
10
0.0
20
0.0
30
0.0
3
VDDIM_DEFAULT
1

0
LWPOLYLINE
5
23D
330
23C
100
AcDbEntity
8
0
6
Continuous
62
0
100
AcDbPolyline
90
4
70
0
43
0.0
10
0.0
20
0.0
10
-1.0
20
-0.1665
10
-1.0
20
0.1665
10
0.0
20
0.0
1001
VDEXTRAPARAM
1071
1
1071
0
1071
0
1040
1.0
1000

1000

1040
0.0
1040
0.0
0
HATCH
5
292
330
23C
100
AcDbEntity
8
0
6
Continuous
62
0
100
AcDbHatch
10
0.0
20
0.0
30
0.0
210
0.0
220
0.0
230
1.0
2
SOLID
70
1
71
0
91
1
92
2
72
0
73
1
93
3
10
0.0
20
0.0
10
-1.0
20
-0.1665
10
-1.0
20
0.1665
97
0
75
0
76
1
98
1
10
0.0
20
0.0
1001
VDEXTRAPARAM
1071
1
1071
0
1071
0
1040
1.0
1000

1000

1040
0.0
1040
0.0
1001
VD_TEMPHATCH
1000
VD_TEMPHATCH
0
ENDBLK
5
28C
330
23C
100
AcDbEntity
8
0
100
AcDbBlockEnd
0
BLOCK
5
28D
330
23E
100
AcDbEntity
8
0
100
AcDbBlockBegin
2
VDDIM_NONE
70
0
10
0.0
20
0.0
30
0.0
3
VDDIM_NONE
1

0
ENDBLK
5
28E
330
23E
100
AcDbEntity
8
0
100
AcDbBlockEnd
  0
BLOCK
  5
F1002A
330
F10011
100
AcDbEntity
  8
0
100
AcDbBlockBegin
  2
*D6
 70
     1
 10
0.0
 20
0.0
 30
0.0
  3
*D6
  1

  0
LINE
  5
F1002B
330
F10011
100
AcDbEntity
  8
Bemassung
 62
     0
370
    -2
100
AcDbLine
10
-71.9741074603339
20
-12.8119338415157
30
0.000000000000000
11
-71.9741074603339
21
32.1880661584843
31
0.000000000000000
  0
LINE
  5
F1002C
330
F10011
100
AcDbEntity
  8
Bemassung
 62
     0
370
    -2
100
AcDbLine
10
28.0258925396661
20
-0.211933841515724
30
0.000000000000000
11
28.0258925396661
21
12.1880661584843
31
0.000000000000000
  0
LINE
  5
F1002D
330
F10011
100
AcDbEntity
  8
Bemassung
 62
     0
370
    -2
100
AcDbLine
10
-71.9741074603339
20
10.1880661584843
30
0.000000000000000
11
28.0258925396661
21
10.1880661584843
31
0.000000000000000
  0
INSERT
  5
F1002E
330
F10011
100
AcDbEntity
  8
Bemassung
 62
     0
370
    -2
100
AcDbBlockReference
  2
VDDIM_DEFAULT
10
-71.9741074603339
20
10.1880661584843
30
0.000000000000000
 41
2.50000000000000
 42
2.50000000000000
 43
2.50000000000000
 50
180.000000000000
  0
INSERT
  5
F1002F
330
F10011
100
AcDbEntity
  8
Bemassung
 62
     0
370
    -2
100
AcDbBlockReference
  2
VDDIM_DEFAULT
10
28.0258925396661
20
10.1880661584843
30
0.000000000000000
 41
2.50000000000000
 42
2.50000000000000
 43
2.50000000000000
  0
MTEXT
  5
F10030
330
F10011
100
AcDbEntity
  8
Bemassung
 62
     0
100
AcDbMText
10
-21.9741074603339
20
10.8547328251509
30
0.000000000000000
 40
2.50000000000000
 41
0.0
 71
     8
 72
     1
  1
100
 11
1.00000000000000
 21
0.000000000000000
 31
0.0
 73
     1
 44
1.0
1001
ACAD
1000
MTEXTBEGIN
1070
73
1070
1
1070
44
1040
1.0
1070
74
1070
0
1000
MTEXTEND
  0
POINT
  5
F10031
330
F10011
100
AcDbEntity
  8
Bemassung
 62
     0
100
AcDbPoint
10
-71.9741074603339
20
-12.8119338415157
30
0.000000000000000
  0
POINT
  5
F10032
330
F10011
100
AcDbEntity
  8
Bemassung
 62
     0
100
AcDbPoint
10
28.0258925396661
20
-0.211933841515724
30
0.000000000000000
  0
ENDBLK
  5
F10033
330
F10011
100
AcDbEntity
  8
0
100
AcDbBlockEnd
  0
BLOCK
  5
F10034
330
F10016
100
AcDbEntity
  8
0
100
AcDbBlockBegin
  2
*D7
 70
     1
 10
0.0
 20
0.0
 30
0.0
  3
*D7
  1

  0
LINE
  5
F10035
330
F10016
100
AcDbEntity
  8
Bemassung
 62
     0
370
    -2
100
AcDbLine
10
-71.9741074603339
20
-12.8119338415157
30
0.000000000000000
11
-71.9741074603339
21
32.1880661584843
31
0.000000000000000
  0
LINE
  5
F10036
330
F10016
100
AcDbEntity
  8
Bemassung
 62
     0
370
    -2
100
AcDbLine
10
30.0258925396661
20
0.188066158484276
30
0.000000000000000
11
30.0258925396661
21
22.1880661584843
31
0.000000000000000
  0
LINE
  5
F10037
330
F10016
100
AcDbEntity
  8
Bemassung
 62
     0
370
    -2
100
AcDbLine
10
-71.9741074603339
20
20.1880661584843
30
0.000000000000000
11
30.0258925396661
21
20.1880661584843
31
0.000000000000000
  0
INSERT
  5
F10038
330
F10016
100
AcDbEntity
  8
Bemassung
 62
     0
370
    -2
100
AcDbBlockReference
  2
VDDIM_DEFAULT
10
-71.9741074603339
20
20.1880661584843
30
0.000000000000000
 41
2.50000000000000
 42
2.50000000000000
 43
2.50000000000000
 50
180.000000000000
  0
INSERT
  5
F10039
330
F10016
100
AcDbEntity
  8
Bemassung
 62
     0
370
    -2
100
AcDbBlockReference
  2
VDDIM_DEFAULT
10
30.0258925396661
20
20.1880661584843
30
0.000000000000000
 41
2.50000000000000
 42
2.50000000000000
 43
2.50000000000000
  0
MTEXT
  5
F1003A
330
F10016
100
AcDbEntity
  8
Bemassung
 62
     0
100
AcDbMText
10
-20.9741074603339
20
20.8547328251509
30
0.000000000000000
 40
2.50000000000000
 41
0.0
 71
     8
 72
     1
  1
102
 11
1.00000000000000
 21
0.000000000000000
 31
0.0
 73
     1
 44
1.0
1001
ACAD
1000
MTEXTBEGIN
1070
73
1070
1
1070
44
1040
1.0
1070
74
1070
0
1000
MTEXTEND
  0
POINT
  5
F1003B
330
F10016
100
AcDbEntity
  8
Bemassung
 62
     0
100
AcDbPoint
10
-71.9741074603339
20
-12.8119338415157
30
0.000000000000000
  0
POINT
  5
F1003C
330
F10016
100
AcDbEntity
  8
Bemassung
 62
     0
100
AcDbPoint
10
30.0258925396661
20
0.188066158484276
30
0.000000000000000
  0
ENDBLK
  5
F1003D
330
F10016
100
AcDbEntity
  8
0
100
AcDbBlockEnd
  0
BLOCK
  5
F1003E
330
F1001B
100
AcDbEntity
  8
0
100
AcDbBlockBegin
  2
*D8
 70
     1
 10
0.0
 20
0.0
 30
0.0
  3
*D8
  1

  0
LINE
  5
F1003F
330
F1001B
100
AcDbEntity
  8
Bemassung
 62
     0
370
    -2
100
AcDbLine
10
-57.9741074603339
20
-5.41193384151572
30
0.000000000000000
11
-57.9741074603339
21
-12.8119338415157
31
0.000000000000000
  0
LINE
  5
F10040
330
F1001B
100
AcDbEntity
  8
Bemassung
 62
     0
370
    -2
100
AcDbLine
10
-71.9741074603339
20
-12.8119338415157
30
0.000000000000000
11
-71.9741074603339
21
32.1880661584843
31
0.000000000000000
  0
LINE
  5
F10041
330
F1001B
100
AcDbEntity
  8
Bemassung
 62
     0
370
    -2
100
AcDbLine
10
-57.9741074603339
20
-10.8119338415157
30
0.000000000000000
11
-71.9741074603339
21
-10.8119338415157
31
0.000000000000000
  0
INSERT
  5
F10042
330
F1001B
100
AcDbEntity
  8
Bemassung
 62
     0
370
    -2
100
AcDbBlockReference
  2
VDDIM_DEFAULT
10
-57.9741074603339
20
-10.8119338415157
30
0.000000000000000
 41
2.50000000000000
 42
2.50000000000000
 43
2.50000000000000
  0
INSERT
  5
F10043
330
F1001B
100
AcDbEntity
  8
Bemassung
 62
     0
370
    -2
100
AcDbBlockReference
  2
VDDIM_DEFAULT
10
-71.9741074603339
20
-10.8119338415157
30
0.000000000000000
 41
2.50000000000000
 42
2.50000000000000
 43
2.50000000000000
 50
180.000000000000
  0
MTEXT
  5
F10044
330
F1001B
100
AcDbEntity
  8
Bemassung
 62
     0
100
AcDbMText
10
-64.9741074603339
20
-10.1452671748491
30
0.000000000000000
 40
2.50000000000000
 41
0.0
 71
     8
 72
     1
  1
14
 11
1.00000000000000
 21
0.000000000000000
 31
0.0
 73
     1
 44
1.0
1001
ACAD
1000
MTEXTBEGIN
1070
73
1070
1
1070
44
1040
1.0
1070
74
1070
0
1000
MTEXTEND
  0
POINT
  5
F10045
330
F1001B
100
AcDbEntity
  8
Bemassung
 62
     0
100
AcDbPoint
10
-57.9741074603339
20
-5.41193384151572
30
0.000000000000000
  0
POINT
  5
F10046
330
F1001B
100
AcDbEntity
  8
Bemassung
 62
     0
100
AcDbPoint
10
-71.9741074603339
20
-12.8119338415157
30
0.000000000000000
  0
ENDBLK
  5
F10047
330
F1001B
100
AcDbEntity
  8
0
100
AcDbBlockEnd
  0
BLOCK
  5
F10048
330
F10020
100
AcDbEntity
  8
0
100
AcDbBlockBegin
  2
*D9
 70
     1
 10
0.0
 20
0.0
 30
0.0
  3
*D9
  1

  0
LINE
  5
F10049
330
F10020
100
AcDbEntity
  8
Bemassung
 62
     0
370
    -2
100
AcDbLine
10
88.0258925396661
20
-0.311933841515724
30
0.000000000000000
11
88.0258925396661
21
32.1880661584843
31
0.000000000000000
  0
LINE
  5
F1004A
330
F10020
100
AcDbEntity
  8
Bemassung
 62
     0
370
    -2
100
AcDbLine
10
-71.9741074603339
20
-12.8119338415157
30
0.000000000000000
11
-71.9741074603339
21
32.1880661584843
31
0.000000000000000
  0
LINE
  5
F1004B
330
F10020
100
AcDbEntity
  8
Bemassung
 62
     0
370
    -2
100
AcDbLine
10
88.0258925396661
20
30.1880661584843
30
0.000000000000000
11
-71.9741074603339
21
30.1880661584843
31
0.000000000000000
  0
INSERT
  5
F1004C
330
F10020
100
AcDbEntity
  8
Bemassung
 62
     0
370
    -2
100
AcDbBlockReference
  2
VDDIM_DEFAULT
10
88.0258925396661
20
30.1880661584843
30
0.000000000000000
 41
2.50000000000000
 42
2.50000000000000
 43
2.50000000000000
  0
INSERT
  5
F1004D
330
F10020
100
AcDbEntity
  8
Bemassung
 62
     0
370
    -2
100
AcDbBlockReference
  2
VDDIM_DEFAULT
10
-71.9741074603339
20
30.1880661584843
30
0.000000000000000
 41
2.50000000000000
 42
2.50000000000000
 43
2.50000000000000
 50
180.000000000000
  0
MTEXT
  5
F1004E
330
F10020
100
AcDbEntity
  8
Bemassung
 62
     0
100
AcDbMText
10
36.8815382976326
20
30.8547328251509
30
0.000000000000000
 40
2.50000000000000
 41
0.0
 71
     8
 72
     1
  1
160
 11
1.00000000000000
 21
0.000000000000000
 31
0.0
 73
     1
 44
1.0
1001
ACAD
1000
MTEXTBEGIN
1070
73
1070
1
1070
44
1040
1.0
1070
74
1070
0
1000
MTEXTEND
  0
POINT
  5
F1004F
330
F10020
100
AcDbEntity
  8
Bemassung
 62
     0
100
AcDbPoint
10
88.0258925396661
20
-0.311933841515724
30
0.000000000000000
  0
POINT
  5
F10050
330
F10020
100
AcDbEntity
  8
Bemassung
 62
     0
100
AcDbPoint
10
-71.9741074603339
20
-12.8119338415157
30
0.000000000000000
  0
ENDBLK
  5
F10051
330
F10020
100
AcDbEntity
  8
0
100
AcDbBlockEnd
  0
BLOCK
  5
F10052
330
F10007
100
AcDbEntity
  8
0
100
AcDbBlockBegin
  2
*D4
 70
     1
 10
0.0
 20
0.0
 30
0.0
  3
*D4
  1

  0
LINE
  5
F10053
330
F10007
100
AcDbEntity
  8
Bemassung
 62
     0
370
    -2
100
AcDbLine
10
-71.6812142415204
20
-0.104827060329176
30
0.000000000000000
11
-80.3252294652514
21
8.53918816340182
31
0.000000000000000
  0
INSERT
  5
F10054
330
F10007
100
AcDbEntity
  8
Bemassung
 62
     0
370
    -2
100
AcDbBlockReference
  2
VDDIM_DEFAULT
10
-71.6812142415204
20
-0.104827060329176
30
0.000000000000000
 41
2.50000000000000
 42
2.50000000000000
 43
2.50000000000000
 50
315.000000000000
  0
MTEXT
  5
F10055
330
F10007
100
AcDbEntity
  8
Bemassung
 62
     0
100
AcDbMText
10
-78.7522820533859
20
6.96624075153631
30
0.000000000000000
 40
2.50000000000000
 41
0.0
 71
     8
 72
     1
  1
R1
 11
0.707106781186545
 21
-0.707106781186550
 31
0.0
 73
     1
 44
1.0
1001
ACAD
1000
MTEXTBEGIN
1070
73
1070
1
1070
44
1040
1.0
1070
74
1070
0
1000
MTEXTEND
  0
POINT
  5
F10056
330
F10007
100
AcDbEntity
  8
Bemassung
 62
     0
100
AcDbPoint
10
-71.6812142415204
20
-0.104827060329176
30
0.000000000000000
  0
POINT
  5
F10057
330
F10007
100
AcDbEntity
  8
Bemassung
 62
     0
100
AcDbPoint
10
-70.9741074603339
20
-0.811933841515724
30
0.000000000000000
  0
ENDBLK
  5
F10058
330
F10007
100
AcDbEntity
  8
0
100
AcDbBlockEnd
  0
BLOCK
  5
F10059
330
F10002
100
AcDbEntity
  8
0
100
AcDbBlockBegin
  2
*D3
 70
     1
 10
0.0
 20
0.0
 30
0.0
  3
*D3
  1

  0
LINE
  5
F1005A
330
F10002
100
AcDbEntity
  8
Bemassung
 62
     0
370
    -2
100
AcDbLine
10
-70.9741074603339
20
-5.81193384151572
30
0.000000000000000
11
-83.9741074603339
21
-5.81193384151572
31
0.000000000000000
  0
LINE
  5
F1005B
330
F10002
100
AcDbEntity
  8
Bemassung
 62
     0
370
    -2
100
AcDbLine
10
-70.9741074603339
20
0.188066158484276
30
0.000000000000000
11
-83.9741074603339
21
0.188066158484276
31
0.000000000000000
  0
LINE
  5
F1005C
330
F10002
100
AcDbEntity
  8
Bemassung
 62
     0
370
    -2
100
AcDbLine
10
-81.9741074603339
20
-14.8457421499484
30
0.000000000000000
11
-81.9741074603339
21
0.188066158484276
31
0.000000000000000
  0
INSERT
  5
F1005D
330
F10002
100
AcDbEntity
  8
Bemassung
 62
     0
370
    -2
100
AcDbBlockReference
  2
VDDIM_DEFAULT
10
-81.9741074603339
20
-5.81193384151572
30
0.000000000000000
 41
2.50000000000000
 42
2.50000000000000
 43
2.50000000000000
 50
90.0000000000000
  0
INSERT
  5
F1005E
330
F10002
100
AcDbEntity
  8
Bemassung
 62
     0
370
    -2
100
AcDbBlockReference
  2
VDDIM_DEFAULT
10
-81.9741074603339
20
0.188066158484276
30
0.000000000000000
 41
2.50000000000000
 42
2.50000000000000
 43
2.50000000000000
 50
270.000000000000
  0
MTEXT
  5
F1005F
330
F10002
100
AcDbEntity
  8
Bemassung
 62
     0
100
AcDbMText
10
-82.6407741270005
20
-12.5096788545253
30
0.000000000000000
 40
2.50000000000000
 41
0.0
 71
     8
 72
     1
  1
Ø6
 11
6.12323399573677e-17
 21
1.00000000000000
 31
0.0
 73
     1
 44
1.0
1001
ACAD
1000
MTEXTBEGIN
1070
73
1070
1
1070
44
1040
1.0
1070
74
1070
0
1000
MTEXTEND
  0
POINT
  5
F10060
330
F10002
100
AcDbEntity
  8
Bemassung
 62
     0
100
AcDbPoint
10
-70.9741074603339
20
-5.81193384151572
30
0.000000000000000
  0
POINT
  5
F10061
330
F10002
100
AcDbEntity
  8
Bemassung
 62
     0
100
AcDbPoint
10
-70.9741074603339
20
0.188066158484276
30
0.000000000000000
  0
ENDBLK
  5
F10062
330
F10002
100
AcDbEntity
  8
0
100
AcDbBlockEnd
  0
BLOCK
  5
F10063
330
F1000C
100
AcDbEntity
  8
0
100
AcDbBlockBegin
  2
*D5
 70
     1
 10
0.0
 20
0.0
 30
0.0
  3
*D5
  1

  0
LINE
  5
F10064
330
F1000C
100
AcDbEntity
  8
Bemassung
 62
     0
370
    -2
100
AcDbLine
10
-57.9741074603339
20
-5.41193384151572
30
0.000000000000000
11
-27.9741074603339
21
-5.41193384151572
31
0.000000000000000
  0
LINE
  5
F10065
330
F1000C
100
AcDbEntity
  8
Bemassung
 62
     0
370
    -2
100
AcDbLine
10
-57.9741074603339
20
-0.211933841515724
30
0.000000000000000
11
-27.9741074603339
21
-0.211933841515724
31
0.000000000000000
  0
LINE
  5
F10066
330
F1000C
100
AcDbEntity
  8
Bemassung
 62
     0
370
    -2
100
AcDbLine
10
-29.9741074603339
20
-21.0264032360837
30
0.000000000000000
11
-29.9741074603339
21
-0.211933841515724
31
0.000000000000000
  0
INSERT
  5
F10067
330
F1000C
100
AcDbEntity
  8
Bemassung
 62
     0
370
    -2
100
AcDbBlockReference
  2
VDDIM_DEFAULT
10
-29.9741074603339
20
-5.41193384151572
30
0.000000000000000
 41
2.50000000000000
 42
2.50000000000000
 43
2.50000000000000
 50
90.0000000000000
  0
INSERT
  5
F10068
330
F1000C
100
AcDbEntity
  8
Bemassung
 62
     0
370
    -2
100
AcDbBlockReference
  2
VDDIM_DEFAULT
10
-29.9741074603339
20
-0.211933841515724
30
0.000000000000000
 41
2.50000000000000
 42
2.50000000000000
 43
2.50000000000000
 50
270.000000000000
  0
MTEXT
  5
F10069
330
F1000C
100
AcDbEntity
  8
Bemassung
 62
     0
100
AcDbMText
10
-30.6407741270005
20
-13.6801336587266
30
0.000000000000000
 40
2.50000000000000
 41
0.0
 71
     8
 72
     1
  1
Ø5.2
 11
6.12323399573677e-17
 21
1.00000000000000
 31
0.0
 73
     1
 44
1.0
1001
ACAD
1000
MTEXTBEGIN
1070
73
1070
1
1070
44
1040
1.0
1070
74
1070
0
1000
MTEXTEND
  0
POINT
  5
F1006A
330
F1000C
100
AcDbEntity
  8
Bemassung
 62
     0
100
AcDbPoint
10
-57.9741074603339
20
-5.41193384151572
30
0.000000000000000
  0
POINT
  5
F1006B
330
F1000C
100
AcDbEntity
  8
Bemassung
 62
     0
100
AcDbPoint
10
-57.9741074603339
20
-0.211933841515724
30
0.000000000000000
  0
ENDBLK
  5
F1006C
330
F1000C
100
AcDbEntity
  8
0
100
AcDbBlockEnd
  0
BLOCK
  5
F1006D
330
F10025
100
AcDbEntity
  8
0
100
AcDbBlockBegin
  2
*D10
 70
     1
 10
0.0
 20
0.0
 30
0.0
  3
*D10
  1

  0
LINE
  5
F1006E
330
F10025
100
AcDbEntity
  8
Bemassung
 62
     0
370
    -2
100
AcDbLine
10
87.0258925396661
20
0.188066158484276
30
0.000000000000000
11
97.7149417159318
21
0.188066158484276
31
0.000000000000000
  0
LINE
  5
F1006F
330
F10025
100
AcDbEntity
  8
Bemassung
 62
     0
370
    -2
100
AcDbLine
10
87.0258925396661
20
-5.81193384151572
30
0.000000000000000
11
97.7149417159318
21
-5.81193384151572
31
0.000000000000000
  0
LINE
  5
F10070
330
F10025
100
AcDbEntity
  8
Bemassung
 62
     0
370
    -2
100
AcDbLine
10
95.7149417159318
20
0.188066158484276
30
0.000000000000000
11
95.7149417159318
21
-5.81193384151572
31
0.000000000000000
  0
INSERT
  5
F10071
330
F10025
100
AcDbEntity
  8
Bemassung
 62
     0
370
    -2
100
AcDbBlockReference
  2
VDDIM_DEFAULT
10
95.7149417159318
20
0.188066158484276
30
0.000000000000000
 41
2.50000000000000
 42
2.50000000000000
 43
2.50000000000000
 50
270.000000000000
  0
INSERT
  5
F10072
330
F10025
100
AcDbEntity
  8
Bemassung
 62
     0
370
    -2
100
AcDbBlockReference
  2
VDDIM_DEFAULT
10
95.7149417159318
20
-5.81193384151572
30
0.000000000000000
 41
2.50000000000000
 42
2.50000000000000
 43
2.50000000000000
 50
90.0000000000000
  0
MTEXT
  5
F10073
330
F10025
100
AcDbEntity
  8
Bemassung
 62
     0
100
AcDbMText
10
95.0482750492652
20
-2.81193384151572
30
0.000000000000000
 40
2.50000000000000
 41
0.0
 71
     8
 72
     1
  1
Ø6
 11
6.12323399573677e-17
 21
1.00000000000000
 31
0.0
 73
     1
 44
1.0
1001
ACAD
1000
MTEXTBEGIN
1070
73
1070
1
1070
44
1040
1.0
1070
74
1070
0
1000
MTEXTEND
  0
POINT
  5
F10074
330
F10025
100
AcDbEntity
  8
Bemassung
 62
     0
100
AcDbPoint
10
87.0258925396661
20
0.188066158484276
30
0.000000000000000
  0
POINT
  5
F10075
330
F10025
100
AcDbEntity
  8
Bemassung
 62
     0
100
AcDbPoint
10
87.0258925396661
20
-5.81193384151572
30
0.000000000000000
  0
ENDBLK
  5
F10076
330
F10025
100
AcDbEntity
  8
0
100
AcDbBlockEnd
0
ENDSEC
0
SECTION
2
ENTITIES
  0
DIMENSION
  5
F10012
330
261
100
AcDbEntity
  8
Bemassung
100
AcDbDimension
  2
*D6
10
28.0258925396661
20
10.1880661584843
30
0.000000000000000
11
-21.9741074603339
21
10.8547328251509
31
0.000000000000000
 70
32
 1
100
 71
     8
  3
BEM-ISBE
100
AcDbAlignedDimension
13
-71.9741074603339
23
-12.8119338415157
33
0.000000000000000
14
28.0258925396661
24
-0.211933841515724
34
0.000000000000000
100
AcDbRotatedDimension
1001
ACAD
1000
DSTYLE
1002
{
1070
284
1070
8
1070
78
1070
8
1070
144
1040
1.00000000000000
1070
147
1040
0.625
1070
 72
1070
 0
1070
 71
1070
 0
1002
}
  0
DIMENSION
  5
F10017
330
261
100
AcDbEntity
  8
Bemassung
100
AcDbDimension
  2
*D7
10
30.0258925396661
20
20.1880661584843
30
0.000000000000000
11
-20.9741074603339
21
20.8547328251509
31
0.000000000000000
 70
32
 1
102
 71
     8
  3
BEM-ISBE
100
AcDbAlignedDimension
13
-71.9741074603339
23
-12.8119338415157
33
0.000000000000000
14
30.0258925396661
24
0.188066158484276
34
0.000000000000000
100
AcDbRotatedDimension
1001
ACAD
1000
DSTYLE
1002
{
1070
284
1070
8
1070
78
1070
8
1070
144
1040
1.00000000000000
1070
147
1040
0.625
1070
 72
1070
 0
1070
 71
1070
 0
1002
}
  0
DIMENSION
  5
F1001C
330
261
100
AcDbEntity
  8
Bemassung
100
AcDbDimension
  2
*D8
10
-71.9741074603339
20
-10.8119338415157
30
0.000000000000000
11
-64.9741074603339
21
-10.1452671748491
31
0.000000000000000
 70
32
 1
14
 71
     8
  3
BEM-ISBE
100
AcDbAlignedDimension
13
-57.9741074603339
23
-5.41193384151572
33
0.000000000000000
14
-71.9741074603339
24
-12.8119338415157
34
0.000000000000000
100
AcDbRotatedDimension
1001
ACAD
1000
DSTYLE
1002
{
1070
284
1070
8
1070
78
1070
8
1070
144
1040
1.00000000000000
1070
147
1040
0.625
1070
 72
1070
 0
1070
 71
1070
 0
1002
}
  0
DIMENSION
  5
F10021
330
261
100
AcDbEntity
  8
Bemassung
100
AcDbDimension
  2
*D9
10
-71.9741074603339
20
30.1880661584843
30
0.000000000000000
11
36.8815382976326
21
30.8547328251509
31
0.000000000000000
 70
32
 1
160
 71
     8
  3
BEM-ISBE
100
AcDbAlignedDimension
13
88.0258925396661
23
-0.311933841515724
33
0.000000000000000
14
-71.9741074603339
24
-12.8119338415157
34
0.000000000000000
100
AcDbRotatedDimension
1001
ACAD
1000
DSTYLE
1002
{
1070
284
1070
8
1070
78
1070
8
1070
144
1040
1.00000000000000
1070
147
1040
0.625
1070
 72
1070
 0
1070
 71
1070
 0
1002
}
  0
DIMENSION
  5
F10008
330
261
100
AcDbEntity
  8
Bemassung
100
AcDbDimension
  2
*D4
10
-70.9741074603339
20
-0.811933841515724
30
0.000000000000000
11
-78.7522820533859
21
6.96624075153631
31
0.000000000000000
 70
164
 1
R1
 71
     8
  3
BEM-ISBE
100
AcDbRadialDimension
15
-71.6812142415204
25
-0.104827060329176
35
0.000000000000000
40
0.0
1001
ACAD
1000
DSTYLE
1002
{
1070
284
1070
8
1070
78
1070
8
1070
144
1040
1.00000000000000
1070
147
1040
0.625
1070
 72
1070
 0
1070
 71
1070
 0
1002
}
  0
DIMENSION
  5
F10003
330
261
100
AcDbEntity
  8
Bemassung
100
AcDbDimension
  2
*D3
10
-81.9741074603339
20
0.188066158484276
30
0.000000000000000
11
-82.6407741270005
21
-12.5096788545253
31
0.000000000000000
 70
32
 1
Ø6
 71
     8
  3
BEM-ISBE
100
AcDbAlignedDimension
13
-70.9741074603339
23
-5.81193384151572
33
0.000000000000000
14
-70.9741074603339
24
0.188066158484276
34
0.000000000000000
50
90.0000000000000
100
AcDbRotatedDimension
1001
ACAD
1000
DSTYLE
1002
{
1070
284
1070
8
1070
78
1070
8
1070
144
1040
1.00000000000000
1070
147
1040
0.625
1070
 72
1070
 0
1070
 71
1070
 0
1002
}
  0
DIMENSION
  5
F1000D
330
261
100
AcDbEntity
  8
Bemassung
100
AcDbDimension
  2
*D5
10
-29.9741074603339
20
-0.211933841515724
30
0.000000000000000
11
-30.6407741270005
21
-13.6801336587266
31
0.000000000000000
 70
32
 1
Ø5.2
 71
     8
  3
BEM-ISBE
100
AcDbAlignedDimension
13
-57.9741074603339
23
-5.41193384151572
33
0.000000000000000
14
-57.9741074603339
24
-0.211933841515724
34
0.000000000000000
50
90.0000000000000
100
AcDbRotatedDimension
1001
ACAD
1000
DSTYLE
1002
{
1070
284
1070
8
1070
78
1070
8
1070
144
1040
1.00000000000000
1070
147
1040
0.625
1070
 72
1070
 0
1070
 71
1070
 0
1002
}
  0
DIMENSION
  5
F10026
330
261
100
AcDbEntity
  8
Bemassung
100
AcDbDimension
  2
*D10
10
95.7149417159318
20
-5.81193384151572
30
0.000000000000000
11
95.0482750492652
21
-2.81193384151572
31
0.000000000000000
 70
32
 1
Ø6
 71
     8
  3
BEM-ISBE
100
AcDbAlignedDimension
13
87.0258925396661
23
0.188066158484276
33
0.000000000000000
14
87.0258925396661
24
-5.81193384151572
34
0.000000000000000
50
90.0000000000000
100
AcDbRotatedDimension
1001
ACAD
1000
DSTYLE
1002
{
1070
284
1070
8
1070
78
1070
8
1070
144
1040
1.00000000000000
1070
147
1040
0.625
1070
 72
1070
 0
1070
 71
1070
 0
1002
}
  0
LINE
  5
F10077
330
F10078
100
AcDbEntity
8
Geo
100
AcDbLine
10
-71.9741074603339
20
-2.81193384151572
30
0.000000000000000
11
-71.9741074603339
21
-0.811933841515724
31
0.000000000000000
  0
ARC
  5
F10079
330
F1007A
100
AcDbEntity
8
Geo
100
AcDbCircle
10
-70.9741074603339
20
-0.811933841515724
30
0.000000000000000
 40
1.00000000000000
100
AcDbArc
 50
90.0000000000000
 51
180.000000000000
  0
LINE
  5
F1007B
330
F1007C
100
AcDbEntity
8
Geo
100
AcDbLine
10
-70.9741074603339
20
0.188066158484276
30
0.000000000000000
11
-57.9741074603339
21
0.188066158484276
31
0.000000000000000
  0
LINE
  5
F1007D
330
F1007E
100
AcDbEntity
8
Geo
100
AcDbLine
10
-57.9741074603339
20
0.188066158484276
30
0.000000000000000
11
-57.9741074603339
21
-0.211933841515724
31
0.000000000000000
  0
LINE
  5
F1007F
330
F10080
100
AcDbEntity
8
Geo
100
AcDbLine
10
-57.9741074603339
20
-0.211933841515724
30
0.000000000000000
11
28.0258925396661
21
-0.211933841515724
31
0.000000000000000
  0
LINE
  5
F10081
330
F10082
100
AcDbEntity
8
Geo
100
AcDbLine
10
28.0258925396661
20
-0.211933841515724
30
0.000000000000000
11
30.0258925396661
21
0.188066158484276
31
0.000000000000000
  0
LINE
  5
F10083
330
F10084
100
AcDbEntity
8
Geo
100
AcDbLine
10
30.0258925396661
20
0.188066158484276
30
0.000000000000000
11
87.0258925396661
21
0.188066158484276
31
0.000000000000000
  0
LINE
  5
F10085
330
F10086
100
AcDbEntity
8
Geo
100
AcDbLine
10
87.0258925396661
20
0.188066158484276
30
0.000000000000000
11
88.0258925396661
21
-0.311933841515724
31
0.000000000000000
  0
LINE
  5
F10087
330
F10088
100
AcDbEntity
8
Geo
100
AcDbLine
10
-71.9741074603339
20
-0.832891806470647
30
0.000000000000000
11
-71.9739062992571
21
-0.831990802597607
31
0.000000000000000
  0
LINE
  5
F10089
330
F1008A
100
AcDbEntity
8
Geo
100
AcDbLine
10
-71.9739062992571
20
-0.831990802597607
30
0.000000000000000
11
-71.8741074603339
21
-0.384990111306683
31
0.000000000000000
  0
LINE
  5
F1008B
330
F1008C
100
AcDbEntity
8
Geo
100
AcDbLine
10
-71.8741074603339
20
-0.384990111306683
30
0.000000000000000
11
-71.7741074603339
21
-0.216098633590972
31
0.000000000000000
  0
LINE
  5
F1008D
330
F1008E
100
AcDbEntity
8
Geo
100
AcDbLine
10
-71.7741074603339
20
-0.216098633590972
30
0.000000000000000
11
-71.6741074603339
21
-0.0998142751779696
31
0.000000000000000
  0
LINE
  5
F1008F
330
F10090
100
AcDbEntity
8
Geo
100
AcDbLine
10
-71.6741074603339
20
-0.0998142751779696
30
0.000000000000000
11
-71.5741074603339
21
-0.0128893124569274
31
0.000000000000000
  0
LINE
  5
F10091
330
F10092
100
AcDbEntity
8
Geo
100
AcDbLine
10
-71.5741074603339
20
-0.0128893124569274
30
0.000000000000000
11
-71.4741074603339
21
0.0536741161356282
31
0.000000000000000
  0
LINE
  5
F10093
330
F10094
100
AcDbEntity
8
Geo
100
AcDbLine
10
-71.4741074603339
20
0.0536741161356282
30
0.000000000000000
11
-71.3741074603339
21
0.104422400213787
31
0.000000000000000
  0
LINE
  5
F10095
330
F10096
100
AcDbEntity
8
Geo
100
AcDbLine
10
-71.3741074603339
20
0.104422400213787
30
0.000000000000000
11
-71.2741074603339
21
0.141957687708256
31
0.000000000000000
  0
LINE
  5
F10097
330
F10098
100
AcDbEntity
8
Geo
100
AcDbLine
10
-71.2741074603339
20
0.141957687708256
30
0.000000000000000
11
-71.1741074603339
21
0.167852973516249
31
0.000000000000000
  0
LINE
  5
F10099
330
F1009A
100
AcDbEntity
8
Geo
100
AcDbLine
10
-71.1741074603339
20
0.167852973516249
30
0.000000000000000
11
-71.0741074603339
21
0.183053039785509
31
0.000000000000000
  0
LINE
  5
F1009B
330
F1009C
100
AcDbEntity
8
Geo
100
AcDbLine
10
-71.0741074603339
20
0.183053039785509
30
0.000000000000000
11
-70.9741074603339
21
0.188066158484276
31
0.000000000000000
  0
LINE
  5
F1009D
330
F1009E
100
AcDbEntity
8
Geo
100
AcDbLine
10
-70.9741074603339
20
0.188066158484276
30
0.000000000000000
11
-70.8741074603339
21
0.188066158484276
31
0.000000000000000
  0
LINE
  5
F1009F
330
F100A0
100
AcDbEntity
8
Geo
100
AcDbLine
10
-70.8741074603339
20
0.188066158484276
30
0.000000000000000
11
-70.7741074603339
21
0.188066158484276
31
0.000000000000000
  0
LINE
  5
F100A1
330
F100A2
100
AcDbEntity
8
Geo
100
AcDbLine
10
-70.7741074603339
20
0.188066158484276
30
0.000000000000000
11
-70.6741074603339
21
0.188066158484276
31
0.000000000000000
  0
LINE
  5
F100A3
330
F100A4
100
AcDbEntity
8
Geo
100
AcDbLine
10
-70.6741074603339
20
0.188066158484276
30
0.000000000000000
11
-70.5741074603339
21
0.188066158484276
31
0.000000000000000
  0
LINE
  5
F100A5
330
F100A6
100
AcDbEntity
8
Geo
100
AcDbLine
10
-70.5741074603339
20
0.188066158484276
30
0.000000000000000
11
-70.4741074603339
21
0.188066158484276
31
0.000000000000000
  0
LINE
  5
F100A7
330
F100A8
100
AcDbEntity
8
Geo
100
AcDbLine
10
-70.4741074603339
20
0.188066158484276
30
0.000000000000000
11
-70.3741074603339
21
0.188066158484276
31
0.000000000000000
  0
LINE
  5
F100A9
330
F100AA
100
AcDbEntity
8
Geo
100
AcDbLine
10
-70.3741074603339
20
0.188066158484276
30
0.000000000000000
11
-70.2741074603339
21
0.188066158484276
31
0.000000000000000
  0
LINE
  5
F100AB
330
F100AC
100
AcDbEntity
8
Geo
100
AcDbLine
10
-70.2741074603339
20
0.188066158484276
30
0.000000000000000
11
-70.1741074603339
21
0.188066158484276
31
0.000000000000000
  0
LINE
  5
F100AD
330
F100AE
100
AcDbEntity
8
Geo
100
AcDbLine
10
-70.1741074603339
20
0.188066158484276
30
0.000000000000000
11
-70.0741074603339
21
0.188066158484276
31
0.000000000000000
  0
LINE
  5
F100AF
330
F100B0
100
AcDbEntity
8
Geo
100
AcDbLine
10
-70.0741074603339
20
0.188066158484276
30
0.000000000000000
11
-69.9741074603339
21
0.188066158484276
31
0.000000000000000
  0
LINE
  5
F100B1
330
F100B2
100
AcDbEntity
8
Geo
100
AcDbLine
10
-69.9741074603339
20
0.188066158484276
30
0.000000000000000
11
-69.8741074603339
21
0.188066158484276
31
0.000000000000000
  0
LINE
  5
F100B3
330
F100B4
100
AcDbEntity
8
Geo
100
AcDbLine
10
-69.8741074603339
20
0.188066158484276
30
0.000000000000000
11
-69.7741074603339
21
0.188066158484276
31
0.000000000000000
  0
LINE
  5
F100B5
330
F100B6
100
AcDbEntity
8
Geo
100
AcDbLine
10
-69.7741074603339
20
0.188066158484276
30
0.000000000000000
11
-69.6741074603339
21
0.188066158484276
31
0.000000000000000
  0
LINE
  5
F100B7
330
F100B8
100
AcDbEntity
8
Geo
100
AcDbLine
10
-69.6741074603339
20
0.188066158484276
30
0.000000000000000
11
-69.5741074603339
21
0.188066158484276
31
0.000000000000000
  0
LINE
  5
F100B9
330
F100BA
100
AcDbEntity
8
Geo
100
AcDbLine
10
-69.5741074603339
20
0.188066158484276
30
0.000000000000000
11
-69.4741074603339
21
0.188066158484276
31
0.000000000000000
  0
LINE
  5
F100BB
330
F100BC
100
AcDbEntity
8
Geo
100
AcDbLine
10
-69.4741074603339
20
0.188066158484276
30
0.000000000000000
11
-69.3741074603339
21
0.188066158484276
31
0.000000000000000
  0
LINE
  5
F100BD
330
F100BE
100
AcDbEntity
8
Geo
100
AcDbLine
10
-69.3741074603339
20
0.188066158484276
30
0.000000000000000
11
-69.2741074603339
21
0.188066158484276
31
0.000000000000000
  0
LINE
  5
F100BF
330
F100C0
100
AcDbEntity
8
Geo
100
AcDbLine
10
-69.2741074603339
20
0.188066158484276
30
0.000000000000000
11
-69.1741074603339
21
0.188066158484276
31
0.000000000000000
  0
LINE
  5
F100C1
330
F100C2
100
AcDbEntity
8
Geo
100
AcDbLine
10
-69.1741074603339
20
0.188066158484276
30
0.000000000000000
11
-69.0741074603339
21
0.188066158484276
31
0.000000000000000
  0
LINE
  5
F100C3
330
F100C4
100
AcDbEntity
8
Geo
100
AcDbLine
10
-69.0741074603339
20
0.188066158484276
30
0.000000000000000
11
-68.9741074603339
21
0.188066158484276
31
0.000000000000000
  0
LINE
  5
F100C5
330
F100C6
100
AcDbEntity
8
Geo
100
AcDbLine
10
-68.9741074603339
20
0.188066158484276
30
0.000000000000000
11
-68.8741074603339
21
0.188066158484276
31
0.000000000000000
  0
LINE
  5
F100C7
330
F100C8
100
AcDbEntity
8
Geo
100
AcDbLine
10
-68.8741074603339
20
0.188066158484276
30
0.000000000000000
11
-68.7741074603339
21
0.188066158484276
31
0.000000000000000
  0
LINE
  5
F100C9
330
F100CA
100
AcDbEntity
8
Geo
100
AcDbLine
10
-68.7741074603339
20
0.188066158484276
30
0.000000000000000
11
-68.6741074603339
21
0.188066158484276
31
0.000000000000000
  0
LINE
  5
F100CB
330
F100CC
100
AcDbEntity
8
Geo
100
AcDbLine
10
-68.6741074603339
20
0.188066158484276
30
0.000000000000000
11
-68.5741074603339
21
0.188066158484276
31
0.000000000000000
  0
LINE
  5
F100CD
330
F100CE
100
AcDbEntity
8
Geo
100
AcDbLine
10
-68.5741074603339
20
0.188066158484276
30
0.000000000000000
11
-68.4741074603339
21
0.188066158484276
31
0.000000000000000
  0
LINE
  5
F100CF
330
F100D0
100
AcDbEntity
8
Geo
100
AcDbLine
10
-68.4741074603339
20
0.188066158484276
30
0.000000000000000
11
-68.3741074603339
21
0.188066158484276
31
0.000000000000000
  0
LINE
  5
F100D1
330
F100D2
100
AcDbEntity
8
Geo
100
AcDbLine
10
-68.3741074603339
20
0.188066158484276
30
0.000000000000000
11
-68.2741074603339
21
0.188066158484276
31
0.000000000000000
  0
LINE
  5
F100D3
330
F100D4
100
AcDbEntity
8
Geo
100
AcDbLine
10
-68.2741074603339
20
0.188066158484276
30
0.000000000000000
11
-68.1741074603339
21
0.188066158484276
31
0.000000000000000
  0
LINE
  5
F100D5
330
F100D6
100
AcDbEntity
8
Geo
100
AcDbLine
10
-68.1741074603339
20
0.188066158484276
30
0.000000000000000
11
-68.0741074603339
21
0.188066158484276
31
0.000000000000000
  0
LINE
  5
F100D7
330
F100D8
100
AcDbEntity
8
Geo
100
AcDbLine
10
-68.0741074603339
20
0.188066158484276
30
0.000000000000000
11
-67.9741074603339
21
0.188066158484276
31
0.000000000000000
  0
LINE
  5
F100D9
330
F100DA
100
AcDbEntity
8
Geo
100
AcDbLine
10
-67.9741074603339
20
0.188066158484276
30
0.000000000000000
11
-67.8741074603339
21
0.188066158484276
31
0.000000000000000
  0
LINE
  5
F100DB
330
F100DC
100
AcDbEntity
8
Geo
100
AcDbLine
10
-67.8741074603339
20
0.188066158484276
30
0.000000000000000
11
-67.7741074603339
21
0.188066158484276
31
0.000000000000000
  0
LINE
  5
F100DD
330
F100DE
100
AcDbEntity
8
Geo
100
AcDbLine
10
-67.7741074603339
20
0.188066158484276
30
0.000000000000000
11
-67.6741074603339
21
0.188066158484276
31
0.000000000000000
  0
LINE
  5
F100DF
330
F100E0
100
AcDbEntity
8
Geo
100
AcDbLine
10
-67.6741074603339
20
0.188066158484276
30
0.000000000000000
11
-67.5741074603339
21
0.188066158484276
31
0.000000000000000
  0
LINE
  5
F100E1
330
F100E2
100
AcDbEntity
8
Geo
100
AcDbLine
10
-67.5741074603339
20
0.188066158484276
30
0.000000000000000
11
-67.4741074603339
21
0.188066158484276
31
0.000000000000000
  0
LINE
  5
F100E3
330
F100E4
100
AcDbEntity
8
Geo
100
AcDbLine
10
-67.4741074603339
20
0.188066158484276
30
0.000000000000000
11
-67.3741074603339
21
0.188066158484276
31
0.000000000000000
  0
LINE
  5
F100E5
330
F100E6
100
AcDbEntity
8
Geo
100
AcDbLine
10
-67.3741074603339
20
0.188066158484276
30
0.000000000000000
11
-67.2741074603339
21
0.188066158484276
31
0.000000000000000
  0
LINE
  5
F100E7
330
F100E8
100
AcDbEntity
8
Geo
100
AcDbLine
10
-67.2741074603339
20
0.188066158484276
30
0.000000000000000
11
-67.1741074603339
21
0.188066158484276
31
0.000000000000000
  0
LINE
  5
F100E9
330
F100EA
100
AcDbEntity
8
Geo
100
AcDbLine
10
-67.1741074603339
20
0.188066158484276
30
0.000000000000000
11
-67.0741074603339
21
0.188066158484276
31
0.000000000000000
  0
LINE
  5
F100EB
330
F100EC
100
AcDbEntity
8
Geo
100
AcDbLine
10
-67.0741074603339
20
0.188066158484276
30
0.000000000000000
11
-66.9741074603339
21
0.188066158484276
31
0.000000000000000
  0
LINE
  5
F100ED
330
F100EE
100
AcDbEntity
8
Geo
100
AcDbLine
10
-66.9741074603339
20
0.188066158484276
30
0.000000000000000
11
-66.8741074603339
21
0.188066158484276
31
0.000000000000000
  0
LINE
  5
F100EF
330
F100F0
100
AcDbEntity
8
Geo
100
AcDbLine
10
-66.8741074603339
20
0.188066158484276
30
0.000000000000000
11
-66.7741074603339
21
0.188066158484276
31
0.000000000000000
  0
LINE
  5
F100F1
330
F100F2
100
AcDbEntity
8
Geo
100
AcDbLine
10
-66.7741074603339
20
0.188066158484276
30
0.000000000000000
11
-66.6741074603339
21
0.188066158484276
31
0.000000000000000
  0
LINE
  5
F100F3
330
F100F4
100
AcDbEntity
8
Geo
100
AcDbLine
10
-66.6741074603339
20
0.188066158484276
30
0.000000000000000
11
-66.5741074603339
21
0.188066158484276
31
0.000000000000000
  0
LINE
  5
F100F5
330
F100F6
100
AcDbEntity
8
Geo
100
AcDbLine
10
-66.5741074603339
20
0.188066158484276
30
0.000000000000000
11
-66.4741074603339
21
0.188066158484276
31
0.000000000000000
  0
LINE
  5
F100F7
330
F100F8
100
AcDbEntity
8
Geo
100
AcDbLine
10
-66.4741074603339
20
0.188066158484276
30
0.000000000000000
11
-66.3741074603339
21
0.188066158484276
31
0.000000000000000
  0
LINE
  5
F100F9
330
F100FA
100
AcDbEntity
8
Geo
100
AcDbLine
10
-66.3741074603339
20
0.188066158484276
30
0.000000000000000
11
-66.2741074603339
21
0.188066158484276
31
0.000000000000000
  0
LINE
  5
F100FB
330
F100FC
100
AcDbEntity
8
Geo
100
AcDbLine
10
-66.2741074603339
20
0.188066158484276
30
0.000000000000000
11
-66.1741074603339
21
0.188066158484276
31
0.000000000000000
  0
LINE
  5
F100FD
330
F100FE
100
AcDbEntity
8
Geo
100
AcDbLine
10
-66.1741074603339
20
0.188066158484276
30
0.000000000000000
11
-66.0741074603339
21
0.188066158484276
31
0.000000000000000
  0
LINE
  5
F100FF
330
F10100
100
AcDbEntity
8
Geo
100
AcDbLine
10
-66.0741074603339
20
0.188066158484276
30
0.000000000000000
11
-65.9741074603339
21
0.188066158484276
31
0.000000000000000
  0
LINE
  5
F10101
330
F10102
100
AcDbEntity
8
Geo
100
AcDbLine
10
-65.9741074603339
20
0.188066158484276
30
0.000000000000000
11
-65.8741074603339
21
0.188066158484276
31
0.000000000000000
  0
LINE
  5
F10103
330
F10104
100
AcDbEntity
8
Geo
100
AcDbLine
10
-65.8741074603339
20
0.188066158484276
30
0.000000000000000
11
-65.7741074603339
21
0.188066158484276
31
0.000000000000000
  0
LINE
  5
F10105
330
F10106
100
AcDbEntity
8
Geo
100
AcDbLine
10
-65.7741074603339
20
0.188066158484276
30
0.000000000000000
11
-65.6741074603339
21
0.188066158484276
31
0.000000000000000
  0
LINE
  5
F10107
330
F10108
100
AcDbEntity
8
Geo
100
AcDbLine
10
-65.6741074603339
20
0.188066158484276
30
0.000000000000000
11
-65.5741074603339
21
0.188066158484276
31
0.000000000000000
  0
LINE
  5
F10109
330
F1010A
100
AcDbEntity
8
Geo
100
AcDbLine
10
-65.5741074603339
20
0.188066158484276
30
0.000000000000000
11
-65.4741074603339
21
0.188066158484276
31
0.000000000000000
  0
LINE
  5
F1010B
330
F1010C
100
AcDbEntity
8
Geo
100
AcDbLine
10
-65.4741074603339
20
0.188066158484276
30
0.000000000000000
11
-65.3741074603339
21
0.188066158484276
31
0.000000000000000
  0
LINE
  5
F1010D
330
F1010E
100
AcDbEntity
8
Geo
100
AcDbLine
10
-65.3741074603339
20
0.188066158484276
30
0.000000000000000
11
-65.2741074603339
21
0.188066158484276
31
0.000000000000000
  0
LINE
  5
F1010F
330
F10110
100
AcDbEntity
8
Geo
100
AcDbLine
10
-65.2741074603339
20
0.188066158484276
30
0.000000000000000
11
-65.1741074603339
21
0.188066158484276
31
0.000000000000000
  0
LINE
  5
F10111
330
F10112
100
AcDbEntity
8
Geo
100
AcDbLine
10
-65.1741074603339
20
0.188066158484276
30
0.000000000000000
11
-65.0741074603339
21
0.188066158484276
31
0.000000000000000
  0
LINE
  5
F10113
330
F10114
100
AcDbEntity
8
Geo
100
AcDbLine
10
-65.0741074603339
20
0.188066158484276
30
0.000000000000000
11
-64.9741074603339
21
0.188066158484276
31
0.000000000000000
  0
LINE
  5
F10115
330
F10116
100
AcDbEntity
8
Geo
100
AcDbLine
10
-64.9741074603339
20
0.188066158484276
30
0.000000000000000
11
-64.8741074603339
21
0.188066158484276
31
0.000000000000000
  0
LINE
  5
F10117
330
F10118
100
AcDbEntity
8
Geo
100
AcDbLine
10
-64.8741074603339
20
0.188066158484276
30
0.000000000000000
11
-64.7741074603339
21
0.188066158484276
31
0.000000000000000
  0
LINE
  5
F10119
330
F1011A
100
AcDbEntity
8
Geo
100
AcDbLine
10
-64.7741074603339
20
0.188066158484276
30
0.000000000000000
11
-64.6741074603339
21
0.188066158484276
31
0.000000000000000
  0
LINE
  5
F1011B
330
F1011C
100
AcDbEntity
8
Geo
100
AcDbLine
10
-64.6741074603339
20
0.188066158484276
30
0.000000000000000
11
-64.5741074603339
21
0.188066158484276
31
0.000000000000000
  0
LINE
  5
F1011D
330
F1011E
100
AcDbEntity
8
Geo
100
AcDbLine
10
-64.5741074603339
20
0.188066158484276
30
0.000000000000000
11
-64.4741074603339
21
0.188066158484276
31
0.000000000000000
  0
LINE
  5
F1011F
330
F10120
100
AcDbEntity
8
Geo
100
AcDbLine
10
-64.4741074603339
20
0.188066158484276
30
0.000000000000000
11
-64.3741074603339
21
0.188066158484276
31
0.000000000000000
  0
LINE
  5
F10121
330
F10122
100
AcDbEntity
8
Geo
100
AcDbLine
10
-64.3741074603339
20
0.188066158484276
30
0.000000000000000
11
-64.2741074603339
21
0.188066158484276
31
0.000000000000000
  0
LINE
  5
F10123
330
F10124
100
AcDbEntity
8
Geo
100
AcDbLine
10
-64.2741074603339
20
0.188066158484276
30
0.000000000000000
11
-64.1741074603339
21
0.188066158484276
31
0.000000000000000
  0
LINE
  5
F10125
330
F10126
100
AcDbEntity
8
Geo
100
AcDbLine
10
-64.1741074603339
20
0.188066158484276
30
0.000000000000000
11
-64.0741074603339
21
0.188066158484276
31
0.000000000000000
  0
LINE
  5
F10127
330
F10128
100
AcDbEntity
8
Geo
100
AcDbLine
10
-64.0741074603339
20
0.188066158484276
30
0.000000000000000
11
-63.9741074603339
21
0.188066158484276
31
0.000000000000000
  0
LINE
  5
F10129
330
F1012A
100
AcDbEntity
8
Geo
100
AcDbLine
10
-63.9741074603339
20
0.188066158484276
30
0.000000000000000
11
-63.8741074603339
21
0.188066158484276
31
0.000000000000000
  0
LINE
  5
F1012B
330
F1012C
100
AcDbEntity
8
Geo
100
AcDbLine
10
-63.8741074603339
20
0.188066158484276
30
0.000000000000000
11
-63.7741074603339
21
0.188066158484276
31
0.000000000000000
  0
LINE
  5
F1012D
330
F1012E
100
AcDbEntity
8
Geo
100
AcDbLine
10
-63.7741074603339
20
0.188066158484276
30
0.000000000000000
11
-63.6741074603339
21
0.188066158484276
31
0.000000000000000
  0
LINE
  5
F1012F
330
F10130
100
AcDbEntity
8
Geo
100
AcDbLine
10
-63.6741074603339
20
0.188066158484276
30
0.000000000000000
11
-63.5741074603339
21
0.188066158484276
31
0.000000000000000
  0
LINE
  5
F10131
330
F10132
100
AcDbEntity
8
Geo
100
AcDbLine
10
-63.5741074603339
20
0.188066158484276
30
0.000000000000000
11
-63.4741074603339
21
0.188066158484276
31
0.000000000000000
  0
LINE
  5
F10133
330
F10134
100
AcDbEntity
8
Geo
100
AcDbLine
10
-63.4741074603339
20
0.188066158484276
30
0.000000000000000
11
-63.3741074603339
21
0.188066158484276
31
0.000000000000000
  0
LINE
  5
F10135
330
F10136
100
AcDbEntity
8
Geo
100
AcDbLine
10
-63.3741074603339
20
0.188066158484276
30
0.000000000000000
11
-63.2741074603339
21
0.188066158484276
31
0.000000000000000
  0
LINE
  5
F10137
330
F10138
100
AcDbEntity
8
Geo
100
AcDbLine
10
-63.2741074603339
20
0.188066158484276
30
0.000000000000000
11
-63.1741074603339
21
0.188066158484276
31
0.000000000000000
  0
LINE
  5
F10139
330
F1013A
100
AcDbEntity
8
Geo
100
AcDbLine
10
-63.1741074603339
20
0.188066158484276
30
0.000000000000000
11
-63.0741074603339
21
0.188066158484276
31
0.000000000000000
  0
LINE
  5
F1013B
330
F1013C
100
AcDbEntity
8
Geo
100
AcDbLine
10
-63.0741074603339
20
0.188066158484276
30
0.000000000000000
11
-62.9741074603339
21
0.188066158484276
31
0.000000000000000
  0
LINE
  5
F1013D
330
F1013E
100
AcDbEntity
8
Geo
100
AcDbLine
10
-71.9741074603339
20
-3.10071165147459
30
0.000000000000000
11
-71.8741074603339
21
-3.02050926627926
31
0.000000000000000
  0
LINE
  5
F1013F
330
F10140
100
AcDbEntity
8
Geo
100
AcDbLine
10
-71.8741074603339
20
-3.02050926627926
30
0.000000000000000
11
-71.7741074603339
21
-2.95903779556951
31
0.000000000000000
  0
LINE
  5
F10141
330
F10142
100
AcDbEntity
8
Geo
100
AcDbLine
10
-71.7741074603339
20
-2.95903779556951
30
0.000000000000000
11
-71.6741074603339
21
-2.91671375039644
31
0.000000000000000
  0
LINE
  5
F10143
330
F10144
100
AcDbEntity
8
Geo
100
AcDbLine
10
-71.6741074603339
20
-2.91671375039644
30
0.000000000000000
11
-71.5741074603339
21
-2.88507565135128
31
0.000000000000000
  0
LINE
  5
F10145
330
F10146
100
AcDbEntity
8
Geo
100
AcDbLine
10
-71.5741074603339
20
-2.88507565135128
30
0.000000000000000
11
-71.4741074603339
21
-2.86084854465288
31
0.000000000000000
  0
LINE
  5
F10147
330
F10148
100
AcDbEntity
8
Geo
100
AcDbLine
10
-71.4741074603339
20
-2.86084854465288
30
0.000000000000000
11
-71.3741074603339
21
-2.84237767980835
31
0.000000000000000
  0
LINE
  5
F10149
330
F1014A
100
AcDbEntity
8
Geo
100
AcDbLine
10
-71.3741074603339
20
-2.84237767980835
30
0.000000000000000
11
-71.2741074603339
21
-2.82871595242574
31
0.000000000000000
  0
LINE
  5
F1014B
330
F1014C
100
AcDbEntity
8
Geo
100
AcDbLine
10
-71.2741074603339
20
-2.82871595242574
30
0.000000000000000
11
-71.1741074603339
21
-2.81929083918381
31
0.000000000000000
  0
LINE
  5
F1014D
330
F1014E
100
AcDbEntity
8
Geo
100
AcDbLine
10
-71.1741074603339
20
-2.81929083918381
30
0.000000000000000
11
-71.0741074603339
21
-2.81375846750293
31
0.000000000000000
  0
LINE
  5
F1014F
330
F10150
100
AcDbEntity
8
Geo
100
AcDbLine
10
-71.0741074603339
20
-2.81375846750293
30
0.000000000000000
11
-70.9741074603339
21
-2.81193384151572
31
0.000000000000000
  0
LINE
  5
F10151
330
F10152
100
AcDbEntity
8
Geo
100
AcDbLine
10
-70.9741074603339
20
-2.81193384151572
30
0.000000000000000
11
-70.8741074603339
21
-2.81193384151572
31
0.000000000000000
  0
LINE
  5
F10153
330
F10154
100
AcDbEntity
8
Geo
100
AcDbLine
10
-70.8741074603339
20
-2.81193384151572
30
0.000000000000000
11
-70.7741074603339
21
-2.81193384151572
31
0.000000000000000
  0
LINE
  5
F10155
330
F10156
100
AcDbEntity
8
Geo
100
AcDbLine
10
-70.7741074603339
20
-2.81193384151572
30
0.000000000000000
11
-70.6741074603339
21
-2.81193384151572
31
0.000000000000000
  0
LINE
  5
F10157
330
F10158
100
AcDbEntity
8
Geo
100
AcDbLine
10
-70.6741074603339
20
-2.81193384151572
30
0.000000000000000
11
-70.5741074603339
21
-2.81193384151572
31
0.000000000000000
  0
LINE
  5
F10159
330
F1015A
100
AcDbEntity
8
Geo
100
AcDbLine
10
-70.5741074603339
20
-2.81193384151572
30
0.000000000000000
11
-70.4741074603339
21
-2.81193384151572
31
0.000000000000000
  0
LINE
  5
F1015B
330
F1015C
100
AcDbEntity
8
Geo
100
AcDbLine
10
-70.4741074603339
20
-2.81193384151572
30
0.000000000000000
11
-70.3741074603339
21
-2.81193384151572
31
0.000000000000000
  0
LINE
  5
F1015D
330
F1015E
100
AcDbEntity
8
Geo
100
AcDbLine
10
-70.3741074603339
20
-2.81193384151572
30
0.000000000000000
11
-70.2741074603339
21
-2.81193384151572
31
0.000000000000000
  0
LINE
  5
F1015F
330
F10160
100
AcDbEntity
8
Geo
100
AcDbLine
10
-70.2741074603339
20
-2.81193384151572
30
0.000000000000000
11
-70.1741074603339
21
-2.81193384151572
31
0.000000000000000
  0
LINE
  5
F10161
330
F10162
100
AcDbEntity
8
Geo
100
AcDbLine
10
-70.1741074603339
20
-2.81193384151572
30
0.000000000000000
11
-70.0741074603339
21
-2.81193384151572
31
0.000000000000000
  0
LINE
  5
F10163
330
F10164
100
AcDbEntity
8
Geo
100
AcDbLine
10
-70.0741074603339
20
-2.81193384151572
30
0.000000000000000
11
-69.9741074603339
21
-2.81193384151572
31
0.000000000000000
  0
LINE
  5
F10165
330
F10166
100
AcDbEntity
8
Geo
100
AcDbLine
10
-69.9741074603339
20
-2.81193384151572
30
0.000000000000000
11
-69.8741074603339
21
-2.81193384151572
31
0.000000000000000
  0
LINE
  5
F10167
330
F10168
100
AcDbEntity
8
Geo
100
AcDbLine
10
-69.8741074603339
20
-2.81193384151572
30
0.000000000000000
11
-69.7741074603339
21
-2.81193384151572
31
0.000000000000000
  0
LINE
  5
F10169
330
F1016A
100
AcDbEntity
8
Geo
100
AcDbLine
10
-69.7741074603339
20
-2.81193384151572
30
0.000000000000000
11
-69.6741074603339
21
-2.81193384151572
31
0.000000000000000
  0
LINE
  5
F1016B
330
F1016C
100
AcDbEntity
8
Geo
100
AcDbLine
10
-69.6741074603339
20
-2.81193384151572
30
0.000000000000000
11
-69.5741074603339
21
-2.81193384151572
31
0.000000000000000
  0
LINE
  5
F1016D
330
F1016E
100
AcDbEntity
8
Geo
100
AcDbLine
10
-69.5741074603339
20
-2.81193384151572
30
0.000000000000000
11
-69.4741074603339
21
-2.81193384151572
31
0.000000000000000
  0
LINE
  5
F1016F
330
F10170
100
AcDbEntity
8
Geo
100
AcDbLine
10
-69.4741074603339
20
-2.81193384151572
30
0.000000000000000
11
-69.3741074603339
21
-2.81193384151572
31
0.000000000000000
  0
LINE
  5
F10171
330
F10172
100
AcDbEntity
8
Geo
100
AcDbLine
10
-69.3741074603339
20
-2.81193384151572
30
0.000000000000000
11
-69.2741074603339
21
-2.81193384151572
31
0.000000000000000
  0
LINE
  5
F10173
330
F10174
100
AcDbEntity
8
Geo
100
AcDbLine
10
-69.2741074603339
20
-2.81193384151572
30
0.000000000000000
11
-69.1741074603339
21
-2.81193384151572
31
0.000000000000000
  0
LINE
  5
F10175
330
F10176
100
AcDbEntity
8
Geo
100
AcDbLine
10
-69.1741074603339
20
-2.81193384151572
30
0.000000000000000
11
-69.0741074603339
21
-2.81193384151572
31
0.000000000000000
  0
LINE
  5
F10177
330
F10178
100
AcDbEntity
8
Geo
100
AcDbLine
10
-69.0741074603339
20
-2.81193384151572
30
0.000000000000000
11
-68.9741074603339
21
-2.81193384151572
31
0.000000000000000
  0
LINE
  5
F10179
330
F1017A
100
AcDbEntity
8
Geo
100
AcDbLine
10
-68.9741074603339
20
-2.81193384151572
30
0.000000000000000
11
-68.8741074603339
21
-2.81193384151572
31
0.000000000000000
  0
LINE
  5
F1017B
330
F1017C
100
AcDbEntity
8
Geo
100
AcDbLine
10
-68.8741074603339
20
-2.81193384151572
30
0.000000000000000
11
-68.7741074603339
21
-2.81193384151572
31
0.000000000000000
  0
LINE
  5
F1017D
330
F1017E
100
AcDbEntity
8
Geo
100
AcDbLine
10
-68.7741074603339
20
-2.81193384151572
30
0.000000000000000
11
-68.6741074603339
21
-2.81193384151572
31
0.000000000000000
  0
LINE
  5
F1017F
330
F10180
100
AcDbEntity
8
Geo
100
AcDbLine
10
-68.6741074603339
20
-2.81193384151572
30
0.000000000000000
11
-68.5741074603339
21
-2.81193384151572
31
0.000000000000000
  0
LINE
  5
F10181
330
F10182
100
AcDbEntity
8
Geo
100
AcDbLine
10
-68.5741074603339
20
-2.81193384151572
30
0.000000000000000
11
-68.4741074603339
21
-2.81193384151572
31
0.000000000000000
  0
LINE
  5
F10183
330
F10184
100
AcDbEntity
8
Geo
100
AcDbLine
10
-68.4741074603339
20
-2.81193384151572
30
0.000000000000000
11
-68.3741074603339
21
-2.81193384151572
31
0.000000000000000
  0
LINE
  5
F10185
330
F10186
100
AcDbEntity
8
Geo
100
AcDbLine
10
-68.3741074603339
20
-2.81193384151572
30
0.000000000000000
11
-68.2741074603339
21
-2.81193384151572
31
0.000000000000000
  0
LINE
  5
F10187
330
F10188
100
AcDbEntity
8
Geo
100
AcDbLine
10
-68.2741074603339
20
-2.81193384151572
30
0.000000000000000
11
-68.1741074603339
21
-2.81193384151572
31
0.000000000000000
  0
LINE
  5
F10189
330
F1018A
100
AcDbEntity
8
Geo
100
AcDbLine
10
-68.1741074603339
20
-2.81193384151572
30
0.000000000000000
11
-68.0741074603339
21
-2.81193384151572
31
0.000000000000000
  0
LINE
  5
F1018B
330
F1018C
100
AcDbEntity
8
Geo
100
AcDbLine
10
-68.0741074603339
20
-2.81193384151572
30
0.000000000000000
11
-67.9741074603339
21
-2.81193384151572
31
0.000000000000000
  0
LINE
  5
F1018D
330
F1018E
100
AcDbEntity
8
Geo
100
AcDbLine
10
-67.9741074603339
20
-2.81193384151572
30
0.000000000000000
11
-67.8741074603339
21
-2.81193384151572
31
0.000000000000000
  0
LINE
  5
F1018F
330
F10190
100
AcDbEntity
8
Geo
100
AcDbLine
10
-67.8741074603339
20
-2.81193384151572
30
0.000000000000000
11
-67.7741074603339
21
-2.81193384151572
31
0.000000000000000
  0
LINE
  5
F10191
330
F10192
100
AcDbEntity
8
Geo
100
AcDbLine
10
-67.7741074603339
20
-2.81193384151572
30
0.000000000000000
11
-67.6741074603339
21
-2.81193384151572
31
0.000000000000000
  0
LINE
  5
F10193
330
F10194
100
AcDbEntity
8
Geo
100
AcDbLine
10
-67.6741074603339
20
-2.81193384151572
30
0.000000000000000
11
-67.5741074603339
21
-2.81193384151572
31
0.000000000000000
  0
LINE
  5
F10195
330
F10196
100
AcDbEntity
8
Geo
100
AcDbLine
10
-67.5741074603339
20
-2.81193384151572
30
0.000000000000000
11
-67.4741074603339
21
-2.81193384151572
31
0.000000000000000
  0
LINE
  5
F10197
330
F10198
100
AcDbEntity
8
Geo
100
AcDbLine
10
-67.4741074603339
20
-2.81193384151572
30
0.000000000000000
11
-67.3741074603339
21
-2.81193384151572
31
0.000000000000000
  0
LINE
  5
F10199
330
F1019A
100
AcDbEntity
8
Geo
100
AcDbLine
10
-67.3741074603339
20
-2.81193384151572
30
0.000000000000000
11
-67.2741074603339
21
-2.81193384151572
31
0.000000000000000
  0
LINE
  5
F1019B
330
F1019C
100
AcDbEntity
8
Geo
100
AcDbLine
10
-67.2741074603339
20
-2.81193384151572
30
0.000000000000000
11
-67.1741074603339
21
-2.81193384151572
31
0.000000000000000
  0
LINE
  5
F1019D
330
F1019E
100
AcDbEntity
8
Geo
100
AcDbLine
10
-67.1741074603339
20
-2.81193384151572
30
0.000000000000000
11
-67.0741074603339
21
-2.81193384151572
31
0.000000000000000
  0
LINE
  5
F1019F
330
F101A0
100
AcDbEntity
8
Geo
100
AcDbLine
10
-67.0741074603339
20
-2.81193384151572
30
0.000000000000000
11
-66.9741074603339
21
-2.81193384151572
31
0.000000000000000
  0
LINE
  5
F101A1
330
F101A2
100
AcDbEntity
8
Geo
100
AcDbLine
10
-66.9741074603339
20
-2.81193384151572
30
0.000000000000000
11
-66.8741074603339
21
-2.81193384151572
31
0.000000000000000
  0
LINE
  5
F101A3
330
F101A4
100
AcDbEntity
8
Geo
100
AcDbLine
10
-66.8741074603339
20
-2.81193384151572
30
0.000000000000000
11
-66.7741074603339
21
-2.81193384151572
31
0.000000000000000
  0
LINE
  5
F101A5
330
F101A6
100
AcDbEntity
8
Geo
100
AcDbLine
10
-66.7741074603339
20
-2.81193384151572
30
0.000000000000000
11
-66.6741074603339
21
-2.81193384151572
31
0.000000000000000
  0
LINE
  5
F101A7
330
F101A8
100
AcDbEntity
8
Geo
100
AcDbLine
10
-66.6741074603339
20
-2.81193384151572
30
0.000000000000000
11
-66.5741074603339
21
-2.81193384151572
31
0.000000000000000
  0
LINE
  5
F101A9
330
F101AA
100
AcDbEntity
8
Geo
100
AcDbLine
10
-66.5741074603339
20
-2.81193384151572
30
0.000000000000000
11
-66.4741074603339
21
-2.81193384151572
31
0.000000000000000
  0
LINE
  5
F101AB
330
F101AC
100
AcDbEntity
8
Geo
100
AcDbLine
10
-66.4741074603339
20
-2.81193384151572
30
0.000000000000000
11
-66.3741074603339
21
-2.81193384151572
31
0.000000000000000
  0
LINE
  5
F101AD
330
F101AE
100
AcDbEntity
8
Geo
100
AcDbLine
10
-66.3741074603339
20
-2.81193384151572
30
0.000000000000000
11
-66.2741074603339
21
-2.81193384151572
31
0.000000000000000
  0
LINE
  5
F101AF
330
F101B0
100
AcDbEntity
8
Geo
100
AcDbLine
10
-66.2741074603339
20
-2.81193384151572
30
0.000000000000000
11
-66.1741074603339
21
-2.81193384151572
31
0.000000000000000
  0
LINE
  5
F101B1
330
F101B2
100
AcDbEntity
8
Geo
100
AcDbLine
10
-66.1741074603339
20
-2.81193384151572
30
0.000000000000000
11
-66.0741074603339
21
-2.81193384151572
31
0.000000000000000
  0
LINE
  5
F101B3
330
F101B4
100
AcDbEntity
8
Geo
100
AcDbLine
10
-66.0741074603339
20
-2.81193384151572
30
0.000000000000000
11
-65.9741074603339
21
-2.81193384151572
31
0.000000000000000
  0
LINE
  5
F101B5
330
F101B6
100
AcDbEntity
8
Geo
100
AcDbLine
10
-65.9741074603339
20
-2.81193384151572
30
0.000000000000000
11
-65.8741074603339
21
-2.81193384151572
31
0.000000000000000
  0
LINE
  5
F101B7
330
F101B8
100
AcDbEntity
8
Geo
100
AcDbLine
10
-65.8741074603339
20
-2.81193384151572
30
0.000000000000000
11
-65.7741074603339
21
-2.81193384151572
31
0.000000000000000
  0
LINE
  5
F101B9
330
F101BA
100
AcDbEntity
8
Geo
100
AcDbLine
10
-65.7741074603339
20
-2.81193384151572
30
0.000000000000000
11
-65.6741074603339
21
-2.81193384151572
31
0.000000000000000
  0
LINE
  5
F101BB
330
F101BC
100
AcDbEntity
8
Geo
100
AcDbLine
10
-65.6741074603339
20
-2.81193384151572
30
0.000000000000000
11
-65.5741074603339
21
-2.81193384151572
31
0.000000000000000
  0
LINE
  5
F101BD
330
F101BE
100
AcDbEntity
8
Geo
100
AcDbLine
10
-65.5741074603339
20
-2.81193384151572
30
0.000000000000000
11
-65.4741074603339
21
-2.81193384151572
31
0.000000000000000
  0
LINE
  5
F101BF
330
F101C0
100
AcDbEntity
8
Geo
100
AcDbLine
10
-65.4741074603339
20
-2.81193384151572
30
0.000000000000000
11
-65.3741074603339
21
-2.81193384151572
31
0.000000000000000
  0
LINE
  5
F101C1
330
F101C2
100
AcDbEntity
8
Geo
100
AcDbLine
10
-65.3741074603339
20
-2.81193384151572
30
0.000000000000000
11
-65.2741074603339
21
-2.81193384151572
31
0.000000000000000
  0
LINE
  5
F101C3
330
F101C4
100
AcDbEntity
8
Geo
100
AcDbLine
10
-65.2741074603339
20
-2.81193384151572
30
0.000000000000000
11
-65.1741074603339
21
-2.81193384151572
31
0.000000000000000
  0
LINE
  5
F101C5
330
F101C6
100
AcDbEntity
8
Geo
100
AcDbLine
10
-65.1741074603339
20
-2.81193384151572
30
0.000000000000000
11
-65.0741074603339
21
-2.81193384151572
31
0.000000000000000
  0
LINE
  5
F101C7
330
F101C8
100
AcDbEntity
8
Geo
100
AcDbLine
10
-65.0741074603339
20
-2.81193384151572
30
0.000000000000000
11
-64.9741074603339
21
-2.81193384151572
31
0.000000000000000
  0
LINE
  5
F101C9
330
F101CA
100
AcDbEntity
8
Geo
100
AcDbLine
10
-64.9741074603339
20
-2.81193384151572
30
0.000000000000000
11
-64.8741074603339
21
-2.81193384151572
31
0.000000000000000
  0
LINE
  5
F101CB
330
F101CC
100
AcDbEntity
8
Geo
100
AcDbLine
10
-64.8741074603339
20
-2.81193384151572
30
0.000000000000000
11
-64.7741074603339
21
-2.81193384151572
31
0.000000000000000
  0
LINE
  5
F101CD
330
F101CE
100
AcDbEntity
8
Geo
100
AcDbLine
10
-64.7741074603339
20
-2.81193384151572
30
0.000000000000000
11
-64.6741074603339
21
-2.81193384151572
31
0.000000000000000
  0
LINE
  5
F101CF
330
F101D0
100
AcDbEntity
8
Geo
100
AcDbLine
10
-64.6741074603339
20
-2.81193384151572
30
0.000000000000000
11
-64.5741074603339
21
-2.81193384151572
31
0.000000000000000
  0
LINE
  5
F101D1
330
F101D2
100
AcDbEntity
8
Geo
100
AcDbLine
10
-64.5741074603339
20
-2.81193384151572
30
0.000000000000000
11
-64.4741074603339
21
-2.81193384151572
31
0.000000000000000
  0
LINE
  5
F101D3
330
F101D4
100
AcDbEntity
8
Geo
100
AcDbLine
10
-64.4741074603339
20
-2.81193384151572
30
0.000000000000000
11
-64.3741074603339
21
-2.81193384151572
31
0.000000000000000
  0
LINE
  5
F101D5
330
F101D6
100
AcDbEntity
8
Geo
100
AcDbLine
10
-64.3741074603339
20
-2.81193384151572
30
0.000000000000000
11
-64.2741074603339
21
-2.81193384151572
31
0.000000000000000
  0
LINE
  5
F101D7
330
F101D8
100
AcDbEntity
8
Geo
100
AcDbLine
10
-64.2741074603339
20
-2.81193384151572
30
0.000000000000000
11
-64.1741074603339
21
-2.81193384151572
31
0.000000000000000
  0
LINE
  5
F101D9
330
F101DA
100
AcDbEntity
8
Geo
100
AcDbLine
10
-64.1741074603339
20
-2.81193384151572
30
0.000000000000000
11
-64.0741074603339
21
-2.81193384151572
31
0.000000000000000
  0
LINE
  5
F101DB
330
F101DC
100
AcDbEntity
8
Geo
100
AcDbLine
10
-64.0741074603339
20
-2.81193384151572
30
0.000000000000000
11
-63.9741074603339
21
-2.81193384151572
31
0.000000000000000
  0
LINE
  5
F101DD
330
F101DE
100
AcDbEntity
8
Geo
100
AcDbLine
10
-63.9741074603339
20
-2.81193384151572
30
0.000000000000000
11
-63.8741074603339
21
-2.81193384151572
31
0.000000000000000
  0
LINE
  5
F101DF
330
F101E0
100
AcDbEntity
8
Geo
100
AcDbLine
10
-63.8741074603339
20
-2.81193384151572
30
0.000000000000000
11
-63.7741074603339
21
-2.81193384151572
31
0.000000000000000
  0
LINE
  5
F101E1
330
F101E2
100
AcDbEntity
8
Geo
100
AcDbLine
10
-63.7741074603339
20
-2.81193384151572
30
0.000000000000000
11
-63.6741074603339
21
-2.81193384151572
31
0.000000000000000
  0
LINE
  5
F101E3
330
F101E4
100
AcDbEntity
8
Geo
100
AcDbLine
10
-63.6741074603339
20
-2.81193384151572
30
0.000000000000000
11
-63.5741074603339
21
-2.81193384151572
31
0.000000000000000
  0
LINE
  5
F101E5
330
F101E6
100
AcDbEntity
8
Geo
100
AcDbLine
10
-63.5741074603339
20
-2.81193384151572
30
0.000000000000000
11
-63.4741074603339
21
-2.81193384151572
31
0.000000000000000
  0
LINE
  5
F101E7
330
F101E8
100
AcDbEntity
8
Geo
100
AcDbLine
10
-63.4741074603339
20
-2.81193384151572
30
0.000000000000000
11
-63.3741074603339
21
-2.81193384151572
31
0.000000000000000
  0
LINE
  5
F101E9
330
F101EA
100
AcDbEntity
8
Geo
100
AcDbLine
10
-63.3741074603339
20
-2.81193384151572
30
0.000000000000000
11
-63.2741074603339
21
-2.81193384151572
31
0.000000000000000
  0
LINE
  5
F101EB
330
F101EC
100
AcDbEntity
8
Geo
100
AcDbLine
10
-63.2741074603339
20
-2.81193384151572
30
0.000000000000000
11
-63.1741074603339
21
-2.81193384151572
31
0.000000000000000
  0
LINE
  5
F101ED
330
F101EE
100
AcDbEntity
8
Geo
100
AcDbLine
10
-63.1741074603339
20
-2.81193384151572
30
0.000000000000000
11
-63.0741074603339
21
-2.81193384151572
31
0.000000000000000
  0
LINE
  5
F101EF
330
F101F0
100
AcDbEntity
8
Geo
100
AcDbLine
10
-63.0741074603339
20
-2.81193384151572
30
0.000000000000000
11
-62.9741074603339
21
-2.81193384151572
31
0.000000000000000
  0
LINE
  5
F101F1
330
F101F2
100
AcDbEntity
8
Geo
100
AcDbLine
10
-70.9741074603339
20
-5.81193384151572
30
0.000000000000000
11
-70.9741074603339
21
-5.81193384151572
31
0.000000000000000
  0
LINE
  5
F101F3
330
F101F4
100
AcDbEntity
8
Geo
100
AcDbLine
10
-70.9741074603339
20
-5.81193384151572
30
0.000000000000000
11
-70.8741074603339
21
-5.81193384151572
31
0.000000000000000
  0
LINE
  5
F101F5
330
F101F6
100
AcDbEntity
8
Geo
100
AcDbLine
10
-70.8741074603339
20
-5.81193384151572
30
0.000000000000000
11
-70.7741074603339
21
-5.81193384151572
31
0.000000000000000
  0
LINE
  5
F101F7
330
F101F8
100
AcDbEntity
8
Geo
100
AcDbLine
10
-70.7741074603339
20
-5.81193384151572
30
0.000000000000000
11
-70.6741074603339
21
-5.81193384151572
31
0.000000000000000
  0
LINE
  5
F101F9
330
F101FA
100
AcDbEntity
8
Geo
100
AcDbLine
10
-70.6741074603339
20
-5.81193384151572
30
0.000000000000000
11
-70.5741074603339
21
-5.81193384151572
31
0.000000000000000
  0
LINE
  5
F101FB
330
F101FC
100
AcDbEntity
8
Geo
100
AcDbLine
10
-70.5741074603339
20
-5.81193384151572
30
0.000000000000000
11
-70.4741074603339
21
-5.81193384151572
31
0.000000000000000
  0
LINE
  5
F101FD
330
F101FE
100
AcDbEntity
8
Geo
100
AcDbLine
10
-70.4741074603339
20
-5.81193384151572
30
0.000000000000000
11
-70.3741074603339
21
-5.81193384151572
31
0.000000000000000
  0
LINE
  5
F101FF
330
F10200
100
AcDbEntity
8
Geo
100
AcDbLine
10
-70.3741074603339
20
-5.81193384151572
30
0.000000000000000
11
-70.2741074603339
21
-5.81193384151572
31
0.000000000000000
  0
LINE
  5
F10201
330
F10202
100
AcDbEntity
8
Geo
100
AcDbLine
10
-70.2741074603339
20
-5.81193384151572
30
0.000000000000000
11
-70.1741074603339
21
-5.81193384151572
31
0.000000000000000
  0
LINE
  5
F10203
330
F10204
100
AcDbEntity
8
Geo
100
AcDbLine
10
-70.1741074603339
20
-5.81193384151572
30
0.000000000000000
11
-70.0741074603339
21
-5.81193384151572
31
0.000000000000000
  0
LINE
  5
F10205
330
F10206
100
AcDbEntity
8
Geo
100
AcDbLine
10
-70.0741074603339
20
-5.81193384151572
30
0.000000000000000
11
-69.9741074603339
21
-5.81193384151572
31
0.000000000000000
  0
LINE
  5
F10207
330
F10208
100
AcDbEntity
8
Geo
100
AcDbLine
10
-69.9741074603339
20
-5.81193384151572
30
0.000000000000000
11
-69.8741074603339
21
-5.81193384151572
31
0.000000000000000
  0
LINE
  5
F10209
330
F1020A
100
AcDbEntity
8
Geo
100
AcDbLine
10
-69.8741074603339
20
-5.81193384151572
30
0.000000000000000
11
-69.7741074603339
21
-5.81193384151572
31
0.000000000000000
  0
LINE
  5
F1020B
330
F1020C
100
AcDbEntity
8
Geo
100
AcDbLine
10
-69.7741074603339
20
-5.81193384151572
30
0.000000000000000
11
-69.6741074603339
21
-5.81193384151572
31
0.000000000000000
  0
LINE
  5
F1020D
330
F1020E
100
AcDbEntity
8
Geo
100
AcDbLine
10
-69.6741074603339
20
-5.81193384151572
30
0.000000000000000
11
-69.5741074603339
21
-5.81193384151572
31
0.000000000000000
  0
LINE
  5
F1020F
330
F10210
100
AcDbEntity
8
Geo
100
AcDbLine
10
-69.5741074603339
20
-5.81193384151572
30
0.000000000000000
11
-69.4741074603339
21
-5.81193384151572
31
0.000000000000000
  0
LINE
  5
F10211
330
F10212
100
AcDbEntity
8
Geo
100
AcDbLine
10
-69.4741074603339
20
-5.81193384151572
30
0.000000000000000
11
-69.3741074603339
21
-5.81193384151572
31
0.000000000000000
  0
LINE
  5
F10213
330
F10214
100
AcDbEntity
8
Geo
100
AcDbLine
10
-69.3741074603339
20
-5.81193384151572
30
0.000000000000000
11
-69.2741074603339
21
-5.81193384151572
31
0.000000000000000
  0
LINE
  5
F10215
330
F10216
100
AcDbEntity
8
Geo
100
AcDbLine
10
-69.2741074603339
20
-5.81193384151572
30
0.000000000000000
11
-69.1741074603339
21
-5.81193384151572
31
0.000000000000000
  0
LINE
  5
F10217
330
F10218
100
AcDbEntity
8
Geo
100
AcDbLine
10
-69.1741074603339
20
-5.81193384151572
30
0.000000000000000
11
-69.0741074603339
21
-5.81193384151572
31
0.000000000000000
  0
LINE
  5
F10219
330
F1021A
100
AcDbEntity
8
Geo
100
AcDbLine
10
-69.0741074603339
20
-5.81193384151572
30
0.000000000000000
11
-68.9741074603339
21
-5.81193384151572
31
0.000000000000000
  0
LINE
  5
F1021B
330
F1021C
100
AcDbEntity
8
Geo
100
AcDbLine
10
-68.9741074603339
20
-5.81193384151572
30
0.000000000000000
11
-68.8741074603339
21
-5.81193384151572
31
0.000000000000000
  0
LINE
  5
F1021D
330
F1021E
100
AcDbEntity
8
Geo
100
AcDbLine
10
-68.8741074603339
20
-5.81193384151572
30
0.000000000000000
11
-68.7741074603339
21
-5.81193384151572
31
0.000000000000000
  0
LINE
  5
F1021F
330
F10220
100
AcDbEntity
8
Geo
100
AcDbLine
10
-68.7741074603339
20
-5.81193384151572
30
0.000000000000000
11
-68.6741074603339
21
-5.81193384151572
31
0.000000000000000
  0
LINE
  5
F10221
330
F10222
100
AcDbEntity
8
Geo
100
AcDbLine
10
-68.6741074603339
20
-5.81193384151572
30
0.000000000000000
11
-68.5741074603339
21
-5.81193384151572
31
0.000000000000000
  0
LINE
  5
F10223
330
F10224
100
AcDbEntity
8
Geo
100
AcDbLine
10
-68.5741074603339
20
-5.81193384151572
30
0.000000000000000
11
-68.4741074603339
21
-5.81193384151572
31
0.000000000000000
  0
LINE
  5
F10225
330
F10226
100
AcDbEntity
8
Geo
100
AcDbLine
10
-68.4741074603339
20
-5.81193384151572
30
0.000000000000000
11
-68.3741074603339
21
-5.81193384151572
31
0.000000000000000
  0
LINE
  5
F10227
330
F10228
100
AcDbEntity
8
Geo
100
AcDbLine
10
-68.3741074603339
20
-5.81193384151572
30
0.000000000000000
11
-68.2741074603339
21
-5.81193384151572
31
0.000000000000000
  0
LINE
  5
F10229
330
F1022A
100
AcDbEntity
8
Geo
100
AcDbLine
10
-68.2741074603339
20
-5.81193384151572
30
0.000000000000000
11
-68.1741074603339
21
-5.81193384151572
31
0.000000000000000
  0
LINE
  5
F1022B
330
F1022C
100
AcDbEntity
8
Geo
100
AcDbLine
10
-68.1741074603339
20
-5.81193384151572
30
0.000000000000000
11
-68.0741074603339
21
-5.81193384151572
31
0.000000000000000
  0
LINE
  5
F1022D
330
F1022E
100
AcDbEntity
8
Geo
100
AcDbLine
10
-68.0741074603339
20
-5.81193384151572
30
0.000000000000000
11
-67.9741074603339
21
-5.81193384151572
31
0.000000000000000
  0
LINE
  5
F1022F
330
F10230
100
AcDbEntity
8
Geo
100
AcDbLine
10
-67.9741074603339
20
-5.81193384151572
30
0.000000000000000
11
-67.8741074603339
21
-5.81193384151572
31
0.000000000000000
  0
LINE
  5
F10231
330
F10232
100
AcDbEntity
8
Geo
100
AcDbLine
10
-67.8741074603339
20
-5.81193384151572
30
0.000000000000000
11
-67.7741074603339
21
-5.81193384151572
31
0.000000000000000
  0
LINE
  5
F10233
330
F10234
100
AcDbEntity
8
Geo
100
AcDbLine
10
-67.7741074603339
20
-5.81193384151572
30
0.000000000000000
11
-67.6741074603339
21
-5.81193384151572
31
0.000000000000000
  0
LINE
  5
F10235
330
F10236
100
AcDbEntity
8
Geo
100
AcDbLine
10
-67.6741074603339
20
-5.81193384151572
30
0.000000000000000
11
-67.5741074603339
21
-5.81193384151572
31
0.000000000000000
  0
LINE
  5
F10237
330
F10238
100
AcDbEntity
8
Geo
100
AcDbLine
10
-67.5741074603339
20
-5.81193384151572
30
0.000000000000000
11
-67.4741074603339
21
-5.81193384151572
31
0.000000000000000
  0
LINE
  5
F10239
330
F1023A
100
AcDbEntity
8
Geo
100
AcDbLine
10
-67.4741074603339
20
-5.81193384151572
30
0.000000000000000
11
-67.3741074603339
21
-5.81193384151572
31
0.000000000000000
  0
LINE
  5
F1023B
330
F1023C
100
AcDbEntity
8
Geo
100
AcDbLine
10
-67.3741074603339
20
-5.81193384151572
30
0.000000000000000
11
-67.2741074603339
21
-5.81193384151572
31
0.000000000000000
  0
LINE
  5
F1023D
330
F1023E
100
AcDbEntity
8
Geo
100
AcDbLine
10
-67.2741074603339
20
-5.81193384151572
30
0.000000000000000
11
-67.1741074603339
21
-5.81193384151572
31
0.000000000000000
  0
LINE
  5
F1023F
330
F10240
100
AcDbEntity
8
Geo
100
AcDbLine
10
-67.1741074603339
20
-5.81193384151572
30
0.000000000000000
11
-67.0741074603339
21
-5.81193384151572
31
0.000000000000000
  0
LINE
  5
F10241
330
F10242
100
AcDbEntity
8
Geo
100
AcDbLine
10
-67.0741074603339
20
-5.81193384151572
30
0.000000000000000
11
-66.9741074603339
21
-5.81193384151572
31
0.000000000000000
  0
LINE
  5
F10243
330
F10244
100
AcDbEntity
8
Geo
100
AcDbLine
10
-66.9741074603339
20
-5.81193384151572
30
0.000000000000000
11
-66.8741074603339
21
-5.81193384151572
31
0.000000000000000
  0
LINE
  5
F10245
330
F10246
100
AcDbEntity
8
Geo
100
AcDbLine
10
-66.8741074603339
20
-5.81193384151572
30
0.000000000000000
11
-66.7741074603339
21
-5.81193384151572
31
0.000000000000000
  0
LINE
  5
F10247
330
F10248
100
AcDbEntity
8
Geo
100
AcDbLine
10
-66.7741074603339
20
-5.81193384151572
30
0.000000000000000
11
-66.6741074603339
21
-5.81193384151572
31
0.000000000000000
  0
LINE
  5
F10249
330
F1024A
100
AcDbEntity
8
Geo
100
AcDbLine
10
-66.6741074603339
20
-5.81193384151572
30
0.000000000000000
11
-66.5741074603339
21
-5.81193384151572
31
0.000000000000000
  0
LINE
  5
F1024B
330
F1024C
100
AcDbEntity
8
Geo
100
AcDbLine
10
-66.5741074603339
20
-5.81193384151572
30
0.000000000000000
11
-66.4741074603339
21
-5.81193384151572
31
0.000000000000000
  0
LINE
  5
F1024D
330
F1024E
100
AcDbEntity
8
Geo
100
AcDbLine
10
-66.4741074603339
20
-5.81193384151572
30
0.000000000000000
11
-66.3741074603339
21
-5.81193384151572
31
0.000000000000000
  0
LINE
  5
F1024F
330
F10250
100
AcDbEntity
8
Geo
100
AcDbLine
10
-66.3741074603339
20
-5.81193384151572
30
0.000000000000000
11
-66.2741074603339
21
-5.81193384151572
31
0.000000000000000
  0
LINE
  5
F10251
330
F10252
100
AcDbEntity
8
Geo
100
AcDbLine
10
-66.2741074603339
20
-5.81193384151572
30
0.000000000000000
11
-66.1741074603339
21
-5.81193384151572
31
0.000000000000000
  0
LINE
  5
F10253
330
F10254
100
AcDbEntity
8
Geo
100
AcDbLine
10
-66.1741074603339
20
-5.81193384151572
30
0.000000000000000
11
-66.0741074603339
21
-5.81193384151572
31
0.000000000000000
  0
LINE
  5
F10255
330
F10256
100
AcDbEntity
8
Geo
100
AcDbLine
10
-66.0741074603339
20
-5.81193384151572
30
0.000000000000000
11
-65.9741074603339
21
-5.81193384151572
31
0.000000000000000
  0
LINE
  5
F10257
330
F10258
100
AcDbEntity
8
Geo
100
AcDbLine
10
-65.9741074603339
20
-5.81193384151572
30
0.000000000000000
11
-65.8741074603339
21
-5.81193384151572
31
0.000000000000000
  0
LINE
  5
F10259
330
F1025A
100
AcDbEntity
8
Geo
100
AcDbLine
10
-65.8741074603339
20
-5.81193384151572
30
0.000000000000000
11
-65.7741074603339
21
-5.81193384151572
31
0.000000000000000
  0
LINE
  5
F1025B
330
F1025C
100
AcDbEntity
8
Geo
100
AcDbLine
10
-65.7741074603339
20
-5.81193384151572
30
0.000000000000000
11
-65.6741074603339
21
-5.81193384151572
31
0.000000000000000
  0
LINE
  5
F1025D
330
F1025E
100
AcDbEntity
8
Geo
100
AcDbLine
10
-65.6741074603339
20
-5.81193384151572
30
0.000000000000000
11
-65.5741074603339
21
-5.81193384151572
31
0.000000000000000
  0
LINE
  5
F1025F
330
F10260
100
AcDbEntity
8
Geo
100
AcDbLine
10
-65.5741074603339
20
-5.81193384151572
30
0.000000000000000
11
-65.4741074603339
21
-5.81193384151572
31
0.000000000000000
  0
LINE
  5
F10261
330
F10262
100
AcDbEntity
8
Geo
100
AcDbLine
10
-65.4741074603339
20
-5.81193384151572
30
0.000000000000000
11
-65.3741074603339
21
-5.81193384151572
31
0.000000000000000
  0
LINE
  5
F10263
330
F10264
100
AcDbEntity
8
Geo
100
AcDbLine
10
-65.3741074603339
20
-5.81193384151572
30
0.000000000000000
11
-65.2741074603339
21
-5.81193384151572
31
0.000000000000000
  0
LINE
  5
F10265
330
F10266
100
AcDbEntity
8
Geo
100
AcDbLine
10
-65.2741074603339
20
-5.81193384151572
30
0.000000000000000
11
-65.1741074603339
21
-5.81193384151572
31
0.000000000000000
  0
LINE
  5
F10267
330
F10268
100
AcDbEntity
8
Geo
100
AcDbLine
10
-65.1741074603339
20
-5.81193384151572
30
0.000000000000000
11
-65.0741074603339
21
-5.81193384151572
31
0.000000000000000
  0
LINE
  5
F10269
330
F1026A
100
AcDbEntity
8
Geo
100
AcDbLine
10
-65.0741074603339
20
-5.81193384151572
30
0.000000000000000
11
-64.9741074603339
21
-5.81193384151572
31
0.000000000000000
  0
LINE
  5
F1026B
330
F1026C
100
AcDbEntity
8
Geo
100
AcDbLine
10
-64.9741074603339
20
-5.81193384151572
30
0.000000000000000
11
-64.8741074603339
21
-5.81193384151572
31
0.000000000000000
  0
LINE
  5
F1026D
330
F1026E
100
AcDbEntity
8
Geo
100
AcDbLine
10
-64.8741074603339
20
-5.81193384151572
30
0.000000000000000
11
-64.7741074603339
21
-5.81193384151572
31
0.000000000000000
  0
LINE
  5
F1026F
330
F10270
100
AcDbEntity
8
Geo
100
AcDbLine
10
-64.7741074603339
20
-5.81193384151572
30
0.000000000000000
11
-64.6741074603339
21
-5.81193384151572
31
0.000000000000000
  0
LINE
  5
F10271
330
F10272
100
AcDbEntity
8
Geo
100
AcDbLine
10
-64.6741074603339
20
-5.81193384151572
30
0.000000000000000
11
-64.5741074603339
21
-5.81193384151572
31
0.000000000000000
  0
LINE
  5
F10273
330
F10274
100
AcDbEntity
8
Geo
100
AcDbLine
10
-64.5741074603339
20
-5.81193384151572
30
0.000000000000000
11
-64.4741074603339
21
-5.81193384151572
31
0.000000000000000
  0
LINE
  5
F10275
330
F10276
100
AcDbEntity
8
Geo
100
AcDbLine
10
-64.4741074603339
20
-5.81193384151572
30
0.000000000000000
11
-64.3741074603339
21
-5.81193384151572
31
0.000000000000000
  0
LINE
  5
F10277
330
F10278
100
AcDbEntity
8
Geo
100
AcDbLine
10
-64.3741074603339
20
-5.81193384151572
30
0.000000000000000
11
-64.2741074603339
21
-5.81193384151572
31
0.000000000000000
  0
LINE
  5
F10279
330
F1027A
100
AcDbEntity
8
Geo
100
AcDbLine
10
-64.2741074603339
20
-5.81193384151572
30
0.000000000000000
11
-64.1741074603339
21
-5.81193384151572
31
0.000000000000000
  0
LINE
  5
F1027B
330
F1027C
100
AcDbEntity
8
Geo
100
AcDbLine
10
-64.1741074603339
20
-5.81193384151572
30
0.000000000000000
11
-64.0741074603339
21
-5.81193384151572
31
0.000000000000000
  0
LINE
  5
F1027D
330
F1027E
100
AcDbEntity
8
Geo
100
AcDbLine
10
-64.0741074603339
20
-5.81193384151572
30
0.000000000000000
11
-63.9741074603339
21
-5.81193384151572
31
0.000000000000000
  0
LINE
  5
F1027F
330
F10280
100
AcDbEntity
8
Geo
100
AcDbLine
10
-63.9741074603339
20
-5.81193384151572
30
0.000000000000000
11
-63.8741074603339
21
-5.81193384151572
31
0.000000000000000
  0
LINE
  5
F10281
330
F10282
100
AcDbEntity
8
Geo
100
AcDbLine
10
-63.8741074603339
20
-5.81193384151572
30
0.000000000000000
11
-63.7741074603339
21
-5.81193384151572
31
0.000000000000000
  0
LINE
  5
F10283
330
F10284
100
AcDbEntity
8
Geo
100
AcDbLine
10
-63.7741074603339
20
-5.81193384151572
30
0.000000000000000
11
-63.6741074603339
21
-5.81193384151572
31
0.000000000000000
  0
LINE
  5
F10285
330
F10286
100
AcDbEntity
8
Geo
100
AcDbLine
10
-63.6741074603339
20
-5.81193384151572
30
0.000000000000000
11
-63.5741074603339
21
-5.81193384151572
31
0.000000000000000
  0
LINE
  5
F10287
330
F10288
100
AcDbEntity
8
Geo
100
AcDbLine
10
-63.5741074603339
20
-5.81193384151572
30
0.000000000000000
11
-63.4741074603339
21
-5.81193384151572
31
0.000000000000000
  0
LINE
  5
F10289
330
F1028A
100
AcDbEntity
8
Geo
100
AcDbLine
10
-63.4741074603339
20
-5.81193384151572
30
0.000000000000000
11
-63.3741074603339
21
-5.81193384151572
31
0.000000000000000
  0
LINE
  5
F1028B
330
F1028C
100
AcDbEntity
8
Geo
100
AcDbLine
10
-63.3741074603339
20
-5.81193384151572
30
0.000000000000000
11
-63.2741074603339
21
-5.81193384151572
31
0.000000000000000
  0
LINE
  5
F1028D
330
F1028E
100
AcDbEntity
8
Geo
100
AcDbLine
10
-63.2741074603339
20
-5.81193384151572
30
0.000000000000000
11
-63.1741074603339
21
-5.81193384151572
31
0.000000000000000
  0
LINE
  5
F1028F
330
F10290
100
AcDbEntity
8
Geo
100
AcDbLine
10
-63.1741074603339
20
-5.81193384151572
30
0.000000000000000
11
-63.0741074603339
21
-5.81193384151572
31
0.000000000000000
  0
LINE
  5
F10291
330
F10292
100
AcDbEntity
8
Geo
100
AcDbLine
10
-63.0741074603339
20
-5.81193384151572
30
0.000000000000000
11
-62.9741074603339
21
-5.81193384151572
31
0.000000000000000
  0
LINE
  5
F10293
330
F10294
100
AcDbEntity
8
Geo
100
AcDbLine
10
-71.9741074603339
20
-1.20609865676101
30
0.000000000000000
11
-71.9465234969668
21
-1.04518703377500
31
0.000000000000000
  0
LINE
  5
F10295
330
F10296
100
AcDbEntity
8
Geo
100
AcDbLine
10
-71.9465234969668
20
-1.04518703377500
30
0.000000000000000
11
-71.8741074603339
21
-0.622746580612337
31
0.000000000000000
  0
LINE
  5
F10297
330
F10298
100
AcDbEntity
8
Geo
100
AcDbLine
10
-71.8741074603339
20
-0.622746580612337
30
0.000000000000000
11
-71.7741074603339
21
-0.422797664264519
31
0.000000000000000
  0
LINE
  5
F10299
330
F1029A
100
AcDbEntity
8
Geo
100
AcDbLine
10
-71.7741074603339
20
-0.422797664264519
30
0.000000000000000
11
-71.6741074603339
21
-0.287512135728551
31
0.000000000000000
  0
LINE
  5
F1029B
330
F1029C
100
AcDbEntity
8
Geo
100
AcDbLine
10
-71.6741074603339
20
-0.287512135728551
30
0.000000000000000
11
-71.5741074603339
21
-0.187414244534799
31
0.000000000000000
  0
LINE
  5
F1029D
330
F1029E
100
AcDbEntity
8
Geo
100
AcDbLine
10
-71.5741074603339
20
-0.187414244534799
30
0.000000000000000
11
-71.4741074603339
21
-0.111282142313523
31
0.000000000000000
  0
LINE
  5
F1029F
330
F102A0
100
AcDbEntity
8
Geo
100
AcDbLine
10
-71.4741074603339
20
-0.111282142313523
30
0.000000000000000
11
-71.3741074603339
21
-0.0535119670816537
31
0.000000000000000
  0
LINE
  5
F102A1
330
F102A2
100
AcDbEntity
8
Geo
100
AcDbLine
10
-71.3741074603339
20
-0.0535119670816537
30
0.000000000000000
11
-71.2741074603339
21
-0.0109243828302925
31
0.000000000000000
  0
LINE
  5
F102A3
330
F102A4
100
AcDbEntity
8
Geo
100
AcDbLine
10
-71.2741074603339
20
-0.0109243828302925
30
0.000000000000000
11
-71.1741074603339
21
0.0183899821579732
31
0.000000000000000
  0
LINE
  5
F102A5
330
F102A6
100
AcDbEntity
8
Geo
100
AcDbLine
10
-71.1741074603339
20
0.0183899821579732
30
0.000000000000000
11
-71.0741074603339
21
0.0355726000647509
31
0.000000000000000
  0
LINE
  5
F102A7
330
F102A8
100
AcDbEntity
8
Geo
100
AcDbLine
10
-71.0741074603339
20
0.0355726000647509
30
0.000000000000000
11
-70.9741074603339
21
0.0412357073697329
31
0.000000000000000
  0
LINE
  5
F102A9
330
F102AA
100
AcDbEntity
8
Geo
100
AcDbLine
10
-70.9741074603339
20
0.0412357073697329
30
0.000000000000000
11
-70.8741074603339
21
0.0412357073697329
31
0.000000000000000
  0
LINE
  5
F102AB
330
F102AC
100
AcDbEntity
8
Geo
100
AcDbLine
10
-70.8741074603339
20
0.0412357073697329
30
0.000000000000000
11
-70.7741074603339
21
0.0412357073697329
31
0.000000000000000
  0
LINE
  5
F102AD
330
F102AE
100
AcDbEntity
8
Geo
100
AcDbLine
10
-70.7741074603339
20
0.0412357073697329
30
0.000000000000000
11
-70.6741074603339
21
0.0412357073697329
31
0.000000000000000
  0
LINE
  5
F102AF
330
F102B0
100
AcDbEntity
8
Geo
100
AcDbLine
10
-70.6741074603339
20
0.0412357073697329
30
0.000000000000000
11
-70.5741074603339
21
0.0412357073697329
31
0.000000000000000
  0
LINE
  5
F102B1
330
F102B2
100
AcDbEntity
8
Geo
100
AcDbLine
10
-70.5741074603339
20
0.0412357073697329
30
0.000000000000000
11
-70.4741074603339
21
0.0412357073697329
31
0.000000000000000
  0
LINE
  5
F102B3
330
F102B4
100
AcDbEntity
8
Geo
100
AcDbLine
10
-70.4741074603339
20
0.0412357073697329
30
0.000000000000000
11
-70.3741074603339
21
0.0412357073697329
31
0.000000000000000
  0
LINE
  5
F102B5
330
F102B6
100
AcDbEntity
8
Geo
100
AcDbLine
10
-70.3741074603339
20
0.0412357073697329
30
0.000000000000000
11
-70.2741074603339
21
0.0412357073697329
31
0.000000000000000
  0
LINE
  5
F102B7
330
F102B8
100
AcDbEntity
8
Geo
100
AcDbLine
10
-70.2741074603339
20
0.0412357073697329
30
0.000000000000000
11
-70.1741074603339
21
0.0412357073697329
31
0.000000000000000
  0
LINE
  5
F102B9
330
F102BA
100
AcDbEntity
8
Geo
100
AcDbLine
10
-70.1741074603339
20
0.0412357073697329
30
0.000000000000000
11
-70.0741074603339
21
0.0412357073697329
31
0.000000000000000
  0
LINE
  5
F102BB
330
F102BC
100
AcDbEntity
8
Geo
100
AcDbLine
10
-70.0741074603339
20
0.0412357073697329
30
0.000000000000000
11
-69.9741074603339
21
0.0412357073697329
31
0.000000000000000
  0
LINE
  5
F102BD
330
F102BE
100
AcDbEntity
8
Geo
100
AcDbLine
10
-69.9741074603339
20
0.0412357073697329
30
0.000000000000000
11
-69.8741074603339
21
0.0412357073697329
31
0.000000000000000
  0
LINE
  5
F102BF
330
F102C0
100
AcDbEntity
8
Geo
100
AcDbLine
10
-69.8741074603339
20
0.0412357073697329
30
0.000000000000000
11
-69.7741074603339
21
0.0412357073697329
31
0.000000000000000
  0
LINE
  5
F102C1
330
F102C2
100
AcDbEntity
8
Geo
100
AcDbLine
10
-69.7741074603339
20
0.0412357073697329
30
0.000000000000000
11
-69.6741074603339
21
0.0412357073697329
31
0.000000000000000
  0
LINE
  5
F102C3
330
F102C4
100
AcDbEntity
8
Geo
100
AcDbLine
10
-69.6741074603339
20
0.0412357073697329
30
0.000000000000000
11
-69.5741074603339
21
0.0412357073697329
31
0.000000000000000
  0
LINE
  5
F102C5
330
F102C6
100
AcDbEntity
8
Geo
100
AcDbLine
10
-69.5741074603339
20
0.0412357073697329
30
0.000000000000000
11
-69.4741074603339
21
0.0412357073697329
31
0.000000000000000
  0
LINE
  5
F102C7
330
F102C8
100
AcDbEntity
8
Geo
100
AcDbLine
10
-69.4741074603339
20
0.0412357073697329
30
0.000000000000000
11
-69.3741074603339
21
0.0412357073697329
31
0.000000000000000
  0
LINE
  5
F102C9
330
F102CA
100
AcDbEntity
8
Geo
100
AcDbLine
10
-69.3741074603339
20
0.0412357073697329
30
0.000000000000000
11
-69.2741074603339
21
0.0412357073697329
31
0.000000000000000
  0
LINE
  5
F102CB
330
F102CC
100
AcDbEntity
8
Geo
100
AcDbLine
10
-69.2741074603339
20
0.0412357073697329
30
0.000000000000000
11
-69.1741074603339
21
0.0412357073697329
31
0.000000000000000
  0
LINE
  5
F102CD
330
F102CE
100
AcDbEntity
8
Geo
100
AcDbLine
10
-69.1741074603339
20
0.0412357073697329
30
0.000000000000000
11
-69.0741074603339
21
0.0412357073697329
31
0.000000000000000
  0
LINE
  5
F102CF
330
F102D0
100
AcDbEntity
8
Geo
100
AcDbLine
10
-69.0741074603339
20
0.0412357073697329
30
0.000000000000000
11
-68.9741074603339
21
0.0412357073697329
31
0.000000000000000
  0
LINE
  5
F102D1
330
F102D2
100
AcDbEntity
8
Geo
100
AcDbLine
10
-68.9741074603339
20
0.0412357073697329
30
0.000000000000000
11
-68.8741074603339
21
0.0412357073697329
31
0.000000000000000
  0
LINE
  5
F102D3
330
F102D4
100
AcDbEntity
8
Geo
100
AcDbLine
10
-68.8741074603339
20
0.0412357073697329
30
0.000000000000000
11
-68.7741074603339
21
0.0412357073697329
31
0.000000000000000
  0
LINE
  5
F102D5
330
F102D6
100
AcDbEntity
8
Geo
100
AcDbLine
10
-68.7741074603339
20
0.0412357073697329
30
0.000000000000000
11
-68.6741074603339
21
0.0412357073697329
31
0.000000000000000
  0
LINE
  5
F102D7
330
F102D8
100
AcDbEntity
8
Geo
100
AcDbLine
10
-68.6741074603339
20
0.0412357073697329
30
0.000000000000000
11
-68.5741074603339
21
0.0412357073697329
31
0.000000000000000
  0
LINE
  5
F102D9
330
F102DA
100
AcDbEntity
8
Geo
100
AcDbLine
10
-68.5741074603339
20
0.0412357073697329
30
0.000000000000000
11
-68.4741074603339
21
0.0412357073697329
31
0.000000000000000
  0
LINE
  5
F102DB
330
F102DC
100
AcDbEntity
8
Geo
100
AcDbLine
10
-68.4741074603339
20
0.0412357073697329
30
0.000000000000000
11
-68.3741074603339
21
0.0412357073697329
31
0.000000000000000
  0
LINE
  5
F102DD
330
F102DE
100
AcDbEntity
8
Geo
100
AcDbLine
10
-68.3741074603339
20
0.0412357073697329
30
0.000000000000000
11
-68.2741074603339
21
0.0412357073697329
31
0.000000000000000
  0
LINE
  5
F102DF
330
F102E0
100
AcDbEntity
8
Geo
100
AcDbLine
10
-68.2741074603339
20
0.0412357073697329
30
0.000000000000000
11
-68.1741074603339
21
0.0412357073697329
31
0.000000000000000
  0
LINE
  5
F102E1
330
F102E2
100
AcDbEntity
8
Geo
100
AcDbLine
10
-68.1741074603339
20
0.0412357073697329
30
0.000000000000000
11
-68.0741074603339
21
0.0412357073697329
31
0.000000000000000
  0
LINE
  5
F102E3
330
F102E4
100
AcDbEntity
8
Geo
100
AcDbLine
10
-68.0741074603339
20
0.0412357073697329
30
0.000000000000000
11
-67.9741074603339
21
0.0412357073697329
31
0.000000000000000
  0
LINE
  5
F102E5
330
F102E6
100
AcDbEntity
8
Geo
100
AcDbLine
10
-67.9741074603339
20
0.0412357073697329
30
0.000000000000000
11
-67.8741074603339
21
0.0412357073697329
31
0.000000000000000
  0
LINE
  5
F102E7
330
F102E8
100
AcDbEntity
8
Geo
100
AcDbLine
10
-67.8741074603339
20
0.0412357073697329
30
0.000000000000000
11
-67.7741074603339
21
0.0412357073697329
31
0.000000000000000
  0
LINE
  5
F102E9
330
F102EA
100
AcDbEntity
8
Geo
100
AcDbLine
10
-67.7741074603339
20
0.0412357073697329
30
0.000000000000000
11
-67.6741074603339
21
0.0412357073697329
31
0.000000000000000
  0
LINE
  5
F102EB
330
F102EC
100
AcDbEntity
8
Geo
100
AcDbLine
10
-67.6741074603339
20
0.0412357073697329
30
0.000000000000000
11
-67.5741074603339
21
0.0412357073697329
31
0.000000000000000
  0
LINE
  5
F102ED
330
F102EE
100
AcDbEntity
8
Geo
100
AcDbLine
10
-67.5741074603339
20
0.0412357073697329
30
0.000000000000000
11
-67.4741074603339
21
0.0412357073697329
31
0.000000000000000
  0
LINE
  5
F102EF
330
F102F0
100
AcDbEntity
8
Geo
100
AcDbLine
10
-67.4741074603339
20
0.0412357073697329
30
0.000000000000000
11
-67.3741074603339
21
0.0412357073697329
31
0.000000000000000
  0
LINE
  5
F102F1
330
F102F2
100
AcDbEntity
8
Geo
100
AcDbLine
10
-67.3741074603339
20
0.0412357073697329
30
0.000000000000000
11
-67.2741074603339
21
0.0412357073697329
31
0.000000000000000
  0
LINE
  5
F102F3
330
F102F4
100
AcDbEntity
8
Geo
100
AcDbLine
10
-67.2741074603339
20
0.0412357073697329
30
0.000000000000000
11
-67.1741074603339
21
0.0412357073697329
31
0.000000000000000
  0
LINE
  5
F102F5
330
F102F6
100
AcDbEntity
8
Geo
100
AcDbLine
10
-67.1741074603339
20
0.0412357073697329
30
0.000000000000000
11
-67.0741074603339
21
0.0412357073697329
31
0.000000000000000
  0
LINE
  5
F102F7
330
F102F8
100
AcDbEntity
8
Geo
100
AcDbLine
10
-67.0741074603339
20
0.0412357073697329
30
0.000000000000000
11
-66.9741074603339
21
0.0412357073697329
31
0.000000000000000
  0
LINE
  5
F102F9
330
F102FA
100
AcDbEntity
8
Geo
100
AcDbLine
10
-66.9741074603339
20
0.0412357073697329
30
0.000000000000000
11
-66.8741074603339
21
0.0412357073697329
31
0.000000000000000
  0
LINE
  5
F102FB
330
F102FC
100
AcDbEntity
8
Geo
100
AcDbLine
10
-66.8741074603339
20
0.0412357073697329
30
0.000000000000000
11
-66.7741074603339
21
0.0412357073697329
31
0.000000000000000
  0
LINE
  5
F102FD
330
F102FE
100
AcDbEntity
8
Geo
100
AcDbLine
10
-66.7741074603339
20
0.0412357073697329
30
0.000000000000000
11
-66.6741074603339
21
0.0412357073697329
31
0.000000000000000
  0
LINE
  5
F102FF
330
F10300
100
AcDbEntity
8
Geo
100
AcDbLine
10
-66.6741074603339
20
0.0412357073697329
30
0.000000000000000
11
-66.5741074603339
21
0.0412357073697329
31
0.000000000000000
  0
LINE
  5
F10301
330
F10302
100
AcDbEntity
8
Geo
100
AcDbLine
10
-66.5741074603339
20
0.0412357073697329
30
0.000000000000000
11
-66.4741074603339
21
0.0412357073697329
31
0.000000000000000
  0
LINE
  5
F10303
330
F10304
100
AcDbEntity
8
Geo
100
AcDbLine
10
-66.4741074603339
20
0.0412357073697329
30
0.000000000000000
11
-66.3741074603339
21
0.0412357073697329
31
0.000000000000000
  0
LINE
  5
F10305
330
F10306
100
AcDbEntity
8
Geo
100
AcDbLine
10
-66.3741074603339
20
0.0412357073697329
30
0.000000000000000
11
-66.2741074603339
21
0.0412357073697329
31
0.000000000000000
  0
LINE
  5
F10307
330
F10308
100
AcDbEntity
8
Geo
100
AcDbLine
10
-66.2741074603339
20
0.0412357073697329
30
0.000000000000000
11
-66.1741074603339
21
0.0412357073697329
31
0.000000000000000
  0
LINE
  5
F10309
330
F1030A
100
AcDbEntity
8
Geo
100
AcDbLine
10
-66.1741074603339
20
0.0412357073697329
30
0.000000000000000
11
-66.0741074603339
21
0.0412357073697329
31
0.000000000000000
  0
LINE
  5
F1030B
330
F1030C
100
AcDbEntity
8
Geo
100
AcDbLine
10
-66.0741074603339
20
0.0412357073697329
30
0.000000000000000
11
-65.9741074603339
21
0.0412357073697329
31
0.000000000000000
  0
LINE
  5
F1030D
330
F1030E
100
AcDbEntity
8
Geo
100
AcDbLine
10
-65.9741074603339
20
0.0412357073697329
30
0.000000000000000
11
-65.8741074603339
21
0.0412357073697329
31
0.000000000000000
  0
LINE
  5
F1030F
330
F10310
100
AcDbEntity
8
Geo
100
AcDbLine
10
-65.8741074603339
20
0.0412357073697329
30
0.000000000000000
11
-65.7741074603339
21
0.0412357073697329
31
0.000000000000000
  0
LINE
  5
F10311
330
F10312
100
AcDbEntity
8
Geo
100
AcDbLine
10
-65.7741074603339
20
0.0412357073697329
30
0.000000000000000
11
-65.6741074603339
21
0.0412357073697329
31
0.000000000000000
  0
LINE
  5
F10313
330
F10314
100
AcDbEntity
8
Geo
100
AcDbLine
10
-65.6741074603339
20
0.0412357073697329
30
0.000000000000000
11
-65.5741074603339
21
0.0412357073697329
31
0.000000000000000
  0
LINE
  5
F10315
330
F10316
100
AcDbEntity
8
Geo
100
AcDbLine
10
-65.5741074603339
20
0.0412357073697329
30
0.000000000000000
11
-65.4741074603339
21
0.0412357073697329
31
0.000000000000000
  0
LINE
  5
F10317
330
F10318
100
AcDbEntity
8
Geo
100
AcDbLine
10
-65.4741074603339
20
0.0412357073697329
30
0.000000000000000
11
-65.3741074603339
21
0.0412357073697329
31
0.000000000000000
  0
LINE
  5
F10319
330
F1031A
100
AcDbEntity
8
Geo
100
AcDbLine
10
-65.3741074603339
20
0.0412357073697329
30
0.000000000000000
11
-65.2741074603339
21
0.0412357073697329
31
0.000000000000000
  0
LINE
  5
F1031B
330
F1031C
100
AcDbEntity
8
Geo
100
AcDbLine
10
-65.2741074603339
20
0.0412357073697329
30
0.000000000000000
11
-65.1741074603339
21
0.0412357073697329
31
0.000000000000000
  0
LINE
  5
F1031D
330
F1031E
100
AcDbEntity
8
Geo
100
AcDbLine
10
-65.1741074603339
20
0.0412357073697329
30
0.000000000000000
11
-65.0741074603339
21
0.0412357073697329
31
0.000000000000000
  0
LINE
  5
F1031F
330
F10320
100
AcDbEntity
8
Geo
100
AcDbLine
10
-65.0741074603339
20
0.0412357073697329
30
0.000000000000000
11
-64.9741074603339
21
0.0412357073697329
31
0.000000000000000
  0
LINE
  5
F10321
330
F10322
100
AcDbEntity
8
Geo
100
AcDbLine
10
-64.9741074603339
20
0.0412357073697329
30
0.000000000000000
11
-64.8741074603339
21
0.0412357073697329
31
0.000000000000000
  0
LINE
  5
F10323
330
F10324
100
AcDbEntity
8
Geo
100
AcDbLine
10
-64.8741074603339
20
0.0412357073697329
30
0.000000000000000
11
-64.7741074603339
21
0.0412357073697329
31
0.000000000000000
  0
LINE
  5
F10325
330
F10326
100
AcDbEntity
8
Geo
100
AcDbLine
10
-64.7741074603339
20
0.0412357073697329
30
0.000000000000000
11
-64.6741074603339
21
0.0412357073697329
31
0.000000000000000
  0
LINE
  5
F10327
330
F10328
100
AcDbEntity
8
Geo
100
AcDbLine
10
-64.6741074603339
20
0.0412357073697329
30
0.000000000000000
11
-64.5741074603339
21
0.0412357073697329
31
0.000000000000000
  0
LINE
  5
F10329
330
F1032A
100
AcDbEntity
8
Geo
100
AcDbLine
10
-64.5741074603339
20
0.0412357073697329
30
0.000000000000000
11
-64.4741074603339
21
0.0412357073697329
31
0.000000000000000
  0
LINE
  5
F1032B
330
F1032C
100
AcDbEntity
8
Geo
100
AcDbLine
10
-64.4741074603339
20
0.0412357073697329
30
0.000000000000000
11
-64.3741074603339
21
0.0412357073697329
31
0.000000000000000
  0
LINE
  5
F1032D
330
F1032E
100
AcDbEntity
8
Geo
100
AcDbLine
10
-64.3741074603339
20
0.0412357073697329
30
0.000000000000000
11
-64.2741074603339
21
0.0412357073697329
31
0.000000000000000
  0
LINE
  5
F1032F
330
F10330
100
AcDbEntity
8
Geo
100
AcDbLine
10
-64.2741074603339
20
0.0412357073697329
30
0.000000000000000
11
-64.1741074603339
21
0.0412357073697329
31
0.000000000000000
  0
LINE
  5
F10331
330
F10332
100
AcDbEntity
8
Geo
100
AcDbLine
10
-64.1741074603339
20
0.0412357073697329
30
0.000000000000000
11
-64.0741074603339
21
0.0412357073697329
31
0.000000000000000
  0
LINE
  5
F10333
330
F10334
100
AcDbEntity
8
Geo
100
AcDbLine
10
-64.0741074603339
20
0.0412357073697329
30
0.000000000000000
11
-63.9741074603339
21
0.0412357073697329
31
0.000000000000000
  0
LINE
  5
F10335
330
F10336
100
AcDbEntity
8
Geo
100
AcDbLine
10
-63.9741074603339
20
0.0412357073697329
30
0.000000000000000
11
-63.8741074603339
21
0.0412357073697329
31
0.000000000000000
  0
LINE
  5
F10337
330
F10338
100
AcDbEntity
8
Geo
100
AcDbLine
10
-63.8741074603339
20
0.0412357073697329
30
0.000000000000000
11
-63.7741074603339
21
0.0412357073697329
31
0.000000000000000
  0
LINE
  5
F10339
330
F1033A
100
AcDbEntity
8
Geo
100
AcDbLine
10
-63.7741074603339
20
0.0412357073697329
30
0.000000000000000
11
-63.6741074603339
21
0.0412357073697329
31
0.000000000000000
  0
LINE
  5
F1033B
330
F1033C
100
AcDbEntity
8
Geo
100
AcDbLine
10
-63.6741074603339
20
0.0412357073697329
30
0.000000000000000
11
-63.5741074603339
21
0.0412357073697329
31
0.000000000000000
  0
LINE
  5
F1033D
330
F1033E
100
AcDbEntity
8
Geo
100
AcDbLine
10
-63.5741074603339
20
0.0412357073697329
30
0.000000000000000
11
-63.4741074603339
21
0.0412357073697329
31
0.000000000000000
  0
LINE
  5
F1033F
330
F10340
100
AcDbEntity
8
Geo
100
AcDbLine
10
-63.4741074603339
20
0.0412357073697329
30
0.000000000000000
11
-63.3741074603339
21
0.0412357073697329
31
0.000000000000000
  0
LINE
  5
F10341
330
F10342
100
AcDbEntity
8
Geo
100
AcDbLine
10
-63.3741074603339
20
0.0412357073697329
30
0.000000000000000
11
-63.2741074603339
21
0.0412357073697329
31
0.000000000000000
  0
LINE
  5
F10343
330
F10344
100
AcDbEntity
8
Geo
100
AcDbLine
10
-63.2741074603339
20
0.0412357073697329
30
0.000000000000000
11
-63.1741074603339
21
0.0412357073697329
31
0.000000000000000
  0
LINE
  5
F10345
330
F10346
100
AcDbEntity
8
Geo
100
AcDbLine
10
-63.1741074603339
20
0.0412357073697329
30
0.000000000000000
11
-63.0741074603339
21
0.0412357073697329
31
0.000000000000000
  0
LINE
  5
F10347
330
F10348
100
AcDbEntity
8
Geo
100
AcDbLine
10
-63.0741074603339
20
0.0412357073697329
30
0.000000000000000
11
-62.9741074603339
21
0.0412357073697329
31
0.000000000000000
  0
LINE
  5
F10349
330
F1034A
100
AcDbEntity
8
Geo
100
AcDbLine
10
-71.9741074603339
20
-4.00411392833306
30
0.000000000000000
11
-71.8741074603339
21
-3.88011861678382
31
0.000000000000000
  0
LINE
  5
F1034B
330
F1034C
100
AcDbEntity
8
Geo
100
AcDbLine
10
-71.8741074603339
20
-3.88011861678382
30
0.000000000000000
11
-71.7741074603339
21
-3.83761816261528
31
0.000000000000000
  0
LINE
  5
F1034D
330
F1034E
100
AcDbEntity
8
Geo
100
AcDbLine
10
-71.7741074603339
20
-3.83761816261528
30
0.000000000000000
11
-71.6741074603339
21
-3.80886233582597
31
0.000000000000000
  0
LINE
  5
F1034F
330
F10350
100
AcDbEntity
8
Geo
100
AcDbLine
10
-71.6741074603339
20
-3.80886233582597
30
0.000000000000000
11
-71.5741074603339
21
-3.78758587224340
31
0.000000000000000
  0
LINE
  5
F10351
330
F10352
100
AcDbEntity
8
Geo
100
AcDbLine
10
-71.5741074603339
20
-3.78758587224340
30
0.000000000000000
11
-71.4741074603339
21
-3.77140349436254
31
0.000000000000000
  0
LINE
  5
F10353
330
F10354
100
AcDbEntity
8
Geo
100
AcDbLine
10
-71.4741074603339
20
-3.77140349436254
30
0.000000000000000
11
-71.3741074603339
21
-3.75912406454818
31
0.000000000000000
  0
LINE
  5
F10355
330
F10356
100
AcDbEntity
8
Geo
100
AcDbLine
10
-71.3741074603339
20
-3.75912406454818
30
0.000000000000000
11
-71.2741074603339
21
-3.75007179406987
31
0.000000000000000
  0
LINE
  5
F10357
330
F10358
100
AcDbEntity
8
Geo
100
AcDbLine
10
-71.2741074603339
20
-3.75007179406987
30
0.000000000000000
11
-71.1741074603339
21
-3.74384083344043
31
0.000000000000000
  0
LINE
  5
F10359
330
F1035A
100
AcDbEntity
8
Geo
100
AcDbLine
10
-71.1741074603339
20
-3.74384083344043
30
0.000000000000000
11
-71.0741074603339
21
-3.74018855525767
31
0.000000000000000
  0
LINE
  5
F1035B
330
F1035C
100
AcDbEntity
8
Geo
100
AcDbLine
10
-71.0741074603339
20
-3.74018855525767
30
0.000000000000000
11
-70.9741074603339
21
-3.73898482464056
31
0.000000000000000
  0
LINE
  5
F1035D
330
F1035E
100
AcDbEntity
8
Geo
100
AcDbLine
10
-70.9741074603339
20
-3.73898482464056
30
0.000000000000000
11
-70.8741074603339
21
-3.73898482464056
31
0.000000000000000
  0
LINE
  5
F1035F
330
F10360
100
AcDbEntity
8
Geo
100
AcDbLine
10
-70.8741074603339
20
-3.73898482464056
30
0.000000000000000
11
-70.7741074603339
21
-3.73898482464056
31
0.000000000000000
  0
LINE
  5
F10361
330
F10362
100
AcDbEntity
8
Geo
100
AcDbLine
10
-70.7741074603339
20
-3.73898482464056
30
0.000000000000000
11
-70.6741074603339
21
-3.73898482464056
31
0.000000000000000
  0
LINE
  5
F10363
330
F10364
100
AcDbEntity
8
Geo
100
AcDbLine
10
-70.6741074603339
20
-3.73898482464056
30
0.000000000000000
11
-70.5741074603339
21
-3.73898482464056
31
0.000000000000000
  0
LINE
  5
F10365
330
F10366
100
AcDbEntity
8
Geo
100
AcDbLine
10
-70.5741074603339
20
-3.73898482464056
30
0.000000000000000
11
-70.4741074603339
21
-3.73898482464056
31
0.000000000000000
  0
LINE
  5
F10367
330
F10368
100
AcDbEntity
8
Geo
100
AcDbLine
10
-70.4741074603339
20
-3.73898482464056
30
0.000000000000000
11
-70.3741074603339
21
-3.73898482464056
31
0.000000000000000
  0
LINE
  5
F10369
330
F1036A
100
AcDbEntity
8
Geo
100
AcDbLine
10
-70.3741074603339
20
-3.73898482464056
30
0.000000000000000
11
-70.2741074603339
21
-3.73898482464056
31
0.000000000000000
  0
LINE
  5
F1036B
330
F1036C
100
AcDbEntity
8
Geo
100
AcDbLine
10
-70.2741074603339
20
-3.73898482464056
30
0.000000000000000
11
-70.1741074603339
21
-3.73898482464056
31
0.000000000000000
  0
LINE
  5
F1036D
330
F1036E
100
AcDbEntity
8
Geo
100
AcDbLine
10
-70.1741074603339
20
-3.73898482464056
30
0.000000000000000
11
-70.0741074603339
21
-3.73898482464056
31
0.000000000000000
  0
LINE
  5
F1036F
330
F10370
100
AcDbEntity
8
Geo
100
AcDbLine
10
-70.0741074603339
20
-3.73898482464056
30
0.000000000000000
11
-69.9741074603339
21
-3.73898482464056
31
0.000000000000000
  0
LINE
  5
F10371
330
F10372
100
AcDbEntity
8
Geo
100
AcDbLine
10
-69.9741074603339
20
-3.73898482464056
30
0.000000000000000
11
-69.8741074603339
21
-3.73898482464056
31
0.000000000000000
  0
LINE
  5
F10373
330
F10374
100
AcDbEntity
8
Geo
100
AcDbLine
10
-69.8741074603339
20
-3.73898482464056
30
0.000000000000000
11
-69.7741074603339
21
-3.73898482464056
31
0.000000000000000
  0
LINE
  5
F10375
330
F10376
100
AcDbEntity
8
Geo
100
AcDbLine
10
-69.7741074603339
20
-3.73898482464056
30
0.000000000000000
11
-69.6741074603339
21
-3.73898482464056
31
0.000000000000000
  0
LINE
  5
F10377
330
F10378
100
AcDbEntity
8
Geo
100
AcDbLine
10
-69.6741074603339
20
-3.73898482464056
30
0.000000000000000
11
-69.5741074603339
21
-3.73898482464056
31
0.000000000000000
  0
LINE
  5
F10379
330
F1037A
100
AcDbEntity
8
Geo
100
AcDbLine
10
-69.5741074603339
20
-3.73898482464056
30
0.000000000000000
11
-69.4741074603339
21
-3.73898482464056
31
0.000000000000000
  0
LINE
  5
F1037B
330
F1037C
100
AcDbEntity
8
Geo
100
AcDbLine
10
-69.4741074603339
20
-3.73898482464056
30
0.000000000000000
11
-69.3741074603339
21
-3.73898482464056
31
0.000000000000000
  0
LINE
  5
F1037D
330
F1037E
100
AcDbEntity
8
Geo
100
AcDbLine
10
-69.3741074603339
20
-3.73898482464056
30
0.000000000000000
11
-69.2741074603339
21
-3.73898482464056
31
0.000000000000000
  0
LINE
  5
F1037F
330
F10380
100
AcDbEntity
8
Geo
100
AcDbLine
10
-69.2741074603339
20
-3.73898482464056
30
0.000000000000000
11
-69.1741074603339
21
-3.73898482464056
31
0.000000000000000
  0
LINE
  5
F10381
330
F10382
100
AcDbEntity
8
Geo
100
AcDbLine
10
-69.1741074603339
20
-3.73898482464056
30
0.000000000000000
11
-69.0741074603339
21
-3.73898482464056
31
0.000000000000000
  0
LINE
  5
F10383
330
F10384
100
AcDbEntity
8
Geo
100
AcDbLine
10
-69.0741074603339
20
-3.73898482464056
30
0.000000000000000
11
-68.9741074603339
21
-3.73898482464056
31
0.000000000000000
  0
LINE
  5
F10385
330
F10386
100
AcDbEntity
8
Geo
100
AcDbLine
10
-68.9741074603339
20
-3.73898482464056
30
0.000000000000000
11
-68.8741074603339
21
-3.73898482464056
31
0.000000000000000
  0
LINE
  5
F10387
330
F10388
100
AcDbEntity
8
Geo
100
AcDbLine
10
-68.8741074603339
20
-3.73898482464056
30
0.000000000000000
11
-68.7741074603339
21
-3.73898482464056
31
0.000000000000000
  0
LINE
  5
F10389
330
F1038A
100
AcDbEntity
8
Geo
100
AcDbLine
10
-68.7741074603339
20
-3.73898482464056
30
0.000000000000000
11
-68.6741074603339
21
-3.73898482464056
31
0.000000000000000
  0
LINE
  5
F1038B
330
F1038C
100
AcDbEntity
8
Geo
100
AcDbLine
10
-68.6741074603339
20
-3.73898482464056
30
0.000000000000000
11
-68.5741074603339
21
-3.73898482464056
31
0.000000000000000
  0
LINE
  5
F1038D
330
F1038E
100
AcDbEntity
8
Geo
100
AcDbLine
10
-68.5741074603339
20
-3.73898482464056
30
0.000000000000000
11
-68.4741074603339
21
-3.73898482464056
31
0.000000000000000
  0
LINE
  5
F1038F
330
F10390
100
AcDbEntity
8
Geo
100
AcDbLine
10
-68.4741074603339
20
-3.73898482464056
30
0.000000000000000
11
-68.3741074603339
21
-3.73898482464056
31
0.000000000000000
  0
LINE
  5
F10391
330
F10392
100
AcDbEntity
8
Geo
100
AcDbLine
10
-68.3741074603339
20
-3.73898482464056
30
0.000000000000000
11
-68.2741074603339
21
-3.73898482464056
31
0.000000000000000
  0
LINE
  5
F10393
330
F10394
100
AcDbEntity
8
Geo
100
AcDbLine
10
-68.2741074603339
20
-3.73898482464056
30
0.000000000000000
11
-68.1741074603339
21
-3.73898482464056
31
0.000000000000000
  0
LINE
  5
F10395
330
F10396
100
AcDbEntity
8
Geo
100
AcDbLine
10
-68.1741074603339
20
-3.73898482464056
30
0.000000000000000
11
-68.0741074603339
21
-3.73898482464056
31
0.000000000000000
  0
LINE
  5
F10397
330
F10398
100
AcDbEntity
8
Geo
100
AcDbLine
10
-68.0741074603339
20
-3.73898482464056
30
0.000000000000000
11
-67.9741074603339
21
-3.73898482464056
31
0.000000000000000
  0
LINE
  5
F10399
330
F1039A
100
AcDbEntity
8
Geo
100
AcDbLine
10
-67.9741074603339
20
-3.73898482464056
30
0.000000000000000
11
-67.8741074603339
21
-3.73898482464056
31
0.000000000000000
  0
LINE
  5
F1039B
330
F1039C
100
AcDbEntity
8
Geo
100
AcDbLine
10
-67.8741074603339
20
-3.73898482464056
30
0.000000000000000
11
-67.7741074603339
21
-3.73898482464056
31
0.000000000000000
  0
LINE
  5
F1039D
330
F1039E
100
AcDbEntity
8
Geo
100
AcDbLine
10
-67.7741074603339
20
-3.73898482464056
30
0.000000000000000
11
-67.6741074603339
21
-3.73898482464056
31
0.000000000000000
  0
LINE
  5
F1039F
330
F103A0
100
AcDbEntity
8
Geo
100
AcDbLine
10
-67.6741074603339
20
-3.73898482464056
30
0.000000000000000
11
-67.5741074603339
21
-3.73898482464056
31
0.000000000000000
  0
LINE
  5
F103A1
330
F103A2
100
AcDbEntity
8
Geo
100
AcDbLine
10
-67.5741074603339
20
-3.73898482464056
30
0.000000000000000
11
-67.4741074603339
21
-3.73898482464056
31
0.000000000000000
  0
LINE
  5
F103A3
330
F103A4
100
AcDbEntity
8
Geo
100
AcDbLine
10
-67.4741074603339
20
-3.73898482464056
30
0.000000000000000
11
-67.3741074603339
21
-3.73898482464056
31
0.000000000000000
  0
LINE
  5
F103A5
330
F103A6
100
AcDbEntity
8
Geo
100
AcDbLine
10
-67.3741074603339
20
-3.73898482464056
30
0.000000000000000
11
-67.2741074603339
21
-3.73898482464056
31
0.000000000000000
  0
LINE
  5
F103A7
330
F103A8
100
AcDbEntity
8
Geo
100
AcDbLine
10
-67.2741074603339
20
-3.73898482464056
30
0.000000000000000
11
-67.1741074603339
21
-3.73898482464056
31
0.000000000000000
  0
LINE
  5
F103A9
330
F103AA
100
AcDbEntity
8
Geo
100
AcDbLine
10
-67.1741074603339
20
-3.73898482464056
30
0.000000000000000
11
-67.0741074603339
21
-3.73898482464056
31
0.000000000000000
  0
LINE
  5
F103AB
330
F103AC
100
AcDbEntity
8
Geo
100
AcDbLine
10
-67.0741074603339
20
-3.73898482464056
30
0.000000000000000
11
-66.9741074603339
21
-3.73898482464056
31
0.000000000000000
  0
LINE
  5
F103AD
330
F103AE
100
AcDbEntity
8
Geo
100
AcDbLine
10
-66.9741074603339
20
-3.73898482464056
30
0.000000000000000
11
-66.8741074603339
21
-3.73898482464056
31
0.000000000000000
  0
LINE
  5
F103AF
330
F103B0
100
AcDbEntity
8
Geo
100
AcDbLine
10
-66.8741074603339
20
-3.73898482464056
30
0.000000000000000
11
-66.7741074603339
21
-3.73898482464056
31
0.000000000000000
  0
LINE
  5
F103B1
330
F103B2
100
AcDbEntity
8
Geo
100
AcDbLine
10
-66.7741074603339
20
-3.73898482464056
30
0.000000000000000
11
-66.6741074603339
21
-3.73898482464056
31
0.000000000000000
  0
LINE
  5
F103B3
330
F103B4
100
AcDbEntity
8
Geo
100
AcDbLine
10
-66.6741074603339
20
-3.73898482464056
30
0.000000000000000
11
-66.5741074603339
21
-3.73898482464056
31
0.000000000000000
  0
LINE
  5
F103B5
330
F103B6
100
AcDbEntity
8
Geo
100
AcDbLine
10
-66.5741074603339
20
-3.73898482464056
30
0.000000000000000
11
-66.4741074603339
21
-3.73898482464056
31
0.000000000000000
  0
LINE
  5
F103B7
330
F103B8
100
AcDbEntity
8
Geo
100
AcDbLine
10
-66.4741074603339
20
-3.73898482464056
30
0.000000000000000
11
-66.3741074603339
21
-3.73898482464056
31
0.000000000000000
  0
LINE
  5
F103B9
330
F103BA
100
AcDbEntity
8
Geo
100
AcDbLine
10
-66.3741074603339
20
-3.73898482464056
30
0.000000000000000
11
-66.2741074603339
21
-3.73898482464056
31
0.000000000000000
  0
LINE
  5
F103BB
330
F103BC
100
AcDbEntity
8
Geo
100
AcDbLine
10
-66.2741074603339
20
-3.73898482464056
30
0.000000000000000
11
-66.1741074603339
21
-3.73898482464056
31
0.000000000000000
  0
LINE
  5
F103BD
330
F103BE
100
AcDbEntity
8
Geo
100
AcDbLine
10
-66.1741074603339
20
-3.73898482464056
30
0.000000000000000
11
-66.0741074603339
21
-3.73898482464056
31
0.000000000000000
  0
LINE
  5
F103BF
330
F103C0
100
AcDbEntity
8
Geo
100
AcDbLine
10
-66.0741074603339
20
-3.73898482464056
30
0.000000000000000
11
-65.9741074603339
21
-3.73898482464056
31
0.000000000000000
  0
LINE
  5
F103C1
330
F103C2
100
AcDbEntity
8
Geo
100
AcDbLine
10
-65.9741074603339
20
-3.73898482464056
30
0.000000000000000
11
-65.8741074603339
21
-3.73898482464056
31
0.000000000000000
  0
LINE
  5
F103C3
330
F103C4
100
AcDbEntity
8
Geo
100
AcDbLine
10
-65.8741074603339
20
-3.73898482464056
30
0.000000000000000
11
-65.7741074603339
21
-3.73898482464056
31
0.000000000000000
  0
LINE
  5
F103C5
330
F103C6
100
AcDbEntity
8
Geo
100
AcDbLine
10
-65.7741074603339
20
-3.73898482464056
30
0.000000000000000
11
-65.6741074603339
21
-3.73898482464056
31
0.000000000000000
  0
LINE
  5
F103C7
330
F103C8
100
AcDbEntity
8
Geo
100
AcDbLine
10
-65.6741074603339
20
-3.73898482464056
30
0.000000000000000
11
-65.5741074603339
21
-3.73898482464056
31
0.000000000000000
  0
LINE
  5
F103C9
330
F103CA
100
AcDbEntity
8
Geo
100
AcDbLine
10
-65.5741074603339
20
-3.73898482464056
30
0.000000000000000
11
-65.4741074603339
21
-3.73898482464056
31
0.000000000000000
  0
LINE
  5
F103CB
330
F103CC
100
AcDbEntity
8
Geo
100
AcDbLine
10
-65.4741074603339
20
-3.73898482464056
30
0.000000000000000
11
-65.3741074603339
21
-3.73898482464056
31
0.000000000000000
  0
LINE
  5
F103CD
330
F103CE
100
AcDbEntity
8
Geo
100
AcDbLine
10
-65.3741074603339
20
-3.73898482464056
30
0.000000000000000
11
-65.2741074603339
21
-3.73898482464056
31
0.000000000000000
  0
LINE
  5
F103CF
330
F103D0
100
AcDbEntity
8
Geo
100
AcDbLine
10
-65.2741074603339
20
-3.73898482464056
30
0.000000000000000
11
-65.1741074603339
21
-3.73898482464056
31
0.000000000000000
  0
LINE
  5
F103D1
330
F103D2
100
AcDbEntity
8
Geo
100
AcDbLine
10
-65.1741074603339
20
-3.73898482464056
30
0.000000000000000
11
-65.0741074603339
21
-3.73898482464056
31
0.000000000000000
  0
LINE
  5
F103D3
330
F103D4
100
AcDbEntity
8
Geo
100
AcDbLine
10
-65.0741074603339
20
-3.73898482464056
30
0.000000000000000
11
-64.9741074603339
21
-3.73898482464056
31
0.000000000000000
  0
LINE
  5
F103D5
330
F103D6
100
AcDbEntity
8
Geo
100
AcDbLine
10
-64.9741074603339
20
-3.73898482464056
30
0.000000000000000
11
-64.8741074603339
21
-3.73898482464056
31
0.000000000000000
  0
LINE
  5
F103D7
330
F103D8
100
AcDbEntity
8
Geo
100
AcDbLine
10
-64.8741074603339
20
-3.73898482464056
30
0.000000000000000
11
-64.7741074603339
21
-3.73898482464056
31
0.000000000000000
  0
LINE
  5
F103D9
330
F103DA
100
AcDbEntity
8
Geo
100
AcDbLine
10
-64.7741074603339
20
-3.73898482464056
30
0.000000000000000
11
-64.6741074603339
21
-3.73898482464056
31
0.000000000000000
  0
LINE
  5
F103DB
330
F103DC
100
AcDbEntity
8
Geo
100
AcDbLine
10
-64.6741074603339
20
-3.73898482464056
30
0.000000000000000
11
-64.5741074603339
21
-3.73898482464056
31
0.000000000000000
  0
LINE
  5
F103DD
330
F103DE
100
AcDbEntity
8
Geo
100
AcDbLine
10
-64.5741074603339
20
-3.73898482464056
30
0.000000000000000
11
-64.4741074603339
21
-3.73898482464056
31
0.000000000000000
  0
LINE
  5
F103DF
330
F103E0
100
AcDbEntity
8
Geo
100
AcDbLine
10
-64.4741074603339
20
-3.73898482464056
30
0.000000000000000
11
-64.3741074603339
21
-3.73898482464056
31
0.000000000000000
  0
LINE
  5
F103E1
330
F103E2
100
AcDbEntity
8
Geo
100
AcDbLine
10
-64.3741074603339
20
-3.73898482464056
30
0.000000000000000
11
-64.2741074603339
21
-3.73898482464056
31
0.000000000000000
  0
LINE
  5
F103E3
330
F103E4
100
AcDbEntity
8
Geo
100
AcDbLine
10
-64.2741074603339
20
-3.73898482464056
30
0.000000000000000
11
-64.1741074603339
21
-3.73898482464056
31
0.000000000000000
  0
LINE
  5
F103E5
330
F103E6
100
AcDbEntity
8
Geo
100
AcDbLine
10
-64.1741074603339
20
-3.73898482464056
30
0.000000000000000
11
-64.0741074603339
21
-3.73898482464056
31
0.000000000000000
  0
LINE
  5
F103E7
330
F103E8
100
AcDbEntity
8
Geo
100
AcDbLine
10
-64.0741074603339
20
-3.73898482464056
30
0.000000000000000
11
-63.9741074603339
21
-3.73898482464056
31
0.000000000000000
  0
LINE
  5
F103E9
330
F103EA
100
AcDbEntity
8
Geo
100
AcDbLine
10
-63.9741074603339
20
-3.73898482464056
30
0.000000000000000
11
-63.8741074603339
21
-3.73898482464056
31
0.000000000000000
  0
LINE
  5
F103EB
330
F103EC
100
AcDbEntity
8
Geo
100
AcDbLine
10
-63.8741074603339
20
-3.73898482464056
30
0.000000000000000
11
-63.7741074603339
21
-3.73898482464056
31
0.000000000000000
  0
LINE
  5
F103ED
330
F103EE
100
AcDbEntity
8
Geo
100
AcDbLine
10
-63.7741074603339
20
-3.73898482464056
30
0.000000000000000
11
-63.6741074603339
21
-3.73898482464056
31
0.000000000000000
  0
LINE
  5
F103EF
330
F103F0
100
AcDbEntity
8
Geo
100
AcDbLine
10
-63.6741074603339
20
-3.73898482464056
30
0.000000000000000
11
-63.5741074603339
21
-3.73898482464056
31
0.000000000000000
  0
LINE
  5
F103F1
330
F103F2
100
AcDbEntity
8
Geo
100
AcDbLine
10
-63.5741074603339
20
-3.73898482464056
30
0.000000000000000
11
-63.4741074603339
21
-3.73898482464056
31
0.000000000000000
  0
LINE
  5
F103F3
330
F103F4
100
AcDbEntity
8
Geo
100
AcDbLine
10
-63.4741074603339
20
-3.73898482464056
30
0.000000000000000
11
-63.3741074603339
21
-3.73898482464056
31
0.000000000000000
  0
LINE
  5
F103F5
330
F103F6
100
AcDbEntity
8
Geo
100
AcDbLine
10
-63.3741074603339
20
-3.73898482464056
30
0.000000000000000
11
-63.2741074603339
21
-3.73898482464056
31
0.000000000000000
  0
LINE
  5
F103F7
330
F103F8
100
AcDbEntity
8
Geo
100
AcDbLine
10
-63.2741074603339
20
-3.73898482464056
30
0.000000000000000
11
-63.1741074603339
21
-3.73898482464056
31
0.000000000000000
  0
LINE
  5
F103F9
330
F103FA
100
AcDbEntity
8
Geo
100
AcDbLine
10
-63.1741074603339
20
-3.73898482464056
30
0.000000000000000
11
-63.0741074603339
21
-3.73898482464056
31
0.000000000000000
  0
LINE
  5
F103FB
330
F103FC
100
AcDbEntity
8
Geo
100
AcDbLine
10
-63.0741074603339
20
-3.73898482464056
30
0.000000000000000
11
-62.9741074603339
21
-3.73898482464056
31
0.000000000000000
  0
LINE
  5
F103FD
330
F103FE
100
AcDbEntity
8
Geo
100
AcDbLine
10
-62.9741074603339
20
0.188066158484276
30
0.000000000000000
11
-62.9741074603339
21
0.188066158484276
31
0.000000000000000
  0
LINE
  5
F103FF
330
F10400
100
AcDbEntity
8
Geo
100
AcDbLine
10
-62.9741074603339
20
-2.81193384151572
30
0.000000000000000
11
-62.8741074603339
21
-2.81120835432036
31
0.000000000000000
  0
LINE
  5
F10401
330
F10402
100
AcDbEntity
8
Geo
100
AcDbLine
10
-62.8741074603339
20
-2.81120835432036
30
0.000000000000000
11
-62.7741074603339
21
-2.80903260912647
31
0.000000000000000
  0
LINE
  5
F10403
330
F10404
100
AcDbEntity
8
Geo
100
AcDbLine
10
-62.7741074603339
20
-2.80903260912647
30
0.000000000000000
11
-62.6741074603339
21
-2.80540875694161
31
0.000000000000000
  0
LINE
  5
F10405
330
F10406
100
AcDbEntity
8
Geo
100
AcDbLine
10
-62.6741074603339
20
-2.80540875694161
30
0.000000000000000
11
-62.5741074603339
21
-2.80034038884709
31
0.000000000000000
  0
LINE
  5
F10407
330
F10408
100
AcDbEntity
8
Geo
100
AcDbLine
10
-62.5741074603339
20
-2.80034038884709
30
0.000000000000000
11
-62.4741074603339
21
-2.79383254498092
31
0.000000000000000
  0
LINE
  5
F10409
330
F1040A
100
AcDbEntity
8
Geo
100
AcDbLine
10
-62.4741074603339
20
-2.79383254498092
30
0.000000000000000
11
-62.3741074603339
21
-2.78589172687524
31
0.000000000000000
  0
LINE
  5
F1040B
330
F1040C
100
AcDbEntity
8
Geo
100
AcDbLine
10
-62.3741074603339
20
-2.78589172687524
30
0.000000000000000
11
-62.2741074603339
21
-2.77652591291202
31
0.000000000000000
  0
LINE
  5
F1040D
330
F1040E
100
AcDbEntity
8
Geo
100
AcDbLine
10
-62.2741074603339
20
-2.77652591291202
30
0.000000000000000
11
-62.1741074603339
21
-2.76574457659742
31
0.000000000000000
  0
LINE
  5
F1040F
330
F10410
100
AcDbEntity
8
Geo
100
AcDbLine
10
-62.1741074603339
20
-2.76574457659742
30
0.000000000000000
11
-62.0741074603339
21
-2.75355870729444
31
0.000000000000000
  0
LINE
  5
F10411
330
F10412
100
AcDbEntity
8
Geo
100
AcDbLine
10
-62.0741074603339
20
-2.75355870729444
30
0.000000000000000
11
-61.9741074603339
21
-2.73998083299641
31
0.000000000000000
  0
LINE
  5
F10413
330
F10414
100
AcDbEntity
8
Geo
100
AcDbLine
10
-61.9741074603339
20
-2.73998083299641
30
0.000000000000000
11
-61.8741074603339
21
-2.72502504467058
31
0.000000000000000
  0
LINE
  5
F10415
330
F10416
100
AcDbEntity
8
Geo
100
AcDbLine
10
-61.8741074603339
20
-2.72502504467058
30
0.000000000000000
11
-61.7741074603339
21
-2.70870702165303
31
0.000000000000000
  0
LINE
  5
F10417
330
F10418
100
AcDbEntity
8
Geo
100
AcDbLine
10
-61.7741074603339
20
-2.70870702165303
30
0.000000000000000
11
-61.6741074603339
21
-2.69104405753246
31
0.000000000000000
  0
LINE
  5
F10419
330
F1041A
100
AcDbEntity
8
Geo
100
AcDbLine
10
-61.6741074603339
20
-2.69104405753246
30
0.000000000000000
11
-61.5741074603339
21
-2.67205508592345
31
0.000000000000000
  0
LINE
  5
F1041B
330
F1041C
100
AcDbEntity
8
Geo
100
AcDbLine
10
-61.5741074603339
20
-2.67205508592345
30
0.000000000000000
11
-61.4741074603339
21
-2.65176070549806
31
0.000000000000000
  0
LINE
  5
F1041D
330
F1041E
100
AcDbEntity
8
Geo
100
AcDbLine
10
-61.4741074603339
20
-2.65176070549806
30
0.000000000000000
11
-61.3741074603339
21
-2.63018320362060
31
0.000000000000000
  0
LINE
  5
F1041F
330
F10420
100
AcDbEntity
8
Geo
100
AcDbLine
10
-61.3741074603339
20
-2.63018320362060
30
0.000000000000000
11
-61.2741074603339
21
-2.60734657791239
31
0.000000000000000
  0
LINE
  5
F10421
330
F10422
100
AcDbEntity
8
Geo
100
AcDbLine
10
-61.2741074603339
20
-2.60734657791239
30
0.000000000000000
11
-61.1741074603339
21
-2.58327655506343
31
0.000000000000000
  0
LINE
  5
F10423
330
F10424
100
AcDbEntity
8
Geo
100
AcDbLine
10
-61.1741074603339
20
-2.58327655506343
30
0.000000000000000
11
-61.0741074603339
21
-2.55800060620549
31
0.000000000000000
  0
LINE
  5
F10425
330
F10426
100
AcDbEntity
8
Geo
100
AcDbLine
10
-61.0741074603339
20
-2.55800060620549
30
0.000000000000000
11
-60.9741074603339
21
-2.53154795816629
31
0.000000000000000
  0
LINE
  5
F10427
330
F10428
100
AcDbEntity
8
Geo
100
AcDbLine
10
-60.9741074603339
20
-2.53154795816629
30
0.000000000000000
11
-60.8741074603339
21
-2.50394959993808
31
0.000000000000000
  0
LINE
  5
F10429
330
F1042A
100
AcDbEntity
8
Geo
100
AcDbLine
10
-60.8741074603339
20
-2.50394959993808
30
0.000000000000000
11
-60.7741074603339
21
-2.47523828371531
31
0.000000000000000
  0
LINE
  5
F1042B
330
F1042C
100
AcDbEntity
8
Geo
100
AcDbLine
10
-60.7741074603339
20
-2.47523828371531
30
0.000000000000000
11
-60.6741074603339
21
-2.44544851988573
31
0.000000000000000
  0
LINE
  5
F1042D
330
F1042E
100
AcDbEntity
8
Geo
100
AcDbLine
10
-60.6741074603339
20
-2.44544851988573
30
0.000000000000000
11
-60.5741074603339
21
-2.41461656539667
31
0.000000000000000
  0
LINE
  5
F1042F
330
F10430
100
AcDbEntity
8
Geo
100
AcDbLine
10
-60.5741074603339
20
-2.41461656539667
30
0.000000000000000
11
-60.4741074603339
21
-2.38278040496374
31
0.000000000000000
  0
LINE
  5
F10431
330
F10432
100
AcDbEntity
8
Geo
100
AcDbLine
10
-60.4741074603339
20
-2.38278040496374
30
0.000000000000000
11
-60.3741074603339
21
-2.34997972464177
31
0.000000000000000
  0
LINE
  5
F10433
330
F10434
100
AcDbEntity
8
Geo
100
AcDbLine
10
-60.3741074603339
20
-2.34997972464177
30
0.000000000000000
11
-60.2741074603339
21
-2.31625587733804
31
0.000000000000000
  0
LINE
  5
F10435
330
F10436
100
AcDbEntity
8
Geo
100
AcDbLine
10
-60.2741074603339
20
-2.31625587733804
30
0.000000000000000
11
-60.1741074603339
21
-2.28165183991399
31
0.000000000000000
  0
LINE
  5
F10437
330
F10438
100
AcDbEntity
8
Geo
100
AcDbLine
10
-60.1741074603339
20
-2.28165183991399
30
0.000000000000000
11
-60.0741074603339
21
-2.24621216159471
31
0.000000000000000
  0
LINE
  5
F10439
330
F1043A
100
AcDbEntity
8
Geo
100
AcDbLine
10
-60.0741074603339
20
-2.24621216159471
30
0.000000000000000
11
-59.9741074603339
21
-2.20998290348319
31
0.000000000000000
  0
LINE
  5
F1043B
330
F1043C
100
AcDbEntity
8
Geo
100
AcDbLine
10
-59.9741074603339
20
-2.20998290348319
30
0.000000000000000
11
-59.8741074603339
21
-2.17301156905946
31
0.000000000000000
  0
LINE
  5
F1043D
330
F1043E
100
AcDbEntity
8
Geo
100
AcDbLine
10
-59.8741074603339
20
-2.17301156905946
30
0.000000000000000
11
-59.7741074603339
21
-2.13534702563104
31
0.000000000000000
  0
LINE
  5
F1043F
330
F10440
100
AcDbEntity
8
Geo
100
AcDbLine
10
-59.7741074603339
20
-2.13534702563104
30
0.000000000000000
11
-59.6741074603339
21
-2.09703941679122
31
0.000000000000000
  0
LINE
  5
F10441
330
F10442
100
AcDbEntity
8
Geo
100
AcDbLine
10
-59.6741074603339
20
-2.09703941679122
30
0.000000000000000
11
-59.5741074603339
21
-2.05814006603302
31
0.000000000000000
  0
LINE
  5
F10443
330
F10444
100
AcDbEntity
8
Geo
100
AcDbLine
10
-59.5741074603339
20
-2.05814006603302
30
0.000000000000000
11
-59.4741074603339
21
-2.01870137175979
31
0.000000000000000
  0
LINE
  5
F10445
330
F10446
100
AcDbEntity
8
Geo
100
AcDbLine
10
-59.4741074603339
20
-2.01870137175979
30
0.000000000000000
11
-59.3741074603339
21
-1.97877669402591
31
0.000000000000000
  0
LINE
  5
F10447
330
F10448
100
AcDbEntity
8
Geo
100
AcDbLine
10
-59.3741074603339
20
-1.97877669402591
30
0.000000000000000
11
-59.2741074603339
21
-1.93842023343303
31
0.000000000000000
  0
LINE
  5
F10449
330
F1044A
100
AcDbEntity
8
Geo
100
AcDbLine
10
-59.2741074603339
20
-1.93842023343303
30
0.000000000000000
11
-59.1741074603339
21
-1.89768690269670
31
0.000000000000000
  0
LINE
  5
F1044B
330
F1044C
100
AcDbEntity
8
Geo
100
AcDbLine
10
-59.1741074603339
20
-1.89768690269670
30
0.000000000000000
11
-59.0741074603339
21
-1.85663219148470
31
0.000000000000000
  0
LINE
  5
F1044D
330
F1044E
100
AcDbEntity
8
Geo
100
AcDbLine
10
-59.0741074603339
20
-1.85663219148470
30
0.000000000000000
11
-58.9741074603339
21
-1.81531202521041
31
0.000000000000000
  0
LINE
  5
F1044F
330
F10450
100
AcDbEntity
8
Geo
100
AcDbLine
10
-58.9741074603339
20
-1.81531202521041
30
0.000000000000000
11
-58.8741074603339
21
-1.77378261854125
31
0.000000000000000
  0
LINE
  5
F10451
330
F10452
100
AcDbEntity
8
Geo
100
AcDbLine
10
-58.8741074603339
20
-1.77378261854125
30
0.000000000000000
11
-58.7741074603339
21
-1.73210032445283
31
0.000000000000000
  0
LINE
  5
F10453
330
F10454
100
AcDbEntity
8
Geo
100
AcDbLine
10
-58.7741074603339
20
-1.73210032445283
30
0.000000000000000
11
-58.6741074603339
21
-1.69032147972241
31
0.000000000000000
  0
LINE
  5
F10455
330
F10456
100
AcDbEntity
8
Geo
100
AcDbLine
10
-58.6741074603339
20
-1.69032147972241
30
0.000000000000000
11
-58.5741074603339
21
-1.64850224781055
31
0.000000000000000
  0
LINE
  5
F10457
330
F10458
100
AcDbEntity
8
Geo
100
AcDbLine
10
-58.5741074603339
20
-1.64850224781055
30
0.000000000000000
11
-58.4741074603339
21
-1.60669846012603
31
0.000000000000000
  0
LINE
  5
F10459
330
F1045A
100
AcDbEntity
8
Geo
100
AcDbLine
10
-58.4741074603339
20
-1.60669846012603
30
0.000000000000000
11
-58.3741074603339
21
-1.56496545670591
31
0.000000000000000
  0
LINE
  5
F1045B
330
F1045C
100
AcDbEntity
8
Geo
100
AcDbLine
10
-58.3741074603339
20
-1.56496545670591
30
0.000000000000000
11
-58.2741074603339
21
-1.52335792736941
31
0.000000000000000
  0
LINE
  5
F1045D
330
F1045E
100
AcDbEntity
8
Geo
100
AcDbLine
10
-58.2741074603339
20
-1.52335792736941
30
0.000000000000000
11
-58.1741074603339
21
-1.48192975442045
31
0.000000000000000
  0
LINE
  5
F1045F
330
F10460
100
AcDbEntity
8
Geo
100
AcDbLine
10
-58.1741074603339
20
-1.48192975442045
30
0.000000000000000
11
-58.0741074603339
21
-1.44073385797949
31
0.000000000000000
  0
LINE
  5
F10461
330
F10462
100
AcDbEntity
8
Geo
100
AcDbLine
10
-58.0741074603339
20
-1.44073385797949
30
0.000000000000000
11
-57.9741074603339
21
-1.39982204501974
31
0.000000000000000
  0
LINE
  5
F10463
330
F10464
100
AcDbEntity
8
Geo
100
AcDbLine
10
-57.9741074603339
20
-1.39982204501974
30
0.000000000000000
11
-57.9741074603339
21
-1.71985252992788
31
0.000000000000000
  0
LINE
  5
F10465
330
F10466
100
AcDbEntity
8
Geo
100
AcDbLine
10
-57.9741074603339
20
-1.71985252992788
30
0.000000000000000
11
-57.9741074603339
21
-1.74259284445188
31
0.000000000000000
  0
LINE
  5
F10467
330
F10468
100
AcDbEntity
8
Geo
100
AcDbLine
10
-57.9741074603339
20
-1.74259284445188
30
0.000000000000000
11
-57.9741074603339
21
-1.33375181687086
31
0.000000000000000
  0
LINE
  5
F10469
330
F1046A
100
AcDbEntity
8
Geo
100
AcDbLine
10
-57.9741074603339
20
-1.33375181687086
30
0.000000000000000
11
-58.0741074603339
21
-1.27336248712316
31
0.000000000000000
  0
LINE
  5
F1046B
330
F1046C
100
AcDbEntity
8
Geo
100
AcDbLine
10
-58.0741074603339
20
-1.27336248712316
30
0.000000000000000
11
-58.1741074603339
21
-1.21386591724742
31
0.000000000000000
  0
LINE
  5
F1046D
330
F1046E
100
AcDbEntity
8
Geo
100
AcDbLine
10
-58.1741074603339
20
-1.21386591724742
30
0.000000000000000
11
-58.2741074603339
21
-1.15534922112225
31
0.000000000000000
  0
LINE
  5
F1046F
330
F10470
100
AcDbEntity
8
Geo
100
AcDbLine
10
-58.2741074603339
20
-1.15534922112225
30
0.000000000000000
11
-58.3741074603339
21
-1.09789515809783
31
0.000000000000000
  0
LINE
  5
F10471
330
F10472
100
AcDbEntity
8
Geo
100
AcDbLine
10
-58.3741074603339
20
-1.09789515809783
30
0.000000000000000
11
-58.4741074603339
21
-1.04158179488834
31
0.000000000000000
  0
LINE
  5
F10473
330
F10474
100
AcDbEntity
8
Geo
100
AcDbLine
10
-58.4741074603339
20
-1.04158179488834
30
0.000000000000000
11
-58.5741074603339
21
-0.986482198432381
31
0.000000000000000
  0
LINE
  5
F10475
330
F10476
100
AcDbEntity
8
Geo
100
AcDbLine
10
-58.5741074603339
20
-0.986482198432381
30
0.000000000000000
11
-58.6741074603339
21
-0.932664162364347
31
0.000000000000000
  0
LINE
  5
F10477
330
F10478
100
AcDbEntity
8
Geo
100
AcDbLine
10
-58.6741074603339
20
-0.932664162364347
30
0.000000000000000
11
-58.7741074603339
21
-0.880189969392624
31
0.000000000000000
  0
LINE
  5
F10479
330
F1047A
100
AcDbEntity
8
Geo
100
AcDbLine
10
-58.7741074603339
20
-0.880189969392624
30
0.000000000000000
11
-58.8741074603339
21
-0.829116191509518
31
0.000000000000000
  0
LINE
  5
F1047B
330
F1047C
100
AcDbEntity
8
Geo
100
AcDbLine
10
-58.8741074603339
20
-0.829116191509518
30
0.000000000000000
11
-58.9741074603339
21
-0.779493529568637
31
0.000000000000000
  0
LINE
  5
F1047D
330
F1047E
100
AcDbEntity
8
Geo
100
AcDbLine
10
-58.9741074603339
20
-0.779493529568637
30
0.000000000000000
11
-59.0741074603339
21
-0.731366693363338
31
0.000000000000000
  0
LINE
  5
F1047F
330
F10480
100
AcDbEntity
8
Geo
100
AcDbLine
10
-59.0741074603339
20
-0.731366693363338
30
0.000000000000000
11
-59.1741074603339
21
-0.684774322931094
31
0.000000000000000
  0
LINE
  5
F10481
330
F10482
100
AcDbEntity
8
Geo
100
AcDbLine
10
-59.1741074603339
20
-0.684774322931094
30
0.000000000000000
11
-59.2741074603339
21
-0.639748951398739
31
0.000000000000000
  0
LINE
  5
F10483
330
F10484
100
AcDbEntity
8
Geo
100
AcDbLine
10
-59.2741074603339
20
-0.639748951398739
30
0.000000000000000
11
-59.3741074603339
21
-0.596317009278285
31
0.000000000000000
  0
LINE
  5
F10485
330
F10486
100
AcDbEntity
8
Geo
100
AcDbLine
10
-59.3741074603339
20
-0.596317009278285
30
0.000000000000000
11
-59.4741074603339
21
-0.554498869727884
31
0.000000000000000
  0
LINE
  5
F10487
330
F10488
100
AcDbEntity
8
Geo
100
AcDbLine
10
-59.4741074603339
20
-0.554498869727884
30
0.000000000000000
11
-59.5741074603339
21
-0.514308933912507
31
0.000000000000000
  0
LINE
  5
F10489
330
F1048A
100
AcDbEntity
8
Geo
100
AcDbLine
10
-59.5741074603339
20
-0.514308933912507
30
0.000000000000000
11
-59.6741074603339
21
-0.475755755238818
31
0.000000000000000
  0
LINE
  5
F1048B
330
F1048C
100
AcDbEntity
8
Geo
100
AcDbLine
10
-59.6741074603339
20
-0.475755755238818
30
0.000000000000000
11
-59.7741074603339
21
-0.438842200902752
31
0.000000000000000
  0
LINE
  5
F1048D
330
F1048E
100
AcDbEntity
8
Geo
100
AcDbLine
10
-59.7741074603339
20
-0.438842200902752
30
0.000000000000000
11
-59.8741074603339
21
-0.403565648880018
31
0.000000000000000
  0
LINE
  5
F1048F
330
F10490
100
AcDbEntity
8
Geo
100
AcDbLine
10
-59.8741074603339
20
-0.403565648880018
30
0.000000000000000
11
-59.9741074603339
21
-0.369918218212281
31
0.000000000000000
  0
LINE
  5
F10491
330
F10492
100
AcDbEntity
8
Geo
100
AcDbLine
10
-59.9741074603339
20
-0.369918218212281
30
0.000000000000000
11
-60.0741074603339
21
-0.337887030197502
31
0.000000000000000
  0
LINE
  5
F10493
330
F10494
100
AcDbEntity
8
Geo
100
AcDbLine
10
-60.0741074603339
20
-0.337887030197502
30
0.000000000000000
11
-60.1741074603339
21
-0.307454497883520
31
0.000000000000000
  0
LINE
  5
F10495
330
F10496
100
AcDbEntity
8
Geo
100
AcDbLine
10
-60.1741074603339
20
-0.307454497883520
30
0.000000000000000
11
-60.2741074603339
21
-0.278598641090681
31
0.000000000000000
  0
LINE
  5
F10497
330
F10498
100
AcDbEntity
8
Geo
100
AcDbLine
10
-60.2741074603339
20
-0.278598641090681
30
0.000000000000000
11
-60.3741074603339
21
-0.251293424052389
31
0.000000000000000
  0
LINE
  5
F10499
330
F1049A
100
AcDbEntity
8
Geo
100
AcDbLine
10
-60.3741074603339
20
-0.251293424052389
30
0.000000000000000
11
-60.4741074603339
21
-0.225509112661894
31
0.000000000000000
  0
LINE
  5
F1049B
330
F1049C
100
AcDbEntity
8
Geo
100
AcDbLine
10
-60.4741074603339
20
-0.225509112661894
30
0.000000000000000
11
-60.5741074603339
21
-0.201212648248450
31
0.000000000000000
  0
LINE
  5
F1049D
330
F1049E
100
AcDbEntity
8
Geo
100
AcDbLine
10
-60.5741074603339
20
-0.201212648248450
30
0.000000000000000
11
-60.6741074603339
21
-0.178368034775061
31
0.000000000000000
  0
LINE
  5
F1049F
330
F104A0
100
AcDbEntity
8
Geo
100
AcDbLine
10
-60.6741074603339
20
-0.178368034775061
30
0.000000000000000
11
-60.7741074603339
21
-0.156936736351356
31
0.000000000000000
  0
LINE
  5
F104A1
330
F104A2
100
AcDbEntity
8
Geo
100
AcDbLine
10
-60.7741074603339
20
-0.156936736351356
30
0.000000000000000
11
-60.8741074603339
21
-0.136878081986584
31
0.000000000000000
  0
LINE
  5
F104A3
330
F104A4
100
AcDbEntity
8
Geo
100
AcDbLine
10
-60.8741074603339
20
-0.136878081986584
30
0.000000000000000
11
-60.9741074603339
21
-0.118149674566755
31
0.000000000000000
  0
LINE
  5
F104A5
330
F104A6
100
AcDbEntity
8
Geo
100
AcDbLine
10
-60.9741074603339
20
-0.118149674566755
30
0.000000000000000
11
-61.0741074603339
21
-0.100707801123470
31
0.000000000000000
  0
LINE
  5
F104A7
330
F104A8
100
AcDbEntity
8
Geo
100
AcDbLine
10
-61.0741074603339
20
-0.100707801123470
30
0.000000000000000
11
-61.1741074603339
21
-0.0845078415671812
31
0.000000000000000
  0
LINE
  5
F104A9
330
F104AA
100
AcDbEntity
8
Geo
100
AcDbLine
10
-61.1741074603339
20
-0.0845078415671812
30
0.000000000000000
11
-61.2741074603339
21
-0.0695046731811217
31
0.000000000000000
  0
LINE
  5
F104AB
330
F104AC
100
AcDbEntity
8
Geo
100
AcDbLine
10
-61.2741074603339
20
-0.0695046731811217
30
0.000000000000000
11
-61.3741074603339
21
-0.0556530683106891
31
0.000000000000000
  0
LINE
  5
F104AD
330
F104AE
100
AcDbEntity
8
Geo
100
AcDbLine
10
-61.3741074603339
20
-0.0556530683106891
30
0.000000000000000
11
-61.4741074603339
21
-0.0429080828335073
31
0.000000000000000
  0
LINE
  5
F104AF
330
F104B0
100
AcDbEntity
8
Geo
100
AcDbLine
10
-61.4741074603339
20
-0.0429080828335073
30
0.000000000000000
11
-61.5741074603339
21
-0.0312254331544732
31
0.000000000000000
  0
LINE
  5
F104B1
330
F104B2
100
AcDbEntity
8
Geo
100
AcDbLine
10
-61.5741074603339
20
-0.0312254331544732
30
0.000000000000000
11
-61.6741074603339
21
-0.0205618596348405
31
0.000000000000000
  0
LINE
  5
F104B3
330
F104B4
100
AcDbEntity
8
Geo
100
AcDbLine
10
-61.6741074603339
20
-0.0205618596348405
30
0.000000000000000
11
-61.7741074603339
21
-0.0108754745319848
31
0.000000000000000
  0
LINE
  5
F104B5
330
F104B6
100
AcDbEntity
8
Geo
100
AcDbLine
10
-61.7741074603339
20
-0.0108754745319848
30
0.000000000000000
11
-61.8741074603339
21
-0.00212609269436115
31
0.000000000000000
  0
LINE
  5
F104B7
330
F104B8
100
AcDbEntity
8
Geo
100
AcDbLine
10
-61.8741074603339
20
-0.00212609269436115
30
0.000000000000000
11
-61.9741074603339
21
0.00572445657799214
31
0.000000000000000
  0
LINE
  5
F104B9
330
F104BA
100
AcDbEntity
8
Geo
100
AcDbLine
10
-61.9741074603339
20
0.00572445657799214
30
0.000000000000000
11
-62.0741074603339
21
0.0127120379351395
31
0.000000000000000
  0
LINE
  5
F104BB
330
F104BC
100
AcDbEntity
8
Geo
100
AcDbLine
10
-62.0741074603339
20
0.0127120379351395
30
0.000000000000000
11
-62.1741074603339
21
0.0188699399126135
31
0.000000000000000
  0
LINE
  5
F104BD
330
F104BE
100
AcDbEntity
8
Geo
100
AcDbLine
10
-62.1741074603339
20
0.0188699399126135
30
0.000000000000000
11
-62.2741074603339
21
0.0242286275224912
31
0.000000000000000
  0
LINE
  5
F104BF
330
F104C0
100
AcDbEntity
8
Geo
100
AcDbLine
10
-62.2741074603339
20
0.0242286275224912
30
0.000000000000000
11
-62.3741074603339
21
0.0288155184805987
31
0.000000000000000
  0
LINE
  5
F104C1
330
F104C2
100
AcDbEntity
8
Geo
100
AcDbLine
10
-62.3741074603339
20
0.0288155184805987
30
0.000000000000000
11
-62.4741074603339
21
0.0326547839169145
31
0.000000000000000
  0
LINE
  5
F104C3
330
F104C4
100
AcDbEntity
8
Geo
100
AcDbLine
10
-62.4741074603339
20
0.0326547839169145
30
0.000000000000000
11
-62.5741074603339
21
0.0357671742914527
31
0.000000000000000
  0
LINE
  5
F104C5
330
F104C6
100
AcDbEntity
8
Geo
100
AcDbLine
10
-62.5741074603339
20
0.0357671742914527
30
0.000000000000000
11
-62.6741074603339
21
0.0381698711215130
31
0.000000000000000
  0
LINE
  5
F104C7
330
F104C8
100
AcDbEntity
8
Geo
100
AcDbLine
10
-62.6741074603339
20
0.0381698711215130
30
0.000000000000000
11
-62.7741074603339
21
0.0398763650177036
31
0.000000000000000
  0
LINE
  5
F104C9
330
F104CA
100
AcDbEntity
8
Geo
100
AcDbLine
10
-62.7741074603339
20
0.0398763650177036
30
0.000000000000000
11
-62.8741074603339
21
0.0408963604249508
31
0.000000000000000
  0
LINE
  5
F104CB
330
F104CC
100
AcDbEntity
8
Geo
100
AcDbLine
10
-62.8741074603339
20
0.0408963604249508
30
0.000000000000000
11
-62.9741074603339
21
0.0412357073697329
31
0.000000000000000
  0
LINE
  5
F104CD
330
F104CE
100
AcDbEntity
8
Geo
100
AcDbLine
10
-62.9741074603339
20
-5.81193384151572
30
0.000000000000000
11
-62.8741074603339
21
-5.81193375379378
31
0.000000000000000
  0
LINE
  5
F104CF
330
F104D0
100
AcDbEntity
8
Geo
100
AcDbLine
10
-62.8741074603339
20
-5.81193375379378
30
0.000000000000000
11
-62.7741074603339
21
-5.81193243865717
31
0.000000000000000
  0
LINE
  5
F104D1
330
F104D2
100
AcDbEntity
8
Geo
100
AcDbLine
10
-62.7741074603339
20
-5.81193243865717
30
0.000000000000000
11
-62.6741074603339
21
-5.81192674538588
31
0.000000000000000
  0
LINE
  5
F104D3
330
F104D4
100
AcDbEntity
8
Geo
100
AcDbLine
10
-62.6741074603339
20
-5.81192674538588
30
0.000000000000000
11
-62.5741074603339
21
-5.81191144007462
31
0.000000000000000
  0
LINE
  5
F104D5
330
F104D6
100
AcDbEntity
8
Geo
100
AcDbLine
10
-62.5741074603339
20
-5.81191144007462
30
0.000000000000000
11
-62.4741074603339
21
-5.81187923152931
31
0.000000000000000
  0
LINE
  5
F104D7
330
F104D8
100
AcDbEntity
8
Geo
100
AcDbLine
10
-62.4741074603339
20
-5.81187923152931
30
0.000000000000000
11
-62.3741074603339
21
-5.81182080743045
31
0.000000000000000
  0
LINE
  5
F104D9
330
F104DA
100
AcDbEntity
8
Geo
100
AcDbLine
10
-62.3741074603339
20
-5.81182080743045
30
0.000000000000000
11
-62.2741074603339
21
-5.81172488067028
31
0.000000000000000
  0
LINE
  5
F104DB
330
F104DC
100
AcDbEntity
8
Geo
100
AcDbLine
10
-62.2741074603339
20
-5.81172488067028
30
0.000000000000000
11
-62.1741074603339
21
-5.81157824574205
31
0.000000000000000
  0
LINE
  5
F104DD
330
F104DE
100
AcDbEntity
8
Geo
100
AcDbLine
10
-62.1741074603339
20
-5.81157824574205
30
0.000000000000000
11
-62.0741074603339
21
-5.81136584502983
31
0.000000000000000
  0
LINE
  5
F104DF
330
F104E0
100
AcDbEntity
8
Geo
100
AcDbLine
10
-62.0741074603339
20
-5.81136584502983
30
0.000000000000000
11
-61.9741074603339
21
-5.81107084481601
31
0.000000000000000
  0
LINE
  5
F104E1
330
F104E2
100
AcDbEntity
8
Geo
100
AcDbLine
10
-61.9741074603339
20
-5.81107084481601
30
0.000000000000000
11
-61.8741074603339
21
-5.81067472079005
31
0.000000000000000
  0
LINE
  5
F104E3
330
F104E4
100
AcDbEntity
8
Geo
100
AcDbLine
10
-61.8741074603339
20
-5.81067472079005
30
0.000000000000000
11
-61.7741074603339
21
-5.81015735280721
31
0.000000000000000
  0
LINE
  5
F104E5
330
F104E6
100
AcDbEntity
8
Geo
100
AcDbLine
10
-61.7741074603339
20
-5.81015735280721
30
0.000000000000000
11
-61.6741074603339
21
-5.80949712860884
31
0.000000000000000
  0
LINE
  5
F104E7
330
F104E8
100
AcDbEntity
8
Geo
100
AcDbLine
10
-61.6741074603339
20
-5.80949712860884
30
0.000000000000000
11
-61.5741074603339
21
-5.80867105617669
31
0.000000000000000
  0
LINE
  5
F104E9
330
F104EA
100
AcDbEntity
8
Geo
100
AcDbLine
10
-61.5741074603339
20
-5.80867105617669
30
0.000000000000000
11
-61.4741074603339
21
-5.80765488435303
31
0.000000000000000
  0
LINE
  5
F104EB
330
F104EC
100
AcDbEntity
8
Geo
100
AcDbLine
10
-61.4741074603339
20
-5.80765488435303
30
0.000000000000000
11
-61.3741074603339
21
-5.80642323131571
31
0.000000000000000
  0
LINE
  5
F104ED
330
F104EE
100
AcDbEntity
8
Geo
100
AcDbLine
10
-61.3741074603339
20
-5.80642323131571
30
0.000000000000000
11
-61.2741074603339
21
-5.80494972045310
31
0.000000000000000
  0
LINE
  5
F104EF
330
F104F0
100
AcDbEntity
8
Geo
100
AcDbLine
10
-61.2741074603339
20
-5.80494972045310
30
0.000000000000000
11
-61.1741074603339
21
-5.80320712313883
31
0.000000000000000
  0
LINE
  5
F104F1
330
F104F2
100
AcDbEntity
8
Geo
100
AcDbLine
10
-61.1741074603339
20
-5.80320712313883
30
0.000000000000000
11
-61.0741074603339
21
-5.80116750785980
31
0.000000000000000
  0
LINE
  5
F104F3
330
F104F4
100
AcDbEntity
8
Geo
100
AcDbLine
10
-61.0741074603339
20
-5.80116750785980
30
0.000000000000000
11
-60.9741074603339
21
-5.79880239510464
31
0.000000000000000
  0
LINE
  5
F104F5
330
F104F6
100
AcDbEntity
8
Geo
100
AcDbLine
10
-60.9741074603339
20
-5.79880239510464
30
0.000000000000000
11
-60.8741074603339
21
-5.79608291737300
31
0.000000000000000
  0
LINE
  5
F104F7
330
F104F8
100
AcDbEntity
8
Geo
100
AcDbLine
10
-60.8741074603339
20
-5.79608291737300
30
0.000000000000000
11
-60.7741074603339
21
-5.79297998362045
31
0.000000000000000
  0
LINE
  5
F104F9
330
F104FA
100
AcDbEntity
8
Geo
100
AcDbLine
10
-60.7741074603339
20
-5.79297998362045
30
0.000000000000000
11
-60.6741074603339
21
-5.78946444740876
31
0.000000000000000
  0
LINE
  5
F104FB
330
F104FC
100
AcDbEntity
8
Geo
100
AcDbLine
10
-60.6741074603339
20
-5.78946444740876
30
0.000000000000000
11
-60.5741074603339
21
-5.78550727798864
31
0.000000000000000
  0
LINE
  5
F104FD
330
F104FE
100
AcDbEntity
8
Geo
100
AcDbLine
10
-60.5741074603339
20
-5.78550727798864
30
0.000000000000000
11
-60.4741074603339
21
-5.78107973350143
31
0.000000000000000
  0
LINE
  5
F104FF
330
F10500
100
AcDbEntity
8
Geo
100
AcDbLine
10
-60.4741074603339
20
-5.78107973350143
30
0.000000000000000
11
-60.3741074603339
21
-5.77615353544922
31
0.000000000000000
  0
LINE
  5
F10501
330
F10502
100
AcDbEntity
8
Geo
100
AcDbLine
10
-60.3741074603339
20
-5.77615353544922
30
0.000000000000000
11
-60.2741074603339
21
-5.77070104354914
31
0.000000000000000
  0
LINE
  5
F10503
330
F10504
100
AcDbEntity
8
Geo
100
AcDbLine
10
-60.2741074603339
20
-5.77070104354914
30
0.000000000000000
11
-60.1741074603339
21
-5.76469543005911
31
0.000000000000000
  0
LINE
  5
F10505
330
F10506
100
AcDbEntity
8
Geo
100
AcDbLine
10
-60.1741074603339
20
-5.76469543005911
30
0.000000000000000
11
-60.0741074603339
21
-5.75811085263833
31
0.000000000000000
  0
LINE
  5
F10507
330
F10508
100
AcDbEntity
8
Geo
100
AcDbLine
10
-60.0741074603339
20
-5.75811085263833
30
0.000000000000000
11
-59.9741074603339
21
-5.75092262478825
31
0.000000000000000
  0
LINE
  5
F10509
330
F1050A
100
AcDbEntity
8
Geo
100
AcDbLine
10
-59.9741074603339
20
-5.75092262478825
30
0.000000000000000
11
-59.8741074603339
21
-5.74310738290820
31
0.000000000000000
  0
LINE
  5
F1050B
330
F1050C
100
AcDbEntity
8
Geo
100
AcDbLine
10
-59.8741074603339
20
-5.74310738290820
30
0.000000000000000
11
-59.7741074603339
21
-5.73464324899554
31
0.000000000000000
  0
LINE
  5
F1050D
330
F1050E
100
AcDbEntity
8
Geo
100
AcDbLine
10
-59.7741074603339
20
-5.73464324899554
30
0.000000000000000
11
-59.6741074603339
21
-5.72550998802327
31
0.000000000000000
  0
LINE
  5
F1050F
330
F10510
100
AcDbEntity
8
Geo
100
AcDbLine
10
-59.6741074603339
20
-5.72550998802327
30
0.000000000000000
11
-59.5741074603339
21
-5.71568915903879
31
0.000000000000000
  0
LINE
  5
F10511
330
F10512
100
AcDbEntity
8
Geo
100
AcDbLine
10
-59.5741074603339
20
-5.71568915903879
30
0.000000000000000
11
-59.4741074603339
21
-5.70516425904642
31
0.000000000000000
  0
LINE
  5
F10513
330
F10514
100
AcDbEntity
8
Geo
100
AcDbLine
10
-59.4741074603339
20
-5.70516425904642
30
0.000000000000000
11
-59.3741074603339
21
-5.69392085876382
31
0.000000000000000
  0
LINE
  5
F10515
330
F10516
100
AcDbEntity
8
Geo
100
AcDbLine
10
-59.3741074603339
20
-5.69392085876382
30
0.000000000000000
11
-59.2741074603339
21
-5.68194672937778
31
0.000000000000000
  0
LINE
  5
F10517
330
F10518
100
AcDbEntity
8
Geo
100
AcDbLine
10
-59.2741074603339
20
-5.68194672937778
30
0.000000000000000
11
-59.1741074603339
21
-5.66923195946912
31
0.000000000000000
  0
LINE
  5
F10519
330
F1051A
100
AcDbEntity
8
Geo
100
AcDbLine
10
-59.1741074603339
20
-5.66923195946912
30
0.000000000000000
11
-59.0741074603339
21
-5.65576906132857
31
0.000000000000000
  0
LINE
  5
F1051B
330
F1051C
100
AcDbEntity
8
Geo
100
AcDbLine
10
-59.0741074603339
20
-5.65576906132857
30
0.000000000000000
11
-58.9741074603339
21
-5.64155306594580
31
0.000000000000000
  0
LINE
  5
F1051D
330
F1051E
100
AcDbEntity
8
Geo
100
AcDbLine
10
-58.9741074603339
20
-5.64155306594580
30
0.000000000000000
11
-58.8741074603339
21
-5.62658160602136
31
0.000000000000000
  0
LINE
  5
F1051F
330
F10520
100
AcDbEntity
8
Geo
100
AcDbLine
10
-58.8741074603339
20
-5.62658160602136
30
0.000000000000000
11
-58.7741074603339
21
-5.61085498642630
31
0.000000000000000
  0
LINE
  5
F10521
330
F10522
100
AcDbEntity
8
Geo
100
AcDbLine
10
-58.7741074603339
20
-5.61085498642630
30
0.000000000000000
11
-58.6741074603339
21
-5.59437624161539
31
0.000000000000000
  0
LINE
  5
F10523
330
F10524
100
AcDbEntity
8
Geo
100
AcDbLine
10
-58.6741074603339
20
-5.59437624161539
30
0.000000000000000
11
-58.5741074603339
21
-5.57715117958675
31
0.000000000000000
  0
LINE
  5
F10525
330
F10526
100
AcDbEntity
8
Geo
100
AcDbLine
10
-58.5741074603339
20
-5.57715117958675
30
0.000000000000000
11
-58.4741074603339
21
-5.55918841207274
31
0.000000000000000
  0
LINE
  5
F10527
330
F10528
100
AcDbEntity
8
Geo
100
AcDbLine
10
-58.4741074603339
20
-5.55918841207274
30
0.000000000000000
11
-58.3741074603339
21
-5.54049937074253
31
0.000000000000000
  0
LINE
  5
F10529
330
F1052A
100
AcDbEntity
8
Geo
100
AcDbLine
10
-58.3741074603339
20
-5.54049937074253
30
0.000000000000000
11
-58.2741074603339
21
-5.52109830929577
31
0.000000000000000
  0
LINE
  5
F1052B
330
F1052C
100
AcDbEntity
8
Geo
100
AcDbLine
10
-58.2741074603339
20
-5.52109830929577
30
0.000000000000000
11
-58.1741074603339
21
-5.50100229142730
31
0.000000000000000
  0
LINE
  5
F1052D
330
F1052E
100
AcDbEntity
8
Geo
100
AcDbLine
10
-58.1741074603339
20
-5.50100229142730
30
0.000000000000000
11
-58.0741074603339
21
-5.48023116474456
31
0.000000000000000
  0
LINE
  5
F1052F
330
F10530
100
AcDbEntity
8
Geo
100
AcDbLine
10
-58.0741074603339
20
-5.48023116474456
30
0.000000000000000
11
-57.9741074603339
21
-5.45880752082058
31
0.000000000000000
  0
LINE
  5
F10531
330
F10532
100
AcDbEntity
8
Geo
100
AcDbLine
10
-57.9741074603339
20
-5.45880752082058
30
0.000000000000000
11
-57.9741074603339
21
-5.17145888034887
31
0.000000000000000
  0
LINE
  5
F10533
330
F10534
100
AcDbEntity
8
Geo
100
AcDbLine
10
-57.9741074603339
20
-5.17145888034887
30
0.000000000000000
11
-57.9741074603339
21
-5.18185152616185
31
0.000000000000000
  0
LINE
  5
F10535
330
F10536
100
AcDbEntity
8
Geo
100
AcDbLine
10
-57.9741074603339
20
-5.18185152616185
30
0.000000000000000
11
-57.9741074603339
21
-5.42248510552430
31
0.000000000000000
  0
LINE
  5
F10537
330
F10538
100
AcDbEntity
8
Geo
100
AcDbLine
10
-57.9741074603339
20
-5.42248510552430
30
0.000000000000000
11
-58.0741074603339
21
-5.38735578508975
31
0.000000000000000
  0
LINE
  5
F10539
330
F1053A
100
AcDbEntity
8
Geo
100
AcDbLine
10
-58.0741074603339
20
-5.38735578508975
30
0.000000000000000
11
-58.1741074603339
21
-5.35086647343504
31
0.000000000000000
  0
LINE
  5
F1053B
330
F1053C
100
AcDbEntity
8
Geo
100
AcDbLine
10
-58.1741074603339
20
-5.35086647343504
30
0.000000000000000
11
-58.2741074603339
21
-5.31307905830657
31
0.000000000000000
  0
LINE
  5
F1053D
330
F1053E
100
AcDbEntity
8
Geo
100
AcDbLine
10
-58.2741074603339
20
-5.31307905830657
30
0.000000000000000
11
-58.3741074603339
21
-5.27406125327715
31
0.000000000000000
  0
LINE
  5
F1053F
330
F10540
100
AcDbEntity
8
Geo
100
AcDbLine
10
-58.3741074603339
20
-5.27406125327715
30
0.000000000000000
11
-58.4741074603339
21
-5.23388628345223
31
0.000000000000000
  0
LINE
  5
F10541
330
F10542
100
AcDbEntity
8
Geo
100
AcDbLine
10
-58.4741074603339
20
-5.23388628345223
30
0.000000000000000
11
-58.5741074603339
21
-5.19263254121803
31
0.000000000000000
  0
LINE
  5
F10543
330
F10544
100
AcDbEntity
8
Geo
100
AcDbLine
10
-58.5741074603339
20
-5.19263254121803
30
0.000000000000000
11
-58.6741074603339
21
-5.15038321514395
31
0.000000000000000
  0
LINE
  5
F10545
330
F10546
100
AcDbEntity
8
Geo
100
AcDbLine
10
-58.6741074603339
20
-5.15038321514395
30
0.000000000000000
11
-58.7741074603339
21
-5.10722589537615
31
0.000000000000000
  0
LINE
  5
F10547
330
F10548
100
AcDbEntity
8
Geo
100
AcDbLine
10
-58.7741074603339
20
-5.10722589537615
30
0.000000000000000
11
-58.8741074603339
21
-5.06325215904077
31
0.000000000000000
  0
LINE
  5
F10549
330
F1054A
100
AcDbEntity
8
Geo
100
AcDbLine
10
-58.8741074603339
20
-5.06325215904077
30
0.000000000000000
11
-58.9741074603339
21
-5.01855713931088
31
0.000000000000000
  0
LINE
  5
F1054B
330
F1054C
100
AcDbEntity
8
Geo
100
AcDbLine
10
-58.9741074603339
20
-5.01855713931088
30
0.000000000000000
11
-59.0741074603339
21
-4.97323908188067
31
0.000000000000000
  0
LINE
  5
F1054D
330
F1054E
100
AcDbEntity
8
Geo
100
AcDbLine
10
-59.0741074603339
20
-4.97323908188067
30
0.000000000000000
11
-59.1741074603339
21
-4.92739889263208
31
0.000000000000000
  0
LINE
  5
F1054F
330
F10550
100
AcDbEntity
8
Geo
100
AcDbLine
10
-59.1741074603339
20
-4.92739889263208
30
0.000000000000000
11
-59.2741074603339
21
-4.88113968027305
31
0.000000000000000
  0
LINE
  5
F10551
330
F10552
100
AcDbEntity
8
Geo
100
AcDbLine
10
-59.2741074603339
20
-4.88113968027305
30
0.000000000000000
11
-59.3741074603339
21
-4.83456629767430
31
0.000000000000000
  0
LINE
  5
F10553
330
F10554
100
AcDbEntity
8
Geo
100
AcDbLine
10
-59.3741074603339
20
-4.83456629767430
30
0.000000000000000
11
-59.4741074603339
21
-4.78778488553427
31
0.000000000000000
  0
LINE
  5
F10555
330
F10556
100
AcDbEntity
8
Geo
100
AcDbLine
10
-59.4741074603339
20
-4.78778488553427
30
0.000000000000000
11
-59.5741074603339
21
-4.74090242186151
31
0.000000000000000
  0
LINE
  5
F10557
330
F10558
100
AcDbEntity
8
Geo
100
AcDbLine
10
-59.5741074603339
20
-4.74090242186151
30
0.000000000000000
11
-59.6741074603339
21
-4.69402628058441
31
0.000000000000000
  0
LINE
  5
F10559
330
F1055A
100
AcDbEntity
8
Geo
100
AcDbLine
10
-59.6741074603339
20
-4.69402628058441
30
0.000000000000000
11
-59.7741074603339
21
-4.64726380238183
31
0.000000000000000
  0
LINE
  5
F1055B
330
F1055C
100
AcDbEntity
8
Geo
100
AcDbLine
10
-59.7741074603339
20
-4.64726380238183
30
0.000000000000000
11
-59.8741074603339
21
-4.60072188058032
31
0.000000000000000
  0
LINE
  5
F1055D
330
F1055E
100
AcDbEntity
8
Geo
100
AcDbLine
10
-59.8741074603339
20
-4.60072188058032
30
0.000000000000000
11
-59.9741074603339
21
-4.55450656468737
31
0.000000000000000
  0
LINE
  5
F1055F
330
F10560
100
AcDbEntity
8
Geo
100
AcDbLine
10
-59.9741074603339
20
-4.55450656468737
30
0.000000000000000
11
-60.0741074603339
21
-4.50872268383114
31
0.000000000000000
  0
LINE
  5
F10561
330
F10562
100
AcDbEntity
8
Geo
100
AcDbLine
10
-60.0741074603339
20
-4.50872268383114
30
0.000000000000000
11
-60.1741074603339
21
-4.46347349205989
31
0.000000000000000
  0
LINE
  5
F10563
330
F10564
100
AcDbEntity
8
Geo
100
AcDbLine
10
-60.1741074603339
20
-4.46347349205989
30
0.000000000000000
11
-60.2741074603339
21
-4.41886033712383
31
0.000000000000000
  0
LINE
  5
F10565
330
F10566
100
AcDbEntity
8
Geo
100
AcDbLine
10
-60.2741074603339
20
-4.41886033712383
30
0.000000000000000
11
-60.3741074603339
21
-4.37498235402362
31
0.000000000000000
  0
LINE
  5
F10567
330
F10568
100
AcDbEntity
8
Geo
100
AcDbLine
10
-60.3741074603339
20
-4.37498235402362
30
0.000000000000000
11
-60.4741074603339
21
-4.33193618426831
31
0.000000000000000
  0
LINE
  5
F10569
330
F1056A
100
AcDbEntity
8
Geo
100
AcDbLine
10
-60.4741074603339
20
-4.33193618426831
30
0.000000000000000
11
-60.5741074603339
21
-4.28981572144559
31
0.000000000000000
  0
LINE
  5
F1056B
330
F1056C
100
AcDbEntity
8
Geo
100
AcDbLine
10
-60.5741074603339
20
-4.28981572144559
30
0.000000000000000
11
-60.6741074603339
21
-4.24871188337409
31
0.000000000000000
  0
LINE
  5
F1056D
330
F1056E
100
AcDbEntity
8
Geo
100
AcDbLine
10
-60.6741074603339
20
-4.24871188337409
30
0.000000000000000
11
-60.7741074603339
21
-4.20871241078459
31
0.000000000000000
  0
LINE
  5
F1056F
330
F10570
100
AcDbEntity
8
Geo
100
AcDbLine
10
-60.7741074603339
20
-4.20871241078459
30
0.000000000000000
11
-60.8741074603339
21
-4.16990169216975
31
0.000000000000000
  0
LINE
  5
F10571
330
F10572
100
AcDbEntity
8
Geo
100
AcDbLine
10
-60.8741074603339
20
-4.16990169216975
30
0.000000000000000
11
-60.9741074603339
21
-4.13236061415213
31
0.000000000000000
  0
LINE
  5
F10573
330
F10574
100
AcDbEntity
8
Geo
100
AcDbLine
10
-60.9741074603339
20
-4.13236061415213
30
0.000000000000000
11
-61.0741074603339
21
-4.09616643645283
31
0.000000000000000
  0
LINE
  5
F10575
330
F10576
100
AcDbEntity
8
Geo
100
AcDbLine
10
-61.0741074603339
20
-4.09616643645283
30
0.000000000000000
11
-61.1741074603339
21
-4.06139269029972
31
0.000000000000000
  0
LINE
  5
F10577
330
F10578
100
AcDbEntity
8
Geo
100
AcDbLine
10
-61.1741074603339
20
-4.06139269029972
30
0.000000000000000
11
-61.2741074603339
21
-4.02810909889746
31
0.000000000000000
  0
LINE
  5
F10579
330
F1057A
100
AcDbEntity
8
Geo
100
AcDbLine
10
-61.2741074603339
20
-4.02810909889746
30
0.000000000000000
11
-61.3741074603339
21
-3.99638151839310
31
0.000000000000000
  0
LINE
  5
F1057B
330
F1057C
100
AcDbEntity
8
Geo
100
AcDbLine
10
-61.3741074603339
20
-3.99638151839310
30
0.000000000000000
11
-61.4741074603339
21
-3.96627189761295
31
0.000000000000000
  0
LINE
  5
F1057D
330
F1057E
100
AcDbEntity
8
Geo
100
AcDbLine
10
-61.4741074603339
20
-3.96627189761295
30
0.000000000000000
11
-61.5741074603339
21
-3.93783825471828
31
0.000000000000000
  0
LINE
  5
F1057F
330
F10580
100
AcDbEntity
8
Geo
100
AcDbLine
10
-61.5741074603339
20
-3.93783825471828
30
0.000000000000000
11
-61.6741074603339
21
-3.91113466883089
31
0.000000000000000
  0
LINE
  5
F10581
330
F10582
100
AcDbEntity
8
Geo
100
AcDbLine
10
-61.6741074603339
20
-3.91113466883089
30
0.000000000000000
11
-61.7741074603339
21
-3.88621128461427
31
0.000000000000000
  0
LINE
  5
F10583
330
F10584
100
AcDbEntity
8
Geo
100
AcDbLine
10
-61.7741074603339
20
-3.88621128461427
30
0.000000000000000
11
-61.8741074603339
21
-3.86311432776125
31
0.000000000000000
  0
LINE
  5
F10585
330
F10586
100
AcDbEntity
8
Geo
100
AcDbLine
10
-61.8741074603339
20
-3.86311432776125
30
0.000000000000000
11
-61.9741074603339
21
-3.84188612933472
31
0.000000000000000
  0
LINE
  5
F10587
330
F10588
100
AcDbEntity
8
Geo
100
AcDbLine
10
-61.9741074603339
20
-3.84188612933472
30
0.000000000000000
11
-62.0741074603339
21
-3.82256515693259
31
0.000000000000000
  0
LINE
  5
F10589
330
F1058A
100
AcDbEntity
8
Geo
100
AcDbLine
10
-62.0741074603339
20
-3.82256515693259
30
0.000000000000000
11
-62.1741074603339
21
-3.80518605070078
31
0.000000000000000
  0
LINE
  5
F1058B
330
F1058C
100
AcDbEntity
8
Geo
100
AcDbLine
10
-62.1741074603339
20
-3.80518605070078
30
0.000000000000000
11
-62.2741074603339
21
-3.78977966229680
31
0.000000000000000
  0
LINE
  5
F1058D
330
F1058E
100
AcDbEntity
8
Geo
100
AcDbLine
10
-62.2741074603339
20
-3.78977966229680
30
0.000000000000000
11
-62.3741074603339
21
-3.77637309500992
31
0.000000000000000
  0
LINE
  5
F1058F
330
F10590
100
AcDbEntity
8
Geo
100
AcDbLine
10
-62.3741074603339
20
-3.77637309500992
30
0.000000000000000
11
-62.4741074603339
21
-3.76498974336997
31
0.000000000000000
  0
LINE
  5
F10591
330
F10592
100
AcDbEntity
8
Geo
100
AcDbLine
10
-62.4741074603339
20
-3.76498974336997
30
0.000000000000000
11
-62.5741074603339
21
-3.75564933072353
31
0.000000000000000
  0
LINE
  5
F10593
330
F10594
100
AcDbEntity
8
Geo
100
AcDbLine
10
-62.5741074603339
20
-3.75564933072353
30
0.000000000000000
11
-62.6741074603339
21
-3.74836794342114
31
0.000000000000000
  0
LINE
  5
F10595
330
F10596
100
AcDbEntity
8
Geo
100
AcDbLine
10
-62.6741074603339
20
-3.74836794342114
30
0.000000000000000
11
-62.7741074603339
21
-3.74315806044032
31
0.000000000000000
  0
LINE
  5
F10597
330
F10598
100
AcDbEntity
8
Geo
100
AcDbLine
10
-62.7741074603339
20
-3.74315806044032
30
0.000000000000000
11
-62.8741074603339
21
-3.74002857746410
31
0.000000000000000
  0
LINE
  5
F10599
330
F1059A
100
AcDbEntity
8
Geo
100
AcDbLine
10
-62.8741074603339
20
-3.74002857746410
30
0.000000000000000
11
-62.9741074603339
21
-3.73898482464056
31
0.000000000000000
  0
LINE
  5
F1059B
330
F1059C
100
AcDbEntity
8
Geo
100
AcDbLine
10
-71.9741074603339
20
-3.30008882239054
30
0.000000000000000
11
-71.8741074603339
21
-3.22343690910150
31
0.000000000000000
  0
LINE
  5
F1059D
330
F1059E
100
AcDbEntity
8
Geo
100
AcDbLine
10
-71.8741074603339
20
-3.22343690910150
30
0.000000000000000
11
-71.7741074603339
21
-3.16345295095376
31
0.000000000000000
  0
LINE
  5
F1059F
330
F105A0
100
AcDbEntity
8
Geo
100
AcDbLine
10
-71.7741074603339
20
-3.16345295095376
30
0.000000000000000
11
-71.6741074603339
21
-3.12196143070296
31
0.000000000000000
  0
LINE
  5
F105A1
330
F105A2
100
AcDbEntity
8
Geo
100
AcDbLine
10
-71.6741074603339
20
-3.12196143070296
30
0.000000000000000
11
-71.5741074603339
21
-3.09086213719535
31
0.000000000000000
  0
LINE
  5
F105A3
330
F105A4
100
AcDbEntity
8
Geo
100
AcDbLine
10
-71.5741074603339
20
-3.09086213719535
30
0.000000000000000
11
-71.4741074603339
21
-3.06700567990110
31
0.000000000000000
  0
LINE
  5
F105A5
330
F105A6
100
AcDbEntity
8
Geo
100
AcDbLine
10
-71.4741074603339
20
-3.06700567990110
30
0.000000000000000
11
-71.3741074603339
21
-3.04879539155863
31
0.000000000000000
  0
LINE
  5
F105A7
330
F105A8
100
AcDbEntity
8
Geo
100
AcDbLine
10
-71.3741074603339
20
-3.04879539155863
30
0.000000000000000
11
-71.2741074603339
21
-3.03531506928801
31
0.000000000000000
  0
LINE
  5
F105A9
330
F105AA
100
AcDbEntity
8
Geo
100
AcDbLine
10
-71.2741074603339
20
-3.03531506928801
30
0.000000000000000
11
-71.1741074603339
21
-3.02600980358933
31
0.000000000000000
  0
LINE
  5
F105AB
330
F105AC
100
AcDbEntity
8
Geo
100
AcDbLine
10
-71.1741074603339
20
-3.02600980358933
30
0.000000000000000
11
-71.0741074603339
21
-3.02054584112772
31
0.000000000000000
  0
LINE
  5
F105AD
330
F105AE
100
AcDbEntity
8
Geo
100
AcDbLine
10
-71.0741074603339
20
-3.02054584112772
30
0.000000000000000
11
-70.9741074603339
21
-3.01874346964829
31
0.000000000000000
  0
LINE
  5
F105AF
330
F105B0
100
AcDbEntity
8
Geo
100
AcDbLine
10
-70.9741074603339
20
-3.01874346964829
30
0.000000000000000
11
-70.8741074603339
21
-3.01874346964829
31
0.000000000000000
  0
LINE
  5
F105B1
330
F105B2
100
AcDbEntity
8
Geo
100
AcDbLine
10
-70.8741074603339
20
-3.01874346964829
30
0.000000000000000
11
-70.7741074603339
21
-3.01874346964829
31
0.000000000000000
  0
LINE
  5
F105B3
330
F105B4
100
AcDbEntity
8
Geo
100
AcDbLine
10
-70.7741074603339
20
-3.01874346964829
30
0.000000000000000
11
-70.6741074603339
21
-3.01874346964829
31
0.000000000000000
  0
LINE
  5
F105B5
330
F105B6
100
AcDbEntity
8
Geo
100
AcDbLine
10
-70.6741074603339
20
-3.01874346964829
30
0.000000000000000
11
-70.5741074603339
21
-3.01874346964829
31
0.000000000000000
  0
LINE
  5
F105B7
330
F105B8
100
AcDbEntity
8
Geo
100
AcDbLine
10
-70.5741074603339
20
-3.01874346964829
30
0.000000000000000
11
-70.4741074603339
21
-3.01874346964829
31
0.000000000000000
  0
LINE
  5
F105B9
330
F105BA
100
AcDbEntity
8
Geo
100
AcDbLine
10
-70.4741074603339
20
-3.01874346964829
30
0.000000000000000
11
-70.3741074603339
21
-3.01874346964829
31
0.000000000000000
  0
LINE
  5
F105BB
330
F105BC
100
AcDbEntity
8
Geo
100
AcDbLine
10
-70.3741074603339
20
-3.01874346964829
30
0.000000000000000
11
-70.2741074603339
21
-3.01874346964829
31
0.000000000000000
  0
LINE
  5
F105BD
330
F105BE
100
AcDbEntity
8
Geo
100
AcDbLine
10
-70.2741074603339
20
-3.01874346964829
30
0.000000000000000
11
-70.1741074603339
21
-3.01874346964829
31
0.000000000000000
  0
LINE
  5
F105BF
330
F105C0
100
AcDbEntity
8
Geo
100
AcDbLine
10
-70.1741074603339
20
-3.01874346964829
30
0.000000000000000
11
-70.0741074603339
21
-3.01874346964829
31
0.000000000000000
  0
LINE
  5
F105C1
330
F105C2
100
AcDbEntity
8
Geo
100
AcDbLine
10
-70.0741074603339
20
-3.01874346964829
30
0.000000000000000
11
-69.9741074603339
21
-3.01874346964829
31
0.000000000000000
  0
LINE
  5
F105C3
330
F105C4
100
AcDbEntity
8
Geo
100
AcDbLine
10
-69.9741074603339
20
-3.01874346964829
30
0.000000000000000
11
-69.8741074603339
21
-3.01874346964829
31
0.000000000000000
  0
LINE
  5
F105C5
330
F105C6
100
AcDbEntity
8
Geo
100
AcDbLine
10
-69.8741074603339
20
-3.01874346964829
30
0.000000000000000
11
-69.7741074603339
21
-3.01874346964829
31
0.000000000000000
  0
LINE
  5
F105C7
330
F105C8
100
AcDbEntity
8
Geo
100
AcDbLine
10
-69.7741074603339
20
-3.01874346964829
30
0.000000000000000
11
-69.6741074603339
21
-3.01874346964829
31
0.000000000000000
  0
LINE
  5
F105C9
330
F105CA
100
AcDbEntity
8
Geo
100
AcDbLine
10
-69.6741074603339
20
-3.01874346964829
30
0.000000000000000
11
-69.5741074603339
21
-3.01874346964829
31
0.000000000000000
  0
LINE
  5
F105CB
330
F105CC
100
AcDbEntity
8
Geo
100
AcDbLine
10
-69.5741074603339
20
-3.01874346964829
30
0.000000000000000
11
-69.4741074603339
21
-3.01874346964829
31
0.000000000000000
  0
LINE
  5
F105CD
330
F105CE
100
AcDbEntity
8
Geo
100
AcDbLine
10
-69.4741074603339
20
-3.01874346964829
30
0.000000000000000
11
-69.3741074603339
21
-3.01874346964829
31
0.000000000000000
  0
LINE
  5
F105CF
330
F105D0
100
AcDbEntity
8
Geo
100
AcDbLine
10
-69.3741074603339
20
-3.01874346964829
30
0.000000000000000
11
-69.2741074603339
21
-3.01874346964829
31
0.000000000000000
  0
LINE
  5
F105D1
330
F105D2
100
AcDbEntity
8
Geo
100
AcDbLine
10
-69.2741074603339
20
-3.01874346964829
30
0.000000000000000
11
-69.1741074603339
21
-3.01874346964829
31
0.000000000000000
  0
LINE
  5
F105D3
330
F105D4
100
AcDbEntity
8
Geo
100
AcDbLine
10
-69.1741074603339
20
-3.01874346964829
30
0.000000000000000
11
-69.0741074603339
21
-3.01874346964829
31
0.000000000000000
  0
LINE
  5
F105D5
330
F105D6
100
AcDbEntity
8
Geo
100
AcDbLine
10
-69.0741074603339
20
-3.01874346964829
30
0.000000000000000
11
-68.9741074603339
21
-3.01874346964829
31
0.000000000000000
  0
LINE
  5
F105D7
330
F105D8
100
AcDbEntity
8
Geo
100
AcDbLine
10
-68.9741074603339
20
-3.01874346964829
30
0.000000000000000
11
-68.8741074603339
21
-3.01874346964829
31
0.000000000000000
  0
LINE
  5
F105D9
330
F105DA
100
AcDbEntity
8
Geo
100
AcDbLine
10
-68.8741074603339
20
-3.01874346964829
30
0.000000000000000
11
-68.7741074603339
21
-3.01874346964829
31
0.000000000000000
  0
LINE
  5
F105DB
330
F105DC
100
AcDbEntity
8
Geo
100
AcDbLine
10
-68.7741074603339
20
-3.01874346964829
30
0.000000000000000
11
-68.6741074603339
21
-3.01874346964829
31
0.000000000000000
  0
LINE
  5
F105DD
330
F105DE
100
AcDbEntity
8
Geo
100
AcDbLine
10
-68.6741074603339
20
-3.01874346964829
30
0.000000000000000
11
-68.5741074603339
21
-3.01874346964829
31
0.000000000000000
  0
LINE
  5
F105DF
330
F105E0
100
AcDbEntity
8
Geo
100
AcDbLine
10
-68.5741074603339
20
-3.01874346964829
30
0.000000000000000
11
-68.4741074603339
21
-3.01874346964829
31
0.000000000000000
  0
LINE
  5
F105E1
330
F105E2
100
AcDbEntity
8
Geo
100
AcDbLine
10
-68.4741074603339
20
-3.01874346964829
30
0.000000000000000
11
-68.3741074603339
21
-3.01874346964829
31
0.000000000000000
  0
LINE
  5
F105E3
330
F105E4
100
AcDbEntity
8
Geo
100
AcDbLine
10
-68.3741074603339
20
-3.01874346964829
30
0.000000000000000
11
-68.2741074603339
21
-3.01874346964829
31
0.000000000000000
  0
LINE
  5
F105E5
330
F105E6
100
AcDbEntity
8
Geo
100
AcDbLine
10
-68.2741074603339
20
-3.01874346964829
30
0.000000000000000
11
-68.1741074603339
21
-3.01874346964829
31
0.000000000000000
  0
LINE
  5
F105E7
330
F105E8
100
AcDbEntity
8
Geo
100
AcDbLine
10
-68.1741074603339
20
-3.01874346964829
30
0.000000000000000
11
-68.0741074603339
21
-3.01874346964829
31
0.000000000000000
  0
LINE
  5
F105E9
330
F105EA
100
AcDbEntity
8
Geo
100
AcDbLine
10
-68.0741074603339
20
-3.01874346964829
30
0.000000000000000
11
-67.9741074603339
21
-3.01874346964829
31
0.000000000000000
  0
LINE
  5
F105EB
330
F105EC
100
AcDbEntity
8
Geo
100
AcDbLine
10
-67.9741074603339
20
-3.01874346964829
30
0.000000000000000
11
-67.8741074603339
21
-3.01874346964829
31
0.000000000000000
  0
LINE
  5
F105ED
330
F105EE
100
AcDbEntity
8
Geo
100
AcDbLine
10
-67.8741074603339
20
-3.01874346964829
30
0.000000000000000
11
-67.7741074603339
21
-3.01874346964829
31
0.000000000000000
  0
LINE
  5
F105EF
330
F105F0
100
AcDbEntity
8
Geo
100
AcDbLine
10
-67.7741074603339
20
-3.01874346964829
30
0.000000000000000
11
-67.6741074603339
21
-3.01874346964829
31
0.000000000000000
  0
LINE
  5
F105F1
330
F105F2
100
AcDbEntity
8
Geo
100
AcDbLine
10
-67.6741074603339
20
-3.01874346964829
30
0.000000000000000
11
-67.5741074603339
21
-3.01874346964829
31
0.000000000000000
  0
LINE
  5
F105F3
330
F105F4
100
AcDbEntity
8
Geo
100
AcDbLine
10
-67.5741074603339
20
-3.01874346964829
30
0.000000000000000
11
-67.4741074603339
21
-3.01874346964829
31
0.000000000000000
  0
LINE
  5
F105F5
330
F105F6
100
AcDbEntity
8
Geo
100
AcDbLine
10
-67.4741074603339
20
-3.01874346964829
30
0.000000000000000
11
-67.3741074603339
21
-3.01874346964829
31
0.000000000000000
  0
LINE
  5
F105F7
330
F105F8
100
AcDbEntity
8
Geo
100
AcDbLine
10
-67.3741074603339
20
-3.01874346964829
30
0.000000000000000
11
-67.2741074603339
21
-3.01874346964829
31
0.000000000000000
  0
LINE
  5
F105F9
330
F105FA
100
AcDbEntity
8
Geo
100
AcDbLine
10
-67.2741074603339
20
-3.01874346964829
30
0.000000000000000
11
-67.1741074603339
21
-3.01874346964829
31
0.000000000000000
  0
LINE
  5
F105FB
330
F105FC
100
AcDbEntity
8
Geo
100
AcDbLine
10
-67.1741074603339
20
-3.01874346964829
30
0.000000000000000
11
-67.0741074603339
21
-3.01874346964829
31
0.000000000000000
  0
LINE
  5
F105FD
330
F105FE
100
AcDbEntity
8
Geo
100
AcDbLine
10
-67.0741074603339
20
-3.01874346964829
30
0.000000000000000
11
-66.9741074603339
21
-3.01874346964829
31
0.000000000000000
  0
LINE
  5
F105FF
330
F10600
100
AcDbEntity
8
Geo
100
AcDbLine
10
-66.9741074603339
20
-3.01874346964829
30
0.000000000000000
11
-66.8741074603339
21
-3.01874346964829
31
0.000000000000000
  0
LINE
  5
F10601
330
F10602
100
AcDbEntity
8
Geo
100
AcDbLine
10
-66.8741074603339
20
-3.01874346964829
30
0.000000000000000
11
-66.7741074603339
21
-3.01874346964829
31
0.000000000000000
  0
LINE
  5
F10603
330
F10604
100
AcDbEntity
8
Geo
100
AcDbLine
10
-66.7741074603339
20
-3.01874346964829
30
0.000000000000000
11
-66.6741074603339
21
-3.01874346964829
31
0.000000000000000
  0
LINE
  5
F10605
330
F10606
100
AcDbEntity
8
Geo
100
AcDbLine
10
-66.6741074603339
20
-3.01874346964829
30
0.000000000000000
11
-66.5741074603339
21
-3.01874346964829
31
0.000000000000000
  0
LINE
  5
F10607
330
F10608
100
AcDbEntity
8
Geo
100
AcDbLine
10
-66.5741074603339
20
-3.01874346964829
30
0.000000000000000
11
-66.4741074603339
21
-3.01874346964829
31
0.000000000000000
  0
LINE
  5
F10609
330
F1060A
100
AcDbEntity
8
Geo
100
AcDbLine
10
-66.4741074603339
20
-3.01874346964829
30
0.000000000000000
11
-66.3741074603339
21
-3.01874346964829
31
0.000000000000000
  0
LINE
  5
F1060B
330
F1060C
100
AcDbEntity
8
Geo
100
AcDbLine
10
-66.3741074603339
20
-3.01874346964829
30
0.000000000000000
11
-66.2741074603339
21
-3.01874346964829
31
0.000000000000000
  0
LINE
  5
F1060D
330
F1060E
100
AcDbEntity
8
Geo
100
AcDbLine
10
-66.2741074603339
20
-3.01874346964829
30
0.000000000000000
11
-66.1741074603339
21
-3.01874346964829
31
0.000000000000000
  0
LINE
  5
F1060F
330
F10610
100
AcDbEntity
8
Geo
100
AcDbLine
10
-66.1741074603339
20
-3.01874346964829
30
0.000000000000000
11
-66.0741074603339
21
-3.01874346964829
31
0.000000000000000
  0
LINE
  5
F10611
330
F10612
100
AcDbEntity
8
Geo
100
AcDbLine
10
-66.0741074603339
20
-3.01874346964829
30
0.000000000000000
11
-65.9741074603339
21
-3.01874346964829
31
0.000000000000000
  0
LINE
  5
F10613
330
F10614
100
AcDbEntity
8
Geo
100
AcDbLine
10
-65.9741074603339
20
-3.01874346964829
30
0.000000000000000
11
-65.8741074603339
21
-3.01874346964829
31
0.000000000000000
  0
LINE
  5
F10615
330
F10616
100
AcDbEntity
8
Geo
100
AcDbLine
10
-65.8741074603339
20
-3.01874346964829
30
0.000000000000000
11
-65.7741074603339
21
-3.01874346964829
31
0.000000000000000
  0
LINE
  5
F10617
330
F10618
100
AcDbEntity
8
Geo
100
AcDbLine
10
-65.7741074603339
20
-3.01874346964829
30
0.000000000000000
11
-65.6741074603339
21
-3.01874346964829
31
0.000000000000000
  0
LINE
  5
F10619
330
F1061A
100
AcDbEntity
8
Geo
100
AcDbLine
10
-65.6741074603339
20
-3.01874346964829
30
0.000000000000000
11
-65.5741074603339
21
-3.01874346964829
31
0.000000000000000
  0
LINE
  5
F1061B
330
F1061C
100
AcDbEntity
8
Geo
100
AcDbLine
10
-65.5741074603339
20
-3.01874346964829
30
0.000000000000000
11
-65.4741074603339
21
-3.01874346964829
31
0.000000000000000
  0
LINE
  5
F1061D
330
F1061E
100
AcDbEntity
8
Geo
100
AcDbLine
10
-65.4741074603339
20
-3.01874346964829
30
0.000000000000000
11
-65.3741074603339
21
-3.01874346964829
31
0.000000000000000
  0
LINE
  5
F1061F
330
F10620
100
AcDbEntity
8
Geo
100
AcDbLine
10
-65.3741074603339
20
-3.01874346964829
30
0.000000000000000
11
-65.2741074603339
21
-3.01874346964829
31
0.000000000000000
  0
LINE
  5
F10621
330
F10622
100
AcDbEntity
8
Geo
100
AcDbLine
10
-65.2741074603339
20
-3.01874346964829
30
0.000000000000000
11
-65.1741074603339
21
-3.01874346964829
31
0.000000000000000
  0
LINE
  5
F10623
330
F10624
100
AcDbEntity
8
Geo
100
AcDbLine
10
-65.1741074603339
20
-3.01874346964829
30
0.000000000000000
11
-65.0741074603339
21
-3.01874346964829
31
0.000000000000000
  0
LINE
  5
F10625
330
F10626
100
AcDbEntity
8
Geo
100
AcDbLine
10
-65.0741074603339
20
-3.01874346964829
30
0.000000000000000
11
-64.9741074603339
21
-3.01874346964829
31
0.000000000000000
  0
LINE
  5
F10627
330
F10628
100
AcDbEntity
8
Geo
100
AcDbLine
10
-64.9741074603339
20
-3.01874346964829
30
0.000000000000000
11
-64.8741074603339
21
-3.01874346964829
31
0.000000000000000
  0
LINE
  5
F10629
330
F1062A
100
AcDbEntity
8
Geo
100
AcDbLine
10
-64.8741074603339
20
-3.01874346964829
30
0.000000000000000
11
-64.7741074603339
21
-3.01874346964829
31
0.000000000000000
  0
LINE
  5
F1062B
330
F1062C
100
AcDbEntity
8
Geo
100
AcDbLine
10
-64.7741074603339
20
-3.01874346964829
30
0.000000000000000
11
-64.6741074603339
21
-3.01874346964829
31
0.000000000000000
  0
LINE
  5
F1062D
330
F1062E
100
AcDbEntity
8
Geo
100
AcDbLine
10
-64.6741074603339
20
-3.01874346964829
30
0.000000000000000
11
-64.5741074603339
21
-3.01874346964829
31
0.000000000000000
  0
LINE
  5
F1062F
330
F10630
100
AcDbEntity
8
Geo
100
AcDbLine
10
-64.5741074603339
20
-3.01874346964829
30
0.000000000000000
11
-64.4741074603339
21
-3.01874346964829
31
0.000000000000000
  0
LINE
  5
F10631
330
F10632
100
AcDbEntity
8
Geo
100
AcDbLine
10
-64.4741074603339
20
-3.01874346964829
30
0.000000000000000
11
-64.3741074603339
21
-3.01874346964829
31
0.000000000000000
  0
LINE
  5
F10633
330
F10634
100
AcDbEntity
8
Geo
100
AcDbLine
10
-64.3741074603339
20
-3.01874346964829
30
0.000000000000000
11
-64.2741074603339
21
-3.01874346964829
31
0.000000000000000
  0
LINE
  5
F10635
330
F10636
100
AcDbEntity
8
Geo
100
AcDbLine
10
-64.2741074603339
20
-3.01874346964829
30
0.000000000000000
11
-64.1741074603339
21
-3.01874346964829
31
0.000000000000000
  0
LINE
  5
F10637
330
F10638
100
AcDbEntity
8
Geo
100
AcDbLine
10
-64.1741074603339
20
-3.01874346964829
30
0.000000000000000
11
-64.0741074603339
21
-3.01874346964829
31
0.000000000000000
  0
LINE
  5
F10639
330
F1063A
100
AcDbEntity
8
Geo
100
AcDbLine
10
-64.0741074603339
20
-3.01874346964829
30
0.000000000000000
11
-63.9741074603339
21
-3.01874346964829
31
0.000000000000000
  0
LINE
  5
F1063B
330
F1063C
100
AcDbEntity
8
Geo
100
AcDbLine
10
-63.9741074603339
20
-3.01874346964829
30
0.000000000000000
11
-63.8741074603339
21
-3.01874346964829
31
0.000000000000000
  0
LINE
  5
F1063D
330
F1063E
100
AcDbEntity
8
Geo
100
AcDbLine
10
-63.8741074603339
20
-3.01874346964829
30
0.000000000000000
11
-63.7741074603339
21
-3.01874346964829
31
0.000000000000000
  0
LINE
  5
F1063F
330
F10640
100
AcDbEntity
8
Geo
100
AcDbLine
10
-63.7741074603339
20
-3.01874346964829
30
0.000000000000000
11
-63.6741074603339
21
-3.01874346964829
31
0.000000000000000
  0
LINE
  5
F10641
330
F10642
100
AcDbEntity
8
Geo
100
AcDbLine
10
-63.6741074603339
20
-3.01874346964829
30
0.000000000000000
11
-63.5741074603339
21
-3.01874346964829
31
0.000000000000000
  0
LINE
  5
F10643
330
F10644
100
AcDbEntity
8
Geo
100
AcDbLine
10
-63.5741074603339
20
-3.01874346964829
30
0.000000000000000
11
-63.4741074603339
21
-3.01874346964829
31
0.000000000000000
  0
LINE
  5
F10645
330
F10646
100
AcDbEntity
8
Geo
100
AcDbLine
10
-63.4741074603339
20
-3.01874346964829
30
0.000000000000000
11
-63.3741074603339
21
-3.01874346964829
31
0.000000000000000
  0
LINE
  5
F10647
330
F10648
100
AcDbEntity
8
Geo
100
AcDbLine
10
-63.3741074603339
20
-3.01874346964829
30
0.000000000000000
11
-63.2741074603339
21
-3.01874346964829
31
0.000000000000000
  0
LINE
  5
F10649
330
F1064A
100
AcDbEntity
8
Geo
100
AcDbLine
10
-63.2741074603339
20
-3.01874346964829
30
0.000000000000000
11
-63.1741074603339
21
-3.01874346964829
31
0.000000000000000
  0
LINE
  5
F1064B
330
F1064C
100
AcDbEntity
8
Geo
100
AcDbLine
10
-63.1741074603339
20
-3.01874346964829
30
0.000000000000000
11
-63.0741074603339
21
-3.01874346964829
31
0.000000000000000
  0
LINE
  5
F1064D
330
F1064E
100
AcDbEntity
8
Geo
100
AcDbLine
10
-63.0741074603339
20
-3.01874346964829
30
0.000000000000000
11
-62.9741074603339
21
-3.01874346964829
31
0.000000000000000
  0
LINE
  5
F1064F
330
F10650
100
AcDbEntity
8
Geo
100
AcDbLine
10
-71.9741074603339
20
-0.898836811721653
30
0.000000000000000
11
-71.9713492960712
21
-0.886154600439010
31
0.000000000000000
  0
LINE
  5
F10651
330
F10652
100
AcDbEntity
8
Geo
100
AcDbLine
10
-71.9713492960712
20
-0.886154600439010
30
0.000000000000000
11
-71.8741074603339
21
-0.439030575577565
31
0.000000000000000
  0
LINE
  5
F10653
330
F10654
100
AcDbEntity
8
Geo
100
AcDbLine
10
-71.8741074603339
20
-0.439030575577565
30
0.000000000000000
11
-71.7741074603339
21
-0.264207304838837
31
0.000000000000000
  0
LINE
  5
F10655
330
F10656
100
AcDbEntity
8
Geo
100
AcDbLine
10
-71.7741074603339
20
-0.264207304838837
30
0.000000000000000
11
-71.6741074603339
21
-0.144237126603710
31
0.000000000000000
  0
LINE
  5
F10657
330
F10658
100
AcDbEntity
8
Geo
100
AcDbLine
10
-71.6741074603339
20
-0.144237126603710
30
0.000000000000000
11
-71.5741074603339
21
-0.0547452826875552
31
0.000000000000000
  0
LINE
  5
F10659
330
F1065A
100
AcDbEntity
8
Geo
100
AcDbLine
10
-71.5741074603339
20
-0.0547452826875552
30
0.000000000000000
11
-71.4741074603339
21
0.0136836724490497
31
0.000000000000000
  0
LINE
  5
F1065B
330
F1065C
100
AcDbEntity
8
Geo
100
AcDbLine
10
-71.4741074603339
20
0.0136836724490497
30
0.000000000000000
11
-71.3741074603339
21
0.0657995018790256
31
0.000000000000000
  0
LINE
  5
F1065D
330
F1065E
100
AcDbEntity
8
Geo
100
AcDbLine
10
-71.3741074603339
20
0.0657995018790256
30
0.000000000000000
11
-71.2741074603339
21
0.104317218639322
31
0.000000000000000
  0
LINE
  5
F1065F
330
F10660
100
AcDbEntity
8
Geo
100
AcDbLine
10
-71.2741074603339
20
0.104317218639322
30
0.000000000000000
11
-71.1741074603339
21
0.130876362596495
31
0.000000000000000
  0
LINE
  5
F10661
330
F10662
100
AcDbEntity
8
Geo
100
AcDbLine
10
-71.1741074603339
20
0.130876362596495
30
0.000000000000000
11
-71.0741074603339
21
0.146460935318029
31
0.000000000000000
  0
LINE
  5
F10663
330
F10664
100
AcDbEntity
8
Geo
100
AcDbLine
10
-71.0741074603339
20
0.146460935318029
30
0.000000000000000
11
-70.9741074603339
21
0.151600041174220
31
0.000000000000000
  0
LINE
  5
F10665
330
F10666
100
AcDbEntity
8
Geo
100
AcDbLine
10
-70.9741074603339
20
0.151600041174220
30
0.000000000000000
11
-70.8741074603339
21
0.151600041174220
31
0.000000000000000
  0
LINE
  5
F10667
330
F10668
100
AcDbEntity
8
Geo
100
AcDbLine
10
-70.8741074603339
20
0.151600041174220
30
0.000000000000000
11
-70.7741074603339
21
0.151600041174220
31
0.000000000000000
  0
LINE
  5
F10669
330
F1066A
100
AcDbEntity
8
Geo
100
AcDbLine
10
-70.7741074603339
20
0.151600041174220
30
0.000000000000000
11
-70.6741074603339
21
0.151600041174220
31
0.000000000000000
  0
LINE
  5
F1066B
330
F1066C
100
AcDbEntity
8
Geo
100
AcDbLine
10
-70.6741074603339
20
0.151600041174220
30
0.000000000000000
11
-70.5741074603339
21
0.151600041174220
31
0.000000000000000
  0
LINE
  5
F1066D
330
F1066E
100
AcDbEntity
8
Geo
100
AcDbLine
10
-70.5741074603339
20
0.151600041174220
30
0.000000000000000
11
-70.4741074603339
21
0.151600041174220
31
0.000000000000000
  0
LINE
  5
F1066F
330
F10670
100
AcDbEntity
8
Geo
100
AcDbLine
10
-70.4741074603339
20
0.151600041174220
30
0.000000000000000
11
-70.3741074603339
21
0.151600041174220
31
0.000000000000000
  0
LINE
  5
F10671
330
F10672
100
AcDbEntity
8
Geo
100
AcDbLine
10
-70.3741074603339
20
0.151600041174220
30
0.000000000000000
11
-70.2741074603339
21
0.151600041174220
31
0.000000000000000
  0
LINE
  5
F10673
330
F10674
100
AcDbEntity
8
Geo
100
AcDbLine
10
-70.2741074603339
20
0.151600041174220
30
0.000000000000000
11
-70.1741074603339
21
0.151600041174220
31
0.000000000000000
  0
LINE
  5
F10675
330
F10676
100
AcDbEntity
8
Geo
100
AcDbLine
10
-70.1741074603339
20
0.151600041174220
30
0.000000000000000
11
-70.0741074603339
21
0.151600041174220
31
0.000000000000000
  0
LINE
  5
F10677
330
F10678
100
AcDbEntity
8
Geo
100
AcDbLine
10
-70.0741074603339
20
0.151600041174220
30
0.000000000000000
11
-69.9741074603339
21
0.151600041174220
31
0.000000000000000
  0
LINE
  5
F10679
330
F1067A
100
AcDbEntity
8
Geo
100
AcDbLine
10
-69.9741074603339
20
0.151600041174220
30
0.000000000000000
11
-69.8741074603339
21
0.151600041174220
31
0.000000000000000
  0
LINE
  5
F1067B
330
F1067C
100
AcDbEntity
8
Geo
100
AcDbLine
10
-69.8741074603339
20
0.151600041174220
30
0.000000000000000
11
-69.7741074603339
21
0.151600041174220
31
0.000000000000000
  0
LINE
  5
F1067D
330
F1067E
100
AcDbEntity
8
Geo
100
AcDbLine
10
-69.7741074603339
20
0.151600041174220
30
0.000000000000000
11
-69.6741074603339
21
0.151600041174220
31
0.000000000000000
  0
LINE
  5
F1067F
330
F10680
100
AcDbEntity
8
Geo
100
AcDbLine
10
-69.6741074603339
20
0.151600041174220
30
0.000000000000000
11
-69.5741074603339
21
0.151600041174220
31
0.000000000000000
  0
LINE
  5
F10681
330
F10682
100
AcDbEntity
8
Geo
100
AcDbLine
10
-69.5741074603339
20
0.151600041174220
30
0.000000000000000
11
-69.4741074603339
21
0.151600041174220
31
0.000000000000000
  0
LINE
  5
F10683
330
F10684
100
AcDbEntity
8
Geo
100
AcDbLine
10
-69.4741074603339
20
0.151600041174220
30
0.000000000000000
11
-69.3741074603339
21
0.151600041174220
31
0.000000000000000
  0
LINE
  5
F10685
330
F10686
100
AcDbEntity
8
Geo
100
AcDbLine
10
-69.3741074603339
20
0.151600041174220
30
0.000000000000000
11
-69.2741074603339
21
0.151600041174220
31
0.000000000000000
  0
LINE
  5
F10687
330
F10688
100
AcDbEntity
8
Geo
100
AcDbLine
10
-69.2741074603339
20
0.151600041174220
30
0.000000000000000
11
-69.1741074603339
21
0.151600041174220
31
0.000000000000000
  0
LINE
  5
F10689
330
F1068A
100
AcDbEntity
8
Geo
100
AcDbLine
10
-69.1741074603339
20
0.151600041174220
30
0.000000000000000
11
-69.0741074603339
21
0.151600041174220
31
0.000000000000000
  0
LINE
  5
F1068B
330
F1068C
100
AcDbEntity
8
Geo
100
AcDbLine
10
-69.0741074603339
20
0.151600041174220
30
0.000000000000000
11
-68.9741074603339
21
0.151600041174220
31
0.000000000000000
  0
LINE
  5
F1068D
330
F1068E
100
AcDbEntity
8
Geo
100
AcDbLine
10
-68.9741074603339
20
0.151600041174220
30
0.000000000000000
11
-68.8741074603339
21
0.151600041174220
31
0.000000000000000
  0
LINE
  5
F1068F
330
F10690
100
AcDbEntity
8
Geo
100
AcDbLine
10
-68.8741074603339
20
0.151600041174220
30
0.000000000000000
11
-68.7741074603339
21
0.151600041174220
31
0.000000000000000
  0
LINE
  5
F10691
330
F10692
100
AcDbEntity
8
Geo
100
AcDbLine
10
-68.7741074603339
20
0.151600041174220
30
0.000000000000000
11
-68.6741074603339
21
0.151600041174220
31
0.000000000000000
  0
LINE
  5
F10693
330
F10694
100
AcDbEntity
8
Geo
100
AcDbLine
10
-68.6741074603339
20
0.151600041174220
30
0.000000000000000
11
-68.5741074603339
21
0.151600041174220
31
0.000000000000000
  0
LINE
  5
F10695
330
F10696
100
AcDbEntity
8
Geo
100
AcDbLine
10
-68.5741074603339
20
0.151600041174220
30
0.000000000000000
11
-68.4741074603339
21
0.151600041174220
31
0.000000000000000
  0
LINE
  5
F10697
330
F10698
100
AcDbEntity
8
Geo
100
AcDbLine
10
-68.4741074603339
20
0.151600041174220
30
0.000000000000000
11
-68.3741074603339
21
0.151600041174220
31
0.000000000000000
  0
LINE
  5
F10699
330
F1069A
100
AcDbEntity
8
Geo
100
AcDbLine
10
-68.3741074603339
20
0.151600041174220
30
0.000000000000000
11
-68.2741074603339
21
0.151600041174220
31
0.000000000000000
  0
LINE
  5
F1069B
330
F1069C
100
AcDbEntity
8
Geo
100
AcDbLine
10
-68.2741074603339
20
0.151600041174220
30
0.000000000000000
11
-68.1741074603339
21
0.151600041174220
31
0.000000000000000
  0
LINE
  5
F1069D
330
F1069E
100
AcDbEntity
8
Geo
100
AcDbLine
10
-68.1741074603339
20
0.151600041174220
30
0.000000000000000
11
-68.0741074603339
21
0.151600041174220
31
0.000000000000000
  0
LINE
  5
F1069F
330
F106A0
100
AcDbEntity
8
Geo
100
AcDbLine
10
-68.0741074603339
20
0.151600041174220
30
0.000000000000000
11
-67.9741074603339
21
0.151600041174220
31
0.000000000000000
  0
LINE
  5
F106A1
330
F106A2
100
AcDbEntity
8
Geo
100
AcDbLine
10
-67.9741074603339
20
0.151600041174220
30
0.000000000000000
11
-67.8741074603339
21
0.151600041174220
31
0.000000000000000
  0
LINE
  5
F106A3
330
F106A4
100
AcDbEntity
8
Geo
100
AcDbLine
10
-67.8741074603339
20
0.151600041174220
30
0.000000000000000
11
-67.7741074603339
21
0.151600041174220
31
0.000000000000000
  0
LINE
  5
F106A5
330
F106A6
100
AcDbEntity
8
Geo
100
AcDbLine
10
-67.7741074603339
20
0.151600041174220
30
0.000000000000000
11
-67.6741074603339
21
0.151600041174220
31
0.000000000000000
  0
LINE
  5
F106A7
330
F106A8
100
AcDbEntity
8
Geo
100
AcDbLine
10
-67.6741074603339
20
0.151600041174220
30
0.000000000000000
11
-67.5741074603339
21
0.151600041174220
31
0.000000000000000
  0
LINE
  5
F106A9
330
F106AA
100
AcDbEntity
8
Geo
100
AcDbLine
10
-67.5741074603339
20
0.151600041174220
30
0.000000000000000
11
-67.4741074603339
21
0.151600041174220
31
0.000000000000000
  0
LINE
  5
F106AB
330
F106AC
100
AcDbEntity
8
Geo
100
AcDbLine
10
-67.4741074603339
20
0.151600041174220
30
0.000000000000000
11
-67.3741074603339
21
0.151600041174220
31
0.000000000000000
  0
LINE
  5
F106AD
330
F106AE
100
AcDbEntity
8
Geo
100
AcDbLine
10
-67.3741074603339
20
0.151600041174220
30
0.000000000000000
11
-67.2741074603339
21
0.151600041174220
31
0.000000000000000
  0
LINE
  5
F106AF
330
F106B0
100
AcDbEntity
8
Geo
100
AcDbLine
10
-67.2741074603339
20
0.151600041174220
30
0.000000000000000
11
-67.1741074603339
21
0.151600041174220
31
0.000000000000000
  0
LINE
  5
F106B1
330
F106B2
100
AcDbEntity
8
Geo
100
AcDbLine
10
-67.1741074603339
20
0.151600041174220
30
0.000000000000000
11
-67.0741074603339
21
0.151600041174220
31
0.000000000000000
  0
LINE
  5
F106B3
330
F106B4
100
AcDbEntity
8
Geo
100
AcDbLine
10
-67.0741074603339
20
0.151600041174220
30
0.000000000000000
11
-66.9741074603339
21
0.151600041174220
31
0.000000000000000
  0
LINE
  5
F106B5
330
F106B6
100
AcDbEntity
8
Geo
100
AcDbLine
10
-66.9741074603339
20
0.151600041174220
30
0.000000000000000
11
-66.8741074603339
21
0.151600041174220
31
0.000000000000000
  0
LINE
  5
F106B7
330
F106B8
100
AcDbEntity
8
Geo
100
AcDbLine
10
-66.8741074603339
20
0.151600041174220
30
0.000000000000000
11
-66.7741074603339
21
0.151600041174220
31
0.000000000000000
  0
LINE
  5
F106B9
330
F106BA
100
AcDbEntity
8
Geo
100
AcDbLine
10
-66.7741074603339
20
0.151600041174220
30
0.000000000000000
11
-66.6741074603339
21
0.151600041174220
31
0.000000000000000
  0
LINE
  5
F106BB
330
F106BC
100
AcDbEntity
8
Geo
100
AcDbLine
10
-66.6741074603339
20
0.151600041174220
30
0.000000000000000
11
-66.5741074603339
21
0.151600041174220
31
0.000000000000000
  0
LINE
  5
F106BD
330
F106BE
100
AcDbEntity
8
Geo
100
AcDbLine
10
-66.5741074603339
20
0.151600041174220
30
0.000000000000000
11
-66.4741074603339
21
0.151600041174220
31
0.000000000000000
  0
LINE
  5
F106BF
330
F106C0
100
AcDbEntity
8
Geo
100
AcDbLine
10
-66.4741074603339
20
0.151600041174220
30
0.000000000000000
11
-66.3741074603339
21
0.151600041174220
31
0.000000000000000
  0
LINE
  5
F106C1
330
F106C2
100
AcDbEntity
8
Geo
100
AcDbLine
10
-66.3741074603339
20
0.151600041174220
30
0.000000000000000
11
-66.2741074603339
21
0.151600041174220
31
0.000000000000000
  0
LINE
  5
F106C3
330
F106C4
100
AcDbEntity
8
Geo
100
AcDbLine
10
-66.2741074603339
20
0.151600041174220
30
0.000000000000000
11
-66.1741074603339
21
0.151600041174220
31
0.000000000000000
  0
LINE
  5
F106C5
330
F106C6
100
AcDbEntity
8
Geo
100
AcDbLine
10
-66.1741074603339
20
0.151600041174220
30
0.000000000000000
11
-66.0741074603339
21
0.151600041174220
31
0.000000000000000
  0
LINE
  5
F106C7
330
F106C8
100
AcDbEntity
8
Geo
100
AcDbLine
10
-66.0741074603339
20
0.151600041174220
30
0.000000000000000
11
-65.9741074603339
21
0.151600041174220
31
0.000000000000000
  0
LINE
  5
F106C9
330
F106CA
100
AcDbEntity
8
Geo
100
AcDbLine
10
-65.9741074603339
20
0.151600041174220
30
0.000000000000000
11
-65.8741074603339
21
0.151600041174220
31
0.000000000000000
  0
LINE
  5
F106CB
330
F106CC
100
AcDbEntity
8
Geo
100
AcDbLine
10
-65.8741074603339
20
0.151600041174220
30
0.000000000000000
11
-65.7741074603339
21
0.151600041174220
31
0.000000000000000
  0
LINE
  5
F106CD
330
F106CE
100
AcDbEntity
8
Geo
100
AcDbLine
10
-65.7741074603339
20
0.151600041174220
30
0.000000000000000
11
-65.6741074603339
21
0.151600041174220
31
0.000000000000000
  0
LINE
  5
F106CF
330
F106D0
100
AcDbEntity
8
Geo
100
AcDbLine
10
-65.6741074603339
20
0.151600041174220
30
0.000000000000000
11
-65.5741074603339
21
0.151600041174220
31
0.000000000000000
  0
LINE
  5
F106D1
330
F106D2
100
AcDbEntity
8
Geo
100
AcDbLine
10
-65.5741074603339
20
0.151600041174220
30
0.000000000000000
11
-65.4741074603339
21
0.151600041174220
31
0.000000000000000
  0
LINE
  5
F106D3
330
F106D4
100
AcDbEntity
8
Geo
100
AcDbLine
10
-65.4741074603339
20
0.151600041174220
30
0.000000000000000
11
-65.3741074603339
21
0.151600041174220
31
0.000000000000000
  0
LINE
  5
F106D5
330
F106D6
100
AcDbEntity
8
Geo
100
AcDbLine
10
-65.3741074603339
20
0.151600041174220
30
0.000000000000000
11
-65.2741074603339
21
0.151600041174220
31
0.000000000000000
  0
LINE
  5
F106D7
330
F106D8
100
AcDbEntity
8
Geo
100
AcDbLine
10
-65.2741074603339
20
0.151600041174220
30
0.000000000000000
11
-65.1741074603339
21
0.151600041174220
31
0.000000000000000
  0
LINE
  5
F106D9
330
F106DA
100
AcDbEntity
8
Geo
100
AcDbLine
10
-65.1741074603339
20
0.151600041174220
30
0.000000000000000
11
-65.0741074603339
21
0.151600041174220
31
0.000000000000000
  0
LINE
  5
F106DB
330
F106DC
100
AcDbEntity
8
Geo
100
AcDbLine
10
-65.0741074603339
20
0.151600041174220
30
0.000000000000000
11
-64.9741074603339
21
0.151600041174220
31
0.000000000000000
  0
LINE
  5
F106DD
330
F106DE
100
AcDbEntity
8
Geo
100
AcDbLine
10
-64.9741074603339
20
0.151600041174220
30
0.000000000000000
11
-64.8741074603339
21
0.151600041174220
31
0.000000000000000
  0
LINE
  5
F106DF
330
F106E0
100
AcDbEntity
8
Geo
100
AcDbLine
10
-64.8741074603339
20
0.151600041174220
30
0.000000000000000
11
-64.7741074603339
21
0.151600041174220
31
0.000000000000000
  0
LINE
  5
F106E1
330
F106E2
100
AcDbEntity
8
Geo
100
AcDbLine
10
-64.7741074603339
20
0.151600041174220
30
0.000000000000000
11
-64.6741074603339
21
0.151600041174220
31
0.000000000000000
  0
LINE
  5
F106E3
330
F106E4
100
AcDbEntity
8
Geo
100
AcDbLine
10
-64.6741074603339
20
0.151600041174220
30
0.000000000000000
11
-64.5741074603339
21
0.151600041174220
31
0.000000000000000
  0
LINE
  5
F106E5
330
F106E6
100
AcDbEntity
8
Geo
100
AcDbLine
10
-64.5741074603339
20
0.151600041174220
30
0.000000000000000
11
-64.4741074603339
21
0.151600041174220
31
0.000000000000000
  0
LINE
  5
F106E7
330
F106E8
100
AcDbEntity
8
Geo
100
AcDbLine
10
-64.4741074603339
20
0.151600041174220
30
0.000000000000000
11
-64.3741074603339
21
0.151600041174220
31
0.000000000000000
  0
LINE
  5
F106E9
330
F106EA
100
AcDbEntity
8
Geo
100
AcDbLine
10
-64.3741074603339
20
0.151600041174220
30
0.000000000000000
11
-64.2741074603339
21
0.151600041174220
31
0.000000000000000
  0
LINE
  5
F106EB
330
F106EC
100
AcDbEntity
8
Geo
100
AcDbLine
10
-64.2741074603339
20
0.151600041174220
30
0.000000000000000
11
-64.1741074603339
21
0.151600041174220
31
0.000000000000000
  0
LINE
  5
F106ED
330
F106EE
100
AcDbEntity
8
Geo
100
AcDbLine
10
-64.1741074603339
20
0.151600041174220
30
0.000000000000000
11
-64.0741074603339
21
0.151600041174220
31
0.000000000000000
  0
LINE
  5
F106EF
330
F106F0
100
AcDbEntity
8
Geo
100
AcDbLine
10
-64.0741074603339
20
0.151600041174220
30
0.000000000000000
11
-63.9741074603339
21
0.151600041174220
31
0.000000000000000
  0
LINE
  5
F106F1
330
F106F2
100
AcDbEntity
8
Geo
100
AcDbLine
10
-63.9741074603339
20
0.151600041174220
30
0.000000000000000
11
-63.8741074603339
21
0.151600041174220
31
0.000000000000000
  0
LINE
  5
F106F3
330
F106F4
100
AcDbEntity
8
Geo
100
AcDbLine
10
-63.8741074603339
20
0.151600041174220
30
0.000000000000000
11
-63.7741074603339
21
0.151600041174220
31
0.000000000000000
  0
LINE
  5
F106F5
330
F106F6
100
AcDbEntity
8
Geo
100
AcDbLine
10
-63.7741074603339
20
0.151600041174220
30
0.000000000000000
11
-63.6741074603339
21
0.151600041174220
31
0.000000000000000
  0
LINE
  5
F106F7
330
F106F8
100
AcDbEntity
8
Geo
100
AcDbLine
10
-63.6741074603339
20
0.151600041174220
30
0.000000000000000
11
-63.5741074603339
21
0.151600041174220
31
0.000000000000000
  0
LINE
  5
F106F9
330
F106FA
100
AcDbEntity
8
Geo
100
AcDbLine
10
-63.5741074603339
20
0.151600041174220
30
0.000000000000000
11
-63.4741074603339
21
0.151600041174220
31
0.000000000000000
  0
LINE
  5
F106FB
330
F106FC
100
AcDbEntity
8
Geo
100
AcDbLine
10
-63.4741074603339
20
0.151600041174220
30
0.000000000000000
11
-63.3741074603339
21
0.151600041174220
31
0.000000000000000
  0
LINE
  5
F106FD
330
F106FE
100
AcDbEntity
8
Geo
100
AcDbLine
10
-63.3741074603339
20
0.151600041174220
30
0.000000000000000
11
-63.2741074603339
21
0.151600041174220
31
0.000000000000000
  0
LINE
  5
F106FF
330
F10700
100
AcDbEntity
8
Geo
100
AcDbLine
10
-63.2741074603339
20
0.151600041174220
30
0.000000000000000
11
-63.1741074603339
21
0.151600041174220
31
0.000000000000000
  0
LINE
  5
F10701
330
F10702
100
AcDbEntity
8
Geo
100
AcDbLine
10
-63.1741074603339
20
0.151600041174220
30
0.000000000000000
11
-63.0741074603339
21
0.151600041174220
31
0.000000000000000
  0
LINE
  5
F10703
330
F10704
100
AcDbEntity
8
Geo
100
AcDbLine
10
-63.0741074603339
20
0.151600041174220
30
0.000000000000000
11
-62.9741074603339
21
0.151600041174220
31
0.000000000000000
  0
LINE
  5
F10705
330
F10706
100
AcDbEntity
8
Geo
100
AcDbLine
10
88.0258925396661
20
-0.311933841515724
30
0.000000000000000
11
88.0258925396661
21
-2.81193384151572
31
0.000000000000000
  0
LINE
  5
F10707
330
F10708
100
AcDbEntity
8
Geo
100
AcDbLine
10
-71.9741074603339
20
-2.81193384151572
30
0.000000000000000
11
-71.9741074603339
21
-4.81193384151572
31
0.000000000000000
  0
ARC
  5
F10709
330
F1070A
100
AcDbEntity
8
Geo
100
AcDbCircle
10
-70.9741074603339
20
-4.81193384151572
30
0.000000000000000
 40
1.00000000000000
100
AcDbArc
 50
180.000000000000
 51
270.000000000000
  0
LINE
  5
F1070B
330
F1070C
100
AcDbEntity
8
Geo
100
AcDbLine
10
-70.9741074603339
20
-5.81193384151572
30
0.000000000000000
11
-57.9741074603339
21
-5.81193384151572
31
0.000000000000000
  0
LINE
  5
F1070D
330
F1070E
100
AcDbEntity
8
Geo
100
AcDbLine
10
-57.9741074603339
20
-5.81193384151572
30
0.000000000000000
11
-57.9741074603339
21
-5.41193384151572
31
0.000000000000000
  0
LINE
  5
F1070F
330
F10710
100
AcDbEntity
8
Geo
100
AcDbLine
10
-57.9741074603339
20
-5.41193384151572
30
0.000000000000000
11
28.0258925396661
21
-5.41193384151572
31
0.000000000000000
  0
LINE
  5
F10711
330
F10712
100
AcDbEntity
8
Geo
100
AcDbLine
10
28.0258925396661
20
-5.41193384151572
30
0.000000000000000
11
30.0258925396661
21
-5.81193384151572
31
0.000000000000000
  0
LINE
  5
F10713
330
F10714
100
AcDbEntity
8
Geo
100
AcDbLine
10
30.0258925396661
20
-5.81193384151572
30
0.000000000000000
11
87.0258925396661
21
-5.81193384151572
31
0.000000000000000
  0
LINE
  5
F10715
330
F10716
100
AcDbEntity
8
Geo
100
AcDbLine
10
87.0258925396661
20
-5.81193384151572
30
0.000000000000000
11
88.0258925396661
21
-5.31193384151572
31
0.000000000000000
  0
LINE
  5
F10717
330
F10718
100
AcDbEntity
8
Geo
100
AcDbLine
10
-70.9741074603339
20
0.188066158484276
30
0.000000000000000
11
-70.9741074603339
21
-5.81193384151572
31
0.000000000000000
  0
LINE
  5
F10719
330
F1071A
100
AcDbEntity
8
Geo
100
AcDbLine
10
-70.9741074603339
20
0.188066158484276
30
0.000000000000000
11
-70.9741074603339
21
-5.81193384151572
31
0.000000000000000
  0
LINE
  5
F1071B
330
F1071C
100
AcDbEntity
8
Geo
100
AcDbLine
10
-57.9741074603339
20
0.188066158484276
30
0.000000000000000
11
-57.9741074603339
21
-5.81193384151572
31
0.000000000000000
  0
LINE
  5
F1071D
330
F1071E
100
AcDbEntity
8
Geo
100
AcDbLine
10
-57.9741074603339
20
-0.211933841515724
30
0.000000000000000
11
-57.9741074603339
21
-5.41193384151572
31
0.000000000000000
  0
LINE
  5
F1071F
330
F10720
100
AcDbEntity
8
Geo
100
AcDbLine
10
28.0258925396661
20
-0.211933841515724
30
0.000000000000000
11
28.0258925396661
21
-5.41193384151572
31
0.000000000000000
  0
LINE
  5
F10721
330
F10722
100
AcDbEntity
8
Geo
100
AcDbLine
10
30.0258925396661
20
0.188066158484276
30
0.000000000000000
11
30.0258925396661
21
-5.81193384151572
31
0.000000000000000
  0
LINE
  5
F10723
330
F10724
100
AcDbEntity
8
Geo
100
AcDbLine
10
30.0258925396661
20
0.188066158484276
30
0.000000000000000
11
30.0258925396661
21
-5.81193384151572
31
0.000000000000000
  0
LINE
  5
F10725
330
F10726
100
AcDbEntity
8
Geo
100
AcDbLine
10
87.0258925396661
20
0.188066158484276
30
0.000000000000000
11
87.0258925396661
21
-5.81193384151572
31
0.000000000000000
  0
LINE
  5
F10727
330
F10728
100
AcDbEntity
8
Geo
100
AcDbLine
10
88.0258925396661
20
-0.311933841515724
30
0.000000000000000
11
88.0258925396661
21
-5.31193384151572
31
0.000000000000000
  0
LINE
  5
F10729
330
F1072A
100
AcDbEntity
8
Geo
 6
Dashdot
100
AcDbLine
10
-71.9741074603339
20
-2.81193384151572
30
0.000000000000000
11
88.0258925396661
21
-2.81193384151572
31
0.000000000000000
  0
LWPOLYLINE
  5
F1072B
330
F1072C
100
AcDbEntity
8
Rahmen
100
AcDbPolyline
90
   4
70
   1
43
   0.0
 10
-134.613465209278
 20
99.9949283537266
 10
143.316907502741
 20
99.9949283537266
 10
143.316907502741
 20
-100.178740371429
 10
-134.613465209278
 20
-100.178740371429
  0
TEXT
  5
F1072D
330
F1072E
 100
AcDbEntity
8
Text
100
AcDbText
10
-133.616584388934
20
-99.6787403714291
30
0.000000000000000
40
1.00000000000000
1
ISBESketcher - ©ISBE GmbH      lizensiert für: Schmid Werkzeuge
100
AcDbText
  0
LWPOLYLINE
  5
F1072F
330
F10730
100
AcDbEntity
8
Rahmen
100
AcDbPolyline
90
   4
70
   1
43
   0.0
 10
103.441674688965
 20
-97.1880979103959
 10
143.316907502741
 20
-97.1880979103959
 10
143.316907502741
 20
-100.178740371429
 10
103.441674688965
 20
-100.178740371429
  0
TEXT
  5
F10731
330
F10732
 100
AcDbEntity
8
Text
100
AcDbText
10
104.500000000000
20
-99.4953212305166
30
0.000000000000000
40
1.50000000000000
1
Ers. durch:
100
AcDbText
  0
TEXT
  5
F10733
330
F10734
 100
AcDbEntity
8
Text
100
AcDbText
10
0.000000000000000
20
0.500000000000000
30
0.000000000000000
40
1.50000000000000
1

100
AcDbText
  0
LWPOLYLINE
  5
F10735
330
F10736
100
AcDbEntity
8
Rahmen
100
AcDbPolyline
90
   4
70
   1
43
   0.0
 10
63.3670657111200
 20
-97.1880979103959
 10
103.441674688965
 20
-97.1880979103959
 10
103.441674688965
 20
-100.178740371429
 10
63.3670657111200
 20
-100.178740371429
  0
TEXT
  5
F10737
330
F10738
 100
AcDbEntity
8
Text
100
AcDbText
10
64.5000000000000
20
-99.4953212305166
30
0.000000000000000
40
1.50000000000000
1
Ers. für:
100
AcDbText
  0
TEXT
  5
F10739
330
F1073A
 100
AcDbEntity
8
Text
100
AcDbText
10
0.000000000000000
20
0.500000000000000
30
0.000000000000000
40
1.50000000000000
1

100
AcDbText
  0
LWPOLYLINE
  5
F1073B
330
F1073C
100
AcDbEntity
8
Rahmen
100
AcDbPolyline
90
   4
70
   1
43
   0.0
 10
130.158080674195
 20
-94.1974554493627
 10
143.316907502741
 20
-94.1974554493627
 10
143.316907502741
 20
-97.1880979103959
 10
130.158080674195
 20
-97.1880979103959
  0
TEXT
  5
F1073D
330
F1073E
 100
AcDbEntity
8
Text
100
AcDbText
10
131.166666666667
20
-96.4953212305166
30
0.000000000000000
40
1.50000000000000
1
Blätter
100
AcDbText
  0
TEXT
  5
F1073F
330
F10740
 100
AcDbEntity
8
Text
100
AcDbText
10
0.000000000000000
20
0.500000000000000
30
0.000000000000000
40
1.50000000000000
1

100
AcDbText
  0
LWPOLYLINE
  5
F10741
330
F10742
100
AcDbEntity
8
Rahmen
100
AcDbPolyline
90
   4
70
   1
43
   0.0
 10
130.158080674195
 20
-91.0074368242606
 10
143.316907502741
 20
-91.0074368242606
 10
143.316907502741
 20
-94.1974554493627
 10
130.158080674195
 20
-94.1974554493627
  0
TEXT
  5
F10743
330
F10744
 100
AcDbEntity
8
Text
100
AcDbText
10
131.166666666667
20
-93.4953212305166
30
0.000000000000000
40
1.50000000000000
1
Blatt
100
AcDbText
  0
TEXT
  5
F10745
330
F10746
 100
AcDbEntity
8
Text
100
AcDbText
10
0.000000000000000
20
0.500000000000000
30
0.000000000000000
40
1.50000000000000
1

100
AcDbText
  0
LWPOLYLINE
  5
F10747
330
F10748
100
AcDbEntity
8
Rahmen
100
AcDbPolyline
90
   4
70
   1
43
   0.0
 10
63.3670657111200
 20
-91.0074368242606
 10
130.158080674195
 20
-91.0074368242606
 10
130.158080674195
 20
-97.1880979103959
 10
63.3670657111200
 20
-97.1880979103959
  0
TEXT
  5
F10749
330
F1074A
 100
AcDbEntity
8
Text
100
AcDbText
10
64.5000000000000
20
-93.4953212305166
30
0.000000000000000
40
1.50000000000000
1
Datum:
100
AcDbText
  0
TEXT
  5
F1074B
330
F1074C
 100
AcDbEntity
8
Text
100
AcDbText
10
90.5529841651636
20
-96.4953212305166
30
0.000000000000000
40
1.50000000000000
1
04.03.2021
100
AcDbText
  0
LWPOLYLINE
  5
F1074D
330
F1074E
100
AcDbEntity
8
Rahmen
100
AcDbPolyline
90
   4
70
   1
43
   0.0
 10
63.3670657111200
 20
-85.0261519021942
 10
143.316907502741
 20
-85.0261519021942
 10
143.316907502741
 20
-91.0074368242606
 10
63.3670657111200
 20
-91.0074368242606
  0
TEXT
  5
F1074F
330
F10750
 100
AcDbEntity
8
Text
100
AcDbText
10
0.000000000000000
20
0.500000000000000
30
0.000000000000000
40
1.50000000000000
1

100
AcDbText
  0
TEXT
  5
F10751
330
F10752
 100
AcDbEntity
8
Text
100
AcDbText
10
74.5904562100124
20
-89.6588687175277
30
0.000000000000000
40
2.50000000000000
1
VHM-Hartreibahle 0486-060-b
100
AcDbText
  0
LWPOLYLINE
  5
F10753
330
F10754
100
AcDbEntity
8
Rahmen
100
AcDbPolyline
90
   4
70
   1
43
   0.0
 10
103.441674688965
 20
-79.0448669801278
 10
143.316907502741
 20
-79.0448669801278
 10
143.316907502741
 20
-85.0261519021942
 10
103.441674688965
 20
-85.0261519021942
  0
TEXT
  5
F10755
330
F10756
 100
AcDbEntity
8
Text
100
AcDbText
10
104.500000000000
20
-81.4953212305166
30
0.000000000000000
40
1.50000000000000
1
Zu bearb. Material:
100
AcDbText
  0
TEXT
  5
F10757
330
F10758
 100
AcDbEntity
8
Text
100
AcDbText
10
0.000000000000000
20
0.500000000000000
30
0.000000000000000
40
1.50000000000000
1

100
AcDbText
  0
LWPOLYLINE
  5
F10759
330
F1075A
100
AcDbEntity
8
Rahmen
100
AcDbPolyline
90
   4
70
   1
43
   0.0
 10
63.3670657111200
 20
-79.0448669801278
 10
103.441674688965
 20
-79.0448669801278
 10
103.441674688965
 20
-85.0261519021942
 10
63.3670657111200
 20
-85.0261519021942
  0
TEXT
  5
F1075B
330
F1075C
 100
AcDbEntity
8
Text
100
AcDbText
10
64.5000000000000
20
-81.4953212305166
30
0.000000000000000
40
1.50000000000000
1
Werkstoff:
100
AcDbText
  0
TEXT
  5
F1075D
330
F1075E
 100
AcDbEntity
8
Text
100
AcDbText
10
0.000000000000000
20
0.500000000000000
30
0.000000000000000
40
1.50000000000000
1

100
AcDbText
  0
LWPOLYLINE
  5
F1075F
330
F10760
100
AcDbEntity
8
Rahmen
100
AcDbPolyline
90
   4
70
   1
43
   0.0
 10
103.441674688965
 20
-76.0542245190946
 10
143.316907502741
 20
-76.0542245190946
 10
143.316907502741
 20
-79.0448669801278
 10
103.441674688965
 20
-79.0448669801278
  0
TEXT
  5
F10761
330
F10762
 100
AcDbEntity
8
Text
100
AcDbText
10
0.000000000000000
20
0.500000000000000
30
0.000000000000000
40
1.50000000000000
1

100
AcDbText
  0
TEXT
  5
F10763
330
F10764
 100
AcDbEntity
8
Text
100
AcDbText
10
0.000000000000000
20
0.500000000000000
30
0.000000000000000
40
1.50000000000000
1

100
AcDbText
  0
LWPOLYLINE
  5
F10765
330
F10766
100
AcDbEntity
8
Rahmen
100
AcDbPolyline
90
   4
70
   1
43
   0.0
 10
63.3670657111200
 20
-76.0542245190946
 10
103.441674688965
 20
-76.0542245190946
 10
103.441674688965
 20
-79.0448669801278
 10
63.3670657111200
 20
-79.0448669801278
  0
TEXT
  5
F10767
330
F10768
 100
AcDbEntity
8
Text
100
AcDbText
10
64.5000000000000
20
-78.4953212305166
30
0.000000000000000
40
1.50000000000000
1
Maßstab:
100
AcDbText
  0
TEXT
  5
F10769
330
F1076A
 100
AcDbEntity
8
Text
100
AcDbText
10
89.1074860311734
20
-78.4953212305166
30
0.000000000000000
40
1.50000000000000
1
1 : 1
100
AcDbText
0
VIEWPORT
5
294
102
{ACAD_XDICTIONARY
360
58A
102
}
330
25D
100
AcDbEntity
67
1
8
0
60
1
100
AcDbViewport
10
0.0
20
0.0
30
0.0
40
10.0
41
10.0
68
-1
69
1
12
0.0
22
0.0
13
0.0
23
0.0
14
1.0
24
1.0
15
0.0
25
0.0
16
0.0
26
0.0
36
1.0
17
0.0
27
0.0
37
0.0
42
0.0
43
0.0
44
0.0
45
10.0
50
0.0
51
0.0000000000007958
72
100
90
32800
1

281
0
71
0
74
0
110
0.0
120
0.0
130
0.0
111
1.0
121
0.0
131
0.0
112
0.0
122
1.0
132
0.0
79
0
146
0.0
1001
VD_INVISIBLE_NOT_FOR_READ
1000
VD_INVISIBLE_NOT_FOR_READ
0
VIEWPORT
5
295
102
{ACAD_XDICTIONARY
360
58C
102
}
330
25D
100
AcDbEntity
67
1
8
0
60
1
100
AcDbViewport
10
0.0
20
0.0
30
0.0
40
10.0
41
10.0
68
0
69
2
12
0.0
22
0.0
13
0.0
23
0.0
14
1.0
24
1.0
15
0.0
25
0.0
16
0.0
26
0.0
36
1.0
17
0.0
27
0.0
37
0.0
42
0.0
43
0.0
44
0.0
45
10.0
50
0.0
51
0.0000000000007958
72
100
90
163872
1

281
0
71
0
74
0
110
0.0
120
0.0
130
0.0
111
1.0
121
0.0
131
0.0
112
0.0
122
1.0
132
0.0
79
0
146
0.0
1001
VD_INVISIBLE_NOT_FOR_READ
1000
VD_INVISIBLE_NOT_FOR_READ
0
ENDSEC
0
SECTION
2
OBJECTS
0
DICTIONARY
5
13
330
0
100
AcDbDictionary
281
1
3
ACAD_COLOR
350
FA7
3
ACAD_GROUP
350
14
3
ACAD_LAYOUT
350
FCF
3
ACAD_MATERIAL
350
F7A
3
ACAD_MLEADERSTYLE
350
FCD
3
ACAD_MLINESTYLE
350
16
3
ACAD_PLOTSETTINGS
350
17
3
ACAD_PLOTSTYLENAME
350
18
3
ACAD_SCALELIST
350
FAB
3
ACAD_TABLESTYLE
350
FA8
3
ACAD_VISUALSTYLE
350
F93
3
ACDB_RECOMPOSE_DATA
350
107E
3
AcDbVariableDictionary
350
FF0
3
DWGPROPS
350
107F
0
DICTIONARY
5
F10014
330
F10013
100
AcDbDictionary
280
1
281
1
3
ACAD_MTEXT_2008_RT
360
F10015
0
DICTIONARY
5
F10019
330
F10018
100
AcDbDictionary
280
1
281
1
3
ACAD_MTEXT_2008_RT
360
F1001A
0
DICTIONARY
5
F1001E
330
F1001D
100
AcDbDictionary
280
1
281
1
3
ACAD_MTEXT_2008_RT
360
F1001F
0
DICTIONARY
5
F10023
330
F10022
100
AcDbDictionary
280
1
281
1
3
ACAD_MTEXT_2008_RT
360
F10024
0
DICTIONARY
5
F1000A
330
F10009
100
AcDbDictionary
280
1
281
1
3
ACAD_MTEXT_2008_RT
360
F1000B
0
DICTIONARY
5
F10005
330
F10004
100
AcDbDictionary
280
1
281
1
3
ACAD_MTEXT_2008_RT
360
F10006
0
DICTIONARY
5
F1000F
330
F1000E
100
AcDbDictionary
280
1
281
1
3
ACAD_MTEXT_2008_RT
360
F10010
0
DICTIONARY
5
F10028
330
F10027
100
AcDbDictionary
280
1
281
1
3
ACAD_MTEXT_2008_RT
360
F10029
0
DICTIONARY
5
FA7
102
{ACAD_REACTORS
330
13
102
}
330
13
100
AcDbDictionary
281
1
0
DICTIONARY
5
14
330
13
100
AcDbDictionary
281
1
0
DICTIONARY
5
FCF
102
{ACAD_REACTORS
330
13
102
}
330
13
100
AcDbDictionary
281
1
3
Layout1
350
FD1
3
Model
350
FD0
0
DICTIONARY
5
F7A
102
{ACAD_REACTORS
330
13
102
}
330
13
100
AcDbDictionary
281
1
3
ByBlock
350
F83
3
ByLayer
350
F7B
3
Global
350
F8B
0
DICTIONARY
5
FCD
102
{ACAD_REACTORS
330
13
102
}
330
13
100
AcDbDictionary
281
1
3
Standard
350
FCE
0
DICTIONARY
5
16
330
13
100
AcDbDictionary
281
1
3
Standard
350
FAA
0
DICTIONARY
5
17
102
{ACAD_REACTORS
330
13
102
}
330
13
100
AcDbDictionary
281
1
0
ACDBDICTIONARYWDFLT
5
18
102
{ACAD_REACTORS
330
13
102
}
330
13
100
AcDbDictionary
281
1
3
Normal
350
19
100
AcDbDictionaryWithDefault
340
19
0
DICTIONARY
5
FAB
102
{ACAD_REACTORS
330
13
102
}
330
13
100
AcDbDictionary
281
1
3
A0
350
FAC
3
A1
350
FAD
3
A2
350
FAE
3
A3
350
FAF
3
A4
350
FB0
3
A5
350
FB1
3
A6
350
FB2
3
A7
350
FB3
3
A8
350
FB4
3
A9
350
FB5
3
B0
350
FB6
3
B1
350
FB7
3
B2
350
FB8
3
B3
350
FB9
3
B4
350
FBA
3
B5
350
FBB
3
B6
350
FBC
3
B7
350
FBD
3
B8
350
FBE
3
B9
350
FBF
3
C0
350
FC0
3
C1
350
FC1
3
C2
350
FC2
3
C3
350
FC3
3
C4
350
FC4
3
C5
350
FC5
3
C6
350
FC6
3
C7
350
FC7
3
C8
350
FC8
3
C9
350
FC9
3
D0
350
FCA
3
D1
350
FCB
3
D2
350
FCC
0
DICTIONARY
5
FA8
102
{ACAD_REACTORS
330
13
102
}
330
13
100
AcDbDictionary
281
1
3
Standard
350
FA9
0
DICTIONARY
5
F93
102
{ACAD_REACTORS
330
13
102
}
330
13
100
AcDbDictionary
281
1
3
2dWireframe
350
F99
3
3D Hidden
350
F9B
3
3dWireframe
350
F9A
3
Basic
350
F98
3
Brighten
350
F9F
3
ColorChange
350
FA3
3
Conceptual
350
F9C
3
Dim
350
F9E
3
EdgeColorOff
350
FA6
3
Facepattern
350
FA2
3
Flat
350
F94
3
FlatWithEdges
350
F95
3
Gouraud
350
F96
3
GouraudWithEdges
350
F97
3
JitterOff
350
FA4
3
Linepattern
350
FA1
3
OverhangOff
350
FA5
3
Realistic
350
F9D
3
Thicken
350
FA0
0
XRECORD
5
107E
102
{ACAD_REACTORS
330
13
102
}
330
13
100
AcDbXrecord
280
1
90
1
330
FA9
330
F10013
330
F10018
330
F1001D
330
F10022
330
F10009
330
F10004
330
F1000E
330
F10027
0
DICTIONARY
5
FF0
102
{ACAD_REACTORS
330
13
102
}
330
13
100
AcDbDictionary
281
1
3
CANNOSCALE
350
FF3
3
CMLEADERSTYLE
350
FF2
3
CTABLESTYLE
350
FF1
3
DIMASSOC
350
FF6
3
INDEXCTL
350
FF5
3
SORTENTS
350
FF4
3
XCLIPFRAME
350
1078
0
XRECORD
5
107F
102
{ACAD_REACTORS
330
13
102
}
330
13
100
AcDbXrecord
280
1
1
DWGPROPS COOKIE
2

3

4

6

7

8

9

300
=
301
=
302
=
303
=
304
=
305
=
306
=
307
=
308
=
309
=
40
0.0
41
0.0
42
0.0
1

90
0
0
XRECORD
5
F10015
102
{ACAD_REACTORS
330
F10014
102
}
330
F10014
100
AcDbXrecord
280
1
40
48458.0
1
100
0
XRECORD
5
F1001A
102
{ACAD_REACTORS
330
F10019
102
}
330
F10019
100
AcDbXrecord
280
1
40
48458.0
1
102
0
XRECORD
5
F1001F
102
{ACAD_REACTORS
330
F1001E
102
}
330
F1001E
100
AcDbXrecord
280
1
40
48458.0
1
14
0
XRECORD
5
F10024
102
{ACAD_REACTORS
330
F10023
102
}
330
F10023
100
AcDbXrecord
280
1
40
48458.0
1
160
0
XRECORD
5
F1000B
102
{ACAD_REACTORS
330
F1000A
102
}
330
F1000A
100
AcDbXrecord
280
1
40
48458.0
1
R1
0
XRECORD
5
F10006
102
{ACAD_REACTORS
330
F10005
102
}
330
F10005
100
AcDbXrecord
280
1
40
48458.0
1
Ø6
0
XRECORD
5
F10010
102
{ACAD_REACTORS
330
F1000F
102
}
330
F1000F
100
AcDbXrecord
280
1
40
48458.0
1
Ø5.2
0
XRECORD
5
F10029
102
{ACAD_REACTORS
330
F10028
102
}
330
F10028
100
AcDbXrecord
280
1
40
48458.0
1
Ø6
0
LAYOUT
5
FD1
102
{ACAD_XDICTIONARY
360
10A9
102
}
102
{ACAD_REACTORS
330
FCF
102
}
330
FCF
100
AcDbPlotSettings
1

2
Microsoft XPS Document Writer
4

6

40
0.0
41
0.0
42
0.0
43
0.0
44
0.0
45
0.0
46
0.0
47
0.0
48
0.0
49
0.0
140
0.0
141
0.0
142
1.0
143
1.0
70
688
72
0
73
0
74
5
7

75
16
147
1.0
148
0.0
149
0.0
100
AcDbLayout
1
Layout1
70
1
71
1
10
0.0
20
0.0
11
12.0
21
9.0
12
0.0
22
0.0
32
0.0
14
1.000000000000000E+20
24
1.000000000000000E+20
34
1.000000000000000E+20
15
-1.000000000000000E+20
25
-1.000000000000000E+20
35
-1.000000000000000E+20
146
0.0
13
0.0
23
0.0
33
0.0
16
1.0
26
0.0
36
0.0
17
0.0
27
1.0
37
0.0
76
0
330
25D
0
LAYOUT
5
FD0
102
{ACAD_XDICTIONARY
360
10A7
102
}
102
{ACAD_REACTORS
330
FCF
102
}
330
FCF
100
AcDbPlotSettings
1

2
Microsoft XPS Document Writer
4

6

40
0.0
41
0.0
42
0.0
43
0.0
44
0.0
45
0.0
46
0.0
47
0.0
48
0.0
49
0.0
140
0.0
141
0.0
142
1.0
143
1.0
70
1712
72
0
73
0
74
0
7

75
0
147
1.0
148
0.0
149
0.0
100
AcDbLayout
1
Model
70
1
71
0
10
0.0
20
0.0
11
12.0
21
9.0
12
0.0
22
0.0
32
0.0
14
0.0
24
0.0
34
0.0
15
0.0
25
0.0
35
0.0
146
0.0
13
0.0
23
0.0
33
0.0
16
1.0
26
0.0
36
0.0
17
0.0
27
1.0
37
0.0
76
0
330
261
331
26B
0
MATERIAL
5
F83
102
{ACAD_XDICTIONARY
360
F84
102
}
102
{ACAD_REACTORS
330
F7A
102
}
330
F7A
100
AcDbMaterial
1
ByBlock
72
0
43
0.0208333333333333
43
0.0
43
0.0
43
0.0
43
0.0
43
0.0208333333333333
43
0.0
43
0.0
43
0.0
43
0.0
43
1.0
43
0.0
43
0.0
43
0.0
43
0.0
43
1.0
77
0
47
0.0208333333333333
47
0.0
47
0.0
47
0.0
47
0.0
47
0.0208333333333333
47
0.0
47
0.0
47
0.0
47
0.0
47
1.0
47
0.0
47
0.0
47
0.0
47
0.0
47
1.0
171
0
49
0.0208333333333333
49
0.0
49
0.0
49
0.0
49
0.0
49
0.0208333333333333
49
0.0
49
0.0
49
0.0
49
0.0
49
1.0
49
0.0
49
0.0
49
0.0
49
0.0
49
1.0
175
0
142
0.0208333333333333
142
0.0
142
0.0
142
0.0
142
0.0
142
0.0208333333333333
142
0.0
142
0.0
142
0.0
142
0.0
142
1.0
142
0.0
142
0.0
142
0.0
142
0.0
142
1.0
179
0
144
0.0208333333333333
144
0.0
144
0.0
144
0.0
144
0.0
144
0.0208333333333333
144
0.0
144
0.0
144
0.0
144
0.0
144
1.0
144
0.0
144
0.0
144
0.0
144
0.0
144
1.0
147
0.0208333333333333
147
0.0
147
0.0
147
0.0
147
0.0
147
0.0208333333333333
147
0.0
147
0.0
147
0.0
147
0.0
147
1.0
147
0.0
147
0.0
147
0.0
147
0.0
147
1.0
0
MATERIAL
5
F7B
102
{ACAD_XDICTIONARY
360
F7C
102
}
102
{ACAD_REACTORS
330
F7A
102
}
330
F7A
100
AcDbMaterial
1
ByLayer
72
0
43
0.0208333333333333
43
0.0
43
0.0
43
0.0
43
0.0
43
0.0208333333333333
43
0.0
43
0.0
43
0.0
43
0.0
43
1.0
43
0.0
43
0.0
43
0.0
43
0.0
43
1.0
77
0
47
0.0208333333333333
47
0.0
47
0.0
47
0.0
47
0.0
47
0.0208333333333333
47
0.0
47
0.0
47
0.0
47
0.0
47
1.0
47
0.0
47
0.0
47
0.0
47
0.0
47
1.0
171
0
49
0.0208333333333333
49
0.0
49
0.0
49
0.0
49
0.0
49
0.0208333333333333
49
0.0
49
0.0
49
0.0
49
0.0
49
1.0
49
0.0
49
0.0
49
0.0
49
0.0
49
1.0
175
0
142
0.0208333333333333
142
0.0
142
0.0
142
0.0
142
0.0
142
0.0208333333333333
142
0.0
142
0.0
142
0.0
142
0.0
142
1.0
142
0.0
142
0.0
142
0.0
142
0.0
142
1.0
179
0
144
0.0208333333333333
144
0.0
144
0.0
144
0.0
144
0.0
144
0.0208333333333333
144
0.0
144
0.0
144
0.0
144
0.0
144
1.0
144
0.0
144
0.0
144
0.0
144
0.0
144
1.0
147
0.0208333333333333
147
0.0
147
0.0
147
0.0
147
0.0
147
0.0208333333333333
147
0.0
147
0.0
147
0.0
147
0.0
147
1.0
147
0.0
147
0.0
147
0.0
147
0.0
147
1.0
0
MATERIAL
5
F8B
102
{ACAD_XDICTIONARY
360
F8C
102
}
102
{ACAD_REACTORS
330
F7A
102
}
330
F7A
100
AcDbMaterial
1
Global
72
0
43
0.0208333333333333
43
0.0
43
0.0
43
0.0
43
0.0
43
0.0208333333333333
43
0.0
43
0.0
43
0.0
43
0.0
43
1.0
43
0.0
43
0.0
43
0.0
43
0.0
43
1.0
77
0
47
0.0208333333333333
47
0.0
47
0.0
47
0.0
47
0.0
47
0.0208333333333333
47
0.0
47
0.0
47
0.0
47
0.0
47
1.0
47
0.0
47
0.0
47
0.0
47
0.0
47
1.0
171
0
49
0.0208333333333333
49
0.0
49
0.0
49
0.0
49
0.0
49
0.0208333333333333
49
0.0
49
0.0
49
0.0
49
0.0
49
1.0
49
0.0
49
0.0
49
0.0
49
0.0
49
1.0
175
0
142
0.0208333333333333
142
0.0
142
0.0
142
0.0
142
0.0
142
0.0208333333333333
142
0.0
142
0.0
142
0.0
142
0.0
142
1.0
142
0.0
142
0.0
142
0.0
142
0.0
142
1.0
179
0
144
0.0208333333333333
144
0.0
144
0.0
144
0.0
144
0.0
144
0.0208333333333333
144
0.0
144
0.0
144
0.0
144
0.0
144
1.0
144
0.0
144
0.0
144
0.0
144
0.0
144
1.0
147
0.0208333333333333
147
0.0
147
0.0
147
0.0
147
0.0
147
0.0208333333333333
147
0.0
147
0.0
147
0.0
147
0.0
147
1.0
147
0.0
147
0.0
147
0.0
147
0.0
147
1.0
0
MLEADERSTYLE
5
FCE
102
{ACAD_REACTORS
330
FCD
102
}
330
FCD
100
AcDbMLeaderStyle
170
2
171
1
172
0
90
2
40
0.0
41
0.0
173
1
91
-1056964608
340
256
92
-2
290
1
42
0.09
291
1
43
0.36
3
Standard
44
0.18
300

342
253
174
1
178
6
175
1
176
0
93
-1056964608
45
0.18
292
0
297
0
46
0.18
94
-1056964608
47
1.0
49
1.0
140
1.0
293
1
141
0.0
294
1
177
0
142
1.0
295
0
296
0
143
0.125
1001
ACAD_MLEADERVER
1070
2
0
MLINESTYLE
5
FAA
102
{ACAD_REACTORS
330
16
102
}
330
16
100
AcDbMlineStyle
2
STANDARD
70
0
3

62
256
51
90.0
52
90.0
71
2
49
0.5
62
256
6
BYLAYER
49
-0.5
62
256
6
BYLAYER
0
ACDBPLACEHOLDER
5
19
102
{ACAD_REACTORS
330
18
102
}
330
18
0
SCALE
5
FAC
102
{ACAD_REACTORS
330
FAB
102
}
330
FAB
100
AcDbScale
70
0
300
1:1
140
1.0
141
1.0
290
1
0
SCALE
5
FAD
102
{ACAD_REACTORS
330
FAB
102
}
330
FAB
100
AcDbScale
70
0
300
1:2
140
1.0
141
2.0
290
0
0
SCALE
5
FAE
102
{ACAD_REACTORS
330
FAB
102
}
330
FAB
100
AcDbScale
70
0
300
1:4
140
1.0
141
4.0
290
0
0
SCALE
5
FAF
102
{ACAD_REACTORS
330
FAB
102
}
330
FAB
100
AcDbScale
70
0
300
1:5
140
1.0
141
5.0
290
0
0
SCALE
5
FB0
102
{ACAD_REACTORS
330
FAB
102
}
330
FAB
100
AcDbScale
70
0
300
1:8
140
1.0
141
8.0
290
0
0
SCALE
5
FB1
102
{ACAD_REACTORS
330
FAB
102
}
330
FAB
100
AcDbScale
70
0
300
1:10
140
1.0
141
10.0
290
0
0
SCALE
5
FB2
102
{ACAD_REACTORS
330
FAB
102
}
330
FAB
100
AcDbScale
70
0
300
1:16
140
1.0
141
16.0
290
0
0
SCALE
5
FB3
102
{ACAD_REACTORS
330
FAB
102
}
330
FAB
100
AcDbScale
70
0
300
1:20
140
1.0
141
20.0
290
0
0
SCALE
5
FB4
102
{ACAD_REACTORS
330
FAB
102
}
330
FAB
100
AcDbScale
70
0
300
1:30
140
1.0
141
30.0
290
0
0
SCALE
5
FB5
102
{ACAD_REACTORS
330
FAB
102
}
330
FAB
100
AcDbScale
70
0
300
1:40
140
1.0
141
40.0
290
0
0
SCALE
5
FB6
102
{ACAD_REACTORS
330
FAB
102
}
330
FAB
100
AcDbScale
70
0
300
1:50
140
1.0
141
50.0
290
0
0
SCALE
5
FB7
102
{ACAD_REACTORS
330
FAB
102
}
330
FAB
100
AcDbScale
70
0
300
1:100
140
1.0
141
100.0
290
0
0
SCALE
5
FB8
102
{ACAD_REACTORS
330
FAB
102
}
330
FAB
100
AcDbScale
70
0
300
2:1
140
2.0
141
1.0
290
0
0
SCALE
5
FB9
102
{ACAD_REACTORS
330
FAB
102
}
330
FAB
100
AcDbScale
70
0
300
4:1
140
4.0
141
1.0
290
0
0
SCALE
5
FBA
102
{ACAD_REACTORS
330
FAB
102
}
330
FAB
100
AcDbScale
70
0
300
8:1
140
8.0
141
1.0
290
0
0
SCALE
5
FBB
102
{ACAD_REACTORS
330
FAB
102
}
330
FAB
100
AcDbScale
70
0
300
10:1
140
10.0
141
1.0
290
0
0
SCALE
5
FBC
102
{ACAD_REACTORS
330
FAB
102
}
330
FAB
100
AcDbScale
70
0
300
100:1
140
100.0
141
1.0
290
0
0
SCALE
5
FBD
102
{ACAD_REACTORS
330
FAB
102
}
330
FAB
100
AcDbScale
70
0
300
1/128" = 1'-0"
140
0.0078125
141
12.0
290
0
0
SCALE
5
FBE
102
{ACAD_REACTORS
330
FAB
102
}
330
FAB
100
AcDbScale
70
0
300
1/64" = 1'-0"
140
0.015625
141
12.0
290
0
0
SCALE
5
FBF
102
{ACAD_REACTORS
330
FAB
102
}
330
FAB
100
AcDbScale
70
0
300
1/32" = 1'-0"
140
0.03125
141
12.0
290
0
0
SCALE
5
FC0
102
{ACAD_REACTORS
330
FAB
102
}
330
FAB
100
AcDbScale
70
0
300
1/16" = 1'-0"
140
0.0625
141
12.0
290
0
0
SCALE
5
FC1
102
{ACAD_REACTORS
330
FAB
102
}
330
FAB
100
AcDbScale
70
0
300
3/32" = 1'-0"
140
0.09375
141
12.0
290
0
0
SCALE
5
FC2
102
{ACAD_REACTORS
330
FAB
102
}
330
FAB
100
AcDbScale
70
0
300
1/8" = 1'-0"
140
0.125
141
12.0
290
0
0
SCALE
5
FC3
102
{ACAD_REACTORS
330
FAB
102
}
330
FAB
100
AcDbScale
70
0
300
3/16" = 1'-0"
140
0.1875
141
12.0
290
0
0
SCALE
5
FC4
102
{ACAD_REACTORS
330
FAB
102
}
330
FAB
100
AcDbScale
70
0
300
1/4" = 1'-0"
140
0.25
141
12.0
290
0
0
SCALE
5
FC5
102
{ACAD_REACTORS
330
FAB
102
}
330
FAB
100
AcDbScale
70
0
300
3/8" = 1'-0"
140
0.375
141
12.0
290
0
0
SCALE
5
FC6
102
{ACAD_REACTORS
330
FAB
102
}
330
FAB
100
AcDbScale
70
0
300
1/2" = 1'-0"
140
0.5
141
12.0
290
0
0
SCALE
5
FC7
102
{ACAD_REACTORS
330
FAB
102
}
330
FAB
100
AcDbScale
70
0
300
3/4" = 1'-0"
140
0.75
141
12.0
290
0
0
SCALE
5
FC8
102
{ACAD_REACTORS
330
FAB
102
}
330
FAB
100
AcDbScale
70
0
300
1" = 1'-0"
140
1.0
141
12.0
290
0
0
SCALE
5
FC9
102
{ACAD_REACTORS
330
FAB
102
}
330
FAB
100
AcDbScale
70
0
300
1-1/2" = 1'-0"
140
1.5
141
12.0
290
0
0
SCALE
5
FCA
102
{ACAD_REACTORS
330
FAB
102
}
330
FAB
100
AcDbScale
70
0
300
3" = 1'-0"
140
3.0
141
12.0
290
0
0
SCALE
5
FCB
102
{ACAD_REACTORS
330
FAB
102
}
330
FAB
100
AcDbScale
70
0
300
6" = 1'-0"
140
6.0
141
12.0
290
0
0
SCALE
5
FCC
102
{ACAD_REACTORS
330
FAB
102
}
330
FAB
100
AcDbScale
70
0
300
1'-0" = 1'-0"
140
12.0
141
12.0
290
0
0
TABLESTYLE
5
FA9
102
{ACAD_XDICTIONARY
360
FF8
102
}
102
{ACAD_REACTORS
330
FA8
102
}
330
FA8
100
AcDbTableStyle
3
Standard
70
0
71
0
40
0.06
41
0.06
280
0
281
0
7
Standard
140
0.18
170
2
62
0
63
7
283
0
274
-2
284
1
64
0
275
-2
285
1
65
0
276
-2
286
1
66
0
277
-2
287
1
67
0
278
-2
288
1
68
0
279
-2
289
1
69
0
7
Standard
140
0.25
170
5
62
0
63
7
283
0
274
-2
284
1
64
0
275
-2
285
1
65
0
276
-2
286
1
66
0
277
-2
287
1
67
0
278
-2
288
1
68
0
279
-2
289
1
69
0
7
Standard
140
0.18
170
5
62
0
63
7
283
0
274
-2
284
1
64
0
275
-2
285
1
65
0
276
-2
286
1
66
0
277
-2
287
1
67
0
278
-2
288
1
68
0
279
-2
289
1
69
0
0
VISUALSTYLE
5
F99
102
{ACAD_XDICTIONARY
360
108A
102
}
102
{ACAD_REACTORS
330
F93
102
}
330
F93
100
AcDbVisualStyle
2

70
4
71
0
72
2
73
0
90
0
40
-0.6
41
-30.0
62
5
63
7
74
1
91
4
64
7
65
257
75
1
175
1
42
1.0
92
0
66
257
43
1.0
76
1
77
6
78
2
67
7
79
5
170
0
171
0
290
0
174
0
93
1
44
0.0
173
0
291
0
45
0.0
1001
ACAD
1000
AcDbSavedByObjectVersion
1070
0
0
VISUALSTYLE
5
F9B
102
{ACAD_XDICTIONARY
360
108E
102
}
102
{ACAD_REACTORS
330
F93
102
}
330
F93
100
AcDbVisualStyle
2

70
6
71
1
72
2
73
2
90
0
40
-0.6
41
-30.0
62
5
63
7
74
2
91
2
64
7
65
257
75
2
175
1
42
179.0
92
0
66
257
43
1.0
76
1
77
6
78
2
67
7
79
3
170
0
171
0
290
0
174
0
93
1
44
0.0
173
0
291
0
45
0.0
1001
ACAD
1000
AcDbSavedByObjectVersion
1070
0
0
VISUALSTYLE
5
F9A
102
{ACAD_XDICTIONARY
360
108C
102
}
102
{ACAD_REACTORS
330
F93
102
}
330
F93
100
AcDbVisualStyle
2

70
5
71
0
72
2
73
0
90
0
40
-0.6
41
-30.0
62
5
63
7
74
1
91
4
64
7
65
257
75
1
175
1
42
1.0
92
0
66
257
43
1.0
76
1
77
6
78
2
67
7
79
5
170
0
171
0
290
0
174
0
93
1
44
0.0
173
0
291
0
45
0.0
1001
ACAD
1000
AcDbSavedByObjectVersion
1070
0
0
VISUALSTYLE
5
F98
102
{ACAD_XDICTIONARY
360
1088
102
}
102
{ACAD_REACTORS
330
F93
102
}
330
F93
100
AcDbVisualStyle
2

70
7
71
1
72
0
73
1
90
0
40
-0.6
41
-30.0
62
5
63
7
74
0
91
4
64
7
65
257
75
1
175
1
42
1.0
92
8
66
7
43
1.0
76
1
77
6
78
2
67
7
79
5
170
0
171
0
290
0
174
0
93
1
44
0.0
173
0
291
1
45
0.0
1001
ACAD
1000
AcDbSavedByObjectVersion
1070
0
0
VISUALSTYLE
5
F9F
102
{ACAD_XDICTIONARY
360
1096
102
}
102
{ACAD_REACTORS
330
F93
102
}
330
F93
100
AcDbVisualStyle
2

70
12
71
2
72
2
73
0
90
0
40
-0.6
41
-30.0
62
5
63
7
74
1
91
4
64
7
65
257
75
1
175
1
42
1.0
92
8
66
7
43
1.0
76
1
77
6
78
2
67
7
79
5
170
0
171
0
290
0
174
0
93
1
44
50.0
173
0
291
1
45
0.0
1001
ACAD
1000
AcDbSavedByObjectVersion
1070
0
0
VISUALSTYLE
5
FA3
102
{ACAD_XDICTIONARY
360
109E
102
}
102
{ACAD_REACTORS
330
F93
102
}
330
F93
100
AcDbVisualStyle
2

70
16
71
2
72
2
73
3
90
0
40
-0.6
41
-30.0
62
5
63
8
74
1
91
4
64
7
65
257
75
1
175
1
42
1.0
92
8
66
8
43
1.0
76
1
77
6
78
2
67
7
79
5
170
0
171
0
290
0
174
0
93
1
44
0.0
173
0
291
1
45
0.0
1001
ACAD
1000
AcDbSavedByObjectVersion
1070
0
0
VISUALSTYLE
5
F9C
102
{ACAD_XDICTIONARY
360
1090
102
}
102
{ACAD_REACTORS
330
F93
102
}
330
F93
100
AcDbVisualStyle
2

70
9
71
3
72
2
73
0
90
0
40
-0.6
41
-30.0
62
5
63
7
74
2
91
2
64
7
65
257
75
1
175
1
42
179.0
92
8
66
7
43
1.0
76
1
77
6
78
2
67
7
79
3
170
0
171
0
290
0
174
0
93
1
44
0.0
173
0
291
0
45
0.0
1001
ACAD
1000
AcDbSavedByObjectVersion
1070
0
0
VISUALSTYLE
5
F9E
102
{ACAD_XDICTIONARY
360
1094
102
}
102
{ACAD_REACTORS
330
F93
102
}
330
F93
100
AcDbVisualStyle
2

70
11
71
2
72
2
73
0
90
0
40
-0.6
41
-30.0
62
5
63
7
74
1
91
4
64
7
65
257
75
1
175
1
42
1.0
92
8
66
7
43
1.0
76
1
77
6
78
2
67
7
79
5
170
0
171
0
290
0
174
0
93
1
44
-50.0
173
0
291
1
45
0.0
1001
ACAD
1000
AcDbSavedByObjectVersion
1070
0
0
VISUALSTYLE
5
FA6
102
{ACAD_XDICTIONARY
360
10A4
102
}
102
{ACAD_REACTORS
330
F93
102
}
330
F93
100
AcDbVisualStyle
2

70
22
71
2
72
2
73
0
90
0
40
-0.6
41
-30.0
62
5
63
7
74
1
91
4
64
7
65
257
75
1
175
1
42
1.0
92
8
66
7
43
1.0
76
1
77
6
78
2
67
7
79
5
170
0
171
0
290
0
174
0
93
1
44
0.0
173
0
291
1
45
0.0
1001
ACAD
1000
AcDbSavedByObjectVersion
1070
0
0
VISUALSTYLE
5
FA2
102
{ACAD_XDICTIONARY
360
109C
102
}
102
{ACAD_REACTORS
330
F93
102
}
330
F93
100
AcDbVisualStyle
2

70
15
71
2
72
2
73
0
90
0
40
-0.6
41
-30.0
62
5
63
7
74
1
91
4
64
7
65
257
75
1
175
1
42
1.0
92
8
66
7
43
1.0
76
1
77
6
78
2
67
7
79
5
170
0
171
0
290
0
174
0
93
1
44
0.0
173
0
291
1
45
0.0
1001
ACAD
1000
AcDbSavedByObjectVersion
1070
0
0
VISUALSTYLE
5
F94
102
{ACAD_XDICTIONARY
360
1080
102
}
102
{ACAD_REACTORS
330
F93
102
}
330
F93
100
AcDbVisualStyle
2

70
0
71
2
72
1
73
1
90
2
40
-0.6
41
30.0
62
5
63
7
74
0
91
4
64
7
65
257
75
1
175
1
42
1.0
92
8
66
7
43
1.0
76
1
77
6
78
2
67
7
79
5
170
0
171
0
290
0
174
0
93
13
44
0.0
173
0
291
1
45
0.0
1001
ACAD
1000
AcDbSavedByObjectVersion
1070
0
0
VISUALSTYLE
5
F95
102
{ACAD_XDICTIONARY
360
1082
102
}
102
{ACAD_REACTORS
330
F93
102
}
330
F93
100
AcDbVisualStyle
2

70
1
71
2
72
1
73
1
90
2
40
-0.6
41
30.0
62
5
63
7
74
1
91
4
64
7
65
257
75
1
175
1
42
1.0
92
0
66
257
43
1.0
76
1
77
6
78
2
67
7
79
5
170
0
171
0
290
0
174
0
93
13
44
0.0
173
0
291
1
45
0.0
1001
ACAD
1000
AcDbSavedByObjectVersion
1070
0
0
VISUALSTYLE
5
F96
102
{ACAD_XDICTIONARY
360
1084
102
}
102
{ACAD_REACTORS
330
F93
102
}
330
F93
100
AcDbVisualStyle
2

70
2
71
2
72
2
73
1
90
2
40
-0.6
41
30.0
62
5
63
7
74
0
91
4
64
7
65
257
75
1
175
1
42
1.0
92
0
66
7
43
1.0
76
1
77
6
78
2
67
7
79
5
170
0
171
0
290
0
174
0
93
13
44
0.0
173
0
291
1
45
0.0
1001
ACAD
1000
AcDbSavedByObjectVersion
1070
0
0
VISUALSTYLE
5
F97
102
{ACAD_XDICTIONARY
360
1086
102
}
102
{ACAD_REACTORS
330
F93
102
}
330
F93
100
AcDbVisualStyle
2

70
3
71
2
72
2
73
1
90
2
40
-0.6
41
30.0
62
5
63
7
74
1
91
4
64
7
65
257
75
1
175
1
42
1.0
92
0
66
257
43
1.0
76
1
77
6
78
2
67
7
79
5
170
0
171
0
290
0
174
0
93
13
44
0.0
173
0
291
1
45
0.0
1001
ACAD
1000
AcDbSavedByObjectVersion
1070
0
0
VISUALSTYLE
5
FA4
102
{ACAD_XDICTIONARY
360
10A0
102
}
102
{ACAD_REACTORS
330
F93
102
}
330
F93
100
AcDbVisualStyle
2

70
20
71
2
72
2
73
0
90
0
40
-0.6
41
-30.0
62
5
63
7
74
1
91
4
64
7
65
257
75
1
175
1
42
1.0
92
10
66
7
43
1.0
76
1
77
6
78
2
67
7
79
5
170
0
171
0
290
0
174
0
93
1
44
0.0
173
0
291
1
45
0.0
1001
ACAD
1000
AcDbSavedByObjectVersion
1070
0
0
VISUALSTYLE
5
FA1
102
{ACAD_XDICTIONARY
360
109A
102
}
102
{ACAD_REACTORS
330
F93
102
}
330
F93
100
AcDbVisualStyle
2

70
14
71
2
72
2
73
0
90
0
40
-0.6
41
-30.0
62
5
63
7
74
1
91
4
64
7
65
257
75
7
175
7
42
1.0
92
8
66
7
43
1.0
76
1
77
6
78
2
67
7
79
5
170
0
171
0
290
0
174
0
93
1
44
0.0
173
0
291
1
45
0.0
1001
ACAD
1000
AcDbSavedByObjectVersion
1070
0
0
VISUALSTYLE
5
FA5
102
{ACAD_XDICTIONARY
360
10A2
102
}
102
{ACAD_REACTORS
330
F93
102
}
330
F93
100
AcDbVisualStyle
2

70
21
71
2
72
2
73
0
90
0
40
-0.6
41
-30.0
62
5
63
7
74
1
91
4
64
7
65
257
75
1
175
1
42
1.0
92
9
66
7
43
1.0
76
1
77
6
78
2
67
7
79
5
170
0
171
0
290
0
174
0
93
1
44
0.0
173
0
291
1
45
0.0
1001
ACAD
1000
AcDbSavedByObjectVersion
1070
0
0
VISUALSTYLE
5
F9D
102
{ACAD_XDICTIONARY
360
1092
102
}
102
{ACAD_REACTORS
330
F93
102
}
330
F93
100
AcDbVisualStyle
2

70
8
71
2
72
2
73
0
90
0
40
-0.6
41
-30.0
62
5
63
7
74
1
91
0
64
7
65
257
75
1
175
1
42
1.0
92
8
66
8
43
1.0
76
1
77
6
78
2
67
7
79
5
170
0
171
0
290
0
174
0
93
13
44
0.0
173
0
291
0
45
0.0
1001
ACAD
1000
AcDbSavedByObjectVersion
1070
0
0
VISUALSTYLE
5
FA0
102
{ACAD_XDICTIONARY
360
1098
102
}
102
{ACAD_REACTORS
330
F93
102
}
330
F93
100
AcDbVisualStyle
2

70
13
71
2
72
2
73
0
90
0
40
-0.6
41
-30.0
62
5
63
7
74
1
91
4
64
7
65
257
75
1
175
1
42
1.0
92
12
66
7
43
1.0
76
1
77
6
78
2
67
7
79
5
170
0
171
0
290
0
174
0
93
1
44
0.0
173
0
291
1
45
0.0
1001
ACAD
1000
AcDbSavedByObjectVersion
1070
0
0
DICTIONARYVAR
5
FF3
102
{ACAD_REACTORS
330
FF0
102
}
330
FF0
100
DictionaryVariables
280
0
1
1:1
0
DICTIONARYVAR
5
FF2
102
{ACAD_REACTORS
330
FF0
102
}
330
FF0
100
DictionaryVariables
280
0
1
STANDARD
0
DICTIONARYVAR
5
FF1
102
{ACAD_REACTORS
330
FF0
102
}
330
FF0
100
DictionaryVariables
280
0
1
STANDARD
0
DICTIONARYVAR
5
FF6
102
{ACAD_REACTORS
330
FF0
102
}
330
FF0
100
DictionaryVariables
280
0
1
1
0
DICTIONARYVAR
5
FF5
102
{ACAD_REACTORS
330
FF0
102
}
330
FF0
100
DictionaryVariables
280
0
1
0
0
DICTIONARYVAR
5
FF4
102
{ACAD_REACTORS
330
FF0
102
}
330
FF0
100
DictionaryVariables
280
0
1
127
0
DICTIONARYVAR
5
1078
102
{ACAD_REACTORS
330
FF0
102
}
330
FF0
100
DictionaryVariables
280
0
1
2
0
DICTIONARY
5
10A9
330
FD1
100
AcDbDictionary
280
1
281
1
3
ACAD_XREC_ROUNDTRIP
360
10AA
0
DICTIONARY
5
10A7
330
FD0
100
AcDbDictionary
280
1
281
1
3
ACAD_XREC_ROUNDTRIP
360
10A8
0
DICTIONARY
5
F84
330
F83
100
AcDbDictionary
280
1
281
1
3
ACAD_XREC_ROUNDTRIP
360
FFF
3
BUMPTILE
360
F86
3
DIFFUSETILE
360
F85
3
OPACITYTILE
360
F89
3
REFLECTIONTILE
360
F88
3
REFRACTIONTILE
360
F8A
3
SPECULARTILE
360
F87
0
DICTIONARY
5
F7C
330
F7B
100
AcDbDictionary
280
1
281
1
3
ACAD_XREC_ROUNDTRIP
360
FFE
3
BUMPTILE
360
F7E
3
DIFFUSETILE
360
F7D
3
OPACITYTILE
360
F81
3
REFLECTIONTILE
360
F80
3
REFRACTIONTILE
360
F82
3
SPECULARTILE
360
F7F
0
DICTIONARY
5
F8C
330
F8B
100
AcDbDictionary
280
1
281
1
3
ACAD_XREC_ROUNDTRIP
360
1000
3
BUMPTILE
360
F8E
3
DIFFUSETILE
360
F8D
3
OPACITYTILE
360
F91
3
REFLECTIONTILE
360
F90
3
REFRACTIONTILE
360
F92
3
SPECULARTILE
360
F8F
0
DICTIONARY
5
FF8
330
FA9
100
AcDbDictionary
280
1
281
1
3
ACAD_ROUNDTRIP_2008_TABLESTYLE_CELLSTYLEMAP
360
1079
3
ACAD_XREC_ROUNDTRIP
360
10A6
0
DICTIONARY
5
108A
330
F99
100
AcDbDictionary
280
1
281
1
3
ACAD_XREC_ROUNDTRIP
360
108B
0
DICTIONARY
5
108E
330
F9B
100
AcDbDictionary
280
1
281
1
3
ACAD_XREC_ROUNDTRIP
360
108F
0
DICTIONARY
5
108C
330
F9A
100
AcDbDictionary
280
1
281
1
3
ACAD_XREC_ROUNDTRIP
360
108D
0
DICTIONARY
5
1088
330
F98
100
AcDbDictionary
280
1
281
1
3
ACAD_XREC_ROUNDTRIP
360
1089
0
DICTIONARY
5
1096
330
F9F
100
AcDbDictionary
280
1
281
1
3
ACAD_XREC_ROUNDTRIP
360
1097
0
DICTIONARY
5
109E
330
FA3
100
AcDbDictionary
280
1
281
1
3
ACAD_XREC_ROUNDTRIP
360
109F
0
DICTIONARY
5
1090
330
F9C
100
AcDbDictionary
280
1
281
1
3
ACAD_XREC_ROUNDTRIP
360
1091
0
DICTIONARY
5
1094
330
F9E
100
AcDbDictionary
280
1
281
1
3
ACAD_XREC_ROUNDTRIP
360
1095
0
DICTIONARY
5
10A4
330
FA6
100
AcDbDictionary
280
1
281
1
3
ACAD_XREC_ROUNDTRIP
360
10A5
0
DICTIONARY
5
109C
330
FA2
100
AcDbDictionary
280
1
281
1
3
ACAD_XREC_ROUNDTRIP
360
109D
0
DICTIONARY
5
1080
330
F94
100
AcDbDictionary
280
1
281
1
3
ACAD_XREC_ROUNDTRIP
360
1081
0
DICTIONARY
5
1082
330
F95
100
AcDbDictionary
280
1
281
1
3
ACAD_XREC_ROUNDTRIP
360
1083
0
DICTIONARY
5
1084
330
F96
100
AcDbDictionary
280
1
281
1
3
ACAD_XREC_ROUNDTRIP
360
1085
0
DICTIONARY
5
1086
330
F97
100
AcDbDictionary
280
1
281
1
3
ACAD_XREC_ROUNDTRIP
360
1087
0
DICTIONARY
5
10A0
330
FA4
100
AcDbDictionary
280
1
281
1
3
ACAD_XREC_ROUNDTRIP
360
10A1
0
DICTIONARY
5
109A
330
FA1
100
AcDbDictionary
280
1
281
1
3
ACAD_XREC_ROUNDTRIP
360
109B
0
DICTIONARY
5
10A2
330
FA5
100
AcDbDictionary
280
1
281
1
3
ACAD_XREC_ROUNDTRIP
360
10A3
0
DICTIONARY
5
1092
330
F9D
100
AcDbDictionary
280
1
281
1
3
ACAD_XREC_ROUNDTRIP
360
1093
0
DICTIONARY
5
1098
330
FA0
100
AcDbDictionary
280
1
281
1
3
ACAD_XREC_ROUNDTRIP
360
1099
0
XRECORD
5
10AA
102
{ACAD_REACTORS
330
10A9
102
}
330
10A9
100
AcDbXrecord
280
1
102
SHADEPLOT
70
0
102
SHADEPLOTRESLEVEL
70
2
102
SHADEPLOTCUSTOMDPI
70
300
0
XRECORD
5
10A8
102
{ACAD_REACTORS
330
10A7
102
}
330
10A7
100
AcDbXrecord
280
1
102
SHADEPLOT
70
0
102
SHADEPLOTRESLEVEL
70
2
102
SHADEPLOTCUSTOMDPI
70
300
0
XRECORD
5
FFF
102
{ACAD_REACTORS
330
F84
102
}
330
F84
100
AcDbXrecord
280
1
102
MATERIAL
148
0.0
149
0.0
149
0.0
93
0
94
127
282
0
72
0
77
0
171
0
175
0
179
0
273
0
0
XRECORD
5
F86
102
{ACAD_REACTORS
330
F84
102
}
330
F84
100
AcDbXrecord
280
1
270
1
271
1
0
XRECORD
5
F85
102
{ACAD_REACTORS
330
F84
102
}
330
F84
100
AcDbXrecord
280
1
270
1
271
1
0
XRECORD
5
F89
102
{ACAD_REACTORS
330
F84
102
}
330
F84
100
AcDbXrecord
280
1
270
1
271
1
0
XRECORD
5
F88
102
{ACAD_REACTORS
330
F84
102
}
330
F84
100
AcDbXrecord
280
1
270
1
271
1
0
XRECORD
5
F8A
102
{ACAD_REACTORS
330
F84
102
}
330
F84
100
AcDbXrecord
280
1
270
1
271
1
0
XRECORD
5
F87
102
{ACAD_REACTORS
330
F84
102
}
330
F84
100
AcDbXrecord
280
1
270
1
271
1
0
XRECORD
5
FFE
102
{ACAD_REACTORS
330
F7C
102
}
330
F7C
100
AcDbXrecord
280
1
102
MATERIAL
148
0.0
149
0.0
149
0.0
93
0
94
127
282
0
72
0
77
0
171
0
175
0
179
0
273
0
0
XRECORD
5
F7E
102
{ACAD_REACTORS
330
F7C
102
}
330
F7C
100
AcDbXrecord
280
1
270
1
271
1
0
XRECORD
5
F7D
102
{ACAD_REACTORS
330
F7C
102
}
330
F7C
100
AcDbXrecord
280
1
270
1
271
1
0
XRECORD
5
F81
102
{ACAD_REACTORS
330
F7C
102
}
330
F7C
100
AcDbXrecord
280
1
270
1
271
1
0
XRECORD
5
F80
102
{ACAD_REACTORS
330
F7C
102
}
330
F7C
100
AcDbXrecord
280
1
270
1
271
1
0
XRECORD
5
F82
102
{ACAD_REACTORS
330
F7C
102
}
330
F7C
100
AcDbXrecord
280
1
270
1
271
1
0
XRECORD
5
F7F
102
{ACAD_REACTORS
330
F7C
102
}
330
F7C
100
AcDbXrecord
280
1
270
1
271
1
0
XRECORD
5
1000
102
{ACAD_REACTORS
330
F8C
102
}
330
F8C
100
AcDbXrecord
280
1
102
MATERIAL
148
0.0
149
0.0
149
0.0
93
0
94
127
282
0
72
0
77
0
171
0
175
0
179
0
273
0
0
XRECORD
5
F8E
102
{ACAD_REACTORS
330
F8C
102
}
330
F8C
100
AcDbXrecord
280
1
270
1
271
1
0
XRECORD
5
F8D
102
{ACAD_REACTORS
330
F8C
102
}
330
F8C
100
AcDbXrecord
280
1
270
1
271
1
0
XRECORD
5
F91
102
{ACAD_REACTORS
330
F8C
102
}
330
F8C
100
AcDbXrecord
280
1
270
1
271
1
0
XRECORD
5
F90
102
{ACAD_REACTORS
330
F8C
102
}
330
F8C
100
AcDbXrecord
280
1
270
1
271
1
0
XRECORD
5
F92
102
{ACAD_REACTORS
330
F8C
102
}
330
F8C
100
AcDbXrecord
280
1
270
1
271
1
0
XRECORD
5
F8F
102
{ACAD_REACTORS
330
F8C
102
}
330
F8C
100
AcDbXrecord
280
1
270
1
271
1
0
CELLSTYLEMAP
5
1079
102
{ACAD_REACTORS
330
FF8
102
}
330
FF8
100
AcDbCellStyleMap
90
3
300
CELLSTYLE
1
TABLEFORMAT_BEGIN
90
5
170
1
91
0
92
32768
62
257
93
1
300
CONTENTFORMAT
1
CONTENTFORMAT_BEGIN
90
0
91
0
92
512
93
0
300

40
0.0
140
1.0
94
5
62
0
340
253
144
0.25
309
CONTENTFORMAT_END
171
1
301
MARGIN
1
CELLMARGIN_BEGIN
40
0.06
40
0.06
40
0.06
40
0.06
40
0.18
40
0.18
309
CELLMARGIN_END
94
6
95
1
302
GRIDFORMAT
1
GRIDFORMAT_BEGIN
90
0
91
1
62
0
92
-2
340
0
93
0
40
0.045
309
GRIDFORMAT_END
95
2
302
GRIDFORMAT
1
GRIDFORMAT_BEGIN
90
0
91
1
62
0
92
-2
340
0
93
0
40
0.045
309
GRIDFORMAT_END
95
4
302
GRIDFORMAT
1
GRIDFORMAT_BEGIN
90
0
91
1
62
0
92
-2
340
0
93
0
40
0.045
309
GRIDFORMAT_END
95
8
302
GRIDFORMAT
1
GRIDFORMAT_BEGIN
90
0
91
1
62
0
92
-2
340
0
93
0
40
0.045
309
GRIDFORMAT_END
95
16
302
GRIDFORMAT
1
GRIDFORMAT_BEGIN
90
0
91
1
62
0
92
-2
340
0
93
0
40
0.045
309
GRIDFORMAT_END
95
32
302
GRIDFORMAT
1
GRIDFORMAT_BEGIN
90
0
91
1
62
0
92
-2
340
0
93
0
40
0.045
309
GRIDFORMAT_END
309
TABLEFORMAT_END
1
CELLSTYLE_BEGIN
90
1
91
1
300
_TITLE
309
CELLSTYLE_END
300
CELLSTYLE
1
TABLEFORMAT_BEGIN
90
5
170
1
91
0
92
0
62
257
93
1
300
CONTENTFORMAT
1
CONTENTFORMAT_BEGIN
90
0
91
0
92
512
93
0
300

40
0.0
140
1.0
94
5
62
0
340
253
144
0.18
309
CONTENTFORMAT_END
171
1
301
MARGIN
1
CELLMARGIN_BEGIN
40
0.06
40
0.06
40
0.06
40
0.06
40
0.18
40
0.18
309
CELLMARGIN_END
94
6
95
1
302
GRIDFORMAT
1
GRIDFORMAT_BEGIN
90
0
91
1
62
0
92
-2
340
0
93
0
40
0.045
309
GRIDFORMAT_END
95
2
302
GRIDFORMAT
1
GRIDFORMAT_BEGIN
90
0
91
1
62
0
92
-2
340
0
93
0
40
0.045
309
GRIDFORMAT_END
95
4
302
GRIDFORMAT
1
GRIDFORMAT_BEGIN
90
0
91
1
62
0
92
-2
340
0
93
0
40
0.045
309
GRIDFORMAT_END
95
8
302
GRIDFORMAT
1
GRIDFORMAT_BEGIN
90
0
91
1
62
0
92
-2
340
0
93
0
40
0.045
309
GRIDFORMAT_END
95
16
302
GRIDFORMAT
1
GRIDFORMAT_BEGIN
90
0
91
1
62
0
92
-2
340
0
93
0
40
0.045
309
GRIDFORMAT_END
95
32
302
GRIDFORMAT
1
GRIDFORMAT_BEGIN
90
0
91
1
62
0
92
-2
340
0
93
0
40
0.045
309
GRIDFORMAT_END
309
TABLEFORMAT_END
1
CELLSTYLE_BEGIN
90
2
91
1
300
_HEADER
309
CELLSTYLE_END
300
CELLSTYLE
1
TABLEFORMAT_BEGIN
90
5
170
1
91
0
92
0
62
257
93
1
300
CONTENTFORMAT
1
CONTENTFORMAT_BEGIN
90
0
91
0
92
512
93
0
300

40
0.0
140
1.0
94
2
62
0
340
253
144
0.18
309
CONTENTFORMAT_END
171
1
301
MARGIN
1
CELLMARGIN_BEGIN
40
0.06
40
0.06
40
0.06
40
0.06
40
0.18
40
0.18
309
CELLMARGIN_END
94
6
95
1
302
GRIDFORMAT
1
GRIDFORMAT_BEGIN
90
0
91
1
62
0
92
-2
340
0
93
0
40
0.045
309
GRIDFORMAT_END
95
2
302
GRIDFORMAT
1
GRIDFORMAT_BEGIN
90
0
91
1
62
0
92
-2
340
0
93
0
40
0.045
309
GRIDFORMAT_END
95
4
302
GRIDFORMAT
1
GRIDFORMAT_BEGIN
90
0
91
1
62
0
92
-2
340
0
93
0
40
0.045
309
GRIDFORMAT_END
95
8
302
GRIDFORMAT
1
GRIDFORMAT_BEGIN
90
0
91
1
62
0
92
-2
340
0
93
0
40
0.045
309
GRIDFORMAT_END
95
16
302
GRIDFORMAT
1
GRIDFORMAT_BEGIN
90
0
91
1
62
0
92
-2
340
0
93
0
40
0.045
309
GRIDFORMAT_END
95
32
302
GRIDFORMAT
1
GRIDFORMAT_BEGIN
90
0
91
1
62
0
92
-2
340
0
93
0
40
0.045
309
GRIDFORMAT_END
309
TABLEFORMAT_END
1
CELLSTYLE_BEGIN
90
3
91
2
300
_DATA
309
CELLSTYLE_END
0
XRECORD
5
10A6
102
{ACAD_REACTORS
330
FF8
102
}
330
FF8
100
AcDbXrecord
280
1
102
ACAD_ROUNDTRIP_PRE2007_TABLESTYLE
90
512
91
0
1

92
512
93
0
2

94
512
95
0
3

0
XRECORD
5
108B
102
{ACAD_REACTORS
330
108A
102
}
330
108A
100
AcDbXrecord
280
1
102
RTVSPropertyOp0
70
1
102
RTVSPropertyOp1
70
1
102
RTVSPropertyOp2
70
1
102
RTVSPropertyOp3
70
1
102
RTVSPropertyOp4
70
1
102
RTVSPropertyOp5
70
1
102
RTVSPropertyOp6
70
1
102
RTVSPropertyOp7
70
1
102
RTVSPropertyOp8
70
1
102
RTVSPropertyOp9
70
1
102
RTVSPropertyOp10
70
1
102
RTVSPropertyOp11
70
1
102
RTVSPropertyOp12
70
1
102
RTVSPropertyOp13
70
1
102
RTVSPropertyOp14
70
1
102
RTVSPropertyOp15
70
1
102
RTVSPropertyOp16
70
1
102
RTVSPropertyOp17
70
1
102
RTVSPropertyOp18
70
1
102
RTVSPropertyOp19
70
1
102
RTVSPropertyOp20
70
1
102
RTVSPropertyOp21
70
1
102
RTVSPropertyOp22
70
1
102
RTVSPropertyOp23
70
1
102
RTVSPropertyOp24
70
1
102
RTVSPropertyOp25
70
1
102
RTVSPropertyOp26
70
1
102
RTVSPropertyOp27
70
1
0
XRECORD
5
108F
102
{ACAD_REACTORS
330
108E
102
}
330
108E
100
AcDbXrecord
280
1
102
RTVSPropertyOp0
70
1
102
RTVSPropertyOp1
70
1
102
RTVSPropertyOp2
70
1
102
RTVSPropertyOp3
70
1
102
RTVSPropertyOp4
70
1
102
RTVSPropertyOp5
70
1
102
RTVSPropertyOp6
70
1
102
RTVSPropertyOp7
70
1
102
RTVSPropertyOp8
70
1
102
RTVSPropertyOp9
70
1
102
RTVSPropertyOp10
70
1
102
RTVSPropertyOp11
70
1
102
RTVSPropertyOp12
70
1
102
RTVSPropertyOp13
70
1
102
RTVSPropertyOp14
70
1
102
RTVSPropertyOp15
70
1
102
RTVSPropertyOp16
70
1
102
RTVSPropertyOp17
70
1
102
RTVSPropertyOp18
70
1
102
RTVSPropertyOp19
70
1
102
RTVSPropertyOp20
70
1
102
RTVSPropertyOp21
70
1
102
RTVSPropertyOp22
70
1
102
RTVSPropertyOp23
70
1
102
RTVSPropertyOp24
70
1
102
RTVSPropertyOp25
70
1
102
RTVSPropertyOp26
70
1
102
RTVSPropertyOp27
70
1
0
XRECORD
5
108D
102
{ACAD_REACTORS
330
108C
102
}
330
108C
100
AcDbXrecord
280
1
102
RTVSPropertyOp0
70
1
102
RTVSPropertyOp1
70
1
102
RTVSPropertyOp2
70
1
102
RTVSPropertyOp3
70
1
102
RTVSPropertyOp4
70
1
102
RTVSPropertyOp5
70
1
102
RTVSPropertyOp6
70
1
102
RTVSPropertyOp7
70
1
102
RTVSPropertyOp8
70
1
102
RTVSPropertyOp9
70
1
102
RTVSPropertyOp10
70
1
102
RTVSPropertyOp11
70
1
102
RTVSPropertyOp12
70
1
102
RTVSPropertyOp13
70
1
102
RTVSPropertyOp14
70
1
102
RTVSPropertyOp15
70
1
102
RTVSPropertyOp16
70
1
102
RTVSPropertyOp17
70
1
102
RTVSPropertyOp18
70
1
102
RTVSPropertyOp19
70
1
102
RTVSPropertyOp20
70
1
102
RTVSPropertyOp21
70
1
102
RTVSPropertyOp22
70
1
102
RTVSPropertyOp23
70
1
102
RTVSPropertyOp24
70
1
102
RTVSPropertyOp25
70
1
102
RTVSPropertyOp26
70
1
102
RTVSPropertyOp27
70
1
0
XRECORD
5
1089
102
{ACAD_REACTORS
330
1088
102
}
330
1088
100
AcDbXrecord
280
1
102
RTVSPropertyOp0
70
1
102
RTVSPropertyOp1
70
1
102
RTVSPropertyOp2
70
1
102
RTVSPropertyOp3
70
1
102
RTVSPropertyOp4
70
1
102
RTVSPropertyOp5
70
1
102
RTVSPropertyOp6
70
1
102
RTVSPropertyOp7
70
1
102
RTVSPropertyOp8
70
1
102
RTVSPropertyOp9
70
1
102
RTVSPropertyOp10
70
1
102
RTVSPropertyOp11
70
1
102
RTVSPropertyOp12
70
1
102
RTVSPropertyOp13
70
1
102
RTVSPropertyOp14
70
1
102
RTVSPropertyOp15
70
1
102
RTVSPropertyOp16
70
1
102
RTVSPropertyOp17
70
1
102
RTVSPropertyOp18
70
1
102
RTVSPropertyOp19
70
1
102
RTVSPropertyOp20
70
1
102
RTVSPropertyOp21
70
1
102
RTVSPropertyOp22
70
1
102
RTVSPropertyOp23
70
1
102
RTVSPropertyOp24
70
1
102
RTVSPropertyOp25
70
1
102
RTVSPropertyOp26
70
1
102
RTVSPropertyOp27
70
1
0
XRECORD
5
1097
102
{ACAD_REACTORS
330
1096
102
}
330
1096
100
AcDbXrecord
280
1
102
RTVSPropertyOp0
70
1
102
RTVSPropertyOp1
70
1
102
RTVSPropertyOp2
70
1
102
RTVSPropertyOp3
70
1
102
RTVSPropertyOp4
70
1
102
RTVSPropertyOp5
70
1
102
RTVSPropertyOp6
70
1
102
RTVSPropertyOp7
70
1
102
RTVSPropertyOp8
70
1
102
RTVSPropertyOp9
70
1
102
RTVSPropertyOp10
70
1
102
RTVSPropertyOp11
70
1
102
RTVSPropertyOp12
70
1
102
RTVSPropertyOp13
70
1
102
RTVSPropertyOp14
70
1
102
RTVSPropertyOp15
70
1
102
RTVSPropertyOp16
70
1
102
RTVSPropertyOp17
70
1
102
RTVSPropertyOp18
70
1
102
RTVSPropertyOp19
70
1
102
RTVSPropertyOp20
70
1
102
RTVSPropertyOp21
70
1
102
RTVSPropertyOp22
70
1
102
RTVSPropertyOp23
70
1
102
RTVSPropertyOp24
70
1
102
RTVSPropertyOp25
70
1
102
RTVSPropertyOp26
70
1
102
RTVSPropertyOp27
70
1
0
XRECORD
5
109F
102
{ACAD_REACTORS
330
109E
102
}
330
109E
100
AcDbXrecord
280
1
102
RTVSPropertyOp0
70
1
102
RTVSPropertyOp1
70
1
102
RTVSPropertyOp2
70
1
102
RTVSPropertyOp3
70
1
102
RTVSPropertyOp4
70
1
102
RTVSPropertyOp5
70
1
102
RTVSPropertyOp6
70
1
102
RTVSPropertyOp7
70
1
102
RTVSPropertyOp8
70
1
102
RTVSPropertyOp9
70
1
102
RTVSPropertyOp10
70
1
102
RTVSPropertyOp11
70
1
102
RTVSPropertyOp12
70
1
102
RTVSPropertyOp13
70
1
102
RTVSPropertyOp14
70
1
102
RTVSPropertyOp15
70
1
102
RTVSPropertyOp16
70
1
102
RTVSPropertyOp17
70
1
102
RTVSPropertyOp18
70
1
102
RTVSPropertyOp19
70
1
102
RTVSPropertyOp20
70
1
102
RTVSPropertyOp21
70
1
102
RTVSPropertyOp22
70
1
102
RTVSPropertyOp23
70
1
102
RTVSPropertyOp24
70
1
102
RTVSPropertyOp25
70
1
102
RTVSPropertyOp26
70
1
102
RTVSPropertyOp27
70
1
0
XRECORD
5
1091
102
{ACAD_REACTORS
330
1090
102
}
330
1090
100
AcDbXrecord
280
1
102
RTVSPropertyOp0
70
1
102
RTVSPropertyOp1
70
1
102
RTVSPropertyOp2
70
1
102
RTVSPropertyOp3
70
1
102
RTVSPropertyOp4
70
1
102
RTVSPropertyOp5
70
1
102
RTVSPropertyOp6
70
1
102
RTVSPropertyOp7
70
1
102
RTVSPropertyOp8
70
1
102
RTVSPropertyOp9
70
1
102
RTVSPropertyOp10
70
1
102
RTVSPropertyOp11
70
1
102
RTVSPropertyOp12
70
1
102
RTVSPropertyOp13
70
1
102
RTVSPropertyOp14
70
1
102
RTVSPropertyOp15
70
1
102
RTVSPropertyOp16
70
1
102
RTVSPropertyOp17
70
1
102
RTVSPropertyOp18
70
1
102
RTVSPropertyOp19
70
1
102
RTVSPropertyOp20
70
1
102
RTVSPropertyOp21
70
1
102
RTVSPropertyOp22
70
1
102
RTVSPropertyOp23
70
1
102
RTVSPropertyOp24
70
1
102
RTVSPropertyOp25
70
1
102
RTVSPropertyOp26
70
1
102
RTVSPropertyOp27
70
1
0
XRECORD
5
1095
102
{ACAD_REACTORS
330
1094
102
}
330
1094
100
AcDbXrecord
280
1
102
RTVSPropertyOp0
70
1
102
RTVSPropertyOp1
70
1
102
RTVSPropertyOp2
70
1
102
RTVSPropertyOp3
70
1
102
RTVSPropertyOp4
70
1
102
RTVSPropertyOp5
70
1
102
RTVSPropertyOp6
70
1
102
RTVSPropertyOp7
70
1
102
RTVSPropertyOp8
70
1
102
RTVSPropertyOp9
70
1
102
RTVSPropertyOp10
70
1
102
RTVSPropertyOp11
70
1
102
RTVSPropertyOp12
70
1
102
RTVSPropertyOp13
70
1
102
RTVSPropertyOp14
70
1
102
RTVSPropertyOp15
70
1
102
RTVSPropertyOp16
70
1
102
RTVSPropertyOp17
70
1
102
RTVSPropertyOp18
70
1
102
RTVSPropertyOp19
70
1
102
RTVSPropertyOp20
70
1
102
RTVSPropertyOp21
70
1
102
RTVSPropertyOp22
70
1
102
RTVSPropertyOp23
70
1
102
RTVSPropertyOp24
70
1
102
RTVSPropertyOp25
70
1
102
RTVSPropertyOp26
70
1
102
RTVSPropertyOp27
70
1
0
XRECORD
5
10A5
102
{ACAD_REACTORS
330
10A4
102
}
330
10A4
100
AcDbXrecord
280
1
102
RTVSPropertyOp0
70
0
102
RTVSPropertyOp1
70
0
102
RTVSPropertyOp2
70
0
102
RTVSPropertyOp3
70
0
102
RTVSPropertyOp4
70
0
102
RTVSPropertyOp5
70
0
102
RTVSPropertyOp6
70
0
102
RTVSPropertyOp7
70
0
102
RTVSPropertyOp8
70
0
102
RTVSPropertyOp9
70
0
102
RTVSPropertyOp10
70
0
102
RTVSPropertyOp11
70
0
102
RTVSPropertyOp12
70
0
102
RTVSPropertyOp13
70
0
102
RTVSPropertyOp14
70
2
102
RTVSPropertyOp15
70
0
102
RTVSPropertyOp16
70
0
102
RTVSPropertyOp17
70
0
102
RTVSPropertyOp18
70
0
102
RTVSPropertyOp19
70
0
102
RTVSPropertyOp20
70
0
102
RTVSPropertyOp21
70
0
102
RTVSPropertyOp22
70
0
102
RTVSPropertyOp23
70
0
102
RTVSPropertyOp24
70
0
102
RTVSPropertyOp25
70
0
102
RTVSPropertyOp26
70
0
102
RTVSPropertyOp27
70
0
0
XRECORD
5
109D
102
{ACAD_REACTORS
330
109C
102
}
330
109C
100
AcDbXrecord
280
1
102
RTVSPropertyOp0
70
1
102
RTVSPropertyOp1
70
1
102
RTVSPropertyOp2
70
1
102
RTVSPropertyOp3
70
1
102
RTVSPropertyOp4
70
1
102
RTVSPropertyOp5
70
1
102
RTVSPropertyOp6
70
1
102
RTVSPropertyOp7
70
1
102
RTVSPropertyOp8
70
1
102
RTVSPropertyOp9
70
1
102
RTVSPropertyOp10
70
1
102
RTVSPropertyOp11
70
1
102
RTVSPropertyOp12
70
1
102
RTVSPropertyOp13
70
1
102
RTVSPropertyOp14
70
1
102
RTVSPropertyOp15
70
1
102
RTVSPropertyOp16
70
1
102
RTVSPropertyOp17
70
1
102
RTVSPropertyOp18
70
1
102
RTVSPropertyOp19
70
1
102
RTVSPropertyOp20
70
1
102
RTVSPropertyOp21
70
1
102
RTVSPropertyOp22
70
1
102
RTVSPropertyOp23
70
1
102
RTVSPropertyOp24
70
1
102
RTVSPropertyOp25
70
1
102
RTVSPropertyOp26
70
1
102
RTVSPropertyOp27
70
1
0
XRECORD
5
1081
102
{ACAD_REACTORS
330
1080
102
}
330
1080
100
AcDbXrecord
280
1
102
RTVSPropertyOp0
70
1
102
RTVSPropertyOp1
70
1
102
RTVSPropertyOp2
70
1
102
RTVSPropertyOp3
70
1
102
RTVSPropertyOp4
70
1
102
RTVSPropertyOp5
70
1
102
RTVSPropertyOp6
70
1
102
RTVSPropertyOp7
70
1
102
RTVSPropertyOp8
70
1
102
RTVSPropertyOp9
70
1
102
RTVSPropertyOp10
70
1
102
RTVSPropertyOp11
70
1
102
RTVSPropertyOp12
70
1
102
RTVSPropertyOp13
70
1
102
RTVSPropertyOp14
70
1
102
RTVSPropertyOp15
70
1
102
RTVSPropertyOp16
70
1
102
RTVSPropertyOp17
70
1
102
RTVSPropertyOp18
70
1
102
RTVSPropertyOp19
70
1
102
RTVSPropertyOp20
70
1
102
RTVSPropertyOp21
70
1
102
RTVSPropertyOp22
70
1
102
RTVSPropertyOp23
70
1
102
RTVSPropertyOp24
70
1
102
RTVSPropertyOp25
70
1
102
RTVSPropertyOp26
70
1
102
RTVSPropertyOp27
70
1
0
XRECORD
5
1083
102
{ACAD_REACTORS
330
1082
102
}
330
1082
100
AcDbXrecord
280
1
102
RTVSPropertyOp0
70
1
102
RTVSPropertyOp1
70
1
102
RTVSPropertyOp2
70
1
102
RTVSPropertyOp3
70
1
102
RTVSPropertyOp4
70
1
102
RTVSPropertyOp5
70
1
102
RTVSPropertyOp6
70
1
102
RTVSPropertyOp7
70
1
102
RTVSPropertyOp8
70
1
102
RTVSPropertyOp9
70
1
102
RTVSPropertyOp10
70
1
102
RTVSPropertyOp11
70
1
102
RTVSPropertyOp12
70
1
102
RTVSPropertyOp13
70
1
102
RTVSPropertyOp14
70
1
102
RTVSPropertyOp15
70
1
102
RTVSPropertyOp16
70
1
102
RTVSPropertyOp17
70
1
102
RTVSPropertyOp18
70
1
102
RTVSPropertyOp19
70
1
102
RTVSPropertyOp20
70
1
102
RTVSPropertyOp21
70
1
102
RTVSPropertyOp22
70
1
102
RTVSPropertyOp23
70
1
102
RTVSPropertyOp24
70
1
102
RTVSPropertyOp25
70
1
102
RTVSPropertyOp26
70
1
102
RTVSPropertyOp27
70
1
0
XRECORD
5
1085
102
{ACAD_REACTORS
330
1084
102
}
330
1084
100
AcDbXrecord
280
1
102
RTVSPropertyOp0
70
1
102
RTVSPropertyOp1
70
1
102
RTVSPropertyOp2
70
1
102
RTVSPropertyOp3
70
1
102
RTVSPropertyOp4
70
1
102
RTVSPropertyOp5
70
1
102
RTVSPropertyOp6
70
1
102
RTVSPropertyOp7
70
1
102
RTVSPropertyOp8
70
1
102
RTVSPropertyOp9
70
1
102
RTVSPropertyOp10
70
1
102
RTVSPropertyOp11
70
1
102
RTVSPropertyOp12
70
1
102
RTVSPropertyOp13
70
1
102
RTVSPropertyOp14
70
1
102
RTVSPropertyOp15
70
1
102
RTVSPropertyOp16
70
1
102
RTVSPropertyOp17
70
1
102
RTVSPropertyOp18
70
1
102
RTVSPropertyOp19
70
1
102
RTVSPropertyOp20
70
1
102
RTVSPropertyOp21
70
1
102
RTVSPropertyOp22
70
1
102
RTVSPropertyOp23
70
1
102
RTVSPropertyOp24
70
1
102
RTVSPropertyOp25
70
1
102
RTVSPropertyOp26
70
1
102
RTVSPropertyOp27
70
1
0
XRECORD
5
1087
102
{ACAD_REACTORS
330
1086
102
}
330
1086
100
AcDbXrecord
280
1
102
RTVSPropertyOp0
70
1
102
RTVSPropertyOp1
70
1
102
RTVSPropertyOp2
70
1
102
RTVSPropertyOp3
70
1
102
RTVSPropertyOp4
70
1
102
RTVSPropertyOp5
70
1
102
RTVSPropertyOp6
70
1
102
RTVSPropertyOp7
70
1
102
RTVSPropertyOp8
70
1
102
RTVSPropertyOp9
70
1
102
RTVSPropertyOp10
70
1
102
RTVSPropertyOp11
70
1
102
RTVSPropertyOp12
70
1
102
RTVSPropertyOp13
70
1
102
RTVSPropertyOp14
70
1
102
RTVSPropertyOp15
70
1
102
RTVSPropertyOp16
70
1
102
RTVSPropertyOp17
70
1
102
RTVSPropertyOp18
70
1
102
RTVSPropertyOp19
70
1
102
RTVSPropertyOp20
70
1
102
RTVSPropertyOp21
70
1
102
RTVSPropertyOp22
70
1
102
RTVSPropertyOp23
70
1
102
RTVSPropertyOp24
70
1
102
RTVSPropertyOp25
70
1
102
RTVSPropertyOp26
70
1
102
RTVSPropertyOp27
70
1
0
XRECORD
5
10A1
102
{ACAD_REACTORS
330
10A0
102
}
330
10A0
100
AcDbXrecord
280
1
102
RTVSPropertyOp0
70
0
102
RTVSPropertyOp1
70
0
102
RTVSPropertyOp2
70
0
102
RTVSPropertyOp3
70
0
102
RTVSPropertyOp4
70
0
102
RTVSPropertyOp5
70
0
102
RTVSPropertyOp6
70
0
102
RTVSPropertyOp7
70
0
102
RTVSPropertyOp8
70
0
102
RTVSPropertyOp9
70
0
102
RTVSPropertyOp10
70
0
102
RTVSPropertyOp11
70
0
102
RTVSPropertyOp12
70
0
102
RTVSPropertyOp13
70
0
102
RTVSPropertyOp14
70
2
102
RTVSPropertyOp15
70
0
102
RTVSPropertyOp16
70
0
102
RTVSPropertyOp17
70
0
102
RTVSPropertyOp18
70
0
102
RTVSPropertyOp19
70
0
102
RTVSPropertyOp20
70
0
102
RTVSPropertyOp21
70
0
102
RTVSPropertyOp22
70
0
102
RTVSPropertyOp23
70
0
102
RTVSPropertyOp24
70
0
102
RTVSPropertyOp25
70
0
102
RTVSPropertyOp26
70
0
102
RTVSPropertyOp27
70
0
0
XRECORD
5
109B
102
{ACAD_REACTORS
330
109A
102
}
330
109A
100
AcDbXrecord
280
1
102
RTVSPropertyOp0
70
1
102
RTVSPropertyOp1
70
1
102
RTVSPropertyOp2
70
1
102
RTVSPropertyOp3
70
1
102
RTVSPropertyOp4
70
1
102
RTVSPropertyOp5
70
1
102
RTVSPropertyOp6
70
1
102
RTVSPropertyOp7
70
1
102
RTVSPropertyOp8
70
1
102
RTVSPropertyOp9
70
1
102
RTVSPropertyOp10
70
1
102
RTVSPropertyOp11
70
1
102
RTVSPropertyOp12
70
1
102
RTVSPropertyOp13
70
1
102
RTVSPropertyOp14
70
1
102
RTVSPropertyOp15
70
1
102
RTVSPropertyOp16
70
1
102
RTVSPropertyOp17
70
1
102
RTVSPropertyOp18
70
1
102
RTVSPropertyOp19
70
1
102
RTVSPropertyOp20
70
1
102
RTVSPropertyOp21
70
1
102
RTVSPropertyOp22
70
1
102
RTVSPropertyOp23
70
1
102
RTVSPropertyOp24
70
1
102
RTVSPropertyOp25
70
1
102
RTVSPropertyOp26
70
1
102
RTVSPropertyOp27
70
1
0
XRECORD
5
10A3
102
{ACAD_REACTORS
330
10A2
102
}
330
10A2
100
AcDbXrecord
280
1
102
RTVSPropertyOp0
70
0
102
RTVSPropertyOp1
70
0
102
RTVSPropertyOp2
70
0
102
RTVSPropertyOp3
70
0
102
RTVSPropertyOp4
70
0
102
RTVSPropertyOp5
70
0
102
RTVSPropertyOp6
70
0
102
RTVSPropertyOp7
70
0
102
RTVSPropertyOp8
70
0
102
RTVSPropertyOp9
70
0
102
RTVSPropertyOp10
70
0
102
RTVSPropertyOp11
70
0
102
RTVSPropertyOp12
70
0
102
RTVSPropertyOp13
70
0
102
RTVSPropertyOp14
70
2
102
RTVSPropertyOp15
70
0
102
RTVSPropertyOp16
70
0
102
RTVSPropertyOp17
70
0
102
RTVSPropertyOp18
70
0
102
RTVSPropertyOp19
70
0
102
RTVSPropertyOp20
70
0
102
RTVSPropertyOp21
70
0
102
RTVSPropertyOp22
70
0
102
RTVSPropertyOp23
70
0
102
RTVSPropertyOp24
70
0
102
RTVSPropertyOp25
70
0
102
RTVSPropertyOp26
70
0
102
RTVSPropertyOp27
70
0
0
XRECORD
5
1093
102
{ACAD_REACTORS
330
1092
102
}
330
1092
100
AcDbXrecord
280
1
102
RTVSPropertyOp0
70
1
102
RTVSPropertyOp1
70
1
102
RTVSPropertyOp2
70
1
102
RTVSPropertyOp3
70
1
102
RTVSPropertyOp4
70
1
102
RTVSPropertyOp5
70
1
102
RTVSPropertyOp6
70
1
102
RTVSPropertyOp7
70
1
102
RTVSPropertyOp8
70
1
102
RTVSPropertyOp9
70
1
102
RTVSPropertyOp10
70
1
102
RTVSPropertyOp11
70
1
102
RTVSPropertyOp12
70
1
102
RTVSPropertyOp13
70
1
102
RTVSPropertyOp14
70
1
102
RTVSPropertyOp15
70
1
102
RTVSPropertyOp16
70
1
102
RTVSPropertyOp17
70
1
102
RTVSPropertyOp18
70
1
102
RTVSPropertyOp19
70
1
102
RTVSPropertyOp20
70
1
102
RTVSPropertyOp21
70
1
102
RTVSPropertyOp22
70
1
102
RTVSPropertyOp23
70
1
102
RTVSPropertyOp24
70
1
102
RTVSPropertyOp25
70
1
102
RTVSPropertyOp26
70
1
102
RTVSPropertyOp27
70
1
0
XRECORD
5
1099
102
{ACAD_REACTORS
330
1098
102
}
330
1098
100
AcDbXrecord
280
1
102
RTVSPropertyOp0
70
1
102
RTVSPropertyOp1
70
1
102
RTVSPropertyOp2
70
1
102
RTVSPropertyOp3
70
1
102
RTVSPropertyOp4
70
1
102
RTVSPropertyOp5
70
1
102
RTVSPropertyOp6
70
1
102
RTVSPropertyOp7
70
1
102
RTVSPropertyOp8
70
1
102
RTVSPropertyOp9
70
1
102
RTVSPropertyOp10
70
1
102
RTVSPropertyOp11
70
1
102
RTVSPropertyOp12
70
1
102
RTVSPropertyOp13
70
1
102
RTVSPropertyOp14
70
1
102
RTVSPropertyOp15
70
1
102
RTVSPropertyOp16
70
1
102
RTVSPropertyOp17
70
1
102
RTVSPropertyOp18
70
1
102
RTVSPropertyOp19
70
1
102
RTVSPropertyOp20
70
1
102
RTVSPropertyOp21
70
1
102
RTVSPropertyOp22
70
1
102
RTVSPropertyOp23
70
1
102
RTVSPropertyOp24
70
1
102
RTVSPropertyOp25
70
1
102
RTVSPropertyOp26
70
1
102
RTVSPropertyOp27
70
1
0
ENDSEC
0
EOF
