0
SECTION
2
HEADER
9
$ACADVER
1
AC1015
9
$ACADMAINTVER
70
20
9
$DWGCODEPAGE
3
ANSI_1252
9
$INSBASE
10
0.0
20
0.0
30
0.0
9
$EXTMIN
10
-150.000000000000
20
-105.000000000000
30
0.0
9
$EXTMAX
10
150.000000000000
20
105.000000000000
30
0.0
9
$LIMMIN
10
0.0
20
0.0
9
$LIMMAX
10
12.0
20
9.0
9
$ORTHOMODE
70
0
9
$REGENMODE
70
1
9
$FILLMODE
70
1
9
$QTEXTMODE
70
0
9
$MIRRTEXT
70
1
9
$LTSCALE
40
1.0
9
$ATTMODE
70
1
9
$TEXTSIZE
40
0.2
9
$TRACEWID
40
0.05
9
$TEXTSTYLE
7
Standard
9
$CLAYER
8
0
9
$CELTYPE
6
ByLayer
9
$CECOLOR
62
256
9
$CELTSCALE
40
1.0
9
$DISPSILH
70
0
9
$DIMSCALE
40
1.0
9
$DIMASZ
40
2.5
9
$DIMEXO
40
0.625
9
$DIMDLI
40
0.38
9
$DIMRND
40
0.0
9
$DIMDLE
40
0.0
9
$DIMEXE
40
1.25
9
$DIMTP
40
0.0
9
$DIMTM
40
0.000000001
9
$DIMTXT
40
2.5
9
$DIMCEN
40
0.09
9
$DIMTSZ
40
0.0
9
$DIMTOL
70
1
9
$DIMLIM
70
0
9
$DIMTIH
70
0
9
$DIMTOH
70
0
9
$DIMSE1
70
0
9
$DIMSE2
70
0
9
$DIMTAD
70
1
9
$DIMZIN
70
0
9
$DIMBLK
1
VDDIM_DEFAULT
9
$DIMASO
70
1
9
$DIMSHO
70
1
9
$DIMPOST
1

9
$DIMAPOST
1

9
$DIMALT
70
0
9
$DIMALTD
70
2
9
$DIMALTF
40
25.4
9
$DIMLFAC
40
1.00000000000000
9
$DIMTOFL
70
0
9
$DIMTVP
40
0.0
9
$DIMTIX
70
0
9
$DIMSOXD
70
0
9
$DIMSAH
70
0
9
$DIMBLK1
1

9
$DIMBLK2
1

9
$DIMSTYLE
2
BEM-ISBE
9
$DIMCLRD
70
0
9
$DIMCLRE
70
0
9
$DIMCLRT
70
0
9
$DIMTFAC
40
0.5
9
$DIMGAP
40
0.625
9
$DIMJUST
70
0
9
$DIMSD1
70
0
9
$DIMSD2
70
0
9
$DIMTOLJ
70
1
9
$DIMTZIN
70
0
9
$DIMALTZ
70
0
9
$DIMALTTZ
70
0
9
$DIMUPT
70
0
9
$DIMDEC
70
3
9
$DIMTDEC
70
3
9
$DIMALTU
70
2
9
$DIMALTTD
70
2
9
$DIMTXSTY
7
Standard
9
$DIMAUNIT
70
0
9
$DIMADEC
70
3
9
$DIMALTRND
40
0.0
9
$DIMAZIN
70
0
9
$DIMDSEP
70
46
9
$DIMATFIT
70
3
9
$DIMFRAC
70
0
9
$DIMLDRBLK
1

9
$DIMLUNIT
70
2
9
$DIMLWD
70
-2
9
$DIMLWE
70
-2
9
$DIMTMOVE
70
0
9
$LUNITS
70
2
9
$LUPREC
70
4
9
$SKETCHINC
40
0.1
9
$FILLETRAD
40
0.5
9
$AUNITS
70
0
9
$AUPREC
70
0
9
$MENU
1
.
9
$ELEVATION
40
0.0
9
$PELEVATION
40
0.0
9
$THICKNESS
40
0.0
9
$LIMCHECK
70
0
9
$CHAMFERA
40
0.5
9
$CHAMFERB
40
0.5
9
$CHAMFERC
40
1.0
9
$CHAMFERD
40
0.0
9
$SKPOLY
70
0
9
$TDCREATE
40
0.0
9
$TDUCREATE
40
0.0
9
$TDUPDATE
40
0.0
9
$TDUUPDATE
40
0.0
9
$TDINDWG
40
0.0
9
$TDUSRTIMER
40
0.0
9
$USRTIMER
70
1
9
$ANGBASE
50
0.0
9
$ANGDIR
70
0
9
$PDMODE
70
0
9
$PDSIZE
40
0.0
9
$PLINEWID
40
0.0
9
$SPLFRAME
70
0
9
$SPLINETYPE
70
6
9
$SPLINESEGS
70
8
9
$HANDSEED
5
10AB
9
$SURFTAB1
70
6
9
$SURFTAB2
70
6
9
$SURFTYPE
70
6
9
$SURFU
70
6
9
$SURFV
70
6
9
$UCSBASE
2

9
$UCSNAME
2

9
$UCSORG
10
0.0
20
0.0
30
0.0
9
$UCSXDIR
10
1.0
20
0.0
30
0.0
9
$UCSYDIR
10
0.0
20
1.0
30
0.0
9
$UCSORTHOREF
2

9
$UCSORTHOVIEW
70
0
9
$UCSORGTOP
10
0.0
20
0.0
30
0.0
9
$UCSORGBOTTOM
10
0.0
20
0.0
30
0.0
9
$UCSORGLEFT
10
0.0
20
0.0
30
0.0
9
$UCSORGRIGHT
10
0.0
20
0.0
30
0.0
9
$UCSORGFRONT
10
0.0
20
0.0
30
0.0
9
$UCSORGBACK
10
0.0
20
0.0
30
0.0
9
$PUCSBASE
2

9
$PUCSNAME
2

9
$PUCSORG
10
0.0
20
0.0
30
0.0
9
$PUCSXDIR
10
1.0
20
0.0
30
0.0
9
$PUCSYDIR
10
0.0
20
1.0
30
0.0
9
$PUCSORTHOREF
2

9
$PUCSORTHOVIEW
70
0
9
$PUCSORGTOP
10
0.0
20
0.0
30
0.0
9
$PUCSORGBOTTOM
10
0.0
20
0.0
30
0.0
9
$PUCSORGLEFT
10
0.0
20
0.0
30
0.0
9
$PUCSORGRIGHT
10
0.0
20
0.0
30
0.0
9
$PUCSORGFRONT
10
0.0
20
0.0
30
0.0
9
$PUCSORGBACK
10
0.0
20
0.0
30
0.0
9
$USERI1
70
0
9
$USERI2
70
0
9
$USERI3
70
0
9
$USERI4
70
0
9
$USERI5
70
0
9
$USERR1
40
0.0
9
$USERR2
40
0.0
9
$USERR3
40
0.0
9
$USERR4
40
0.0
9
$USERR5
40
0.0
9
$WORLDVIEW
70
1
9
$SHADEDGE
70
3
9
$SHADEDIF
70
70
9
$TILEMODE
70
1
9
$MAXACTVP
70
64
9
$PINSBASE
10
0.0
20
0.0
30
0.0
9
$PLIMCHECK
70
0
9
$PEXTMIN
10
1.000000000000000E+20
20
1.000000000000000E+20
30
1.000000000000000E+20
9
$PEXTMAX
10
-1.000000000000000E+20
20
-1.000000000000000E+20
30
-1.000000000000000E+20
9
$PLIMMIN
10
0.0
20
0.0
9
$PLIMMAX
10
12.0
20
9.0
9
$UNITMODE
70
0
9
$VISRETAIN
70
1
9
$PLINEGEN
70
0
9
$PSLTSCALE
70
1
9
$TREEDEPTH
70
3020
9
$CMLSTYLE
2
Standard
9
$CMLJUST
70
0
9
$CMLSCALE
40
1.0
9
$PROXYGRAPHICS
70
1
9
$MEASUREMENT
70
0
9
$CELWEIGHT
370
-1
9
$ENDCAPS
280
0
9
$JOINSTYLE
280
0
9
$LWDISPLAY
290
0
9
$INSUNITS
70
4
9
$HYPERLINKBASE
1

9
$STYLESHEET
1

9
$XEDIT
290
1
9
$CEPSNTYPE
380
0
9
$PSTYLEMODE
290
0
9
$FINGERPRINTGUID
2
{FAEB1C30-E019-11D5-929B-00C0DF256EC4}
9
$VERSIONGUID
2
{04C5C4E4-4947-4D90-8812-D401569E61F7}
9
$EXTNAMES
290
1
9
$PSVPSCALE
40
0.0
9
$OLESTARTUP
290
0
0
ENDSEC
0
SECTION
2
CLASSES
0
CLASS
1
ACDBDICTIONARYWDFLT
2
AcDbDictionaryWithDefault
3
ObjectDBX Classes
90
0
280
0
281
0
0
CLASS
1
ACDBPLACEHOLDER
2
AcDbPlaceHolder
3
ObjectDBX Classes
90
0
280
0
281
0
0
CLASS
1
LAYOUT
2
AcDbLayout
3
ObjectDBX Classes
90
0
280
0
281
0
0
CLASS
1
MATERIAL
2
AcDbMaterial
3
ObjectDBX Classes
90
1153
280
0
281
0
0
CLASS
1
VISUALSTYLE
2
AcDbVisualStyle
3
ObjectDBX Classes
90
4095
280
0
281
0
0
CLASS
1
TABLESTYLE
2
AcDbTableStyle
3
ObjectDBX Classes
90
4095
280
0
281
0
0
CLASS
1
SCALE
2
AcDbScale
3
ObjectDBX Classes
90
1153
280
0
281
0
0
CLASS
1
MLEADERSTYLE
2
AcDbMLeaderStyle
3
ACDB_MLEADERSTYLE_CLASS
90
4095
280
0
281
0
0
CLASS
1
DICTIONARYVAR
2
AcDbDictionaryVar
3
ObjectDBX Classes
90
0
280
0
281
0
0
CLASS
1
CELLSTYLEMAP
2
AcDbCellStyleMap
3
ObjectDBX Classes
90
1152
280
0
281
0
0
ENDSEC
0
SECTION
2
TABLES
0
TABLE
2
VPORT
5
24A
330
0
100
AcDbSymbolTable
70
1
0
VPORT
5
26B
330
24A
100
AcDbSymbolTableRecord
100
AcDbViewportTableRecord
2
*Active
70
0
10
0.0
20
0.0
11
1.0
21
1.0
12
0.000000000000000
22
0.000000000000000
13
0.0
23
0.0
14
10.0
24
10.0
15
10.0
25
10.0
16
0.0
26
0.0
36
1.0
17
0.0
27
0.0
37
0.0
40
210.000000000000
41
1.42857142857143
42
1.0
43
0.0
44
0.0
50
0.0
51
0.0000000000007958
71
0
72
100
73
1
74
3
75
0
76
0
77
0
78
1
281
0
65
1
110
0.0
120
0.0
130
0.0
111
1.0
121
0.0
131
0.0
112
0.0
122
1.0
132
0.0
79
0
146
0.0
0
ENDTAB
0
TABLE
2
LTYPE
5
247
330
0
100
AcDbSymbolTable
70
25
0
LTYPE
5
256
330
247
100
AcDbSymbolTableRecord
100
AcDbLinetypeTableRecord
2
ByBlock
70
0
3

72
65
73
0
40
0.0
0
LTYPE
5
257
330
247
100
AcDbSymbolTableRecord
100
AcDbLinetypeTableRecord
2
ByLayer
70
0
3

72
65
73
0
40
0.0
0
LTYPE
5
258
330
247
100
AcDbSymbolTableRecord
100
AcDbLinetypeTableRecord
2
Continuous
70
0
3
Solid line
72
65
73
0
40
0.0
0
LTYPE
5
273
330
247
100
AcDbSymbolTableRecord
100
AcDbLinetypeTableRecord
2
CENTER
70
0
3
Center ____ _ ____ _ ____ _ ____ _ ____ _ ____
72
65
73
4
40
2.0
49
1.25
74
0
49
-0.25
74
0
49
0.25
74
0
49
-0.25
74
0
0
LTYPE
5
274
330
247
100
AcDbSymbolTableRecord
100
AcDbLinetypeTableRecord
2
DASHDOT
70
0
3
Dashdot __ . __ . __ . __ . __ . __ . __ . __
72
65
73
4
40
1.0
49
0.5
74
0
49
-0.25
74
0
49
0.0
74
0
49
-0.25
74
0
0
LTYPE
5
275
330
247
100
AcDbSymbolTableRecord
100
AcDbLinetypeTableRecord
2
DASHED
70
0
3
Dashed __ __ __ __ __ __ __ __ __ __ __ __ __ _
72
65
73
2
40
0.75
49
0.5
74
0
49
-0.25
74
0
0
LTYPE
5
276
330
247
100
AcDbSymbolTableRecord
100
AcDbLinetypeTableRecord
2
HIDDEN
70
0
3
Hidden __ __ __ __ __ __ __ __ __ __ __ __ __ __
72
65
73
2
40
0.375
49
0.25
74
0
49
-0.125
74
0
0
LTYPE
5
277
330
247
100
AcDbSymbolTableRecord
100
AcDbLinetypeTableRecord
2
HIDDEN2
70
0
3
Hidden2 _ _ _ _ _ _ _ _ _ _ _ _ _ _ _ _ _
72
65
73
2
40
0.1875
49
0.125
74
0
49
-0.0625
74
0
0
LTYPE
5
278
330
247
100
AcDbSymbolTableRecord
100
AcDbLinetypeTableRecord
2
BORDER
70
0
3
Border __ __ . __ __ . __ __ . __ __ . __ __ .
72
65
73
6
40
1.75
49
0.5
74
0
49
-0.25
74
0
49
0.5
74
0
49
-0.25
74
0
49
0.0
74
0
49
-0.25
74
0
0
LTYPE
5
279
330
247
100
AcDbSymbolTableRecord
100
AcDbLinetypeTableRecord
2
BORDER2
70
0
3
Border2 __.__.__.__.__.__.__.__.__.__.__.
72
65
73
6
40
0.875
49
0.25
74
0
49
-0.125
74
0
49
0.25
74
0
49
-0.125
74
0
49
0.0
74
0
49
-0.125
74
0
0
LTYPE
5
27A
330
247
100
AcDbSymbolTableRecord
100
AcDbLinetypeTableRecord
2
BORDERX2
70
0
3
Borderx2  ____  ____  .  ____  ____  .  ___
72
65
73
6
40
3.5
49
1.0
74
0
49
-0.5
74
0
49
1.0
74
0
49
-0.5
74
0
49
0.0
74
0
49
-0.5
74
0
0
LTYPE
5
27B
330
247
100
AcDbSymbolTableRecord
100
AcDbLinetypeTableRecord
2
CENTER2
70
0
3
Center2  ___ _ ___ _ ___ _ ___ _ ___ _ ___
72
65
73
4
40
1.125
49
0.75
74
0
49
-0.125
74
0
49
0.125
74
0
49
-0.125
74
0
0
LTYPE
5
27C
330
247
100
AcDbSymbolTableRecord
100
AcDbLinetypeTableRecord
2
CENTERX2
70
0
3
Centerx2  ________  __  ________  __  _____
72
65
73
4
40
4.0
49
2.5
74
0
49
-0.5
74
0
49
0.5
74
0
49
-0.5
74
0
0
LTYPE
5
27D
330
247
100
AcDbSymbolTableRecord
100
AcDbLinetypeTableRecord
2
DASHDOT2
70
0
3
Dashdot2  _._._._._._._._._._._._._._._.
72
65
73
4
40
0.5
49
0.25
74
0
49
-0.125
74
0
49
0.0
74
0
49
-0.125
74
0
0
LTYPE
5
27E
330
247
100
AcDbSymbolTableRecord
100
AcDbLinetypeTableRecord
2
DASHDOTX2
70
0
3
Dashdotx2 ____  .  ____  .  ____  .  ___
72
65
73
4
40
2.0
49
1.0
74
0
49
-0.5
74
0
49
0.0
74
0
49
-0.5
74
0
0
LTYPE
5
27F
330
247
100
AcDbSymbolTableRecord
100
AcDbLinetypeTableRecord
2
DASHED2
70
0
3
Dashed2 _ _ _ _ _ _ _ _ _ _ _ _ _ _ _ _ _
72
65
73
2
40
0.375
49
0.25
74
0
49
-0.125
74
0
0
LTYPE
5
280
330
247
100
AcDbSymbolTableRecord
100
AcDbLinetypeTableRecord
2
DASHEDX2
70
0
3
Dashedx2 ____  ____  ____  ____  ____  ___
72
65
73
2
40
1.5
49
1.0
74
0
49
-0.5
74
0
0
LTYPE
5
281
330
247
100
AcDbSymbolTableRecord
100
AcDbLinetypeTableRecord
2
DIVIDE
70
0
3
Divide ____ . . ____ . . ____ . . ____ . . ____
72
65
73
6
40
1.25
49
0.5
74
0
49
-0.25
74
0
49
0.0
74
0
49
-0.25
74
0
49
0.0
74
0
49
-0.25
74
0
0
LTYPE
5
282
330
247
100
AcDbSymbolTableRecord
100
AcDbLinetypeTableRecord
2
DIVIDE2
70
0
3
Divide2 __..__..__..__..__..__..__..__.._
72
65
73
6
40
0.625
49
0.25
74
0
49
-0.125
74
0
49
0.0
74
0
49
-0.125
74
0
49
0.0
74
0
49
-0.125
74
0
0
LTYPE
5
283
330
247
100
AcDbSymbolTableRecord
100
AcDbLinetypeTableRecord
2
DIVIDEX2
70
0
3
Dividex2 ________  .  .  ________  .  .  _
72
65
73
6
40
2.5
49
1.0
74
0
49
-0.5
74
0
49
0.0
74
0
49
-0.5
74
0
49
0.0
74
0
49
-0.5
74
0
0
LTYPE
5
284
330
247
100
AcDbSymbolTableRecord
100
AcDbLinetypeTableRecord
2
DOT
70
0
3
Dot . . . . . . . . . . . . . . . . . . . . . . . .
72
65
73
2
40
0.25
49
0.0
74
0
49
-0.25
74
0
0
LTYPE
5
285
330
247
100
AcDbSymbolTableRecord
100
AcDbLinetypeTableRecord
2
DOT2
70
0
3
Dot2 ........................................
72
65
73
2
40
0.125
49
0.0
74
0
49
-0.125
74
0
0
LTYPE
5
286
330
247
100
AcDbSymbolTableRecord
100
AcDbLinetypeTableRecord
2
DOTX2
70
0
3
Dotx2 .  .  .  .  .  .  .  .  .  .  .  .  .  .
72
65
73
2
40
0.5
49
0.0
74
0
49
-0.5
74
0
0
LTYPE
5
287
330
247
100
AcDbSymbolTableRecord
100
AcDbLinetypeTableRecord
2
HIDDENX2
70
0
3
Hiddenx2 ____ ____ ____ ____ ____ ____ ____
72
65
73
2
40
0.75
49
0.5
74
0
49
-0.25
74
0
0
LTYPE
5
288
330
247
100
AcDbSymbolTableRecord
100
AcDbLinetypeTableRecord
2
PHANTOM
70
0
3
Phantom ______  __  __  ______  __  __  ______
72
65
73
6
40
2.5
49
1.25
74
0
49
-0.25
74
0
49
0.25
74
0
49
-0.25
74
0
49
0.25
74
0
49
-0.25
74
0
0
LTYPE
5
289
330
247
100
AcDbSymbolTableRecord
100
AcDbLinetypeTableRecord
2
PHANTOM2
70
0
3
Phantom2 ___ _ _ ___ _ _ ___ _ _ ___ _ _
72
65
73
6
40
1.25
49
0.625
74
0
49
-0.125
74
0
49
0.125
74
0
49
-0.125
74
0
49
0.125
74
0
49
-0.125
74
0
0
LTYPE
5
28A
330
247
100
AcDbSymbolTableRecord
100
AcDbLinetypeTableRecord
2
PHANTOMX2
70
0
3
Phantomx2 ____________    ____    ____   _
72
65
73
6
40
5.0
49
2.5
74
0
49
-0.5
74
0
49
0.5
74
0
49
-0.5
74
0
49
0.5
74
0
49
-0.5
74
0
0
ENDTAB
0
TABLE
2
LAYER
5
244
330
0
100
AcDbSymbolTable
70
6
0
LAYER
5
252
330
244
100
AcDbSymbolTableRecord
100
AcDbLayerTableRecord
2
0
70
0
62
7
6
Continuous
370
0
390
251
0
LAYER
5
23F
330
244
100
AcDbSymbolTableRecord
100
AcDbLayerTableRecord
2
Bemassung
70
0
 62
   7
6
Continuous
370
0
390
251
0
LAYER
5
240
330
244
100
AcDbSymbolTableRecord
100
AcDbLayerTableRecord
2
Rahmen
70
0
 62
   7
6
Continuous
370
0
390
251
0
LAYER
5
241
330
244
100
AcDbSymbolTableRecord
100
AcDbLayerTableRecord
2
Geo
70
0
 62
   7
6
Continuous
370
0
390
251
0
LAYER
5
33A
330
244
100
AcDbSymbolTableRecord
100
AcDbLayerTableRecord
2
Defpoints
70
0
62
7
6
Continuous
290
0
370
-3
390
251
0
LAYER
5
57E
330
244
100
AcDbSymbolTableRecord
100
AcDbLayerTableRecord
2
Text
70
0
 62
   7
6
Continuous
370
0
390
251
1001
AcAecLayerStandard
1000

1000

0
ENDTAB
0
TABLE
2
STYLE
5
245
330
0
100
AcDbSymbolTable
70
2
0
STYLE
5
253
330
245
100
AcDbSymbolTableRecord
100
AcDbTextStyleTableRecord
2
Standard
70
0
40
0.0
41
1.0
50
0.0
71
0
42
0.2
3
Arial
4

1001
ACAD
1000
Arial
1071
0
0
STYLE
5
132
330
245
100
AcDbSymbolTableRecord
100
AcDbTextStyleTableRecord
2
Beschriftung
70
0
40
0.0
41
1.0
50
0.0
71
0
42
0.2
3
Arial
4

1001
ACAD
1000
Arial
1071
0
1001
AcadAnnotative
1000
AnnotativeData
1070
1
1070
1
0
ENDTAB
0
TABLE
2
VIEW
5
248
330
0
100
AcDbSymbolTable
70
0
0
ENDTAB
0
TABLE
2
UCS
5
249
330
0
100
AcDbSymbolTable
70
0
0
ENDTAB
0
TABLE
2
APPID
5
24B
330
0
100
AcDbSymbolTable
70
13
0
APPID
5
254
330
24B
100
AcDbSymbolTableRecord
100
AcDbRegAppTableRecord
2
ACAD
70
0
0
APPID
5
26C
330
24B
100
AcDbSymbolTableRecord
100
AcDbRegAppTableRecord
2
VD_INVISIBLE_NOT_FOR_READ
70
0
0
APPID
5
26D
330
24B
100
AcDbSymbolTableRecord
100
AcDbRegAppTableRecord
2
VD_TEMPHATCH
70
0
0
APPID
5
26E
330
24B
100
AcDbSymbolTableRecord
100
AcDbRegAppTableRecord
2
VDEXTRAPARAM
70
0
0
APPID
5
26F
330
24B
100
AcDbSymbolTableRecord
100
AcDbRegAppTableRecord
2
PE_URL
70
0
0
APPID
5
270
330
24B
100
AcDbSymbolTableRecord
100
AcDbRegAppTableRecord
2
VD_UNKNOWN
70
0
0
APPID
5
28F
330
24B
100
AcDbSymbolTableRecord
100
AcDbRegAppTableRecord
2
AcadAnnotative
70
0
0
APPID
5
290
330
24B
100
AcDbSymbolTableRecord
100
AcDbRegAppTableRecord
2
ACAD_DSTYLE_DIMJAG
70
0
0
APPID
5
291
330
24B
100
AcDbSymbolTableRecord
100
AcDbRegAppTableRecord
2
ACAD_DSTYLE_DIMTALN
70
0
0
APPID
5
293
330
24B
100
AcDbSymbolTableRecord
100
AcDbRegAppTableRecord
2
ACAD_PSEXT
70
0
0
APPID
5
42A
330
24B
100
AcDbSymbolTableRecord
100
AcDbRegAppTableRecord
2
ACAD_MLEADERVER
70
0
0
APPID
5
532
330
24B
100
AcDbSymbolTableRecord
100
AcDbRegAppTableRecord
2
ACAD_EXEMPT_FROM_CAD_STANDARDS
70
0
0
APPID
5
57F
330
24B
100
AcDbSymbolTableRecord
100
AcDbRegAppTableRecord
2
AcAecLayerStandard
70
0
0
ENDTAB
0
TABLE
2
DIMSTYLE
5
24C
330
0
100
AcDbSymbolTable
70
3
100
AcDbDimStyleTable
71
2
340
27
340
269
0
DIMSTYLE
105
269
330
24C
100
AcDbSymbolTableRecord
100
AcDbDimStyleTableRecord
2
Standard
70
0
172
1
174
1
288
1
340
253
342
23C
0
DIMSTYLE
105
137
330
24C
100
AcDbSymbolTableRecord
100
AcDbDimStyleTableRecord
2
Beschriftung
70
0
41
2.5
42
0.625
44
1.25
73
0
74
0
77
1
140
2.5
147
0.625
172
1
174
1
271
2
288
1
340
253
342
23C
1001
AcadAnnotative
1000
AnnotativeData
1070
1
1070
1
1001
ACAD_DSTYLE_DIMJAG
1070
388
1040
1.5
1001
ACAD_DSTYLE_DIMTALN
1070
392
1070
0
0
DIMSTYLE
105
27
102
{ACAD_REACTORS
330
F10012
330
F10017
330
F10021
330
F10026
330
F10008
330
F10003
330
F1000D
330
F1001C
102
}
330
24C
100
AcDbSymbolTableRecord
100
AcDbDimStyleTableRecord
2
BEM-ISBE
70
0
41
2.5
42
0.625
44
1.25
48
0.000000001
71
1
73
0
74
0
77
1
140
2.5
144
1.00000000000000
146
0.5
147
0.625
171
 3
172
 1
179
 3
271
 3
272
 3
274
 3
340
253
342
23C
1001
ACAD_DSTYLE_DIMJAG
1070
388
1040
1.5
1001
ACAD_DSTYLE_DIMTALN
1070
392
1070
1
0
ENDTAB
0
TABLE
2
BLOCK_RECORD
5
243
330
0
100
AcDbSymbolTable
70
5
0
BLOCK_RECORD
5
261
330
243
100
AcDbSymbolTableRecord
100
AcDbBlockTableRecord
2
*Model_Space
340
FD0
0
BLOCK_RECORD
5
25D
330
243
100
AcDbSymbolTableRecord
100
AcDbBlockTableRecord
2
*Paper_Space
340
FD1
0
BLOCK_RECORD
5
265
330
243
100
AcDbSymbolTableRecord
100
AcDbBlockTableRecord
2
*Paper_Space0
340
0
0
BLOCK_RECORD
5
23C
330
243
100
AcDbSymbolTableRecord
100
AcDbBlockTableRecord
2
VDDIM_DEFAULT
340
0
102
{BLKREFS
102
}
0
BLOCK_RECORD
5
23E
330
243
100
AcDbSymbolTableRecord
100
AcDbBlockTableRecord
2
VDDIM_NONE
340
0
0
BLOCK_RECORD
5
F10011
330
243
100
AcDbSymbolTableRecord
100
AcDbBlockTableRecord
2
*D6
340
0
0
BLOCK_RECORD
5
F10016
330
243
100
AcDbSymbolTableRecord
100
AcDbBlockTableRecord
2
*D7
340
0
0
BLOCK_RECORD
5
F10020
330
243
100
AcDbSymbolTableRecord
100
AcDbBlockTableRecord
2
*D9
340
0
0
BLOCK_RECORD
5
F10025
330
243
100
AcDbSymbolTableRecord
100
AcDbBlockTableRecord
2
*D10
340
0
0
BLOCK_RECORD
5
F10007
330
243
100
AcDbSymbolTableRecord
100
AcDbBlockTableRecord
2
*D4
340
0
0
BLOCK_RECORD
5
F10002
330
243
100
AcDbSymbolTableRecord
100
AcDbBlockTableRecord
2
*D3
340
0
0
BLOCK_RECORD
5
F1000C
330
243
100
AcDbSymbolTableRecord
100
AcDbBlockTableRecord
2
*D5
340
0
0
BLOCK_RECORD
5
F1001B
330
243
100
AcDbSymbolTableRecord
100
AcDbBlockTableRecord
2
*D8
340
0
0
ENDTAB
0
ENDSEC
0
SECTION
2
BLOCKS
0
BLOCK
5
262
330
261
100
AcDbEntity
8
0
100
AcDbBlockBegin
2
*Model_Space
70
0
10
0.0
20
0.0
30
0.0
3
*Model_Space
1

0
ENDBLK
5
263
330
261
100
AcDbEntity
8
0
100
AcDbBlockEnd
0
BLOCK
5
25E
330
25D
100
AcDbEntity
67
1
8
0
100
AcDbBlockBegin
2
*Paper_Space
70
0
10
0.0
20
0.0
30
0.0
3
*Paper_Space
1

0
ENDBLK
5
25F
330
25D
100
AcDbEntity
67
1
8
0
100
AcDbBlockEnd
0
BLOCK
5
266
330
265
100
AcDbEntity
8
0
100
AcDbBlockBegin
2
*Paper_Space0
70
0
10
0.0
20
0.0
30
0.0
3
*Paper_Space0
1

0
VIEWPORT
5
296
102
{ACAD_XDICTIONARY
360
58E
102
}
330
265
100
AcDbEntity
8
0
60
1
100
AcDbViewport
10
0.0
20
0.0
30
0.0
40
10.0
41
10.0
69
0
12
0.0
22
0.0
13
0.0
23
0.0
14
1.0
24
1.0
15
0.0
25
0.0
16
0.0
26
0.0
36
1.0
17
0.0
27
0.0
37
0.0
42
0.0
43
0.0
44
0.0
45
10.0
50
0.0
51
0.0000000000007958
72
100
90
163872
1

281
0
71
0
74
0
110
0.0
120
0.0
130
0.0
111
1.0
121
0.0
131
0.0
112
0.0
122
1.0
132
0.0
79
0
146
0.0
1001
VD_INVISIBLE_NOT_FOR_READ
1000
VD_INVISIBLE_NOT_FOR_READ
0
VIEWPORT
5
297
102
{ACAD_XDICTIONARY
360
590
102
}
330
265
100
AcDbEntity
8
0
60
1
100
AcDbViewport
10
0.0
20
0.0
30
0.0
40
10.0
41
10.0
69
0
12
0.0
22
0.0
13
0.0
23
0.0
14
1.0
24
1.0
15
0.0
25
0.0
16
0.0
26
0.0
36
1.0
17
0.0
27
0.0
37
0.0
42
0.0
43
0.0
44
0.0
45
10.0
50
0.0
51
0.0000000000007958
72
100
90
163872
1

281
0
71
0
74
0
110
0.0
120
0.0
130
0.0
111
1.0
121
0.0
131
0.0
112
0.0
122
1.0
132
0.0
79
0
146
0.0
1001
VD_INVISIBLE_NOT_FOR_READ
1000
VD_INVISIBLE_NOT_FOR_READ
0
ENDBLK
5
267
330
265
100
AcDbEntity
8
0
100
AcDbBlockEnd
0
BLOCK
5
28B
330
23C
100
AcDbEntity
8
0
100
AcDbBlockBegin
2
VDDIM_DEFAULT
70
0
10
0.0
20
0.0
30
0.0
3
VDDIM_DEFAULT
1

0
LWPOLYLINE
5
23D
330
23C
100
AcDbEntity
8
0
6
Continuous
62
0
100
AcDbPolyline
90
4
70
0
43
0.0
10
0.0
20
0.0
10
-1.0
20
-0.1665
10
-1.0
20
0.1665
10
0.0
20
0.0
1001
VDEXTRAPARAM
1071
1
1071
0
1071
0
1040
1.0
1000

1000

1040
0.0
1040
0.0
0
HATCH
5
292
330
23C
100
AcDbEntity
8
0
6
Continuous
62
0
100
AcDbHatch
10
0.0
20
0.0
30
0.0
210
0.0
220
0.0
230
1.0
2
SOLID
70
1
71
0
91
1
92
2
72
0
73
1
93
3
10
0.0
20
0.0
10
-1.0
20
-0.1665
10
-1.0
20
0.1665
97
0
75
0
76
1
98
1
10
0.0
20
0.0
1001
VDEXTRAPARAM
1071
1
1071
0
1071
0
1040
1.0
1000

1000

1040
0.0
1040
0.0
1001
VD_TEMPHATCH
1000
VD_TEMPHATCH
0
ENDBLK
5
28C
330
23C
100
AcDbEntity
8
0
100
AcDbBlockEnd
0
BLOCK
5
28D
330
23E
100
AcDbEntity
8
0
100
AcDbBlockBegin
2
VDDIM_NONE
70
0
10
0.0
20
0.0
30
0.0
3
VDDIM_NONE
1

0
ENDBLK
5
28E
330
23E
100
AcDbEntity
8
0
100
AcDbBlockEnd
  0
BLOCK
  5
F1002A
330
F10011
100
AcDbEntity
  8
0
100
AcDbBlockBegin
  2
*D6
 70
     1
 10
0.0
 20
0.0
 30
0.0
  3
*D6
  1

  0
LINE
  5
F1002B
330
F10011
100
AcDbEntity
  8
Bemassung
 62
     0
370
    -2
100
AcDbLine
10
-73.1056210335448
20
-0.0997280145058426
30
0.000000000000000
11
-73.1056210335448
21
44.9002719854942
31
0.000000000000000
  0
LINE
  5
F1002C
330
F10011
100
AcDbEntity
  8
Bemassung
 62
     0
370
    -2
100
AcDbLine
10
6.89437896645516
20
12.6002719854942
30
0.000000000000000
11
6.89437896645516
21
24.9002719854942
31
0.000000000000000
  0
LINE
  5
F1002D
330
F10011
100
AcDbEntity
  8
Bemassung
 62
     0
370
    -2
100
AcDbLine
10
-73.1056210335448
20
22.9002719854942
30
0.000000000000000
11
6.89437896645516
21
22.9002719854942
31
0.000000000000000
  0
INSERT
  5
F1002E
330
F10011
100
AcDbEntity
  8
Bemassung
 62
     0
370
    -2
100
AcDbBlockReference
  2
VDDIM_DEFAULT
10
-73.1056210335448
20
22.9002719854942
30
0.000000000000000
 41
2.50000000000000
 42
2.50000000000000
 43
2.50000000000000
 50
180.000000000000
  0
INSERT
  5
F1002F
330
F10011
100
AcDbEntity
  8
Bemassung
 62
     0
370
    -2
100
AcDbBlockReference
  2
VDDIM_DEFAULT
10
6.89437896645516
20
22.9002719854942
30
0.000000000000000
 41
2.50000000000000
 42
2.50000000000000
 43
2.50000000000000
  0
MTEXT
  5
F10030
330
F10011
100
AcDbEntity
  8
Bemassung
 62
     0
100
AcDbMText
10
-33.1056210335448
20
23.5669386521608
30
0.000000000000000
 40
2.50000000000000
 41
0.0
 71
     8
 72
     1
  1
80
 11
1.00000000000000
 21
0.000000000000000
 31
0.0
 73
     1
 44
1.0
1001
ACAD
1000
MTEXTBEGIN
1070
73
1070
1
1070
44
1040
1.0
1070
74
1070
0
1000
MTEXTEND
  0
POINT
  5
F10031
330
F10011
100
AcDbEntity
  8
Bemassung
 62
     0
100
AcDbPoint
10
-73.1056210335448
20
-0.0997280145058426
30
0.000000000000000
  0
POINT
  5
F10032
330
F10011
100
AcDbEntity
  8
Bemassung
 62
     0
100
AcDbPoint
10
6.89437896645516
20
12.6002719854942
30
0.000000000000000
  0
ENDBLK
  5
F10033
330
F10011
100
AcDbEntity
  8
0
100
AcDbBlockEnd
  0
BLOCK
  5
F10034
330
F10016
100
AcDbEntity
  8
0
100
AcDbBlockBegin
  2
*D7
 70
     1
 10
0.0
 20
0.0
 30
0.0
  3
*D7
  1

  0
LINE
  5
F10035
330
F10016
100
AcDbEntity
  8
Bemassung
 62
     0
370
    -2
100
AcDbLine
10
-73.1056210335448
20
-0.0997280145058426
30
0.000000000000000
11
-73.1056210335448
21
44.9002719854942
31
0.000000000000000
  0
LINE
  5
F10036
330
F10016
100
AcDbEntity
  8
Bemassung
 62
     0
370
    -2
100
AcDbLine
10
8.29437896645517
20
12.9002719854942
30
0.000000000000000
11
8.29437896645517
21
34.9002719854942
31
0.000000000000000
  0
LINE
  5
F10037
330
F10016
100
AcDbEntity
  8
Bemassung
 62
     0
370
    -2
100
AcDbLine
10
-73.1056210335448
20
32.9002719854942
30
0.000000000000000
11
8.29437896645517
21
32.9002719854942
31
0.000000000000000
  0
INSERT
  5
F10038
330
F10016
100
AcDbEntity
  8
Bemassung
 62
     0
370
    -2
100
AcDbBlockReference
  2
VDDIM_DEFAULT
10
-73.1056210335448
20
32.9002719854942
30
0.000000000000000
 41
2.50000000000000
 42
2.50000000000000
 43
2.50000000000000
 50
180.000000000000
  0
INSERT
  5
F10039
330
F10016
100
AcDbEntity
  8
Bemassung
 62
     0
370
    -2
100
AcDbBlockReference
  2
VDDIM_DEFAULT
10
8.29437896645517
20
32.9002719854942
30
0.000000000000000
 41
2.50000000000000
 42
2.50000000000000
 43
2.50000000000000
  0
MTEXT
  5
F1003A
330
F10016
100
AcDbEntity
  8
Bemassung
 62
     0
100
AcDbMText
10
-32.4056210335448
20
33.5669386521608
30
0.000000000000000
 40
2.50000000000000
 41
0.0
 71
     8
 72
     1
  1
81.4
 11
1.00000000000000
 21
0.000000000000000
 31
0.0
 73
     1
 44
1.0
1001
ACAD
1000
MTEXTBEGIN
1070
73
1070
1
1070
44
1040
1.0
1070
74
1070
0
1000
MTEXTEND
  0
POINT
  5
F1003B
330
F10016
100
AcDbEntity
  8
Bemassung
 62
     0
100
AcDbPoint
10
-73.1056210335448
20
-0.0997280145058426
30
0.000000000000000
  0
POINT
  5
F1003C
330
F10016
100
AcDbEntity
  8
Bemassung
 62
     0
100
AcDbPoint
10
8.29437896645517
20
12.9002719854942
30
0.000000000000000
  0
ENDBLK
  5
F1003D
330
F10016
100
AcDbEntity
  8
0
100
AcDbBlockEnd
  0
BLOCK
  5
F1003E
330
F10020
100
AcDbEntity
  8
0
100
AcDbBlockBegin
  2
*D9
 70
     1
 10
0.0
 20
0.0
 30
0.0
  3
*D9
  1

  0
LINE
  5
F1003F
330
F10020
100
AcDbEntity
  8
Bemassung
 62
     0
370
    -2
100
AcDbLine
10
-57.1056210335448
20
7.20027198549416
30
0.000000000000000
11
-57.1056210335448
21
-0.0997280145058426
31
0.000000000000000
  0
LINE
  5
F10040
330
F10020
100
AcDbEntity
  8
Bemassung
 62
     0
370
    -2
100
AcDbLine
10
-73.1056210335448
20
-0.0997280145058426
30
0.000000000000000
11
-73.1056210335448
21
44.9002719854942
31
0.000000000000000
  0
LINE
  5
F10041
330
F10020
100
AcDbEntity
  8
Bemassung
 62
     0
370
    -2
100
AcDbLine
10
-57.1056210335448
20
1.90027198549416
30
0.000000000000000
11
-73.1056210335448
21
1.90027198549416
31
0.000000000000000
  0
INSERT
  5
F10042
330
F10020
100
AcDbEntity
  8
Bemassung
 62
     0
370
    -2
100
AcDbBlockReference
  2
VDDIM_DEFAULT
10
-57.1056210335448
20
1.90027198549416
30
0.000000000000000
 41
2.50000000000000
 42
2.50000000000000
 43
2.50000000000000
  0
INSERT
  5
F10043
330
F10020
100
AcDbEntity
  8
Bemassung
 62
     0
370
    -2
100
AcDbBlockReference
  2
VDDIM_DEFAULT
10
-73.1056210335448
20
1.90027198549416
30
0.000000000000000
 41
2.50000000000000
 42
2.50000000000000
 43
2.50000000000000
 50
180.000000000000
  0
MTEXT
  5
F10044
330
F10020
100
AcDbEntity
  8
Bemassung
 62
     0
100
AcDbMText
10
-65.1056210335448
20
2.56693865216082
30
0.000000000000000
 40
2.50000000000000
 41
0.0
 71
     8
 72
     1
  1
16
 11
1.00000000000000
 21
0.000000000000000
 31
0.0
 73
     1
 44
1.0
1001
ACAD
1000
MTEXTBEGIN
1070
73
1070
1
1070
44
1040
1.0
1070
74
1070
0
1000
MTEXTEND
  0
POINT
  5
F10045
330
F10020
100
AcDbEntity
  8
Bemassung
 62
     0
100
AcDbPoint
10
-57.1056210335448
20
7.20027198549416
30
0.000000000000000
  0
POINT
  5
F10046
330
F10020
100
AcDbEntity
  8
Bemassung
 62
     0
100
AcDbPoint
10
-73.1056210335448
20
-0.0997280145058426
30
0.000000000000000
  0
ENDBLK
  5
F10047
330
F10020
100
AcDbEntity
  8
0
100
AcDbBlockEnd
  0
BLOCK
  5
F10048
330
F10025
100
AcDbEntity
  8
0
100
AcDbBlockBegin
  2
*D10
 70
     1
 10
0.0
 20
0.0
 30
0.0
  3
*D10
  1

  0
LINE
  5
F10049
330
F10025
100
AcDbEntity
  8
Bemassung
 62
     0
370
    -2
100
AcDbLine
10
86.8943789664552
20
12.4002719854942
30
0.000000000000000
11
86.8943789664552
21
44.9002719854942
31
0.000000000000000
  0
LINE
  5
F1004A
330
F10025
100
AcDbEntity
  8
Bemassung
 62
     0
370
    -2
100
AcDbLine
10
-73.1056210335448
20
-0.0997280145058426
30
0.000000000000000
11
-73.1056210335448
21
44.9002719854942
31
0.000000000000000
  0
LINE
  5
F1004B
330
F10025
100
AcDbEntity
  8
Bemassung
 62
     0
370
    -2
100
AcDbLine
10
86.8943789664552
20
42.9002719854942
30
0.000000000000000
11
-73.1056210335448
21
42.9002719854942
31
0.000000000000000
  0
INSERT
  5
F1004C
330
F10025
100
AcDbEntity
  8
Bemassung
 62
     0
370
    -2
100
AcDbBlockReference
  2
VDDIM_DEFAULT
10
86.8943789664552
20
42.9002719854942
30
0.000000000000000
 41
2.50000000000000
 42
2.50000000000000
 43
2.50000000000000
  0
INSERT
  5
F1004D
330
F10025
100
AcDbEntity
  8
Bemassung
 62
     0
370
    -2
100
AcDbBlockReference
  2
VDDIM_DEFAULT
10
-73.1056210335448
20
42.9002719854942
30
0.000000000000000
 41
2.50000000000000
 42
2.50000000000000
 43
2.50000000000000
 50
180.000000000000
  0
MTEXT
  5
F1004E
330
F10025
100
AcDbEntity
  8
Bemassung
 62
     0
100
AcDbMText
10
6.89437896645516
20
43.5669386521608
30
0.000000000000000
 40
2.50000000000000
 41
0.0
 71
     8
 72
     1
  1
160
 11
1.00000000000000
 21
0.000000000000000
 31
0.0
 73
     1
 44
1.0
1001
ACAD
1000
MTEXTBEGIN
1070
73
1070
1
1070
44
1040
1.0
1070
74
1070
0
1000
MTEXTEND
  0
POINT
  5
F1004F
330
F10025
100
AcDbEntity
  8
Bemassung
 62
     0
100
AcDbPoint
10
86.8943789664552
20
12.4002719854942
30
0.000000000000000
  0
POINT
  5
F10050
330
F10025
100
AcDbEntity
  8
Bemassung
 62
     0
100
AcDbPoint
10
-73.1056210335448
20
-0.0997280145058426
30
0.000000000000000
  0
ENDBLK
  5
F10051
330
F10025
100
AcDbEntity
  8
0
100
AcDbBlockEnd
  0
BLOCK
  5
F10052
330
F10007
100
AcDbEntity
  8
0
100
AcDbBlockBegin
  2
*D4
 70
     1
 10
0.0
 20
0.0
 30
0.0
  3
*D4
  1

  0
LINE
  5
F10053
330
F10007
100
AcDbEntity
  8
Bemassung
 62
     0
370
    -2
100
AcDbLine
10
-73.0177530679008
20
12.7374040198501
30
0.000000000000000
11
-82.7353694469628
21
22.4550203989121
31
0.000000000000000
  0
INSERT
  5
F10054
330
F10007
100
AcDbEntity
  8
Bemassung
 62
     0
370
    -2
100
AcDbBlockReference
  2
VDDIM_DEFAULT
10
-73.0177530679008
20
12.7374040198501
30
0.000000000000000
 41
2.50000000000000
 42
2.50000000000000
 43
2.50000000000000
 50
315.000000000000
  0
MTEXT
  5
F10055
330
F10007
100
AcDbEntity
  8
Bemassung
 62
     0
100
AcDbMText
10
-80.0888208797663
20
19.8084718317156
30
0.000000000000000
 40
2.50000000000000
 41
0.0
 71
     8
 72
     1
  1
R0.3
 11
0.707106781186547
 21
-0.707106781186548
 31
0.0
 73
     1
 44
1.0
1001
ACAD
1000
MTEXTBEGIN
1070
73
1070
1
1070
44
1040
1.0
1070
74
1070
0
1000
MTEXTEND
  0
POINT
  5
F10056
330
F10007
100
AcDbEntity
  8
Bemassung
 62
     0
100
AcDbPoint
10
-73.0177530679008
20
12.7374040198501
30
0.000000000000000
  0
POINT
  5
F10057
330
F10007
100
AcDbEntity
  8
Bemassung
 62
     0
100
AcDbPoint
10
-72.8056210335448
20
12.5252719854942
30
0.000000000000000
  0
ENDBLK
  5
F10058
330
F10007
100
AcDbEntity
  8
0
100
AcDbBlockEnd
  0
BLOCK
  5
F10059
330
F10002
100
AcDbEntity
  8
0
100
AcDbBlockBegin
  2
*D3
 70
     1
 10
0.0
 20
0.0
 30
0.0
  3
*D3
  1

  0
LINE
  5
F1005A
330
F10002
100
AcDbEntity
  8
Bemassung
 62
     0
370
    -2
100
AcDbLine
10
-72.8056210335448
20
6.97527198549416
30
0.000000000000000
11
-85.1056210335448
21
6.97527198549416
31
0.000000000000000
  0
LINE
  5
F1005B
330
F10002
100
AcDbEntity
  8
Bemassung
 62
     0
370
    -2
100
AcDbLine
10
-72.8056210335448
20
12.8252719854942
30
0.000000000000000
11
-85.1056210335448
21
12.8252719854942
31
0.000000000000000
  0
LINE
  5
F1005C
330
F10002
100
AcDbEntity
  8
Bemassung
 62
     0
370
    -2
100
AcDbLine
10
-83.1056210335448
20
-7.71078875793289
30
0.000000000000000
11
-83.1056210335448
21
12.8252719854942
31
0.000000000000000
  0
INSERT
  5
F1005D
330
F10002
100
AcDbEntity
  8
Bemassung
 62
     0
370
    -2
100
AcDbBlockReference
  2
VDDIM_DEFAULT
10
-83.1056210335448
20
6.97527198549416
30
0.000000000000000
 41
2.50000000000000
 42
2.50000000000000
 43
2.50000000000000
 50
90.0000000000000
  0
INSERT
  5
F1005E
330
F10002
100
AcDbEntity
  8
Bemassung
 62
     0
370
    -2
100
AcDbBlockReference
  2
VDDIM_DEFAULT
10
-83.1056210335448
20
12.8252719854942
30
0.000000000000000
 41
2.50000000000000
 42
2.50000000000000
 43
2.50000000000000
 50
270.000000000000
  0
MTEXT
  5
F1005F
330
F10002
100
AcDbEntity
  8
Bemassung
 62
     0
100
AcDbMText
10
-83.7722877002115
20
1.64286038077969
30
0.000000000000000
 40
2.50000000000000
 41
0.0
 71
     8
 72
     1
  1
Ø5.85
 11
6.12323399573677e-17
 21
1.00000000000000
 31
0.0
 73
     1
 44
1.0
1001
ACAD
1000
MTEXTBEGIN
1070
73
1070
1
1070
44
1040
1.0
1070
74
1070
0
1000
MTEXTEND
  0
POINT
  5
F10060
330
F10002
100
AcDbEntity
  8
Bemassung
 62
     0
100
AcDbPoint
10
-72.8056210335448
20
6.97527198549416
30
0.000000000000000
  0
POINT
  5
F10061
330
F10002
100
AcDbEntity
  8
Bemassung
 62
     0
100
AcDbPoint
10
-72.8056210335448
20
12.8252719854942
30
0.000000000000000
  0
ENDBLK
  5
F10062
330
F10002
100
AcDbEntity
  8
0
100
AcDbBlockEnd
  0
BLOCK
  5
F10063
330
F1000C
100
AcDbEntity
  8
0
100
AcDbBlockBegin
  2
*D5
 70
     1
 10
0.0
 20
0.0
 30
0.0
  3
*D5
  1

  0
LINE
  5
F10064
330
F1000C
100
AcDbEntity
  8
Bemassung
 62
     0
370
    -2
100
AcDbLine
10
-57.1056210335448
20
7.20027198549416
30
0.000000000000000
11
-38.1056210335448
21
7.20027198549416
31
0.000000000000000
  0
LINE
  5
F10065
330
F1000C
100
AcDbEntity
  8
Bemassung
 62
     0
370
    -2
100
AcDbLine
10
-57.1056210335448
20
12.6002719854942
30
0.000000000000000
11
-38.1056210335448
21
12.6002719854942
31
0.000000000000000
  0
LINE
  5
F10066
330
F1000C
100
AcDbEntity
  8
Bemassung
 62
     0
370
    -2
100
AcDbLine
10
-40.1056210335448
20
-12.2801450589302
30
0.000000000000000
11
-40.1056210335448
21
12.6002719854942
31
0.000000000000000
  0
INSERT
  5
F10067
330
F1000C
100
AcDbEntity
  8
Bemassung
 62
     0
370
    -2
100
AcDbBlockReference
  2
VDDIM_DEFAULT
10
-40.1056210335448
20
7.20027198549416
30
0.000000000000000
 41
2.50000000000000
 42
2.50000000000000
 43
2.50000000000000
 50
90.0000000000000
  0
INSERT
  5
F10068
330
F1000C
100
AcDbEntity
  8
Bemassung
 62
     0
370
    -2
100
AcDbBlockReference
  2
VDDIM_DEFAULT
10
-40.1056210335448
20
12.6002719854942
30
0.000000000000000
 41
2.50000000000000
 42
2.50000000000000
 43
2.50000000000000
 50
270.000000000000
  0
MTEXT
  5
F10069
330
F1000C
100
AcDbEntity
  8
Bemassung
 62
     0
100
AcDbMText
10
-40.7722877002115
20
-4.73422484134174
30
0.000000000000000
 40
2.50000000000000
 41
0.0
 71
     8
 72
     1
  1
Ø5.4
 11
6.12323399573677e-17
 21
1.00000000000000
 31
0.0
 73
     1
 44
1.0
1001
ACAD
1000
MTEXTBEGIN
1070
73
1070
1
1070
44
1040
1.0
1070
74
1070
0
1000
MTEXTEND
  0
POINT
  5
F1006A
330
F1000C
100
AcDbEntity
  8
Bemassung
 62
     0
100
AcDbPoint
10
-57.1056210335448
20
7.20027198549416
30
0.000000000000000
  0
POINT
  5
F1006B
330
F1000C
100
AcDbEntity
  8
Bemassung
 62
     0
100
AcDbPoint
10
-57.1056210335448
20
12.6002719854942
30
0.000000000000000
  0
ENDBLK
  5
F1006C
330
F1000C
100
AcDbEntity
  8
0
100
AcDbBlockEnd
  0
BLOCK
  5
F1006D
330
F1001B
100
AcDbEntity
  8
0
100
AcDbBlockBegin
  2
*D8
 70
     1
 10
0.0
 20
0.0
 30
0.0
  3
*D8
  1

  0
LINE
  5
F1006E
330
F1001B
100
AcDbEntity
  8
Bemassung
 62
     0
370
    -2
100
AcDbLine
10
8.29437896645517
20
6.90027198549416
30
0.000000000000000
11
100.294378966455
21
6.90027198549416
31
0.000000000000000
  0
LINE
  5
F1006F
330
F1001B
100
AcDbEntity
  8
Bemassung
 62
     0
370
    -2
100
AcDbLine
10
8.29437896645517
20
12.9002719854942
30
0.000000000000000
11
100.294378966455
21
12.9002719854942
31
0.000000000000000
  0
LINE
  5
F10070
330
F1001B
100
AcDbEntity
  8
Bemassung
 62
     0
370
    -2
100
AcDbLine
10
98.2943789664552
20
-1.42792384406162
30
0.000000000000000
11
98.2943789664552
21
12.9002719854942
31
0.000000000000000
  0
INSERT
  5
F10071
330
F1001B
100
AcDbEntity
  8
Bemassung
 62
     0
370
    -2
100
AcDbBlockReference
  2
VDDIM_DEFAULT
10
98.2943789664552
20
6.90027198549416
30
0.000000000000000
 41
2.50000000000000
 42
2.50000000000000
 43
2.50000000000000
 50
90.0000000000000
  0
INSERT
  5
F10072
330
F1001B
100
AcDbEntity
  8
Bemassung
 62
     0
370
    -2
100
AcDbBlockReference
  2
VDDIM_DEFAULT
10
98.2943789664552
20
12.9002719854942
30
0.000000000000000
 41
2.50000000000000
 42
2.50000000000000
 43
2.50000000000000
 50
270.000000000000
  0
MTEXT
  5
F10073
330
F1001B
100
AcDbEntity
  8
Bemassung
 62
     0
100
AcDbMText
10
97.6277122997885
20
3.33182230281012
30
0.000000000000000
 40
2.50000000000000
 41
0.0
 71
     8
 72
     1
  1
Ø6
 11
6.12323399573677e-17
 21
1.00000000000000
 31
0.0
 73
     1
 44
1.0
1001
ACAD
1000
MTEXTBEGIN
1070
73
1070
1
1070
44
1040
1.0
1070
74
1070
0
1000
MTEXTEND
  0
POINT
  5
F10074
330
F1001B
100
AcDbEntity
  8
Bemassung
 62
     0
100
AcDbPoint
10
8.29437896645517
20
6.90027198549416
30
0.000000000000000
  0
POINT
  5
F10075
330
F1001B
100
AcDbEntity
  8
Bemassung
 62
     0
100
AcDbPoint
10
8.29437896645517
20
12.9002719854942
30
0.000000000000000
  0
ENDBLK
  5
F10076
330
F1001B
100
AcDbEntity
  8
0
100
AcDbBlockEnd
0
ENDSEC
0
SECTION
2
ENTITIES
  0
DIMENSION
  5
F10012
330
261
100
AcDbEntity
  8
Bemassung
100
AcDbDimension
  2
*D6
10
6.89437896645516
20
22.9002719854942
30
0.000000000000000
11
-33.1056210335448
21
23.5669386521608
31
0.000000000000000
 70
32
 1
80
 71
     8
  3
BEM-ISBE
100
AcDbAlignedDimension
13
-73.1056210335448
23
-0.0997280145058426
33
0.000000000000000
14
6.89437896645516
24
12.6002719854942
34
0.000000000000000
100
AcDbRotatedDimension
1001
ACAD
1000
DSTYLE
1002
{
1070
284
1070
8
1070
78
1070
8
1070
144
1040
1.00000000000000
1070
147
1040
0.625
1070
 72
1070
 0
1070
 71
1070
 0
1002
}
  0
DIMENSION
  5
F10017
330
261
100
AcDbEntity
  8
Bemassung
100
AcDbDimension
  2
*D7
10
8.29437896645517
20
32.9002719854942
30
0.000000000000000
11
-32.4056210335448
21
33.5669386521608
31
0.000000000000000
 70
32
 1
81.4
 71
     8
  3
BEM-ISBE
100
AcDbAlignedDimension
13
-73.1056210335448
23
-0.0997280145058426
33
0.000000000000000
14
8.29437896645517
24
12.9002719854942
34
0.000000000000000
100
AcDbRotatedDimension
1001
ACAD
1000
DSTYLE
1002
{
1070
284
1070
8
1070
78
1070
8
1070
144
1040
1.00000000000000
1070
147
1040
0.625
1070
 72
1070
 0
1070
 71
1070
 0
1002
}
  0
DIMENSION
  5
F10021
330
261
100
AcDbEntity
  8
Bemassung
100
AcDbDimension
  2
*D9
10
-73.1056210335448
20
1.90027198549416
30
0.000000000000000
11
-65.1056210335448
21
2.56693865216082
31
0.000000000000000
 70
32
 1
16
 71
     8
  3
BEM-ISBE
100
AcDbAlignedDimension
13
-57.1056210335448
23
7.20027198549416
33
0.000000000000000
14
-73.1056210335448
24
-0.0997280145058426
34
0.000000000000000
100
AcDbRotatedDimension
1001
ACAD
1000
DSTYLE
1002
{
1070
284
1070
8
1070
78
1070
8
1070
144
1040
1.00000000000000
1070
147
1040
0.625
1070
 72
1070
 0
1070
 71
1070
 0
1002
}
  0
DIMENSION
  5
F10026
330
261
100
AcDbEntity
  8
Bemassung
100
AcDbDimension
  2
*D10
10
-73.1056210335448
20
42.9002719854942
30
0.000000000000000
11
6.89437896645516
21
43.5669386521608
31
0.000000000000000
 70
32
 1
160
 71
     8
  3
BEM-ISBE
100
AcDbAlignedDimension
13
86.8943789664552
23
12.4002719854942
33
0.000000000000000
14
-73.1056210335448
24
-0.0997280145058426
34
0.000000000000000
100
AcDbRotatedDimension
1001
ACAD
1000
DSTYLE
1002
{
1070
284
1070
8
1070
78
1070
8
1070
144
1040
1.00000000000000
1070
147
1040
0.625
1070
 72
1070
 0
1070
 71
1070
 0
1002
}
  0
DIMENSION
  5
F10008
330
261
100
AcDbEntity
  8
Bemassung
100
AcDbDimension
  2
*D4
10
-72.8056210335448
20
12.5252719854942
30
0.000000000000000
11
-80.0888208797663
21
19.8084718317156
31
0.000000000000000
 70
164
 1
R0.3
 71
     8
  3
BEM-ISBE
100
AcDbRadialDimension
15
-73.0177530679008
25
12.7374040198501
35
0.000000000000000
40
0.0
1001
ACAD
1000
DSTYLE
1002
{
1070
284
1070
8
1070
78
1070
8
1070
144
1040
1.00000000000000
1070
147
1040
0.625
1070
 72
1070
 0
1070
 71
1070
 0
1002
}
  0
DIMENSION
  5
F10003
330
261
100
AcDbEntity
  8
Bemassung
100
AcDbDimension
  2
*D3
10
-83.1056210335448
20
12.8252719854942
30
0.000000000000000
11
-83.7722877002115
21
1.64286038077969
31
0.000000000000000
 70
32
 1
Ø5.85
 71
     8
  3
BEM-ISBE
100
AcDbAlignedDimension
13
-72.8056210335448
23
6.97527198549416
33
0.000000000000000
14
-72.8056210335448
24
12.8252719854942
34
0.000000000000000
50
90.0000000000000
100
AcDbRotatedDimension
1001
ACAD
1000
DSTYLE
1002
{
1070
284
1070
8
1070
78
1070
8
1070
144
1040
1.00000000000000
1070
147
1040
0.625
1070
 72
1070
 0
1070
 71
1070
 0
1002
}
  0
DIMENSION
  5
F1000D
330
261
100
AcDbEntity
  8
Bemassung
100
AcDbDimension
  2
*D5
10
-40.1056210335448
20
12.6002719854942
30
0.000000000000000
11
-40.7722877002115
21
-4.73422484134174
31
0.000000000000000
 70
32
 1
Ø5.4
 71
     8
  3
BEM-ISBE
100
AcDbAlignedDimension
13
-57.1056210335448
23
7.20027198549416
33
0.000000000000000
14
-57.1056210335448
24
12.6002719854942
34
0.000000000000000
50
90.0000000000000
100
AcDbRotatedDimension
1001
ACAD
1000
DSTYLE
1002
{
1070
284
1070
8
1070
78
1070
8
1070
144
1040
1.00000000000000
1070
147
1040
0.625
1070
 72
1070
 0
1070
 71
1070
 0
1002
}
  0
DIMENSION
  5
F1001C
330
261
100
AcDbEntity
  8
Bemassung
100
AcDbDimension
  2
*D8
10
98.2943789664552
20
12.9002719854942
30
0.000000000000000
11
97.6277122997885
21
3.33182230281012
31
0.000000000000000
 70
32
 1
Ø6
 71
     8
  3
BEM-ISBE
100
AcDbAlignedDimension
13
8.29437896645517
23
6.90027198549416
33
0.000000000000000
14
8.29437896645517
24
12.9002719854942
34
0.000000000000000
50
90.0000000000000
100
AcDbRotatedDimension
1001
ACAD
1000
DSTYLE
1002
{
1070
284
1070
8
1070
78
1070
8
1070
144
1040
1.00000000000000
1070
147
1040
0.625
1070
 72
1070
 0
1070
 71
1070
 0
1002
}
  0
LINE
  5
F10077
330
F10078
100
AcDbEntity
8
Geo
100
AcDbLine
10
-73.1056210335448
20
9.90027198549416
30
0.000000000000000
11
-73.1056210335448
21
12.5252719854942
31
0.000000000000000
  0
ARC
  5
F10079
330
F1007A
100
AcDbEntity
8
Geo
100
AcDbCircle
10
-72.8056210335448
20
12.5252719854942
30
0.000000000000000
 40
0.300000000000001
100
AcDbArc
 50
90.0000000000000
 51
180.000000000000
  0
LINE
  5
F1007B
330
F1007C
100
AcDbEntity
8
Geo
100
AcDbLine
10
-72.8056210335448
20
12.8252719854942
30
0.000000000000000
11
-57.1056210335448
21
12.8252719854942
31
0.000000000000000
  0
LINE
  5
F1007D
330
F1007E
100
AcDbEntity
8
Geo
100
AcDbLine
10
-57.1056210335448
20
12.8252719854942
30
0.000000000000000
11
-57.1056210335448
21
12.6002719854942
31
0.000000000000000
  0
LINE
  5
F1007F
330
F10080
100
AcDbEntity
8
Geo
100
AcDbLine
10
-57.1056210335448
20
12.6002719854942
30
0.000000000000000
11
6.89437896645516
21
12.6002719854942
31
0.000000000000000
  0
LINE
  5
F10081
330
F10082
100
AcDbEntity
8
Geo
100
AcDbLine
10
6.89437896645516
20
12.6002719854942
30
0.000000000000000
11
8.29437896645517
21
12.9002719854942
31
0.000000000000000
  0
LINE
  5
F10083
330
F10084
100
AcDbEntity
8
Geo
100
AcDbLine
10
8.29437896645517
20
12.9002719854942
30
0.000000000000000
11
85.8943789664552
21
12.9002719854942
31
0.000000000000000
  0
LINE
  5
F10085
330
F10086
100
AcDbEntity
8
Geo
100
AcDbLine
10
85.8943789664552
20
12.9002719854942
30
0.000000000000000
11
86.8943789664552
21
12.4002719854942
31
0.000000000000000
  0
LINE
  5
F10087
330
F10088
100
AcDbEntity
8
Geo
100
AcDbLine
10
-73.1056210335448
20
12.5249325959823
30
0.000000000000000
11
-73.1056208420534
21
12.5249330241031
31
0.000000000000000
  0
LINE
  5
F10089
330
F1008A
100
AcDbEntity
8
Geo
100
AcDbLine
10
-73.1056208420534
20
12.5249330241031
30
0.000000000000000
11
-73.0056210335448
21
12.7485043775992
31
0.000000000000000
  0
LINE
  5
F1008B
330
F1008C
100
AcDbEntity
8
Geo
100
AcDbLine
10
-73.0056210335448
20
12.7485043775992
30
0.000000000000000
11
-72.9056210335448
21
12.8071532437401
31
0.000000000000000
  0
LINE
  5
F1008D
330
F1008E
100
AcDbEntity
8
Geo
100
AcDbLine
10
-72.9056210335448
20
12.8071532437401
30
0.000000000000000
11
-72.8056210335448
21
12.8232341555247
31
0.000000000000000
  0
LINE
  5
F1008F
330
F10090
100
AcDbEntity
8
Geo
100
AcDbLine
10
-72.8056210335448
20
12.8232341555247
30
0.000000000000000
11
-72.7056210335448
21
12.8216495038771
31
0.000000000000000
  0
LINE
  5
F10091
330
F10092
100
AcDbEntity
8
Geo
100
AcDbLine
10
-72.7056210335448
20
12.8216495038771
30
0.000000000000000
11
-72.6056210335448
21
12.8196125152700
31
0.000000000000000
  0
LINE
  5
F10093
330
F10094
100
AcDbEntity
8
Geo
100
AcDbLine
10
-72.6056210335448
20
12.8196125152700
30
0.000000000000000
11
-72.5056210335448
21
12.8171235051042
31
0.000000000000000
  0
LINE
  5
F10095
330
F10096
100
AcDbEntity
8
Geo
100
AcDbLine
10
-72.5056210335448
20
12.8171235051042
30
0.000000000000000
11
-72.4056210335448
21
12.8141828587703
31
0.000000000000000
  0
LINE
  5
F10097
330
F10098
100
AcDbEntity
8
Geo
100
AcDbLine
10
-72.4056210335448
20
12.8141828587703
30
0.000000000000000
11
-72.3056210335448
21
12.8107910315888
31
0.000000000000000
  0
LINE
  5
F10099
330
F1009A
100
AcDbEntity
8
Geo
100
AcDbLine
10
-72.3056210335448
20
12.8107910315888
30
0.000000000000000
11
-72.2056210335448
21
12.8069485487397
31
0.000000000000000
  0
LINE
  5
F1009B
330
F1009C
100
AcDbEntity
8
Geo
100
AcDbLine
10
-72.2056210335448
20
12.8069485487397
30
0.000000000000000
11
-72.1056210335448
21
12.8026560051809
31
0.000000000000000
  0
LINE
  5
F1009D
330
F1009E
100
AcDbEntity
8
Geo
100
AcDbLine
10
-72.1056210335448
20
12.8026560051809
30
0.000000000000000
11
-72.0056210335448
21
12.7979140655564
31
0.000000000000000
  0
LINE
  5
F1009F
330
F100A0
100
AcDbEntity
8
Geo
100
AcDbLine
10
-72.0056210335448
20
12.7979140655564
30
0.000000000000000
11
-71.9056210335448
21
12.7927234640934
31
0.000000000000000
  0
LINE
  5
F100A1
330
F100A2
100
AcDbEntity
8
Geo
100
AcDbLine
10
-71.9056210335448
20
12.7927234640934
30
0.000000000000000
11
-71.8056210335448
21
12.7870850044884
31
0.000000000000000
  0
LINE
  5
F100A3
330
F100A4
100
AcDbEntity
8
Geo
100
AcDbLine
10
-71.8056210335448
20
12.7870850044884
30
0.000000000000000
11
-71.7056210335448
21
12.7809995597827
31
0.000000000000000
  0
LINE
  5
F100A5
330
F100A6
100
AcDbEntity
8
Geo
100
AcDbLine
10
-71.7056210335448
20
12.7809995597827
30
0.000000000000000
11
-71.6056210335448
21
12.7744680722278
31
0.000000000000000
  0
LINE
  5
F100A7
330
F100A8
100
AcDbEntity
8
Geo
100
AcDbLine
10
-71.6056210335448
20
12.7744680722278
30
0.000000000000000
11
-71.5056210335448
21
12.7674915531386
31
0.000000000000000
  0
LINE
  5
F100A9
330
F100AA
100
AcDbEntity
8
Geo
100
AcDbLine
10
-71.5056210335448
20
12.7674915531386
30
0.000000000000000
11
-71.4056210335448
21
12.7600710827375
31
0.000000000000000
  0
LINE
  5
F100AB
330
F100AC
100
AcDbEntity
8
Geo
100
AcDbLine
10
-71.4056210335448
20
12.7600710827375
30
0.000000000000000
11
-71.3056210335448
21
12.7522078099870
31
0.000000000000000
  0
LINE
  5
F100AD
330
F100AE
100
AcDbEntity
8
Geo
100
AcDbLine
10
-71.3056210335448
20
12.7522078099870
30
0.000000000000000
11
-71.2056210335448
21
12.7439029524117
31
0.000000000000000
  0
LINE
  5
F100AF
330
F100B0
100
AcDbEntity
8
Geo
100
AcDbLine
10
-71.2056210335448
20
12.7439029524117
30
0.000000000000000
11
-71.1056210335448
21
12.7351577959097
31
0.000000000000000
  0
LINE
  5
F100B1
330
F100B2
100
AcDbEntity
8
Geo
100
AcDbLine
10
-71.1056210335448
20
12.7351577959097
30
0.000000000000000
11
-71.0056210335448
21
12.7259736945537
31
0.000000000000000
  0
LINE
  5
F100B3
330
F100B4
100
AcDbEntity
8
Geo
100
AcDbLine
10
-71.0056210335448
20
12.7259736945537
30
0.000000000000000
11
-70.9056210335448
21
12.7163520703813
31
0.000000000000000
  0
LINE
  5
F100B5
330
F100B6
100
AcDbEntity
8
Geo
100
AcDbLine
10
-70.9056210335448
20
12.7163520703813
30
0.000000000000000
11
-70.8056210335448
21
12.7062944131746
31
0.000000000000000
  0
LINE
  5
F100B7
330
F100B8
100
AcDbEntity
8
Geo
100
AcDbLine
10
-70.8056210335448
20
12.7062944131746
30
0.000000000000000
11
-70.7056210335448
21
12.6958022802298
31
0.000000000000000
  0
LINE
  5
F100B9
330
F100BA
100
AcDbEntity
8
Geo
100
AcDbLine
10
-70.7056210335448
20
12.6958022802298
30
0.000000000000000
11
-70.6056210335448
21
12.6848772961161
31
0.000000000000000
  0
LINE
  5
F100BB
330
F100BC
100
AcDbEntity
8
Geo
100
AcDbLine
10
-70.6056210335448
20
12.6848772961161
30
0.000000000000000
11
-70.5056210335448
21
12.6735211524237
31
0.000000000000000
  0
LINE
  5
F100BD
330
F100BE
100
AcDbEntity
8
Geo
100
AcDbLine
10
-70.5056210335448
20
12.6735211524237
30
0.000000000000000
11
-70.4056210335448
21
12.6617356075025
31
0.000000000000000
  0
LINE
  5
F100BF
330
F100C0
100
AcDbEntity
8
Geo
100
AcDbLine
10
-70.4056210335448
20
12.6617356075025
30
0.000000000000000
11
-70.3056210335448
21
12.6495224861893
31
0.000000000000000
  0
LINE
  5
F100C1
330
F100C2
100
AcDbEntity
8
Geo
100
AcDbLine
10
-70.3056210335448
20
12.6495224861893
30
0.000000000000000
11
-70.2056210335448
21
12.6368836795257
31
0.000000000000000
  0
LINE
  5
F100C3
330
F100C4
100
AcDbEntity
8
Geo
100
AcDbLine
10
-70.2056210335448
20
12.6368836795257
30
0.000000000000000
11
-70.1056210335448
21
12.6238211444650
31
0.000000000000000
  0
LINE
  5
F100C5
330
F100C6
100
AcDbEntity
8
Geo
100
AcDbLine
10
-70.1056210335448
20
12.6238211444650
30
0.000000000000000
11
-70.0056210335448
21
12.6103369035693
31
0.000000000000000
  0
LINE
  5
F100C7
330
F100C8
100
AcDbEntity
8
Geo
100
AcDbLine
10
-70.0056210335448
20
12.6103369035693
30
0.000000000000000
11
-69.9056210335448
21
12.5964330446962
31
0.000000000000000
  0
LINE
  5
F100C9
330
F100CA
100
AcDbEntity
8
Geo
100
AcDbLine
10
-69.9056210335448
20
12.5964330446962
30
0.000000000000000
11
-69.8056210335448
21
12.5821117206758
31
0.000000000000000
  0
LINE
  5
F100CB
330
F100CC
100
AcDbEntity
8
Geo
100
AcDbLine
10
-69.8056210335448
20
12.5821117206758
30
0.000000000000000
11
-69.7056210335448
21
12.5673751489771
31
0.000000000000000
  0
LINE
  5
F100CD
330
F100CE
100
AcDbEntity
8
Geo
100
AcDbLine
10
-69.7056210335448
20
12.5673751489771
30
0.000000000000000
11
-69.6056210335448
21
12.5522256113649
31
0.000000000000000
  0
LINE
  5
F100CF
330
F100D0
100
AcDbEntity
8
Geo
100
AcDbLine
10
-69.6056210335448
20
12.5522256113649
30
0.000000000000000
11
-69.5056210335448
21
12.5366654535460
31
0.000000000000000
  0
LINE
  5
F100D1
330
F100D2
100
AcDbEntity
8
Geo
100
AcDbLine
10
-69.5056210335448
20
12.5366654535460
30
0.000000000000000
11
-69.4056210335448
21
12.5206970848068
31
0.000000000000000
  0
LINE
  5
F100D3
330
F100D4
100
AcDbEntity
8
Geo
100
AcDbLine
10
-69.4056210335448
20
12.5206970848068
30
0.000000000000000
11
-69.3056210335448
21
12.5043229776394
31
0.000000000000000
  0
LINE
  5
F100D5
330
F100D6
100
AcDbEntity
8
Geo
100
AcDbLine
10
-69.3056210335448
20
12.5043229776394
30
0.000000000000000
11
-69.2056210335448
21
12.4875456673595
31
0.000000000000000
  0
LINE
  5
F100D7
330
F100D8
100
AcDbEntity
8
Geo
100
AcDbLine
10
-69.2056210335448
20
12.4875456673595
30
0.000000000000000
11
-69.1056210335448
21
12.4703677517132
31
0.000000000000000
  0
LINE
  5
F100D9
330
F100DA
100
AcDbEntity
8
Geo
100
AcDbLine
10
-69.1056210335448
20
12.4703677517132
30
0.000000000000000
11
-69.0056210335448
21
12.4527918904755
31
0.000000000000000
  0
LINE
  5
F100DB
330
F100DC
100
AcDbEntity
8
Geo
100
AcDbLine
10
-69.0056210335448
20
12.4527918904755
30
0.000000000000000
11
-68.9056210335448
21
12.4348208050375
31
0.000000000000000
  0
LINE
  5
F100DD
330
F100DE
100
AcDbEntity
8
Geo
100
AcDbLine
10
-68.9056210335448
20
12.4348208050375
30
0.000000000000000
11
-68.8056210335448
21
12.4164572779860
31
0.000000000000000
  0
LINE
  5
F100DF
330
F100E0
100
AcDbEntity
8
Geo
100
AcDbLine
10
-68.8056210335448
20
12.4164572779860
30
0.000000000000000
11
-68.7056210335448
21
12.3977041526722
31
0.000000000000000
  0
LINE
  5
F100E1
330
F100E2
100
AcDbEntity
8
Geo
100
AcDbLine
10
-68.7056210335448
20
12.3977041526722
30
0.000000000000000
11
-68.6056210335448
21
12.3785643327712
31
0.000000000000000
  0
LINE
  5
F100E3
330
F100E4
100
AcDbEntity
8
Geo
100
AcDbLine
10
-68.6056210335448
20
12.3785643327712
30
0.000000000000000
11
-68.5056210335448
21
12.3590407818330
31
0.000000000000000
  0
LINE
  5
F100E5
330
F100E6
100
AcDbEntity
8
Geo
100
AcDbLine
10
-68.5056210335448
20
12.3590407818330
30
0.000000000000000
11
-68.4056210335448
21
12.3391365228232
31
0.000000000000000
  0
LINE
  5
F100E7
330
F100E8
100
AcDbEntity
8
Geo
100
AcDbLine
10
-68.4056210335448
20
12.3391365228232
30
0.000000000000000
11
-68.3056210335448
21
12.3188546376548
31
0.000000000000000
  0
LINE
  5
F100E9
330
F100EA
100
AcDbEntity
8
Geo
100
AcDbLine
10
-68.3056210335448
20
12.3188546376548
30
0.000000000000000
11
-68.2056210335448
21
12.2981982667117
31
0.000000000000000
  0
LINE
  5
F100EB
330
F100EC
100
AcDbEntity
8
Geo
100
AcDbLine
10
-68.2056210335448
20
12.2981982667117
30
0.000000000000000
11
-68.1056210335448
21
12.2771706083618
31
0.000000000000000
  0
LINE
  5
F100ED
330
F100EE
100
AcDbEntity
8
Geo
100
AcDbLine
10
-68.1056210335448
20
12.2771706083618
30
0.000000000000000
11
-68.0056210335448
21
12.2557749184617
31
0.000000000000000
  0
LINE
  5
F100EF
330
F100F0
100
AcDbEntity
8
Geo
100
AcDbLine
10
-68.0056210335448
20
12.2557749184617
30
0.000000000000000
11
-67.9056210335448
21
12.2340145098534
31
0.000000000000000
  0
LINE
  5
F100F1
330
F100F2
100
AcDbEntity
8
Geo
100
AcDbLine
10
-67.9056210335448
20
12.2340145098534
30
0.000000000000000
11
-67.8056210335448
21
12.2118927518504
31
0.000000000000000
  0
LINE
  5
F100F3
330
F100F4
100
AcDbEntity
8
Geo
100
AcDbLine
10
-67.8056210335448
20
12.2118927518504
30
0.000000000000000
11
-67.7056210335448
21
12.1894130697165
31
0.000000000000000
  0
LINE
  5
F100F5
330
F100F6
100
AcDbEntity
8
Geo
100
AcDbLine
10
-67.7056210335448
20
12.1894130697165
30
0.000000000000000
11
-67.6056210335448
21
12.1665789441355
31
0.000000000000000
  0
LINE
  5
F100F7
330
F100F8
100
AcDbEntity
8
Geo
100
AcDbLine
10
-67.6056210335448
20
12.1665789441355
30
0.000000000000000
11
-67.5056210335448
21
12.1433939106719
31
0.000000000000000
  0
LINE
  5
F100F9
330
F100FA
100
AcDbEntity
8
Geo
100
AcDbLine
10
-67.5056210335448
20
12.1433939106719
30
0.000000000000000
11
-67.4056210335448
21
12.1198615592238
31
0.000000000000000
  0
LINE
  5
F100FB
330
F100FC
100
AcDbEntity
8
Geo
100
AcDbLine
10
-67.4056210335448
20
12.1198615592238
30
0.000000000000000
11
-67.3056210335448
21
12.0959855334670
31
0.000000000000000
  0
LINE
  5
F100FD
330
F100FE
100
AcDbEntity
8
Geo
100
AcDbLine
10
-67.3056210335448
20
12.0959855334670
30
0.000000000000000
11
-67.2056210335448
21
12.0717695302905
31
0.000000000000000
  0
LINE
  5
F100FF
330
F10100
100
AcDbEntity
8
Geo
100
AcDbLine
10
-67.2056210335448
20
12.0717695302905
30
0.000000000000000
11
-67.1056210335448
21
12.0472172992246
31
0.000000000000000
  0
LINE
  5
F10101
330
F10102
100
AcDbEntity
8
Geo
100
AcDbLine
10
-67.1056210335448
20
12.0472172992246
30
0.000000000000000
11
-67.0056210335448
21
12.0223326418601
31
0.000000000000000
  0
LINE
  5
F10103
330
F10104
100
AcDbEntity
8
Geo
100
AcDbLine
10
-67.0056210335448
20
12.0223326418601
30
0.000000000000000
11
-66.9056210335448
21
11.9971194112593
31
0.000000000000000
  0
LINE
  5
F10105
330
F10106
100
AcDbEntity
8
Geo
100
AcDbLine
10
-66.9056210335448
20
11.9971194112593
30
0.000000000000000
11
-66.8056210335448
21
11.9715815113601
31
0.000000000000000
  0
LINE
  5
F10107
330
F10108
100
AcDbEntity
8
Geo
100
AcDbLine
10
-66.8056210335448
20
11.9715815113601
30
0.000000000000000
11
-66.7056210335448
21
11.9457228963710
31
0.000000000000000
  0
LINE
  5
F10109
330
F1010A
100
AcDbEntity
8
Geo
100
AcDbLine
10
-66.7056210335448
20
11.9457228963710
30
0.000000000000000
11
-66.6056210335448
21
11.9195475701592
31
0.000000000000000
  0
LINE
  5
F1010B
330
F1010C
100
AcDbEntity
8
Geo
100
AcDbLine
10
-66.6056210335448
20
11.9195475701592
30
0.000000000000000
11
-66.5056210335448
21
11.8930595856303
31
0.000000000000000
  0
LINE
  5
F1010D
330
F1010E
100
AcDbEntity
8
Geo
100
AcDbLine
10
-66.5056210335448
20
11.8930595856303
30
0.000000000000000
11
-66.4056210335448
21
11.8662630441010
31
0.000000000000000
  0
LINE
  5
F1010F
330
F10110
100
AcDbEntity
8
Geo
100
AcDbLine
10
-66.4056210335448
20
11.8662630441010
30
0.000000000000000
11
-66.3056210335448
21
11.8391620946640
31
0.000000000000000
  0
LINE
  5
F10111
330
F10112
100
AcDbEntity
8
Geo
100
AcDbLine
10
-66.3056210335448
20
11.8391620946640
30
0.000000000000000
11
-66.2056210335448
21
11.8117609335455
31
0.000000000000000
  0
LINE
  5
F10113
330
F10114
100
AcDbEntity
8
Geo
100
AcDbLine
10
-66.2056210335448
20
11.8117609335455
30
0.000000000000000
11
-66.1056210335448
21
11.7840638034557
31
0.000000000000000
  0
LINE
  5
F10115
330
F10116
100
AcDbEntity
8
Geo
100
AcDbLine
10
-66.1056210335448
20
11.7840638034557
30
0.000000000000000
11
-66.0056210335448
21
11.7560749929315
31
0.000000000000000
  0
LINE
  5
F10117
330
F10118
100
AcDbEntity
8
Geo
100
AcDbLine
10
-66.0056210335448
20
11.7560749929315
30
0.000000000000000
11
-65.9056210335448
21
11.7277988356729
31
0.000000000000000
  0
LINE
  5
F10119
330
F1011A
100
AcDbEntity
8
Geo
100
AcDbLine
10
-65.9056210335448
20
11.7277988356729
30
0.000000000000000
11
-65.8056210335448
21
11.6992397098717
31
0.000000000000000
  0
LINE
  5
F1011B
330
F1011C
100
AcDbEntity
8
Geo
100
AcDbLine
10
-65.8056210335448
20
11.6992397098717
30
0.000000000000000
11
-65.7056210335448
21
11.6704020375334
31
0.000000000000000
  0
LINE
  5
F1011D
330
F1011E
100
AcDbEntity
8
Geo
100
AcDbLine
10
-65.7056210335448
20
11.6704020375334
30
0.000000000000000
11
-65.6056210335448
21
11.6412902837933
31
0.000000000000000
  0
LINE
  5
F1011F
330
F10120
100
AcDbEntity
8
Geo
100
AcDbLine
10
-65.6056210335448
20
11.6412902837933
30
0.000000000000000
11
-65.5056210335448
21
11.6119089562241
31
0.000000000000000
  0
LINE
  5
F10121
330
F10122
100
AcDbEntity
8
Geo
100
AcDbLine
10
-65.5056210335448
20
11.6119089562241
30
0.000000000000000
11
-65.4056210335448
21
11.5822626041389
31
0.000000000000000
  0
LINE
  5
F10123
330
F10124
100
AcDbEntity
8
Geo
100
AcDbLine
10
-65.4056210335448
20
11.5822626041389
30
0.000000000000000
11
-65.3056210335449
21
11.5523558178859
31
0.000000000000000
  0
LINE
  5
F10125
330
F10126
100
AcDbEntity
8
Geo
100
AcDbLine
10
-65.3056210335449
20
11.5523558178859
30
0.000000000000000
11
-65.2056210335448
21
11.5221932281385
31
0.000000000000000
  0
LINE
  5
F10127
330
F10128
100
AcDbEntity
8
Geo
100
AcDbLine
10
-65.2056210335448
20
11.5221932281385
30
0.000000000000000
11
-65.1056210335448
21
11.4917795051778
31
0.000000000000000
  0
LINE
  5
F10129
330
F1012A
100
AcDbEntity
8
Geo
100
AcDbLine
10
-65.1056210335448
20
11.4917795051778
30
0.000000000000000
11
-65.0056210335449
21
11.4611193581695
31
0.000000000000000
  0
LINE
  5
F1012B
330
F1012C
100
AcDbEntity
8
Geo
100
AcDbLine
10
-65.0056210335449
20
11.4611193581695
30
0.000000000000000
11
-64.9056210335448
21
11.4302175344348
31
0.000000000000000
  0
LINE
  5
F1012D
330
F1012E
100
AcDbEntity
8
Geo
100
AcDbLine
10
-64.9056210335448
20
11.4302175344348
30
0.000000000000000
11
-64.8056210335449
21
11.3990788187157
31
0.000000000000000
  0
LINE
  5
F1012F
330
F10130
100
AcDbEntity
8
Geo
100
AcDbLine
10
-64.8056210335449
20
11.3990788187157
30
0.000000000000000
11
-64.7056210335448
21
11.3677080324333
31
0.000000000000000
  0
LINE
  5
F10131
330
F10132
100
AcDbEntity
8
Geo
100
AcDbLine
10
-64.7056210335448
20
11.3677080324333
30
0.000000000000000
11
-64.6056210335448
21
11.3361100329423
31
0.000000000000000
  0
LINE
  5
F10133
330
F10134
100
AcDbEntity
8
Geo
100
AcDbLine
10
-64.6056210335448
20
11.3361100329423
30
0.000000000000000
11
-64.5056210335449
21
11.3042897127779
31
0.000000000000000
  0
LINE
  5
F10135
330
F10136
100
AcDbEntity
8
Geo
100
AcDbLine
10
-64.5056210335449
20
11.3042897127779
30
0.000000000000000
11
-64.4056210335448
21
11.2722519988991
31
0.000000000000000
  0
LINE
  5
F10137
330
F10138
100
AcDbEntity
8
Geo
100
AcDbLine
10
-64.4056210335448
20
11.2722519988991
30
0.000000000000000
11
-64.3056210335449
21
11.2400018519254
31
0.000000000000000
  0
LINE
  5
F10139
330
F1013A
100
AcDbEntity
8
Geo
100
AcDbLine
10
-64.3056210335449
20
11.2400018519254
30
0.000000000000000
11
-64.2056210335448
21
11.2075442653685
31
0.000000000000000
  0
LINE
  5
F1013B
330
F1013C
100
AcDbEntity
8
Geo
100
AcDbLine
10
-64.2056210335448
20
11.2075442653685
30
0.000000000000000
11
-64.1056210335448
21
11.1748842648598
31
0.000000000000000
  0
LINE
  5
F1013D
330
F1013E
100
AcDbEntity
8
Geo
100
AcDbLine
10
-64.1056210335448
20
11.1748842648598
30
0.000000000000000
11
-64.0056210335449
21
11.1420269073715
31
0.000000000000000
  0
LINE
  5
F1013F
330
F10140
100
AcDbEntity
8
Geo
100
AcDbLine
10
-64.0056210335449
20
11.1420269073715
30
0.000000000000000
11
-63.9056210335449
21
11.1089772804342
31
0.000000000000000
  0
LINE
  5
F10141
330
F10142
100
AcDbEntity
8
Geo
100
AcDbLine
10
-63.9056210335449
20
11.1089772804342
30
0.000000000000000
11
-63.8056210335449
21
11.0757405013487
31
0.000000000000000
  0
LINE
  5
F10143
330
F10144
100
AcDbEntity
8
Geo
100
AcDbLine
10
-63.8056210335449
20
11.0757405013487
30
0.000000000000000
11
-63.7056210335449
21
11.0423217163940
31
0.000000000000000
  0
LINE
  5
F10145
330
F10146
100
AcDbEntity
8
Geo
100
AcDbLine
10
-63.7056210335449
20
11.0423217163940
30
0.000000000000000
11
-63.6056210335448
21
11.0087261000303
31
0.000000000000000
  0
LINE
  5
F10147
330
F10148
100
AcDbEntity
8
Geo
100
AcDbLine
10
-63.6056210335448
20
11.0087261000303
30
0.000000000000000
11
-63.5056210335449
21
10.9749588540977
31
0.000000000000000
  0
LINE
  5
F10149
330
F1014A
100
AcDbEntity
8
Geo
100
AcDbLine
10
-63.5056210335449
20
10.9749588540977
30
0.000000000000000
11
-63.4056210335449
21
10.9410252070109
31
0.000000000000000
  0
LINE
  5
F1014B
330
F1014C
100
AcDbEntity
8
Geo
100
AcDbLine
10
-63.4056210335449
20
10.9410252070109
30
0.000000000000000
11
-63.3056210335449
21
10.9069304129499
31
0.000000000000000
  0
LINE
  5
F1014D
330
F1014E
100
AcDbEntity
8
Geo
100
AcDbLine
10
-63.3056210335449
20
10.9069304129499
30
0.000000000000000
11
-63.2056210335449
21
10.8726797510458
31
0.000000000000000
  0
LINE
  5
F1014F
330
F10150
100
AcDbEntity
8
Geo
100
AcDbLine
10
-63.2056210335449
20
10.8726797510458
30
0.000000000000000
11
-63.1056210335449
21
10.8382785245642
31
0.000000000000000
  0
LINE
  5
F10151
330
F10152
100
AcDbEntity
8
Geo
100
AcDbLine
10
-63.1056210335449
20
10.8382785245642
30
0.000000000000000
11
-63.0056210335449
21
10.8037320600832
31
0.000000000000000
  0
LINE
  5
F10153
330
F10154
100
AcDbEntity
8
Geo
100
AcDbLine
10
-63.0056210335449
20
10.8037320600832
30
0.000000000000000
11
-62.9056210335449
21
10.7690457066695
31
0.000000000000000
  0
LINE
  5
F10155
330
F10156
100
AcDbEntity
8
Geo
100
AcDbLine
10
-62.9056210335449
20
10.7690457066695
30
0.000000000000000
11
-62.8056210335449
21
10.7342248350495
31
0.000000000000000
  0
LINE
  5
F10157
330
F10158
100
AcDbEntity
8
Geo
100
AcDbLine
10
-62.8056210335449
20
10.7342248350495
30
0.000000000000000
11
-62.7056210335449
21
10.6992748367781
31
0.000000000000000
  0
LINE
  5
F10159
330
F1015A
100
AcDbEntity
8
Geo
100
AcDbLine
10
-62.7056210335449
20
10.6992748367781
30
0.000000000000000
11
-62.6056210335449
21
10.6642011234037
31
0.000000000000000
  0
LINE
  5
F1015B
330
F1015C
100
AcDbEntity
8
Geo
100
AcDbLine
10
-62.6056210335449
20
10.6642011234037
30
0.000000000000000
11
-62.5056210335449
21
10.6290091256305
31
0.000000000000000
  0
LINE
  5
F1015D
330
F1015E
100
AcDbEntity
8
Geo
100
AcDbLine
10
-62.5056210335449
20
10.6290091256305
30
0.000000000000000
11
-62.4056210335449
21
10.5937042924774
31
0.000000000000000
  0
LINE
  5
F1015F
330
F10160
100
AcDbEntity
8
Geo
100
AcDbLine
10
-62.4056210335449
20
10.5937042924774
30
0.000000000000000
11
-62.3056210335449
21
10.5582920904342
31
0.000000000000000
  0
LINE
  5
F10161
330
F10162
100
AcDbEntity
8
Geo
100
AcDbLine
10
-62.3056210335449
20
10.5582920904342
30
0.000000000000000
11
-62.2056210335449
21
10.5227780026157
31
0.000000000000000
  0
LINE
  5
F10163
330
F10164
100
AcDbEntity
8
Geo
100
AcDbLine
10
-62.2056210335449
20
10.5227780026157
30
0.000000000000000
11
-62.1056210335449
21
10.4871675279121
31
0.000000000000000
  0
LINE
  5
F10165
330
F10166
100
AcDbEntity
8
Geo
100
AcDbLine
10
-73.1056210335448
20
9.85806203699815
30
0.000000000000000
11
-73.0056210335448
21
9.85408834389734
31
0.000000000000000
  0
LINE
  5
F10167
330
F10168
100
AcDbEntity
8
Geo
100
AcDbLine
10
-73.0056210335448
20
9.85408834389734
30
0.000000000000000
11
-72.9056210335448
21
9.82550173104523
31
0.000000000000000
  0
LINE
  5
F10169
330
F1016A
100
AcDbEntity
8
Geo
100
AcDbLine
10
-72.9056210335448
20
9.82550173104523
30
0.000000000000000
11
-72.8056210335448
21
9.79110627398033
31
0.000000000000000
  0
LINE
  5
F1016B
330
F1016C
100
AcDbEntity
8
Geo
100
AcDbLine
10
-72.8056210335448
20
9.79110627398033
30
0.000000000000000
11
-72.7056210335448
21
9.75474399819783
31
0.000000000000000
  0
LINE
  5
F1016D
330
F1016E
100
AcDbEntity
8
Geo
100
AcDbLine
10
-72.7056210335448
20
9.75474399819783
30
0.000000000000000
11
-72.6056210335448
21
9.71840425551382
31
0.000000000000000
  0
LINE
  5
F1016F
330
F10170
100
AcDbEntity
8
Geo
100
AcDbLine
10
-72.6056210335448
20
9.71840425551382
30
0.000000000000000
11
-72.5056210335448
21
9.68209267266040
31
0.000000000000000
  0
LINE
  5
F10171
330
F10172
100
AcDbEntity
8
Geo
100
AcDbLine
10
-72.5056210335448
20
9.68209267266040
30
0.000000000000000
11
-72.4056210335448
21
9.64581487200951
31
0.000000000000000
  0
LINE
  5
F10173
330
F10174
100
AcDbEntity
8
Geo
100
AcDbLine
10
-72.4056210335448
20
9.64581487200951
30
0.000000000000000
11
-72.3056210335448
21
9.60957647070237
31
0.000000000000000
  0
LINE
  5
F10175
330
F10176
100
AcDbEntity
8
Geo
100
AcDbLine
10
-72.3056210335448
20
9.60957647070237
30
0.000000000000000
11
-72.2056210335448
21
9.57338307977972
31
0.000000000000000
  0
LINE
  5
F10177
330
F10178
100
AcDbEntity
8
Geo
100
AcDbLine
10
-72.2056210335448
20
9.57338307977972
30
0.000000000000000
11
-72.1056210335448
21
9.53724030331302
31
0.000000000000000
  0
LINE
  5
F10179
330
F1017A
100
AcDbEntity
8
Geo
100
AcDbLine
10
-72.1056210335448
20
9.53724030331302
30
0.000000000000000
11
-72.0056210335448
21
9.50115373753676
31
0.000000000000000
  0
LINE
  5
F1017B
330
F1017C
100
AcDbEntity
8
Geo
100
AcDbLine
10
-72.0056210335448
20
9.50115373753676
30
0.000000000000000
11
-71.9056210335448
21
9.46512896998194
31
0.000000000000000
  0
LINE
  5
F1017D
330
F1017E
100
AcDbEntity
8
Geo
100
AcDbLine
10
-71.9056210335448
20
9.46512896998194
30
0.000000000000000
11
-71.8056210335448
21
9.42917157861092
31
0.000000000000000
  0
LINE
  5
F1017F
330
F10180
100
AcDbEntity
8
Geo
100
AcDbLine
10
-71.8056210335448
20
9.42917157861092
30
0.000000000000000
11
-71.7056210335448
21
9.39328713095374
31
0.000000000000000
  0
LINE
  5
F10181
330
F10182
100
AcDbEntity
8
Geo
100
AcDbLine
10
-71.7056210335448
20
9.39328713095374
30
0.000000000000000
11
-71.6056210335448
21
9.35748118324605
31
0.000000000000000
  0
LINE
  5
F10183
330
F10184
100
AcDbEntity
8
Geo
100
AcDbLine
10
-71.6056210335448
20
9.35748118324605
30
0.000000000000000
11
-71.5056210335448
21
9.32175927956884
31
0.000000000000000
  0
LINE
  5
F10185
330
F10186
100
AcDbEntity
8
Geo
100
AcDbLine
10
-71.5056210335448
20
9.32175927956884
30
0.000000000000000
11
-71.4056210335448
21
9.28612695098996
31
0.000000000000000
  0
LINE
  5
F10187
330
F10188
100
AcDbEntity
8
Geo
100
AcDbLine
10
-71.4056210335448
20
9.28612695098996
30
0.000000000000000
11
-71.3056210335448
21
9.25058971470775
31
0.000000000000000
  0
LINE
  5
F10189
330
F1018A
100
AcDbEntity
8
Geo
100
AcDbLine
10
-71.3056210335448
20
9.25058971470775
30
0.000000000000000
11
-71.2056210335448
21
9.21515307319674
31
0.000000000000000
  0
LINE
  5
F1018B
330
F1018C
100
AcDbEntity
8
Geo
100
AcDbLine
10
-71.2056210335448
20
9.21515307319674
30
0.000000000000000
11
-71.1056210335448
21
9.17982251335569
31
0.000000000000000
  0
LINE
  5
F1018D
330
F1018E
100
AcDbEntity
8
Geo
100
AcDbLine
10
-71.1056210335448
20
9.17982251335569
30
0.000000000000000
11
-71.0056210335448
21
9.14460350565801
31
0.000000000000000
  0
LINE
  5
F1018F
330
F10190
100
AcDbEntity
8
Geo
100
AcDbLine
10
-71.0056210335448
20
9.14460350565801
30
0.000000000000000
11
-70.9056210335448
21
9.10950150330472
31
0.000000000000000
  0
LINE
  5
F10191
330
F10192
100
AcDbEntity
8
Geo
100
AcDbLine
10
-70.9056210335448
20
9.10950150330472
30
0.000000000000000
11
-70.8056210335448
21
9.07452194138009
31
0.000000000000000
  0
LINE
  5
F10193
330
F10194
100
AcDbEntity
8
Geo
100
AcDbLine
10
-70.8056210335448
20
9.07452194138009
30
0.000000000000000
11
-70.7056210335448
21
9.03967023601011
31
0.000000000000000
  0
LINE
  5
F10195
330
F10196
100
AcDbEntity
8
Geo
100
AcDbLine
10
-70.7056210335448
20
9.03967023601011
30
0.000000000000000
11
-70.6056210335448
21
9.00495178352385
31
0.000000000000000
  0
LINE
  5
F10197
330
F10198
100
AcDbEntity
8
Geo
100
AcDbLine
10
-70.6056210335448
20
9.00495178352385
30
0.000000000000000
11
-70.5056210335448
21
8.97037195961794
31
0.000000000000000
  0
LINE
  5
F10199
330
F1019A
100
AcDbEntity
8
Geo
100
AcDbLine
10
-70.5056210335448
20
8.97037195961794
30
0.000000000000000
11
-70.4056210335448
21
8.93593611852416
31
0.000000000000000
  0
LINE
  5
F1019B
330
F1019C
100
AcDbEntity
8
Geo
100
AcDbLine
10
-70.4056210335448
20
8.93593611852416
30
0.000000000000000
11
-70.3056210335448
21
8.90164959218048
31
0.000000000000000
  0
LINE
  5
F1019D
330
F1019E
100
AcDbEntity
8
Geo
100
AcDbLine
10
-70.3056210335448
20
8.90164959218048
30
0.000000000000000
11
-70.2056210335448
21
8.86751768940541
31
0.000000000000000
  0
LINE
  5
F1019F
330
F101A0
100
AcDbEntity
8
Geo
100
AcDbLine
10
-70.2056210335448
20
8.86751768940541
30
0.000000000000000
11
-70.1056210335448
21
8.83354569507605
31
0.000000000000000
  0
LINE
  5
F101A1
330
F101A2
100
AcDbEntity
8
Geo
100
AcDbLine
10
-70.1056210335448
20
8.83354569507605
30
0.000000000000000
11
-70.0056210335448
21
8.79973886930976
31
0.000000000000000
  0
LINE
  5
F101A3
330
F101A4
100
AcDbEntity
8
Geo
100
AcDbLine
10
-70.0056210335448
20
8.79973886930976
30
0.000000000000000
11
-69.9056210335448
21
8.76610244664974
31
0.000000000000000
  0
LINE
  5
F101A5
330
F101A6
100
AcDbEntity
8
Geo
100
AcDbLine
10
-69.9056210335448
20
8.76610244664974
30
0.000000000000000
11
-69.8056210335448
21
8.73264163525447
31
0.000000000000000
  0
LINE
  5
F101A7
330
F101A8
100
AcDbEntity
8
Geo
100
AcDbLine
10
-69.8056210335448
20
8.73264163525447
30
0.000000000000000
11
-69.7056210335448
21
8.69936161609138
31
0.000000000000000
  0
LINE
  5
F101A9
330
F101AA
100
AcDbEntity
8
Geo
100
AcDbLine
10
-69.7056210335448
20
8.69936161609138
30
0.000000000000000
11
-69.6056210335448
21
8.66626754213454
31
0.000000000000000
  0
LINE
  5
F101AB
330
F101AC
100
AcDbEntity
8
Geo
100
AcDbLine
10
-69.6056210335448
20
8.66626754213454
30
0.000000000000000
11
-69.5056210335448
21
8.63336453756689
31
0.000000000000000
  0
LINE
  5
F101AD
330
F101AE
100
AcDbEntity
8
Geo
100
AcDbLine
10
-69.5056210335448
20
8.63336453756689
30
0.000000000000000
11
-69.4056210335448
21
8.60065769698677
31
0.000000000000000
  0
LINE
  5
F101AF
330
F101B0
100
AcDbEntity
8
Geo
100
AcDbLine
10
-69.4056210335448
20
8.60065769698677
30
0.000000000000000
11
-69.3056210335448
21
8.56815208461908
31
0.000000000000000
  0
LINE
  5
F101B1
330
F101B2
100
AcDbEntity
8
Geo
100
AcDbLine
10
-69.3056210335448
20
8.56815208461908
30
0.000000000000000
11
-69.2056210335448
21
8.53585273353122
31
0.000000000000000
  0
LINE
  5
F101B3
330
F101B4
100
AcDbEntity
8
Geo
100
AcDbLine
10
-69.2056210335448
20
8.53585273353122
30
0.000000000000000
11
-69.1056210335448
21
8.50376464485368
31
0.000000000000000
  0
LINE
  5
F101B5
330
F101B6
100
AcDbEntity
8
Geo
100
AcDbLine
10
-69.1056210335448
20
8.50376464485368
30
0.000000000000000
11
-69.0056210335448
21
8.47189278700579
31
0.000000000000000
  0
LINE
  5
F101B7
330
F101B8
100
AcDbEntity
8
Geo
100
AcDbLine
10
-69.0056210335448
20
8.47189278700579
30
0.000000000000000
11
-68.9056210335448
21
8.44024209492634
31
0.000000000000000
  0
LINE
  5
F101B9
330
F101BA
100
AcDbEntity
8
Geo
100
AcDbLine
10
-68.9056210335448
20
8.44024209492634
30
0.000000000000000
11
-68.8056210335448
21
8.40881746930953
31
0.000000000000000
  0
LINE
  5
F101BB
330
F101BC
100
AcDbEntity
8
Geo
100
AcDbLine
10
-68.8056210335448
20
8.40881746930953
30
0.000000000000000
11
-68.7056210335448
21
8.37762377584612
31
0.000000000000000
  0
LINE
  5
F101BD
330
F101BE
100
AcDbEntity
8
Geo
100
AcDbLine
10
-68.7056210335448
20
8.37762377584612
30
0.000000000000000
11
-68.6056210335448
21
8.34666584447005
31
0.000000000000000
  0
LINE
  5
F101BF
330
F101C0
100
AcDbEntity
8
Geo
100
AcDbLine
10
-68.6056210335448
20
8.34666584447005
30
0.000000000000000
11
-68.5056210335448
21
8.31594846861062
31
0.000000000000000
  0
LINE
  5
F101C1
330
F101C2
100
AcDbEntity
8
Geo
100
AcDbLine
10
-68.5056210335448
20
8.31594846861062
30
0.000000000000000
11
-68.4056210335448
21
8.28547640445024
31
0.000000000000000
  0
LINE
  5
F101C3
330
F101C4
100
AcDbEntity
8
Geo
100
AcDbLine
10
-68.4056210335448
20
8.28547640445024
30
0.000000000000000
11
-68.3056210335448
21
8.25525437018805
31
0.000000000000000
  0
LINE
  5
F101C5
330
F101C6
100
AcDbEntity
8
Geo
100
AcDbLine
10
-68.3056210335448
20
8.25525437018805
30
0.000000000000000
11
-68.2056210335448
21
8.22528704530932
31
0.000000000000000
  0
LINE
  5
F101C7
330
F101C8
100
AcDbEntity
8
Geo
100
AcDbLine
10
-68.2056210335448
20
8.22528704530932
30
0.000000000000000
11
-68.1056210335448
21
8.19557906986092
31
0.000000000000000
  0
LINE
  5
F101C9
330
F101CA
100
AcDbEntity
8
Geo
100
AcDbLine
10
-68.1056210335448
20
8.19557906986092
30
0.000000000000000
11
-68.0056210335448
21
8.16613504373289
31
0.000000000000000
  0
LINE
  5
F101CB
330
F101CC
100
AcDbEntity
8
Geo
100
AcDbLine
10
-68.0056210335448
20
8.16613504373289
30
0.000000000000000
11
-67.9056210335448
21
8.13695952594614
31
0.000000000000000
  0
LINE
  5
F101CD
330
F101CE
100
AcDbEntity
8
Geo
100
AcDbLine
10
-67.9056210335448
20
8.13695952594614
30
0.000000000000000
11
-67.8056210335448
21
8.10805703394661
31
0.000000000000000
  0
LINE
  5
F101CF
330
F101D0
100
AcDbEntity
8
Geo
100
AcDbLine
10
-67.8056210335448
20
8.10805703394661
30
0.000000000000000
11
-67.7056210335448
21
8.07943204290580
31
0.000000000000000
  0
LINE
  5
F101D1
330
F101D2
100
AcDbEntity
8
Geo
100
AcDbLine
10
-67.7056210335448
20
8.07943204290580
30
0.000000000000000
11
-67.6056210335448
21
8.05108898502779
31
0.000000000000000
  0
LINE
  5
F101D3
330
F101D4
100
AcDbEntity
8
Geo
100
AcDbLine
10
-67.6056210335448
20
8.05108898502779
30
0.000000000000000
11
-67.5056210335448
21
8.02303224886304
31
0.000000000000000
  0
LINE
  5
F101D5
330
F101D6
100
AcDbEntity
8
Geo
100
AcDbLine
10
-67.5056210335448
20
8.02303224886304
30
0.000000000000000
11
-67.4056210335448
21
7.99526617862885
31
0.000000000000000
  0
LINE
  5
F101D7
330
F101D8
100
AcDbEntity
8
Geo
100
AcDbLine
10
-67.4056210335448
20
7.99526617862885
30
0.000000000000000
11
-67.3056210335448
21
7.96779507353670
31
0.000000000000000
  0
LINE
  5
F101D9
330
F101DA
100
AcDbEntity
8
Geo
100
AcDbLine
10
-67.3056210335448
20
7.96779507353670
30
0.000000000000000
11
-67.2056210335448
21
7.94062318712659
31
0.000000000000000
  0
LINE
  5
F101DB
330
F101DC
100
AcDbEntity
8
Geo
100
AcDbLine
10
-67.2056210335448
20
7.94062318712659
30
0.000000000000000
11
-67.1056210335448
21
7.91375472660846
31
0.000000000000000
  0
LINE
  5
F101DD
330
F101DE
100
AcDbEntity
8
Geo
100
AcDbLine
10
-67.1056210335448
20
7.91375472660846
30
0.000000000000000
11
-67.0056210335448
21
7.88719385221071
31
0.000000000000000
  0
LINE
  5
F101DF
330
F101E0
100
AcDbEntity
8
Geo
100
AcDbLine
10
-67.0056210335448
20
7.88719385221071
30
0.000000000000000
11
-66.9056210335448
21
7.86094467653607
31
0.000000000000000
  0
LINE
  5
F101E1
330
F101E2
100
AcDbEntity
8
Geo
100
AcDbLine
10
-66.9056210335448
20
7.86094467653607
30
0.000000000000000
11
-66.8056210335448
21
7.83501126392482
31
0.000000000000000
  0
LINE
  5
F101E3
330
F101E4
100
AcDbEntity
8
Geo
100
AcDbLine
10
-66.8056210335448
20
7.83501126392482
30
0.000000000000000
11
-66.7056210335448
21
7.80939762982548
31
0.000000000000000
  0
LINE
  5
F101E5
330
F101E6
100
AcDbEntity
8
Geo
100
AcDbLine
10
-66.7056210335448
20
7.80939762982548
30
0.000000000000000
11
-66.6056210335448
21
7.78410774017304
31
0.000000000000000
  0
LINE
  5
F101E7
330
F101E8
100
AcDbEntity
8
Geo
100
AcDbLine
10
-66.6056210335448
20
7.78410774017304
30
0.000000000000000
11
-66.5056210335448
21
7.75914551077495
31
0.000000000000000
  0
LINE
  5
F101E9
330
F101EA
100
AcDbEntity
8
Geo
100
AcDbLine
10
-66.5056210335448
20
7.75914551077495
30
0.000000000000000
11
-66.4056210335448
21
7.73451480670475
31
0.000000000000000
  0
LINE
  5
F101EB
330
F101EC
100
AcDbEntity
8
Geo
100
AcDbLine
10
-66.4056210335448
20
7.73451480670475
30
0.000000000000000
11
-66.3056210335448
21
7.71021944170363
31
0.000000000000000
  0
LINE
  5
F101ED
330
F101EE
100
AcDbEntity
8
Geo
100
AcDbLine
10
-66.3056210335448
20
7.71021944170363
30
0.000000000000000
11
-66.2056210335448
21
7.68626317758993
31
0.000000000000000
  0
LINE
  5
F101EF
330
F101F0
100
AcDbEntity
8
Geo
100
AcDbLine
10
-66.2056210335448
20
7.68626317758993
30
0.000000000000000
11
-66.1056210335448
21
7.66264972367667
31
0.000000000000000
  0
LINE
  5
F101F1
330
F101F2
100
AcDbEntity
8
Geo
100
AcDbLine
10
-66.1056210335448
20
7.66264972367667
30
0.000000000000000
11
-66.0056210335448
21
7.63938273619723
31
0.000000000000000
  0
LINE
  5
F101F3
330
F101F4
100
AcDbEntity
8
Geo
100
AcDbLine
10
-66.0056210335448
20
7.63938273619723
30
0.000000000000000
11
-65.9056210335448
21
7.61646581773917
31
0.000000000000000
  0
LINE
  5
F101F5
330
F101F6
100
AcDbEntity
8
Geo
100
AcDbLine
10
-65.9056210335448
20
7.61646581773917
30
0.000000000000000
11
-65.8056210335448
21
7.59390251668651
31
0.000000000000000
  0
LINE
  5
F101F7
330
F101F8
100
AcDbEntity
8
Geo
100
AcDbLine
10
-65.8056210335448
20
7.59390251668651
30
0.000000000000000
11
-65.7056210335448
21
7.57169632667020
31
0.000000000000000
  0
LINE
  5
F101F9
330
F101FA
100
AcDbEntity
8
Geo
100
AcDbLine
10
-65.7056210335448
20
7.57169632667020
30
0.000000000000000
11
-65.6056210335448
21
7.54985068602728
31
0.000000000000000
  0
LINE
  5
F101FB
330
F101FC
100
AcDbEntity
8
Geo
100
AcDbLine
10
-65.6056210335448
20
7.54985068602728
30
0.000000000000000
11
-65.5056210335448
21
7.52836897726842
31
0.000000000000000
  0
LINE
  5
F101FD
330
F101FE
100
AcDbEntity
8
Geo
100
AcDbLine
10
-65.5056210335448
20
7.52836897726842
30
0.000000000000000
11
-65.4056210335448
21
7.50725452655425
31
0.000000000000000
  0
LINE
  5
F101FF
330
F10200
100
AcDbEntity
8
Geo
100
AcDbLine
10
-65.4056210335448
20
7.50725452655425
30
0.000000000000000
11
-65.3056210335449
21
7.48651060318027
31
0.000000000000000
  0
LINE
  5
F10201
330
F10202
100
AcDbEntity
8
Geo
100
AcDbLine
10
-65.3056210335449
20
7.48651060318027
30
0.000000000000000
11
-65.2056210335448
21
7.46614041907071
31
0.000000000000000
  0
LINE
  5
F10203
330
F10204
100
AcDbEntity
8
Geo
100
AcDbLine
10
-65.2056210335448
20
7.46614041907071
30
0.000000000000000
11
-65.1056210335448
21
7.44614712828120
31
0.000000000000000
  0
LINE
  5
F10205
330
F10206
100
AcDbEntity
8
Geo
100
AcDbLine
10
-65.1056210335448
20
7.44614712828120
30
0.000000000000000
11
-65.0056210335449
21
7.42653382651034
31
0.000000000000000
  0
LINE
  5
F10207
330
F10208
100
AcDbEntity
8
Geo
100
AcDbLine
10
-65.0056210335449
20
7.42653382651034
30
0.000000000000000
11
-64.9056210335448
21
7.40730355062046
31
0.000000000000000
  0
LINE
  5
F10209
330
F1020A
100
AcDbEntity
8
Geo
100
AcDbLine
10
-64.9056210335448
20
7.40730355062046
30
0.000000000000000
11
-64.8056210335449
21
7.38845927816734
31
0.000000000000000
  0
LINE
  5
F1020B
330
F1020C
100
AcDbEntity
8
Geo
100
AcDbLine
10
-64.8056210335449
20
7.38845927816734
30
0.000000000000000
11
-64.7056210335448
21
7.37000392693919
31
0.000000000000000
  0
LINE
  5
F1020D
330
F1020E
100
AcDbEntity
8
Geo
100
AcDbLine
10
-64.7056210335448
20
7.37000392693919
30
0.000000000000000
11
-64.6056210335448
21
7.35194035450490
31
0.000000000000000
  0
LINE
  5
F1020F
330
F10210
100
AcDbEntity
8
Geo
100
AcDbLine
10
-64.6056210335448
20
7.35194035450490
30
0.000000000000000
11
-64.5056210335449
21
7.33427135777152
31
0.000000000000000
  0
LINE
  5
F10211
330
F10212
100
AcDbEntity
8
Geo
100
AcDbLine
10
-64.5056210335449
20
7.33427135777152
30
0.000000000000000
11
-64.4056210335448
21
7.31699967255127
31
0.000000000000000
  0
LINE
  5
F10213
330
F10214
100
AcDbEntity
8
Geo
100
AcDbLine
10
-64.4056210335448
20
7.31699967255127
30
0.000000000000000
11
-64.3056210335449
21
7.30012797313787
31
0.000000000000000
  0
LINE
  5
F10215
330
F10216
100
AcDbEntity
8
Geo
100
AcDbLine
10
-64.3056210335449
20
7.30012797313787
30
0.000000000000000
11
-64.2056210335448
21
7.28365887189250
31
0.000000000000000
  0
LINE
  5
F10217
330
F10218
100
AcDbEntity
8
Geo
100
AcDbLine
10
-64.2056210335448
20
7.28365887189250
30
0.000000000000000
11
-64.1056210335448
21
7.26759491883930
31
0.000000000000000
  0
LINE
  5
F10219
330
F1021A
100
AcDbEntity
8
Geo
100
AcDbLine
10
-64.1056210335448
20
7.26759491883930
30
0.000000000000000
11
-64.0056210335449
21
7.25193860127052
31
0.000000000000000
  0
LINE
  5
F1021B
330
F1021C
100
AcDbEntity
8
Geo
100
AcDbLine
10
-64.0056210335449
20
7.25193860127052
30
0.000000000000000
11
-63.9056210335449
21
7.23669234336142
31
0.000000000000000
  0
LINE
  5
F1021D
330
F1021E
100
AcDbEntity
8
Geo
100
AcDbLine
10
-63.9056210335449
20
7.23669234336142
30
0.000000000000000
11
-63.8056210335449
21
7.22185850579490
31
0.000000000000000
  0
LINE
  5
F1021F
330
F10220
100
AcDbEntity
8
Geo
100
AcDbLine
10
-63.8056210335449
20
7.22185850579490
30
0.000000000000000
11
-63.7056210335449
21
7.20743938539597
31
0.000000000000000
  0
LINE
  5
F10221
330
F10222
100
AcDbEntity
8
Geo
100
AcDbLine
10
-63.7056210335449
20
7.20743938539597
30
0.000000000000000
11
-63.6056210335448
21
7.19343721477616
31
0.000000000000000
  0
LINE
  5
F10223
330
F10224
100
AcDbEntity
8
Geo
100
AcDbLine
10
-63.6056210335448
20
7.19343721477616
30
0.000000000000000
11
-63.5056210335449
21
7.17985416198777
31
0.000000000000000
  0
LINE
  5
F10225
330
F10226
100
AcDbEntity
8
Geo
100
AcDbLine
10
-63.5056210335449
20
7.17985416198777
30
0.000000000000000
11
-63.4056210335449
21
7.16669233018823
31
0.000000000000000
  0
LINE
  5
F10227
330
F10228
100
AcDbEntity
8
Geo
100
AcDbLine
10
-63.4056210335449
20
7.16669233018823
30
0.000000000000000
11
-63.3056210335449
21
7.15395375731441
31
0.000000000000000
  0
LINE
  5
F10229
330
F1022A
100
AcDbEntity
8
Geo
100
AcDbLine
10
-63.3056210335449
20
7.15395375731441
30
0.000000000000000
11
-63.2056210335449
21
7.14164041576710
31
0.000000000000000
  0
LINE
  5
F1022B
330
F1022C
100
AcDbEntity
8
Geo
100
AcDbLine
10
-63.2056210335449
20
7.14164041576710
30
0.000000000000000
11
-63.1056210335449
21
7.12975421210560
31
0.000000000000000
  0
LINE
  5
F1022D
330
F1022E
100
AcDbEntity
8
Geo
100
AcDbLine
10
-63.1056210335449
20
7.12975421210560
30
0.000000000000000
11
-63.0056210335449
21
7.11829698675251
31
0.000000000000000
  0
LINE
  5
F1022F
330
F10230
100
AcDbEntity
8
Geo
100
AcDbLine
10
-63.0056210335449
20
7.11829698675251
30
0.000000000000000
11
-62.9056210335449
21
7.10727051370879
31
0.000000000000000
  0
LINE
  5
F10231
330
F10232
100
AcDbEntity
8
Geo
100
AcDbLine
10
-62.9056210335449
20
7.10727051370879
30
0.000000000000000
11
-62.8056210335449
21
7.09667650027904
31
0.000000000000000
  0
LINE
  5
F10233
330
F10234
100
AcDbEntity
8
Geo
100
AcDbLine
10
-62.8056210335449
20
7.09667650027904
30
0.000000000000000
11
-62.7056210335449
21
7.08651658680717
31
0.000000000000000
  0
LINE
  5
F10235
330
F10236
100
AcDbEntity
8
Geo
100
AcDbLine
10
-62.7056210335449
20
7.08651658680717
30
0.000000000000000
11
-62.6056210335449
21
7.07679234642241
31
0.000000000000000
  0
LINE
  5
F10237
330
F10238
100
AcDbEntity
8
Geo
100
AcDbLine
10
-62.6056210335449
20
7.07679234642241
30
0.000000000000000
11
-62.5056210335449
21
7.06750528479573
31
0.000000000000000
  0
LINE
  5
F10239
330
F1023A
100
AcDbEntity
8
Geo
100
AcDbLine
10
-62.5056210335449
20
7.06750528479573
30
0.000000000000000
11
-62.4056210335449
21
7.05865683990672
31
0.000000000000000
  0
LINE
  5
F1023B
330
F1023C
100
AcDbEntity
8
Geo
100
AcDbLine
10
-62.4056210335449
20
7.05865683990672
30
0.000000000000000
11
-62.3056210335449
21
7.05024838182090
31
0.000000000000000
  0
LINE
  5
F1023D
330
F1023E
100
AcDbEntity
8
Geo
100
AcDbLine
10
-62.3056210335449
20
7.05024838182090
30
0.000000000000000
11
-62.2056210335449
21
7.04228121247765
31
0.000000000000000
  0
LINE
  5
F1023F
330
F10240
100
AcDbEntity
8
Geo
100
AcDbLine
10
-62.2056210335449
20
7.04228121247765
30
0.000000000000000
11
-62.1056210335449
21
7.03475656548854
31
0.000000000000000
  0
LINE
  5
F10241
330
F10242
100
AcDbEntity
8
Geo
100
AcDbLine
10
-63.0068188574252
20
12.8252719854942
30
0.000000000000000
11
-63.0056210335449
21
12.8252719530049
31
0.000000000000000
  0
LINE
  5
F10243
330
F10244
100
AcDbEntity
8
Geo
100
AcDbLine
10
-63.0056210335449
20
12.8252719530049
30
0.000000000000000
11
-62.9056210335449
21
12.8250400793671
31
0.000000000000000
  0
LINE
  5
F10245
330
F10246
100
AcDbEntity
8
Geo
100
AcDbLine
10
-62.9056210335449
20
12.8250400793671
30
0.000000000000000
11
-62.8056210335449
21
12.8243553437837
31
0.000000000000000
  0
LINE
  5
F10247
330
F10248
100
AcDbEntity
8
Geo
100
AcDbLine
10
-62.8056210335449
20
12.8243553437837
30
0.000000000000000
11
-62.7056210335449
21
12.8232178522769
31
0.000000000000000
  0
LINE
  5
F10249
330
F1024A
100
AcDbEntity
8
Geo
100
AcDbLine
10
-62.7056210335449
20
12.8232178522769
30
0.000000000000000
11
-62.6056210335449
21
12.8216277809723
31
0.000000000000000
  0
LINE
  5
F1024B
330
F1024C
100
AcDbEntity
8
Geo
100
AcDbLine
10
-62.6056210335449
20
12.8216277809723
30
0.000000000000000
11
-62.5056210335449
21
12.8195853760717
31
0.000000000000000
  0
LINE
  5
F1024D
330
F1024E
100
AcDbEntity
8
Geo
100
AcDbLine
10
-62.5056210335449
20
12.8195853760717
30
0.000000000000000
11
-62.4056210335449
21
12.8170909538145
31
0.000000000000000
  0
LINE
  5
F1024F
330
F10250
100
AcDbEntity
8
Geo
100
AcDbLine
10
-62.4056210335449
20
12.8170909538145
30
0.000000000000000
11
-62.3056210335449
21
12.8141449004295
31
0.000000000000000
  0
LINE
  5
F10251
330
F10252
100
AcDbEntity
8
Geo
100
AcDbLine
10
-62.3056210335449
20
12.8141449004295
30
0.000000000000000
11
-62.2056210335449
21
12.8107476720741
31
0.000000000000000
  0
LINE
  5
F10253
330
F10254
100
AcDbEntity
8
Geo
100
AcDbLine
10
-62.2056210335449
20
12.8107476720741
30
0.000000000000000
11
-62.1056210335449
21
12.8068997947648
31
0.000000000000000
  0
LINE
  5
F10255
330
F10256
100
AcDbEntity
8
Geo
100
AcDbLine
10
-73.1056210335448
20
12.3365709465419
30
0.000000000000000
11
-73.0791387045244
21
12.4020320420428
31
0.000000000000000
  0
LINE
  5
F10257
330
F10258
100
AcDbEntity
8
Geo
100
AcDbLine
10
-73.0791387045244
20
12.4020320420428
30
0.000000000000000
11
-73.0056210335448
21
12.5837587805515
31
0.000000000000000
  0
LINE
  5
F10259
330
F1025A
100
AcDbEntity
8
Geo
100
AcDbLine
10
-73.0056210335448
20
12.5837587805515
30
0.000000000000000
11
-72.9056210335448
21
12.6392652357972
31
0.000000000000000
  0
LINE
  5
F1025B
330
F1025C
100
AcDbEntity
8
Geo
100
AcDbLine
10
-72.9056210335448
20
12.6392652357972
30
0.000000000000000
11
-72.8056210335448
21
12.6464401441251
31
0.000000000000000
  0
LINE
  5
F1025D
330
F1025E
100
AcDbEntity
8
Geo
100
AcDbLine
10
-72.8056210335448
20
12.6464401441251
30
0.000000000000000
11
-72.7056210335448
21
12.6336964896787
31
0.000000000000000
  0
LINE
  5
F1025F
330
F10260
100
AcDbEntity
8
Geo
100
AcDbLine
10
-72.7056210335448
20
12.6336964896787
30
0.000000000000000
11
-72.6056210335448
21
12.6205296003297
31
0.000000000000000
  0
LINE
  5
F10261
330
F10262
100
AcDbEntity
8
Geo
100
AcDbLine
10
-72.6056210335448
20
12.6205296003297
30
0.000000000000000
11
-72.5056210335448
21
12.6069415147980
31
0.000000000000000
  0
LINE
  5
F10263
330
F10264
100
AcDbEntity
8
Geo
100
AcDbLine
10
-72.5056210335448
20
12.6069415147980
30
0.000000000000000
11
-72.4056210335448
21
12.5929343370204
31
0.000000000000000
  0
LINE
  5
F10265
330
F10266
100
AcDbEntity
8
Geo
100
AcDbLine
10
-72.4056210335448
20
12.5929343370204
30
0.000000000000000
11
-72.3056210335448
21
12.5785102358244
31
0.000000000000000
  0
LINE
  5
F10267
330
F10268
100
AcDbEntity
8
Geo
100
AcDbLine
10
-72.3056210335448
20
12.5785102358244
30
0.000000000000000
11
-72.2056210335448
21
12.5636714445928
31
0.000000000000000
  0
LINE
  5
F10269
330
F1026A
100
AcDbEntity
8
Geo
100
AcDbLine
10
-72.2056210335448
20
12.5636714445928
30
0.000000000000000
11
-72.1056210335448
21
12.5484202609176
31
0.000000000000000
  0
LINE
  5
F1026B
330
F1026C
100
AcDbEntity
8
Geo
100
AcDbLine
10
-72.1056210335448
20
12.5484202609176
30
0.000000000000000
11
-72.0056210335448
21
12.5327590462444
31
0.000000000000000
  0
LINE
  5
F1026D
330
F1026E
100
AcDbEntity
8
Geo
100
AcDbLine
10
-72.0056210335448
20
12.5327590462444
30
0.000000000000000
11
-71.9056210335448
21
12.5166902255067
31
0.000000000000000
  0
LINE
  5
F1026F
330
F10270
100
AcDbEntity
8
Geo
100
AcDbLine
10
-71.9056210335448
20
12.5166902255067
30
0.000000000000000
11
-71.8056210335448
21
12.5002162867504
31
0.000000000000000
  0
LINE
  5
F10271
330
F10272
100
AcDbEntity
8
Geo
100
AcDbLine
10
-71.8056210335448
20
12.5002162867504
30
0.000000000000000
11
-71.7056210335448
21
12.4833397807488
31
0.000000000000000
  0
LINE
  5
F10273
330
F10274
100
AcDbEntity
8
Geo
100
AcDbLine
10
-71.7056210335448
20
12.4833397807488
30
0.000000000000000
11
-71.6056210335448
21
12.4660633206071
31
0.000000000000000
  0
LINE
  5
F10275
330
F10276
100
AcDbEntity
8
Geo
100
AcDbLine
10
-71.6056210335448
20
12.4660633206071
30
0.000000000000000
11
-71.5056210335448
21
12.4483895813586
31
0.000000000000000
  0
LINE
  5
F10277
330
F10278
100
AcDbEntity
8
Geo
100
AcDbLine
10
-71.5056210335448
20
12.4483895813586
30
0.000000000000000
11
-71.4056210335448
21
12.4303212995497
31
0.000000000000000
  0
LINE
  5
F10279
330
F1027A
100
AcDbEntity
8
Geo
100
AcDbLine
10
-71.4056210335448
20
12.4303212995497
30
0.000000000000000
11
-71.3056210335448
21
12.4118612728166
31
0.000000000000000
  0
LINE
  5
F1027B
330
F1027C
100
AcDbEntity
8
Geo
100
AcDbLine
10
-71.3056210335448
20
12.4118612728166
30
0.000000000000000
11
-71.2056210335448
21
12.3930123594522
31
0.000000000000000
  0
LINE
  5
F1027D
330
F1027E
100
AcDbEntity
8
Geo
100
AcDbLine
10
-71.2056210335448
20
12.3930123594522
30
0.000000000000000
11
-71.1056210335448
21
12.3737774779633
31
0.000000000000000
  0
LINE
  5
F1027F
330
F10280
100
AcDbEntity
8
Geo
100
AcDbLine
10
-71.1056210335448
20
12.3737774779633
30
0.000000000000000
11
-71.0056210335448
21
12.3541596066188
31
0.000000000000000
  0
LINE
  5
F10281
330
F10282
100
AcDbEntity
8
Geo
100
AcDbLine
10
-71.0056210335448
20
12.3541596066188
30
0.000000000000000
11
-70.9056210335448
21
12.3341617829885
31
0.000000000000000
  0
LINE
  5
F10283
330
F10284
100
AcDbEntity
8
Geo
100
AcDbLine
10
-70.9056210335448
20
12.3341617829885
30
0.000000000000000
11
-70.8056210335448
21
12.3137871034729
31
0.000000000000000
  0
LINE
  5
F10285
330
F10286
100
AcDbEntity
8
Geo
100
AcDbLine
10
-70.8056210335448
20
12.3137871034729
30
0.000000000000000
11
-70.7056210335448
21
12.2930387228237
31
0.000000000000000
  0
LINE
  5
F10287
330
F10288
100
AcDbEntity
8
Geo
100
AcDbLine
10
-70.7056210335448
20
12.2930387228237
30
0.000000000000000
11
-70.6056210335448
21
12.2719198536552
31
0.000000000000000
  0
LINE
  5
F10289
330
F1028A
100
AcDbEntity
8
Geo
100
AcDbLine
10
-70.6056210335448
20
12.2719198536552
30
0.000000000000000
11
-70.5056210335448
21
12.2504337659471
31
0.000000000000000
  0
LINE
  5
F1028B
330
F1028C
100
AcDbEntity
8
Geo
100
AcDbLine
10
-70.5056210335448
20
12.2504337659471
30
0.000000000000000
11
-70.4056210335448
21
12.2285837865381
31
0.000000000000000
  0
LINE
  5
F1028D
330
F1028E
100
AcDbEntity
8
Geo
100
AcDbLine
10
-70.4056210335448
20
12.2285837865381
30
0.000000000000000
11
-70.3056210335448
21
12.2063732986107
31
0.000000000000000
  0
LINE
  5
F1028F
330
F10290
100
AcDbEntity
8
Geo
100
AcDbLine
10
-70.3056210335448
20
12.2063732986107
30
0.000000000000000
11
-70.2056210335448
21
12.1838057411672
31
0.000000000000000
  0
LINE
  5
F10291
330
F10292
100
AcDbEntity
8
Geo
100
AcDbLine
10
-70.2056210335448
20
12.1838057411672
30
0.000000000000000
11
-70.1056210335448
21
12.1608846084978
31
0.000000000000000
  0
LINE
  5
F10293
330
F10294
100
AcDbEntity
8
Geo
100
AcDbLine
10
-70.1056210335448
20
12.1608846084978
30
0.000000000000000
11
-70.0056210335448
21
12.1376134496390
31
0.000000000000000
  0
LINE
  5
F10295
330
F10296
100
AcDbEntity
8
Geo
100
AcDbLine
10
-70.0056210335448
20
12.1376134496390
30
0.000000000000000
11
-69.9056210335448
21
12.1139958678242
31
0.000000000000000
  0
LINE
  5
F10297
330
F10298
100
AcDbEntity
8
Geo
100
AcDbLine
10
-69.9056210335448
20
12.1139958678242
30
0.000000000000000
11
-69.8056210335448
21
12.0900355199259
31
0.000000000000000
  0
LINE
  5
F10299
330
F1029A
100
AcDbEntity
8
Geo
100
AcDbLine
10
-69.8056210335448
20
12.0900355199259
30
0.000000000000000
11
-69.7056210335448
21
12.0657361158895
31
0.000000000000000
  0
LINE
  5
F1029B
330
F1029C
100
AcDbEntity
8
Geo
100
AcDbLine
10
-69.7056210335448
20
12.0657361158895
30
0.000000000000000
11
-69.6056210335448
21
12.0411014181587
31
0.000000000000000
  0
LINE
  5
F1029D
330
F1029E
100
AcDbEntity
8
Geo
100
AcDbLine
10
-69.6056210335448
20
12.0411014181587
30
0.000000000000000
11
-69.5056210335448
21
12.0161352410931
31
0.000000000000000
  0
LINE
  5
F1029F
330
F102A0
100
AcDbEntity
8
Geo
100
AcDbLine
10
-69.5056210335448
20
12.0161352410931
30
0.000000000000000
11
-69.4056210335448
21
11.9908414503775
31
0.000000000000000
  0
LINE
  5
F102A1
330
F102A2
100
AcDbEntity
8
Geo
100
AcDbLine
10
-69.4056210335448
20
11.9908414503775
30
0.000000000000000
11
-69.3056210335448
21
11.9652239624233
31
0.000000000000000
  0
LINE
  5
F102A3
330
F102A4
100
AcDbEntity
8
Geo
100
AcDbLine
10
-69.3056210335448
20
11.9652239624233
30
0.000000000000000
11
-69.2056210335448
21
11.9392867437622
31
0.000000000000000
  0
LINE
  5
F102A5
330
F102A6
100
AcDbEntity
8
Geo
100
AcDbLine
10
-69.2056210335448
20
11.9392867437622
30
0.000000000000000
11
-69.1056210335448
21
11.9130338104321
31
0.000000000000000
  0
LINE
  5
F102A7
330
F102A8
100
AcDbEntity
8
Geo
100
AcDbLine
10
-69.1056210335448
20
11.9130338104321
30
0.000000000000000
11
-69.0056210335448
21
11.8864692273551
31
0.000000000000000
  0
LINE
  5
F102A9
330
F102AA
100
AcDbEntity
8
Geo
100
AcDbLine
10
-69.0056210335448
20
11.8864692273551
30
0.000000000000000
11
-68.9056210335448
21
11.8595971077082
31
0.000000000000000
  0
LINE
  5
F102AB
330
F102AC
100
AcDbEntity
8
Geo
100
AcDbLine
10
-68.9056210335448
20
11.8595971077082
30
0.000000000000000
11
-68.8056210335448
21
11.8324216122863
31
0.000000000000000
  0
LINE
  5
F102AD
330
F102AE
100
AcDbEntity
8
Geo
100
AcDbLine
10
-68.8056210335448
20
11.8324216122863
30
0.000000000000000
11
-68.7056210335448
21
11.8049469488581
31
0.000000000000000
  0
LINE
  5
F102AF
330
F102B0
100
AcDbEntity
8
Geo
100
AcDbLine
10
-68.7056210335448
20
11.8049469488581
30
0.000000000000000
11
-68.6056210335448
21
11.7771773715147
31
0.000000000000000
  0
LINE
  5
F102B1
330
F102B2
100
AcDbEntity
8
Geo
100
AcDbLine
10
-68.6056210335448
20
11.7771773715147
30
0.000000000000000
11
-68.5056210335448
21
11.7491171800105
31
0.000000000000000
  0
LINE
  5
F102B3
330
F102B4
100
AcDbEntity
8
Geo
100
AcDbLine
10
-68.5056210335448
20
11.7491171800105
30
0.000000000000000
11
-68.4056210335448
21
11.7207707190979
31
0.000000000000000
  0
LINE
  5
F102B5
330
F102B6
100
AcDbEntity
8
Geo
100
AcDbLine
10
-68.4056210335448
20
11.7207707190979
30
0.000000000000000
11
-68.3056210335448
21
11.6921423778543
31
0.000000000000000
  0
LINE
  5
F102B7
330
F102B8
100
AcDbEntity
8
Geo
100
AcDbLine
10
-68.3056210335448
20
11.6921423778543
30
0.000000000000000
11
-68.2056210335448
21
11.6632365890023
31
0.000000000000000
  0
LINE
  5
F102B9
330
F102BA
100
AcDbEntity
8
Geo
100
AcDbLine
10
-68.2056210335448
20
11.6632365890023
30
0.000000000000000
11
-68.1056210335448
21
11.6340578282241
31
0.000000000000000
  0
LINE
  5
F102BB
330
F102BC
100
AcDbEntity
8
Geo
100
AcDbLine
10
-68.1056210335448
20
11.6340578282241
30
0.000000000000000
11
-68.0056210335448
21
11.6046106134677
31
0.000000000000000
  0
LINE
  5
F102BD
330
F102BE
100
AcDbEntity
8
Geo
100
AcDbLine
10
-68.0056210335448
20
11.6046106134677
30
0.000000000000000
11
-67.9056210335448
21
11.5748995042477
31
0.000000000000000
  0
LINE
  5
F102BF
330
F102C0
100
AcDbEntity
8
Geo
100
AcDbLine
10
-67.9056210335448
20
11.5748995042477
30
0.000000000000000
11
-67.8056210335448
21
11.5449291009394
31
0.000000000000000
  0
LINE
  5
F102C1
330
F102C2
100
AcDbEntity
8
Geo
100
AcDbLine
10
-67.8056210335448
20
11.5449291009394
30
0.000000000000000
11
-67.7056210335448
21
11.5147040440663
31
0.000000000000000
  0
LINE
  5
F102C3
330
F102C4
100
AcDbEntity
8
Geo
100
AcDbLine
10
-67.7056210335448
20
11.5147040440663
30
0.000000000000000
11
-67.6056210335448
21
11.4842290135817
31
0.000000000000000
  0
LINE
  5
F102C5
330
F102C6
100
AcDbEntity
8
Geo
100
AcDbLine
10
-67.6056210335448
20
11.4842290135817
30
0.000000000000000
11
-67.5056210335448
21
11.4535087281440
31
0.000000000000000
  0
LINE
  5
F102C7
330
F102C8
100
AcDbEntity
8
Geo
100
AcDbLine
10
-67.5056210335448
20
11.4535087281440
30
0.000000000000000
11
-67.4056210335448
21
11.4225479443862
31
0.000000000000000
  0
LINE
  5
F102C9
330
F102CA
100
AcDbEntity
8
Geo
100
AcDbLine
10
-67.4056210335448
20
11.4225479443862
30
0.000000000000000
11
-67.3056210335448
21
11.3913514561792
31
0.000000000000000
  0
LINE
  5
F102CB
330
F102CC
100
AcDbEntity
8
Geo
100
AcDbLine
10
-67.3056210335448
20
11.3913514561792
30
0.000000000000000
11
-67.2056210335448
21
11.3599240938896
31
0.000000000000000
  0
LINE
  5
F102CD
330
F102CE
100
AcDbEntity
8
Geo
100
AcDbLine
10
-67.2056210335448
20
11.3599240938896
30
0.000000000000000
11
-67.1056210335448
21
11.3282707236321
31
0.000000000000000
  0
LINE
  5
F102CF
330
F102D0
100
AcDbEntity
8
Geo
100
AcDbLine
10
-67.1056210335448
20
11.3282707236321
30
0.000000000000000
11
-67.0056210335448
21
11.2963962465153
31
0.000000000000000
  0
LINE
  5
F102D1
330
F102D2
100
AcDbEntity
8
Geo
100
AcDbLine
10
-67.0056210335448
20
11.2963962465153
30
0.000000000000000
11
-66.9056210335448
21
11.2643055978838
31
0.000000000000000
  0
LINE
  5
F102D3
330
F102D4
100
AcDbEntity
8
Geo
100
AcDbLine
10
-66.9056210335448
20
11.2643055978838
30
0.000000000000000
11
-66.8056210335448
21
11.2320037465532
31
0.000000000000000
  0
LINE
  5
F102D5
330
F102D6
100
AcDbEntity
8
Geo
100
AcDbLine
10
-66.8056210335448
20
11.2320037465532
30
0.000000000000000
11
-66.7056210335448
21
11.1994956940411
31
0.000000000000000
  0
LINE
  5
F102D7
330
F102D8
100
AcDbEntity
8
Geo
100
AcDbLine
10
-66.7056210335448
20
11.1994956940411
30
0.000000000000000
11
-66.6056210335448
21
11.1667864737927
31
0.000000000000000
  0
LINE
  5
F102D9
330
F102DA
100
AcDbEntity
8
Geo
100
AcDbLine
10
-66.6056210335448
20
11.1667864737927
30
0.000000000000000
11
-66.5056210335448
21
11.1338811504015
31
0.000000000000000
  0
LINE
  5
F102DB
330
F102DC
100
AcDbEntity
8
Geo
100
AcDbLine
10
-66.5056210335448
20
11.1338811504015
30
0.000000000000000
11
-66.4056210335448
21
11.1007848188248
31
0.000000000000000
  0
LINE
  5
F102DD
330
F102DE
100
AcDbEntity
8
Geo
100
AcDbLine
10
-66.4056210335448
20
11.1007848188248
30
0.000000000000000
11
-66.3056210335448
21
11.0675026035950
31
0.000000000000000
  0
LINE
  5
F102DF
330
F102E0
100
AcDbEntity
8
Geo
100
AcDbLine
10
-66.3056210335448
20
11.0675026035950
30
0.000000000000000
11
-66.2056210335448
21
11.0340396580263
31
0.000000000000000
  0
LINE
  5
F102E1
330
F102E2
100
AcDbEntity
8
Geo
100
AcDbLine
10
-66.2056210335448
20
11.0340396580263
30
0.000000000000000
11
-66.1056210335448
21
11.0004011634167
31
0.000000000000000
  0
LINE
  5
F102E3
330
F102E4
100
AcDbEntity
8
Geo
100
AcDbLine
10
-66.1056210335448
20
11.0004011634167
30
0.000000000000000
11
-66.0056210335448
21
10.9665923282452
31
0.000000000000000
  0
LINE
  5
F102E5
330
F102E6
100
AcDbEntity
8
Geo
100
AcDbLine
10
-66.0056210335448
20
10.9665923282452
30
0.000000000000000
11
-65.9056210335448
21
10.9326183873664
31
0.000000000000000
  0
LINE
  5
F102E7
330
F102E8
100
AcDbEntity
8
Geo
100
AcDbLine
10
-65.9056210335448
20
10.9326183873664
30
0.000000000000000
11
-65.8056210335448
21
10.8984846011989
31
0.000000000000000
  0
LINE
  5
F102E9
330
F102EA
100
AcDbEntity
8
Geo
100
AcDbLine
10
-65.8056210335448
20
10.8984846011989
30
0.000000000000000
11
-65.7056210335448
21
10.8641962549115
31
0.000000000000000
  0
LINE
  5
F102EB
330
F102EC
100
AcDbEntity
8
Geo
100
AcDbLine
10
-65.7056210335448
20
10.8641962549115
30
0.000000000000000
11
-65.6056210335448
21
10.8297586576045
31
0.000000000000000
  0
LINE
  5
F102ED
330
F102EE
100
AcDbEntity
8
Geo
100
AcDbLine
10
-65.6056210335448
20
10.8297586576045
30
0.000000000000000
11
-65.5056210335448
21
10.7951771414878
31
0.000000000000000
  0
LINE
  5
F102EF
330
F102F0
100
AcDbEntity
8
Geo
100
AcDbLine
10
-65.5056210335448
20
10.7951771414878
30
0.000000000000000
11
-65.4056210335448
21
10.7604570610551
31
0.000000000000000
  0
LINE
  5
F102F1
330
F102F2
100
AcDbEntity
8
Geo
100
AcDbLine
10
-65.4056210335448
20
10.7604570610551
30
0.000000000000000
11
-65.3056210335449
21
10.7256037922552
31
0.000000000000000
  0
LINE
  5
F102F3
330
F102F4
100
AcDbEntity
8
Geo
100
AcDbLine
10
-65.3056210335449
20
10.7256037922552
30
0.000000000000000
11
-65.2056210335448
21
10.6906227316592
31
0.000000000000000
  0
LINE
  5
F102F5
330
F102F6
100
AcDbEntity
8
Geo
100
AcDbLine
10
-65.2056210335448
20
10.6906227316592
30
0.000000000000000
11
-65.1056210335448
21
10.6555192956252
31
0.000000000000000
  0
LINE
  5
F102F7
330
F102F8
100
AcDbEntity
8
Geo
100
AcDbLine
10
-65.1056210335448
20
10.6555192956252
30
0.000000000000000
11
-65.0056210335449
21
10.6202989194594
31
0.000000000000000
  0
LINE
  5
F102F9
330
F102FA
100
AcDbEntity
8
Geo
100
AcDbLine
10
-65.0056210335449
20
10.6202989194594
30
0.000000000000000
11
-64.9056210335448
21
10.5849670565747
31
0.000000000000000
  0
LINE
  5
F102FB
330
F102FC
100
AcDbEntity
8
Geo
100
AcDbLine
10
-64.9056210335448
20
10.5849670565747
30
0.000000000000000
11
-64.8056210335449
21
10.5495291776462
31
0.000000000000000
  0
LINE
  5
F102FD
330
F102FE
100
AcDbEntity
8
Geo
100
AcDbLine
10
-64.8056210335449
20
10.5495291776462
30
0.000000000000000
11
-64.7056210335448
21
10.5139907697645
31
0.000000000000000
  0
LINE
  5
F102FF
330
F10300
100
AcDbEntity
8
Geo
100
AcDbLine
10
-64.7056210335448
20
10.5139907697645
30
0.000000000000000
11
-64.6056210335448
21
10.4783573355853
31
0.000000000000000
  0
LINE
  5
F10301
330
F10302
100
AcDbEntity
8
Geo
100
AcDbLine
10
-64.6056210335448
20
10.4783573355853
30
0.000000000000000
11
-64.5056210335449
21
10.4426343924782
31
0.000000000000000
  0
LINE
  5
F10303
330
F10304
100
AcDbEntity
8
Geo
100
AcDbLine
10
-64.5056210335449
20
10.4426343924782
30
0.000000000000000
11
-64.4056210335448
21
10.4068274716720
31
0.000000000000000
  0
LINE
  5
F10305
330
F10306
100
AcDbEntity
8
Geo
100
AcDbLine
10
-64.4056210335448
20
10.4068274716720
30
0.000000000000000
11
-64.3056210335449
21
10.3709421173984
31
0.000000000000000
  0
LINE
  5
F10307
330
F10308
100
AcDbEntity
8
Geo
100
AcDbLine
10
-64.3056210335449
20
10.3709421173984
30
0.000000000000000
11
-64.2056210335448
21
10.3349838860334
31
0.000000000000000
  0
LINE
  5
F10309
330
F1030A
100
AcDbEntity
8
Geo
100
AcDbLine
10
-64.2056210335448
20
10.3349838860334
30
0.000000000000000
11
-64.1056210335448
21
10.2989583452371
31
0.000000000000000
  0
LINE
  5
F1030B
330
F1030C
100
AcDbEntity
8
Geo
100
AcDbLine
10
-64.1056210335448
20
10.2989583452371
30
0.000000000000000
11
-64.0056210335449
21
10.2628710730916
31
0.000000000000000
  0
LINE
  5
F1030D
330
F1030E
100
AcDbEntity
8
Geo
100
AcDbLine
10
-64.0056210335449
20
10.2628710730916
30
0.000000000000000
11
-63.9056210335449
21
10.2267276572372
31
0.000000000000000
  0
LINE
  5
F1030F
330
F10310
100
AcDbEntity
8
Geo
100
AcDbLine
10
-63.9056210335449
20
10.2267276572372
30
0.000000000000000
11
-63.8056210335449
21
10.1905336940074
31
0.000000000000000
  0
LINE
  5
F10311
330
F10312
100
AcDbEntity
8
Geo
100
AcDbLine
10
-63.8056210335449
20
10.1905336940074
30
0.000000000000000
11
-63.7056210335449
21
10.1542947875624
31
0.000000000000000
  0
LINE
  5
F10313
330
F10314
100
AcDbEntity
8
Geo
100
AcDbLine
10
-63.7056210335449
20
10.1542947875624
30
0.000000000000000
11
-63.6056210335448
21
10.1180165490210
31
0.000000000000000
  0
LINE
  5
F10315
330
F10316
100
AcDbEntity
8
Geo
100
AcDbLine
10
-63.6056210335448
20
10.1180165490210
30
0.000000000000000
11
-63.5056210335449
21
10.0817045955924
31
0.000000000000000
  0
LINE
  5
F10317
330
F10318
100
AcDbEntity
8
Geo
100
AcDbLine
10
-63.5056210335449
20
10.0817045955924
30
0.000000000000000
11
-63.4056210335449
21
10.0453645497057
31
0.000000000000000
  0
LINE
  5
F10319
330
F1031A
100
AcDbEntity
8
Geo
100
AcDbLine
10
-63.4056210335449
20
10.0453645497057
30
0.000000000000000
11
-63.3056210335449
21
10.0090020381401
31
0.000000000000000
  0
LINE
  5
F1031B
330
F1031C
100
AcDbEntity
8
Geo
100
AcDbLine
10
-63.3056210335449
20
10.0090020381401
30
0.000000000000000
11
-63.2056210335449
21
9.97262269115319
31
0.000000000000000
  0
LINE
  5
F1031D
330
F1031E
100
AcDbEntity
8
Geo
100
AcDbLine
10
-63.2056210335449
20
9.97262269115319
30
0.000000000000000
11
-63.1056210335449
21
9.93623214160924
31
0.000000000000000
  0
LINE
  5
F1031F
330
F10320
100
AcDbEntity
8
Geo
100
AcDbLine
10
-63.1056210335449
20
9.93623214160924
30
0.000000000000000
11
-63.0056210335449
21
9.89983602410717
31
0.000000000000000
  0
LINE
  5
F10321
330
F10322
100
AcDbEntity
8
Geo
100
AcDbLine
10
-63.0056210335449
20
9.89983602410717
30
0.000000000000000
11
-62.9056210335449
21
9.86343997410800
31
0.000000000000000
  0
LINE
  5
F10323
330
F10324
100
AcDbEntity
8
Geo
100
AcDbLine
10
-62.9056210335449
20
9.86343997410800
30
0.000000000000000
11
-62.8056210335449
21
9.82704962706229
31
0.000000000000000
  0
LINE
  5
F10325
330
F10326
100
AcDbEntity
8
Geo
100
AcDbLine
10
-62.8056210335449
20
9.82704962706229
30
0.000000000000000
11
-62.7056210335449
21
9.79067061753759
31
0.000000000000000
  0
LINE
  5
F10327
330
F10328
100
AcDbEntity
8
Geo
100
AcDbLine
10
-62.7056210335449
20
9.79067061753759
30
0.000000000000000
11
-62.6056210335449
21
9.75430857834597
31
0.000000000000000
  0
LINE
  5
F10329
330
F1032A
100
AcDbEntity
8
Geo
100
AcDbLine
10
-62.6056210335449
20
9.75430857834597
30
0.000000000000000
11
-62.5056210335449
21
9.71796913967188
31
0.000000000000000
  0
LINE
  5
F1032B
330
F1032C
100
AcDbEntity
8
Geo
100
AcDbLine
10
-62.5056210335449
20
9.71796913967188
30
0.000000000000000
11
-62.4056210335449
21
9.68165792820036
31
0.000000000000000
  0
LINE
  5
F1032D
330
F1032E
100
AcDbEntity
8
Geo
100
AcDbLine
10
-62.4056210335449
20
9.68165792820036
30
0.000000000000000
11
-62.3056210335449
21
9.64538056624585
31
0.000000000000000
  0
LINE
  5
F1032F
330
F10330
100
AcDbEntity
8
Geo
100
AcDbLine
10
-62.3056210335449
20
9.64538056624585
30
0.000000000000000
11
-62.2056210335449
21
9.60914267088163
31
0.000000000000000
  0
LINE
  5
F10331
330
F10332
100
AcDbEntity
8
Geo
100
AcDbLine
10
-62.2056210335449
20
9.60914267088163
30
0.000000000000000
11
-62.1056210335449
21
9.57294985307011
31
0.000000000000000
  0
LINE
  5
F10333
330
F10334
100
AcDbEntity
8
Geo
100
AcDbLine
10
-73.1056210335448
20
8.92299394297105
30
0.000000000000000
11
-73.0056210335448
21
8.94452133342006
31
0.000000000000000
  0
LINE
  5
F10335
330
F10336
100
AcDbEntity
8
Geo
100
AcDbLine
10
-73.0056210335448
20
8.94452133342006
30
0.000000000000000
11
-72.9056210335448
21
8.92381655113685
31
0.000000000000000
  0
LINE
  5
F10337
330
F10338
100
AcDbEntity
8
Geo
100
AcDbLine
10
-72.9056210335448
20
8.92381655113685
30
0.000000000000000
11
-72.8056210335448
21
8.89320423974844
31
0.000000000000000
  0
LINE
  5
F10339
330
F1033A
100
AcDbEntity
8
Geo
100
AcDbLine
10
-72.8056210335448
20
8.89320423974844
30
0.000000000000000
11
-72.7056210335448
21
8.85911134470744
31
0.000000000000000
  0
LINE
  5
F1033B
330
F1033C
100
AcDbEntity
8
Geo
100
AcDbLine
10
-72.7056210335448
20
8.85911134470744
30
0.000000000000000
11
-72.6056210335448
21
8.82517965972427
31
0.000000000000000
  0
LINE
  5
F1033D
330
F1033E
100
AcDbEntity
8
Geo
100
AcDbLine
10
-72.6056210335448
20
8.82517965972427
30
0.000000000000000
11
-72.5056210335448
21
8.79141443867494
31
0.000000000000000
  0
LINE
  5
F1033F
330
F10340
100
AcDbEntity
8
Geo
100
AcDbLine
10
-72.5056210335448
20
8.79141443867494
30
0.000000000000000
11
-72.4056210335448
21
8.75782090966067
31
0.000000000000000
  0
LINE
  5
F10341
330
F10342
100
AcDbEntity
8
Geo
100
AcDbLine
10
-72.4056210335448
20
8.75782090966067
30
0.000000000000000
11
-72.3056210335448
21
8.72440427419845
31
0.000000000000000
  0
LINE
  5
F10343
330
F10344
100
AcDbEntity
8
Geo
100
AcDbLine
10
-72.3056210335448
20
8.72440427419845
30
0.000000000000000
11
-72.2056210335448
21
8.69116970641563
31
0.000000000000000
  0
LINE
  5
F10345
330
F10346
100
AcDbEntity
8
Geo
100
AcDbLine
10
-72.2056210335448
20
8.69116970641563
30
0.000000000000000
11
-72.1056210335448
21
8.65812235224875
31
0.000000000000000
  0
LINE
  5
F10347
330
F10348
100
AcDbEntity
8
Geo
100
AcDbLine
10
-72.1056210335448
20
8.65812235224875
30
0.000000000000000
11
-72.0056210335448
21
8.62526732864678
31
0.000000000000000
  0
LINE
  5
F10349
330
F1034A
100
AcDbEntity
8
Geo
100
AcDbLine
10
-72.0056210335448
20
8.62526732864678
30
0.000000000000000
11
-71.9056210335448
21
8.59260972277885
31
0.000000000000000
  0
LINE
  5
F1034B
330
F1034C
100
AcDbEntity
8
Geo
100
AcDbLine
10
-71.9056210335448
20
8.59260972277885
30
0.000000000000000
11
-71.8056210335448
21
8.56015459124652
31
0.000000000000000
  0
LINE
  5
F1034D
330
F1034E
100
AcDbEntity
8
Geo
100
AcDbLine
10
-71.8056210335448
20
8.56015459124652
30
0.000000000000000
11
-71.7056210335448
21
8.52790695930087
31
0.000000000000000
  0
LINE
  5
F1034F
330
F10350
100
AcDbEntity
8
Geo
100
AcDbLine
10
-71.7056210335448
20
8.52790695930087
30
0.000000000000000
11
-71.6056210335448
21
8.49587182006438
31
0.000000000000000
  0
LINE
  5
F10351
330
F10352
100
AcDbEntity
8
Geo
100
AcDbLine
10
-71.6056210335448
20
8.49587182006438
30
0.000000000000000
11
-71.5056210335448
21
8.46405413375785
31
0.000000000000000
  0
LINE
  5
F10353
330
F10354
100
AcDbEntity
8
Geo
100
AcDbLine
10
-71.5056210335448
20
8.46405413375785
30
0.000000000000000
11
-71.4056210335448
21
8.43245882693232
31
0.000000000000000
  0
LINE
  5
F10355
330
F10356
100
AcDbEntity
8
Geo
100
AcDbLine
10
-71.4056210335448
20
8.43245882693232
30
0.000000000000000
11
-71.3056210335448
21
8.40109079170630
31
0.000000000000000
  0
LINE
  5
F10357
330
F10358
100
AcDbEntity
8
Geo
100
AcDbLine
10
-71.3056210335448
20
8.40109079170630
30
0.000000000000000
11
-71.2056210335448
21
8.36995488500828
31
0.000000000000000
  0
LINE
  5
F10359
330
F1035A
100
AcDbEntity
8
Geo
100
AcDbLine
10
-71.2056210335448
20
8.36995488500828
30
0.000000000000000
11
-71.1056210335448
21
8.33905592782468
31
0.000000000000000
  0
LINE
  5
F1035B
330
F1035C
100
AcDbEntity
8
Geo
100
AcDbLine
10
-71.1056210335448
20
8.33905592782468
30
0.000000000000000
11
-71.0056210335448
21
8.30839870445342
31
0.000000000000000
  0
LINE
  5
F1035D
330
F1035E
100
AcDbEntity
8
Geo
100
AcDbLine
10
-71.0056210335448
20
8.30839870445342
30
0.000000000000000
11
-70.9056210335448
21
8.27798796176308
31
0.000000000000000
  0
LINE
  5
F1035F
330
F10360
100
AcDbEntity
8
Geo
100
AcDbLine
10
-70.9056210335448
20
8.27798796176308
30
0.000000000000000
11
-70.8056210335448
21
8.24782840845798
31
0.000000000000000
  0
LINE
  5
F10361
330
F10362
100
AcDbEntity
8
Geo
100
AcDbLine
10
-70.8056210335448
20
8.24782840845798
30
0.000000000000000
11
-70.7056210335448
21
8.21792471434902
31
0.000000000000000
  0
LINE
  5
F10363
330
F10364
100
AcDbEntity
8
Geo
100
AcDbLine
10
-70.7056210335448
20
8.21792471434902
30
0.000000000000000
11
-70.6056210335448
21
8.18828150963071
31
0.000000000000000
  0
LINE
  5
F10365
330
F10366
100
AcDbEntity
8
Geo
100
AcDbLine
10
-70.6056210335448
20
8.18828150963071
30
0.000000000000000
11
-70.5056210335448
21
8.15890338416417
31
0.000000000000000
  0
LINE
  5
F10367
330
F10368
100
AcDbEntity
8
Geo
100
AcDbLine
10
-70.5056210335448
20
8.15890338416417
30
0.000000000000000
11
-70.4056210335448
21
8.12979488676646
31
0.000000000000000
  0
LINE
  5
F10369
330
F1036A
100
AcDbEntity
8
Geo
100
AcDbLine
10
-70.4056210335448
20
8.12979488676646
30
0.000000000000000
11
-70.3056210335448
21
8.10096052450630
31
0.000000000000000
  0
LINE
  5
F1036B
330
F1036C
100
AcDbEntity
8
Geo
100
AcDbLine
10
-70.3056210335448
20
8.10096052450630
30
0.000000000000000
11
-70.2056210335448
21
8.07240476200619
31
0.000000000000000
  0
LINE
  5
F1036D
330
F1036E
100
AcDbEntity
8
Geo
100
AcDbLine
10
-70.2056210335448
20
8.07240476200619
30
0.000000000000000
11
-70.1056210335448
21
8.04413202075108
31
0.000000000000000
  0
LINE
  5
F1036F
330
F10370
100
AcDbEntity
8
Geo
100
AcDbLine
10
-70.1056210335448
20
8.04413202075108
30
0.000000000000000
11
-70.0056210335448
21
8.01614667840383
31
0.000000000000000
  0
LINE
  5
F10371
330
F10372
100
AcDbEntity
8
Geo
100
AcDbLine
10
-70.0056210335448
20
8.01614667840383
30
0.000000000000000
11
-69.9056210335448
21
7.98845306812733
31
0.000000000000000
  0
LINE
  5
F10373
330
F10374
100
AcDbEntity
8
Geo
100
AcDbLine
10
-69.9056210335448
20
7.98845306812733
30
0.000000000000000
11
-69.8056210335448
21
7.96105547791359
31
0.000000000000000
  0
LINE
  5
F10375
330
F10376
100
AcDbEntity
8
Geo
100
AcDbLine
10
-69.8056210335448
20
7.96105547791359
30
0.000000000000000
11
-69.7056210335448
21
7.93395814991981
31
0.000000000000000
  0
LINE
  5
F10377
330
F10378
100
AcDbEntity
8
Geo
100
AcDbLine
10
-69.7056210335448
20
7.93395814991981
30
0.000000000000000
11
-69.6056210335448
21
7.90716527981153
31
0.000000000000000
  0
LINE
  5
F10379
330
F1037A
100
AcDbEntity
8
Geo
100
AcDbLine
10
-69.6056210335448
20
7.90716527981153
30
0.000000000000000
11
-69.5056210335448
21
7.88068101611296
31
0.000000000000000
  0
LINE
  5
F1037B
330
F1037C
100
AcDbEntity
8
Geo
100
AcDbLine
10
-69.5056210335448
20
7.88068101611296
30
0.000000000000000
11
-69.4056210335448
21
7.85450945956468
31
0.000000000000000
  0
LINE
  5
F1037D
330
F1037E
100
AcDbEntity
8
Geo
100
AcDbLine
10
-69.4056210335448
20
7.85450945956468
30
0.000000000000000
11
-69.3056210335448
21
7.82865466248866
31
0.000000000000000
  0
LINE
  5
F1037F
330
F10380
100
AcDbEntity
8
Geo
100
AcDbLine
10
-69.3056210335448
20
7.82865466248866
30
0.000000000000000
11
-69.2056210335448
21
7.80312062816084
31
0.000000000000000
  0
LINE
  5
F10381
330
F10382
100
AcDbEntity
8
Geo
100
AcDbLine
10
-69.2056210335448
20
7.80312062816084
30
0.000000000000000
11
-69.1056210335448
21
7.77791131019123
31
0.000000000000000
  0
LINE
  5
F10383
330
F10384
100
AcDbEntity
8
Geo
100
AcDbLine
10
-69.1056210335448
20
7.77791131019123
30
0.000000000000000
11
-69.0056210335448
21
7.75303061191181
31
0.000000000000000
  0
LINE
  5
F10385
330
F10386
100
AcDbEntity
8
Geo
100
AcDbLine
10
-69.0056210335448
20
7.75303061191181
30
0.000000000000000
11
-68.9056210335448
21
7.72848238577210
31
0.000000000000000
  0
LINE
  5
F10387
330
F10388
100
AcDbEntity
8
Geo
100
AcDbLine
10
-68.9056210335448
20
7.72848238577210
30
0.000000000000000
11
-68.8056210335448
21
7.70427043274266
31
0.000000000000000
  0
LINE
  5
F10389
330
F1038A
100
AcDbEntity
8
Geo
100
AcDbLine
10
-68.8056210335448
20
7.70427043274266
30
0.000000000000000
11
-68.7056210335448
21
7.68039850172658
31
0.000000000000000
  0
LINE
  5
F1038B
330
F1038C
100
AcDbEntity
8
Geo
100
AcDbLine
10
-68.7056210335448
20
7.68039850172658
30
0.000000000000000
11
-68.6056210335448
21
7.65687028897903
31
0.000000000000000
  0
LINE
  5
F1038D
330
F1038E
100
AcDbEntity
8
Geo
100
AcDbLine
10
-68.6056210335448
20
7.65687028897903
30
0.000000000000000
11
-68.5056210335448
21
7.63368943753487
31
0.000000000000000
  0
LINE
  5
F1038F
330
F10390
100
AcDbEntity
8
Geo
100
AcDbLine
10
-68.5056210335448
20
7.63368943753487
30
0.000000000000000
11
-68.4056210335448
21
7.61085953664468
31
0.000000000000000
  0
LINE
  5
F10391
330
F10392
100
AcDbEntity
8
Geo
100
AcDbLine
10
-68.4056210335448
20
7.61085953664468
30
0.000000000000000
11
-68.3056210335448
21
7.58838412121890
31
0.000000000000000
  0
LINE
  5
F10393
330
F10394
100
AcDbEntity
8
Geo
100
AcDbLine
10
-68.3056210335448
20
7.58838412121890
30
0.000000000000000
11
-68.2056210335448
21
7.56626667128058
31
0.000000000000000
  0
LINE
  5
F10395
330
F10396
100
AcDbEntity
8
Geo
100
AcDbLine
10
-68.2056210335448
20
7.56626667128058
30
0.000000000000000
11
-68.1056210335448
21
7.54451061142650
31
0.000000000000000
  0
LINE
  5
F10397
330
F10398
100
AcDbEntity
8
Geo
100
AcDbLine
10
-68.1056210335448
20
7.54451061142650
30
0.000000000000000
11
-68.0056210335448
21
7.52311931029695
31
0.000000000000000
  0
LINE
  5
F10399
330
F1039A
100
AcDbEntity
8
Geo
100
AcDbLine
10
-68.0056210335448
20
7.52311931029695
30
0.000000000000000
11
-67.9056210335448
21
7.50209608005409
31
0.000000000000000
  0
LINE
  5
F1039B
330
F1039C
100
AcDbEntity
8
Geo
100
AcDbLine
10
-67.9056210335448
20
7.50209608005409
30
0.000000000000000
11
-67.8056210335448
21
7.48144417586915
31
0.000000000000000
  0
LINE
  5
F1039D
330
F1039E
100
AcDbEntity
8
Geo
100
AcDbLine
10
-67.8056210335448
20
7.48144417586915
30
0.000000000000000
11
-67.7056210335448
21
7.46116679541841
31
0.000000000000000
  0
LINE
  5
F1039F
330
F103A0
100
AcDbEntity
8
Geo
100
AcDbLine
10
-67.7056210335448
20
7.46116679541841
30
0.000000000000000
11
-67.6056210335448
21
7.44126707838803
31
0.000000000000000
  0
LINE
  5
F103A1
330
F103A2
100
AcDbEntity
8
Geo
100
AcDbLine
10
-67.6056210335448
20
7.44126707838803
30
0.000000000000000
11
-67.5056210335448
21
7.42174810598798
31
0.000000000000000
  0
LINE
  5
F103A3
330
F103A4
100
AcDbEntity
8
Geo
100
AcDbLine
10
-67.5056210335448
20
7.42174810598798
30
0.000000000000000
11
-67.4056210335448
21
7.40261290047490
31
0.000000000000000
  0
LINE
  5
F103A5
330
F103A6
100
AcDbEntity
8
Geo
100
AcDbLine
10
-67.4056210335448
20
7.40261290047490
30
0.000000000000000
11
-67.3056210335448
21
7.38386442468418
31
0.000000000000000
  0
LINE
  5
F103A7
330
F103A8
100
AcDbEntity
8
Geo
100
AcDbLine
10
-67.3056210335448
20
7.38386442468418
30
0.000000000000000
11
-67.2056210335448
21
7.36550558157118
31
0.000000000000000
  0
LINE
  5
F103A9
330
F103AA
100
AcDbEntity
8
Geo
100
AcDbLine
10
-67.2056210335448
20
7.36550558157118
30
0.000000000000000
11
-67.1056210335448
21
7.34753921376177
31
0.000000000000000
  0
LINE
  5
F103AB
330
F103AC
100
AcDbEntity
8
Geo
100
AcDbLine
10
-67.1056210335448
20
7.34753921376177
30
0.000000000000000
11
-67.0056210335448
21
7.32996810311214
31
0.000000000000000
  0
LINE
  5
F103AD
330
F103AE
100
AcDbEntity
8
Geo
100
AcDbLine
10
-67.0056210335448
20
7.32996810311214
30
0.000000000000000
11
-66.9056210335448
21
7.31279497027814
31
0.000000000000000
  0
LINE
  5
F103AF
330
F103B0
100
AcDbEntity
8
Geo
100
AcDbLine
10
-66.9056210335448
20
7.31279497027814
30
0.000000000000000
11
-66.8056210335448
21
7.29602247429393
31
0.000000000000000
  0
LINE
  5
F103B1
330
F103B2
100
AcDbEntity
8
Geo
100
AcDbLine
10
-66.8056210335448
20
7.29602247429393
30
0.000000000000000
11
-66.7056210335448
21
7.27965321216036
31
0.000000000000000
  0
LINE
  5
F103B3
330
F103B4
100
AcDbEntity
8
Geo
100
AcDbLine
10
-66.7056210335448
20
7.27965321216036
30
0.000000000000000
11
-66.6056210335448
21
7.26368971844279
31
0.000000000000000
  0
LINE
  5
F103B5
330
F103B6
100
AcDbEntity
8
Geo
100
AcDbLine
10
-66.6056210335448
20
7.26368971844279
30
0.000000000000000
11
-66.5056210335448
21
7.24813446487865
31
0.000000000000000
  0
LINE
  5
F103B7
330
F103B8
100
AcDbEntity
8
Geo
100
AcDbLine
10
-66.5056210335448
20
7.24813446487865
30
0.000000000000000
11
-66.4056210335448
21
7.23298985999478
31
0.000000000000000
  0
LINE
  5
F103B9
330
F103BA
100
AcDbEntity
8
Geo
100
AcDbLine
10
-66.4056210335448
20
7.23298985999478
30
0.000000000000000
11
-66.3056210335448
21
7.21825824873443
31
0.000000000000000
  0
LINE
  5
F103BB
330
F103BC
100
AcDbEntity
8
Geo
100
AcDbLine
10
-66.3056210335448
20
7.21825824873443
30
0.000000000000000
11
-66.2056210335448
21
7.20394191209422
31
0.000000000000000
  0
LINE
  5
F103BD
330
F103BE
100
AcDbEntity
8
Geo
100
AcDbLine
10
-66.2056210335448
20
7.20394191209422
30
0.000000000000000
11
-66.1056210335448
21
7.19004306677096
31
0.000000000000000
  0
LINE
  5
F103BF
330
F103C0
100
AcDbEntity
8
Geo
100
AcDbLine
10
-66.1056210335448
20
7.19004306677096
30
0.000000000000000
11
-66.0056210335448
21
7.17656386481838
31
0.000000000000000
  0
LINE
  5
F103C1
330
F103C2
100
AcDbEntity
8
Geo
100
AcDbLine
10
-66.0056210335448
20
7.17656386481838
30
0.000000000000000
11
-65.9056210335448
21
7.16350639331397
31
0.000000000000000
  0
LINE
  5
F103C3
330
F103C4
100
AcDbEntity
8
Geo
100
AcDbLine
10
-65.9056210335448
20
7.16350639331397
30
0.000000000000000
11
-65.8056210335448
21
7.15087267403579
31
0.000000000000000
  0
LINE
  5
F103C5
330
F103C6
100
AcDbEntity
8
Geo
100
AcDbLine
10
-65.8056210335448
20
7.15087267403579
30
0.000000000000000
11
-65.7056210335448
21
7.13866466314941
31
0.000000000000000
  0
LINE
  5
F103C7
330
F103C8
100
AcDbEntity
8
Geo
100
AcDbLine
10
-65.7056210335448
20
7.13866466314941
30
0.000000000000000
11
-65.6056210335448
21
7.12688425090508
31
0.000000000000000
  0
LINE
  5
F103C9
330
F103CA
100
AcDbEntity
8
Geo
100
AcDbLine
10
-65.6056210335448
20
7.12688425090508
30
0.000000000000000
11
-65.5056210335448
21
7.11553326134498
31
0.000000000000000
  0
LINE
  5
F103CB
330
F103CC
100
AcDbEntity
8
Geo
100
AcDbLine
10
-65.5056210335448
20
7.11553326134498
30
0.000000000000000
11
-65.4056210335448
21
7.10461345202085
31
0.000000000000000
  0
LINE
  5
F103CD
330
F103CE
100
AcDbEntity
8
Geo
100
AcDbLine
10
-65.4056210335448
20
7.10461345202085
30
0.000000000000000
11
-65.3056210335449
21
7.09412651372180
31
0.000000000000000
  0
LINE
  5
F103CF
330
F103D0
100
AcDbEntity
8
Geo
100
AcDbLine
10
-65.3056210335449
20
7.09412651372180
30
0.000000000000000
11
-65.2056210335448
21
7.08407407021259
31
0.000000000000000
  0
LINE
  5
F103D1
330
F103D2
100
AcDbEntity
8
Geo
100
AcDbLine
10
-65.2056210335448
20
7.08407407021259
30
0.000000000000000
11
-65.1056210335448
21
7.07445767798211
31
0.000000000000000
  0
LINE
  5
F103D3
330
F103D4
100
AcDbEntity
8
Geo
100
AcDbLine
10
-65.1056210335448
20
7.07445767798211
30
0.000000000000000
11
-65.0056210335449
21
7.06527882600248
31
0.000000000000000
  0
LINE
  5
F103D5
330
F103D6
100
AcDbEntity
8
Geo
100
AcDbLine
10
-65.0056210335449
20
7.06527882600248
30
0.000000000000000
11
-64.9056210335448
21
7.05653893549843
31
0.000000000000000
  0
LINE
  5
F103D7
330
F103D8
100
AcDbEntity
8
Geo
100
AcDbLine
10
-64.9056210335448
20
7.05653893549843
30
0.000000000000000
11
-64.8056210335449
21
7.04823935972727
31
0.000000000000000
  0
LINE
  5
F103D9
330
F103DA
100
AcDbEntity
8
Geo
100
AcDbLine
10
-64.8056210335449
20
7.04823935972727
30
0.000000000000000
11
-64.7056210335448
21
7.04038138376937
31
0.000000000000000
  0
LINE
  5
F103DB
330
F103DC
100
AcDbEntity
8
Geo
100
AcDbLine
10
-64.7056210335448
20
7.04038138376937
30
0.000000000000000
11
-64.6056210335448
21
7.03296622432916
31
0.000000000000000
  0
LINE
  5
F103DD
330
F103DE
100
AcDbEntity
8
Geo
100
AcDbLine
10
-64.6056210335448
20
7.03296622432916
30
0.000000000000000
11
-64.5056210335449
21
7.02599502954672
31
0.000000000000000
  0
LINE
  5
F103DF
330
F103E0
100
AcDbEntity
8
Geo
100
AcDbLine
10
-64.5056210335449
20
7.02599502954672
30
0.000000000000000
11
-64.4056210335448
21
7.01946887882007
31
0.000000000000000
  0
LINE
  5
F103E1
330
F103E2
100
AcDbEntity
8
Geo
100
AcDbLine
10
-64.4056210335448
20
7.01946887882007
30
0.000000000000000
11
-64.3056210335449
21
7.01338878263797
31
0.000000000000000
  0
LINE
  5
F103E3
330
F103E4
100
AcDbEntity
8
Geo
100
AcDbLine
10
-64.3056210335449
20
7.01338878263797
30
0.000000000000000
11
-64.2056210335448
21
7.00775568242350
31
0.000000000000000
  0
LINE
  5
F103E5
330
F103E6
100
AcDbEntity
8
Geo
100
AcDbLine
10
-64.2056210335448
20
7.00775568242350
30
0.000000000000000
11
-64.1056210335448
21
7.00257045038829
31
0.000000000000000
  0
LINE
  5
F103E7
330
F103E8
100
AcDbEntity
8
Geo
100
AcDbLine
10
-64.1056210335448
20
7.00257045038829
30
0.000000000000000
11
-64.0056210335449
21
6.99783388939744
31
0.000000000000000
  0
LINE
  5
F103E9
330
F103EA
100
AcDbEntity
8
Geo
100
AcDbLine
10
-64.0056210335449
20
6.99783388939744
30
0.000000000000000
11
-63.9056210335449
21
6.99354673284526
31
0.000000000000000
  0
LINE
  5
F103EB
330
F103EC
100
AcDbEntity
8
Geo
100
AcDbLine
10
-63.9056210335449
20
6.99354673284526
30
0.000000000000000
11
-63.8056210335449
21
6.98970964454165
31
0.000000000000000
  0
LINE
  5
F103ED
330
F103EE
100
AcDbEntity
8
Geo
100
AcDbLine
10
-63.8056210335449
20
6.98970964454165
30
0.000000000000000
11
-63.7056210335449
21
6.98632321860937
31
0.000000000000000
  0
LINE
  5
F103EF
330
F103F0
100
AcDbEntity
8
Geo
100
AcDbLine
10
-63.7056210335449
20
6.98632321860937
30
0.000000000000000
11
-63.6056210335448
21
6.98338797939202
31
0.000000000000000
  0
LINE
  5
F103F1
330
F103F2
100
AcDbEntity
8
Geo
100
AcDbLine
10
-63.6056210335448
20
6.98338797939202
30
0.000000000000000
11
-63.5056210335449
21
6.98090438137286
31
0.000000000000000
  0
LINE
  5
F103F3
330
F103F4
100
AcDbEntity
8
Geo
100
AcDbLine
10
-63.5056210335449
20
6.98090438137286
30
0.000000000000000
11
-63.4056210335449
21
6.97887280910444
31
0.000000000000000
  0
LINE
  5
F103F5
330
F103F6
100
AcDbEntity
8
Geo
100
AcDbLine
10
-63.4056210335449
20
6.97887280910444
30
0.000000000000000
11
-63.3056210335449
21
6.97729357714907
31
0.000000000000000
  0
LINE
  5
F103F7
330
F103F8
100
AcDbEntity
8
Geo
100
AcDbLine
10
-63.3056210335449
20
6.97729357714907
30
0.000000000000000
11
-63.2056210335449
21
6.97616693003007
31
0.000000000000000
  0
LINE
  5
F103F9
330
F103FA
100
AcDbEntity
8
Geo
100
AcDbLine
10
-63.2056210335449
20
6.97616693003007
30
0.000000000000000
11
-63.1056210335449
21
6.97549304219397
31
0.000000000000000
  0
LINE
  5
F103FB
330
F103FC
100
AcDbEntity
8
Geo
100
AcDbLine
10
-63.1056210335449
20
6.97549304219397
30
0.000000000000000
11
-63.0068188574252
21
6.97527198549416
31
0.000000000000000
  0
LINE
  5
F103FD
330
F103FE
100
AcDbEntity
8
Geo
100
AcDbLine
10
-62.1056210335449
20
10.4871675279121
30
0.000000000000000
11
-62.0056210335449
21
10.4514661801380
31
0.000000000000000
  0
LINE
  5
F103FF
330
F10400
100
AcDbEntity
8
Geo
100
AcDbLine
10
-62.0056210335449
20
10.4514661801380
30
0.000000000000000
11
-61.9056210335449
21
10.4156794871784
31
0.000000000000000
  0
LINE
  5
F10401
330
F10402
100
AcDbEntity
8
Geo
100
AcDbLine
10
-61.9056210335449
20
10.4156794871784
30
0.000000000000000
11
-61.8056210335449
21
10.3798129901329
31
0.000000000000000
  0
LINE
  5
F10403
330
F10404
100
AcDbEntity
8
Geo
100
AcDbLine
10
-61.8056210335449
20
10.3798129901329
30
0.000000000000000
11
-61.7056210335449
21
10.3438722424580
31
0.000000000000000
  0
LINE
  5
F10405
330
F10406
100
AcDbEntity
8
Geo
100
AcDbLine
10
-61.7056210335449
20
10.3438722424580
30
0.000000000000000
11
-61.6056210335449
21
10.3078628091077
31
0.000000000000000
  0
LINE
  5
F10407
330
F10408
100
AcDbEntity
8
Geo
100
AcDbLine
10
-61.6056210335449
20
10.3078628091077
30
0.000000000000000
11
-61.5056210335449
21
10.2717902656787
31
0.000000000000000
  0
LINE
  5
F10409
330
F1040A
100
AcDbEntity
8
Geo
100
AcDbLine
10
-61.5056210335449
20
10.2717902656787
30
0.000000000000000
11
-61.4056210335449
21
10.2356601975778
31
0.000000000000000
  0
LINE
  5
F1040B
330
F1040C
100
AcDbEntity
8
Geo
100
AcDbLine
10
-61.4056210335449
20
10.2356601975778
30
0.000000000000000
11
-61.3056210335449
21
10.1994781992676
31
0.000000000000000
  0
LINE
  5
F1040D
330
F1040E
100
AcDbEntity
8
Geo
100
AcDbLine
10
-61.3056210335449
20
10.1994781992676
30
0.000000000000000
11
-61.2056210335449
21
10.1632498737324
31
0.000000000000000
  0
LINE
  5
F1040F
330
F10410
100
AcDbEntity
8
Geo
100
AcDbLine
10
-61.2056210335449
20
10.1632498737324
30
0.000000000000000
11
-61.1056210335449
21
10.1269808324759
31
0.000000000000000
  0
LINE
  5
F10411
330
F10412
100
AcDbEntity
8
Geo
100
AcDbLine
10
-61.1056210335449
20
10.1269808324759
30
0.000000000000000
11
-61.0056210335449
21
10.0906766966636
31
0.000000000000000
  0
LINE
  5
F10413
330
F10414
100
AcDbEntity
8
Geo
100
AcDbLine
10
-61.0056210335449
20
10.0906766966636
30
0.000000000000000
11
-60.9056210335449
21
10.0543431005402
31
0.000000000000000
  0
LINE
  5
F10415
330
F10416
100
AcDbEntity
8
Geo
100
AcDbLine
10
-60.9056210335449
20
10.0543431005402
30
0.000000000000000
11
-60.8056210335449
21
10.0179856990523
31
0.000000000000000
  0
LINE
  5
F10417
330
F10418
100
AcDbEntity
8
Geo
100
AcDbLine
10
-60.8056210335449
20
10.0179856990523
30
0.000000000000000
11
-60.7056210335449
21
9.98161018282518
31
0.000000000000000
  0
LINE
  5
F10419
330
F1041A
100
AcDbEntity
8
Geo
100
AcDbLine
10
-60.7056210335449
20
9.98161018282518
30
0.000000000000000
11
-60.6056210335449
21
9.94522230540384
31
0.000000000000000
  0
LINE
  5
F1041B
330
F1041C
100
AcDbEntity
8
Geo
100
AcDbLine
10
-60.6056210335449
20
9.94522230540384
30
0.000000000000000
11
-60.5056210335449
21
9.90882793013691
31
0.000000000000000
  0
LINE
  5
F1041D
330
F1041E
100
AcDbEntity
8
Geo
100
AcDbLine
10
-60.5056210335449
20
9.90882793013691
30
0.000000000000000
11
-60.4056210335449
21
9.87243310745350
31
0.000000000000000
  0
LINE
  5
F1041F
330
F10420
100
AcDbEntity
8
Geo
100
AcDbLine
10
-60.4056210335449
20
9.87243310745350
30
0.000000000000000
11
-60.3056210335449
21
9.83604419777381
31
0.000000000000000
  0
LINE
  5
F10421
330
F10422
100
AcDbEntity
8
Geo
100
AcDbLine
10
-60.3056210335449
20
9.83604419777381
30
0.000000000000000
11
-60.2056210335449
21
9.79966806115338
31
0.000000000000000
  0
LINE
  5
F10423
330
F10424
100
AcDbEntity
8
Geo
100
AcDbLine
10
-60.2056210335449
20
9.79966806115338
30
0.000000000000000
11
-60.1056210335449
21
9.76331234226736
31
0.000000000000000
  0
LINE
  5
F10425
330
F10426
100
AcDbEntity
8
Geo
100
AcDbLine
10
-60.1056210335449
20
9.76331234226736
30
0.000000000000000
11
-60.0056210335449
21
9.72698588880230
31
0.000000000000000
  0
LINE
  5
F10427
330
F10428
100
AcDbEntity
8
Geo
100
AcDbLine
10
-60.0056210335449
20
9.72698588880230
30
0.000000000000000
11
-59.9056210335449
21
9.69069935307646
31
0.000000000000000
  0
LINE
  5
F10429
330
F1042A
100
AcDbEntity
8
Geo
100
AcDbLine
10
-59.9056210335449
20
9.69069935307646
30
0.000000000000000
11
-59.8056210335449
21
9.65446604112033
31
0.000000000000000
  0
LINE
  5
F1042B
330
F1042C
100
AcDbEntity
8
Geo
100
AcDbLine
10
-59.8056210335449
20
9.65446604112033
30
0.000000000000000
11
-59.7056210335449
21
9.61830309091418
31
0.000000000000000
  0
LINE
  5
F1042D
330
F1042E
100
AcDbEntity
8
Geo
100
AcDbLine
10
-59.7056210335449
20
9.61830309091418
30
0.000000000000000
11
-59.6056210335449
21
9.58223308242693
31
0.000000000000000
  0
LINE
  5
F1042F
330
F10430
100
AcDbEntity
8
Geo
100
AcDbLine
10
-59.6056210335449
20
9.58223308242693
30
0.000000000000000
11
-59.5056210335449
21
9.54628620699968
31
0.000000000000000
  0
LINE
  5
F10431
330
F10432
100
AcDbEntity
8
Geo
100
AcDbLine
10
-59.5056210335449
20
9.54628620699968
30
0.000000000000000
11
-59.4056210335449
21
9.51050315299300
31
0.000000000000000
  0
LINE
  5
F10433
330
F10434
100
AcDbEntity
8
Geo
100
AcDbLine
10
-59.4056210335449
20
9.51050315299300
30
0.000000000000000
11
-59.3056210335449
21
9.47493889908397
31
0.000000000000000
  0
LINE
  5
F10435
330
F10436
100
AcDbEntity
8
Geo
100
AcDbLine
10
-59.3056210335449
20
9.47493889908397
30
0.000000000000000
11
-59.2056210335449
21
9.43966764691918
31
0.000000000000000
  0
LINE
  5
F10437
330
F10438
100
AcDbEntity
8
Geo
100
AcDbLine
10
-59.2056210335449
20
9.43966764691918
30
0.000000000000000
11
-59.1056210335449
21
9.40478917202271
31
0.000000000000000
  0
LINE
  5
F10439
330
F1043A
100
AcDbEntity
8
Geo
100
AcDbLine
10
-59.1056210335449
20
9.40478917202271
30
0.000000000000000
11
-59.0056210335449
21
9.37043692738016
31
0.000000000000000
  0
LINE
  5
F1043B
330
F1043C
100
AcDbEntity
8
Geo
100
AcDbLine
10
-59.0056210335449
20
9.37043692738016
30
0.000000000000000
11
-58.9056210335449
21
9.33678830016489
31
0.000000000000000
  0
LINE
  5
F1043D
330
F1043E
100
AcDbEntity
8
Geo
100
AcDbLine
10
-58.9056210335449
20
9.33678830016489
30
0.000000000000000
11
-58.8056210335449
21
9.30407750204523
31
0.000000000000000
  0
LINE
  5
F1043F
330
F10440
100
AcDbEntity
8
Geo
100
AcDbLine
10
-58.8056210335449
20
9.30407750204523
30
0.000000000000000
11
-58.7056210335449
21
9.27261167273812
31
0.000000000000000
  0
LINE
  5
F10441
330
F10442
100
AcDbEntity
8
Geo
100
AcDbLine
10
-58.7056210335449
20
9.27261167273812
30
0.000000000000000
11
-58.6056210335449
21
9.24279090322529
31
0.000000000000000
  0
LINE
  5
F10443
330
F10444
100
AcDbEntity
8
Geo
100
AcDbLine
10
-58.6056210335449
20
9.24279090322529
30
0.000000000000000
11
-58.5056210335449
21
9.21513305188166
31
0.000000000000000
  0
LINE
  5
F10445
330
F10446
100
AcDbEntity
8
Geo
100
AcDbLine
10
-58.5056210335449
20
9.21513305188166
30
0.000000000000000
11
-58.4056210335449
21
9.19030445208531
31
0.000000000000000
  0
LINE
  5
F10447
330
F10448
100
AcDbEntity
8
Geo
100
AcDbLine
10
-58.4056210335449
20
9.19030445208531
30
0.000000000000000
11
-58.3056210335449
21
9.16915791921572
31
0.000000000000000
  0
LINE
  5
F10449
330
F1044A
100
AcDbEntity
8
Geo
100
AcDbLine
10
-58.3056210335449
20
9.16915791921572
30
0.000000000000000
11
-58.2056210335449
21
9.15277989072882
31
0.000000000000000
  0
LINE
  5
F1044B
330
F1044C
100
AcDbEntity
8
Geo
100
AcDbLine
10
-58.2056210335449
20
9.15277989072882
30
0.000000000000000
11
-58.1056210335449
21
9.14254910988137
31
0.000000000000000
  0
LINE
  5
F1044D
330
F1044E
100
AcDbEntity
8
Geo
100
AcDbLine
10
-58.1056210335449
20
9.14254910988137
30
0.000000000000000
11
-58.0056210335449
21
9.14021001329696
31
0.000000000000000
  0
LINE
  5
F1044F
330
F10450
100
AcDbEntity
8
Geo
100
AcDbLine
10
-58.0056210335449
20
9.14021001329696
30
0.000000000000000
11
-57.9056210335449
21
9.14796487506870
31
0.000000000000000
  0
LINE
  5
F10451
330
F10452
100
AcDbEntity
8
Geo
100
AcDbLine
10
-57.9056210335449
20
9.14796487506870
30
0.000000000000000
11
-57.8056210335449
21
9.16858962767428
31
0.000000000000000
  0
LINE
  5
F10453
330
F10454
100
AcDbEntity
8
Geo
100
AcDbLine
10
-57.8056210335449
20
9.16858962767428
30
0.000000000000000
11
-57.7056210335449
21
9.20557863475070
31
0.000000000000000
  0
LINE
  5
F10455
330
F10456
100
AcDbEntity
8
Geo
100
AcDbLine
10
-57.7056210335449
20
9.20557863475070
30
0.000000000000000
11
-57.6056210335449
21
9.26332235785268
31
0.000000000000000
  0
LINE
  5
F10457
330
F10458
100
AcDbEntity
8
Geo
100
AcDbLine
10
-57.6056210335449
20
9.26332235785268
30
0.000000000000000
11
-57.5056210335449
21
9.34731626380620
31
0.000000000000000
  0
LINE
  5
F10459
330
F1045A
100
AcDbEntity
8
Geo
100
AcDbLine
10
-57.5056210335449
20
9.34731626380620
30
0.000000000000000
11
-57.4056210335449
21
9.46438415003276
31
0.000000000000000
  0
LINE
  5
F1045B
330
F1045C
100
AcDbEntity
8
Geo
100
AcDbLine
10
-57.4056210335449
20
9.46438415003276
30
0.000000000000000
11
-57.3056210335449
21
9.62286388403133
31
0.000000000000000
  0
LINE
  5
F1045D
330
F1045E
100
AcDbEntity
8
Geo
100
AcDbLine
10
-57.3056210335449
20
9.62286388403133
30
0.000000000000000
11
-57.2056210335449
21
9.83262881966461
31
0.000000000000000
  0
LINE
  5
F1045F
330
F10460
100
AcDbEntity
8
Geo
100
AcDbLine
10
-57.2056210335449
20
9.83262881966461
30
0.000000000000000
11
-57.1056210335448
21
10.1046695039302
31
0.000000000000000
  0
LINE
  5
F10461
330
F10462
100
AcDbEntity
8
Geo
100
AcDbLine
10
-57.1056210335448
20
10.1046695039302
30
0.000000000000000
11
-57.1056210335448
21
10.0573632652654
31
0.000000000000000
  0
LINE
  5
F10463
330
F10464
100
AcDbEntity
8
Geo
100
AcDbLine
10
-57.1056210335448
20
10.0573632652654
30
0.000000000000000
11
-57.1056210335448
21
10.0251388799452
31
0.000000000000000
  0
LINE
  5
F10465
330
F10466
100
AcDbEntity
8
Geo
100
AcDbLine
10
-57.1056210335448
20
10.0251388799452
30
0.000000000000000
11
-57.1056210335448
21
10.1779307935178
31
0.000000000000000
  0
LINE
  5
F10467
330
F10468
100
AcDbEntity
8
Geo
100
AcDbLine
10
-57.1056210335448
20
10.1779307935178
30
0.000000000000000
11
-57.2056210335449
21
10.4588612178654
31
0.000000000000000
  0
LINE
  5
F10469
330
F1046A
100
AcDbEntity
8
Geo
100
AcDbLine
10
-57.2056210335449
20
10.4588612178654
30
0.000000000000000
11
-57.3056210335449
21
10.7114873152778
31
0.000000000000000
  0
LINE
  5
F1046B
330
F1046C
100
AcDbEntity
8
Geo
100
AcDbLine
10
-57.3056210335449
20
10.7114873152778
30
0.000000000000000
11
-57.4056210335449
21
10.9370632993820
31
0.000000000000000
  0
LINE
  5
F1046D
330
F1046E
100
AcDbEntity
8
Geo
100
AcDbLine
10
-57.4056210335449
20
10.9370632993820
30
0.000000000000000
11
-57.5056210335449
21
11.1373986415550
31
0.000000000000000
  0
LINE
  5
F1046F
330
F10470
100
AcDbEntity
8
Geo
100
AcDbLine
10
-57.5056210335449
20
11.1373986415550
30
0.000000000000000
11
-57.6056210335449
21
11.3145983277131
31
0.000000000000000
  0
LINE
  5
F10471
330
F10472
100
AcDbEntity
8
Geo
100
AcDbLine
10
-57.6056210335449
20
11.3145983277131
30
0.000000000000000
11
-57.7056210335449
21
11.4708792752980
31
0.000000000000000
  0
LINE
  5
F10473
330
F10474
100
AcDbEntity
8
Geo
100
AcDbLine
10
-57.7056210335449
20
11.4708792752980
30
0.000000000000000
11
-57.8056210335449
21
11.6084456501450
31
0.000000000000000
  0
LINE
  5
F10475
330
F10476
100
AcDbEntity
8
Geo
100
AcDbLine
10
-57.8056210335449
20
11.6084456501450
30
0.000000000000000
11
-57.9056210335449
21
11.7294084236686
31
0.000000000000000
  0
LINE
  5
F10477
330
F10478
100
AcDbEntity
8
Geo
100
AcDbLine
10
-57.9056210335449
20
11.7294084236686
30
0.000000000000000
11
-58.0056210335449
21
11.8357372597526
31
0.000000000000000
  0
LINE
  5
F10479
330
F1047A
100
AcDbEntity
8
Geo
100
AcDbLine
10
-58.0056210335449
20
11.8357372597526
30
0.000000000000000
11
-58.1056210335449
21
11.9292353747119
31
0.000000000000000
  0
LINE
  5
F1047B
330
F1047C
100
AcDbEntity
8
Geo
100
AcDbLine
10
-58.1056210335449
20
11.9292353747119
30
0.000000000000000
11
-58.2056210335449
21
12.0115302200074
31
0.000000000000000
  0
LINE
  5
F1047D
330
F1047E
100
AcDbEntity
8
Geo
100
AcDbLine
10
-58.2056210335449
20
12.0115302200074
30
0.000000000000000
11
-58.3056210335449
21
12.0840746543403
31
0.000000000000000
  0
LINE
  5
F1047F
330
F10480
100
AcDbEntity
8
Geo
100
AcDbLine
10
-58.3056210335449
20
12.0840746543403
30
0.000000000000000
11
-58.4056210335449
21
12.1481547170155
31
0.000000000000000
  0
LINE
  5
F10481
330
F10482
100
AcDbEntity
8
Geo
100
AcDbLine
10
-58.4056210335449
20
12.1481547170155
30
0.000000000000000
11
-58.5056210335449
21
12.2049012333392
31
0.000000000000000
  0
LINE
  5
F10483
330
F10484
100
AcDbEntity
8
Geo
100
AcDbLine
10
-58.5056210335449
20
12.2049012333392
30
0.000000000000000
11
-58.6056210335449
21
12.2553033296431
31
0.000000000000000
  0
LINE
  5
F10485
330
F10486
100
AcDbEntity
8
Geo
100
AcDbLine
10
-58.6056210335449
20
12.2553033296431
30
0.000000000000000
11
-58.7056210335449
21
12.3002225636827
31
0.000000000000000
  0
LINE
  5
F10487
330
F10488
100
AcDbEntity
8
Geo
100
AcDbLine
10
-58.7056210335449
20
12.3002225636827
30
0.000000000000000
11
-58.8056210335449
21
12.3404068332806
31
0.000000000000000
  0
LINE
  5
F10489
330
F1048A
100
AcDbEntity
8
Geo
100
AcDbLine
10
-58.8056210335449
20
12.3404068332806
30
0.000000000000000
11
-58.9056210335449
21
12.3765035523046
31
0.000000000000000
  0
LINE
  5
F1048B
330
F1048C
100
AcDbEntity
8
Geo
100
AcDbLine
10
-58.9056210335449
20
12.3765035523046
30
0.000000000000000
11
-59.0056210335449
21
12.4090718109288
31
0.000000000000000
  0
LINE
  5
F1048D
330
F1048E
100
AcDbEntity
8
Geo
100
AcDbLine
10
-59.0056210335449
20
12.4090718109288
30
0.000000000000000
11
-59.1056210335449
21
12.4385933922834
31
0.000000000000000
  0
LINE
  5
F1048F
330
F10490
100
AcDbEntity
8
Geo
100
AcDbLine
10
-59.1056210335449
20
12.4385933922834
30
0.000000000000000
11
-59.2056210335449
21
12.4654826198641
31
0.000000000000000
  0
LINE
  5
F10491
330
F10492
100
AcDbEntity
8
Geo
100
AcDbLine
10
-59.2056210335449
20
12.4654826198641
30
0.000000000000000
11
-59.3056210335449
21
12.4900950744632
31
0.000000000000000
  0
LINE
  5
F10493
330
F10494
100
AcDbEntity
8
Geo
100
AcDbLine
10
-59.3056210335449
20
12.4900950744632
30
0.000000000000000
11
-59.4056210335449
21
12.5127352571419
31
0.000000000000000
  0
LINE
  5
F10495
330
F10496
100
AcDbEntity
8
Geo
100
AcDbLine
10
-59.4056210335449
20
12.5127352571419
30
0.000000000000000
11
-59.5056210335449
21
12.5336632941700
31
0.000000000000000
  0
LINE
  5
F10497
330
F10498
100
AcDbEntity
8
Geo
100
AcDbLine
10
-59.5056210335449
20
12.5336632941700
30
0.000000000000000
11
-59.6056210335449
21
12.5531007869530
31
0.000000000000000
  0
LINE
  5
F10499
330
F1049A
100
AcDbEntity
8
Geo
100
AcDbLine
10
-59.6056210335449
20
12.5531007869530
30
0.000000000000000
11
-59.7056210335449
21
12.5712359090977
31
0.000000000000000
  0
LINE
  5
F1049B
330
F1049C
100
AcDbEntity
8
Geo
100
AcDbLine
10
-59.7056210335449
20
12.5712359090977
30
0.000000000000000
11
-59.8056210335449
21
12.5882278470084
31
0.000000000000000
  0
LINE
  5
F1049D
330
F1049E
100
AcDbEntity
8
Geo
100
AcDbLine
10
-59.8056210335449
20
12.5882278470084
30
0.000000000000000
11
-59.9056210335449
21
12.6042106719244
31
0.000000000000000
  0
LINE
  5
F1049F
330
F104A0
100
AcDbEntity
8
Geo
100
AcDbLine
10
-59.9056210335449
20
12.6042106719244
30
0.000000000000000
11
-60.0056210335449
21
12.6192967215620
31
0.000000000000000
  0
LINE
  5
F104A1
330
F104A2
100
AcDbEntity
8
Geo
100
AcDbLine
10
-60.0056210335449
20
12.6192967215620
30
0.000000000000000
11
-60.1056210335449
21
12.6335795595067
31
0.000000000000000
  0
LINE
  5
F104A3
330
F104A4
100
AcDbEntity
8
Geo
100
AcDbLine
10
-60.1056210335449
20
12.6335795595067
30
0.000000000000000
11
-60.2056210335449
21
12.6471365708333
31
0.000000000000000
  0
LINE
  5
F104A5
330
F104A6
100
AcDbEntity
8
Geo
100
AcDbLine
10
-60.2056210335449
20
12.6471365708333
30
0.000000000000000
11
-60.3056210335449
21
12.6600312434991
31
0.000000000000000
  0
LINE
  5
F104A7
330
F104A8
100
AcDbEntity
8
Geo
100
AcDbLine
10
-60.3056210335449
20
12.6600312434991
30
0.000000000000000
11
-60.4056210335449
21
12.6723151770612
31
0.000000000000000
  0
LINE
  5
F104A9
330
F104AA
100
AcDbEntity
8
Geo
100
AcDbLine
10
-60.4056210335449
20
12.6723151770612
30
0.000000000000000
11
-60.5056210335449
21
12.6840298533006
31
0.000000000000000
  0
LINE
  5
F104AB
330
F104AC
100
AcDbEntity
8
Geo
100
AcDbLine
10
-60.5056210335449
20
12.6840298533006
30
0.000000000000000
11
-60.6056210335449
21
12.6952081973969
31
0.000000000000000
  0
LINE
  5
F104AD
330
F104AE
100
AcDbEntity
8
Geo
100
AcDbLine
10
-60.6056210335449
20
12.6952081973969
30
0.000000000000000
11
-60.7056210335449
21
12.7058759533472
31
0.000000000000000
  0
LINE
  5
F104AF
330
F104B0
100
AcDbEntity
8
Geo
100
AcDbLine
10
-60.7056210335449
20
12.7058759533472
30
0.000000000000000
11
-60.8056210335449
21
12.7160528932777
31
0.000000000000000
  0
LINE
  5
F104B1
330
F104B2
100
AcDbEntity
8
Geo
100
AcDbLine
10
-60.8056210335449
20
12.7160528932777
30
0.000000000000000
11
-60.9056210335449
21
12.7257538770625
31
0.000000000000000
  0
LINE
  5
F104B3
330
F104B4
100
AcDbEntity
8
Geo
100
AcDbLine
10
-60.9056210335449
20
12.7257538770625
30
0.000000000000000
11
-61.0056210335449
21
12.7349897761449
31
0.000000000000000
  0
LINE
  5
F104B5
330
F104B6
100
AcDbEntity
8
Geo
100
AcDbLine
10
-61.0056210335449
20
12.7349897761449
30
0.000000000000000
11
-61.1056210335449
21
12.7437682735365
31
0.000000000000000
  0
LINE
  5
F104B7
330
F104B8
100
AcDbEntity
8
Geo
100
AcDbLine
10
-61.1056210335449
20
12.7437682735365
30
0.000000000000000
11
-61.2056210335449
21
12.7520945505625
31
0.000000000000000
  0
LINE
  5
F104B9
330
F104BA
100
AcDbEntity
8
Geo
100
AcDbLine
10
-61.2056210335449
20
12.7520945505625
30
0.000000000000000
11
-61.3056210335449
21
12.7599718699177
31
0.000000000000000
  0
LINE
  5
F104BB
330
F104BC
100
AcDbEntity
8
Geo
100
AcDbLine
10
-61.3056210335449
20
12.7599718699177
30
0.000000000000000
11
-61.4056210335449
21
12.7674020639354
31
0.000000000000000
  0
LINE
  5
F104BD
330
F104BE
100
AcDbEntity
8
Geo
100
AcDbLine
10
-61.4056210335449
20
12.7674020639354
30
0.000000000000000
11
-61.5056210335449
21
12.7743859365479
31
0.000000000000000
  0
LINE
  5
F104BF
330
F104C0
100
AcDbEntity
8
Geo
100
AcDbLine
10
-61.5056210335449
20
12.7743859365479
30
0.000000000000000
11
-61.6056210335449
21
12.7809235871964
31
0.000000000000000
  0
LINE
  5
F104C1
330
F104C2
100
AcDbEntity
8
Geo
100
AcDbLine
10
-61.6056210335449
20
12.7809235871964
30
0.000000000000000
11
-61.7056210335449
21
12.7870146648504
31
0.000000000000000
  0
LINE
  5
F104C3
330
F104C4
100
AcDbEntity
8
Geo
100
AcDbLine
10
-61.7056210335449
20
12.7870146648504
30
0.000000000000000
11
-61.8056210335449
21
12.7926585602993
31
0.000000000000000
  0
LINE
  5
F104C5
330
F104C6
100
AcDbEntity
8
Geo
100
AcDbLine
10
-61.8056210335449
20
12.7926585602993
30
0.000000000000000
11
-61.9056210335449
21
12.7978545449286
31
0.000000000000000
  0
LINE
  5
F104C7
330
F104C8
100
AcDbEntity
8
Geo
100
AcDbLine
10
-61.9056210335449
20
12.7978545449286
30
0.000000000000000
11
-62.0056210335449
21
12.8026018642774
31
0.000000000000000
  0
LINE
  5
F104C9
330
F104CA
100
AcDbEntity
8
Geo
100
AcDbLine
10
-62.0056210335449
20
12.8026018642774
30
0.000000000000000
11
-62.1056210335449
21
12.8068997947648
31
0.000000000000000
  0
LINE
  5
F104CB
330
F104CC
100
AcDbEntity
8
Geo
100
AcDbLine
10
-62.1056210335449
20
7.03475656548854
30
0.000000000000000
11
-62.0056210335449
21
7.02767560594639
31
0.000000000000000
  0
LINE
  5
F104CD
330
F104CE
100
AcDbEntity
8
Geo
100
AcDbLine
10
-62.0056210335449
20
7.02767560594639
30
0.000000000000000
11
-61.9056210335449
21
7.02103943024482
31
0.000000000000000
  0
LINE
  5
F104CF
330
F104D0
100
AcDbEntity
8
Geo
100
AcDbLine
10
-61.9056210335449
20
7.02103943024482
30
0.000000000000000
11
-61.8056210335449
21
7.01484906590853
31
0.000000000000000
  0
LINE
  5
F104D1
330
F104D2
100
AcDbEntity
8
Geo
100
AcDbLine
10
-61.8056210335449
20
7.01484906590853
30
0.000000000000000
11
-61.7056210335449
21
7.00910547143420
31
0.000000000000000
  0
LINE
  5
F104D3
330
F104D4
100
AcDbEntity
8
Geo
100
AcDbLine
10
-61.7056210335449
20
7.00910547143420
30
0.000000000000000
11
-61.6056210335449
21
7.00380953614218
31
0.000000000000000
  0
LINE
  5
F104D5
330
F104D6
100
AcDbEntity
8
Geo
100
AcDbLine
10
-61.6056210335449
20
7.00380953614218
30
0.000000000000000
11
-61.5056210335449
21
6.99896208003960
31
0.000000000000000
  0
LINE
  5
F104D7
330
F104D8
100
AcDbEntity
8
Geo
100
AcDbLine
10
-61.5056210335449
20
6.99896208003960
30
0.000000000000000
11
-61.4056210335449
21
6.99456385369645
31
0.000000000000000
  0
LINE
  5
F104D9
330
F104DA
100
AcDbEntity
8
Geo
100
AcDbLine
10
-61.4056210335449
20
6.99456385369645
30
0.000000000000000
11
-61.3056210335449
21
6.99061553813832
31
0.000000000000000
  0
LINE
  5
F104DB
330
F104DC
100
AcDbEntity
8
Geo
100
AcDbLine
10
-61.3056210335449
20
6.99061553813832
30
0.000000000000000
11
-61.2056210335449
21
6.98711774476166
31
0.000000000000000
  0
LINE
  5
F104DD
330
F104DE
100
AcDbEntity
8
Geo
100
AcDbLine
10
-61.2056210335449
20
6.98711774476166
30
0.000000000000000
11
-61.1056210335449
21
6.98407101527619
31
0.000000000000000
  0
LINE
  5
F104DF
330
F104E0
100
AcDbEntity
8
Geo
100
AcDbLine
10
-61.1056210335449
20
6.98407101527619
30
0.000000000000000
11
-61.0056210335449
21
6.98147582166831
31
0.000000000000000
  0
LINE
  5
F104E1
330
F104E2
100
AcDbEntity
8
Geo
100
AcDbLine
10
-61.0056210335449
20
6.98147582166831
30
0.000000000000000
11
-60.9056210335449
21
6.97933256614489
31
0.000000000000000
  0
LINE
  5
F104E3
330
F104E4
100
AcDbEntity
8
Geo
100
AcDbLine
10
-60.9056210335449
20
6.97933256614489
30
0.000000000000000
11
-60.8056210335449
21
6.97764158093727
31
0.000000000000000
  0
LINE
  5
F104E5
330
F104E6
100
AcDbEntity
8
Geo
100
AcDbLine
10
-60.8056210335449
20
6.97764158093727
30
0.000000000000000
11
-60.7056210335449
21
6.97640312768693
31
0.000000000000000
  0
LINE
  5
F104E7
330
F104E8
100
AcDbEntity
8
Geo
100
AcDbLine
10
-60.7056210335449
20
6.97640312768693
30
0.000000000000000
11
-60.6056210335449
21
6.97561739584771
31
0.000000000000000
  0
LINE
  5
F104E9
330
F104EA
100
AcDbEntity
8
Geo
100
AcDbLine
10
-60.6056210335449
20
6.97561739584771
30
0.000000000000000
11
-60.5056210335449
21
6.97528449905746
31
0.000000000000000
  0
LINE
  5
F104EB
330
F104EC
100
AcDbEntity
8
Geo
100
AcDbLine
10
-60.5056210335449
20
6.97528449905746
30
0.000000000000000
11
-60.4821123473859
21
6.97527198549416
31
0.000000000000000
  0
LINE
  5
F104ED
330
F104EE
100
AcDbEntity
8
Geo
100
AcDbLine
10
-57.1807559417619
20
6.97527198549416
30
0.000000000000000
11
-57.1056210335448
21
6.98242232273612
31
0.000000000000000
  0
LINE
  5
F104EF
330
F104F0
100
AcDbEntity
8
Geo
100
AcDbLine
10
-57.1056210335448
20
6.98242232273612
30
0.000000000000000
11
-57.1056210335448
21
7.20484579844695
31
0.000000000000000
  0
LINE
  5
F104F1
330
F104F2
100
AcDbEntity
8
Geo
100
AcDbLine
10
-57.1056210335448
20
7.20484579844695
30
0.000000000000000
11
-57.1056210335448
21
7.20316089051305
31
0.000000000000000
  0
LINE
  5
F104F3
330
F104F4
100
AcDbEntity
8
Geo
100
AcDbLine
10
-57.1056210335448
20
7.20316089051305
30
0.000000000000000
11
-57.1056210335448
21
6.98848034007601
31
0.000000000000000
  0
LINE
  5
F104F5
330
F104F6
100
AcDbEntity
8
Geo
100
AcDbLine
10
-57.1056210335448
20
6.98848034007601
30
0.000000000000000
11
-57.2056210335449
21
7.02910444083939
31
0.000000000000000
  0
LINE
  5
F104F7
330
F104F8
100
AcDbEntity
8
Geo
100
AcDbLine
10
-57.2056210335449
20
7.02910444083939
30
0.000000000000000
11
-57.3056210335449
21
7.09001315600460
31
0.000000000000000
  0
LINE
  5
F104F9
330
F104FA
100
AcDbEntity
8
Geo
100
AcDbLine
10
-57.3056210335449
20
7.09001315600460
30
0.000000000000000
11
-57.4056210335449
21
7.16518720226592
31
0.000000000000000
  0
LINE
  5
F104FB
330
F104FC
100
AcDbEntity
8
Geo
100
AcDbLine
10
-57.4056210335449
20
7.16518720226592
30
0.000000000000000
11
-57.5056210335449
21
7.24977342166438
31
0.000000000000000
  0
LINE
  5
F104FD
330
F104FE
100
AcDbEntity
8
Geo
100
AcDbLine
10
-57.5056210335449
20
7.24977342166438
30
0.000000000000000
11
-57.6056210335449
21
7.33993880449884
31
0.000000000000000
  0
LINE
  5
F104FF
330
F10500
100
AcDbEntity
8
Geo
100
AcDbLine
10
-57.6056210335449
20
7.33993880449884
30
0.000000000000000
11
-57.7056210335449
21
7.43271899898811
31
0.000000000000000
  0
LINE
  5
F10501
330
F10502
100
AcDbEntity
8
Geo
100
AcDbLine
10
-57.7056210335449
20
7.43271899898811
30
0.000000000000000
11
-57.8056210335449
21
7.52587359192302
31
0.000000000000000
  0
LINE
  5
F10503
330
F10504
100
AcDbEntity
8
Geo
100
AcDbLine
10
-57.8056210335449
20
7.52587359192302
30
0.000000000000000
11
-57.9056210335449
21
7.61775475871521
31
0.000000000000000
  0
LINE
  5
F10505
330
F10506
100
AcDbEntity
8
Geo
100
AcDbLine
10
-57.9056210335449
20
7.61775475871521
30
0.000000000000000
11
-58.0056210335449
21
7.70719214833824
31
0.000000000000000
  0
LINE
  5
F10507
330
F10508
100
AcDbEntity
8
Geo
100
AcDbLine
10
-58.0056210335449
20
7.70719214833824
30
0.000000000000000
11
-58.1056210335449
21
7.79339454121454
31
0.000000000000000
  0
LINE
  5
F10509
330
F1050A
100
AcDbEntity
8
Geo
100
AcDbLine
10
-58.1056210335449
20
7.79339454121454
30
0.000000000000000
11
-58.2056210335449
21
7.87586746386315
31
0.000000000000000
  0
LINE
  5
F1050B
330
F1050C
100
AcDbEntity
8
Geo
100
AcDbLine
10
-58.2056210335449
20
7.87586746386315
30
0.000000000000000
11
-58.3056210335449
21
7.95434523878956
31
0.000000000000000
  0
LINE
  5
F1050D
330
F1050E
100
AcDbEntity
8
Geo
100
AcDbLine
10
-58.3056210335449
20
7.95434523878956
30
0.000000000000000
11
-58.4056210335449
21
8.02873565794711
31
0.000000000000000
  0
LINE
  5
F1050F
330
F10510
100
AcDbEntity
8
Geo
100
AcDbLine
10
-58.4056210335449
20
8.02873565794711
30
0.000000000000000
11
-58.5056210335449
21
8.09907543042933
31
0.000000000000000
  0
LINE
  5
F10511
330
F10512
100
AcDbEntity
8
Geo
100
AcDbLine
10
-58.5056210335449
20
8.09907543042933
30
0.000000000000000
11
-58.6056210335449
21
8.16549466028031
31
0.000000000000000
  0
LINE
  5
F10513
330
F10514
100
AcDbEntity
8
Geo
100
AcDbLine
10
-58.6056210335449
20
8.16549466028031
30
0.000000000000000
11
-58.7056210335449
21
8.22818878712975
31
0.000000000000000
  0
LINE
  5
F10515
330
F10516
100
AcDbEntity
8
Geo
100
AcDbLine
10
-58.7056210335449
20
8.22818878712975
30
0.000000000000000
11
-58.8056210335449
21
8.28739662620000
31
0.000000000000000
  0
LINE
  5
F10517
330
F10518
100
AcDbEntity
8
Geo
100
AcDbLine
10
-58.8056210335449
20
8.28739662620000
30
0.000000000000000
11
-58.9056210335449
21
8.34338334865100
31
0.000000000000000
  0
LINE
  5
F10519
330
F1051A
100
AcDbEntity
8
Geo
100
AcDbLine
10
-58.9056210335449
20
8.34338334865100
30
0.000000000000000
11
-59.0056210335449
21
8.39642743372054
31
0.000000000000000
  0
LINE
  5
F1051B
330
F1051C
100
AcDbEntity
8
Geo
100
AcDbLine
10
-59.0056210335449
20
8.39642743372054
30
0.000000000000000
11
-59.1056210335449
21
8.44681079377432
31
0.000000000000000
  0
LINE
  5
F1051D
330
F1051E
100
AcDbEntity
8
Geo
100
AcDbLine
10
-59.1056210335449
20
8.44681079377432
30
0.000000000000000
11
-59.2056210335449
21
8.49481141994444
31
0.000000000000000
  0
LINE
  5
F1051F
330
F10520
100
AcDbEntity
8
Geo
100
AcDbLine
10
-59.2056210335449
20
8.49481141994444
30
0.000000000000000
11
-59.3056210335449
21
8.54069801992894
31
0.000000000000000
  0
LINE
  5
F10521
330
F10522
100
AcDbEntity
8
Geo
100
AcDbLine
10
-59.3056210335449
20
8.54069801992894
30
0.000000000000000
11
-59.4056210335449
21
8.58472622259140
31
0.000000000000000
  0
LINE
  5
F10523
330
F10524
100
AcDbEntity
8
Geo
100
AcDbLine
10
-59.4056210335449
20
8.58472622259140
30
0.000000000000000
11
-59.5056210335449
21
8.62713600870660
31
0.000000000000000
  0
LINE
  5
F10525
330
F10526
100
AcDbEntity
8
Geo
100
AcDbLine
10
-59.5056210335449
20
8.62713600870660
30
0.000000000000000
11
-59.6056210335449
21
8.66815009617051
31
0.000000000000000
  0
LINE
  5
F10527
330
F10528
100
AcDbEntity
8
Geo
100
AcDbLine
10
-59.6056210335449
20
8.66815009617051
30
0.000000000000000
11
-59.7056210335449
21
8.70797306374326
31
0.000000000000000
  0
LINE
  5
F10529
330
F1052A
100
AcDbEntity
8
Geo
100
AcDbLine
10
-59.7056210335449
20
8.70797306374326
30
0.000000000000000
11
-59.8056210335449
21
8.74679104219640
31
0.000000000000000
  0
LINE
  5
F1052B
330
F1052C
100
AcDbEntity
8
Geo
100
AcDbLine
10
-59.8056210335449
20
8.74679104219640
30
0.000000000000000
11
-59.9056210335449
21
8.78477183756683
31
0.000000000000000
  0
LINE
  5
F1052D
330
F1052E
100
AcDbEntity
8
Geo
100
AcDbLine
10
-59.9056210335449
20
8.78477183756683
30
0.000000000000000
11
-60.0056210335449
21
8.82206537975882
31
0.000000000000000
  0
LINE
  5
F1052F
330
F10530
100
AcDbEntity
8
Geo
100
AcDbLine
10
-60.0056210335449
20
8.82206537975882
30
0.000000000000000
11
-60.1056210335449
21
8.85880441238118
31
0.000000000000000
  0
LINE
  5
F10531
330
F10532
100
AcDbEntity
8
Geo
100
AcDbLine
10
-60.1056210335449
20
8.85880441238118
30
0.000000000000000
11
-60.2056210335449
21
8.89510535761109
31
0.000000000000000
  0
LINE
  5
F10533
330
F10534
100
AcDbEntity
8
Geo
100
AcDbLine
10
-60.2056210335449
20
8.89510535761109
30
0.000000000000000
11
-60.3056210335449
21
8.93106930397898
31
0.000000000000000
  0
LINE
  5
F10535
330
F10536
100
AcDbEntity
8
Geo
100
AcDbLine
10
-60.3056210335449
20
8.93106930397898
30
0.000000000000000
11
-60.4056210335449
21
8.96678307603320
31
0.000000000000000
  0
LINE
  5
F10537
330
F10538
100
AcDbEntity
8
Geo
100
AcDbLine
10
-60.4056210335449
20
8.96678307603320
30
0.000000000000000
11
-60.5056210335449
21
9.00232035348633
31
0.000000000000000
  0
LINE
  5
F10539
330
F1053A
100
AcDbEntity
8
Geo
100
AcDbLine
10
-60.5056210335449
20
9.00232035348633
30
0.000000000000000
11
-60.6056210335449
21
9.03774281416430
31
0.000000000000000
  0
LINE
  5
F1053B
330
F1053C
100
AcDbEntity
8
Geo
100
AcDbLine
10
-60.6056210335449
20
9.03774281416430
30
0.000000000000000
11
-60.7056210335449
21
9.07310128027830
31
0.000000000000000
  0
LINE
  5
F1053D
330
F1053E
100
AcDbEntity
8
Geo
100
AcDbLine
10
-60.7056210335449
20
9.07310128027830
30
0.000000000000000
11
-60.8056210335449
21
9.10843685154165
31
0.000000000000000
  0
LINE
  5
F1053F
330
F10540
100
AcDbEntity
8
Geo
100
AcDbLine
10
-60.8056210335449
20
9.10843685154165
30
0.000000000000000
11
-60.9056210335449
21
9.14378201172113
31
0.000000000000000
  0
LINE
  5
F10541
330
F10542
100
AcDbEntity
8
Geo
100
AcDbLine
10
-60.9056210335449
20
9.14378201172113
30
0.000000000000000
11
-61.0056210335449
21
9.17916169755726
31
0.000000000000000
  0
LINE
  5
F10543
330
F10544
100
AcDbEntity
8
Geo
100
AcDbLine
10
-61.0056210335449
20
9.17916169755726
30
0.000000000000000
11
-61.1056210335449
21
9.21459432077895
31
0.000000000000000
  0
LINE
  5
F10545
330
F10546
100
AcDbEntity
8
Geo
100
AcDbLine
10
-61.1056210335449
20
9.21459432077895
30
0.000000000000000
11
-61.2056210335449
21
9.25009273531218
31
0.000000000000000
  0
LINE
  5
F10547
330
F10548
100
AcDbEntity
8
Geo
100
AcDbLine
10
-61.2056210335449
20
9.25009273531218
30
0.000000000000000
11
-61.3056210335449
21
9.28566514284761
31
0.000000000000000
  0
LINE
  5
F10549
330
F1054A
100
AcDbEntity
8
Geo
100
AcDbLine
10
-61.3056210335449
20
9.28566514284761
30
0.000000000000000
11
-61.4056210335449
21
9.32131593077354
31
0.000000000000000
  0
LINE
  5
F1054B
330
F1054C
100
AcDbEntity
8
Geo
100
AcDbLine
10
-61.4056210335449
20
9.32131593077354
30
0.000000000000000
11
-61.5056210335449
21
9.35704643716456
31
0.000000000000000
  0
LINE
  5
F1054D
330
F1054E
100
AcDbEntity
8
Geo
100
AcDbLine
10
-61.5056210335449
20
9.35704643716456
30
0.000000000000000
11
-61.6056210335449
21
9.39285563809290
31
0.000000000000000
  0
LINE
  5
F1054F
330
F10550
100
AcDbEntity
8
Geo
100
AcDbLine
10
-61.6056210335449
20
9.39285563809290
30
0.000000000000000
11
-61.7056210335449
21
9.42874075303669
31
0.000000000000000
  0
LINE
  5
F10551
330
F10552
100
AcDbEntity
8
Geo
100
AcDbLine
10
-61.7056210335449
20
9.42874075303669
30
0.000000000000000
11
-61.8056210335449
21
9.46469776462367
31
0.000000000000000
  0
LINE
  5
F10553
330
F10554
100
AcDbEntity
8
Geo
100
AcDbLine
10
-61.8056210335449
20
9.46469776462367
30
0.000000000000000
11
-61.9056210335449
21
9.50072184938919
31
0.000000000000000
  0
LINE
  5
F10555
330
F10556
100
AcDbEntity
8
Geo
100
AcDbLine
10
-61.9056210335449
20
9.50072184938919
30
0.000000000000000
11
-62.0056210335449
21
9.53680771665629
31
0.000000000000000
  0
LINE
  5
F10557
330
F10558
100
AcDbEntity
8
Geo
100
AcDbLine
10
-62.0056210335449
20
9.53680771665629
30
0.000000000000000
11
-62.1056210335449
21
9.57294985307011
31
0.000000000000000
  0
LINE
  5
F10559
330
F1055A
100
AcDbEntity
8
Geo
100
AcDbLine
10
-60.4821123473859
20
12.8252719854942
30
0.000000000000000
11
-60.4056210335449
21
12.8251395033263
31
0.000000000000000
  0
LINE
  5
F1055B
330
F1055C
100
AcDbEntity
8
Geo
100
AcDbLine
10
-60.4056210335449
20
12.8251395033263
30
0.000000000000000
11
-60.3056210335449
21
12.8245667365896
31
0.000000000000000
  0
LINE
  5
F1055D
330
F1055E
100
AcDbEntity
8
Geo
100
AcDbLine
10
-60.3056210335449
20
12.8245667365896
30
0.000000000000000
11
-60.2056210335449
21
12.8235413624773
31
0.000000000000000
  0
LINE
  5
F1055F
330
F10560
100
AcDbEntity
8
Geo
100
AcDbLine
10
-60.2056210335449
20
12.8235413624773
30
0.000000000000000
11
-60.1056210335449
21
12.8220637399023
31
0.000000000000000
  0
LINE
  5
F10561
330
F10562
100
AcDbEntity
8
Geo
100
AcDbLine
10
-60.1056210335449
20
12.8220637399023
30
0.000000000000000
11
-60.0056210335449
21
12.8201344700460
31
0.000000000000000
  0
LINE
  5
F10563
330
F10564
100
AcDbEntity
8
Geo
100
AcDbLine
10
-60.0056210335449
20
12.8201344700460
30
0.000000000000000
11
-59.9056210335449
21
12.8177545153033
31
0.000000000000000
  0
LINE
  5
F10565
330
F10566
100
AcDbEntity
8
Geo
100
AcDbLine
10
-59.9056210335449
20
12.8177545153033
30
0.000000000000000
11
-59.8056210335449
21
12.8149253847357
31
0.000000000000000
  0
LINE
  5
F10567
330
F10568
100
AcDbEntity
8
Geo
100
AcDbLine
10
-59.8056210335449
20
12.8149253847357
30
0.000000000000000
11
-59.7056210335449
21
12.8116494159366
31
0.000000000000000
  0
LINE
  5
F10569
330
F1056A
100
AcDbEntity
8
Geo
100
AcDbLine
10
-59.7056210335449
20
12.8116494159366
30
0.000000000000000
11
-59.6056210335449
21
12.8079301937669
31
0.000000000000000
  0
LINE
  5
F1056B
330
F1056C
100
AcDbEntity
8
Geo
100
AcDbLine
10
-59.6056210335449
20
12.8079301937669
30
0.000000000000000
11
-59.5056210335449
21
12.8037731597015
31
0.000000000000000
  0
LINE
  5
F1056D
330
F1056E
100
AcDbEntity
8
Geo
100
AcDbLine
10
-59.5056210335449
20
12.8037731597015
30
0.000000000000000
11
-59.4056210335449
21
12.7991864818549
31
0.000000000000000
  0
LINE
  5
F1056F
330
F10570
100
AcDbEntity
8
Geo
100
AcDbLine
10
-59.4056210335449
20
12.7991864818549
30
0.000000000000000
11
-59.3056210335449
21
12.7941822753278
31
0.000000000000000
  0
LINE
  5
F10571
330
F10572
100
AcDbEntity
8
Geo
100
AcDbLine
10
-59.3056210335449
20
12.7941822753278
30
0.000000000000000
11
-59.2056210335449
21
12.7887782851733
31
0.000000000000000
  0
LINE
  5
F10573
330
F10574
100
AcDbEntity
8
Geo
100
AcDbLine
10
-59.2056210335449
20
12.7887782851733
30
0.000000000000000
11
-59.1056210335449
21
12.7830001692733
31
0.000000000000000
  0
LINE
  5
F10575
330
F10576
100
AcDbEntity
8
Geo
100
AcDbLine
10
-59.1056210335449
20
12.7830001692733
30
0.000000000000000
11
-59.0056210335449
21
12.7768845439026
31
0.000000000000000
  0
LINE
  5
F10577
330
F10578
100
AcDbEntity
8
Geo
100
AcDbLine
10
-59.0056210335449
20
12.7768845439026
30
0.000000000000000
11
-58.9056210335449
21
12.7704829771057
31
0.000000000000000
  0
LINE
  5
F10579
330
F1057A
100
AcDbEntity
8
Geo
100
AcDbLine
10
-58.9056210335449
20
12.7704829771057
30
0.000000000000000
11
-58.8056210335449
21
12.7638671276022
31
0.000000000000000
  0
LINE
  5
F1057B
330
F1057C
100
AcDbEntity
8
Geo
100
AcDbLine
10
-58.8056210335449
20
12.7638671276022
30
0.000000000000000
11
-58.7056210335449
21
12.7571352184458
31
0.000000000000000
  0
LINE
  5
F1057D
330
F1057E
100
AcDbEntity
8
Geo
100
AcDbLine
10
-58.7056210335449
20
12.7571352184458
30
0.000000000000000
11
-58.6056210335449
21
12.7504199862932
31
0.000000000000000
  0
LINE
  5
F1057F
330
F10580
100
AcDbEntity
8
Geo
100
AcDbLine
10
-58.6056210335449
20
12.7504199862932
30
0.000000000000000
11
-58.5056210335449
21
12.7438981285812
31
0.000000000000000
  0
LINE
  5
F10581
330
F10582
100
AcDbEntity
8
Geo
100
AcDbLine
10
-58.5056210335449
20
12.7438981285812
30
0.000000000000000
11
-58.4056210335449
21
12.7378010340689
31
0.000000000000000
  0
LINE
  5
F10583
330
F10584
100
AcDbEntity
8
Geo
100
AcDbLine
10
-58.4056210335449
20
12.7378010340689
30
0.000000000000000
11
-58.3056210335449
21
12.7324261518647
31
0.000000000000000
  0
LINE
  5
F10585
330
F10586
100
AcDbEntity
8
Geo
100
AcDbLine
10
-58.3056210335449
20
12.7324261518647
30
0.000000000000000
11
-58.2056210335449
21
12.7281476136404
31
0.000000000000000
  0
LINE
  5
F10587
330
F10588
100
AcDbEntity
8
Geo
100
AcDbLine
10
-58.2056210335449
20
12.7281476136404
30
0.000000000000000
11
-58.1056210335449
21
12.7254234936036
31
0.000000000000000
  0
LINE
  5
F10589
330
F1058A
100
AcDbEntity
8
Geo
100
AcDbLine
10
-58.1056210335449
20
12.7254234936036
30
0.000000000000000
11
-58.0056210335449
21
12.7247950954049
31
0.000000000000000
  0
LINE
  5
F1058B
330
F1058C
100
AcDbEntity
8
Geo
100
AcDbLine
10
-58.0056210335449
20
12.7247950954049
30
0.000000000000000
11
-57.9056210335449
21
12.7268704733596
31
0.000000000000000
  0
LINE
  5
F1058D
330
F1058E
100
AcDbEntity
8
Geo
100
AcDbLine
10
-57.9056210335449
20
12.7268704733596
30
0.000000000000000
11
-57.8056210335449
21
12.7322793878953
31
0.000000000000000
  0
LINE
  5
F1058F
330
F10590
100
AcDbEntity
8
Geo
100
AcDbLine
10
-57.8056210335449
20
12.7322793878953
30
0.000000000000000
11
-57.7056210335449
21
12.7415791051897
31
0.000000000000000
  0
LINE
  5
F10591
330
F10592
100
AcDbEntity
8
Geo
100
AcDbLine
10
-57.7056210335449
20
12.7415791051897
30
0.000000000000000
11
-57.6056210335449
21
12.7550784888928
31
0.000000000000000
  0
LINE
  5
F10593
330
F10594
100
AcDbEntity
8
Geo
100
AcDbLine
10
-57.6056210335449
20
12.7550784888928
30
0.000000000000000
11
-57.5056210335449
21
12.7725298029354
31
0.000000000000000
  0
LINE
  5
F10595
330
F10596
100
AcDbEntity
8
Geo
100
AcDbLine
10
-57.5056210335449
20
12.7725298029354
30
0.000000000000000
11
-57.4056210335449
21
12.7926113146353
31
0.000000000000000
  0
LINE
  5
F10597
330
F10598
100
AcDbEntity
8
Geo
100
AcDbLine
10
-57.4056210335449
20
12.7926113146353
30
0.000000000000000
11
-57.3056210335449
21
12.8120875265686
31
0.000000000000000
  0
LINE
  5
F10599
330
F1059A
100
AcDbEntity
8
Geo
100
AcDbLine
10
-57.3056210335449
20
12.8120875265686
30
0.000000000000000
11
-57.2056210335449
21
12.8244897274068
31
0.000000000000000
  0
LINE
  5
F1059B
330
F1059C
100
AcDbEntity
8
Geo
100
AcDbLine
10
-57.2056210335449
20
12.8244897274068
30
0.000000000000000
11
-57.1807559417619
21
12.8252719854942
31
0.000000000000000
  0
LINE
  5
F1059D
330
F1059E
100
AcDbEntity
8
Geo
100
AcDbLine
10
-73.1056210335448
20
9.57085974823714
30
0.000000000000000
11
-73.0056210335448
21
9.56689341427542
31
0.000000000000000
  0
LINE
  5
F1059F
330
F105A0
100
AcDbEntity
8
Geo
100
AcDbLine
10
-73.0056210335448
20
9.56689341427542
30
0.000000000000000
11
-72.9056210335448
21
9.53884673941034
31
0.000000000000000
  0
LINE
  5
F105A1
330
F105A2
100
AcDbEntity
8
Geo
100
AcDbLine
10
-72.9056210335448
20
9.53884673941034
30
0.000000000000000
11
-72.8056210335448
21
9.50514633598639
31
0.000000000000000
  0
LINE
  5
F105A3
330
F105A4
100
AcDbEntity
8
Geo
100
AcDbLine
10
-72.8056210335448
20
9.50514633598639
30
0.000000000000000
11
-72.7056210335448
21
9.46957154221928
31
0.000000000000000
  0
LINE
  5
F105A5
330
F105A6
100
AcDbEntity
8
Geo
100
AcDbLine
10
-72.7056210335448
20
9.46957154221928
30
0.000000000000000
11
-72.6056210335448
21
9.43406343676197
31
0.000000000000000
  0
LINE
  5
F105A7
330
F105A8
100
AcDbEntity
8
Geo
100
AcDbLine
10
-72.6056210335448
20
9.43406343676197
30
0.000000000000000
11
-72.5056210335448
21
9.39862751757848
31
0.000000000000000
  0
LINE
  5
F105A9
330
F105AA
100
AcDbEntity
8
Geo
100
AcDbLine
10
-72.5056210335448
20
9.39862751757848
30
0.000000000000000
11
-72.4056210335448
21
9.36326927145572
31
0.000000000000000
  0
LINE
  5
F105AB
330
F105AC
100
AcDbEntity
8
Geo
100
AcDbLine
10
-72.4056210335448
20
9.36326927145572
30
0.000000000000000
11
-72.3056210335448
21
9.32799417315395
31
0.000000000000000
  0
LINE
  5
F105AD
330
F105AE
100
AcDbEntity
8
Geo
100
AcDbLine
10
-72.3056210335448
20
9.32799417315395
30
0.000000000000000
11
-72.2056210335448
21
9.29280768455910
31
0.000000000000000
  0
LINE
  5
F105AF
330
F105B0
100
AcDbEntity
8
Geo
100
AcDbLine
10
-72.2056210335448
20
9.29280768455910
30
0.000000000000000
11
-72.1056210335448
21
9.25771525383701
31
0.000000000000000
  0
LINE
  5
F105B1
330
F105B2
100
AcDbEntity
8
Geo
100
AcDbLine
10
-72.1056210335448
20
9.25771525383701
30
0.000000000000000
11
-72.0056210335448
21
9.22272231458993
31
0.000000000000000
  0
LINE
  5
F105B3
330
F105B4
100
AcDbEntity
8
Geo
100
AcDbLine
10
-72.0056210335448
20
9.22272231458993
30
0.000000000000000
11
-71.9056210335448
21
9.18783428501515
31
0.000000000000000
  0
LINE
  5
F105B5
330
F105B6
100
AcDbEntity
8
Geo
100
AcDbLine
10
-71.9056210335448
20
9.18783428501515
30
0.000000000000000
11
-71.8056210335448
21
9.15305656706606
31
0.000000000000000
  0
LINE
  5
F105B7
330
F105B8
100
AcDbEntity
8
Geo
100
AcDbLine
10
-71.8056210335448
20
9.15305656706606
30
0.000000000000000
11
-71.7056210335448
21
9.11839454561576
31
0.000000000000000
  0
LINE
  5
F105B9
330
F105BA
100
AcDbEntity
8
Geo
100
AcDbLine
10
-71.7056210335448
20
9.11839454561576
30
0.000000000000000
11
-71.6056210335448
21
9.08385358762327
31
0.000000000000000
  0
LINE
  5
F105BB
330
F105BC
100
AcDbEntity
8
Geo
100
AcDbLine
10
-71.6056210335448
20
9.08385358762327
30
0.000000000000000
11
-71.5056210335448
21
9.04943904130250
31
0.000000000000000
  0
LINE
  5
F105BD
330
F105BE
100
AcDbEntity
8
Geo
100
AcDbLine
10
-71.5056210335448
20
9.04943904130250
30
0.000000000000000
11
-71.4056210335448
21
9.01515623529419
31
0.000000000000000
  0
LINE
  5
F105BF
330
F105C0
100
AcDbEntity
8
Geo
100
AcDbLine
10
-71.4056210335448
20
9.01515623529419
30
0.000000000000000
11
-71.3056210335448
21
8.98101047784082
31
0.000000000000000
  0
LINE
  5
F105C1
330
F105C2
100
AcDbEntity
8
Geo
100
AcDbLine
10
-71.3056210335448
20
8.98101047784082
30
0.000000000000000
11
-71.2056210335448
21
8.94700705596470
31
0.000000000000000
  0
LINE
  5
F105C3
330
F105C4
100
AcDbEntity
8
Geo
100
AcDbLine
10
-71.2056210335448
20
8.94700705596470
30
0.000000000000000
11
-71.1056210335448
21
8.91315123464933
31
0.000000000000000
  0
LINE
  5
F105C5
330
F105C6
100
AcDbEntity
8
Geo
100
AcDbLine
10
-71.1056210335448
20
8.91315123464933
30
0.000000000000000
11
-71.0056210335448
21
8.87944825602423
31
0.000000000000000
  0
LINE
  5
F105C7
330
F105C8
100
AcDbEntity
8
Geo
100
AcDbLine
10
-71.0056210335448
20
8.87944825602423
30
0.000000000000000
11
-70.9056210335448
21
8.84590333855320
31
0.000000000000000
  0
LINE
  5
F105C9
330
F105CA
100
AcDbEntity
8
Geo
100
AcDbLine
10
-70.9056210335448
20
8.84590333855320
30
0.000000000000000
11
-70.8056210335448
21
8.81252167622638
31
0.000000000000000
  0
LINE
  5
F105CB
330
F105CC
100
AcDbEntity
8
Geo
100
AcDbLine
10
-70.8056210335448
20
8.81252167622638
30
0.000000000000000
11
-70.7056210335448
21
8.77930843775597
31
0.000000000000000
  0
LINE
  5
F105CD
330
F105CE
100
AcDbEntity
8
Geo
100
AcDbLine
10
-70.7056210335448
20
8.77930843775597
30
0.000000000000000
11
-70.6056210335448
21
8.74626876577596
31
0.000000000000000
  0
LINE
  5
F105CF
330
F105D0
100
AcDbEntity
8
Geo
100
AcDbLine
10
-70.6056210335448
20
8.74626876577596
30
0.000000000000000
11
-70.5056210335448
21
8.71340777604583
31
0.000000000000000
  0
LINE
  5
F105D1
330
F105D2
100
AcDbEntity
8
Geo
100
AcDbLine
10
-70.5056210335448
20
8.71340777604583
30
0.000000000000000
11
-70.4056210335448
21
8.68073055665848
31
0.000000000000000
  0
LINE
  5
F105D3
330
F105D4
100
AcDbEntity
8
Geo
100
AcDbLine
10
-70.4056210335448
20
8.68073055665848
30
0.000000000000000
11
-70.3056210335448
21
8.64824216725238
31
0.000000000000000
  0
LINE
  5
F105D5
330
F105D6
100
AcDbEntity
8
Geo
100
AcDbLine
10
-70.3056210335448
20
8.64824216725238
30
0.000000000000000
11
-70.2056210335448
21
8.61594763822814
31
0.000000000000000
  0
LINE
  5
F105D7
330
F105D8
100
AcDbEntity
8
Geo
100
AcDbLine
10
-70.2056210335448
20
8.61594763822814
30
0.000000000000000
11
-70.1056210335448
21
8.58385196996966
31
0.000000000000000
  0
LINE
  5
F105D9
330
F105DA
100
AcDbEntity
8
Geo
100
AcDbLine
10
-70.1056210335448
20
8.58385196996966
30
0.000000000000000
11
-70.0056210335448
21
8.55196013206984
31
0.000000000000000
  0
LINE
  5
F105DB
330
F105DC
100
AcDbEntity
8
Geo
100
AcDbLine
10
-70.0056210335448
20
8.55196013206984
30
0.000000000000000
11
-69.9056210335448
21
8.52027706256113
31
0.000000000000000
  0
LINE
  5
F105DD
330
F105DE
100
AcDbEntity
8
Geo
100
AcDbLine
10
-69.9056210335448
20
8.52027706256113
30
0.000000000000000
11
-69.8056210335448
21
8.48880766715094
31
0.000000000000000
  0
LINE
  5
F105DF
330
F105E0
100
AcDbEntity
8
Geo
100
AcDbLine
10
-69.8056210335448
20
8.48880766715094
30
0.000000000000000
11
-69.7056210335448
21
8.45755681846205
31
0.000000000000000
  0
LINE
  5
F105E1
330
F105E2
100
AcDbEntity
8
Geo
100
AcDbLine
10
-69.7056210335448
20
8.45755681846205
30
0.000000000000000
11
-69.6056210335448
21
8.42652935527814
31
0.000000000000000
  0
LINE
  5
F105E3
330
F105E4
100
AcDbEntity
8
Geo
100
AcDbLine
10
-69.6056210335448
20
8.42652935527814
30
0.000000000000000
11
-69.5056210335448
21
8.39573008179460
31
0.000000000000000
  0
LINE
  5
F105E5
330
F105E6
100
AcDbEntity
8
Geo
100
AcDbLine
10
-69.5056210335448
20
8.39573008179460
30
0.000000000000000
11
-69.4056210335448
21
8.36516376687461
31
0.000000000000000
  0
LINE
  5
F105E7
330
F105E8
100
AcDbEntity
8
Geo
100
AcDbLine
10
-69.4056210335448
20
8.36516376687461
30
0.000000000000000
11
-69.3056210335448
21
8.33483514331079
31
0.000000000000000
  0
LINE
  5
F105E9
330
F105EA
100
AcDbEntity
8
Geo
100
AcDbLine
10
-69.3056210335448
20
8.33483514331079
30
0.000000000000000
11
-69.2056210335448
21
8.30474890709238
31
0.000000000000000
  0
LINE
  5
F105EB
330
F105EC
100
AcDbEntity
8
Geo
100
AcDbLine
10
-69.2056210335448
20
8.30474890709238
30
0.000000000000000
11
-69.1056210335448
21
8.27490971667811
31
0.000000000000000
  0
LINE
  5
F105ED
330
F105EE
100
AcDbEntity
8
Geo
100
AcDbLine
10
-69.1056210335448
20
8.27490971667811
30
0.000000000000000
11
-69.0056210335448
21
8.24532219227492
31
0.000000000000000
  0
LINE
  5
F105EF
330
F105F0
100
AcDbEntity
8
Geo
100
AcDbLine
10
-69.0056210335448
20
8.24532219227492
30
0.000000000000000
11
-68.9056210335448
21
8.21599091512256
31
0.000000000000000
  0
LINE
  5
F105F1
330
F105F2
100
AcDbEntity
8
Geo
100
AcDbLine
10
-68.9056210335448
20
8.21599091512256
30
0.000000000000000
11
-68.8056210335448
21
8.18692042678426
31
0.000000000000000
  0
LINE
  5
F105F3
330
F105F4
100
AcDbEntity
8
Geo
100
AcDbLine
10
-68.8056210335448
20
8.18692042678426
30
0.000000000000000
11
-68.7056210335448
21
8.15811522844353
31
0.000000000000000
  0
LINE
  5
F105F5
330
F105F6
100
AcDbEntity
8
Geo
100
AcDbLine
10
-68.7056210335448
20
8.15811522844353
30
0.000000000000000
11
-68.6056210335448
21
8.12957978020722
31
0.000000000000000
  0
LINE
  5
F105F7
330
F105F8
100
AcDbEntity
8
Geo
100
AcDbLine
10
-68.6056210335448
20
8.12957978020722
30
0.000000000000000
11
-68.5056210335448
21
8.10131850041488
31
0.000000000000000
  0
LINE
  5
F105F9
330
F105FA
100
AcDbEntity
8
Geo
100
AcDbLine
10
-68.5056210335448
20
8.10131850041488
30
0.000000000000000
11
-68.4056210335448
21
8.07333576495471
31
0.000000000000000
  0
LINE
  5
F105FB
330
F105FC
100
AcDbEntity
8
Geo
100
AcDbLine
10
-68.4056210335448
20
8.07333576495471
30
0.000000000000000
11
-68.3056210335448
21
8.04563590658597
31
0.000000000000000
  0
LINE
  5
F105FD
330
F105FE
100
AcDbEntity
8
Geo
100
AcDbLine
10
-68.3056210335448
20
8.04563590658597
30
0.000000000000000
11
-68.2056210335448
21
8.01822321426810
31
0.000000000000000
  0
LINE
  5
F105FF
330
F10600
100
AcDbEntity
8
Geo
100
AcDbLine
10
-68.2056210335448
20
8.01822321426810
30
0.000000000000000
11
-68.1056210335448
21
7.99110193249666
31
0.000000000000000
  0
LINE
  5
F10601
330
F10602
100
AcDbEntity
8
Geo
100
AcDbLine
10
-68.1056210335448
20
7.99110193249666
30
0.000000000000000
11
-68.0056210335448
21
7.96427626064611
31
0.000000000000000
  0
LINE
  5
F10603
330
F10604
100
AcDbEntity
8
Geo
100
AcDbLine
10
-68.0056210335448
20
7.96427626064611
30
0.000000000000000
11
-67.9056210335448
21
7.93775035231960
31
0.000000000000000
  0
LINE
  5
F10605
330
F10606
100
AcDbEntity
8
Geo
100
AcDbLine
10
-67.9056210335448
20
7.93775035231960
30
0.000000000000000
11
-67.8056210335448
21
7.91152831470581
31
0.000000000000000
  0
LINE
  5
F10607
330
F10608
100
AcDbEntity
8
Geo
100
AcDbLine
10
-67.8056210335448
20
7.91152831470581
30
0.000000000000000
11
-67.7056210335448
21
7.88561420794306
31
0.000000000000000
  0
LINE
  5
F10609
330
F1060A
100
AcDbEntity
8
Geo
100
AcDbLine
10
-67.7056210335448
20
7.88561420794306
30
0.000000000000000
11
-67.6056210335448
21
7.86001204449060
31
0.000000000000000
  0
LINE
  5
F1060B
330
F1060C
100
AcDbEntity
8
Geo
100
AcDbLine
10
-67.6056210335448
20
7.86001204449060
30
0.000000000000000
11
-67.5056210335448
21
7.83472578850737
31
0.000000000000000
  0
LINE
  5
F1060D
330
F1060E
100
AcDbEntity
8
Geo
100
AcDbLine
10
-67.5056210335448
20
7.83472578850737
30
0.000000000000000
11
-67.4056210335448
21
7.80975935523816
31
0.000000000000000
  0
LINE
  5
F1060F
330
F10610
100
AcDbEntity
8
Geo
100
AcDbLine
10
-67.4056210335448
20
7.80975935523816
30
0.000000000000000
11
-67.3056210335448
21
7.78511661040742
31
0.000000000000000
  0
LINE
  5
F10611
330
F10612
100
AcDbEntity
8
Geo
100
AcDbLine
10
-67.3056210335448
20
7.78511661040742
30
0.000000000000000
11
-67.2056210335448
21
7.76080136962072
31
0.000000000000000
  0
LINE
  5
F10613
330
F10614
100
AcDbEntity
8
Geo
100
AcDbLine
10
-67.2056210335448
20
7.76080136962072
30
0.000000000000000
11
-67.1056210335448
21
7.73681739777390
31
0.000000000000000
  0
LINE
  5
F10615
330
F10616
100
AcDbEntity
8
Geo
100
AcDbLine
10
-67.1056210335448
20
7.73681739777390
30
0.000000000000000
11
-67.0056210335448
21
7.71316840847016
31
0.000000000000000
  0
LINE
  5
F10617
330
F10618
100
AcDbEntity
8
Geo
100
AcDbLine
10
-67.0056210335448
20
7.71316840847016
30
0.000000000000000
11
-66.9056210335448
21
7.68985806344505
31
0.000000000000000
  0
LINE
  5
F10619
330
F1061A
100
AcDbEntity
8
Geo
100
AcDbLine
10
-66.9056210335448
20
7.68985806344505
30
0.000000000000000
11
-66.8056210335448
21
7.66688997199950
31
0.000000000000000
  0
LINE
  5
F1061B
330
F1061C
100
AcDbEntity
8
Geo
100
AcDbLine
10
-66.8056210335448
20
7.66688997199950
30
0.000000000000000
11
-66.7056210335448
21
7.64426769044097
31
0.000000000000000
  0
LINE
  5
F1061D
330
F1061E
100
AcDbEntity
8
Geo
100
AcDbLine
10
-66.7056210335448
20
7.64426769044097
30
0.000000000000000
11
-66.6056210335448
21
7.62199472153279
31
0.000000000000000
  0
LINE
  5
F1061F
330
F10620
100
AcDbEntity
8
Geo
100
AcDbLine
10
-66.6056210335448
20
7.62199472153279
30
0.000000000000000
11
-66.5056210335448
21
7.60007451395182
31
0.000000000000000
  0
LINE
  5
F10621
330
F10622
100
AcDbEntity
8
Geo
100
AcDbLine
10
-66.5056210335448
20
7.60007451395182
30
0.000000000000000
11
-66.4056210335448
21
7.57851046175446
31
0.000000000000000
  0
LINE
  5
F10623
330
F10624
100
AcDbEntity
8
Geo
100
AcDbLine
10
-66.4056210335448
20
7.57851046175446
30
0.000000000000000
11
-66.3056210335448
21
7.55730590385112
31
0.000000000000000
  0
LINE
  5
F10625
330
F10626
100
AcDbEntity
8
Geo
100
AcDbLine
10
-66.3056210335448
20
7.55730590385112
30
0.000000000000000
11
-66.2056210335448
21
7.53646412348922
31
0.000000000000000
  0
LINE
  5
F10627
330
F10628
100
AcDbEntity
8
Geo
100
AcDbLine
10
-66.2056210335448
20
7.53646412348922
30
0.000000000000000
11
-66.1056210335448
21
7.51598834774488
31
0.000000000000000
  0
LINE
  5
F10629
330
F1062A
100
AcDbEntity
8
Geo
100
AcDbLine
10
-66.1056210335448
20
7.51598834774488
30
0.000000000000000
11
-66.0056210335448
21
7.49588174702317
31
0.000000000000000
  0
LINE
  5
F1062B
330
F1062C
100
AcDbEntity
8
Geo
100
AcDbLine
10
-66.0056210335448
20
7.49588174702317
30
0.000000000000000
11
-65.9056210335448
21
7.47614743456729
31
0.000000000000000
  0
LINE
  5
F1062D
330
F1062E
100
AcDbEntity
8
Geo
100
AcDbLine
10
-65.9056210335448
20
7.47614743456729
30
0.000000000000000
11
-65.8056210335448
21
7.45678846597645
31
0.000000000000000
  0
LINE
  5
F1062F
330
F10630
100
AcDbEntity
8
Geo
100
AcDbLine
10
-65.8056210335448
20
7.45678846597645
30
0.000000000000000
11
-65.7056210335448
21
7.43780783873282
31
0.000000000000000
  0
LINE
  5
F10631
330
F10632
100
AcDbEntity
8
Geo
100
AcDbLine
10
-65.7056210335448
20
7.43780783873282
30
0.000000000000000
11
-65.6056210335448
21
7.41920849173736
31
0.000000000000000
  0
LINE
  5
F10633
330
F10634
100
AcDbEntity
8
Geo
100
AcDbLine
10
-65.6056210335448
20
7.41920849173736
30
0.000000000000000
11
-65.5056210335448
21
7.40099330485481
31
0.000000000000000
  0
LINE
  5
F10635
330
F10636
100
AcDbEntity
8
Geo
100
AcDbLine
10
-65.5056210335448
20
7.40099330485481
30
0.000000000000000
11
-65.4056210335448
21
7.38316509846774
31
0.000000000000000
  0
LINE
  5
F10637
330
F10638
100
AcDbEntity
8
Geo
100
AcDbLine
10
-65.4056210335448
20
7.38316509846774
30
0.000000000000000
11
-65.3056210335449
21
7.36572663303988
31
0.000000000000000
  0
LINE
  5
F10639
330
F1063A
100
AcDbEntity
8
Geo
100
AcDbLine
10
-65.3056210335449
20
7.36572663303988
30
0.000000000000000
11
-65.2056210335448
21
7.34868060868868
31
0.000000000000000
  0
LINE
  5
F1063B
330
F1063C
100
AcDbEntity
8
Geo
100
AcDbLine
10
-65.2056210335448
20
7.34868060868868
30
0.000000000000000
11
-65.1056210335448
21
7.33202966476725
31
0.000000000000000
  0
LINE
  5
F1063D
330
F1063E
100
AcDbEntity
8
Geo
100
AcDbLine
10
-65.1056210335448
20
7.33202966476725
30
0.000000000000000
11
-65.0056210335449
21
7.31577637945567
31
0.000000000000000
  0
LINE
  5
F1063F
330
F10640
100
AcDbEntity
8
Geo
100
AcDbLine
10
-65.0056210335449
20
7.31577637945567
30
0.000000000000000
11
-64.9056210335448
21
7.29992326936183
31
0.000000000000000
  0
LINE
  5
F10641
330
F10642
100
AcDbEntity
8
Geo
100
AcDbLine
10
-64.9056210335448
20
7.29992326936183
30
0.000000000000000
11
-64.8056210335449
21
7.28447278913171
31
0.000000000000000
  0
LINE
  5
F10643
330
F10644
100
AcDbEntity
8
Geo
100
AcDbLine
10
-64.8056210335449
20
7.28447278913171
30
0.000000000000000
11
-64.7056210335448
21
7.26942733106935
31
0.000000000000000
  0
LINE
  5
F10645
330
F10646
100
AcDbEntity
8
Geo
100
AcDbLine
10
-64.7056210335448
20
7.26942733106935
30
0.000000000000000
11
-64.6056210335448
21
7.25478922476644
31
0.000000000000000
  0
LINE
  5
F10647
330
F10648
100
AcDbEntity
8
Geo
100
AcDbLine
10
-64.6056210335448
20
7.25478922476644
30
0.000000000000000
11
-64.5056210335449
21
7.24056073674158
31
0.000000000000000
  0
LINE
  5
F10649
330
F1064A
100
AcDbEntity
8
Geo
100
AcDbLine
10
-64.5056210335449
20
7.24056073674158
30
0.000000000000000
11
-64.4056210335448
21
7.22674407008937
31
0.000000000000000
  0
LINE
  5
F1064B
330
F1064C
100
AcDbEntity
8
Geo
100
AcDbLine
10
-64.4056210335448
20
7.22674407008937
30
0.000000000000000
11
-64.3056210335449
21
7.21334136413925
31
0.000000000000000
  0
LINE
  5
F1064D
330
F1064E
100
AcDbEntity
8
Geo
100
AcDbLine
10
-64.3056210335449
20
7.21334136413925
30
0.000000000000000
11
-64.2056210335448
21
7.20035469412431
31
0.000000000000000
  0
LINE
  5
F1064F
330
F10650
100
AcDbEntity
8
Geo
100
AcDbLine
10
-64.2056210335448
20
7.20035469412431
30
0.000000000000000
11
-64.1056210335448
21
7.18778607085993
31
0.000000000000000
  0
LINE
  5
F10651
330
F10652
100
AcDbEntity
8
Geo
100
AcDbLine
10
-64.1056210335448
20
7.18778607085993
30
0.000000000000000
11
-64.0056210335449
21
7.17563744043243
31
0.000000000000000
  0
LINE
  5
F10653
330
F10654
100
AcDbEntity
8
Geo
100
AcDbLine
10
-64.0056210335449
20
7.17563744043243
30
0.000000000000000
11
-63.9056210335449
21
7.16391068389775
31
0.000000000000000
  0
LINE
  5
F10655
330
F10656
100
AcDbEntity
8
Geo
100
AcDbLine
10
-63.9056210335449
20
7.16391068389775
30
0.000000000000000
11
-63.8056210335449
21
7.15260761699020
31
0.000000000000000
  0
LINE
  5
F10657
330
F10658
100
AcDbEntity
8
Geo
100
AcDbLine
10
-63.8056210335449
20
7.15260761699020
30
0.000000000000000
11
-63.7056210335449
21
7.14172998984132
31
0.000000000000000
  0
LINE
  5
F10659
330
F1065A
100
AcDbEntity
8
Geo
100
AcDbLine
10
-63.7056210335449
20
7.14172998984132
30
0.000000000000000
11
-63.6056210335448
21
7.13127948670888
31
0.000000000000000
  0
LINE
  5
F1065B
330
F1065C
100
AcDbEntity
8
Geo
100
AcDbLine
10
-63.6056210335448
20
7.13127948670888
30
0.000000000000000
11
-63.5056210335449
21
7.12125772571611
31
0.000000000000000
  0
LINE
  5
F1065D
330
F1065E
100
AcDbEntity
8
Geo
100
AcDbLine
10
-63.5056210335449
20
7.12125772571611
30
0.000000000000000
11
-63.4056210335449
21
7.11166625860114
31
0.000000000000000
  0
LINE
  5
F1065F
330
F10660
100
AcDbEntity
8
Geo
100
AcDbLine
10
-63.4056210335449
20
7.11166625860114
30
0.000000000000000
11
-63.3056210335449
21
7.10250657047675
31
0.000000000000000
  0
LINE
  5
F10661
330
F10662
100
AcDbEntity
8
Geo
100
AcDbLine
10
-63.3056210335449
20
7.10250657047675
30
0.000000000000000
11
-63.2056210335449
21
7.09378007960040
31
0.000000000000000
  0
LINE
  5
F10663
330
F10664
100
AcDbEntity
8
Geo
100
AcDbLine
10
-63.2056210335449
20
7.09378007960040
30
0.000000000000000
11
-63.1056210335449
21
7.08548813715464
31
0.000000000000000
  0
LINE
  5
F10665
330
F10666
100
AcDbEntity
8
Geo
100
AcDbLine
10
-63.1056210335449
20
7.08548813715464
30
0.000000000000000
11
-63.0056210335449
21
7.07763202703793
31
0.000000000000000
  0
LINE
  5
F10667
330
F10668
100
AcDbEntity
8
Geo
100
AcDbLine
10
-63.0056210335449
20
7.07763202703793
30
0.000000000000000
11
-62.9056210335449
21
7.07021296566578
31
0.000000000000000
  0
LINE
  5
F10669
330
F1066A
100
AcDbEntity
8
Geo
100
AcDbLine
10
-62.9056210335449
20
7.07021296566578
30
0.000000000000000
11
-62.8056210335449
21
7.06323210178245
31
0.000000000000000
  0
LINE
  5
F1066B
330
F1066C
100
AcDbEntity
8
Geo
100
AcDbLine
10
-62.8056210335449
20
7.06323210178245
30
0.000000000000000
11
-62.7056210335449
21
7.05669051628309
31
0.000000000000000
  0
LINE
  5
F1066D
330
F1066E
100
AcDbEntity
8
Geo
100
AcDbLine
10
-62.7056210335449
20
7.05669051628309
30
0.000000000000000
11
-62.6056210335449
21
7.05058922204633
31
0.000000000000000
  0
LINE
  5
F1066F
330
F10670
100
AcDbEntity
8
Geo
100
AcDbLine
10
-62.6056210335449
20
7.05058922204633
30
0.000000000000000
11
-62.5056210335449
21
7.04492916377749
31
0.000000000000000
  0
LINE
  5
F10671
330
F10672
100
AcDbEntity
8
Geo
100
AcDbLine
10
-62.5056210335449
20
7.04492916377749
30
0.000000000000000
11
-62.4056210335449
21
7.03971121786229
31
0.000000000000000
  0
LINE
  5
F10673
330
F10674
100
AcDbEntity
8
Geo
100
AcDbLine
10
-62.4056210335449
20
7.03971121786229
30
0.000000000000000
11
-62.3056210335449
21
7.03493619223118
31
0.000000000000000
  0
LINE
  5
F10675
330
F10676
100
AcDbEntity
8
Geo
100
AcDbLine
10
-62.3056210335449
20
7.03493619223118
30
0.000000000000000
11
-62.2056210335449
21
7.03060482623417
31
0.000000000000000
  0
LINE
  5
F10677
330
F10678
100
AcDbEntity
8
Geo
100
AcDbLine
10
-62.2056210335449
20
7.03060482623417
30
0.000000000000000
11
-62.1056210335449
21
7.02671779052644
31
0.000000000000000
  0
LINE
  5
F10679
330
F1067A
100
AcDbEntity
8
Geo
100
AcDbLine
10
-73.1056210335448
20
12.4695151318537
30
0.000000000000000
11
-73.1018606003257
21
12.4779209657216
31
0.000000000000000
  0
LINE
  5
F1067B
330
F1067C
100
AcDbEntity
8
Geo
100
AcDbLine
10
-73.1018606003257
20
12.4779209657216
30
0.000000000000000
11
-73.0056210335448
21
12.6930487881653
31
0.000000000000000
  0
LINE
  5
F1067D
330
F1067E
100
AcDbEntity
8
Geo
100
AcDbLine
10
-73.0056210335448
20
12.6930487881653
30
0.000000000000000
11
-72.9056210335448
21
12.7489710663074
31
0.000000000000000
  0
LINE
  5
F1067F
330
F10680
100
AcDbEntity
8
Geo
100
AcDbLine
10
-72.9056210335448
20
12.7489710663074
30
0.000000000000000
11
-72.8056210335448
21
12.7617267261970
31
0.000000000000000
  0
LINE
  5
F10681
330
F10682
100
AcDbEntity
8
Geo
100
AcDbLine
10
-72.8056210335448
20
12.7617267261970
30
0.000000000000000
11
-72.7056210335448
21
12.7565886066257
31
0.000000000000000
  0
LINE
  5
F10683
330
F10684
100
AcDbEntity
8
Geo
100
AcDbLine
10
-72.7056210335448
20
12.7565886066257
30
0.000000000000000
11
-72.6056210335448
21
12.7510082239208
31
0.000000000000000
  0
LINE
  5
F10685
330
F10686
100
AcDbEntity
8
Geo
100
AcDbLine
10
-72.6056210335448
20
12.7510082239208
30
0.000000000000000
11
-72.5056210335448
21
12.7449864421311
31
0.000000000000000
  0
LINE
  5
F10687
330
F10688
100
AcDbEntity
8
Geo
100
AcDbLine
10
-72.5056210335448
20
12.7449864421311
30
0.000000000000000
11
-72.4056210335448
21
12.7385241936506
31
0.000000000000000
  0
LINE
  5
F10689
330
F1068A
100
AcDbEntity
8
Geo
100
AcDbLine
10
-72.4056210335448
20
12.7385241936506
30
0.000000000000000
11
-72.3056210335448
21
12.7316224790736
31
0.000000000000000
  0
LINE
  5
F1068B
330
F1068C
100
AcDbEntity
8
Geo
100
AcDbLine
10
-72.3056210335448
20
12.7316224790736
30
0.000000000000000
11
-72.2056210335448
21
12.7242823670401
31
0.000000000000000
  0
LINE
  5
F1068D
330
F1068E
100
AcDbEntity
8
Geo
100
AcDbLine
10
-72.2056210335448
20
12.7242823670401
30
0.000000000000000
11
-72.1056210335448
21
12.7165049940699
31
0.000000000000000
  0
LINE
  5
F1068F
330
F10690
100
AcDbEntity
8
Geo
100
AcDbLine
10
-72.1056210335448
20
12.7165049940699
30
0.000000000000000
11
-72.0056210335448
21
12.7082915643873
31
0.000000000000000
  0
LINE
  5
F10691
330
F10692
100
AcDbEntity
8
Geo
100
AcDbLine
10
-72.0056210335448
20
12.7082915643873
30
0.000000000000000
11
-71.9056210335448
21
12.6996433497340
31
0.000000000000000
  0
LINE
  5
F10693
330
F10694
100
AcDbEntity
8
Geo
100
AcDbLine
10
-71.9056210335448
20
12.6996433497340
30
0.000000000000000
11
-71.8056210335448
21
12.6905616891724
31
0.000000000000000
  0
LINE
  5
F10695
330
F10696
100
AcDbEntity
8
Geo
100
AcDbLine
10
-71.8056210335448
20
12.6905616891724
30
0.000000000000000
11
-71.7056210335448
21
12.6810479888786
31
0.000000000000000
  0
LINE
  5
F10697
330
F10698
100
AcDbEntity
8
Geo
100
AcDbLine
10
-71.7056210335448
20
12.6810479888786
30
0.000000000000000
11
-71.6056210335448
21
12.6711037219241
31
0.000000000000000
  0
LINE
  5
F10699
330
F1069A
100
AcDbEntity
8
Geo
100
AcDbLine
10
-71.6056210335448
20
12.6711037219241
30
0.000000000000000
11
-71.5056210335448
21
12.6607304280482
31
0.000000000000000
  0
LINE
  5
F1069B
330
F1069C
100
AcDbEntity
8
Geo
100
AcDbLine
10
-71.5056210335448
20
12.6607304280482
30
0.000000000000000
11
-71.4056210335448
21
12.6499297134192
31
0.000000000000000
  0
LINE
  5
F1069D
330
F1069E
100
AcDbEntity
8
Geo
100
AcDbLine
10
-71.4056210335448
20
12.6499297134192
30
0.000000000000000
11
-71.3056210335448
21
12.6387032503859
31
0.000000000000000
  0
LINE
  5
F1069F
330
F106A0
100
AcDbEntity
8
Geo
100
AcDbLine
10
-71.3056210335448
20
12.6387032503859
30
0.000000000000000
11
-71.2056210335448
21
12.6270527772189
31
0.000000000000000
  0
LINE
  5
F106A1
330
F106A2
100
AcDbEntity
8
Geo
100
AcDbLine
10
-71.2056210335448
20
12.6270527772189
30
0.000000000000000
11
-71.1056210335448
21
12.6149800978409
31
0.000000000000000
  0
LINE
  5
F106A3
330
F106A4
100
AcDbEntity
8
Geo
100
AcDbLine
10
-71.1056210335448
20
12.6149800978409
30
0.000000000000000
11
-71.0056210335448
21
12.6024870815479
31
0.000000000000000
  0
LINE
  5
F106A5
330
F106A6
100
AcDbEntity
8
Geo
100
AcDbLine
10
-71.0056210335448
20
12.6024870815479
30
0.000000000000000
11
-70.9056210335448
21
12.5895756627195
31
0.000000000000000
  0
LINE
  5
F106A7
330
F106A8
100
AcDbEntity
8
Geo
100
AcDbLine
10
-70.9056210335448
20
12.5895756627195
30
0.000000000000000
11
-70.8056210335448
21
12.5762478405193
31
0.000000000000000
  0
LINE
  5
F106A9
330
F106AA
100
AcDbEntity
8
Geo
100
AcDbLine
10
-70.8056210335448
20
12.5762478405193
30
0.000000000000000
11
-70.7056210335448
21
12.5625056785857
31
0.000000000000000
  0
LINE
  5
F106AB
330
F106AC
100
AcDbEntity
8
Geo
100
AcDbLine
10
-70.7056210335448
20
12.5625056785857
30
0.000000000000000
11
-70.6056210335448
21
12.5483513047121
31
0.000000000000000
  0
LINE
  5
F106AD
330
F106AE
100
AcDbEntity
8
Geo
100
AcDbLine
10
-70.6056210335448
20
12.5483513047121
30
0.000000000000000
11
-70.5056210335448
21
12.5337869105174
31
0.000000000000000
  0
LINE
  5
F106AF
330
F106B0
100
AcDbEntity
8
Geo
100
AcDbLine
10
-70.5056210335448
20
12.5337869105174
30
0.000000000000000
11
-70.4056210335448
21
12.5188147511070
31
0.000000000000000
  0
LINE
  5
F106B1
330
F106B2
100
AcDbEntity
8
Geo
100
AcDbLine
10
-70.4056210335448
20
12.5188147511070
30
0.000000000000000
11
-70.3056210335448
21
12.5034371447230
31
0.000000000000000
  0
LINE
  5
F106B3
330
F106B4
100
AcDbEntity
8
Geo
100
AcDbLine
10
-70.3056210335448
20
12.5034371447230
30
0.000000000000000
11
-70.2056210335448
21
12.4876564723862
31
0.000000000000000
  0
LINE
  5
F106B5
330
F106B6
100
AcDbEntity
8
Geo
100
AcDbLine
10
-70.2056210335448
20
12.4876564723862
30
0.000000000000000
11
-70.1056210335448
21
12.4714751775263
31
0.000000000000000
  0
LINE
  5
F106B7
330
F106B8
100
AcDbEntity
8
Geo
100
AcDbLine
10
-70.1056210335448
20
12.4714751775263
30
0.000000000000000
11
-70.0056210335448
21
12.4548957656045
31
0.000000000000000
  0
LINE
  5
F106B9
330
F106BA
100
AcDbEntity
8
Geo
100
AcDbLine
10
-70.0056210335448
20
12.4548957656045
30
0.000000000000000
11
-69.9056210335448
21
12.4379208037251
31
0.000000000000000
  0
LINE
  5
F106BB
330
F106BC
100
AcDbEntity
8
Geo
100
AcDbLine
10
-69.9056210335448
20
12.4379208037251
30
0.000000000000000
11
-69.8056210335448
21
12.4205529202381
31
0.000000000000000
  0
LINE
  5
F106BD
330
F106BE
100
AcDbEntity
8
Geo
100
AcDbLine
10
-69.8056210335448
20
12.4205529202381
30
0.000000000000000
11
-69.7056210335448
21
12.4027948043322
31
0.000000000000000
  0
LINE
  5
F106BF
330
F106C0
100
AcDbEntity
8
Geo
100
AcDbLine
10
-69.7056210335448
20
12.4027948043322
30
0.000000000000000
11
-69.6056210335448
21
12.3846492056187
31
0.000000000000000
  0
LINE
  5
F106C1
330
F106C2
100
AcDbEntity
8
Geo
100
AcDbLine
10
-69.6056210335448
20
12.3846492056187
30
0.000000000000000
11
-69.5056210335448
21
12.3661189337052
31
0.000000000000000
  0
LINE
  5
F106C3
330
F106C4
100
AcDbEntity
8
Geo
100
AcDbLine
10
-69.5056210335448
20
12.3661189337052
30
0.000000000000000
11
-69.4056210335448
21
12.3472068577612
31
0.000000000000000
  0
LINE
  5
F106C5
330
F106C6
100
AcDbEntity
8
Geo
100
AcDbLine
10
-69.4056210335448
20
12.3472068577612
30
0.000000000000000
11
-69.3056210335448
21
12.3279159060733
31
0.000000000000000
  0
LINE
  5
F106C7
330
F106C8
100
AcDbEntity
8
Geo
100
AcDbLine
10
-69.3056210335448
20
12.3279159060733
30
0.000000000000000
11
-69.2056210335448
21
12.3082490655921
31
0.000000000000000
  0
LINE
  5
F106C9
330
F106CA
100
AcDbEntity
8
Geo
100
AcDbLine
10
-69.2056210335448
20
12.3082490655921
30
0.000000000000000
11
-69.1056210335448
21
12.2882093814698
31
0.000000000000000
  0
LINE
  5
F106CB
330
F106CC
100
AcDbEntity
8
Geo
100
AcDbLine
10
-69.1056210335448
20
12.2882093814698
30
0.000000000000000
11
-69.0056210335448
21
12.2677999565883
31
0.000000000000000
  0
LINE
  5
F106CD
330
F106CE
100
AcDbEntity
8
Geo
100
AcDbLine
10
-69.0056210335448
20
12.2677999565883
30
0.000000000000000
11
-68.9056210335448
21
12.2470239510793
31
0.000000000000000
  0
LINE
  5
F106CF
330
F106D0
100
AcDbEntity
8
Geo
100
AcDbLine
10
-68.9056210335448
20
12.2470239510793
30
0.000000000000000
11
-68.8056210335448
21
12.2258845818343
31
0.000000000000000
  0
LINE
  5
F106D1
330
F106D2
100
AcDbEntity
8
Geo
100
AcDbLine
10
-68.8056210335448
20
12.2258845818343
30
0.000000000000000
11
-68.7056210335448
21
12.2043851220073
31
0.000000000000000
  0
LINE
  5
F106D3
330
F106D4
100
AcDbEntity
8
Geo
100
AcDbLine
10
-68.7056210335448
20
12.2043851220073
30
0.000000000000000
11
-68.6056210335448
21
12.1825289005074
31
0.000000000000000
  0
LINE
  5
F106D5
330
F106D6
100
AcDbEntity
8
Geo
100
AcDbLine
10
-68.6056210335448
20
12.1825289005074
30
0.000000000000000
11
-68.5056210335448
21
12.1603193014835
31
0.000000000000000
  0
LINE
  5
F106D7
330
F106D8
100
AcDbEntity
8
Geo
100
AcDbLine
10
-68.5056210335448
20
12.1603193014835
30
0.000000000000000
11
-68.4056210335448
21
12.1377597638006
31
0.000000000000000
  0
LINE
  5
F106D9
330
F106DA
100
AcDbEntity
8
Geo
100
AcDbLine
10
-68.4056210335448
20
12.1377597638006
30
0.000000000000000
11
-68.3056210335448
21
12.1148537805069
31
0.000000000000000
  0
LINE
  5
F106DB
330
F106DC
100
AcDbEntity
8
Geo
100
AcDbLine
10
-68.3056210335448
20
12.1148537805069
30
0.000000000000000
11
-68.2056210335448
21
12.0916048982932
31
0.000000000000000
  0
LINE
  5
F106DD
330
F106DE
100
AcDbEntity
8
Geo
100
AcDbLine
10
-68.2056210335448
20
12.0916048982932
30
0.000000000000000
11
-68.1056210335448
21
12.0680167169437
31
0.000000000000000
  0
LINE
  5
F106DF
330
F106E0
100
AcDbEntity
8
Geo
100
AcDbLine
10
-68.1056210335448
20
12.0680167169437
30
0.000000000000000
11
-68.0056210335448
21
12.0440928887787
31
0.000000000000000
  0
LINE
  5
F106E1
330
F106E2
100
AcDbEntity
8
Geo
100
AcDbLine
10
-68.0056210335448
20
12.0440928887787
30
0.000000000000000
11
-67.9056210335448
21
12.0198371180889
31
0.000000000000000
  0
LINE
  5
F106E3
330
F106E4
100
AcDbEntity
8
Geo
100
AcDbLine
10
-67.9056210335448
20
12.0198371180889
30
0.000000000000000
11
-67.8056210335448
21
11.9952531605621
31
0.000000000000000
  0
LINE
  5
F106E5
330
F106E6
100
AcDbEntity
8
Geo
100
AcDbLine
10
-67.8056210335448
20
11.9952531605621
30
0.000000000000000
11
-67.7056210335448
21
11.9703448227012
31
0.000000000000000
  0
LINE
  5
F106E7
330
F106E8
100
AcDbEntity
8
Geo
100
AcDbLine
10
-67.7056210335448
20
11.9703448227012
30
0.000000000000000
11
-67.6056210335448
21
11.9451159612356
31
0.000000000000000
  0
LINE
  5
F106E9
330
F106EA
100
AcDbEntity
8
Geo
100
AcDbLine
10
-67.6056210335448
20
11.9451159612356
30
0.000000000000000
11
-67.5056210335448
21
11.9195704825230
31
0.000000000000000
  0
LINE
  5
F106EB
330
F106EC
100
AcDbEntity
8
Geo
100
AcDbLine
10
-67.5056210335448
20
11.9195704825230
30
0.000000000000000
11
-67.4056210335448
21
11.8937123419457
31
0.000000000000000
  0
LINE
  5
F106ED
330
F106EE
100
AcDbEntity
8
Geo
100
AcDbLine
10
-67.4056210335448
20
11.8937123419457
30
0.000000000000000
11
-67.3056210335448
21
11.8675455432973
31
0.000000000000000
  0
LINE
  5
F106EF
330
F106F0
100
AcDbEntity
8
Geo
100
AcDbLine
10
-67.3056210335448
20
11.8675455432973
30
0.000000000000000
11
-67.2056210335448
21
11.8410741381630
31
0.000000000000000
  0
LINE
  5
F106F1
330
F106F2
100
AcDbEntity
8
Geo
100
AcDbLine
10
-67.2056210335448
20
11.8410741381630
30
0.000000000000000
11
-67.1056210335448
21
11.8143022252923
31
0.000000000000000
  0
LINE
  5
F106F3
330
F106F4
100
AcDbEntity
8
Geo
100
AcDbLine
10
-67.1056210335448
20
11.8143022252923
30
0.000000000000000
11
-67.0056210335448
21
11.7872339499647
31
0.000000000000000
  0
LINE
  5
F106F5
330
F106F6
100
AcDbEntity
8
Geo
100
AcDbLine
10
-67.0056210335448
20
11.7872339499647
30
0.000000000000000
11
-66.9056210335448
21
11.7598735033472
31
0.000000000000000
  0
LINE
  5
F106F7
330
F106F8
100
AcDbEntity
8
Geo
100
AcDbLine
10
-66.9056210335448
20
11.7598735033472
30
0.000000000000000
11
-66.8056210335448
21
11.7322251218457
31
0.000000000000000
  0
LINE
  5
F106F9
330
F106FA
100
AcDbEntity
8
Geo
100
AcDbLine
10
-66.8056210335448
20
11.7322251218457
30
0.000000000000000
11
-66.7056210335448
21
11.7042930864493
31
0.000000000000000
  0
LINE
  5
F106FB
330
F106FC
100
AcDbEntity
8
Geo
100
AcDbLine
10
-66.7056210335448
20
11.7042930864493
30
0.000000000000000
11
-66.6056210335448
21
11.6760817220669
31
0.000000000000000
  0
LINE
  5
F106FD
330
F106FE
100
AcDbEntity
8
Geo
100
AcDbLine
10
-66.6056210335448
20
11.6760817220669
30
0.000000000000000
11
-66.5056210335448
21
11.6475953968579
31
0.000000000000000
  0
LINE
  5
F106FF
330
F10700
100
AcDbEntity
8
Geo
100
AcDbLine
10
-66.5056210335448
20
11.6475953968579
30
0.000000000000000
11
-66.4056210335448
21
11.6188385215560
31
0.000000000000000
  0
LINE
  5
F10701
330
F10702
100
AcDbEntity
8
Geo
100
AcDbLine
10
-66.4056210335448
20
11.6188385215560
30
0.000000000000000
11
-66.3056210335448
21
11.5898155487857
31
0.000000000000000
  0
LINE
  5
F10703
330
F10704
100
AcDbEntity
8
Geo
100
AcDbLine
10
-66.3056210335448
20
11.5898155487857
30
0.000000000000000
11
-66.2056210335448
21
11.5605309723734
31
0.000000000000000
  0
LINE
  5
F10705
330
F10706
100
AcDbEntity
8
Geo
100
AcDbLine
10
-66.2056210335448
20
11.5605309723734
30
0.000000000000000
11
-66.1056210335448
21
11.5309893266513
31
0.000000000000000
  0
LINE
  5
F10707
330
F10708
100
AcDbEntity
8
Geo
100
AcDbLine
10
-66.1056210335448
20
11.5309893266513
30
0.000000000000000
11
-66.0056210335448
21
11.5011951857555
31
0.000000000000000
  0
LINE
  5
F10709
330
F1070A
100
AcDbEntity
8
Geo
100
AcDbLine
10
-66.0056210335448
20
11.5011951857555
30
0.000000000000000
11
-65.9056210335448
21
11.4711531629176
31
0.000000000000000
  0
LINE
  5
F1070B
330
F1070C
100
AcDbEntity
8
Geo
100
AcDbLine
10
-65.9056210335448
20
11.4711531629176
30
0.000000000000000
11
-65.8056210335448
21
11.4408679097504
31
0.000000000000000
  0
LINE
  5
F1070D
330
F1070E
100
AcDbEntity
8
Geo
100
AcDbLine
10
-65.8056210335448
20
11.4408679097504
30
0.000000000000000
11
-65.7056210335448
21
11.4103441155279
31
0.000000000000000
  0
LINE
  5
F1070F
330
F10710
100
AcDbEntity
8
Geo
100
AcDbLine
10
-65.7056210335448
20
11.4103441155279
30
0.000000000000000
11
-65.6056210335448
21
11.3795865064589
31
0.000000000000000
  0
LINE
  5
F10711
330
F10712
100
AcDbEntity
8
Geo
100
AcDbLine
10
-65.6056210335448
20
11.3795865064589
30
0.000000000000000
11
-65.5056210335448
21
11.3485998449553
31
0.000000000000000
  0
LINE
  5
F10713
330
F10714
100
AcDbEntity
8
Geo
100
AcDbLine
10
-65.5056210335448
20
11.3485998449553
30
0.000000000000000
11
-65.4056210335448
21
11.3173889288950
31
0.000000000000000
  0
LINE
  5
F10715
330
F10716
100
AcDbEntity
8
Geo
100
AcDbLine
10
-65.4056210335448
20
11.3173889288950
30
0.000000000000000
11
-65.3056210335449
21
11.2859585908787
31
0.000000000000000
  0
LINE
  5
F10717
330
F10718
100
AcDbEntity
8
Geo
100
AcDbLine
10
-65.3056210335449
20
11.2859585908787
30
0.000000000000000
11
-65.2056210335448
21
11.2543136974815
31
0.000000000000000
  0
LINE
  5
F10719
330
F1071A
100
AcDbEntity
8
Geo
100
AcDbLine
10
-65.2056210335448
20
11.2543136974815
30
0.000000000000000
11
-65.1056210335448
21
11.2224591484998
31
0.000000000000000
  0
LINE
  5
F1071B
330
F1071C
100
AcDbEntity
8
Geo
100
AcDbLine
10
-65.1056210335448
20
11.2224591484998
30
0.000000000000000
11
-65.0056210335449
21
11.1903998761924
31
0.000000000000000
  0
LINE
  5
F1071D
330
F1071E
100
AcDbEntity
8
Geo
100
AcDbLine
10
-65.0056210335449
20
11.1903998761924
30
0.000000000000000
11
-64.9056210335448
21
11.1581408445167
31
0.000000000000000
  0
LINE
  5
F1071F
330
F10720
100
AcDbEntity
8
Geo
100
AcDbLine
10
-64.9056210335448
20
11.1581408445167
30
0.000000000000000
11
-64.8056210335449
21
11.1256870483603
31
0.000000000000000
  0
LINE
  5
F10721
330
F10722
100
AcDbEntity
8
Geo
100
AcDbLine
10
-64.8056210335449
20
11.1256870483603
30
0.000000000000000
11
-64.7056210335448
21
11.0930435127676
31
0.000000000000000
  0
LINE
  5
F10723
330
F10724
100
AcDbEntity
8
Geo
100
AcDbLine
10
-64.7056210335448
20
11.0930435127676
30
0.000000000000000
11
-64.6056210335448
21
11.0602152921614
31
0.000000000000000
  0
LINE
  5
F10725
330
F10726
100
AcDbEntity
8
Geo
100
AcDbLine
10
-64.6056210335448
20
11.0602152921614
30
0.000000000000000
11
-64.5056210335449
21
11.0272074695609
31
0.000000000000000
  0
LINE
  5
F10727
330
F10728
100
AcDbEntity
8
Geo
100
AcDbLine
10
-64.5056210335449
20
11.0272074695609
30
0.000000000000000
11
-64.4056210335448
21
10.9940251557940
31
0.000000000000000
  0
LINE
  5
F10729
330
F1072A
100
AcDbEntity
8
Geo
100
AcDbLine
10
-64.4056210335448
20
10.9940251557940
30
0.000000000000000
11
-64.3056210335449
21
10.9606734887065
31
0.000000000000000
  0
LINE
  5
F1072B
330
F1072C
100
AcDbEntity
8
Geo
100
AcDbLine
10
-64.3056210335449
20
10.9606734887065
30
0.000000000000000
11
-64.2056210335448
21
10.9271576323662
31
0.000000000000000
  0
LINE
  5
F1072D
330
F1072E
100
AcDbEntity
8
Geo
100
AcDbLine
10
-64.2056210335448
20
10.9271576323662
30
0.000000000000000
11
-64.1056210335448
21
10.8934827762635
31
0.000000000000000
  0
LINE
  5
F1072F
330
F10730
100
AcDbEntity
8
Geo
100
AcDbLine
10
-64.1056210335448
20
10.8934827762635
30
0.000000000000000
11
-64.0056210335449
21
10.8596541345078
31
0.000000000000000
  0
LINE
  5
F10731
330
F10732
100
AcDbEntity
8
Geo
100
AcDbLine
10
-64.0056210335449
20
10.8596541345078
30
0.000000000000000
11
-63.9056210335449
21
10.8256769450201
31
0.000000000000000
  0
LINE
  5
F10733
330
F10734
100
AcDbEntity
8
Geo
100
AcDbLine
10
-63.9056210335449
20
10.8256769450201
30
0.000000000000000
11
-63.8056210335449
21
10.7915564687224
31
0.000000000000000
  0
LINE
  5
F10735
330
F10736
100
AcDbEntity
8
Geo
100
AcDbLine
10
-63.8056210335449
20
10.7915564687224
30
0.000000000000000
11
-63.7056210335449
21
10.7572979887224
31
0.000000000000000
  0
LINE
  5
F10737
330
F10738
100
AcDbEntity
8
Geo
100
AcDbLine
10
-63.7056210335449
20
10.7572979887224
30
0.000000000000000
11
-63.6056210335448
21
10.7229068094960
31
0.000000000000000
  0
LINE
  5
F10739
330
F1073A
100
AcDbEntity
8
Geo
100
AcDbLine
10
-63.6056210335448
20
10.7229068094960
30
0.000000000000000
11
-63.5056210335449
21
10.6883882560659
31
0.000000000000000
  0
LINE
  5
F1073B
330
F1073C
100
AcDbEntity
8
Geo
100
AcDbLine
10
-63.5056210335449
20
10.6883882560659
30
0.000000000000000
11
-63.4056210335449
21
10.6537476731770
31
0.000000000000000
  0
LINE
  5
F1073D
330
F1073E
100
AcDbEntity
8
Geo
100
AcDbLine
10
-63.4056210335449
20
10.6537476731770
30
0.000000000000000
11
-63.3056210335449
21
10.6189904244688
31
0.000000000000000
  0
LINE
  5
F1073F
330
F10740
100
AcDbEntity
8
Geo
100
AcDbLine
10
-63.3056210335449
20
10.6189904244688
30
0.000000000000000
11
-63.2056210335449
21
10.5841218916450
31
0.000000000000000
  0
LINE
  5
F10741
330
F10742
100
AcDbEntity
8
Geo
100
AcDbLine
10
-63.2056210335449
20
10.5841218916450
30
0.000000000000000
11
-63.1056210335449
21
10.5491474736401
31
0.000000000000000
  0
LINE
  5
F10743
330
F10744
100
AcDbEntity
8
Geo
100
AcDbLine
10
-63.1056210335449
20
10.5491474736401
30
0.000000000000000
11
-63.0056210335449
21
10.5140725857838
31
0.000000000000000
  0
LINE
  5
F10745
330
F10746
100
AcDbEntity
8
Geo
100
AcDbLine
10
-63.0056210335449
20
10.5140725857838
30
0.000000000000000
11
-62.9056210335449
21
10.4789026589619
31
0.000000000000000
  0
LINE
  5
F10747
330
F10748
100
AcDbEntity
8
Geo
100
AcDbLine
10
-62.9056210335449
20
10.4789026589619
30
0.000000000000000
11
-62.8056210335449
21
10.4436431387759
31
0.000000000000000
  0
LINE
  5
F10749
330
F1074A
100
AcDbEntity
8
Geo
100
AcDbLine
10
-62.8056210335449
20
10.4436431387759
30
0.000000000000000
11
-62.7056210335449
21
10.4082994846998
31
0.000000000000000
  0
LINE
  5
F1074B
330
F1074C
100
AcDbEntity
8
Geo
100
AcDbLine
10
-62.7056210335449
20
10.4082994846998
30
0.000000000000000
11
-62.6056210335449
21
10.3728771692343
31
0.000000000000000
  0
LINE
  5
F1074D
330
F1074E
100
AcDbEntity
8
Geo
100
AcDbLine
10
-62.6056210335449
20
10.3728771692343
30
0.000000000000000
11
-62.5056210335449
21
10.3373816770600
31
0.000000000000000
  0
LINE
  5
F1074F
330
F10750
100
AcDbEntity
8
Geo
100
AcDbLine
10
-62.5056210335449
20
10.3373816770600
30
0.000000000000000
11
-62.4056210335449
21
10.3018185041879
31
0.000000000000000
  0
LINE
  5
F10751
330
F10752
100
AcDbEntity
8
Geo
100
AcDbLine
10
-62.4056210335449
20
10.3018185041879
30
0.000000000000000
11
-62.3056210335449
21
10.2661931571086
31
0.000000000000000
  0
LINE
  5
F10753
330
F10754
100
AcDbEntity
8
Geo
100
AcDbLine
10
-62.3056210335449
20
10.2661931571086
30
0.000000000000000
11
-62.2056210335449
21
10.2305111519393
31
0.000000000000000
  0
LINE
  5
F10755
330
F10756
100
AcDbEntity
8
Geo
100
AcDbLine
10
-62.2056210335449
20
10.2305111519393
30
0.000000000000000
11
-62.1056210335449
21
10.1947780135702
31
0.000000000000000
  0
LINE
  5
F10757
330
F10758
100
AcDbEntity
8
Geo
100
AcDbLine
10
86.8943789664552
20
12.4002719854942
30
0.000000000000000
11
86.8943789664552
21
9.90027198549416
31
0.000000000000000
  0
LINE
  5
F10759
330
F1075A
100
AcDbEntity
8
Geo
100
AcDbLine
10
-73.1056210335448
20
9.90027198549416
30
0.000000000000000
11
-73.1056210335448
21
7.27527198549416
31
0.000000000000000
  0
ARC
  5
F1075B
330
F1075C
100
AcDbEntity
8
Geo
100
AcDbCircle
10
-72.8056210335448
20
7.27527198549416
30
0.000000000000000
 40
0.300000000000000
100
AcDbArc
 50
180.000000000000
 51
270.000000000000
  0
LINE
  5
F1075D
330
F1075E
100
AcDbEntity
8
Geo
100
AcDbLine
10
-72.8056210335448
20
6.97527198549416
30
0.000000000000000
11
-57.1056210335448
21
6.97527198549416
31
0.000000000000000
  0
LINE
  5
F1075F
330
F10760
100
AcDbEntity
8
Geo
100
AcDbLine
10
-57.1056210335448
20
6.97527198549416
30
0.000000000000000
11
-57.1056210335448
21
7.20027198549416
31
0.000000000000000
  0
LINE
  5
F10761
330
F10762
100
AcDbEntity
8
Geo
100
AcDbLine
10
-57.1056210335448
20
7.20027198549416
30
0.000000000000000
11
6.89437896645516
21
7.20027198549416
31
0.000000000000000
  0
LINE
  5
F10763
330
F10764
100
AcDbEntity
8
Geo
100
AcDbLine
10
6.89437896645516
20
7.20027198549416
30
0.000000000000000
11
8.29437896645517
21
6.90027198549416
31
0.000000000000000
  0
LINE
  5
F10765
330
F10766
100
AcDbEntity
8
Geo
100
AcDbLine
10
8.29437896645517
20
6.90027198549416
30
0.000000000000000
11
85.8943789664552
21
6.90027198549416
31
0.000000000000000
  0
LINE
  5
F10767
330
F10768
100
AcDbEntity
8
Geo
100
AcDbLine
10
85.8943789664552
20
6.90027198549416
30
0.000000000000000
11
86.8943789664552
21
7.40027198549416
31
0.000000000000000
  0
LINE
  5
F10769
330
F1076A
100
AcDbEntity
8
Geo
100
AcDbLine
10
-72.8056210335448
20
12.8252719854942
30
0.000000000000000
11
-72.8056210335448
21
6.97527198549416
31
0.000000000000000
  0
LINE
  5
F1076B
330
F1076C
100
AcDbEntity
8
Geo
100
AcDbLine
10
-72.8056210335448
20
12.8252719854942
30
0.000000000000000
11
-72.8056210335448
21
6.97527198549416
31
0.000000000000000
  0
LINE
  5
F1076D
330
F1076E
100
AcDbEntity
8
Geo
100
AcDbLine
10
-57.1056210335448
20
12.8252719854942
30
0.000000000000000
11
-57.1056210335448
21
6.97527198549416
31
0.000000000000000
  0
LINE
  5
F1076F
330
F10770
100
AcDbEntity
8
Geo
100
AcDbLine
10
-57.1056210335448
20
12.6002719854942
30
0.000000000000000
11
-57.1056210335448
21
7.20027198549416
31
0.000000000000000
  0
LINE
  5
F10771
330
F10772
100
AcDbEntity
8
Geo
100
AcDbLine
10
6.89437896645516
20
12.6002719854942
30
0.000000000000000
11
6.89437896645516
21
7.20027198549416
31
0.000000000000000
  0
LINE
  5
F10773
330
F10774
100
AcDbEntity
8
Geo
100
AcDbLine
10
8.29437896645517
20
12.9002719854942
30
0.000000000000000
11
8.29437896645517
21
6.90027198549416
31
0.000000000000000
  0
LINE
  5
F10775
330
F10776
100
AcDbEntity
8
Geo
100
AcDbLine
10
8.29437896645517
20
12.9002719854942
30
0.000000000000000
11
8.29437896645517
21
6.90027198549416
31
0.000000000000000
  0
LINE
  5
F10777
330
F10778
100
AcDbEntity
8
Geo
100
AcDbLine
10
85.8943789664552
20
12.9002719854942
30
0.000000000000000
11
85.8943789664552
21
6.90027198549416
31
0.000000000000000
  0
LINE
  5
F10779
330
F1077A
100
AcDbEntity
8
Geo
100
AcDbLine
10
86.8943789664552
20
12.4002719854942
30
0.000000000000000
11
86.8943789664552
21
7.40027198549416
31
0.000000000000000
  0
LINE
  5
F1077B
330
F1077C
100
AcDbEntity
8
Geo
 6
Dashdot
100
AcDbLine
10
-73.1056210335448
20
9.90027198549416
30
0.000000000000000
11
86.8943789664552
21
9.90027198549416
31
0.000000000000000
  0
LWPOLYLINE
  5
F1077D
330
F1077E
100
AcDbEntity
8
Rahmen
100
AcDbPolyline
90
   4
70
   1
43
   0.0
 10
-134.605621033545
 20
99.8594741613781
 10
143.363553943790
 20
99.8594741613781
 10
143.363553943790
 20
-100.049864007253
 10
-134.605621033545
 20
-100.049864007253
  0
TEXT
  5
F1077F
330
F10780
 100
AcDbEntity
8
Text
100
AcDbText
10
-133.653671804170
20
-99.5498640072529
30
0.000000000000000
40
1.00000000000000
1
ISBESketcher - ©ISBE GmbH      lizensiert für: Schmid Werkzeuge
100
AcDbText
  0
LWPOLYLINE
  5
F10781
330
F10782
100
AcDbEntity
8
Rahmen
100
AcDbPolyline
90
   4
70
   1
43
   0.0
 10
103.381686310063
 20
-97.0036264732547
 10
143.363553943790
 20
-97.0036264732547
 10
143.363553943790
 20
-100.049864007253
 10
103.381686310063
 20
-100.049864007253
  0
TEXT
  5
F10783
330
F10784
 100
AcDbEntity
8
Text
100
AcDbText
10
104.500000000000
20
-99.5231187669991
30
0.000000000000000
40
1.50000000000000
1
Ers. durch:
100
AcDbText
  0
TEXT
  5
F10785
330
F10786
 100
AcDbEntity
8
Text
100
AcDbText
10
0.000000000000000
20
0.500000000000000
30
0.000000000000000
40
1.50000000000000
1

100
AcDbText
  0
LWPOLYLINE
  5
F10787
330
F10788
100
AcDbEntity
8
Rahmen
100
AcDbPolyline
90
   4
70
   1
43
   0.0
 10
63.3998186763373
 20
-97.0036264732547
 10
103.381686310063
 20
-97.0036264732547
 10
103.381686310063
 20
-100.049864007253
 10
63.3998186763373
 20
-100.049864007253
  0
TEXT
  5
F10789
330
F1078A
 100
AcDbEntity
8
Text
100
AcDbText
10
64.5000000000000
20
-99.5231187669991
30
0.000000000000000
40
1.50000000000000
1
Ers. für:
100
AcDbText
  0
TEXT
  5
F1078B
330
F1078C
 100
AcDbEntity
8
Text
100
AcDbText
10
0.000000000000000
20
0.500000000000000
30
0.000000000000000
40
1.50000000000000
1

100
AcDbText
  0
LWPOLYLINE
  5
F1078D
330
F1078E
100
AcDbEntity
8
Rahmen
100
AcDbPolyline
90
   4
70
   1
43
   0.0
 10
130.036264732548
 20
-94.1477787851314
 10
143.363553943790
 20
-94.1477787851314
 10
143.363553943790
 20
-97.0036264732547
 10
130.036264732548
 20
-97.0036264732547
  0
TEXT
  5
F1078F
330
F10790
 100
AcDbEntity
8
Text
100
AcDbText
10
131.166666666667
20
-96.5231187669991
30
0.000000000000000
40
1.50000000000000
1
Blätter
100
AcDbText
  0
TEXT
  5
F10791
330
F10792
 100
AcDbEntity
8
Text
100
AcDbText
10
0.000000000000000
20
0.500000000000000
30
0.000000000000000
40
1.50000000000000
1

100
AcDbText
  0
LWPOLYLINE
  5
F10793
330
F10794
100
AcDbEntity
8
Rahmen
100
AcDbPolyline
90
   4
70
   1
43
   0.0
 10
130.036264732548
 20
-91.1015412511333
 10
143.363553943790
 20
-91.1015412511333
 10
143.363553943790
 20
-94.1477787851314
 10
130.036264732548
 20
-94.1477787851314
  0
TEXT
  5
F10795
330
F10796
 100
AcDbEntity
8
Text
100
AcDbText
10
131.166666666667
20
-93.5231187669991
30
0.000000000000000
40
1.50000000000000
1
Blatt
100
AcDbText
  0
TEXT
  5
F10797
330
F10798
 100
AcDbEntity
8
Text
100
AcDbText
10
0.000000000000000
20
0.500000000000000
30
0.000000000000000
40
1.50000000000000
1

100
AcDbText
  0
LWPOLYLINE
  5
F10799
330
F1079A
100
AcDbEntity
8
Rahmen
100
AcDbPolyline
90
   4
70
   1
43
   0.0
 10
63.3998186763373
 20
-91.1015412511333
 10
130.036264732548
 20
-91.1015412511333
 10
130.036264732548
 20
-97.0036264732547
 10
63.3998186763373
 20
-97.0036264732547
  0
TEXT
  5
F1079B
330
F1079C
 100
AcDbEntity
8
Text
100
AcDbText
10
64.5000000000000
20
-93.5231187669991
30
0.000000000000000
40
1.50000000000000
1
Datum:
100
AcDbText
  0
TEXT
  5
F1079D
330
F1079E
 100
AcDbEntity
8
Text
100
AcDbText
10
90.6456633423995
20
-96.5231187669991
30
0.000000000000000
40
1.50000000000000
1
10.02.2021
100
AcDbText
  0
LWPOLYLINE
  5
F1079F
330
F107A0
100
AcDbEntity
8
Rahmen
100
AcDbPolyline
90
   4
70
   1
43
   0.0
 10
63.3998186763373
 20
-85.0090661831369
 10
143.363553943790
 20
-85.0090661831369
 10
143.363553943790
 20
-91.1015412511333
 10
63.3998186763373
 20
-91.1015412511333
  0
TEXT
  5
F107A1
330
F107A2
 100
AcDbEntity
8
Text
100
AcDbText
10
0.000000000000000
20
0.500000000000000
30
0.000000000000000
40
1.50000000000000
1

100
AcDbText
  0
TEXT
  5
F107A3
330
F107A4
 100
AcDbEntity
8
Text
100
AcDbText
10
67.4211242067090
20
-89.6417346630402
30
0.000000000000000
40
2.50000000000000
1
VHM-Hartstechwerkzeug 0245-058-b
100
AcDbText
  0
LWPOLYLINE
  5
F107A5
330
F107A6
100
AcDbEntity
8
Rahmen
100
AcDbPolyline
90
   4
70
   1
43
   0.0
 10
103.381686310063
 20
-79.1069809610154
 10
143.363553943790
 20
-79.1069809610154
 10
143.363553943790
 20
-85.0090661831369
 10
103.381686310063
 20
-85.0090661831369
  0
TEXT
  5
F107A7
330
F107A8
 100
AcDbEntity
8
Text
100
AcDbText
10
104.500000000000
20
-81.5231187669991
30
0.000000000000000
40
1.50000000000000
1
Zu bearb. Material:
100
AcDbText
  0
TEXT
  5
F107A9
330
F107AA
 100
AcDbEntity
8
Text
100
AcDbText
10
0.000000000000000
20
0.500000000000000
30
0.000000000000000
40
1.50000000000000
1

100
AcDbText
  0
LWPOLYLINE
  5
F107AB
330
F107AC
100
AcDbEntity
8
Rahmen
100
AcDbPolyline
90
   4
70
   1
43
   0.0
 10
63.3998186763373
 20
-79.1069809610154
 10
103.381686310063
 20
-79.1069809610154
 10
103.381686310063
 20
-85.0090661831369
 10
63.3998186763373
 20
-85.0090661831369
  0
TEXT
  5
F107AD
330
F107AE
 100
AcDbEntity
8
Text
100
AcDbText
10
64.5000000000000
20
-81.5231187669991
30
0.000000000000000
40
1.50000000000000
1
Werkstoff:
100
AcDbText
  0
TEXT
  5
F107AF
330
F107B0
 100
AcDbEntity
8
Text
100
AcDbText
10
80.6441523118767
20
-84.5231187669991
30
0.000000000000000
40
1.50000000000000
1
VHM
100
AcDbText
  0
LWPOLYLINE
  5
F107B1
330
F107B2
100
AcDbEntity
8
Rahmen
100
AcDbPolyline
90
   4
70
   1
43
   0.0
 10
103.381686310063
 20
-76.0607434270172
 10
143.363553943790
 20
-76.0607434270172
 10
143.363553943790
 20
-79.1069809610154
 10
103.381686310063
 20
-79.1069809610154
  0
TEXT
  5
F107B3
330
F107B4
 100
AcDbEntity
8
Text
100
AcDbText
10
0.000000000000000
20
0.500000000000000
30
0.000000000000000
40
1.50000000000000
1

100
AcDbText
  0
TEXT
  5
F107B5
330
F107B6
 100
AcDbEntity
8
Text
100
AcDbText
10
0.000000000000000
20
0.500000000000000
30
0.000000000000000
40
1.50000000000000
1

100
AcDbText
  0
LWPOLYLINE
  5
F107B7
330
F107B8
100
AcDbEntity
8
Rahmen
100
AcDbPolyline
90
   4
70
   1
43
   0.0
 10
63.3998186763373
 20
-76.0607434270172
 10
103.381686310063
 20
-76.0607434270172
 10
103.381686310063
 20
-79.1069809610154
 10
63.3998186763373
 20
-79.1069809610154
  0
TEXT
  5
F107B9
330
F107BA
 100
AcDbEntity
8
Text
100
AcDbText
10
64.5000000000000
20
-78.5231187669991
30
0.000000000000000
40
1.50000000000000
1
Maßstab:
100
AcDbText
  0
TEXT
  5
F107BB
330
F107BC
 100
AcDbEntity
8
Text
100
AcDbText
10
88.9297370806890
20
-78.5231187669991
30
0.000000000000000
40
1.50000000000000
1
1 : 1
100
AcDbText
0
VIEWPORT
5
294
102
{ACAD_XDICTIONARY
360
58A
102
}
330
25D
100
AcDbEntity
67
1
8
0
60
1
100
AcDbViewport
10
0.0
20
0.0
30
0.0
40
10.0
41
10.0
68
-1
69
1
12
0.0
22
0.0
13
0.0
23
0.0
14
1.0
24
1.0
15
0.0
25
0.0
16
0.0
26
0.0
36
1.0
17
0.0
27
0.0
37
0.0
42
0.0
43
0.0
44
0.0
45
10.0
50
0.0
51
0.0000000000007958
72
100
90
32800
1

281
0
71
0
74
0
110
0.0
120
0.0
130
0.0
111
1.0
121
0.0
131
0.0
112
0.0
122
1.0
132
0.0
79
0
146
0.0
1001
VD_INVISIBLE_NOT_FOR_READ
1000
VD_INVISIBLE_NOT_FOR_READ
0
VIEWPORT
5
295
102
{ACAD_XDICTIONARY
360
58C
102
}
330
25D
100
AcDbEntity
67
1
8
0
60
1
100
AcDbViewport
10
0.0
20
0.0
30
0.0
40
10.0
41
10.0
68
0
69
2
12
0.0
22
0.0
13
0.0
23
0.0
14
1.0
24
1.0
15
0.0
25
0.0
16
0.0
26
0.0
36
1.0
17
0.0
27
0.0
37
0.0
42
0.0
43
0.0
44
0.0
45
10.0
50
0.0
51
0.0000000000007958
72
100
90
163872
1

281
0
71
0
74
0
110
0.0
120
0.0
130
0.0
111
1.0
121
0.0
131
0.0
112
0.0
122
1.0
132
0.0
79
0
146
0.0
1001
VD_INVISIBLE_NOT_FOR_READ
1000
VD_INVISIBLE_NOT_FOR_READ
0
ENDSEC
0
SECTION
2
OBJECTS
0
DICTIONARY
5
13
330
0
100
AcDbDictionary
281
1
3
ACAD_COLOR
350
FA7
3
ACAD_GROUP
350
14
3
ACAD_LAYOUT
350
FCF
3
ACAD_MATERIAL
350
F7A
3
ACAD_MLEADERSTYLE
350
FCD
3
ACAD_MLINESTYLE
350
16
3
ACAD_PLOTSETTINGS
350
17
3
ACAD_PLOTSTYLENAME
350
18
3
ACAD_SCALELIST
350
FAB
3
ACAD_TABLESTYLE
350
FA8
3
ACAD_VISUALSTYLE
350
F93
3
ACDB_RECOMPOSE_DATA
350
107E
3
AcDbVariableDictionary
350
FF0
3
DWGPROPS
350
107F
0
DICTIONARY
5
F10014
330
F10013
100
AcDbDictionary
280
1
281
1
3
ACAD_MTEXT_2008_RT
360
F10015
0
DICTIONARY
5
F10019
330
F10018
100
AcDbDictionary
280
1
281
1
3
ACAD_MTEXT_2008_RT
360
F1001A
0
DICTIONARY
5
F10023
330
F10022
100
AcDbDictionary
280
1
281
1
3
ACAD_MTEXT_2008_RT
360
F10024
0
DICTIONARY
5
F10028
330
F10027
100
AcDbDictionary
280
1
281
1
3
ACAD_MTEXT_2008_RT
360
F10029
0
DICTIONARY
5
F1000A
330
F10009
100
AcDbDictionary
280
1
281
1
3
ACAD_MTEXT_2008_RT
360
F1000B
0
DICTIONARY
5
F10005
330
F10004
100
AcDbDictionary
280
1
281
1
3
ACAD_MTEXT_2008_RT
360
F10006
0
DICTIONARY
5
F1000F
330
F1000E
100
AcDbDictionary
280
1
281
1
3
ACAD_MTEXT_2008_RT
360
F10010
0
DICTIONARY
5
F1001E
330
F1001D
100
AcDbDictionary
280
1
281
1
3
ACAD_MTEXT_2008_RT
360
F1001F
0
DICTIONARY
5
FA7
102
{ACAD_REACTORS
330
13
102
}
330
13
100
AcDbDictionary
281
1
0
DICTIONARY
5
14
330
13
100
AcDbDictionary
281
1
0
DICTIONARY
5
FCF
102
{ACAD_REACTORS
330
13
102
}
330
13
100
AcDbDictionary
281
1
3
Layout1
350
FD1
3
Model
350
FD0
0
DICTIONARY
5
F7A
102
{ACAD_REACTORS
330
13
102
}
330
13
100
AcDbDictionary
281
1
3
ByBlock
350
F83
3
ByLayer
350
F7B
3
Global
350
F8B
0
DICTIONARY
5
FCD
102
{ACAD_REACTORS
330
13
102
}
330
13
100
AcDbDictionary
281
1
3
Standard
350
FCE
0
DICTIONARY
5
16
330
13
100
AcDbDictionary
281
1
3
Standard
350
FAA
0
DICTIONARY
5
17
102
{ACAD_REACTORS
330
13
102
}
330
13
100
AcDbDictionary
281
1
0
ACDBDICTIONARYWDFLT
5
18
102
{ACAD_REACTORS
330
13
102
}
330
13
100
AcDbDictionary
281
1
3
Normal
350
19
100
AcDbDictionaryWithDefault
340
19
0
DICTIONARY
5
FAB
102
{ACAD_REACTORS
330
13
102
}
330
13
100
AcDbDictionary
281
1
3
A0
350
FAC
3
A1
350
FAD
3
A2
350
FAE
3
A3
350
FAF
3
A4
350
FB0
3
A5
350
FB1
3
A6
350
FB2
3
A7
350
FB3
3
A8
350
FB4
3
A9
350
FB5
3
B0
350
FB6
3
B1
350
FB7
3
B2
350
FB8
3
B3
350
FB9
3
B4
350
FBA
3
B5
350
FBB
3
B6
350
FBC
3
B7
350
FBD
3
B8
350
FBE
3
B9
350
FBF
3
C0
350
FC0
3
C1
350
FC1
3
C2
350
FC2
3
C3
350
FC3
3
C4
350
FC4
3
C5
350
FC5
3
C6
350
FC6
3
C7
350
FC7
3
C8
350
FC8
3
C9
350
FC9
3
D0
350
FCA
3
D1
350
FCB
3
D2
350
FCC
0
DICTIONARY
5
FA8
102
{ACAD_REACTORS
330
13
102
}
330
13
100
AcDbDictionary
281
1
3
Standard
350
FA9
0
DICTIONARY
5
F93
102
{ACAD_REACTORS
330
13
102
}
330
13
100
AcDbDictionary
281
1
3
2dWireframe
350
F99
3
3D Hidden
350
F9B
3
3dWireframe
350
F9A
3
Basic
350
F98
3
Brighten
350
F9F
3
ColorChange
350
FA3
3
Conceptual
350
F9C
3
Dim
350
F9E
3
EdgeColorOff
350
FA6
3
Facepattern
350
FA2
3
Flat
350
F94
3
FlatWithEdges
350
F95
3
Gouraud
350
F96
3
GouraudWithEdges
350
F97
3
JitterOff
350
FA4
3
Linepattern
350
FA1
3
OverhangOff
350
FA5
3
Realistic
350
F9D
3
Thicken
350
FA0
0
XRECORD
5
107E
102
{ACAD_REACTORS
330
13
102
}
330
13
100
AcDbXrecord
280
1
90
1
330
FA9
330
F10013
330
F10018
330
F10022
330
F10027
330
F10009
330
F10004
330
F1000E
330
F1001D
0
DICTIONARY
5
FF0
102
{ACAD_REACTORS
330
13
102
}
330
13
100
AcDbDictionary
281
1
3
CANNOSCALE
350
FF3
3
CMLEADERSTYLE
350
FF2
3
CTABLESTYLE
350
FF1
3
DIMASSOC
350
FF6
3
INDEXCTL
350
FF5
3
SORTENTS
350
FF4
3
XCLIPFRAME
350
1078
0
XRECORD
5
107F
102
{ACAD_REACTORS
330
13
102
}
330
13
100
AcDbXrecord
280
1
1
DWGPROPS COOKIE
2

3

4

6

7

8

9

300
=
301
=
302
=
303
=
304
=
305
=
306
=
307
=
308
=
309
=
40
0.0
41
0.0
42
0.0
1

90
0
0
XRECORD
5
F10015
102
{ACAD_REACTORS
330
F10014
102
}
330
F10014
100
AcDbXrecord
280
1
40
48458.0
1
80
0
XRECORD
5
F1001A
102
{ACAD_REACTORS
330
F10019
102
}
330
F10019
100
AcDbXrecord
280
1
40
48458.0
1
81.4
0
XRECORD
5
F10024
102
{ACAD_REACTORS
330
F10023
102
}
330
F10023
100
AcDbXrecord
280
1
40
48458.0
1
16
0
XRECORD
5
F10029
102
{ACAD_REACTORS
330
F10028
102
}
330
F10028
100
AcDbXrecord
280
1
40
48458.0
1
160
0
XRECORD
5
F1000B
102
{ACAD_REACTORS
330
F1000A
102
}
330
F1000A
100
AcDbXrecord
280
1
40
48458.0
1
R0.3
0
XRECORD
5
F10006
102
{ACAD_REACTORS
330
F10005
102
}
330
F10005
100
AcDbXrecord
280
1
40
48458.0
1
Ø5.85
0
XRECORD
5
F10010
102
{ACAD_REACTORS
330
F1000F
102
}
330
F1000F
100
AcDbXrecord
280
1
40
48458.0
1
Ø5.4
0
XRECORD
5
F1001F
102
{ACAD_REACTORS
330
F1001E
102
}
330
F1001E
100
AcDbXrecord
280
1
40
48458.0
1
Ø6
0
LAYOUT
5
FD1
102
{ACAD_XDICTIONARY
360
10A9
102
}
102
{ACAD_REACTORS
330
FCF
102
}
330
FCF
100
AcDbPlotSettings
1

2
Microsoft XPS Document Writer
4

6

40
0.0
41
0.0
42
0.0
43
0.0
44
0.0
45
0.0
46
0.0
47
0.0
48
0.0
49
0.0
140
0.0
141
0.0
142
1.0
143
1.0
70
688
72
0
73
0
74
5
7

75
16
147
1.0
148
0.0
149
0.0
100
AcDbLayout
1
Layout1
70
1
71
1
10
0.0
20
0.0
11
12.0
21
9.0
12
0.0
22
0.0
32
0.0
14
1.000000000000000E+20
24
1.000000000000000E+20
34
1.000000000000000E+20
15
-1.000000000000000E+20
25
-1.000000000000000E+20
35
-1.000000000000000E+20
146
0.0
13
0.0
23
0.0
33
0.0
16
1.0
26
0.0
36
0.0
17
0.0
27
1.0
37
0.0
76
0
330
25D
0
LAYOUT
5
FD0
102
{ACAD_XDICTIONARY
360
10A7
102
}
102
{ACAD_REACTORS
330
FCF
102
}
330
FCF
100
AcDbPlotSettings
1

2
Microsoft XPS Document Writer
4

6

40
0.0
41
0.0
42
0.0
43
0.0
44
0.0
45
0.0
46
0.0
47
0.0
48
0.0
49
0.0
140
0.0
141
0.0
142
1.0
143
1.0
70
1712
72
0
73
0
74
0
7

75
0
147
1.0
148
0.0
149
0.0
100
AcDbLayout
1
Model
70
1
71
0
10
0.0
20
0.0
11
12.0
21
9.0
12
0.0
22
0.0
32
0.0
14
0.0
24
0.0
34
0.0
15
0.0
25
0.0
35
0.0
146
0.0
13
0.0
23
0.0
33
0.0
16
1.0
26
0.0
36
0.0
17
0.0
27
1.0
37
0.0
76
0
330
261
331
26B
0
MATERIAL
5
F83
102
{ACAD_XDICTIONARY
360
F84
102
}
102
{ACAD_REACTORS
330
F7A
102
}
330
F7A
100
AcDbMaterial
1
ByBlock
72
0
43
0.0208333333333333
43
0.0
43
0.0
43
0.0
43
0.0
43
0.0208333333333333
43
0.0
43
0.0
43
0.0
43
0.0
43
1.0
43
0.0
43
0.0
43
0.0
43
0.0
43
1.0
77
0
47
0.0208333333333333
47
0.0
47
0.0
47
0.0
47
0.0
47
0.0208333333333333
47
0.0
47
0.0
47
0.0
47
0.0
47
1.0
47
0.0
47
0.0
47
0.0
47
0.0
47
1.0
171
0
49
0.0208333333333333
49
0.0
49
0.0
49
0.0
49
0.0
49
0.0208333333333333
49
0.0
49
0.0
49
0.0
49
0.0
49
1.0
49
0.0
49
0.0
49
0.0
49
0.0
49
1.0
175
0
142
0.0208333333333333
142
0.0
142
0.0
142
0.0
142
0.0
142
0.0208333333333333
142
0.0
142
0.0
142
0.0
142
0.0
142
1.0
142
0.0
142
0.0
142
0.0
142
0.0
142
1.0
179
0
144
0.0208333333333333
144
0.0
144
0.0
144
0.0
144
0.0
144
0.0208333333333333
144
0.0
144
0.0
144
0.0
144
0.0
144
1.0
144
0.0
144
0.0
144
0.0
144
0.0
144
1.0
147
0.0208333333333333
147
0.0
147
0.0
147
0.0
147
0.0
147
0.0208333333333333
147
0.0
147
0.0
147
0.0
147
0.0
147
1.0
147
0.0
147
0.0
147
0.0
147
0.0
147
1.0
0
MATERIAL
5
F7B
102
{ACAD_XDICTIONARY
360
F7C
102
}
102
{ACAD_REACTORS
330
F7A
102
}
330
F7A
100
AcDbMaterial
1
ByLayer
72
0
43
0.0208333333333333
43
0.0
43
0.0
43
0.0
43
0.0
43
0.0208333333333333
43
0.0
43
0.0
43
0.0
43
0.0
43
1.0
43
0.0
43
0.0
43
0.0
43
0.0
43
1.0
77
0
47
0.0208333333333333
47
0.0
47
0.0
47
0.0
47
0.0
47
0.0208333333333333
47
0.0
47
0.0
47
0.0
47
0.0
47
1.0
47
0.0
47
0.0
47
0.0
47
0.0
47
1.0
171
0
49
0.0208333333333333
49
0.0
49
0.0
49
0.0
49
0.0
49
0.0208333333333333
49
0.0
49
0.0
49
0.0
49
0.0
49
1.0
49
0.0
49
0.0
49
0.0
49
0.0
49
1.0
175
0
142
0.0208333333333333
142
0.0
142
0.0
142
0.0
142
0.0
142
0.0208333333333333
142
0.0
142
0.0
142
0.0
142
0.0
142
1.0
142
0.0
142
0.0
142
0.0
142
0.0
142
1.0
179
0
144
0.0208333333333333
144
0.0
144
0.0
144
0.0
144
0.0
144
0.0208333333333333
144
0.0
144
0.0
144
0.0
144
0.0
144
1.0
144
0.0
144
0.0
144
0.0
144
0.0
144
1.0
147
0.0208333333333333
147
0.0
147
0.0
147
0.0
147
0.0
147
0.0208333333333333
147
0.0
147
0.0
147
0.0
147
0.0
147
1.0
147
0.0
147
0.0
147
0.0
147
0.0
147
1.0
0
MATERIAL
5
F8B
102
{ACAD_XDICTIONARY
360
F8C
102
}
102
{ACAD_REACTORS
330
F7A
102
}
330
F7A
100
AcDbMaterial
1
Global
72
0
43
0.0208333333333333
43
0.0
43
0.0
43
0.0
43
0.0
43
0.0208333333333333
43
0.0
43
0.0
43
0.0
43
0.0
43
1.0
43
0.0
43
0.0
43
0.0
43
0.0
43
1.0
77
0
47
0.0208333333333333
47
0.0
47
0.0
47
0.0
47
0.0
47
0.0208333333333333
47
0.0
47
0.0
47
0.0
47
0.0
47
1.0
47
0.0
47
0.0
47
0.0
47
0.0
47
1.0
171
0
49
0.0208333333333333
49
0.0
49
0.0
49
0.0
49
0.0
49
0.0208333333333333
49
0.0
49
0.0
49
0.0
49
0.0
49
1.0
49
0.0
49
0.0
49
0.0
49
0.0
49
1.0
175
0
142
0.0208333333333333
142
0.0
142
0.0
142
0.0
142
0.0
142
0.0208333333333333
142
0.0
142
0.0
142
0.0
142
0.0
142
1.0
142
0.0
142
0.0
142
0.0
142
0.0
142
1.0
179
0
144
0.0208333333333333
144
0.0
144
0.0
144
0.0
144
0.0
144
0.0208333333333333
144
0.0
144
0.0
144
0.0
144
0.0
144
1.0
144
0.0
144
0.0
144
0.0
144
0.0
144
1.0
147
0.0208333333333333
147
0.0
147
0.0
147
0.0
147
0.0
147
0.0208333333333333
147
0.0
147
0.0
147
0.0
147
0.0
147
1.0
147
0.0
147
0.0
147
0.0
147
0.0
147
1.0
0
MLEADERSTYLE
5
FCE
102
{ACAD_REACTORS
330
FCD
102
}
330
FCD
100
AcDbMLeaderStyle
170
2
171
1
172
0
90
2
40
0.0
41
0.0
173
1
91
-1056964608
340
256
92
-2
290
1
42
0.09
291
1
43
0.36
3
Standard
44
0.18
300

342
253
174
1
178
6
175
1
176
0
93
-1056964608
45
0.18
292
0
297
0
46
0.18
94
-1056964608
47
1.0
49
1.0
140
1.0
293
1
141
0.0
294
1
177
0
142
1.0
295
0
296
0
143
0.125
1001
ACAD_MLEADERVER
1070
2
0
MLINESTYLE
5
FAA
102
{ACAD_REACTORS
330
16
102
}
330
16
100
AcDbMlineStyle
2
STANDARD
70
0
3

62
256
51
90.0
52
90.0
71
2
49
0.5
62
256
6
BYLAYER
49
-0.5
62
256
6
BYLAYER
0
ACDBPLACEHOLDER
5
19
102
{ACAD_REACTORS
330
18
102
}
330
18
0
SCALE
5
FAC
102
{ACAD_REACTORS
330
FAB
102
}
330
FAB
100
AcDbScale
70
0
300
1:1
140
1.0
141
1.0
290
1
0
SCALE
5
FAD
102
{ACAD_REACTORS
330
FAB
102
}
330
FAB
100
AcDbScale
70
0
300
1:2
140
1.0
141
2.0
290
0
0
SCALE
5
FAE
102
{ACAD_REACTORS
330
FAB
102
}
330
FAB
100
AcDbScale
70
0
300
1:4
140
1.0
141
4.0
290
0
0
SCALE
5
FAF
102
{ACAD_REACTORS
330
FAB
102
}
330
FAB
100
AcDbScale
70
0
300
1:5
140
1.0
141
5.0
290
0
0
SCALE
5
FB0
102
{ACAD_REACTORS
330
FAB
102
}
330
FAB
100
AcDbScale
70
0
300
1:8
140
1.0
141
8.0
290
0
0
SCALE
5
FB1
102
{ACAD_REACTORS
330
FAB
102
}
330
FAB
100
AcDbScale
70
0
300
1:10
140
1.0
141
10.0
290
0
0
SCALE
5
FB2
102
{ACAD_REACTORS
330
FAB
102
}
330
FAB
100
AcDbScale
70
0
300
1:16
140
1.0
141
16.0
290
0
0
SCALE
5
FB3
102
{ACAD_REACTORS
330
FAB
102
}
330
FAB
100
AcDbScale
70
0
300
1:20
140
1.0
141
20.0
290
0
0
SCALE
5
FB4
102
{ACAD_REACTORS
330
FAB
102
}
330
FAB
100
AcDbScale
70
0
300
1:30
140
1.0
141
30.0
290
0
0
SCALE
5
FB5
102
{ACAD_REACTORS
330
FAB
102
}
330
FAB
100
AcDbScale
70
0
300
1:40
140
1.0
141
40.0
290
0
0
SCALE
5
FB6
102
{ACAD_REACTORS
330
FAB
102
}
330
FAB
100
AcDbScale
70
0
300
1:50
140
1.0
141
50.0
290
0
0
SCALE
5
FB7
102
{ACAD_REACTORS
330
FAB
102
}
330
FAB
100
AcDbScale
70
0
300
1:100
140
1.0
141
100.0
290
0
0
SCALE
5
FB8
102
{ACAD_REACTORS
330
FAB
102
}
330
FAB
100
AcDbScale
70
0
300
2:1
140
2.0
141
1.0
290
0
0
SCALE
5
FB9
102
{ACAD_REACTORS
330
FAB
102
}
330
FAB
100
AcDbScale
70
0
300
4:1
140
4.0
141
1.0
290
0
0
SCALE
5
FBA
102
{ACAD_REACTORS
330
FAB
102
}
330
FAB
100
AcDbScale
70
0
300
8:1
140
8.0
141
1.0
290
0
0
SCALE
5
FBB
102
{ACAD_REACTORS
330
FAB
102
}
330
FAB
100
AcDbScale
70
0
300
10:1
140
10.0
141
1.0
290
0
0
SCALE
5
FBC
102
{ACAD_REACTORS
330
FAB
102
}
330
FAB
100
AcDbScale
70
0
300
100:1
140
100.0
141
1.0
290
0
0
SCALE
5
FBD
102
{ACAD_REACTORS
330
FAB
102
}
330
FAB
100
AcDbScale
70
0
300
1/128" = 1'-0"
140
0.0078125
141
12.0
290
0
0
SCALE
5
FBE
102
{ACAD_REACTORS
330
FAB
102
}
330
FAB
100
AcDbScale
70
0
300
1/64" = 1'-0"
140
0.015625
141
12.0
290
0
0
SCALE
5
FBF
102
{ACAD_REACTORS
330
FAB
102
}
330
FAB
100
AcDbScale
70
0
300
1/32" = 1'-0"
140
0.03125
141
12.0
290
0
0
SCALE
5
FC0
102
{ACAD_REACTORS
330
FAB
102
}
330
FAB
100
AcDbScale
70
0
300
1/16" = 1'-0"
140
0.0625
141
12.0
290
0
0
SCALE
5
FC1
102
{ACAD_REACTORS
330
FAB
102
}
330
FAB
100
AcDbScale
70
0
300
3/32" = 1'-0"
140
0.09375
141
12.0
290
0
0
SCALE
5
FC2
102
{ACAD_REACTORS
330
FAB
102
}
330
FAB
100
AcDbScale
70
0
300
1/8" = 1'-0"
140
0.125
141
12.0
290
0
0
SCALE
5
FC3
102
{ACAD_REACTORS
330
FAB
102
}
330
FAB
100
AcDbScale
70
0
300
3/16" = 1'-0"
140
0.1875
141
12.0
290
0
0
SCALE
5
FC4
102
{ACAD_REACTORS
330
FAB
102
}
330
FAB
100
AcDbScale
70
0
300
1/4" = 1'-0"
140
0.25
141
12.0
290
0
0
SCALE
5
FC5
102
{ACAD_REACTORS
330
FAB
102
}
330
FAB
100
AcDbScale
70
0
300
3/8" = 1'-0"
140
0.375
141
12.0
290
0
0
SCALE
5
FC6
102
{ACAD_REACTORS
330
FAB
102
}
330
FAB
100
AcDbScale
70
0
300
1/2" = 1'-0"
140
0.5
141
12.0
290
0
0
SCALE
5
FC7
102
{ACAD_REACTORS
330
FAB
102
}
330
FAB
100
AcDbScale
70
0
300
3/4" = 1'-0"
140
0.75
141
12.0
290
0
0
SCALE
5
FC8
102
{ACAD_REACTORS
330
FAB
102
}
330
FAB
100
AcDbScale
70
0
300
1" = 1'-0"
140
1.0
141
12.0
290
0
0
SCALE
5
FC9
102
{ACAD_REACTORS
330
FAB
102
}
330
FAB
100
AcDbScale
70
0
300
1-1/2" = 1'-0"
140
1.5
141
12.0
290
0
0
SCALE
5
FCA
102
{ACAD_REACTORS
330
FAB
102
}
330
FAB
100
AcDbScale
70
0
300
3" = 1'-0"
140
3.0
141
12.0
290
0
0
SCALE
5
FCB
102
{ACAD_REACTORS
330
FAB
102
}
330
FAB
100
AcDbScale
70
0
300
6" = 1'-0"
140
6.0
141
12.0
290
0
0
SCALE
5
FCC
102
{ACAD_REACTORS
330
FAB
102
}
330
FAB
100
AcDbScale
70
0
300
1'-0" = 1'-0"
140
12.0
141
12.0
290
0
0
TABLESTYLE
5
FA9
102
{ACAD_XDICTIONARY
360
FF8
102
}
102
{ACAD_REACTORS
330
FA8
102
}
330
FA8
100
AcDbTableStyle
3
Standard
70
0
71
0
40
0.06
41
0.06
280
0
281
0
7
Standard
140
0.18
170
2
62
0
63
7
283
0
274
-2
284
1
64
0
275
-2
285
1
65
0
276
-2
286
1
66
0
277
-2
287
1
67
0
278
-2
288
1
68
0
279
-2
289
1
69
0
7
Standard
140
0.25
170
5
62
0
63
7
283
0
274
-2
284
1
64
0
275
-2
285
1
65
0
276
-2
286
1
66
0
277
-2
287
1
67
0
278
-2
288
1
68
0
279
-2
289
1
69
0
7
Standard
140
0.18
170
5
62
0
63
7
283
0
274
-2
284
1
64
0
275
-2
285
1
65
0
276
-2
286
1
66
0
277
-2
287
1
67
0
278
-2
288
1
68
0
279
-2
289
1
69
0
0
VISUALSTYLE
5
F99
102
{ACAD_XDICTIONARY
360
108A
102
}
102
{ACAD_REACTORS
330
F93
102
}
330
F93
100
AcDbVisualStyle
2

70
4
71
0
72
2
73
0
90
0
40
-0.6
41
-30.0
62
5
63
7
74
1
91
4
64
7
65
257
75
1
175
1
42
1.0
92
0
66
257
43
1.0
76
1
77
6
78
2
67
7
79
5
170
0
171
0
290
0
174
0
93
1
44
0.0
173
0
291
0
45
0.0
1001
ACAD
1000
AcDbSavedByObjectVersion
1070
0
0
VISUALSTYLE
5
F9B
102
{ACAD_XDICTIONARY
360
108E
102
}
102
{ACAD_REACTORS
330
F93
102
}
330
F93
100
AcDbVisualStyle
2

70
6
71
1
72
2
73
2
90
0
40
-0.6
41
-30.0
62
5
63
7
74
2
91
2
64
7
65
257
75
2
175
1
42
179.0
92
0
66
257
43
1.0
76
1
77
6
78
2
67
7
79
3
170
0
171
0
290
0
174
0
93
1
44
0.0
173
0
291
0
45
0.0
1001
ACAD
1000
AcDbSavedByObjectVersion
1070
0
0
VISUALSTYLE
5
F9A
102
{ACAD_XDICTIONARY
360
108C
102
}
102
{ACAD_REACTORS
330
F93
102
}
330
F93
100
AcDbVisualStyle
2

70
5
71
0
72
2
73
0
90
0
40
-0.6
41
-30.0
62
5
63
7
74
1
91
4
64
7
65
257
75
1
175
1
42
1.0
92
0
66
257
43
1.0
76
1
77
6
78
2
67
7
79
5
170
0
171
0
290
0
174
0
93
1
44
0.0
173
0
291
0
45
0.0
1001
ACAD
1000
AcDbSavedByObjectVersion
1070
0
0
VISUALSTYLE
5
F98
102
{ACAD_XDICTIONARY
360
1088
102
}
102
{ACAD_REACTORS
330
F93
102
}
330
F93
100
AcDbVisualStyle
2

70
7
71
1
72
0
73
1
90
0
40
-0.6
41
-30.0
62
5
63
7
74
0
91
4
64
7
65
257
75
1
175
1
42
1.0
92
8
66
7
43
1.0
76
1
77
6
78
2
67
7
79
5
170
0
171
0
290
0
174
0
93
1
44
0.0
173
0
291
1
45
0.0
1001
ACAD
1000
AcDbSavedByObjectVersion
1070
0
0
VISUALSTYLE
5
F9F
102
{ACAD_XDICTIONARY
360
1096
102
}
102
{ACAD_REACTORS
330
F93
102
}
330
F93
100
AcDbVisualStyle
2

70
12
71
2
72
2
73
0
90
0
40
-0.6
41
-30.0
62
5
63
7
74
1
91
4
64
7
65
257
75
1
175
1
42
1.0
92
8
66
7
43
1.0
76
1
77
6
78
2
67
7
79
5
170
0
171
0
290
0
174
0
93
1
44
50.0
173
0
291
1
45
0.0
1001
ACAD
1000
AcDbSavedByObjectVersion
1070
0
0
VISUALSTYLE
5
FA3
102
{ACAD_XDICTIONARY
360
109E
102
}
102
{ACAD_REACTORS
330
F93
102
}
330
F93
100
AcDbVisualStyle
2

70
16
71
2
72
2
73
3
90
0
40
-0.6
41
-30.0
62
5
63
8
74
1
91
4
64
7
65
257
75
1
175
1
42
1.0
92
8
66
8
43
1.0
76
1
77
6
78
2
67
7
79
5
170
0
171
0
290
0
174
0
93
1
44
0.0
173
0
291
1
45
0.0
1001
ACAD
1000
AcDbSavedByObjectVersion
1070
0
0
VISUALSTYLE
5
F9C
102
{ACAD_XDICTIONARY
360
1090
102
}
102
{ACAD_REACTORS
330
F93
102
}
330
F93
100
AcDbVisualStyle
2

70
9
71
3
72
2
73
0
90
0
40
-0.6
41
-30.0
62
5
63
7
74
2
91
2
64
7
65
257
75
1
175
1
42
179.0
92
8
66
7
43
1.0
76
1
77
6
78
2
67
7
79
3
170
0
171
0
290
0
174
0
93
1
44
0.0
173
0
291
0
45
0.0
1001
ACAD
1000
AcDbSavedByObjectVersion
1070
0
0
VISUALSTYLE
5
F9E
102
{ACAD_XDICTIONARY
360
1094
102
}
102
{ACAD_REACTORS
330
F93
102
}
330
F93
100
AcDbVisualStyle
2

70
11
71
2
72
2
73
0
90
0
40
-0.6
41
-30.0
62
5
63
7
74
1
91
4
64
7
65
257
75
1
175
1
42
1.0
92
8
66
7
43
1.0
76
1
77
6
78
2
67
7
79
5
170
0
171
0
290
0
174
0
93
1
44
-50.0
173
0
291
1
45
0.0
1001
ACAD
1000
AcDbSavedByObjectVersion
1070
0
0
VISUALSTYLE
5
FA6
102
{ACAD_XDICTIONARY
360
10A4
102
}
102
{ACAD_REACTORS
330
F93
102
}
330
F93
100
AcDbVisualStyle
2

70
22
71
2
72
2
73
0
90
0
40
-0.6
41
-30.0
62
5
63
7
74
1
91
4
64
7
65
257
75
1
175
1
42
1.0
92
8
66
7
43
1.0
76
1
77
6
78
2
67
7
79
5
170
0
171
0
290
0
174
0
93
1
44
0.0
173
0
291
1
45
0.0
1001
ACAD
1000
AcDbSavedByObjectVersion
1070
0
0
VISUALSTYLE
5
FA2
102
{ACAD_XDICTIONARY
360
109C
102
}
102
{ACAD_REACTORS
330
F93
102
}
330
F93
100
AcDbVisualStyle
2

70
15
71
2
72
2
73
0
90
0
40
-0.6
41
-30.0
62
5
63
7
74
1
91
4
64
7
65
257
75
1
175
1
42
1.0
92
8
66
7
43
1.0
76
1
77
6
78
2
67
7
79
5
170
0
171
0
290
0
174
0
93
1
44
0.0
173
0
291
1
45
0.0
1001
ACAD
1000
AcDbSavedByObjectVersion
1070
0
0
VISUALSTYLE
5
F94
102
{ACAD_XDICTIONARY
360
1080
102
}
102
{ACAD_REACTORS
330
F93
102
}
330
F93
100
AcDbVisualStyle
2

70
0
71
2
72
1
73
1
90
2
40
-0.6
41
30.0
62
5
63
7
74
0
91
4
64
7
65
257
75
1
175
1
42
1.0
92
8
66
7
43
1.0
76
1
77
6
78
2
67
7
79
5
170
0
171
0
290
0
174
0
93
13
44
0.0
173
0
291
1
45
0.0
1001
ACAD
1000
AcDbSavedByObjectVersion
1070
0
0
VISUALSTYLE
5
F95
102
{ACAD_XDICTIONARY
360
1082
102
}
102
{ACAD_REACTORS
330
F93
102
}
330
F93
100
AcDbVisualStyle
2

70
1
71
2
72
1
73
1
90
2
40
-0.6
41
30.0
62
5
63
7
74
1
91
4
64
7
65
257
75
1
175
1
42
1.0
92
0
66
257
43
1.0
76
1
77
6
78
2
67
7
79
5
170
0
171
0
290
0
174
0
93
13
44
0.0
173
0
291
1
45
0.0
1001
ACAD
1000
AcDbSavedByObjectVersion
1070
0
0
VISUALSTYLE
5
F96
102
{ACAD_XDICTIONARY
360
1084
102
}
102
{ACAD_REACTORS
330
F93
102
}
330
F93
100
AcDbVisualStyle
2

70
2
71
2
72
2
73
1
90
2
40
-0.6
41
30.0
62
5
63
7
74
0
91
4
64
7
65
257
75
1
175
1
42
1.0
92
0
66
7
43
1.0
76
1
77
6
78
2
67
7
79
5
170
0
171
0
290
0
174
0
93
13
44
0.0
173
0
291
1
45
0.0
1001
ACAD
1000
AcDbSavedByObjectVersion
1070
0
0
VISUALSTYLE
5
F97
102
{ACAD_XDICTIONARY
360
1086
102
}
102
{ACAD_REACTORS
330
F93
102
}
330
F93
100
AcDbVisualStyle
2

70
3
71
2
72
2
73
1
90
2
40
-0.6
41
30.0
62
5
63
7
74
1
91
4
64
7
65
257
75
1
175
1
42
1.0
92
0
66
257
43
1.0
76
1
77
6
78
2
67
7
79
5
170
0
171
0
290
0
174
0
93
13
44
0.0
173
0
291
1
45
0.0
1001
ACAD
1000
AcDbSavedByObjectVersion
1070
0
0
VISUALSTYLE
5
FA4
102
{ACAD_XDICTIONARY
360
10A0
102
}
102
{ACAD_REACTORS
330
F93
102
}
330
F93
100
AcDbVisualStyle
2

70
20
71
2
72
2
73
0
90
0
40
-0.6
41
-30.0
62
5
63
7
74
1
91
4
64
7
65
257
75
1
175
1
42
1.0
92
10
66
7
43
1.0
76
1
77
6
78
2
67
7
79
5
170
0
171
0
290
0
174
0
93
1
44
0.0
173
0
291
1
45
0.0
1001
ACAD
1000
AcDbSavedByObjectVersion
1070
0
0
VISUALSTYLE
5
FA1
102
{ACAD_XDICTIONARY
360
109A
102
}
102
{ACAD_REACTORS
330
F93
102
}
330
F93
100
AcDbVisualStyle
2

70
14
71
2
72
2
73
0
90
0
40
-0.6
41
-30.0
62
5
63
7
74
1
91
4
64
7
65
257
75
7
175
7
42
1.0
92
8
66
7
43
1.0
76
1
77
6
78
2
67
7
79
5
170
0
171
0
290
0
174
0
93
1
44
0.0
173
0
291
1
45
0.0
1001
ACAD
1000
AcDbSavedByObjectVersion
1070
0
0
VISUALSTYLE
5
FA5
102
{ACAD_XDICTIONARY
360
10A2
102
}
102
{ACAD_REACTORS
330
F93
102
}
330
F93
100
AcDbVisualStyle
2

70
21
71
2
72
2
73
0
90
0
40
-0.6
41
-30.0
62
5
63
7
74
1
91
4
64
7
65
257
75
1
175
1
42
1.0
92
9
66
7
43
1.0
76
1
77
6
78
2
67
7
79
5
170
0
171
0
290
0
174
0
93
1
44
0.0
173
0
291
1
45
0.0
1001
ACAD
1000
AcDbSavedByObjectVersion
1070
0
0
VISUALSTYLE
5
F9D
102
{ACAD_XDICTIONARY
360
1092
102
}
102
{ACAD_REACTORS
330
F93
102
}
330
F93
100
AcDbVisualStyle
2

70
8
71
2
72
2
73
0
90
0
40
-0.6
41
-30.0
62
5
63
7
74
1
91
0
64
7
65
257
75
1
175
1
42
1.0
92
8
66
8
43
1.0
76
1
77
6
78
2
67
7
79
5
170
0
171
0
290
0
174
0
93
13
44
0.0
173
0
291
0
45
0.0
1001
ACAD
1000
AcDbSavedByObjectVersion
1070
0
0
VISUALSTYLE
5
FA0
102
{ACAD_XDICTIONARY
360
1098
102
}
102
{ACAD_REACTORS
330
F93
102
}
330
F93
100
AcDbVisualStyle
2

70
13
71
2
72
2
73
0
90
0
40
-0.6
41
-30.0
62
5
63
7
74
1
91
4
64
7
65
257
75
1
175
1
42
1.0
92
12
66
7
43
1.0
76
1
77
6
78
2
67
7
79
5
170
0
171
0
290
0
174
0
93
1
44
0.0
173
0
291
1
45
0.0
1001
ACAD
1000
AcDbSavedByObjectVersion
1070
0
0
DICTIONARYVAR
5
FF3
102
{ACAD_REACTORS
330
FF0
102
}
330
FF0
100
DictionaryVariables
280
0
1
1:1
0
DICTIONARYVAR
5
FF2
102
{ACAD_REACTORS
330
FF0
102
}
330
FF0
100
DictionaryVariables
280
0
1
STANDARD
0
DICTIONARYVAR
5
FF1
102
{ACAD_REACTORS
330
FF0
102
}
330
FF0
100
DictionaryVariables
280
0
1
STANDARD
0
DICTIONARYVAR
5
FF6
102
{ACAD_REACTORS
330
FF0
102
}
330
FF0
100
DictionaryVariables
280
0
1
1
0
DICTIONARYVAR
5
FF5
102
{ACAD_REACTORS
330
FF0
102
}
330
FF0
100
DictionaryVariables
280
0
1
0
0
DICTIONARYVAR
5
FF4
102
{ACAD_REACTORS
330
FF0
102
}
330
FF0
100
DictionaryVariables
280
0
1
127
0
DICTIONARYVAR
5
1078
102
{ACAD_REACTORS
330
FF0
102
}
330
FF0
100
DictionaryVariables
280
0
1
2
0
DICTIONARY
5
10A9
330
FD1
100
AcDbDictionary
280
1
281
1
3
ACAD_XREC_ROUNDTRIP
360
10AA
0
DICTIONARY
5
10A7
330
FD0
100
AcDbDictionary
280
1
281
1
3
ACAD_XREC_ROUNDTRIP
360
10A8
0
DICTIONARY
5
F84
330
F83
100
AcDbDictionary
280
1
281
1
3
ACAD_XREC_ROUNDTRIP
360
FFF
3
BUMPTILE
360
F86
3
DIFFUSETILE
360
F85
3
OPACITYTILE
360
F89
3
REFLECTIONTILE
360
F88
3
REFRACTIONTILE
360
F8A
3
SPECULARTILE
360
F87
0
DICTIONARY
5
F7C
330
F7B
100
AcDbDictionary
280
1
281
1
3
ACAD_XREC_ROUNDTRIP
360
FFE
3
BUMPTILE
360
F7E
3
DIFFUSETILE
360
F7D
3
OPACITYTILE
360
F81
3
REFLECTIONTILE
360
F80
3
REFRACTIONTILE
360
F82
3
SPECULARTILE
360
F7F
0
DICTIONARY
5
F8C
330
F8B
100
AcDbDictionary
280
1
281
1
3
ACAD_XREC_ROUNDTRIP
360
1000
3
BUMPTILE
360
F8E
3
DIFFUSETILE
360
F8D
3
OPACITYTILE
360
F91
3
REFLECTIONTILE
360
F90
3
REFRACTIONTILE
360
F92
3
SPECULARTILE
360
F8F
0
DICTIONARY
5
FF8
330
FA9
100
AcDbDictionary
280
1
281
1
3
ACAD_ROUNDTRIP_2008_TABLESTYLE_CELLSTYLEMAP
360
1079
3
ACAD_XREC_ROUNDTRIP
360
10A6
0
DICTIONARY
5
108A
330
F99
100
AcDbDictionary
280
1
281
1
3
ACAD_XREC_ROUNDTRIP
360
108B
0
DICTIONARY
5
108E
330
F9B
100
AcDbDictionary
280
1
281
1
3
ACAD_XREC_ROUNDTRIP
360
108F
0
DICTIONARY
5
108C
330
F9A
100
AcDbDictionary
280
1
281
1
3
ACAD_XREC_ROUNDTRIP
360
108D
0
DICTIONARY
5
1088
330
F98
100
AcDbDictionary
280
1
281
1
3
ACAD_XREC_ROUNDTRIP
360
1089
0
DICTIONARY
5
1096
330
F9F
100
AcDbDictionary
280
1
281
1
3
ACAD_XREC_ROUNDTRIP
360
1097
0
DICTIONARY
5
109E
330
FA3
100
AcDbDictionary
280
1
281
1
3
ACAD_XREC_ROUNDTRIP
360
109F
0
DICTIONARY
5
1090
330
F9C
100
AcDbDictionary
280
1
281
1
3
ACAD_XREC_ROUNDTRIP
360
1091
0
DICTIONARY
5
1094
330
F9E
100
AcDbDictionary
280
1
281
1
3
ACAD_XREC_ROUNDTRIP
360
1095
0
DICTIONARY
5
10A4
330
FA6
100
AcDbDictionary
280
1
281
1
3
ACAD_XREC_ROUNDTRIP
360
10A5
0
DICTIONARY
5
109C
330
FA2
100
AcDbDictionary
280
1
281
1
3
ACAD_XREC_ROUNDTRIP
360
109D
0
DICTIONARY
5
1080
330
F94
100
AcDbDictionary
280
1
281
1
3
ACAD_XREC_ROUNDTRIP
360
1081
0
DICTIONARY
5
1082
330
F95
100
AcDbDictionary
280
1
281
1
3
ACAD_XREC_ROUNDTRIP
360
1083
0
DICTIONARY
5
1084
330
F96
100
AcDbDictionary
280
1
281
1
3
ACAD_XREC_ROUNDTRIP
360
1085
0
DICTIONARY
5
1086
330
F97
100
AcDbDictionary
280
1
281
1
3
ACAD_XREC_ROUNDTRIP
360
1087
0
DICTIONARY
5
10A0
330
FA4
100
AcDbDictionary
280
1
281
1
3
ACAD_XREC_ROUNDTRIP
360
10A1
0
DICTIONARY
5
109A
330
FA1
100
AcDbDictionary
280
1
281
1
3
ACAD_XREC_ROUNDTRIP
360
109B
0
DICTIONARY
5
10A2
330
FA5
100
AcDbDictionary
280
1
281
1
3
ACAD_XREC_ROUNDTRIP
360
10A3
0
DICTIONARY
5
1092
330
F9D
100
AcDbDictionary
280
1
281
1
3
ACAD_XREC_ROUNDTRIP
360
1093
0
DICTIONARY
5
1098
330
FA0
100
AcDbDictionary
280
1
281
1
3
ACAD_XREC_ROUNDTRIP
360
1099
0
XRECORD
5
10AA
102
{ACAD_REACTORS
330
10A9
102
}
330
10A9
100
AcDbXrecord
280
1
102
SHADEPLOT
70
0
102
SHADEPLOTRESLEVEL
70
2
102
SHADEPLOTCUSTOMDPI
70
300
0
XRECORD
5
10A8
102
{ACAD_REACTORS
330
10A7
102
}
330
10A7
100
AcDbXrecord
280
1
102
SHADEPLOT
70
0
102
SHADEPLOTRESLEVEL
70
2
102
SHADEPLOTCUSTOMDPI
70
300
0
XRECORD
5
FFF
102
{ACAD_REACTORS
330
F84
102
}
330
F84
100
AcDbXrecord
280
1
102
MATERIAL
148
0.0
149
0.0
149
0.0
93
0
94
127
282
0
72
0
77
0
171
0
175
0
179
0
273
0
0
XRECORD
5
F86
102
{ACAD_REACTORS
330
F84
102
}
330
F84
100
AcDbXrecord
280
1
270
1
271
1
0
XRECORD
5
F85
102
{ACAD_REACTORS
330
F84
102
}
330
F84
100
AcDbXrecord
280
1
270
1
271
1
0
XRECORD
5
F89
102
{ACAD_REACTORS
330
F84
102
}
330
F84
100
AcDbXrecord
280
1
270
1
271
1
0
XRECORD
5
F88
102
{ACAD_REACTORS
330
F84
102
}
330
F84
100
AcDbXrecord
280
1
270
1
271
1
0
XRECORD
5
F8A
102
{ACAD_REACTORS
330
F84
102
}
330
F84
100
AcDbXrecord
280
1
270
1
271
1
0
XRECORD
5
F87
102
{ACAD_REACTORS
330
F84
102
}
330
F84
100
AcDbXrecord
280
1
270
1
271
1
0
XRECORD
5
FFE
102
{ACAD_REACTORS
330
F7C
102
}
330
F7C
100
AcDbXrecord
280
1
102
MATERIAL
148
0.0
149
0.0
149
0.0
93
0
94
127
282
0
72
0
77
0
171
0
175
0
179
0
273
0
0
XRECORD
5
F7E
102
{ACAD_REACTORS
330
F7C
102
}
330
F7C
100
AcDbXrecord
280
1
270
1
271
1
0
XRECORD
5
F7D
102
{ACAD_REACTORS
330
F7C
102
}
330
F7C
100
AcDbXrecord
280
1
270
1
271
1
0
XRECORD
5
F81
102
{ACAD_REACTORS
330
F7C
102
}
330
F7C
100
AcDbXrecord
280
1
270
1
271
1
0
XRECORD
5
F80
102
{ACAD_REACTORS
330
F7C
102
}
330
F7C
100
AcDbXrecord
280
1
270
1
271
1
0
XRECORD
5
F82
102
{ACAD_REACTORS
330
F7C
102
}
330
F7C
100
AcDbXrecord
280
1
270
1
271
1
0
XRECORD
5
F7F
102
{ACAD_REACTORS
330
F7C
102
}
330
F7C
100
AcDbXrecord
280
1
270
1
271
1
0
XRECORD
5
1000
102
{ACAD_REACTORS
330
F8C
102
}
330
F8C
100
AcDbXrecord
280
1
102
MATERIAL
148
0.0
149
0.0
149
0.0
93
0
94
127
282
0
72
0
77
0
171
0
175
0
179
0
273
0
0
XRECORD
5
F8E
102
{ACAD_REACTORS
330
F8C
102
}
330
F8C
100
AcDbXrecord
280
1
270
1
271
1
0
XRECORD
5
F8D
102
{ACAD_REACTORS
330
F8C
102
}
330
F8C
100
AcDbXrecord
280
1
270
1
271
1
0
XRECORD
5
F91
102
{ACAD_REACTORS
330
F8C
102
}
330
F8C
100
AcDbXrecord
280
1
270
1
271
1
0
XRECORD
5
F90
102
{ACAD_REACTORS
330
F8C
102
}
330
F8C
100
AcDbXrecord
280
1
270
1
271
1
0
XRECORD
5
F92
102
{ACAD_REACTORS
330
F8C
102
}
330
F8C
100
AcDbXrecord
280
1
270
1
271
1
0
XRECORD
5
F8F
102
{ACAD_REACTORS
330
F8C
102
}
330
F8C
100
AcDbXrecord
280
1
270
1
271
1
0
CELLSTYLEMAP
5
1079
102
{ACAD_REACTORS
330
FF8
102
}
330
FF8
100
AcDbCellStyleMap
90
3
300
CELLSTYLE
1
TABLEFORMAT_BEGIN
90
5
170
1
91
0
92
32768
62
257
93
1
300
CONTENTFORMAT
1
CONTENTFORMAT_BEGIN
90
0
91
0
92
512
93
0
300

40
0.0
140
1.0
94
5
62
0
340
253
144
0.25
309
CONTENTFORMAT_END
171
1
301
MARGIN
1
CELLMARGIN_BEGIN
40
0.06
40
0.06
40
0.06
40
0.06
40
0.18
40
0.18
309
CELLMARGIN_END
94
6
95
1
302
GRIDFORMAT
1
GRIDFORMAT_BEGIN
90
0
91
1
62
0
92
-2
340
0
93
0
40
0.045
309
GRIDFORMAT_END
95
2
302
GRIDFORMAT
1
GRIDFORMAT_BEGIN
90
0
91
1
62
0
92
-2
340
0
93
0
40
0.045
309
GRIDFORMAT_END
95
4
302
GRIDFORMAT
1
GRIDFORMAT_BEGIN
90
0
91
1
62
0
92
-2
340
0
93
0
40
0.045
309
GRIDFORMAT_END
95
8
302
GRIDFORMAT
1
GRIDFORMAT_BEGIN
90
0
91
1
62
0
92
-2
340
0
93
0
40
0.045
309
GRIDFORMAT_END
95
16
302
GRIDFORMAT
1
GRIDFORMAT_BEGIN
90
0
91
1
62
0
92
-2
340
0
93
0
40
0.045
309
GRIDFORMAT_END
95
32
302
GRIDFORMAT
1
GRIDFORMAT_BEGIN
90
0
91
1
62
0
92
-2
340
0
93
0
40
0.045
309
GRIDFORMAT_END
309
TABLEFORMAT_END
1
CELLSTYLE_BEGIN
90
1
91
1
300
_TITLE
309
CELLSTYLE_END
300
CELLSTYLE
1
TABLEFORMAT_BEGIN
90
5
170
1
91
0
92
0
62
257
93
1
300
CONTENTFORMAT
1
CONTENTFORMAT_BEGIN
90
0
91
0
92
512
93
0
300

40
0.0
140
1.0
94
5
62
0
340
253
144
0.18
309
CONTENTFORMAT_END
171
1
301
MARGIN
1
CELLMARGIN_BEGIN
40
0.06
40
0.06
40
0.06
40
0.06
40
0.18
40
0.18
309
CELLMARGIN_END
94
6
95
1
302
GRIDFORMAT
1
GRIDFORMAT_BEGIN
90
0
91
1
62
0
92
-2
340
0
93
0
40
0.045
309
GRIDFORMAT_END
95
2
302
GRIDFORMAT
1
GRIDFORMAT_BEGIN
90
0
91
1
62
0
92
-2
340
0
93
0
40
0.045
309
GRIDFORMAT_END
95
4
302
GRIDFORMAT
1
GRIDFORMAT_BEGIN
90
0
91
1
62
0
92
-2
340
0
93
0
40
0.045
309
GRIDFORMAT_END
95
8
302
GRIDFORMAT
1
GRIDFORMAT_BEGIN
90
0
91
1
62
0
92
-2
340
0
93
0
40
0.045
309
GRIDFORMAT_END
95
16
302
GRIDFORMAT
1
GRIDFORMAT_BEGIN
90
0
91
1
62
0
92
-2
340
0
93
0
40
0.045
309
GRIDFORMAT_END
95
32
302
GRIDFORMAT
1
GRIDFORMAT_BEGIN
90
0
91
1
62
0
92
-2
340
0
93
0
40
0.045
309
GRIDFORMAT_END
309
TABLEFORMAT_END
1
CELLSTYLE_BEGIN
90
2
91
1
300
_HEADER
309
CELLSTYLE_END
300
CELLSTYLE
1
TABLEFORMAT_BEGIN
90
5
170
1
91
0
92
0
62
257
93
1
300
CONTENTFORMAT
1
CONTENTFORMAT_BEGIN
90
0
91
0
92
512
93
0
300

40
0.0
140
1.0
94
2
62
0
340
253
144
0.18
309
CONTENTFORMAT_END
171
1
301
MARGIN
1
CELLMARGIN_BEGIN
40
0.06
40
0.06
40
0.06
40
0.06
40
0.18
40
0.18
309
CELLMARGIN_END
94
6
95
1
302
GRIDFORMAT
1
GRIDFORMAT_BEGIN
90
0
91
1
62
0
92
-2
340
0
93
0
40
0.045
309
GRIDFORMAT_END
95
2
302
GRIDFORMAT
1
GRIDFORMAT_BEGIN
90
0
91
1
62
0
92
-2
340
0
93
0
40
0.045
309
GRIDFORMAT_END
95
4
302
GRIDFORMAT
1
GRIDFORMAT_BEGIN
90
0
91
1
62
0
92
-2
340
0
93
0
40
0.045
309
GRIDFORMAT_END
95
8
302
GRIDFORMAT
1
GRIDFORMAT_BEGIN
90
0
91
1
62
0
92
-2
340
0
93
0
40
0.045
309
GRIDFORMAT_END
95
16
302
GRIDFORMAT
1
GRIDFORMAT_BEGIN
90
0
91
1
62
0
92
-2
340
0
93
0
40
0.045
309
GRIDFORMAT_END
95
32
302
GRIDFORMAT
1
GRIDFORMAT_BEGIN
90
0
91
1
62
0
92
-2
340
0
93
0
40
0.045
309
GRIDFORMAT_END
309
TABLEFORMAT_END
1
CELLSTYLE_BEGIN
90
3
91
2
300
_DATA
309
CELLSTYLE_END
0
XRECORD
5
10A6
102
{ACAD_REACTORS
330
FF8
102
}
330
FF8
100
AcDbXrecord
280
1
102
ACAD_ROUNDTRIP_PRE2007_TABLESTYLE
90
512
91
0
1

92
512
93
0
2

94
512
95
0
3

0
XRECORD
5
108B
102
{ACAD_REACTORS
330
108A
102
}
330
108A
100
AcDbXrecord
280
1
102
RTVSPropertyOp0
70
1
102
RTVSPropertyOp1
70
1
102
RTVSPropertyOp2
70
1
102
RTVSPropertyOp3
70
1
102
RTVSPropertyOp4
70
1
102
RTVSPropertyOp5
70
1
102
RTVSPropertyOp6
70
1
102
RTVSPropertyOp7
70
1
102
RTVSPropertyOp8
70
1
102
RTVSPropertyOp9
70
1
102
RTVSPropertyOp10
70
1
102
RTVSPropertyOp11
70
1
102
RTVSPropertyOp12
70
1
102
RTVSPropertyOp13
70
1
102
RTVSPropertyOp14
70
1
102
RTVSPropertyOp15
70
1
102
RTVSPropertyOp16
70
1
102
RTVSPropertyOp17
70
1
102
RTVSPropertyOp18
70
1
102
RTVSPropertyOp19
70
1
102
RTVSPropertyOp20
70
1
102
RTVSPropertyOp21
70
1
102
RTVSPropertyOp22
70
1
102
RTVSPropertyOp23
70
1
102
RTVSPropertyOp24
70
1
102
RTVSPropertyOp25
70
1
102
RTVSPropertyOp26
70
1
102
RTVSPropertyOp27
70
1
0
XRECORD
5
108F
102
{ACAD_REACTORS
330
108E
102
}
330
108E
100
AcDbXrecord
280
1
102
RTVSPropertyOp0
70
1
102
RTVSPropertyOp1
70
1
102
RTVSPropertyOp2
70
1
102
RTVSPropertyOp3
70
1
102
RTVSPropertyOp4
70
1
102
RTVSPropertyOp5
70
1
102
RTVSPropertyOp6
70
1
102
RTVSPropertyOp7
70
1
102
RTVSPropertyOp8
70
1
102
RTVSPropertyOp9
70
1
102
RTVSPropertyOp10
70
1
102
RTVSPropertyOp11
70
1
102
RTVSPropertyOp12
70
1
102
RTVSPropertyOp13
70
1
102
RTVSPropertyOp14
70
1
102
RTVSPropertyOp15
70
1
102
RTVSPropertyOp16
70
1
102
RTVSPropertyOp17
70
1
102
RTVSPropertyOp18
70
1
102
RTVSPropertyOp19
70
1
102
RTVSPropertyOp20
70
1
102
RTVSPropertyOp21
70
1
102
RTVSPropertyOp22
70
1
102
RTVSPropertyOp23
70
1
102
RTVSPropertyOp24
70
1
102
RTVSPropertyOp25
70
1
102
RTVSPropertyOp26
70
1
102
RTVSPropertyOp27
70
1
0
XRECORD
5
108D
102
{ACAD_REACTORS
330
108C
102
}
330
108C
100
AcDbXrecord
280
1
102
RTVSPropertyOp0
70
1
102
RTVSPropertyOp1
70
1
102
RTVSPropertyOp2
70
1
102
RTVSPropertyOp3
70
1
102
RTVSPropertyOp4
70
1
102
RTVSPropertyOp5
70
1
102
RTVSPropertyOp6
70
1
102
RTVSPropertyOp7
70
1
102
RTVSPropertyOp8
70
1
102
RTVSPropertyOp9
70
1
102
RTVSPropertyOp10
70
1
102
RTVSPropertyOp11
70
1
102
RTVSPropertyOp12
70
1
102
RTVSPropertyOp13
70
1
102
RTVSPropertyOp14
70
1
102
RTVSPropertyOp15
70
1
102
RTVSPropertyOp16
70
1
102
RTVSPropertyOp17
70
1
102
RTVSPropertyOp18
70
1
102
RTVSPropertyOp19
70
1
102
RTVSPropertyOp20
70
1
102
RTVSPropertyOp21
70
1
102
RTVSPropertyOp22
70
1
102
RTVSPropertyOp23
70
1
102
RTVSPropertyOp24
70
1
102
RTVSPropertyOp25
70
1
102
RTVSPropertyOp26
70
1
102
RTVSPropertyOp27
70
1
0
XRECORD
5
1089
102
{ACAD_REACTORS
330
1088
102
}
330
1088
100
AcDbXrecord
280
1
102
RTVSPropertyOp0
70
1
102
RTVSPropertyOp1
70
1
102
RTVSPropertyOp2
70
1
102
RTVSPropertyOp3
70
1
102
RTVSPropertyOp4
70
1
102
RTVSPropertyOp5
70
1
102
RTVSPropertyOp6
70
1
102
RTVSPropertyOp7
70
1
102
RTVSPropertyOp8
70
1
102
RTVSPropertyOp9
70
1
102
RTVSPropertyOp10
70
1
102
RTVSPropertyOp11
70
1
102
RTVSPropertyOp12
70
1
102
RTVSPropertyOp13
70
1
102
RTVSPropertyOp14
70
1
102
RTVSPropertyOp15
70
1
102
RTVSPropertyOp16
70
1
102
RTVSPropertyOp17
70
1
102
RTVSPropertyOp18
70
1
102
RTVSPropertyOp19
70
1
102
RTVSPropertyOp20
70
1
102
RTVSPropertyOp21
70
1
102
RTVSPropertyOp22
70
1
102
RTVSPropertyOp23
70
1
102
RTVSPropertyOp24
70
1
102
RTVSPropertyOp25
70
1
102
RTVSPropertyOp26
70
1
102
RTVSPropertyOp27
70
1
0
XRECORD
5
1097
102
{ACAD_REACTORS
330
1096
102
}
330
1096
100
AcDbXrecord
280
1
102
RTVSPropertyOp0
70
1
102
RTVSPropertyOp1
70
1
102
RTVSPropertyOp2
70
1
102
RTVSPropertyOp3
70
1
102
RTVSPropertyOp4
70
1
102
RTVSPropertyOp5
70
1
102
RTVSPropertyOp6
70
1
102
RTVSPropertyOp7
70
1
102
RTVSPropertyOp8
70
1
102
RTVSPropertyOp9
70
1
102
RTVSPropertyOp10
70
1
102
RTVSPropertyOp11
70
1
102
RTVSPropertyOp12
70
1
102
RTVSPropertyOp13
70
1
102
RTVSPropertyOp14
70
1
102
RTVSPropertyOp15
70
1
102
RTVSPropertyOp16
70
1
102
RTVSPropertyOp17
70
1
102
RTVSPropertyOp18
70
1
102
RTVSPropertyOp19
70
1
102
RTVSPropertyOp20
70
1
102
RTVSPropertyOp21
70
1
102
RTVSPropertyOp22
70
1
102
RTVSPropertyOp23
70
1
102
RTVSPropertyOp24
70
1
102
RTVSPropertyOp25
70
1
102
RTVSPropertyOp26
70
1
102
RTVSPropertyOp27
70
1
0
XRECORD
5
109F
102
{ACAD_REACTORS
330
109E
102
}
330
109E
100
AcDbXrecord
280
1
102
RTVSPropertyOp0
70
1
102
RTVSPropertyOp1
70
1
102
RTVSPropertyOp2
70
1
102
RTVSPropertyOp3
70
1
102
RTVSPropertyOp4
70
1
102
RTVSPropertyOp5
70
1
102
RTVSPropertyOp6
70
1
102
RTVSPropertyOp7
70
1
102
RTVSPropertyOp8
70
1
102
RTVSPropertyOp9
70
1
102
RTVSPropertyOp10
70
1
102
RTVSPropertyOp11
70
1
102
RTVSPropertyOp12
70
1
102
RTVSPropertyOp13
70
1
102
RTVSPropertyOp14
70
1
102
RTVSPropertyOp15
70
1
102
RTVSPropertyOp16
70
1
102
RTVSPropertyOp17
70
1
102
RTVSPropertyOp18
70
1
102
RTVSPropertyOp19
70
1
102
RTVSPropertyOp20
70
1
102
RTVSPropertyOp21
70
1
102
RTVSPropertyOp22
70
1
102
RTVSPropertyOp23
70
1
102
RTVSPropertyOp24
70
1
102
RTVSPropertyOp25
70
1
102
RTVSPropertyOp26
70
1
102
RTVSPropertyOp27
70
1
0
XRECORD
5
1091
102
{ACAD_REACTORS
330
1090
102
}
330
1090
100
AcDbXrecord
280
1
102
RTVSPropertyOp0
70
1
102
RTVSPropertyOp1
70
1
102
RTVSPropertyOp2
70
1
102
RTVSPropertyOp3
70
1
102
RTVSPropertyOp4
70
1
102
RTVSPropertyOp5
70
1
102
RTVSPropertyOp6
70
1
102
RTVSPropertyOp7
70
1
102
RTVSPropertyOp8
70
1
102
RTVSPropertyOp9
70
1
102
RTVSPropertyOp10
70
1
102
RTVSPropertyOp11
70
1
102
RTVSPropertyOp12
70
1
102
RTVSPropertyOp13
70
1
102
RTVSPropertyOp14
70
1
102
RTVSPropertyOp15
70
1
102
RTVSPropertyOp16
70
1
102
RTVSPropertyOp17
70
1
102
RTVSPropertyOp18
70
1
102
RTVSPropertyOp19
70
1
102
RTVSPropertyOp20
70
1
102
RTVSPropertyOp21
70
1
102
RTVSPropertyOp22
70
1
102
RTVSPropertyOp23
70
1
102
RTVSPropertyOp24
70
1
102
RTVSPropertyOp25
70
1
102
RTVSPropertyOp26
70
1
102
RTVSPropertyOp27
70
1
0
XRECORD
5
1095
102
{ACAD_REACTORS
330
1094
102
}
330
1094
100
AcDbXrecord
280
1
102
RTVSPropertyOp0
70
1
102
RTVSPropertyOp1
70
1
102
RTVSPropertyOp2
70
1
102
RTVSPropertyOp3
70
1
102
RTVSPropertyOp4
70
1
102
RTVSPropertyOp5
70
1
102
RTVSPropertyOp6
70
1
102
RTVSPropertyOp7
70
1
102
RTVSPropertyOp8
70
1
102
RTVSPropertyOp9
70
1
102
RTVSPropertyOp10
70
1
102
RTVSPropertyOp11
70
1
102
RTVSPropertyOp12
70
1
102
RTVSPropertyOp13
70
1
102
RTVSPropertyOp14
70
1
102
RTVSPropertyOp15
70
1
102
RTVSPropertyOp16
70
1
102
RTVSPropertyOp17
70
1
102
RTVSPropertyOp18
70
1
102
RTVSPropertyOp19
70
1
102
RTVSPropertyOp20
70
1
102
RTVSPropertyOp21
70
1
102
RTVSPropertyOp22
70
1
102
RTVSPropertyOp23
70
1
102
RTVSPropertyOp24
70
1
102
RTVSPropertyOp25
70
1
102
RTVSPropertyOp26
70
1
102
RTVSPropertyOp27
70
1
0
XRECORD
5
10A5
102
{ACAD_REACTORS
330
10A4
102
}
330
10A4
100
AcDbXrecord
280
1
102
RTVSPropertyOp0
70
0
102
RTVSPropertyOp1
70
0
102
RTVSPropertyOp2
70
0
102
RTVSPropertyOp3
70
0
102
RTVSPropertyOp4
70
0
102
RTVSPropertyOp5
70
0
102
RTVSPropertyOp6
70
0
102
RTVSPropertyOp7
70
0
102
RTVSPropertyOp8
70
0
102
RTVSPropertyOp9
70
0
102
RTVSPropertyOp10
70
0
102
RTVSPropertyOp11
70
0
102
RTVSPropertyOp12
70
0
102
RTVSPropertyOp13
70
0
102
RTVSPropertyOp14
70
2
102
RTVSPropertyOp15
70
0
102
RTVSPropertyOp16
70
0
102
RTVSPropertyOp17
70
0
102
RTVSPropertyOp18
70
0
102
RTVSPropertyOp19
70
0
102
RTVSPropertyOp20
70
0
102
RTVSPropertyOp21
70
0
102
RTVSPropertyOp22
70
0
102
RTVSPropertyOp23
70
0
102
RTVSPropertyOp24
70
0
102
RTVSPropertyOp25
70
0
102
RTVSPropertyOp26
70
0
102
RTVSPropertyOp27
70
0
0
XRECORD
5
109D
102
{ACAD_REACTORS
330
109C
102
}
330
109C
100
AcDbXrecord
280
1
102
RTVSPropertyOp0
70
1
102
RTVSPropertyOp1
70
1
102
RTVSPropertyOp2
70
1
102
RTVSPropertyOp3
70
1
102
RTVSPropertyOp4
70
1
102
RTVSPropertyOp5
70
1
102
RTVSPropertyOp6
70
1
102
RTVSPropertyOp7
70
1
102
RTVSPropertyOp8
70
1
102
RTVSPropertyOp9
70
1
102
RTVSPropertyOp10
70
1
102
RTVSPropertyOp11
70
1
102
RTVSPropertyOp12
70
1
102
RTVSPropertyOp13
70
1
102
RTVSPropertyOp14
70
1
102
RTVSPropertyOp15
70
1
102
RTVSPropertyOp16
70
1
102
RTVSPropertyOp17
70
1
102
RTVSPropertyOp18
70
1
102
RTVSPropertyOp19
70
1
102
RTVSPropertyOp20
70
1
102
RTVSPropertyOp21
70
1
102
RTVSPropertyOp22
70
1
102
RTVSPropertyOp23
70
1
102
RTVSPropertyOp24
70
1
102
RTVSPropertyOp25
70
1
102
RTVSPropertyOp26
70
1
102
RTVSPropertyOp27
70
1
0
XRECORD
5
1081
102
{ACAD_REACTORS
330
1080
102
}
330
1080
100
AcDbXrecord
280
1
102
RTVSPropertyOp0
70
1
102
RTVSPropertyOp1
70
1
102
RTVSPropertyOp2
70
1
102
RTVSPropertyOp3
70
1
102
RTVSPropertyOp4
70
1
102
RTVSPropertyOp5
70
1
102
RTVSPropertyOp6
70
1
102
RTVSPropertyOp7
70
1
102
RTVSPropertyOp8
70
1
102
RTVSPropertyOp9
70
1
102
RTVSPropertyOp10
70
1
102
RTVSPropertyOp11
70
1
102
RTVSPropertyOp12
70
1
102
RTVSPropertyOp13
70
1
102
RTVSPropertyOp14
70
1
102
RTVSPropertyOp15
70
1
102
RTVSPropertyOp16
70
1
102
RTVSPropertyOp17
70
1
102
RTVSPropertyOp18
70
1
102
RTVSPropertyOp19
70
1
102
RTVSPropertyOp20
70
1
102
RTVSPropertyOp21
70
1
102
RTVSPropertyOp22
70
1
102
RTVSPropertyOp23
70
1
102
RTVSPropertyOp24
70
1
102
RTVSPropertyOp25
70
1
102
RTVSPropertyOp26
70
1
102
RTVSPropertyOp27
70
1
0
XRECORD
5
1083
102
{ACAD_REACTORS
330
1082
102
}
330
1082
100
AcDbXrecord
280
1
102
RTVSPropertyOp0
70
1
102
RTVSPropertyOp1
70
1
102
RTVSPropertyOp2
70
1
102
RTVSPropertyOp3
70
1
102
RTVSPropertyOp4
70
1
102
RTVSPropertyOp5
70
1
102
RTVSPropertyOp6
70
1
102
RTVSPropertyOp7
70
1
102
RTVSPropertyOp8
70
1
102
RTVSPropertyOp9
70
1
102
RTVSPropertyOp10
70
1
102
RTVSPropertyOp11
70
1
102
RTVSPropertyOp12
70
1
102
RTVSPropertyOp13
70
1
102
RTVSPropertyOp14
70
1
102
RTVSPropertyOp15
70
1
102
RTVSPropertyOp16
70
1
102
RTVSPropertyOp17
70
1
102
RTVSPropertyOp18
70
1
102
RTVSPropertyOp19
70
1
102
RTVSPropertyOp20
70
1
102
RTVSPropertyOp21
70
1
102
RTVSPropertyOp22
70
1
102
RTVSPropertyOp23
70
1
102
RTVSPropertyOp24
70
1
102
RTVSPropertyOp25
70
1
102
RTVSPropertyOp26
70
1
102
RTVSPropertyOp27
70
1
0
XRECORD
5
1085
102
{ACAD_REACTORS
330
1084
102
}
330
1084
100
AcDbXrecord
280
1
102
RTVSPropertyOp0
70
1
102
RTVSPropertyOp1
70
1
102
RTVSPropertyOp2
70
1
102
RTVSPropertyOp3
70
1
102
RTVSPropertyOp4
70
1
102
RTVSPropertyOp5
70
1
102
RTVSPropertyOp6
70
1
102
RTVSPropertyOp7
70
1
102
RTVSPropertyOp8
70
1
102
RTVSPropertyOp9
70
1
102
RTVSPropertyOp10
70
1
102
RTVSPropertyOp11
70
1
102
RTVSPropertyOp12
70
1
102
RTVSPropertyOp13
70
1
102
RTVSPropertyOp14
70
1
102
RTVSPropertyOp15
70
1
102
RTVSPropertyOp16
70
1
102
RTVSPropertyOp17
70
1
102
RTVSPropertyOp18
70
1
102
RTVSPropertyOp19
70
1
102
RTVSPropertyOp20
70
1
102
RTVSPropertyOp21
70
1
102
RTVSPropertyOp22
70
1
102
RTVSPropertyOp23
70
1
102
RTVSPropertyOp24
70
1
102
RTVSPropertyOp25
70
1
102
RTVSPropertyOp26
70
1
102
RTVSPropertyOp27
70
1
0
XRECORD
5
1087
102
{ACAD_REACTORS
330
1086
102
}
330
1086
100
AcDbXrecord
280
1
102
RTVSPropertyOp0
70
1
102
RTVSPropertyOp1
70
1
102
RTVSPropertyOp2
70
1
102
RTVSPropertyOp3
70
1
102
RTVSPropertyOp4
70
1
102
RTVSPropertyOp5
70
1
102
RTVSPropertyOp6
70
1
102
RTVSPropertyOp7
70
1
102
RTVSPropertyOp8
70
1
102
RTVSPropertyOp9
70
1
102
RTVSPropertyOp10
70
1
102
RTVSPropertyOp11
70
1
102
RTVSPropertyOp12
70
1
102
RTVSPropertyOp13
70
1
102
RTVSPropertyOp14
70
1
102
RTVSPropertyOp15
70
1
102
RTVSPropertyOp16
70
1
102
RTVSPropertyOp17
70
1
102
RTVSPropertyOp18
70
1
102
RTVSPropertyOp19
70
1
102
RTVSPropertyOp20
70
1
102
RTVSPropertyOp21
70
1
102
RTVSPropertyOp22
70
1
102
RTVSPropertyOp23
70
1
102
RTVSPropertyOp24
70
1
102
RTVSPropertyOp25
70
1
102
RTVSPropertyOp26
70
1
102
RTVSPropertyOp27
70
1
0
XRECORD
5
10A1
102
{ACAD_REACTORS
330
10A0
102
}
330
10A0
100
AcDbXrecord
280
1
102
RTVSPropertyOp0
70
0
102
RTVSPropertyOp1
70
0
102
RTVSPropertyOp2
70
0
102
RTVSPropertyOp3
70
0
102
RTVSPropertyOp4
70
0
102
RTVSPropertyOp5
70
0
102
RTVSPropertyOp6
70
0
102
RTVSPropertyOp7
70
0
102
RTVSPropertyOp8
70
0
102
RTVSPropertyOp9
70
0
102
RTVSPropertyOp10
70
0
102
RTVSPropertyOp11
70
0
102
RTVSPropertyOp12
70
0
102
RTVSPropertyOp13
70
0
102
RTVSPropertyOp14
70
2
102
RTVSPropertyOp15
70
0
102
RTVSPropertyOp16
70
0
102
RTVSPropertyOp17
70
0
102
RTVSPropertyOp18
70
0
102
RTVSPropertyOp19
70
0
102
RTVSPropertyOp20
70
0
102
RTVSPropertyOp21
70
0
102
RTVSPropertyOp22
70
0
102
RTVSPropertyOp23
70
0
102
RTVSPropertyOp24
70
0
102
RTVSPropertyOp25
70
0
102
RTVSPropertyOp26
70
0
102
RTVSPropertyOp27
70
0
0
XRECORD
5
109B
102
{ACAD_REACTORS
330
109A
102
}
330
109A
100
AcDbXrecord
280
1
102
RTVSPropertyOp0
70
1
102
RTVSPropertyOp1
70
1
102
RTVSPropertyOp2
70
1
102
RTVSPropertyOp3
70
1
102
RTVSPropertyOp4
70
1
102
RTVSPropertyOp5
70
1
102
RTVSPropertyOp6
70
1
102
RTVSPropertyOp7
70
1
102
RTVSPropertyOp8
70
1
102
RTVSPropertyOp9
70
1
102
RTVSPropertyOp10
70
1
102
RTVSPropertyOp11
70
1
102
RTVSPropertyOp12
70
1
102
RTVSPropertyOp13
70
1
102
RTVSPropertyOp14
70
1
102
RTVSPropertyOp15
70
1
102
RTVSPropertyOp16
70
1
102
RTVSPropertyOp17
70
1
102
RTVSPropertyOp18
70
1
102
RTVSPropertyOp19
70
1
102
RTVSPropertyOp20
70
1
102
RTVSPropertyOp21
70
1
102
RTVSPropertyOp22
70
1
102
RTVSPropertyOp23
70
1
102
RTVSPropertyOp24
70
1
102
RTVSPropertyOp25
70
1
102
RTVSPropertyOp26
70
1
102
RTVSPropertyOp27
70
1
0
XRECORD
5
10A3
102
{ACAD_REACTORS
330
10A2
102
}
330
10A2
100
AcDbXrecord
280
1
102
RTVSPropertyOp0
70
0
102
RTVSPropertyOp1
70
0
102
RTVSPropertyOp2
70
0
102
RTVSPropertyOp3
70
0
102
RTVSPropertyOp4
70
0
102
RTVSPropertyOp5
70
0
102
RTVSPropertyOp6
70
0
102
RTVSPropertyOp7
70
0
102
RTVSPropertyOp8
70
0
102
RTVSPropertyOp9
70
0
102
RTVSPropertyOp10
70
0
102
RTVSPropertyOp11
70
0
102
RTVSPropertyOp12
70
0
102
RTVSPropertyOp13
70
0
102
RTVSPropertyOp14
70
2
102
RTVSPropertyOp15
70
0
102
RTVSPropertyOp16
70
0
102
RTVSPropertyOp17
70
0
102
RTVSPropertyOp18
70
0
102
RTVSPropertyOp19
70
0
102
RTVSPropertyOp20
70
0
102
RTVSPropertyOp21
70
0
102
RTVSPropertyOp22
70
0
102
RTVSPropertyOp23
70
0
102
RTVSPropertyOp24
70
0
102
RTVSPropertyOp25
70
0
102
RTVSPropertyOp26
70
0
102
RTVSPropertyOp27
70
0
0
XRECORD
5
1093
102
{ACAD_REACTORS
330
1092
102
}
330
1092
100
AcDbXrecord
280
1
102
RTVSPropertyOp0
70
1
102
RTVSPropertyOp1
70
1
102
RTVSPropertyOp2
70
1
102
RTVSPropertyOp3
70
1
102
RTVSPropertyOp4
70
1
102
RTVSPropertyOp5
70
1
102
RTVSPropertyOp6
70
1
102
RTVSPropertyOp7
70
1
102
RTVSPropertyOp8
70
1
102
RTVSPropertyOp9
70
1
102
RTVSPropertyOp10
70
1
102
RTVSPropertyOp11
70
1
102
RTVSPropertyOp12
70
1
102
RTVSPropertyOp13
70
1
102
RTVSPropertyOp14
70
1
102
RTVSPropertyOp15
70
1
102
RTVSPropertyOp16
70
1
102
RTVSPropertyOp17
70
1
102
RTVSPropertyOp18
70
1
102
RTVSPropertyOp19
70
1
102
RTVSPropertyOp20
70
1
102
RTVSPropertyOp21
70
1
102
RTVSPropertyOp22
70
1
102
RTVSPropertyOp23
70
1
102
RTVSPropertyOp24
70
1
102
RTVSPropertyOp25
70
1
102
RTVSPropertyOp26
70
1
102
RTVSPropertyOp27
70
1
0
XRECORD
5
1099
102
{ACAD_REACTORS
330
1098
102
}
330
1098
100
AcDbXrecord
280
1
102
RTVSPropertyOp0
70
1
102
RTVSPropertyOp1
70
1
102
RTVSPropertyOp2
70
1
102
RTVSPropertyOp3
70
1
102
RTVSPropertyOp4
70
1
102
RTVSPropertyOp5
70
1
102
RTVSPropertyOp6
70
1
102
RTVSPropertyOp7
70
1
102
RTVSPropertyOp8
70
1
102
RTVSPropertyOp9
70
1
102
RTVSPropertyOp10
70
1
102
RTVSPropertyOp11
70
1
102
RTVSPropertyOp12
70
1
102
RTVSPropertyOp13
70
1
102
RTVSPropertyOp14
70
1
102
RTVSPropertyOp15
70
1
102
RTVSPropertyOp16
70
1
102
RTVSPropertyOp17
70
1
102
RTVSPropertyOp18
70
1
102
RTVSPropertyOp19
70
1
102
RTVSPropertyOp20
70
1
102
RTVSPropertyOp21
70
1
102
RTVSPropertyOp22
70
1
102
RTVSPropertyOp23
70
1
102
RTVSPropertyOp24
70
1
102
RTVSPropertyOp25
70
1
102
RTVSPropertyOp26
70
1
102
RTVSPropertyOp27
70
1
0
ENDSEC
0
EOF
