0
SECTION
2
HEADER
9
$ACADVER
1
AC1015
9
$ACADMAINTVER
70
20
9
$DWGCODEPAGE
3
ANSI_1252
9
$INSBASE
10
0.0
20
0.0
30
0.0
9
$EXTMIN
10
-150.000000000000
20
-105.000000000000
30
0.0
9
$EXTMAX
10
150.000000000000
20
105.000000000000
30
0.0
9
$LIMMIN
10
0.0
20
0.0
9
$LIMMAX
10
12.0
20
9.0
9
$ORTHOMODE
70
0
9
$REGENMODE
70
1
9
$FILLMODE
70
1
9
$QTEXTMODE
70
0
9
$MIRRTEXT
70
1
9
$LTSCALE
40
1.0
9
$ATTMODE
70
1
9
$TEXTSIZE
40
0.2
9
$TRACEWID
40
0.05
9
$TEXTSTYLE
7
Standard
9
$CLAYER
8
0
9
$CELTYPE
6
ByLayer
9
$CECOLOR
62
256
9
$CELTSCALE
40
1.0
9
$DISPSILH
70
0
9
$DIMSCALE
40
1.0
9
$DIMASZ
40
2.5
9
$DIMEXO
40
0.625
9
$DIMDLI
40
0.38
9
$DIMRND
40
0.0
9
$DIMDLE
40
0.0
9
$DIMEXE
40
1.25
9
$DIMTP
40
0.0
9
$DIMTM
40
0.000000001
9
$DIMTXT
40
2.5
9
$DIMCEN
40
0.09
9
$DIMTSZ
40
0.0
9
$DIMTOL
70
1
9
$DIMLIM
70
0
9
$DIMTIH
70
0
9
$DIMTOH
70
0
9
$DIMSE1
70
0
9
$DIMSE2
70
0
9
$DIMTAD
70
1
9
$DIMZIN
70
0
9
$DIMBLK
1
VDDIM_DEFAULT
9
$DIMASO
70
1
9
$DIMSHO
70
1
9
$DIMPOST
1

9
$DIMAPOST
1

9
$DIMALT
70
0
9
$DIMALTD
70
2
9
$DIMALTF
40
25.4
9
$DIMLFAC
40
1.00000000000000
9
$DIMTOFL
70
0
9
$DIMTVP
40
0.0
9
$DIMTIX
70
0
9
$DIMSOXD
70
0
9
$DIMSAH
70
0
9
$DIMBLK1
1

9
$DIMBLK2
1

9
$DIMSTYLE
2
BEM-ISBE
9
$DIMCLRD
70
0
9
$DIMCLRE
70
0
9
$DIMCLRT
70
0
9
$DIMTFAC
40
0.5
9
$DIMGAP
40
0.625
9
$DIMJUST
70
0
9
$DIMSD1
70
0
9
$DIMSD2
70
0
9
$DIMTOLJ
70
1
9
$DIMTZIN
70
0
9
$DIMALTZ
70
0
9
$DIMALTTZ
70
0
9
$DIMUPT
70
0
9
$DIMDEC
70
3
9
$DIMTDEC
70
3
9
$DIMALTU
70
2
9
$DIMALTTD
70
2
9
$DIMTXSTY
7
Standard
9
$DIMAUNIT
70
0
9
$DIMADEC
70
3
9
$DIMALTRND
40
0.0
9
$DIMAZIN
70
0
9
$DIMDSEP
70
46
9
$DIMATFIT
70
3
9
$DIMFRAC
70
0
9
$DIMLDRBLK
1

9
$DIMLUNIT
70
2
9
$DIMLWD
70
-2
9
$DIMLWE
70
-2
9
$DIMTMOVE
70
0
9
$LUNITS
70
2
9
$LUPREC
70
4
9
$SKETCHINC
40
0.1
9
$FILLETRAD
40
0.5
9
$AUNITS
70
0
9
$AUPREC
70
0
9
$MENU
1
.
9
$ELEVATION
40
0.0
9
$PELEVATION
40
0.0
9
$THICKNESS
40
0.0
9
$LIMCHECK
70
0
9
$CHAMFERA
40
0.5
9
$CHAMFERB
40
0.5
9
$CHAMFERC
40
1.0
9
$CHAMFERD
40
0.0
9
$SKPOLY
70
0
9
$TDCREATE
40
0.0
9
$TDUCREATE
40
0.0
9
$TDUPDATE
40
0.0
9
$TDUUPDATE
40
0.0
9
$TDINDWG
40
0.0
9
$TDUSRTIMER
40
0.0
9
$USRTIMER
70
1
9
$ANGBASE
50
0.0
9
$ANGDIR
70
0
9
$PDMODE
70
0
9
$PDSIZE
40
0.0
9
$PLINEWID
40
0.0
9
$SPLFRAME
70
0
9
$SPLINETYPE
70
6
9
$SPLINESEGS
70
8
9
$HANDSEED
5
10AB
9
$SURFTAB1
70
6
9
$SURFTAB2
70
6
9
$SURFTYPE
70
6
9
$SURFU
70
6
9
$SURFV
70
6
9
$UCSBASE
2

9
$UCSNAME
2

9
$UCSORG
10
0.0
20
0.0
30
0.0
9
$UCSXDIR
10
1.0
20
0.0
30
0.0
9
$UCSYDIR
10
0.0
20
1.0
30
0.0
9
$UCSORTHOREF
2

9
$UCSORTHOVIEW
70
0
9
$UCSORGTOP
10
0.0
20
0.0
30
0.0
9
$UCSORGBOTTOM
10
0.0
20
0.0
30
0.0
9
$UCSORGLEFT
10
0.0
20
0.0
30
0.0
9
$UCSORGRIGHT
10
0.0
20
0.0
30
0.0
9
$UCSORGFRONT
10
0.0
20
0.0
30
0.0
9
$UCSORGBACK
10
0.0
20
0.0
30
0.0
9
$PUCSBASE
2

9
$PUCSNAME
2

9
$PUCSORG
10
0.0
20
0.0
30
0.0
9
$PUCSXDIR
10
1.0
20
0.0
30
0.0
9
$PUCSYDIR
10
0.0
20
1.0
30
0.0
9
$PUCSORTHOREF
2

9
$PUCSORTHOVIEW
70
0
9
$PUCSORGTOP
10
0.0
20
0.0
30
0.0
9
$PUCSORGBOTTOM
10
0.0
20
0.0
30
0.0
9
$PUCSORGLEFT
10
0.0
20
0.0
30
0.0
9
$PUCSORGRIGHT
10
0.0
20
0.0
30
0.0
9
$PUCSORGFRONT
10
0.0
20
0.0
30
0.0
9
$PUCSORGBACK
10
0.0
20
0.0
30
0.0
9
$USERI1
70
0
9
$USERI2
70
0
9
$USERI3
70
0
9
$USERI4
70
0
9
$USERI5
70
0
9
$USERR1
40
0.0
9
$USERR2
40
0.0
9
$USERR3
40
0.0
9
$USERR4
40
0.0
9
$USERR5
40
0.0
9
$WORLDVIEW
70
1
9
$SHADEDGE
70
3
9
$SHADEDIF
70
70
9
$TILEMODE
70
1
9
$MAXACTVP
70
64
9
$PINSBASE
10
0.0
20
0.0
30
0.0
9
$PLIMCHECK
70
0
9
$PEXTMIN
10
1.000000000000000E+20
20
1.000000000000000E+20
30
1.000000000000000E+20
9
$PEXTMAX
10
-1.000000000000000E+20
20
-1.000000000000000E+20
30
-1.000000000000000E+20
9
$PLIMMIN
10
0.0
20
0.0
9
$PLIMMAX
10
12.0
20
9.0
9
$UNITMODE
70
0
9
$VISRETAIN
70
1
9
$PLINEGEN
70
0
9
$PSLTSCALE
70
1
9
$TREEDEPTH
70
3020
9
$CMLSTYLE
2
Standard
9
$CMLJUST
70
0
9
$CMLSCALE
40
1.0
9
$PROXYGRAPHICS
70
1
9
$MEASUREMENT
70
0
9
$CELWEIGHT
370
-1
9
$ENDCAPS
280
0
9
$JOINSTYLE
280
0
9
$LWDISPLAY
290
0
9
$INSUNITS
70
4
9
$HYPERLINKBASE
1

9
$STYLESHEET
1

9
$XEDIT
290
1
9
$CEPSNTYPE
380
0
9
$PSTYLEMODE
290
0
9
$FINGERPRINTGUID
2
{FAEB1C30-E019-11D5-929B-00C0DF256EC4}
9
$VERSIONGUID
2
{04C5C4E4-4947-4D90-8812-D401569E61F7}
9
$EXTNAMES
290
1
9
$PSVPSCALE
40
0.0
9
$OLESTARTUP
290
0
0
ENDSEC
0
SECTION
2
CLASSES
0
CLASS
1
ACDBDICTIONARYWDFLT
2
AcDbDictionaryWithDefault
3
ObjectDBX Classes
90
0
280
0
281
0
0
CLASS
1
ACDBPLACEHOLDER
2
AcDbPlaceHolder
3
ObjectDBX Classes
90
0
280
0
281
0
0
CLASS
1
LAYOUT
2
AcDbLayout
3
ObjectDBX Classes
90
0
280
0
281
0
0
CLASS
1
MATERIAL
2
AcDbMaterial
3
ObjectDBX Classes
90
1153
280
0
281
0
0
CLASS
1
VISUALSTYLE
2
AcDbVisualStyle
3
ObjectDBX Classes
90
4095
280
0
281
0
0
CLASS
1
TABLESTYLE
2
AcDbTableStyle
3
ObjectDBX Classes
90
4095
280
0
281
0
0
CLASS
1
SCALE
2
AcDbScale
3
ObjectDBX Classes
90
1153
280
0
281
0
0
CLASS
1
MLEADERSTYLE
2
AcDbMLeaderStyle
3
ACDB_MLEADERSTYLE_CLASS
90
4095
280
0
281
0
0
CLASS
1
DICTIONARYVAR
2
AcDbDictionaryVar
3
ObjectDBX Classes
90
0
280
0
281
0
0
CLASS
1
CELLSTYLEMAP
2
AcDbCellStyleMap
3
ObjectDBX Classes
90
1152
280
0
281
0
0
ENDSEC
0
SECTION
2
TABLES
0
TABLE
2
VPORT
5
24A
330
0
100
AcDbSymbolTable
70
1
0
VPORT
5
26B
330
24A
100
AcDbSymbolTableRecord
100
AcDbViewportTableRecord
2
*Active
70
0
10
0.0
20
0.0
11
1.0
21
1.0
12
0.000000000000000
22
0.000000000000000
13
0.0
23
0.0
14
10.0
24
10.0
15
10.0
25
10.0
16
0.0
26
0.0
36
1.0
17
0.0
27
0.0
37
0.0
40
210.000000000000
41
1.42857142857143
42
1.0
43
0.0
44
0.0
50
0.0
51
0.0000000000007958
71
0
72
100
73
1
74
3
75
0
76
0
77
0
78
1
281
0
65
1
110
0.0
120
0.0
130
0.0
111
1.0
121
0.0
131
0.0
112
0.0
122
1.0
132
0.0
79
0
146
0.0
0
ENDTAB
0
TABLE
2
LTYPE
5
247
330
0
100
AcDbSymbolTable
70
25
0
LTYPE
5
256
330
247
100
AcDbSymbolTableRecord
100
AcDbLinetypeTableRecord
2
ByBlock
70
0
3

72
65
73
0
40
0.0
0
LTYPE
5
257
330
247
100
AcDbSymbolTableRecord
100
AcDbLinetypeTableRecord
2
ByLayer
70
0
3

72
65
73
0
40
0.0
0
LTYPE
5
258
330
247
100
AcDbSymbolTableRecord
100
AcDbLinetypeTableRecord
2
Continuous
70
0
3
Solid line
72
65
73
0
40
0.0
0
LTYPE
5
273
330
247
100
AcDbSymbolTableRecord
100
AcDbLinetypeTableRecord
2
CENTER
70
0
3
Center ____ _ ____ _ ____ _ ____ _ ____ _ ____
72
65
73
4
40
2.0
49
1.25
74
0
49
-0.25
74
0
49
0.25
74
0
49
-0.25
74
0
0
LTYPE
5
274
330
247
100
AcDbSymbolTableRecord
100
AcDbLinetypeTableRecord
2
DASHDOT
70
0
3
Dashdot __ . __ . __ . __ . __ . __ . __ . __
72
65
73
4
40
1.0
49
0.5
74
0
49
-0.25
74
0
49
0.0
74
0
49
-0.25
74
0
0
LTYPE
5
275
330
247
100
AcDbSymbolTableRecord
100
AcDbLinetypeTableRecord
2
DASHED
70
0
3
Dashed __ __ __ __ __ __ __ __ __ __ __ __ __ _
72
65
73
2
40
0.75
49
0.5
74
0
49
-0.25
74
0
0
LTYPE
5
276
330
247
100
AcDbSymbolTableRecord
100
AcDbLinetypeTableRecord
2
HIDDEN
70
0
3
Hidden __ __ __ __ __ __ __ __ __ __ __ __ __ __
72
65
73
2
40
0.375
49
0.25
74
0
49
-0.125
74
0
0
LTYPE
5
277
330
247
100
AcDbSymbolTableRecord
100
AcDbLinetypeTableRecord
2
HIDDEN2
70
0
3
Hidden2 _ _ _ _ _ _ _ _ _ _ _ _ _ _ _ _ _
72
65
73
2
40
0.1875
49
0.125
74
0
49
-0.0625
74
0
0
LTYPE
5
278
330
247
100
AcDbSymbolTableRecord
100
AcDbLinetypeTableRecord
2
BORDER
70
0
3
Border __ __ . __ __ . __ __ . __ __ . __ __ .
72
65
73
6
40
1.75
49
0.5
74
0
49
-0.25
74
0
49
0.5
74
0
49
-0.25
74
0
49
0.0
74
0
49
-0.25
74
0
0
LTYPE
5
279
330
247
100
AcDbSymbolTableRecord
100
AcDbLinetypeTableRecord
2
BORDER2
70
0
3
Border2 __.__.__.__.__.__.__.__.__.__.__.
72
65
73
6
40
0.875
49
0.25
74
0
49
-0.125
74
0
49
0.25
74
0
49
-0.125
74
0
49
0.0
74
0
49
-0.125
74
0
0
LTYPE
5
27A
330
247
100
AcDbSymbolTableRecord
100
AcDbLinetypeTableRecord
2
BORDERX2
70
0
3
Borderx2  ____  ____  .  ____  ____  .  ___
72
65
73
6
40
3.5
49
1.0
74
0
49
-0.5
74
0
49
1.0
74
0
49
-0.5
74
0
49
0.0
74
0
49
-0.5
74
0
0
LTYPE
5
27B
330
247
100
AcDbSymbolTableRecord
100
AcDbLinetypeTableRecord
2
CENTER2
70
0
3
Center2  ___ _ ___ _ ___ _ ___ _ ___ _ ___
72
65
73
4
40
1.125
49
0.75
74
0
49
-0.125
74
0
49
0.125
74
0
49
-0.125
74
0
0
LTYPE
5
27C
330
247
100
AcDbSymbolTableRecord
100
AcDbLinetypeTableRecord
2
CENTERX2
70
0
3
Centerx2  ________  __  ________  __  _____
72
65
73
4
40
4.0
49
2.5
74
0
49
-0.5
74
0
49
0.5
74
0
49
-0.5
74
0
0
LTYPE
5
27D
330
247
100
AcDbSymbolTableRecord
100
AcDbLinetypeTableRecord
2
DASHDOT2
70
0
3
Dashdot2  _._._._._._._._._._._._._._._.
72
65
73
4
40
0.5
49
0.25
74
0
49
-0.125
74
0
49
0.0
74
0
49
-0.125
74
0
0
LTYPE
5
27E
330
247
100
AcDbSymbolTableRecord
100
AcDbLinetypeTableRecord
2
DASHDOTX2
70
0
3
Dashdotx2 ____  .  ____  .  ____  .  ___
72
65
73
4
40
2.0
49
1.0
74
0
49
-0.5
74
0
49
0.0
74
0
49
-0.5
74
0
0
LTYPE
5
27F
330
247
100
AcDbSymbolTableRecord
100
AcDbLinetypeTableRecord
2
DASHED2
70
0
3
Dashed2 _ _ _ _ _ _ _ _ _ _ _ _ _ _ _ _ _
72
65
73
2
40
0.375
49
0.25
74
0
49
-0.125
74
0
0
LTYPE
5
280
330
247
100
AcDbSymbolTableRecord
100
AcDbLinetypeTableRecord
2
DASHEDX2
70
0
3
Dashedx2 ____  ____  ____  ____  ____  ___
72
65
73
2
40
1.5
49
1.0
74
0
49
-0.5
74
0
0
LTYPE
5
281
330
247
100
AcDbSymbolTableRecord
100
AcDbLinetypeTableRecord
2
DIVIDE
70
0
3
Divide ____ . . ____ . . ____ . . ____ . . ____
72
65
73
6
40
1.25
49
0.5
74
0
49
-0.25
74
0
49
0.0
74
0
49
-0.25
74
0
49
0.0
74
0
49
-0.25
74
0
0
LTYPE
5
282
330
247
100
AcDbSymbolTableRecord
100
AcDbLinetypeTableRecord
2
DIVIDE2
70
0
3
Divide2 __..__..__..__..__..__..__..__.._
72
65
73
6
40
0.625
49
0.25
74
0
49
-0.125
74
0
49
0.0
74
0
49
-0.125
74
0
49
0.0
74
0
49
-0.125
74
0
0
LTYPE
5
283
330
247
100
AcDbSymbolTableRecord
100
AcDbLinetypeTableRecord
2
DIVIDEX2
70
0
3
Dividex2 ________  .  .  ________  .  .  _
72
65
73
6
40
2.5
49
1.0
74
0
49
-0.5
74
0
49
0.0
74
0
49
-0.5
74
0
49
0.0
74
0
49
-0.5
74
0
0
LTYPE
5
284
330
247
100
AcDbSymbolTableRecord
100
AcDbLinetypeTableRecord
2
DOT
70
0
3
Dot . . . . . . . . . . . . . . . . . . . . . . . .
72
65
73
2
40
0.25
49
0.0
74
0
49
-0.25
74
0
0
LTYPE
5
285
330
247
100
AcDbSymbolTableRecord
100
AcDbLinetypeTableRecord
2
DOT2
70
0
3
Dot2 ........................................
72
65
73
2
40
0.125
49
0.0
74
0
49
-0.125
74
0
0
LTYPE
5
286
330
247
100
AcDbSymbolTableRecord
100
AcDbLinetypeTableRecord
2
DOTX2
70
0
3
Dotx2 .  .  .  .  .  .  .  .  .  .  .  .  .  .
72
65
73
2
40
0.5
49
0.0
74
0
49
-0.5
74
0
0
LTYPE
5
287
330
247
100
AcDbSymbolTableRecord
100
AcDbLinetypeTableRecord
2
HIDDENX2
70
0
3
Hiddenx2 ____ ____ ____ ____ ____ ____ ____
72
65
73
2
40
0.75
49
0.5
74
0
49
-0.25
74
0
0
LTYPE
5
288
330
247
100
AcDbSymbolTableRecord
100
AcDbLinetypeTableRecord
2
PHANTOM
70
0
3
Phantom ______  __  __  ______  __  __  ______
72
65
73
6
40
2.5
49
1.25
74
0
49
-0.25
74
0
49
0.25
74
0
49
-0.25
74
0
49
0.25
74
0
49
-0.25
74
0
0
LTYPE
5
289
330
247
100
AcDbSymbolTableRecord
100
AcDbLinetypeTableRecord
2
PHANTOM2
70
0
3
Phantom2 ___ _ _ ___ _ _ ___ _ _ ___ _ _
72
65
73
6
40
1.25
49
0.625
74
0
49
-0.125
74
0
49
0.125
74
0
49
-0.125
74
0
49
0.125
74
0
49
-0.125
74
0
0
LTYPE
5
28A
330
247
100
AcDbSymbolTableRecord
100
AcDbLinetypeTableRecord
2
PHANTOMX2
70
0
3
Phantomx2 ____________    ____    ____   _
72
65
73
6
40
5.0
49
2.5
74
0
49
-0.5
74
0
49
0.5
74
0
49
-0.5
74
0
49
0.5
74
0
49
-0.5
74
0
0
ENDTAB
0
TABLE
2
LAYER
5
244
330
0
100
AcDbSymbolTable
70
6
0
LAYER
5
252
330
244
100
AcDbSymbolTableRecord
100
AcDbLayerTableRecord
2
0
70
0
62
7
6
Continuous
370
0
390
251
0
LAYER
5
23F
330
244
100
AcDbSymbolTableRecord
100
AcDbLayerTableRecord
2
Bemassung
70
0
 62
   7
6
Continuous
370
0
390
251
0
LAYER
5
240
330
244
100
AcDbSymbolTableRecord
100
AcDbLayerTableRecord
2
Rahmen
70
0
 62
   7
6
Continuous
370
0
390
251
0
LAYER
5
241
330
244
100
AcDbSymbolTableRecord
100
AcDbLayerTableRecord
2
Geo
70
0
 62
   7
6
Continuous
370
0
390
251
0
LAYER
5
33A
330
244
100
AcDbSymbolTableRecord
100
AcDbLayerTableRecord
2
Defpoints
70
0
62
7
6
Continuous
290
0
370
-3
390
251
0
LAYER
5
57E
330
244
100
AcDbSymbolTableRecord
100
AcDbLayerTableRecord
2
Text
70
0
 62
   7
6
Continuous
370
0
390
251
1001
AcAecLayerStandard
1000

1000

0
ENDTAB
0
TABLE
2
STYLE
5
245
330
0
100
AcDbSymbolTable
70
2
0
STYLE
5
253
330
245
100
AcDbSymbolTableRecord
100
AcDbTextStyleTableRecord
2
Standard
70
0
40
0.0
41
1.0
50
0.0
71
0
42
0.2
3
Arial
4

1001
ACAD
1000
Arial
1071
0
0
STYLE
5
132
330
245
100
AcDbSymbolTableRecord
100
AcDbTextStyleTableRecord
2
Beschriftung
70
0
40
0.0
41
1.0
50
0.0
71
0
42
0.2
3
Arial
4

1001
ACAD
1000
Arial
1071
0
1001
AcadAnnotative
1000
AnnotativeData
1070
1
1070
1
0
ENDTAB
0
TABLE
2
VIEW
5
248
330
0
100
AcDbSymbolTable
70
0
0
ENDTAB
0
TABLE
2
UCS
5
249
330
0
100
AcDbSymbolTable
70
0
0
ENDTAB
0
TABLE
2
APPID
5
24B
330
0
100
AcDbSymbolTable
70
13
0
APPID
5
254
330
24B
100
AcDbSymbolTableRecord
100
AcDbRegAppTableRecord
2
ACAD
70
0
0
APPID
5
26C
330
24B
100
AcDbSymbolTableRecord
100
AcDbRegAppTableRecord
2
VD_INVISIBLE_NOT_FOR_READ
70
0
0
APPID
5
26D
330
24B
100
AcDbSymbolTableRecord
100
AcDbRegAppTableRecord
2
VD_TEMPHATCH
70
0
0
APPID
5
26E
330
24B
100
AcDbSymbolTableRecord
100
AcDbRegAppTableRecord
2
VDEXTRAPARAM
70
0
0
APPID
5
26F
330
24B
100
AcDbSymbolTableRecord
100
AcDbRegAppTableRecord
2
PE_URL
70
0
0
APPID
5
270
330
24B
100
AcDbSymbolTableRecord
100
AcDbRegAppTableRecord
2
VD_UNKNOWN
70
0
0
APPID
5
28F
330
24B
100
AcDbSymbolTableRecord
100
AcDbRegAppTableRecord
2
AcadAnnotative
70
0
0
APPID
5
290
330
24B
100
AcDbSymbolTableRecord
100
AcDbRegAppTableRecord
2
ACAD_DSTYLE_DIMJAG
70
0
0
APPID
5
291
330
24B
100
AcDbSymbolTableRecord
100
AcDbRegAppTableRecord
2
ACAD_DSTYLE_DIMTALN
70
0
0
APPID
5
293
330
24B
100
AcDbSymbolTableRecord
100
AcDbRegAppTableRecord
2
ACAD_PSEXT
70
0
0
APPID
5
42A
330
24B
100
AcDbSymbolTableRecord
100
AcDbRegAppTableRecord
2
ACAD_MLEADERVER
70
0
0
APPID
5
532
330
24B
100
AcDbSymbolTableRecord
100
AcDbRegAppTableRecord
2
ACAD_EXEMPT_FROM_CAD_STANDARDS
70
0
0
APPID
5
57F
330
24B
100
AcDbSymbolTableRecord
100
AcDbRegAppTableRecord
2
AcAecLayerStandard
70
0
0
ENDTAB
0
TABLE
2
DIMSTYLE
5
24C
330
0
100
AcDbSymbolTable
70
3
100
AcDbDimStyleTable
71
2
340
27
340
269
0
DIMSTYLE
105
269
330
24C
100
AcDbSymbolTableRecord
100
AcDbDimStyleTableRecord
2
Standard
70
0
172
1
174
1
288
1
340
253
342
23C
0
DIMSTYLE
105
137
330
24C
100
AcDbSymbolTableRecord
100
AcDbDimStyleTableRecord
2
Beschriftung
70
0
41
2.5
42
0.625
44
1.25
73
0
74
0
77
1
140
2.5
147
0.625
172
1
174
1
271
2
288
1
340
253
342
23C
1001
AcadAnnotative
1000
AnnotativeData
1070
1
1070
1
1001
ACAD_DSTYLE_DIMJAG
1070
388
1040
1.5
1001
ACAD_DSTYLE_DIMTALN
1070
392
1070
0
0
DIMSTYLE
105
27
102
{ACAD_REACTORS
330
F1000D
330
F10012
330
F1001C
330
F10003
330
F10008
330
F10017
102
}
330
24C
100
AcDbSymbolTableRecord
100
AcDbDimStyleTableRecord
2
BEM-ISBE
70
0
41
2.5
42
0.625
44
1.25
48
0.000000001
71
1
73
0
74
0
77
1
140
2.5
144
1.00000000000000
146
0.5
147
0.625
171
 3
172
 1
179
 3
271
 3
272
 3
274
 3
340
253
342
23C
1001
ACAD_DSTYLE_DIMJAG
1070
388
1040
1.5
1001
ACAD_DSTYLE_DIMTALN
1070
392
1070
1
0
ENDTAB
0
TABLE
2
BLOCK_RECORD
5
243
330
0
100
AcDbSymbolTable
70
5
0
BLOCK_RECORD
5
261
330
243
100
AcDbSymbolTableRecord
100
AcDbBlockTableRecord
2
*Model_Space
340
FD0
0
BLOCK_RECORD
5
25D
330
243
100
AcDbSymbolTableRecord
100
AcDbBlockTableRecord
2
*Paper_Space
340
FD1
0
BLOCK_RECORD
5
265
330
243
100
AcDbSymbolTableRecord
100
AcDbBlockTableRecord
2
*Paper_Space0
340
0
0
BLOCK_RECORD
5
23C
330
243
100
AcDbSymbolTableRecord
100
AcDbBlockTableRecord
2
VDDIM_DEFAULT
340
0
102
{BLKREFS
102
}
0
BLOCK_RECORD
5
23E
330
243
100
AcDbSymbolTableRecord
100
AcDbBlockTableRecord
2
VDDIM_NONE
340
0
0
BLOCK_RECORD
5
F1000C
330
243
100
AcDbSymbolTableRecord
100
AcDbBlockTableRecord
2
*D5
340
0
0
BLOCK_RECORD
5
F10011
330
243
100
AcDbSymbolTableRecord
100
AcDbBlockTableRecord
2
*D6
340
0
0
BLOCK_RECORD
5
F1001B
330
243
100
AcDbSymbolTableRecord
100
AcDbBlockTableRecord
2
*D8
340
0
0
BLOCK_RECORD
5
F10002
330
243
100
AcDbSymbolTableRecord
100
AcDbBlockTableRecord
2
*D3
340
0
0
BLOCK_RECORD
5
F10007
330
243
100
AcDbSymbolTableRecord
100
AcDbBlockTableRecord
2
*D4
340
0
0
BLOCK_RECORD
5
F10016
330
243
100
AcDbSymbolTableRecord
100
AcDbBlockTableRecord
2
*D7
340
0
0
ENDTAB
0
ENDSEC
0
SECTION
2
BLOCKS
0
BLOCK
5
262
330
261
100
AcDbEntity
8
0
100
AcDbBlockBegin
2
*Model_Space
70
0
10
0.0
20
0.0
30
0.0
3
*Model_Space
1

0
ENDBLK
5
263
330
261
100
AcDbEntity
8
0
100
AcDbBlockEnd
0
BLOCK
5
25E
330
25D
100
AcDbEntity
67
1
8
0
100
AcDbBlockBegin
2
*Paper_Space
70
0
10
0.0
20
0.0
30
0.0
3
*Paper_Space
1

0
ENDBLK
5
25F
330
25D
100
AcDbEntity
67
1
8
0
100
AcDbBlockEnd
0
BLOCK
5
266
330
265
100
AcDbEntity
8
0
100
AcDbBlockBegin
2
*Paper_Space0
70
0
10
0.0
20
0.0
30
0.0
3
*Paper_Space0
1

0
VIEWPORT
5
296
102
{ACAD_XDICTIONARY
360
58E
102
}
330
265
100
AcDbEntity
8
0
60
1
100
AcDbViewport
10
0.0
20
0.0
30
0.0
40
10.0
41
10.0
69
0
12
0.0
22
0.0
13
0.0
23
0.0
14
1.0
24
1.0
15
0.0
25
0.0
16
0.0
26
0.0
36
1.0
17
0.0
27
0.0
37
0.0
42
0.0
43
0.0
44
0.0
45
10.0
50
0.0
51
0.0000000000007958
72
100
90
163872
1

281
0
71
0
74
0
110
0.0
120
0.0
130
0.0
111
1.0
121
0.0
131
0.0
112
0.0
122
1.0
132
0.0
79
0
146
0.0
1001
VD_INVISIBLE_NOT_FOR_READ
1000
VD_INVISIBLE_NOT_FOR_READ
0
VIEWPORT
5
297
102
{ACAD_XDICTIONARY
360
590
102
}
330
265
100
AcDbEntity
8
0
60
1
100
AcDbViewport
10
0.0
20
0.0
30
0.0
40
10.0
41
10.0
69
0
12
0.0
22
0.0
13
0.0
23
0.0
14
1.0
24
1.0
15
0.0
25
0.0
16
0.0
26
0.0
36
1.0
17
0.0
27
0.0
37
0.0
42
0.0
43
0.0
44
0.0
45
10.0
50
0.0
51
0.0000000000007958
72
100
90
163872
1

281
0
71
0
74
0
110
0.0
120
0.0
130
0.0
111
1.0
121
0.0
131
0.0
112
0.0
122
1.0
132
0.0
79
0
146
0.0
1001
VD_INVISIBLE_NOT_FOR_READ
1000
VD_INVISIBLE_NOT_FOR_READ
0
ENDBLK
5
267
330
265
100
AcDbEntity
8
0
100
AcDbBlockEnd
0
BLOCK
5
28B
330
23C
100
AcDbEntity
8
0
100
AcDbBlockBegin
2
VDDIM_DEFAULT
70
0
10
0.0
20
0.0
30
0.0
3
VDDIM_DEFAULT
1

0
LWPOLYLINE
5
23D
330
23C
100
AcDbEntity
8
0
6
Continuous
62
0
100
AcDbPolyline
90
4
70
0
43
0.0
10
0.0
20
0.0
10
-1.0
20
-0.1665
10
-1.0
20
0.1665
10
0.0
20
0.0
1001
VDEXTRAPARAM
1071
1
1071
0
1071
0
1040
1.0
1000

1000

1040
0.0
1040
0.0
0
HATCH
5
292
330
23C
100
AcDbEntity
8
0
6
Continuous
62
0
100
AcDbHatch
10
0.0
20
0.0
30
0.0
210
0.0
220
0.0
230
1.0
2
SOLID
70
1
71
0
91
1
92
2
72
0
73
1
93
3
10
0.0
20
0.0
10
-1.0
20
-0.1665
10
-1.0
20
0.1665
97
0
75
0
76
1
98
1
10
0.0
20
0.0
1001
VDEXTRAPARAM
1071
1
1071
0
1071
0
1040
1.0
1000

1000

1040
0.0
1040
0.0
1001
VD_TEMPHATCH
1000
VD_TEMPHATCH
0
ENDBLK
5
28C
330
23C
100
AcDbEntity
8
0
100
AcDbBlockEnd
0
BLOCK
5
28D
330
23E
100
AcDbEntity
8
0
100
AcDbBlockBegin
2
VDDIM_NONE
70
0
10
0.0
20
0.0
30
0.0
3
VDDIM_NONE
1

0
ENDBLK
5
28E
330
23E
100
AcDbEntity
8
0
100
AcDbBlockEnd
  0
BLOCK
  5
F10020
330
F1000C
100
AcDbEntity
  8
0
100
AcDbBlockBegin
  2
*D5
 70
     1
 10
0.0
 20
0.0
 30
0.0
  3
*D5
  1

  0
LINE
  5
F10021
330
F1000C
100
AcDbEntity
  8
Bemassung
 62
     0
370
    -2
100
AcDbLine
10
-4.30225498699045
20
4.04588031222895
30
0.000000000000000
11
-4.30225498699045
21
-4.25411968777105
31
0.000000000000000
  0
LINE
  5
F10022
330
F1000C
100
AcDbEntity
  8
Bemassung
 62
     0
370
    -2
100
AcDbLine
10
-34.3022549869904
20
-4.25411968777105
30
0.000000000000000
11
-34.3022549869904
21
35.7458803122289
31
0.000000000000000
  0
LINE
  5
F10023
330
F1000C
100
AcDbEntity
  8
Bemassung
 62
     0
370
    -2
100
AcDbLine
10
-4.30225498699045
20
-2.25411968777105
30
0.000000000000000
11
-34.3022549869904
21
-2.25411968777105
31
0.000000000000000
  0
INSERT
  5
F10024
330
F1000C
100
AcDbEntity
  8
Bemassung
 62
     0
370
    -2
100
AcDbBlockReference
  2
VDDIM_DEFAULT
10
-4.30225498699045
20
-2.25411968777105
30
0.000000000000000
 41
2.50000000000000
 42
2.50000000000000
 43
2.50000000000000
  0
INSERT
  5
F10025
330
F1000C
100
AcDbEntity
  8
Bemassung
 62
     0
370
    -2
100
AcDbBlockReference
  2
VDDIM_DEFAULT
10
-34.3022549869904
20
-2.25411968777105
30
0.000000000000000
 41
2.50000000000000
 42
2.50000000000000
 43
2.50000000000000
 50
180.000000000000
  0
MTEXT
  5
F10026
330
F1000C
100
AcDbEntity
  8
Bemassung
 62
     0
100
AcDbMText
10
-19.3022549869904
20
-1.58745302110439
30
0.000000000000000
 40
2.50000000000000
 41
0.0
 71
     8
 72
     1
  1
30
 11
1.00000000000000
 21
0.000000000000000
 31
0.0
 73
     1
 44
1.0
1001
ACAD
1000
MTEXTBEGIN
1070
73
1070
1
1070
44
1040
1.0
1070
74
1070
0
1000
MTEXTEND
  0
POINT
  5
F10027
330
F1000C
100
AcDbEntity
  8
Bemassung
 62
     0
100
AcDbPoint
10
-4.30225498699045
20
4.04588031222895
30
0.000000000000000
  0
POINT
  5
F10028
330
F1000C
100
AcDbEntity
  8
Bemassung
 62
     0
100
AcDbPoint
10
-34.3022549869904
20
-4.25411968777105
30
0.000000000000000
  0
ENDBLK
  5
F10029
330
F1000C
100
AcDbEntity
  8
0
100
AcDbBlockEnd
  0
BLOCK
  5
F1002A
330
F10011
100
AcDbEntity
  8
0
100
AcDbBlockBegin
  2
*D6
 70
     1
 10
0.0
 20
0.0
 30
0.0
  3
*D6
  1

  0
LINE
  5
F1002B
330
F10011
100
AcDbEntity
  8
Bemassung
 62
     0
370
    -2
100
AcDbLine
10
48.6977450130096
20
16.7458803122289
30
0.000000000000000
11
48.6977450130096
21
35.7458803122289
31
0.000000000000000
  0
LINE
  5
F1002C
330
F10011
100
AcDbEntity
  8
Bemassung
 62
     0
370
    -2
100
AcDbLine
10
-34.3022549869904
20
-4.25411968777105
30
0.000000000000000
11
-34.3022549869904
21
35.7458803122289
31
0.000000000000000
  0
LINE
  5
F1002D
330
F10011
100
AcDbEntity
  8
Bemassung
 62
     0
370
    -2
100
AcDbLine
10
48.6977450130096
20
33.7458803122289
30
0.000000000000000
11
-34.3022549869904
21
33.7458803122289
31
0.000000000000000
  0
INSERT
  5
F1002E
330
F10011
100
AcDbEntity
  8
Bemassung
 62
     0
370
    -2
100
AcDbBlockReference
  2
VDDIM_DEFAULT
10
48.6977450130096
20
33.7458803122289
30
0.000000000000000
 41
2.50000000000000
 42
2.50000000000000
 43
2.50000000000000
  0
INSERT
  5
F1002F
330
F10011
100
AcDbEntity
  8
Bemassung
 62
     0
370
    -2
100
AcDbBlockReference
  2
VDDIM_DEFAULT
10
-34.3022549869904
20
33.7458803122289
30
0.000000000000000
 41
2.50000000000000
 42
2.50000000000000
 43
2.50000000000000
 50
180.000000000000
  0
MTEXT
  5
F10030
330
F10011
100
AcDbEntity
  8
Bemassung
 62
     0
100
AcDbMText
10
7.19774501300955
20
34.4125469788956
30
0.000000000000000
 40
2.50000000000000
 41
0.0
 71
     8
 72
     1
  1
83
 11
1.00000000000000
 21
0.000000000000000
 31
0.0
 73
     1
 44
1.0
1001
ACAD
1000
MTEXTBEGIN
1070
73
1070
1
1070
44
1040
1.0
1070
74
1070
0
1000
MTEXTEND
  0
POINT
  5
F10031
330
F10011
100
AcDbEntity
  8
Bemassung
 62
     0
100
AcDbPoint
10
48.6977450130096
20
16.7458803122289
30
0.000000000000000
  0
POINT
  5
F10032
330
F10011
100
AcDbEntity
  8
Bemassung
 62
     0
100
AcDbPoint
10
-34.3022549869904
20
-4.25411968777105
30
0.000000000000000
  0
ENDBLK
  5
F10033
330
F10011
100
AcDbEntity
  8
0
100
AcDbBlockEnd
  0
BLOCK
  5
F10034
330
F1001B
100
AcDbEntity
  8
0
100
AcDbBlockBegin
  2
*D8
 70
     1
 10
0.0
 20
0.0
 30
0.0
  3
*D8
  1

  0
LINE
  5
F10035
330
F1001B
100
AcDbEntity
  8
Bemassung
 62
     0
370
    -2
100
AcDbLine
10
-34.3022549869904
20
17.7458803122289
30
0.000000000000000
11
-34.3022549869904
21
26.1595836947094
31
0.000000000000000
  0
LINE
  5
F10036
330
F1001B
100
AcDbEntity
  8
Bemassung
 62
     0
370
    -2
100
AcDbLine
10
3.69774501300955
20
17.4458803122289
30
0.000000000000000
11
3.69774501300955
21
26.1595836947094
31
0.000000000000000
  0
LINE
  5
F10037
330
F1001B
100
AcDbEntity
  8
Bemassung
 62
     0
370
    -2
100
AcDbLine
10
-34.3022549869904
20
24.1595836947094
30
0.000000000000000
11
3.69774501300955
21
24.1595836947094
31
0.000000000000000
  0
INSERT
  5
F10038
330
F1001B
100
AcDbEntity
  8
Bemassung
 62
     0
370
    -2
100
AcDbBlockReference
  2
VDDIM_DEFAULT
10
-34.3022549869904
20
24.1595836947094
30
0.000000000000000
 41
2.50000000000000
 42
2.50000000000000
 43
2.50000000000000
 50
180.000000000000
  0
INSERT
  5
F10039
330
F1001B
100
AcDbEntity
  8
Bemassung
 62
     0
370
    -2
100
AcDbBlockReference
  2
VDDIM_DEFAULT
10
3.69774501300955
20
24.1595836947094
30
0.000000000000000
 41
2.50000000000000
 42
2.50000000000000
 43
2.50000000000000
  0
MTEXT
  5
F1003A
330
F1001B
100
AcDbEntity
  8
Bemassung
 62
     0
100
AcDbMText
10
-15.3022549869904
20
24.8262503613761
30
0.000000000000000
 40
2.50000000000000
 41
0.0
 71
     8
 72
     1
  1
38
 11
1.00000000000000
 21
0.000000000000000
 31
0.0
 73
     1
 44
1.0
1001
ACAD
1000
MTEXTBEGIN
1070
73
1070
1
1070
44
1040
1.0
1070
74
1070
0
1000
MTEXTEND
  0
POINT
  5
F1003B
330
F1001B
100
AcDbEntity
  8
Bemassung
 62
     0
100
AcDbPoint
10
-34.3022549869904
20
17.7458803122289
30
0.000000000000000
  0
POINT
  5
F1003C
330
F1001B
100
AcDbEntity
  8
Bemassung
 62
     0
100
AcDbPoint
10
3.69774501300955
20
17.4458803122289
30
0.000000000000000
  0
ENDBLK
  5
F1003D
330
F1001B
100
AcDbEntity
  8
0
100
AcDbBlockEnd
  0
BLOCK
  5
F1003E
330
F10002
100
AcDbEntity
  8
0
100
AcDbBlockBegin
  2
*D3
 70
     1
 10
0.0
 20
0.0
 30
0.0
  3
*D3
  1

  0
LINE
  5
F1003F
330
F10002
100
AcDbEntity
  8
Bemassung
 62
     0
370
    -2
100
AcDbLine
10
-34.3022549869904
20
3.74588031222895
30
0.000000000000000
11
-46.3022549869904
21
3.74588031222895
31
0.000000000000000
  0
LINE
  5
F10040
330
F10002
100
AcDbEntity
  8
Bemassung
 62
     0
370
    -2
100
AcDbLine
10
-34.3022549869904
20
17.7458803122289
30
0.000000000000000
11
-46.3022549869904
21
17.7458803122289
31
0.000000000000000
  0
LINE
  5
F10041
330
F10002
100
AcDbEntity
  8
Bemassung
 62
     0
370
    -2
100
AcDbLine
10
-44.3022549869904
20
3.74588031222895
30
0.000000000000000
11
-44.3022549869904
21
17.7458803122289
31
0.000000000000000
  0
INSERT
  5
F10042
330
F10002
100
AcDbEntity
  8
Bemassung
 62
     0
370
    -2
100
AcDbBlockReference
  2
VDDIM_DEFAULT
10
-44.3022549869904
20
3.74588031222895
30
0.000000000000000
 41
2.50000000000000
 42
2.50000000000000
 43
2.50000000000000
 50
270.000000000000
  0
INSERT
  5
F10043
330
F10002
100
AcDbEntity
  8
Bemassung
 62
     0
370
    -2
100
AcDbBlockReference
  2
VDDIM_DEFAULT
10
-44.3022549869904
20
17.7458803122289
30
0.000000000000000
 41
2.50000000000000
 42
2.50000000000000
 43
2.50000000000000
 50
90.0000000000000
  0
MTEXT
  5
F10044
330
F10002
100
AcDbEntity
  8
Bemassung
 62
     0
100
AcDbMText
10
-44.9689216536571
20
10.7458803122289
30
0.000000000000000
 40
2.50000000000000
 41
0.0
 71
     8
 72
     1
  1
Ø14
 11
6.12323399573677e-17
 21
1.00000000000000
 31
0.0
 73
     1
 44
1.0
1001
ACAD
1000
MTEXTBEGIN
1070
73
1070
1
1070
44
1040
1.0
1070
74
1070
0
1000
MTEXTEND
  0
POINT
  5
F10045
330
F10002
100
AcDbEntity
  8
Bemassung
 62
     0
100
AcDbPoint
10
-34.3022549869904
20
3.74588031222895
30
0.000000000000000
  0
POINT
  5
F10046
330
F10002
100
AcDbEntity
  8
Bemassung
 62
     0
100
AcDbPoint
10
-34.3022549869904
20
17.7458803122289
30
0.000000000000000
  0
ENDBLK
  5
F10047
330
F10002
100
AcDbEntity
  8
0
100
AcDbBlockEnd
  0
BLOCK
  5
F10048
330
F10007
100
AcDbEntity
  8
0
100
AcDbBlockBegin
  2
*D4
 70
     1
 10
0.0
 20
0.0
 30
0.0
  3
*D4
  1

  0
LINE
  5
F10049
330
F10007
100
AcDbEntity
  8
Bemassung
 62
     0
370
    -2
100
AcDbLine
10
47.6977450130096
20
3.74588031222895
30
0.000000000000000
11
60.6977450130096
21
3.74588031222895
31
0.000000000000000
  0
LINE
  5
F1004A
330
F10007
100
AcDbEntity
  8
Bemassung
 62
     0
370
    -2
100
AcDbLine
10
47.6977450130096
20
17.7458803122289
30
0.000000000000000
11
60.6977450130096
21
17.7458803122289
31
0.000000000000000
  0
LINE
  5
F1004B
330
F10007
100
AcDbEntity
  8
Bemassung
 62
     0
370
    -2
100
AcDbLine
10
58.6977450130096
20
3.74588031222895
30
0.000000000000000
11
58.6977450130096
21
17.7458803122289
31
0.000000000000000
  0
INSERT
  5
F1004C
330
F10007
100
AcDbEntity
  8
Bemassung
 62
     0
370
    -2
100
AcDbBlockReference
  2
VDDIM_DEFAULT
10
58.6977450130096
20
3.74588031222895
30
0.000000000000000
 41
2.50000000000000
 42
2.50000000000000
 43
2.50000000000000
 50
270.000000000000
  0
INSERT
  5
F1004D
330
F10007
100
AcDbEntity
  8
Bemassung
 62
     0
370
    -2
100
AcDbBlockReference
  2
VDDIM_DEFAULT
10
58.6977450130096
20
17.7458803122289
30
0.000000000000000
 41
2.50000000000000
 42
2.50000000000000
 43
2.50000000000000
 50
90.0000000000000
  0
MTEXT
  5
F1004E
330
F10007
100
AcDbEntity
  8
Bemassung
 62
     0
100
AcDbMText
10
58.0310783463429
20
10.7458803122289
30
0.000000000000000
 40
2.50000000000000
 41
0.0
 71
     8
 72
     1
  1
Ø14h6
 11
6.12323399573677e-17
 21
1.00000000000000
 31
0.0
 73
     1
 44
1.0
  0
POINT
  5
F1004F
330
F10007
100
AcDbEntity
  8
Bemassung
 62
     0
100
AcDbPoint
10
47.6977450130096
20
3.74588031222895
30
0.000000000000000
  0
POINT
  5
F10050
330
F10007
100
AcDbEntity
  8
Bemassung
 62
     0
100
AcDbPoint
10
47.6977450130096
20
17.7458803122289
30
0.000000000000000
  0
ENDBLK
  5
F10051
330
F10007
100
AcDbEntity
  8
0
100
AcDbBlockEnd
  0
BLOCK
  5
F10052
330
F10016
100
AcDbEntity
  8
0
100
AcDbBlockBegin
  2
*D7
 70
     1
 10
0.0
 20
0.0
 30
0.0
  3
*D7
  1

  0
LINE
  5
F10053
330
F10016
100
AcDbEntity
  8
Bemassung
 62
     0
370
    -2
100
AcDbLine
10
-4.30225498699045
20
17.4458803122289
30
0.000000000000000
11
1.20004050286922
21
17.4458803122289
31
0.000000000000000
  0
LINE
  5
F10054
330
F10016
100
AcDbEntity
  8
Bemassung
 62
     0
370
    -2
100
AcDbLine
10
-4.30225498699045
20
4.04588031222895
30
0.000000000000000
11
1.20004050286922
21
4.04588031222895
31
0.000000000000000
  0
LINE
  5
F10055
330
F10016
100
AcDbEntity
  8
Bemassung
 62
     0
370
    -2
100
AcDbLine
10
-0.799959497130779
20
17.4458803122289
30
0.000000000000000
11
-0.799959497130779
21
-16.6652211621856
31
0.000000000000000
  0
INSERT
  5
F10056
330
F10016
100
AcDbEntity
  8
Bemassung
 62
     0
370
    -2
100
AcDbBlockReference
  2
VDDIM_DEFAULT
10
-0.799959497130779
20
17.4458803122289
30
0.000000000000000
 41
2.50000000000000
 42
2.50000000000000
 43
2.50000000000000
 50
270.000000000000
  0
INSERT
  5
F10057
330
F10016
100
AcDbEntity
  8
Bemassung
 62
     0
370
    -2
100
AcDbBlockReference
  2
VDDIM_DEFAULT
10
-0.799959497130779
20
4.04588031222895
30
0.000000000000000
 41
2.50000000000000
 42
2.50000000000000
 43
2.50000000000000
 50
90.0000000000000
  0
MTEXT
  5
F10058
330
F10016
100
AcDbEntity
  8
Bemassung
 62
     0
100
AcDbMText
10
-1.46662616379745
20
-11.9297484822202
30
0.000000000000000
 40
2.50000000000000
 41
0.0
 71
     8
 72
     1
  1
Ø13.4
 11
6.12323399573677e-17
 21
1.00000000000000
 31
0.0
 73
     1
 44
1.0
1001
ACAD
1000
MTEXTBEGIN
1070
73
1070
1
1070
44
1040
1.0
1070
74
1070
0
1000
MTEXTEND
  0
POINT
  5
F10059
330
F10016
100
AcDbEntity
  8
Bemassung
 62
     0
100
AcDbPoint
10
-4.30225498699045
20
17.4458803122289
30
0.000000000000000
  0
POINT
  5
F1005A
330
F10016
100
AcDbEntity
  8
Bemassung
 62
     0
100
AcDbPoint
10
-4.30225498699045
20
4.04588031222895
30
0.000000000000000
  0
ENDBLK
  5
F1005B
330
F10016
100
AcDbEntity
  8
0
100
AcDbBlockEnd
0
ENDSEC
0
SECTION
2
ENTITIES
  0
DIMENSION
  5
F1000D
330
261
100
AcDbEntity
  8
Bemassung
100
AcDbDimension
  2
*D5
10
-34.3022549869904
20
-2.25411968777105
30
0.000000000000000
11
-19.3022549869904
21
-1.58745302110439
31
0.000000000000000
 70
32
 1
30
 71
     8
  3
BEM-ISBE
100
AcDbAlignedDimension
13
-4.30225498699045
23
4.04588031222895
33
0.000000000000000
14
-34.3022549869904
24
-4.25411968777105
34
0.000000000000000
100
AcDbRotatedDimension
1001
ACAD
1000
DSTYLE
1002
{
1070
284
1070
8
1070
78
1070
8
1070
144
1040
1.00000000000000
1070
147
1040
0.625
1070
 72
1070
 0
1070
 71
1070
 0
1002
}
  0
DIMENSION
  5
F10012
330
261
100
AcDbEntity
  8
Bemassung
100
AcDbDimension
  2
*D6
10
-34.3022549869904
20
33.7458803122289
30
0.000000000000000
11
7.19774501300955
21
34.4125469788956
31
0.000000000000000
 70
32
 1
83
 71
     8
  3
BEM-ISBE
100
AcDbAlignedDimension
13
48.6977450130096
23
16.7458803122289
33
0.000000000000000
14
-34.3022549869904
24
-4.25411968777105
34
0.000000000000000
100
AcDbRotatedDimension
1001
ACAD
1000
DSTYLE
1002
{
1070
284
1070
8
1070
78
1070
8
1070
144
1040
1.00000000000000
1070
147
1040
0.625
1070
 72
1070
 0
1070
 71
1070
 0
1002
}
  0
DIMENSION
  5
F1001C
330
261
100
AcDbEntity
  8
Bemassung
100
AcDbDimension
  2
*D8
10
3.69774501300955
20
24.1595836947094
30
0.000000000000000
11
-15.3022549869904
21
24.8262503613761
31
0.000000000000000
 70
32
 1
38
 71
     8
  3
BEM-ISBE
100
AcDbAlignedDimension
13
-34.3022549869904
23
17.7458803122289
33
0.000000000000000
14
3.69774501300955
24
17.4458803122289
34
0.000000000000000
100
AcDbRotatedDimension
1001
ACAD
1000
DSTYLE
1002
{
1070
284
1070
8
1070
78
1070
8
1070
144
1040
1.00000000000000
1070
147
1040
0.625
1070
 72
1070
 0
1070
 71
1070
 0
1002
}
  0
DIMENSION
  5
F10003
330
261
100
AcDbEntity
  8
Bemassung
100
AcDbDimension
  2
*D3
10
-44.3022549869904
20
17.7458803122289
30
0.000000000000000
11
-44.9689216536571
21
10.7458803122289
31
0.000000000000000
 70
32
 1
Ø14
 71
     8
  3
BEM-ISBE
100
AcDbAlignedDimension
13
-34.3022549869904
23
3.74588031222895
33
0.000000000000000
14
-34.3022549869904
24
17.7458803122289
34
0.000000000000000
50
90.0000000000000
100
AcDbRotatedDimension
1001
ACAD
1000
DSTYLE
1002
{
1070
284
1070
8
1070
78
1070
8
1070
144
1040
1.00000000000000
1070
147
1040
0.625
1070
 72
1070
 0
1070
 71
1070
 0
1002
}
  0
DIMENSION
  5
F10008
330
261
100
AcDbEntity
  8
Bemassung
100
AcDbDimension
  2
*D4
10
58.6977450130096
20
17.7458803122289
30
0.000000000000000
11
58.0310783463429
21
10.7458803122289
31
0.000000000000000
 70
32
 1
Ø14h6
 71
     8
  3
BEM-ISBE
100
AcDbAlignedDimension
13
47.6977450130096
23
3.74588031222895
33
0.000000000000000
14
47.6977450130096
24
17.7458803122289
34
0.000000000000000
50
90.0000000000000
100
AcDbRotatedDimension
1001
ACAD
1000
DSTYLE
1002
{
1070
284
1070
8
1070
78
1070
8
1070
144
1040
1.00000000000000
1070
147
1040
0.625
1070
 72
1070
 0
1070
 71
1070
 0
1002
}
  0
DIMENSION
  5
F10017
330
261
100
AcDbEntity
  8
Bemassung
100
AcDbDimension
  2
*D7
10
-0.799959497130779
20
4.04588031222895
30
0.000000000000000
11
-1.46662616379745
21
-11.9297484822202
31
0.000000000000000
 70
32
 1
Ø13.4
 71
     8
  3
BEM-ISBE
100
AcDbAlignedDimension
13
-4.30225498699045
23
17.4458803122289
33
0.000000000000000
14
-4.30225498699045
24
4.04588031222895
34
0.000000000000000
50
90.0000000000000
100
AcDbRotatedDimension
1001
ACAD
1000
DSTYLE
1002
{
1070
284
1070
8
1070
78
1070
8
1070
144
1040
1.00000000000000
1070
147
1040
0.625
1070
 72
1070
 0
1070
 71
1070
 0
1002
}
  0
LINE
  5
F1005C
330
F1005D
100
AcDbEntity
8
Geo
100
AcDbLine
10
-34.3022549869904
20
10.7458803122289
30
0.000000000000000
11
-34.3022549869904
21
17.7458803122289
31
0.000000000000000
  0
LINE
  5
F1005E
330
F1005F
100
AcDbEntity
8
Geo
100
AcDbLine
10
-34.3022549869904
20
17.7458803122289
30
0.000000000000000
11
-4.30225498699045
21
17.7458803122289
31
0.000000000000000
  0
LINE
  5
F10060
330
F10061
100
AcDbEntity
8
Geo
100
AcDbLine
10
-4.30225498699045
20
17.7458803122289
30
0.000000000000000
11
-4.30225498699045
21
17.4458803122289
31
0.000000000000000
  0
LINE
  5
F10062
330
F10063
100
AcDbEntity
8
Geo
100
AcDbLine
10
-4.30225498699045
20
17.4458803122289
30
0.000000000000000
11
3.69774501300955
21
17.4458803122289
31
0.000000000000000
  0
LINE
  5
F10064
330
F10065
100
AcDbEntity
8
Geo
100
AcDbLine
10
3.69774501300955
20
17.4458803122289
30
0.000000000000000
11
3.69774501300955
21
17.7458803122289
31
0.000000000000000
  0
LINE
  5
F10066
330
F10067
100
AcDbEntity
8
Geo
100
AcDbLine
10
3.69774501300955
20
17.7458803122289
30
0.000000000000000
11
47.6977450130096
21
17.7458803122289
31
0.000000000000000
  0
LINE
  5
F10068
330
F10069
100
AcDbEntity
8
Geo
100
AcDbLine
10
47.6977450130096
20
17.7458803122289
30
0.000000000000000
11
48.6977450130096
21
16.7458803122289
31
0.000000000000000
  0
LINE
  5
F1006A
330
F1006B
100
AcDbEntity
8
Geo
100
AcDbLine
10
-34.3022549869904
20
17.7458803122289
30
0.000000000000000
11
-34.2022549869904
21
17.7453773981146
31
0.000000000000000
  0
LINE
  5
F1006C
330
F1006D
100
AcDbEntity
8
Geo
100
AcDbLine
10
-34.2022549869904
20
17.7453773981146
30
0.000000000000000
11
-34.1022549869904
21
17.7438687280350
31
0.000000000000000
  0
LINE
  5
F1006E
330
F1006F
100
AcDbEntity
8
Geo
100
AcDbLine
10
-34.1022549869904
20
17.7438687280350
30
0.000000000000000
11
-34.0022549869905
21
17.7413545187708
31
0.000000000000000
  0
LINE
  5
F10070
330
F10071
100
AcDbEntity
8
Geo
100
AcDbLine
10
-34.0022549869905
20
17.7413545187708
30
0.000000000000000
11
-33.9022549869904
21
17.7378351315879
31
0.000000000000000
  0
LINE
  5
F10072
330
F10073
100
AcDbEntity
8
Geo
100
AcDbLine
10
-33.9022549869904
20
17.7378351315879
30
0.000000000000000
11
-33.8022549869904
21
17.7333110721862
31
0.000000000000000
  0
LINE
  5
F10074
330
F10075
100
AcDbEntity
8
Geo
100
AcDbLine
10
-33.8022549869904
20
17.7333110721862
30
0.000000000000000
11
-33.7022549869904
21
17.7277829906267
31
0.000000000000000
  0
LINE
  5
F10076
330
F10077
100
AcDbEntity
8
Geo
100
AcDbLine
10
-33.7022549869904
20
17.7277829906267
30
0.000000000000000
11
-33.6022549869904
21
17.7212516812380
31
0.000000000000000
  0
LINE
  5
F10078
330
F10079
100
AcDbEntity
8
Geo
100
AcDbLine
10
-33.6022549869904
20
17.7212516812380
30
0.000000000000000
11
-33.5022549869905
21
17.7137180825023
31
0.000000000000000
  0
LINE
  5
F1007A
330
F1007B
100
AcDbEntity
8
Geo
100
AcDbLine
10
-33.5022549869905
20
17.7137180825023
30
0.000000000000000
11
-33.4022549869904
21
17.7051832769205
31
0.000000000000000
  0
LINE
  5
F1007C
330
F1007D
100
AcDbEntity
8
Geo
100
AcDbLine
10
-33.4022549869904
20
17.7051832769205
30
0.000000000000000
11
-33.3022549869904
21
17.6956484908567
31
0.000000000000000
  0
LINE
  5
F1007E
330
F1007F
100
AcDbEntity
8
Geo
100
AcDbLine
10
-33.3022549869904
20
17.6956484908567
30
0.000000000000000
11
-33.2022549869904
21
17.6851150943618
31
0.000000000000000
  0
LINE
  5
F10080
330
F10081
100
AcDbEntity
8
Geo
100
AcDbLine
10
-33.2022549869904
20
17.6851150943618
30
0.000000000000000
11
-33.1022549869904
21
17.6735846009769
31
0.000000000000000
  0
LINE
  5
F10082
330
F10083
100
AcDbEntity
8
Geo
100
AcDbLine
10
-33.1022549869904
20
17.6735846009769
30
0.000000000000000
11
-33.0022549869905
21
17.6610586675158
31
0.000000000000000
  0
LINE
  5
F10084
330
F10085
100
AcDbEntity
8
Geo
100
AcDbLine
10
-33.0022549869905
20
17.6610586675158
30
0.000000000000000
11
-32.9022549869904
21
17.6475390938265
31
0.000000000000000
  0
LINE
  5
F10086
330
F10087
100
AcDbEntity
8
Geo
100
AcDbLine
10
-32.9022549869904
20
17.6475390938265
30
0.000000000000000
11
-32.8022549869904
21
17.6330278225333
31
0.000000000000000
  0
LINE
  5
F10088
330
F10089
100
AcDbEntity
8
Geo
100
AcDbLine
10
-32.8022549869904
20
17.6330278225333
30
0.000000000000000
11
-32.7022549869904
21
17.6175269387571
31
0.000000000000000
  0
LINE
  5
F1008A
330
F1008B
100
AcDbEntity
8
Geo
100
AcDbLine
10
-32.7022549869904
20
17.6175269387571
30
0.000000000000000
11
-32.6022549869904
21
17.6010386698158
31
0.000000000000000
  0
LINE
  5
F1008C
330
F1008D
100
AcDbEntity
8
Geo
100
AcDbLine
10
-32.6022549869904
20
17.6010386698158
30
0.000000000000000
11
-32.5022549869905
21
17.5835653849047
31
0.000000000000000
  0
LINE
  5
F1008E
330
F1008F
100
AcDbEntity
8
Geo
100
AcDbLine
10
-32.5022549869905
20
17.5835653849047
30
0.000000000000000
11
-32.4022549869904
21
17.5651095947557
31
0.000000000000000
  0
LINE
  5
F10090
330
F10091
100
AcDbEntity
8
Geo
100
AcDbLine
10
-32.4022549869904
20
17.5651095947557
30
0.000000000000000
11
-32.3022549869904
21
17.5456739512766
31
0.000000000000000
  0
LINE
  5
F10092
330
F10093
100
AcDbEntity
8
Geo
100
AcDbLine
10
-32.3022549869904
20
17.5456739512766
30
0.000000000000000
11
-32.2022549869904
21
17.5252612471701
31
0.000000000000000
  0
LINE
  5
F10094
330
F10095
100
AcDbEntity
8
Geo
100
AcDbLine
10
-32.2022549869904
20
17.5252612471701
30
0.000000000000000
11
-32.1022549869904
21
17.5038744155325
31
0.000000000000000
  0
LINE
  5
F10096
330
F10097
100
AcDbEntity
8
Geo
100
AcDbLine
10
-32.1022549869904
20
17.5038744155325
30
0.000000000000000
11
-32.0022549869905
21
17.4815165294322
31
0.000000000000000
  0
LINE
  5
F10098
330
F10099
100
AcDbEntity
8
Geo
100
AcDbLine
10
-32.0022549869905
20
17.4815165294322
30
0.000000000000000
11
-31.9022549869904
21
17.4581908014682
31
0.000000000000000
  0
LINE
  5
F1009A
330
F1009B
100
AcDbEntity
8
Geo
100
AcDbLine
10
-31.9022549869904
20
17.4581908014682
30
0.000000000000000
11
-31.8022549869904
21
17.4339005833084
31
0.000000000000000
  0
LINE
  5
F1009C
330
F1009D
100
AcDbEntity
8
Geo
100
AcDbLine
10
-31.8022549869904
20
17.4339005833084
30
0.000000000000000
11
-31.7022549869904
21
17.4086493652082
31
0.000000000000000
  0
LINE
  5
F1009E
330
F1009F
100
AcDbEntity
8
Geo
100
AcDbLine
10
-31.7022549869904
20
17.4086493652082
30
0.000000000000000
11
-31.6022549869904
21
17.3824407755087
31
0.000000000000000
  0
LINE
  5
F100A0
330
F100A1
100
AcDbEntity
8
Geo
100
AcDbLine
10
-31.6022549869904
20
17.3824407755087
30
0.000000000000000
11
-31.5022549869904
21
17.3552785801155
31
0.000000000000000
  0
LINE
  5
F100A2
330
F100A3
100
AcDbEntity
8
Geo
100
AcDbLine
10
-31.5022549869904
20
17.3552785801155
30
0.000000000000000
11
-31.4022549869904
21
17.3271666819577
31
0.000000000000000
  0
LINE
  5
F100A4
330
F100A5
100
AcDbEntity
8
Geo
100
AcDbLine
10
-31.4022549869904
20
17.3271666819577
30
0.000000000000000
11
-31.3022549869904
21
17.2981091204266
31
0.000000000000000
  0
LINE
  5
F100A6
330
F100A7
100
AcDbEntity
8
Geo
100
AcDbLine
10
-31.3022549869904
20
17.2981091204266
30
0.000000000000000
11
-31.2022549869904
21
17.2681100707960
31
0.000000000000000
  0
LINE
  5
F100A8
330
F100A9
100
AcDbEntity
8
Geo
100
AcDbLine
10
-31.2022549869904
20
17.2681100707960
30
0.000000000000000
11
-31.1022549869904
21
17.2371738436218
31
0.000000000000000
  0
LINE
  5
F100AA
330
F100AB
100
AcDbEntity
8
Geo
100
AcDbLine
10
-31.1022549869904
20
17.2371738436218
30
0.000000000000000
11
-31.0022549869904
21
17.2053048841226
31
0.000000000000000
  0
LINE
  5
F100AC
330
F100AD
100
AcDbEntity
8
Geo
100
AcDbLine
10
-31.0022549869904
20
17.2053048841226
30
0.000000000000000
11
-30.9022549869904
21
17.1725077715411
31
0.000000000000000
  0
LINE
  5
F100AE
330
F100AF
100
AcDbEntity
8
Geo
100
AcDbLine
10
-30.9022549869904
20
17.1725077715411
30
0.000000000000000
11
-30.8022549869904
21
17.1387872184862
31
0.000000000000000
  0
LINE
  5
F100B0
330
F100B1
100
AcDbEntity
8
Geo
100
AcDbLine
10
-30.8022549869904
20
17.1387872184862
30
0.000000000000000
11
-30.7022549869904
21
17.1041480702555
31
0.000000000000000
  0
LINE
  5
F100B2
330
F100B3
100
AcDbEntity
8
Geo
100
AcDbLine
10
-30.7022549869904
20
17.1041480702555
30
0.000000000000000
11
-30.6022549869904
21
17.0685953041395
31
0.000000000000000
  0
LINE
  5
F100B4
330
F100B5
100
AcDbEntity
8
Geo
100
AcDbLine
10
-30.6022549869904
20
17.0685953041395
30
0.000000000000000
11
-30.5022549869904
21
17.0321340287062
31
0.000000000000000
  0
LINE
  5
F100B6
330
F100B7
100
AcDbEntity
8
Geo
100
AcDbLine
10
-30.5022549869904
20
17.0321340287062
30
0.000000000000000
11
-30.4022549869904
21
16.9947694830671
31
0.000000000000000
  0
LINE
  5
F100B8
330
F100B9
100
AcDbEntity
8
Geo
100
AcDbLine
10
-30.4022549869904
20
16.9947694830671
30
0.000000000000000
11
-30.3022549869904
21
16.9565070361241
31
0.000000000000000
  0
LINE
  5
F100BA
330
F100BB
100
AcDbEntity
8
Geo
100
AcDbLine
10
-30.3022549869904
20
16.9565070361241
30
0.000000000000000
11
-30.2022549869904
21
16.9173521857988
31
0.000000000000000
  0
LINE
  5
F100BC
330
F100BD
100
AcDbEntity
8
Geo
100
AcDbLine
10
-30.2022549869904
20
16.9173521857988
30
0.000000000000000
11
-30.1022549869904
21
16.8773105582415
31
0.000000000000000
  0
LINE
  5
F100BE
330
F100BF
100
AcDbEntity
8
Geo
100
AcDbLine
10
-30.1022549869904
20
16.8773105582415
30
0.000000000000000
11
-30.0022549869904
21
16.8363879070236
31
0.000000000000000
  0
LINE
  5
F100C0
330
F100C1
100
AcDbEntity
8
Geo
100
AcDbLine
10
-30.0022549869904
20
16.8363879070236
30
0.000000000000000
11
-29.9022549869904
21
16.7945901123106
31
0.000000000000000
  0
LINE
  5
F100C2
330
F100C3
100
AcDbEntity
8
Geo
100
AcDbLine
10
-29.9022549869904
20
16.7945901123106
30
0.000000000000000
11
-29.8022549869904
21
16.7519231800169
31
0.000000000000000
  0
LINE
  5
F100C4
330
F100C5
100
AcDbEntity
8
Geo
100
AcDbLine
10
-29.8022549869904
20
16.7519231800169
30
0.000000000000000
11
-29.7022549869904
21
16.7083932409433
31
0.000000000000000
  0
LINE
  5
F100C6
330
F100C7
100
AcDbEntity
8
Geo
100
AcDbLine
10
-29.7022549869904
20
16.7083932409433
30
0.000000000000000
11
-29.6022549869904
21
16.6640065498956
31
0.000000000000000
  0
LINE
  5
F100C8
330
F100C9
100
AcDbEntity
8
Geo
100
AcDbLine
10
-29.6022549869904
20
16.6640065498956
30
0.000000000000000
11
-29.5022549869905
21
16.6187694847864
31
0.000000000000000
  0
LINE
  5
F100CA
330
F100CB
100
AcDbEntity
8
Geo
100
AcDbLine
10
-29.5022549869905
20
16.6187694847864
30
0.000000000000000
11
-29.4022549869904
21
16.5726885457181
31
0.000000000000000
  0
LINE
  5
F100CC
330
F100CD
100
AcDbEntity
8
Geo
100
AcDbLine
10
-29.4022549869904
20
16.5726885457181
30
0.000000000000000
11
-29.3022549869904
21
16.5257703540490
31
0.000000000000000
  0
LINE
  5
F100CE
330
F100CF
100
AcDbEntity
8
Geo
100
AcDbLine
10
-29.3022549869904
20
16.5257703540490
30
0.000000000000000
11
-29.2022549869905
21
16.4780216514424
31
0.000000000000000
  0
LINE
  5
F100D0
330
F100D1
100
AcDbEntity
8
Geo
100
AcDbLine
10
-29.2022549869905
20
16.4780216514424
30
0.000000000000000
11
-29.1022549869905
21
16.4294492988971
31
0.000000000000000
  0
LINE
  5
F100D2
330
F100D3
100
AcDbEntity
8
Geo
100
AcDbLine
10
-29.1022549869905
20
16.4294492988971
30
0.000000000000000
11
-29.0022549869905
21
16.3800602757623
31
0.000000000000000
  0
LINE
  5
F100D4
330
F100D5
100
AcDbEntity
8
Geo
100
AcDbLine
10
-29.0022549869905
20
16.3800602757623
30
0.000000000000000
11
-28.9022549869904
21
16.3298616787342
31
0.000000000000000
  0
LINE
  5
F100D6
330
F100D7
100
AcDbEntity
8
Geo
100
AcDbLine
10
-28.9022549869904
20
16.3298616787342
30
0.000000000000000
11
-28.8022549869905
21
16.2788607208365
31
0.000000000000000
  0
LINE
  5
F100D8
330
F100D9
100
AcDbEntity
8
Geo
100
AcDbLine
10
-28.8022549869905
20
16.2788607208365
30
0.000000000000000
11
-28.7022549869905
21
16.2270647303839
31
0.000000000000000
  0
LINE
  5
F100DA
330
F100DB
100
AcDbEntity
8
Geo
100
AcDbLine
10
-28.7022549869905
20
16.2270647303839
30
0.000000000000000
11
-28.6022549869905
21
16.1744811499292
31
0.000000000000000
  0
LINE
  5
F100DC
330
F100DD
100
AcDbEntity
8
Geo
100
AcDbLine
10
-28.6022549869905
20
16.1744811499292
30
0.000000000000000
11
-28.5022549869905
21
16.1211175351938
31
0.000000000000000
  0
LINE
  5
F100DE
330
F100DF
100
AcDbEntity
8
Geo
100
AcDbLine
10
-28.5022549869905
20
16.1211175351938
30
0.000000000000000
11
-28.4022549869905
21
16.0669815539819
31
0.000000000000000
  0
LINE
  5
F100E0
330
F100E1
100
AcDbEntity
8
Geo
100
AcDbLine
10
-28.4022549869905
20
16.0669815539819
30
0.000000000000000
11
-28.3022549869905
21
16.0120809850790
31
0.000000000000000
  0
LINE
  5
F100E2
330
F100E3
100
AcDbEntity
8
Geo
100
AcDbLine
10
-28.3022549869905
20
16.0120809850790
30
0.000000000000000
11
-28.2022549869905
21
15.9564237171340
31
0.000000000000000
  0
LINE
  5
F100E4
330
F100E5
100
AcDbEntity
8
Geo
100
AcDbLine
10
-28.2022549869905
20
15.9564237171340
30
0.000000000000000
11
-28.1022549869905
21
15.9000177475256
31
0.000000000000000
  0
LINE
  5
F100E6
330
F100E7
100
AcDbEntity
8
Geo
100
AcDbLine
10
-28.1022549869905
20
15.9000177475256
30
0.000000000000000
11
-28.0022549869905
21
15.8428711812132
31
0.000000000000000
  0
LINE
  5
F100E8
330
F100E9
100
AcDbEntity
8
Geo
100
AcDbLine
10
-28.0022549869905
20
15.8428711812132
30
0.000000000000000
11
-27.9022549869905
21
15.7849922295727
31
0.000000000000000
  0
LINE
  5
F100EA
330
F100EB
100
AcDbEntity
8
Geo
100
AcDbLine
10
-27.9022549869905
20
15.7849922295727
30
0.000000000000000
11
-27.8022549869905
21
15.7263892092158
31
0.000000000000000
  0
LINE
  5
F100EC
330
F100ED
100
AcDbEntity
8
Geo
100
AcDbLine
10
-27.8022549869905
20
15.7263892092158
30
0.000000000000000
11
-27.7022549869905
21
15.6670705407957
31
0.000000000000000
  0
LINE
  5
F100EE
330
F100EF
100
AcDbEntity
8
Geo
100
AcDbLine
10
-27.7022549869905
20
15.6670705407957
30
0.000000000000000
11
-27.6022549869905
21
15.6070447477969
31
0.000000000000000
  0
LINE
  5
F100F0
330
F100F1
100
AcDbEntity
8
Geo
100
AcDbLine
10
-27.6022549869905
20
15.6070447477969
30
0.000000000000000
11
-27.5022549869905
21
15.5463204553104
31
0.000000000000000
  0
LINE
  5
F100F2
330
F100F3
100
AcDbEntity
8
Geo
100
AcDbLine
10
-27.5022549869905
20
15.5463204553104
30
0.000000000000000
11
-27.4022549869905
21
15.4849063887945
31
0.000000000000000
  0
LINE
  5
F100F4
330
F100F5
100
AcDbEntity
8
Geo
100
AcDbLine
10
-27.4022549869905
20
15.4849063887945
30
0.000000000000000
11
-27.3022549869905
21
15.4228113728207
31
0.000000000000000
  0
LINE
  5
F100F6
330
F100F7
100
AcDbEntity
8
Geo
100
AcDbLine
10
-27.3022549869905
20
15.4228113728207
30
0.000000000000000
11
-27.2022549869905
21
15.3600443298063
31
0.000000000000000
  0
LINE
  5
F100F8
330
F100F9
100
AcDbEntity
8
Geo
100
AcDbLine
10
-27.2022549869905
20
15.3600443298063
30
0.000000000000000
11
-27.1022549869905
21
15.2966142787318
31
0.000000000000000
  0
LINE
  5
F100FA
330
F100FB
100
AcDbEntity
8
Geo
100
AcDbLine
10
-27.1022549869905
20
15.2966142787318
30
0.000000000000000
11
-27.0022549869905
21
15.2325303338450
31
0.000000000000000
  0
LINE
  5
F100FC
330
F100FD
100
AcDbEntity
8
Geo
100
AcDbLine
10
-27.0022549869905
20
15.2325303338450
30
0.000000000000000
11
-26.9022549869905
21
15.1678017033520
31
0.000000000000000
  0
LINE
  5
F100FE
330
F100FF
100
AcDbEntity
8
Geo
100
AcDbLine
10
-26.9022549869905
20
15.1678017033520
30
0.000000000000000
11
-26.8022549869905
21
15.1024376880932
31
0.000000000000000
  0
LINE
  5
F10100
330
F10101
100
AcDbEntity
8
Geo
100
AcDbLine
10
-26.8022549869905
20
15.1024376880932
30
0.000000000000000
11
-26.7022549869905
21
15.0364476802074
31
0.000000000000000
  0
LINE
  5
F10102
330
F10103
100
AcDbEntity
8
Geo
100
AcDbLine
10
-26.7022549869905
20
15.0364476802074
30
0.000000000000000
11
-26.6022549869905
21
14.9698411617822
31
0.000000000000000
  0
LINE
  5
F10104
330
F10105
100
AcDbEntity
8
Geo
100
AcDbLine
10
-26.6022549869905
20
14.9698411617822
30
0.000000000000000
11
-26.5022549869905
21
14.9026277034913
31
0.000000000000000
  0
LINE
  5
F10106
330
F10107
100
AcDbEntity
8
Geo
100
AcDbLine
10
-26.5022549869905
20
14.9026277034913
30
0.000000000000000
11
-26.4022549869905
21
14.8348169632195
31
0.000000000000000
  0
LINE
  5
F10108
330
F10109
100
AcDbEntity
8
Geo
100
AcDbLine
10
-26.4022549869905
20
14.8348169632195
30
0.000000000000000
11
-26.3022549869905
21
14.7664186846750
31
0.000000000000000
  0
LINE
  5
F1010A
330
F1010B
100
AcDbEntity
8
Geo
100
AcDbLine
10
-26.3022549869905
20
14.7664186846750
30
0.000000000000000
11
-26.2022549869905
21
14.6974426959892
31
0.000000000000000
  0
LINE
  5
F1010C
330
F1010D
100
AcDbEntity
8
Geo
100
AcDbLine
10
-26.2022549869905
20
14.6974426959892
30
0.000000000000000
11
-26.1022549869905
21
14.6278989083042
31
0.000000000000000
  0
LINE
  5
F1010E
330
F1010F
100
AcDbEntity
8
Geo
100
AcDbLine
10
-26.1022549869905
20
14.6278989083042
30
0.000000000000000
11
-26.0022549869905
21
14.5577973143495
31
0.000000000000000
  0
LINE
  5
F10110
330
F10111
100
AcDbEntity
8
Geo
100
AcDbLine
10
-26.0022549869905
20
14.5577973143495
30
0.000000000000000
11
-25.9022549869905
21
14.4871479870054
31
0.000000000000000
  0
LINE
  5
F10112
330
F10113
100
AcDbEntity
8
Geo
100
AcDbLine
10
-25.9022549869905
20
14.4871479870054
30
0.000000000000000
11
-25.8022549869905
21
14.4159610778557
31
0.000000000000000
  0
LINE
  5
F10114
330
F10115
100
AcDbEntity
8
Geo
100
AcDbLine
10
-25.8022549869905
20
14.4159610778557
30
0.000000000000000
11
-25.7022549869905
21
14.3442468157294
31
0.000000000000000
  0
LINE
  5
F10116
330
F10117
100
AcDbEntity
8
Geo
100
AcDbLine
10
-25.7022549869905
20
14.3442468157294
30
0.000000000000000
11
-25.6022549869905
21
14.2720155052308
31
0.000000000000000
  0
LINE
  5
F10118
330
F10119
100
AcDbEntity
8
Geo
100
AcDbLine
10
-25.6022549869905
20
14.2720155052308
30
0.000000000000000
11
-25.5022549869905
21
14.1992775252585
31
0.000000000000000
  0
LINE
  5
F1011A
330
F1011B
100
AcDbEntity
8
Geo
100
AcDbLine
10
-25.5022549869905
20
14.1992775252585
30
0.000000000000000
11
-25.4022549869905
21
14.1260433275145
31
0.000000000000000
  0
LINE
  5
F1011C
330
F1011D
100
AcDbEntity
8
Geo
100
AcDbLine
10
-25.4022549869905
20
14.1260433275145
30
0.000000000000000
11
-25.3022549869905
21
14.0523234350022
31
0.000000000000000
  0
LINE
  5
F1011E
330
F1011F
100
AcDbEntity
8
Geo
100
AcDbLine
10
-25.3022549869905
20
14.0523234350022
30
0.000000000000000
11
-25.2022549869905
21
13.9781284405142
31
0.000000000000000
  0
LINE
  5
F10120
330
F10121
100
AcDbEntity
8
Geo
100
AcDbLine
10
-25.2022549869905
20
13.9781284405142
30
0.000000000000000
11
-25.1022549869905
21
13.9034690051105
31
0.000000000000000
  0
LINE
  5
F10122
330
F10123
100
AcDbEntity
8
Geo
100
AcDbLine
10
-25.1022549869905
20
13.9034690051105
30
0.000000000000000
11
-25.0022549869905
21
13.8283558565865
31
0.000000000000000
  0
LINE
  5
F10124
330
F10125
100
AcDbEntity
8
Geo
100
AcDbLine
10
-25.0022549869905
20
13.8283558565865
30
0.000000000000000
11
-24.9022549869905
21
13.7527997879315
31
0.000000000000000
  0
LINE
  5
F10126
330
F10127
100
AcDbEntity
8
Geo
100
AcDbLine
10
-24.9022549869905
20
13.7527997879315
30
0.000000000000000
11
-24.8022549869905
21
13.6768116557779
31
0.000000000000000
  0
LINE
  5
F10128
330
F10129
100
AcDbEntity
8
Geo
100
AcDbLine
10
-24.8022549869905
20
13.6768116557779
30
0.000000000000000
11
-24.7022549869905
21
13.6004023788412
31
0.000000000000000
  0
LINE
  5
F1012A
330
F1012B
100
AcDbEntity
8
Geo
100
AcDbLine
10
-24.7022549869905
20
13.6004023788412
30
0.000000000000000
11
-24.6022549869905
21
13.5235829363510
31
0.000000000000000
  0
LINE
  5
F1012C
330
F1012D
100
AcDbEntity
8
Geo
100
AcDbLine
10
-24.6022549869905
20
13.5235829363510
30
0.000000000000000
11
-24.5022549869905
21
13.4463643664737
31
0.000000000000000
  0
LINE
  5
F1012E
330
F1012F
100
AcDbEntity
8
Geo
100
AcDbLine
10
-24.5022549869905
20
13.4463643664737
30
0.000000000000000
11
-24.4022549869905
21
13.3687577647259
31
0.000000000000000
  0
LINE
  5
F10130
330
F10131
100
AcDbEntity
8
Geo
100
AcDbLine
10
-24.4022549869905
20
13.3687577647259
30
0.000000000000000
11
-24.3022549869905
21
13.2907742823806
31
0.000000000000000
  0
LINE
  5
F10132
330
F10133
100
AcDbEntity
8
Geo
100
AcDbLine
10
-24.3022549869905
20
13.2907742823806
30
0.000000000000000
11
-24.2022549869905
21
13.2124251248647
31
0.000000000000000
  0
LINE
  5
F10134
330
F10135
100
AcDbEntity
8
Geo
100
AcDbLine
10
-24.2022549869905
20
13.2124251248647
30
0.000000000000000
11
-24.1022549869905
21
13.1337215501488
31
0.000000000000000
  0
LINE
  5
F10136
330
F10137
100
AcDbEntity
8
Geo
100
AcDbLine
10
-24.1022549869905
20
13.1337215501488
30
0.000000000000000
11
-24.0022549869905
21
13.0546748671296
31
0.000000000000000
  0
LINE
  5
F10138
330
F10139
100
AcDbEntity
8
Geo
100
AcDbLine
10
-24.0022549869905
20
13.0546748671296
30
0.000000000000000
11
-23.9022549869905
21
12.9752964340050
31
0.000000000000000
  0
LINE
  5
F1013A
330
F1013B
100
AcDbEntity
8
Geo
100
AcDbLine
10
-23.9022549869905
20
12.9752964340050
30
0.000000000000000
11
-23.8022549869905
21
12.8955976566421
31
0.000000000000000
  0
LINE
  5
F1013C
330
F1013D
100
AcDbEntity
8
Geo
100
AcDbLine
10
-23.8022549869905
20
12.8955976566421
30
0.000000000000000
11
-23.7022549869905
21
12.8155899869378
31
0.000000000000000
  0
LINE
  5
F1013E
330
F1013F
100
AcDbEntity
8
Geo
100
AcDbLine
10
-23.7022549869905
20
12.8155899869378
30
0.000000000000000
11
-23.6022549869905
21
12.7352849211741
31
0.000000000000000
  0
LINE
  5
F10140
330
F10141
100
AcDbEntity
8
Geo
100
AcDbLine
10
-23.6022549869905
20
12.7352849211741
30
0.000000000000000
11
-23.5022549869905
21
12.6546939983656
31
0.000000000000000
  0
LINE
  5
F10142
330
F10143
100
AcDbEntity
8
Geo
100
AcDbLine
10
-23.5022549869905
20
12.6546939983656
30
0.000000000000000
11
-23.4022549869905
21
12.5738287986014
31
0.000000000000000
  0
LINE
  5
F10144
330
F10145
100
AcDbEntity
8
Geo
100
AcDbLine
10
-23.4022549869905
20
12.5738287986014
30
0.000000000000000
11
-23.3022549869905
21
12.4927009413819
31
0.000000000000000
  0
LINE
  5
F10146
330
F10147
100
AcDbEntity
8
Geo
100
AcDbLine
10
-23.3022549869905
20
12.4927009413819
30
0.000000000000000
11
-23.2022549869905
21
12.4113220839481
31
0.000000000000000
  0
LINE
  5
F10148
330
F10149
100
AcDbEntity
8
Geo
100
AcDbLine
10
-23.2022549869905
20
12.4113220839481
30
0.000000000000000
11
-23.1022549869905
21
12.3297039196075
31
0.000000000000000
  0
LINE
  5
F1014A
330
F1014B
100
AcDbEntity
8
Geo
100
AcDbLine
10
-23.1022549869905
20
12.3297039196075
30
0.000000000000000
11
-23.0022549869905
21
12.2478581760536
31
0.000000000000000
  0
LINE
  5
F1014C
330
F1014D
100
AcDbEntity
8
Geo
100
AcDbLine
10
-23.0022549869905
20
12.2478581760536
30
0.000000000000000
11
-22.9022549869905
21
12.1657966136804
31
0.000000000000000
  0
LINE
  5
F1014E
330
F1014F
100
AcDbEntity
8
Geo
100
AcDbLine
10
-22.9022549869905
20
12.1657966136804
30
0.000000000000000
11
-22.8022549869905
21
12.0835310238932
31
0.000000000000000
  0
LINE
  5
F10150
330
F10151
100
AcDbEntity
8
Geo
100
AcDbLine
10
-22.8022549869905
20
12.0835310238932
30
0.000000000000000
11
-22.7022549869905
21
12.0010732274137
31
0.000000000000000
  0
LINE
  5
F10152
330
F10153
100
AcDbEntity
8
Geo
100
AcDbLine
10
-22.7022549869905
20
12.0010732274137
30
0.000000000000000
11
-22.6022549869905
21
11.9184350725819
31
0.000000000000000
  0
LINE
  5
F10154
330
F10155
100
AcDbEntity
8
Geo
100
AcDbLine
10
-22.6022549869905
20
11.9184350725819
30
0.000000000000000
11
-22.5022549869905
21
11.8356284336532
31
0.000000000000000
  0
LINE
  5
F10156
330
F10157
100
AcDbEntity
8
Geo
100
AcDbLine
10
-22.5022549869905
20
11.8356284336532
30
0.000000000000000
11
-22.4022549869905
21
11.7526652090927
31
0.000000000000000
  0
LINE
  5
F10158
330
F10159
100
AcDbEntity
8
Geo
100
AcDbLine
10
-22.4022549869905
20
11.7526652090927
30
0.000000000000000
11
-22.3022549869905
21
11.6695573198651
31
0.000000000000000
  0
LINE
  5
F1015A
330
F1015B
100
AcDbEntity
8
Geo
100
AcDbLine
10
-22.3022549869905
20
11.6695573198651
30
0.000000000000000
11
-22.2022549869905
21
11.5863167077220
31
0.000000000000000
  0
LINE
  5
F1015C
330
F1015D
100
AcDbEntity
8
Geo
100
AcDbLine
10
-22.2022549869905
20
11.5863167077220
30
0.000000000000000
11
-22.1022549869905
21
11.5029553334859
31
0.000000000000000
  0
LINE
  5
F1015E
330
F1015F
100
AcDbEntity
8
Geo
100
AcDbLine
10
-22.1022549869905
20
11.5029553334859
30
0.000000000000000
11
-22.0022549869905
21
11.4194851753316
31
0.000000000000000
  0
LINE
  5
F10160
330
F10161
100
AcDbEntity
8
Geo
100
AcDbLine
10
-22.0022549869905
20
11.4194851753316
30
0.000000000000000
11
-21.9022549869905
21
11.3359182270650
31
0.000000000000000
  0
LINE
  5
F10162
330
F10163
100
AcDbEntity
8
Geo
100
AcDbLine
10
-21.9022549869905
20
11.3359182270650
30
0.000000000000000
11
-21.8022549869905
21
11.2522664963996
31
0.000000000000000
  0
LINE
  5
F10164
330
F10165
100
AcDbEntity
8
Geo
100
AcDbLine
10
-21.8022549869905
20
11.2522664963996
30
0.000000000000000
11
-21.7022549869905
21
11.1685420032316
31
0.000000000000000
  0
LINE
  5
F10166
330
F10167
100
AcDbEntity
8
Geo
100
AcDbLine
10
-21.7022549869905
20
11.1685420032316
30
0.000000000000000
11
-21.6022549869905
21
11.0847567779121
31
0.000000000000000
  0
LINE
  5
F10168
330
F10169
100
AcDbEntity
8
Geo
100
AcDbLine
10
-21.6022549869905
20
11.0847567779121
30
0.000000000000000
11
-21.5022549869905
21
11.0009228595191
31
0.000000000000000
  0
LINE
  5
F1016A
330
F1016B
100
AcDbEntity
8
Geo
100
AcDbLine
10
-21.5022549869905
20
11.0009228595191
30
0.000000000000000
11
-21.4022549869905
21
10.9170522941269
31
0.000000000000000
  0
LINE
  5
F1016C
330
F1016D
100
AcDbEntity
8
Geo
100
AcDbLine
10
-21.4022549869905
20
10.9170522941269
30
0.000000000000000
11
-21.3022549869905
21
10.8331571330760
31
0.000000000000000
  0
LINE
  5
F1016E
330
F1016F
100
AcDbEntity
8
Geo
100
AcDbLine
10
-21.3022549869905
20
10.8331571330760
30
0.000000000000000
11
-21.2022549869905
21
10.7492494312408
31
0.000000000000000
  0
LINE
  5
F10170
330
F10171
100
AcDbEntity
8
Geo
100
AcDbLine
10
-21.2022549869905
20
10.7492494312408
30
0.000000000000000
11
-21.1022549869905
21
10.6653412452978
31
0.000000000000000
  0
LINE
  5
F10172
330
F10173
100
AcDbEntity
8
Geo
100
AcDbLine
10
-21.1022549869905
20
10.6653412452978
30
0.000000000000000
11
-21.0022549869905
21
10.5814446319928
31
0.000000000000000
  0
LINE
  5
F10174
330
F10175
100
AcDbEntity
8
Geo
100
AcDbLine
10
-21.0022549869905
20
10.5814446319928
30
0.000000000000000
11
-20.9022549869905
21
10.4975716464092
31
0.000000000000000
  0
LINE
  5
F10176
330
F10177
100
AcDbEntity
8
Geo
100
AcDbLine
10
-20.9022549869905
20
10.4975716464092
30
0.000000000000000
11
-20.8022549869905
21
10.4137343402349
31
0.000000000000000
  0
LINE
  5
F10178
330
F10179
100
AcDbEntity
8
Geo
100
AcDbLine
10
-20.8022549869905
20
10.4137343402349
30
0.000000000000000
11
-20.7022549869905
21
10.3299447600313
31
0.000000000000000
  0
LINE
  5
F1017A
330
F1017B
100
AcDbEntity
8
Geo
100
AcDbLine
10
-20.7022549869905
20
10.3299447600313
30
0.000000000000000
11
-20.6022549869905
21
10.2462149455020
31
0.000000000000000
  0
LINE
  5
F1017C
330
F1017D
100
AcDbEntity
8
Geo
100
AcDbLine
10
-20.6022549869905
20
10.2462149455020
30
0.000000000000000
11
-20.5022549869905
21
10.1625569277627
31
0.000000000000000
  0
LINE
  5
F1017E
330
F1017F
100
AcDbEntity
8
Geo
100
AcDbLine
10
-20.5022549869905
20
10.1625569277627
30
0.000000000000000
11
-20.4022549869905
21
10.0789827276130
31
0.000000000000000
  0
LINE
  5
F10180
330
F10181
100
AcDbEntity
8
Geo
100
AcDbLine
10
-20.4022549869905
20
10.0789827276130
30
0.000000000000000
11
-20.3022549869905
21
9.99550435380847
31
0.000000000000000
  0
LINE
  5
F10182
330
F10183
100
AcDbEntity
8
Geo
100
AcDbLine
10
-20.3022549869905
20
9.99550435380847
30
0.000000000000000
11
-20.2022549869905
21
9.91213380133552
31
0.000000000000000
  0
LINE
  5
F10184
330
F10185
100
AcDbEntity
8
Geo
100
AcDbLine
10
-20.2022549869905
20
9.91213380133552
30
0.000000000000000
11
-20.1022549869905
21
9.82888304968775
31
0.000000000000000
  0
LINE
  5
F10186
330
F10187
100
AcDbEntity
8
Geo
100
AcDbLine
10
-20.1022549869905
20
9.82888304968775
30
0.000000000000000
11
-20.0022549869905
21
9.74576406114460
31
0.000000000000000
  0
LINE
  5
F10188
330
F10189
100
AcDbEntity
8
Geo
100
AcDbLine
10
-20.0022549869905
20
9.74576406114460
30
0.000000000000000
11
-19.9022549869905
21
9.66278877905251
31
0.000000000000000
  0
LINE
  5
F1018A
330
F1018B
100
AcDbEntity
8
Geo
100
AcDbLine
10
-19.9022549869905
20
9.66278877905251
30
0.000000000000000
11
-19.8022549869905
21
9.57996912610876
31
0.000000000000000
  0
LINE
  5
F1018C
330
F1018D
100
AcDbEntity
8
Geo
100
AcDbLine
10
-19.8022549869905
20
9.57996912610876
30
0.000000000000000
11
-19.7022549869905
21
9.49731700264833
31
0.000000000000000
  0
LINE
  5
F1018E
330
F1018F
100
AcDbEntity
8
Geo
100
AcDbLine
10
-19.7022549869905
20
9.49731700264833
30
0.000000000000000
11
-19.6022549869905
21
9.41484428493392
31
0.000000000000000
  0
LINE
  5
F10190
330
F10191
100
AcDbEntity
8
Geo
100
AcDbLine
10
-19.6022549869905
20
9.41484428493392
30
0.000000000000000
11
-19.5022549869905
21
9.33256282344947
31
0.000000000000000
  0
LINE
  5
F10192
330
F10193
100
AcDbEntity
8
Geo
100
AcDbLine
10
-19.5022549869905
20
9.33256282344947
30
0.000000000000000
11
-19.4022549869905
21
9.25048444119737
31
0.000000000000000
  0
LINE
  5
F10194
330
F10195
100
AcDbEntity
8
Geo
100
AcDbLine
10
-19.4022549869905
20
9.25048444119737
30
0.000000000000000
11
-19.3022549869905
21
9.16862093199958
31
0.000000000000000
  0
LINE
  5
F10196
330
F10197
100
AcDbEntity
8
Geo
100
AcDbLine
10
-19.3022549869905
20
9.16862093199958
30
0.000000000000000
11
-19.2022549869905
21
9.08698405880304
31
0.000000000000000
  0
LINE
  5
F10198
330
F10199
100
AcDbEntity
8
Geo
100
AcDbLine
10
-19.2022549869905
20
9.08698405880304
30
0.000000000000000
11
-19.1022549869905
21
9.00558555198939
31
0.000000000000000
  0
LINE
  5
F1019A
330
F1019B
100
AcDbEntity
8
Geo
100
AcDbLine
10
-19.1022549869905
20
9.00558555198939
30
0.000000000000000
11
-19.0022549869905
21
8.92443710768949
31
0.000000000000000
  0
LINE
  5
F1019C
330
F1019D
100
AcDbEntity
8
Geo
100
AcDbLine
10
-19.0022549869905
20
8.92443710768949
30
0.000000000000000
11
-18.9022549869905
21
8.84355038610276
31
0.000000000000000
  0
LINE
  5
F1019E
330
F1019F
100
AcDbEntity
8
Geo
100
AcDbLine
10
-18.9022549869905
20
8.84355038610276
30
0.000000000000000
11
-18.8022549869905
21
8.76293700982175
31
0.000000000000000
  0
LINE
  5
F101A0
330
F101A1
100
AcDbEntity
8
Geo
100
AcDbLine
10
-18.8022549869905
20
8.76293700982175
30
0.000000000000000
11
-18.7022549869905
21
8.68260856216212
31
0.000000000000000
  0
LINE
  5
F101A2
330
F101A3
100
AcDbEntity
8
Geo
100
AcDbLine
10
-18.7022549869905
20
8.68260856216212
30
0.000000000000000
11
-18.6022549869905
21
8.60257658549817
31
0.000000000000000
  0
LINE
  5
F101A4
330
F101A5
100
AcDbEntity
8
Geo
100
AcDbLine
10
-18.6022549869905
20
8.60257658549817
30
0.000000000000000
11
-18.5022549869905
21
8.52285257960438
31
0.000000000000000
  0
LINE
  5
F101A6
330
F101A7
100
AcDbEntity
8
Geo
100
AcDbLine
10
-18.5022549869905
20
8.52285257960438
30
0.000000000000000
11
-18.4022549869905
21
8.44344800000299
31
0.000000000000000
  0
LINE
  5
F101A8
330
F101A9
100
AcDbEntity
8
Geo
100
AcDbLine
10
-18.4022549869905
20
8.44344800000299
30
0.000000000000000
11
-18.3022549869905
21
8.36437425631795
31
0.000000000000000
  0
LINE
  5
F101AA
330
F101AB
100
AcDbEntity
8
Geo
100
AcDbLine
10
-18.3022549869905
20
8.36437425631795
30
0.000000000000000
11
-18.2022549869905
21
8.28564271063547
31
0.000000000000000
  0
LINE
  5
F101AC
330
F101AD
100
AcDbEntity
8
Geo
100
AcDbLine
10
-18.2022549869905
20
8.28564271063547
30
0.000000000000000
11
-18.1022549869905
21
8.20726467587144
31
0.000000000000000
  0
LINE
  5
F101AE
330
F101AF
100
AcDbEntity
8
Geo
100
AcDbLine
10
-18.1022549869905
20
8.20726467587144
30
0.000000000000000
11
-18.0022549869905
21
8.12925141414584
31
0.000000000000000
  0
LINE
  5
F101B0
330
F101B1
100
AcDbEntity
8
Geo
100
AcDbLine
10
-18.0022549869905
20
8.12925141414584
30
0.000000000000000
11
-17.9022549869905
21
8.05161413516450
31
0.000000000000000
  0
LINE
  5
F101B2
330
F101B3
100
AcDbEntity
8
Geo
100
AcDbLine
10
-17.9022549869905
20
8.05161413516450
30
0.000000000000000
11
-17.8022549869905
21
7.97436399460840
31
0.000000000000000
  0
LINE
  5
F101B4
330
F101B5
100
AcDbEntity
8
Geo
100
AcDbLine
10
-17.8022549869905
20
7.97436399460840
30
0.000000000000000
11
-17.7022549869905
21
7.89751209253069
31
0.000000000000000
  0
LINE
  5
F101B6
330
F101B7
100
AcDbEntity
8
Geo
100
AcDbLine
10
-17.7022549869905
20
7.89751209253069
30
0.000000000000000
11
-17.6022549869905
21
7.82106947176173
31
0.000000000000000
  0
LINE
  5
F101B8
330
F101B9
100
AcDbEntity
8
Geo
100
AcDbLine
10
-17.6022549869905
20
7.82106947176173
30
0.000000000000000
11
-17.5022549869905
21
7.74504711632236
31
0.000000000000000
  0
LINE
  5
F101BA
330
F101BB
100
AcDbEntity
8
Geo
100
AcDbLine
10
-17.5022549869905
20
7.74504711632236
30
0.000000000000000
11
-17.4022549869905
21
7.66945594984559
31
0.000000000000000
  0
LINE
  5
F101BC
330
F101BD
100
AcDbEntity
8
Geo
100
AcDbLine
10
-17.4022549869905
20
7.66945594984559
30
0.000000000000000
11
-17.3022549869905
21
7.59430683400700
31
0.000000000000000
  0
LINE
  5
F101BE
330
F101BF
100
AcDbEntity
8
Geo
100
AcDbLine
10
-17.3022549869905
20
7.59430683400700
30
0.000000000000000
11
-17.2022549869905
21
7.51961056696405
31
0.000000000000000
  0
LINE
  5
F101C0
330
F101C1
100
AcDbEntity
8
Geo
100
AcDbLine
10
-17.2022549869905
20
7.51961056696405
30
0.000000000000000
11
-17.1022549869905
21
7.44537788180442
31
0.000000000000000
  0
LINE
  5
F101C2
330
F101C3
100
AcDbEntity
8
Geo
100
AcDbLine
10
-17.1022549869905
20
7.44537788180442
30
0.000000000000000
11
-17.0022549869905
21
7.37161944500389
31
0.000000000000000
  0
LINE
  5
F101C4
330
F101C5
100
AcDbEntity
8
Geo
100
AcDbLine
10
-17.0022549869905
20
7.37161944500389
30
0.000000000000000
11
-16.9022549869905
21
7.29834585489355
31
0.000000000000000
  0
LINE
  5
F101C6
330
F101C7
100
AcDbEntity
8
Geo
100
AcDbLine
10
-16.9022549869905
20
7.29834585489355
30
0.000000000000000
11
-16.8022549869905
21
7.22556764013705
31
0.000000000000000
  0
LINE
  5
F101C8
330
F101C9
100
AcDbEntity
8
Geo
100
AcDbLine
10
-16.8022549869905
20
7.22556764013705
30
0.000000000000000
11
-16.7022549869905
21
7.15329525821763
31
0.000000000000000
  0
LINE
  5
F101CA
330
F101CB
100
AcDbEntity
8
Geo
100
AcDbLine
10
-16.7022549869905
20
7.15329525821763
30
0.000000000000000
11
-16.6022549869905
21
7.08153909393557
31
0.000000000000000
  0
LINE
  5
F101CC
330
F101CD
100
AcDbEntity
8
Geo
100
AcDbLine
10
-16.6022549869905
20
7.08153909393557
30
0.000000000000000
11
-16.5022549869905
21
7.01030945791596
31
0.000000000000000
  0
LINE
  5
F101CE
330
F101CF
100
AcDbEntity
8
Geo
100
AcDbLine
10
-16.5022549869905
20
7.01030945791596
30
0.000000000000000
11
-16.4022549869905
21
6.93961658512718
31
0.000000000000000
  0
LINE
  5
F101D0
330
F101D1
100
AcDbEntity
8
Geo
100
AcDbLine
10
-16.4022549869905
20
6.93961658512718
30
0.000000000000000
11
-16.3022549869905
21
6.86947063341022
31
0.000000000000000
  0
LINE
  5
F101D2
330
F101D3
100
AcDbEntity
8
Geo
100
AcDbLine
10
-16.3022549869905
20
6.86947063341022
30
0.000000000000000
11
-16.2022549869905
21
6.79988168201915
31
0.000000000000000
  0
LINE
  5
F101D4
330
F101D5
100
AcDbEntity
8
Geo
100
AcDbLine
10
-16.2022549869905
20
6.79988168201915
30
0.000000000000000
11
-16.1022549869905
21
6.73085973017277
31
0.000000000000000
  0
LINE
  5
F101D6
330
F101D7
100
AcDbEntity
8
Geo
100
AcDbLine
10
-16.1022549869905
20
6.73085973017277
30
0.000000000000000
11
-16.0022549869905
21
6.66241469561788
31
0.000000000000000
  0
LINE
  5
F101D8
330
F101D9
100
AcDbEntity
8
Geo
100
AcDbLine
10
-16.0022549869905
20
6.66241469561788
30
0.000000000000000
11
-15.9022549869905
21
6.59455641320419
31
0.000000000000000
  0
LINE
  5
F101DA
330
F101DB
100
AcDbEntity
8
Geo
100
AcDbLine
10
-15.9022549869905
20
6.59455641320419
30
0.000000000000000
11
-15.8022549869905
21
6.52729463347112
31
0.000000000000000
  0
LINE
  5
F101DC
330
F101DD
100
AcDbEntity
8
Geo
100
AcDbLine
10
-15.8022549869905
20
6.52729463347112
30
0.000000000000000
11
-15.7022549869905
21
6.46063902124677
31
0.000000000000000
  0
LINE
  5
F101DE
330
F101DF
100
AcDbEntity
8
Geo
100
AcDbLine
10
-15.7022549869905
20
6.46063902124677
30
0.000000000000000
11
-15.6022549869905
21
6.39459915425921
31
0.000000000000000
  0
LINE
  5
F101E0
330
F101E1
100
AcDbEntity
8
Geo
100
AcDbLine
10
-15.6022549869905
20
6.39459915425921
30
0.000000000000000
11
-15.5022549869905
21
6.32918452176021
31
0.000000000000000
  0
LINE
  5
F101E2
330
F101E3
100
AcDbEntity
8
Geo
100
AcDbLine
10
-15.5022549869905
20
6.32918452176021
30
0.000000000000000
11
-15.4022549869904
21
6.26440452316176
31
0.000000000000000
  0
LINE
  5
F101E4
330
F101E5
100
AcDbEntity
8
Geo
100
AcDbLine
10
-15.4022549869904
20
6.26440452316176
30
0.000000000000000
11
-15.3022549869904
21
6.20026846668547
31
0.000000000000000
  0
LINE
  5
F101E6
330
F101E7
100
AcDbEntity
8
Geo
100
AcDbLine
10
-15.3022549869904
20
6.20026846668547
30
0.000000000000000
11
-15.2022549869904
21
6.13678556802506
31
0.000000000000000
  0
LINE
  5
F101E8
330
F101E9
100
AcDbEntity
8
Geo
100
AcDbLine
10
-15.2022549869904
20
6.13678556802506
30
0.000000000000000
11
-15.1022549869904
21
6.07396494902219
31
0.000000000000000
  0
LINE
  5
F101EA
330
F101EB
100
AcDbEntity
8
Geo
100
AcDbLine
10
-15.1022549869904
20
6.07396494902219
30
0.000000000000000
11
-15.0022549869904
21
6.01181563635569
31
0.000000000000000
  0
LINE
  5
F101EC
330
F101ED
100
AcDbEntity
8
Geo
100
AcDbLine
10
-15.0022549869904
20
6.01181563635569
30
0.000000000000000
11
-14.9022549869904
21
5.95034656024459
31
0.000000000000000
  0
LINE
  5
F101EE
330
F101EF
100
AcDbEntity
8
Geo
100
AcDbLine
10
-14.9022549869904
20
5.95034656024459
30
0.000000000000000
11
-14.8022549869904
21
5.88956655316487
31
0.000000000000000
  0
LINE
  5
F101F0
330
F101F1
100
AcDbEntity
8
Geo
100
AcDbLine
10
-14.8022549869904
20
5.88956655316487
30
0.000000000000000
11
-14.7022549869904
21
5.82948434858037
31
0.000000000000000
  0
LINE
  5
F101F2
330
F101F3
100
AcDbEntity
8
Geo
100
AcDbLine
10
-14.7022549869904
20
5.82948434858037
30
0.000000000000000
11
-14.6022549869904
21
5.77010857968787
31
0.000000000000000
  0
LINE
  5
F101F4
330
F101F5
100
AcDbEntity
8
Geo
100
AcDbLine
10
-14.6022549869904
20
5.77010857968787
30
0.000000000000000
11
-14.5022549869904
21
5.71144777817656
31
0.000000000000000
  0
LINE
  5
F101F6
330
F101F7
100
AcDbEntity
8
Geo
100
AcDbLine
10
-14.5022549869904
20
5.71144777817656
30
0.000000000000000
11
-14.4022549869904
21
5.65351037300219
31
0.000000000000000
  0
LINE
  5
F101F8
330
F101F9
100
AcDbEntity
8
Geo
100
AcDbLine
10
-14.4022549869904
20
5.65351037300219
30
0.000000000000000
11
-14.3022549869904
21
5.59630468917583
31
0.000000000000000
  0
LINE
  5
F101FA
330
F101FB
100
AcDbEntity
8
Geo
100
AcDbLine
10
-14.3022549869904
20
5.59630468917583
30
0.000000000000000
11
-14.2022549869904
21
5.53983894656773
31
0.000000000000000
  0
LINE
  5
F101FC
330
F101FD
100
AcDbEntity
8
Geo
100
AcDbLine
10
-14.2022549869904
20
5.53983894656773
30
0.000000000000000
11
-14.1022549869904
21
5.48412125872615
31
0.000000000000000
  0
LINE
  5
F101FE
330
F101FF
100
AcDbEntity
8
Geo
100
AcDbLine
10
-14.1022549869904
20
5.48412125872615
30
0.000000000000000
11
-14.0022549869904
21
5.42915963171155
31
0.000000000000000
  0
LINE
  5
F10200
330
F10201
100
AcDbEntity
8
Geo
100
AcDbLine
10
-14.0022549869904
20
5.42915963171155
30
0.000000000000000
11
-13.9022549869904
21
5.37496196294622
31
0.000000000000000
  0
LINE
  5
F10202
330
F10203
100
AcDbEntity
8
Geo
100
AcDbLine
10
-13.9022549869904
20
5.37496196294622
30
0.000000000000000
11
-13.8022549869904
21
5.32153604007946
31
0.000000000000000
  0
LINE
  5
F10204
330
F10205
100
AcDbEntity
8
Geo
100
AcDbLine
10
-13.8022549869904
20
5.32153604007946
30
0.000000000000000
11
-13.7022549869904
21
5.26888953986862
31
0.000000000000000
  0
LINE
  5
F10206
330
F10207
100
AcDbEntity
8
Geo
100
AcDbLine
10
-13.7022549869904
20
5.26888953986862
30
0.000000000000000
11
-13.6022549869904
21
5.21703002707598
31
0.000000000000000
  0
LINE
  5
F10208
330
F10209
100
AcDbEntity
8
Geo
100
AcDbLine
10
-13.6022549869904
20
5.21703002707598
30
0.000000000000000
11
-13.5022549869904
21
5.16596495338183
31
0.000000000000000
  0
LINE
  5
F1020A
330
F1020B
100
AcDbEntity
8
Geo
100
AcDbLine
10
-13.5022549869904
20
5.16596495338183
30
0.000000000000000
11
-13.4022549869904
21
5.11570165631367
31
0.000000000000000
  0
LINE
  5
F1020C
330
F1020D
100
AcDbEntity
8
Geo
100
AcDbLine
10
-13.4022549869904
20
5.11570165631367
30
0.000000000000000
11
-13.3022549869904
21
5.06624735819195
31
0.000000000000000
  0
LINE
  5
F1020E
330
F1020F
100
AcDbEntity
8
Geo
100
AcDbLine
10
-13.3022549869904
20
5.06624735819195
30
0.000000000000000
11
-13.2022549869904
21
5.01760916509224
31
0.000000000000000
  0
LINE
  5
F10210
330
F10211
100
AcDbEntity
8
Geo
100
AcDbLine
10
-13.2022549869904
20
5.01760916509224
30
0.000000000000000
11
-13.1022549869904
21
4.96979406582421
31
0.000000000000000
  0
LINE
  5
F10212
330
F10213
100
AcDbEntity
8
Geo
100
AcDbLine
10
-13.1022549869904
20
4.96979406582421
30
0.000000000000000
11
-13.0022549869904
21
4.92280893092738
31
0.000000000000000
  0
LINE
  5
F10214
330
F10215
100
AcDbEntity
8
Geo
100
AcDbLine
10
-13.0022549869904
20
4.92280893092738
30
0.000000000000000
11
-12.9022549869904
21
4.87666051168388
31
0.000000000000000
  0
LINE
  5
F10216
330
F10217
100
AcDbEntity
8
Geo
100
AcDbLine
10
-12.9022549869904
20
4.87666051168388
30
0.000000000000000
11
-12.8022549869904
21
4.83135543914840
31
0.000000000000000
  0
LINE
  5
F10218
330
F10219
100
AcDbEntity
8
Geo
100
AcDbLine
10
-12.8022549869904
20
4.83135543914840
30
0.000000000000000
11
-12.7022549869904
21
4.78690022319534
31
0.000000000000000
  0
LINE
  5
F1021A
330
F1021B
100
AcDbEntity
8
Geo
100
AcDbLine
10
-12.7022549869904
20
4.78690022319534
30
0.000000000000000
11
-12.6022549869904
21
4.74330125158345
31
0.000000000000000
  0
LINE
  5
F1021C
330
F1021D
100
AcDbEntity
8
Geo
100
AcDbLine
10
-12.6022549869904
20
4.74330125158345
30
0.000000000000000
11
-12.5022549869904
21
4.70056478903792
31
0.000000000000000
  0
LINE
  5
F1021E
330
F1021F
100
AcDbEntity
8
Geo
100
AcDbLine
10
-12.5022549869904
20
4.70056478903792
30
0.000000000000000
11
-12.4022549869904
21
4.65869697635024
31
0.000000000000000
  0
LINE
  5
F10220
330
F10221
100
AcDbEntity
8
Geo
100
AcDbLine
10
-12.4022549869904
20
4.65869697635024
30
0.000000000000000
11
-12.3022549869904
21
4.61770382949582
31
0.000000000000000
  0
LINE
  5
F10222
330
F10223
100
AcDbEntity
8
Geo
100
AcDbLine
10
-12.3022549869904
20
4.61770382949582
30
0.000000000000000
11
-12.2022549869904
21
4.57759123876955
31
0.000000000000000
  0
LINE
  5
F10224
330
F10225
100
AcDbEntity
8
Geo
100
AcDbLine
10
-12.2022549869904
20
4.57759123876955
30
0.000000000000000
11
-12.1022549869904
21
4.53836496793946
31
0.000000000000000
  0
LINE
  5
F10226
330
F10227
100
AcDbEntity
8
Geo
100
AcDbLine
10
-12.1022549869904
20
4.53836496793946
30
0.000000000000000
11
-12.0022549869904
21
4.50003065341846
31
0.000000000000000
  0
LINE
  5
F10228
330
F10229
100
AcDbEntity
8
Geo
100
AcDbLine
10
-12.0022549869904
20
4.50003065341846
30
0.000000000000000
11
-11.9022549869904
21
4.46259380345453
31
0.000000000000000
  0
LINE
  5
F1022A
330
F1022B
100
AcDbEntity
8
Geo
100
AcDbLine
10
-11.9022549869904
20
4.46259380345453
30
0.000000000000000
11
-11.8022549869904
21
4.42605979733914
31
0.000000000000000
  0
LINE
  5
F1022C
330
F1022D
100
AcDbEntity
8
Geo
100
AcDbLine
10
-11.8022549869904
20
4.42605979733914
30
0.000000000000000
11
-11.7022549869904
21
4.39043388463440
31
0.000000000000000
  0
LINE
  5
F1022E
330
F1022F
100
AcDbEntity
8
Geo
100
AcDbLine
10
-11.7022549869904
20
4.39043388463440
30
0.000000000000000
11
-11.6022549869904
21
4.35572118441868
31
0.000000000000000
  0
LINE
  5
F10230
330
F10231
100
AcDbEntity
8
Geo
100
AcDbLine
10
-11.6022549869904
20
4.35572118441868
30
0.000000000000000
11
-11.5022549869904
21
4.32192668455111
31
0.000000000000000
  0
LINE
  5
F10232
330
F10233
100
AcDbEntity
8
Geo
100
AcDbLine
10
-11.5022549869904
20
4.32192668455111
30
0.000000000000000
11
-11.4022549869904
21
4.28905524095481
31
0.000000000000000
  0
LINE
  5
F10234
330
F10235
100
AcDbEntity
8
Geo
100
AcDbLine
10
-11.4022549869904
20
4.28905524095481
30
0.000000000000000
11
-11.3022549869904
21
4.25711157691920
31
0.000000000000000
  0
LINE
  5
F10236
330
F10237
100
AcDbEntity
8
Geo
100
AcDbLine
10
-11.3022549869904
20
4.25711157691920
30
0.000000000000000
11
-11.2022549869904
21
4.22610028242127
31
0.000000000000000
  0
LINE
  5
F10238
330
F10239
100
AcDbEntity
8
Geo
100
AcDbLine
10
-11.2022549869904
20
4.22610028242127
30
0.000000000000000
11
-11.1022549869904
21
4.19602581346610
31
0.000000000000000
  0
LINE
  5
F1023A
330
F1023B
100
AcDbEntity
8
Geo
100
AcDbLine
10
-11.1022549869904
20
4.19602581346610
30
0.000000000000000
11
-11.0022549869904
21
4.16689249144650
31
0.000000000000000
  0
LINE
  5
F1023C
330
F1023D
100
AcDbEntity
8
Geo
100
AcDbLine
10
-11.0022549869904
20
4.16689249144650
30
0.000000000000000
11
-10.9022549869904
21
4.13870450252216
31
0.000000000000000
  0
LINE
  5
F1023E
330
F1023F
100
AcDbEntity
8
Geo
100
AcDbLine
10
-10.9022549869904
20
4.13870450252216
30
0.000000000000000
11
-10.8022549869904
21
4.11146589701806
31
0.000000000000000
  0
LINE
  5
F10240
330
F10241
100
AcDbEntity
8
Geo
100
AcDbLine
10
-10.8022549869904
20
4.11146589701806
30
0.000000000000000
11
-10.7022549869904
21
4.08518058884255
31
0.000000000000000
  0
LINE
  5
F10242
330
F10243
100
AcDbEntity
8
Geo
100
AcDbLine
10
-10.7022549869904
20
4.08518058884255
30
0.000000000000000
11
-10.6022549869904
21
4.05985235492490
31
0.000000000000000
  0
LINE
  5
F10244
330
F10245
100
AcDbEntity
8
Geo
100
AcDbLine
10
-10.6022549869904
20
4.05985235492490
30
0.000000000000000
11
-10.5022549869904
21
4.03548483467263
31
0.000000000000000
  0
LINE
  5
F10246
330
F10247
100
AcDbEntity
8
Geo
100
AcDbLine
10
-10.5022549869904
20
4.03548483467263
30
0.000000000000000
11
-10.4022549869904
21
4.01208152944856
31
0.000000000000000
  0
LINE
  5
F10248
330
F10249
100
AcDbEntity
8
Geo
100
AcDbLine
10
-10.4022549869904
20
4.01208152944856
30
0.000000000000000
11
-10.3022549869904
21
3.98964580206770
31
0.000000000000000
  0
LINE
  5
F1024A
330
F1024B
100
AcDbEntity
8
Geo
100
AcDbLine
10
-10.3022549869904
20
3.98964580206770
30
0.000000000000000
11
-10.2022549869904
21
3.96818087631404
31
0.000000000000000
  0
LINE
  5
F1024C
330
F1024D
100
AcDbEntity
8
Geo
100
AcDbLine
10
-10.2022549869904
20
3.96818087631404
30
0.000000000000000
11
-10.1022549869904
21
3.94768983647733
31
0.000000000000000
  0
LINE
  5
F1024E
330
F1024F
100
AcDbEntity
8
Geo
100
AcDbLine
10
-10.1022549869904
20
3.94768983647733
30
0.000000000000000
11
-10.0022549869904
21
3.92817562690990
31
0.000000000000000
  0
LINE
  5
F10250
330
F10251
100
AcDbEntity
8
Geo
100
AcDbLine
10
-10.0022549869904
20
3.92817562690990
30
0.000000000000000
11
-9.90225498699037
21
3.90964105160358
31
0.000000000000000
  0
LINE
  5
F10252
330
F10253
100
AcDbEntity
8
Geo
100
AcDbLine
10
-9.90225498699037
20
3.90964105160358
30
0.000000000000000
11
-9.80225498699037
21
3.89208877378681
31
0.000000000000000
  0
LINE
  5
F10254
330
F10255
100
AcDbEntity
8
Geo
100
AcDbLine
10
-9.80225498699037
20
3.89208877378681
30
0.000000000000000
11
-9.70225498699037
21
3.87552131554195
31
0.000000000000000
  0
LINE
  5
F10256
330
F10257
100
AcDbEntity
8
Geo
100
AcDbLine
10
-9.70225498699037
20
3.87552131554195
30
0.000000000000000
11
-9.60225498699037
21
3.85994105744287
31
0.000000000000000
  0
LINE
  5
F10258
330
F10259
100
AcDbEntity
8
Geo
100
AcDbLine
10
-9.60225498699037
20
3.85994105744287
30
0.000000000000000
11
-9.50225498699037
21
3.84535023821294
31
0.000000000000000
  0
LINE
  5
F1025A
330
F1025B
100
AcDbEntity
8
Geo
100
AcDbLine
10
-9.50225498699037
20
3.84535023821294
30
0.000000000000000
11
-9.40225498699036
21
3.83175095440325
31
0.000000000000000
  0
LINE
  5
F1025C
330
F1025D
100
AcDbEntity
8
Geo
100
AcDbLine
10
-34.3022549869904
20
3.74588031222895
30
0.000000000000000
11
-34.3022549869904
21
3.74588031222895
31
0.000000000000000
  0
LINE
  5
F1025E
330
F1025F
100
AcDbEntity
8
Geo
100
AcDbLine
10
-11.0062281202710
20
17.7458803122289
30
0.000000000000000
11
-11.0022549869904
21
17.7458795183635
31
0.000000000000000
  0
LINE
  5
F10260
330
F10261
100
AcDbEntity
8
Geo
100
AcDbLine
10
-11.0022549869904
20
17.7458795183635
30
0.000000000000000
11
-10.9022549869904
21
17.7453366427361
31
0.000000000000000
  0
LINE
  5
F10262
330
F10263
100
AcDbEntity
8
Geo
100
AcDbLine
10
-10.9022549869904
20
17.7453366427361
30
0.000000000000000
11
-10.8022549869904
21
17.7437880169997
31
0.000000000000000
  0
LINE
  5
F10264
330
F10265
100
AcDbEntity
8
Geo
100
AcDbLine
10
-10.8022549869904
20
17.7437880169997
30
0.000000000000000
11
-10.7022549869904
21
17.7412338636758
31
0.000000000000000
  0
LINE
  5
F10266
330
F10267
100
AcDbEntity
8
Geo
100
AcDbLine
10
-10.7022549869904
20
17.7412338636758
30
0.000000000000000
11
-10.6022549869904
21
17.7376745497703
31
0.000000000000000
  0
LINE
  5
F10268
330
F10269
100
AcDbEntity
8
Geo
100
AcDbLine
10
-10.6022549869904
20
17.7376745497703
30
0.000000000000000
11
-10.5022549869904
21
17.7331105867199
31
0.000000000000000
  0
LINE
  5
F1026A
330
F1026B
100
AcDbEntity
8
Geo
100
AcDbLine
10
-10.5022549869904
20
17.7331105867199
30
0.000000000000000
11
-10.4022549869904
21
17.7275426303194
31
0.000000000000000
  0
LINE
  5
F1026C
330
F1026D
100
AcDbEntity
8
Geo
100
AcDbLine
10
-10.4022549869904
20
17.7275426303194
30
0.000000000000000
11
-10.3022549869904
21
17.7209714806270
31
0.000000000000000
  0
LINE
  5
F1026E
330
F1026F
100
AcDbEntity
8
Geo
100
AcDbLine
10
-10.3022549869904
20
17.7209714806270
30
0.000000000000000
11
-10.2022549869904
21
17.7133980818496
31
0.000000000000000
  0
LINE
  5
F10270
330
F10271
100
AcDbEntity
8
Geo
100
AcDbLine
10
-10.2022549869904
20
17.7133980818496
30
0.000000000000000
11
-10.1022549869904
21
17.7048235222069
31
0.000000000000000
  0
LINE
  5
F10272
330
F10273
100
AcDbEntity
8
Geo
100
AcDbLine
10
-10.1022549869904
20
17.7048235222069
30
0.000000000000000
11
-10.0022549869904
21
17.6952490337752
31
0.000000000000000
  0
LINE
  5
F10274
330
F10275
100
AcDbEntity
8
Geo
100
AcDbLine
10
-10.0022549869904
20
17.6952490337752
30
0.000000000000000
11
-9.90225498699037
21
17.6846759923103
31
0.000000000000000
  0
LINE
  5
F10276
330
F10277
100
AcDbEntity
8
Geo
100
AcDbLine
10
-9.90225498699037
20
17.6846759923103
30
0.000000000000000
11
-9.80225498699037
21
17.6731059170500
31
0.000000000000000
  0
LINE
  5
F10278
330
F10279
100
AcDbEntity
8
Geo
100
AcDbLine
10
-9.80225498699037
20
17.6731059170500
30
0.000000000000000
11
-9.70225498699037
21
17.6605404704953
31
0.000000000000000
  0
LINE
  5
F1027A
330
F1027B
100
AcDbEntity
8
Geo
100
AcDbLine
10
-9.70225498699037
20
17.6605404704953
30
0.000000000000000
11
-9.60225498699037
21
17.6469814581721
31
0.000000000000000
  0
LINE
  5
F1027C
330
F1027D
100
AcDbEntity
8
Geo
100
AcDbLine
10
-9.60225498699037
20
17.6469814581721
30
0.000000000000000
11
-9.50225498699037
21
17.6324308283715
31
0.000000000000000
  0
LINE
  5
F1027E
330
F1027F
100
AcDbEntity
8
Geo
100
AcDbLine
10
-9.50225498699037
20
17.6324308283715
30
0.000000000000000
11
-9.40225498699036
21
17.6168906718697
31
0.000000000000000
  0
LINE
  5
F10280
330
F10281
100
AcDbEntity
8
Geo
100
AcDbLine
10
-34.3022549869904
20
17.3237286577303
30
0.000000000000000
11
-34.2022549869904
21
17.2945578627290
31
0.000000000000000
  0
LINE
  5
F10282
330
F10283
100
AcDbEntity
8
Geo
100
AcDbLine
10
-34.2022549869904
20
17.2945578627290
30
0.000000000000000
11
-34.1022549869904
21
17.2644460899075
31
0.000000000000000
  0
LINE
  5
F10284
330
F10285
100
AcDbEntity
8
Geo
100
AcDbLine
10
-34.1022549869904
20
17.2644460899075
30
0.000000000000000
11
-34.0022549869905
21
17.2333976660189
31
0.000000000000000
  0
LINE
  5
F10286
330
F10287
100
AcDbEntity
8
Geo
100
AcDbLine
10
-34.0022549869905
20
17.2333976660189
30
0.000000000000000
11
-33.9022549869904
21
17.2014170524032
31
0.000000000000000
  0
LINE
  5
F10288
330
F10289
100
AcDbEntity
8
Geo
100
AcDbLine
10
-33.9022549869904
20
17.2014170524032
30
0.000000000000000
11
-33.8022549869904
21
17.1685088443469
31
0.000000000000000
  0
LINE
  5
F1028A
330
F1028B
100
AcDbEntity
8
Geo
100
AcDbLine
10
-33.8022549869904
20
17.1685088443469
30
0.000000000000000
11
-33.7022549869904
21
17.1346777704219
31
0.000000000000000
  0
LINE
  5
F1028C
330
F1028D
100
AcDbEntity
8
Geo
100
AcDbLine
10
-33.7022549869904
20
17.1346777704219
30
0.000000000000000
11
-33.6022549869904
21
17.0999286918067
31
0.000000000000000
  0
LINE
  5
F1028E
330
F1028F
100
AcDbEntity
8
Geo
100
AcDbLine
10
-33.6022549869904
20
17.0999286918067
30
0.000000000000000
11
-33.5022549869905
21
17.0642666015877
31
0.000000000000000
  0
LINE
  5
F10290
330
F10291
100
AcDbEntity
8
Geo
100
AcDbLine
10
-33.5022549869905
20
17.0642666015877
30
0.000000000000000
11
-33.4022549869904
21
17.0276966240415
31
0.000000000000000
  0
LINE
  5
F10292
330
F10293
100
AcDbEntity
8
Geo
100
AcDbLine
10
-33.4022549869904
20
17.0276966240415
30
0.000000000000000
11
-33.3022549869904
21
16.9902240138990
31
0.000000000000000
  0
LINE
  5
F10294
330
F10295
100
AcDbEntity
8
Geo
100
AcDbLine
10
-33.3022549869904
20
16.9902240138990
30
0.000000000000000
11
-33.2022549869904
21
16.9518541555901
31
0.000000000000000
  0
LINE
  5
F10296
330
F10297
100
AcDbEntity
8
Geo
100
AcDbLine
10
-33.2022549869904
20
16.9518541555901
30
0.000000000000000
11
-33.1022549869904
21
16.9125925624699
31
0.000000000000000
  0
LINE
  5
F10298
330
F10299
100
AcDbEntity
8
Geo
100
AcDbLine
10
-33.1022549869904
20
16.9125925624699
30
0.000000000000000
11
-33.0022549869905
21
16.8724448760269
31
0.000000000000000
  0
LINE
  5
F1029A
330
F1029B
100
AcDbEntity
8
Geo
100
AcDbLine
10
-33.0022549869905
20
16.8724448760269
30
0.000000000000000
11
-32.9022549869904
21
16.8314168650720
31
0.000000000000000
  0
LINE
  5
F1029C
330
F1029D
100
AcDbEntity
8
Geo
100
AcDbLine
10
-32.9022549869904
20
16.8314168650720
30
0.000000000000000
11
-32.8022549869904
21
16.7895144249096
31
0.000000000000000
  0
LINE
  5
F1029E
330
F1029F
100
AcDbEntity
8
Geo
100
AcDbLine
10
-32.8022549869904
20
16.7895144249096
30
0.000000000000000
11
-32.7022549869904
21
16.7467435764909
31
0.000000000000000
  0
LINE
  5
F102A0
330
F102A1
100
AcDbEntity
8
Geo
100
AcDbLine
10
-32.7022549869904
20
16.7467435764909
30
0.000000000000000
11
-32.6022549869904
21
16.7031104655481
31
0.000000000000000
  0
LINE
  5
F102A2
330
F102A3
100
AcDbEntity
8
Geo
100
AcDbLine
10
-32.6022549869904
20
16.7031104655481
30
0.000000000000000
11
-32.5022549869905
21
16.6586213617120
31
0.000000000000000
  0
LINE
  5
F102A4
330
F102A5
100
AcDbEntity
8
Geo
100
AcDbLine
10
-32.5022549869905
20
16.6586213617120
30
0.000000000000000
11
-32.4022549869904
21
16.6132826576106
31
0.000000000000000
  0
LINE
  5
F102A6
330
F102A7
100
AcDbEntity
8
Geo
100
AcDbLine
10
-32.4022549869904
20
16.6132826576106
30
0.000000000000000
11
-32.3022549869904
21
16.5671008679508
31
0.000000000000000
  0
LINE
  5
F102A8
330
F102A9
100
AcDbEntity
8
Geo
100
AcDbLine
10
-32.3022549869904
20
16.5671008679508
30
0.000000000000000
11
-32.2022549869904
21
16.5200826285824
31
0.000000000000000
  0
LINE
  5
F102AA
330
F102AB
100
AcDbEntity
8
Geo
100
AcDbLine
10
-32.2022549869904
20
16.5200826285824
30
0.000000000000000
11
-32.1022549869904
21
16.4722346955443
31
0.000000000000000
  0
LINE
  5
F102AC
330
F102AD
100
AcDbEntity
8
Geo
100
AcDbLine
10
-32.1022549869904
20
16.4722346955443
30
0.000000000000000
11
-32.0022549869905
21
16.4235639440937
31
0.000000000000000
  0
LINE
  5
F102AE
330
F102AF
100
AcDbEntity
8
Geo
100
AcDbLine
10
-32.0022549869905
20
16.4235639440937
30
0.000000000000000
11
-31.9022549869904
21
16.3740773677188
31
0.000000000000000
  0
LINE
  5
F102B0
330
F102B1
100
AcDbEntity
8
Geo
100
AcDbLine
10
-31.9022549869904
20
16.3740773677188
30
0.000000000000000
11
-31.8022549869904
21
16.3237820771331
31
0.000000000000000
  0
LINE
  5
F102B2
330
F102B3
100
AcDbEntity
8
Geo
100
AcDbLine
10
-31.8022549869904
20
16.3237820771331
30
0.000000000000000
11
-31.7022549869904
21
16.2726852992542
31
0.000000000000000
  0
LINE
  5
F102B4
330
F102B5
100
AcDbEntity
8
Geo
100
AcDbLine
10
-31.7022549869904
20
16.2726852992542
30
0.000000000000000
11
-31.6022549869904
21
16.2207943761652
31
0.000000000000000
  0
LINE
  5
F102B6
330
F102B7
100
AcDbEntity
8
Geo
100
AcDbLine
10
-31.6022549869904
20
16.2207943761652
30
0.000000000000000
11
-31.5022549869904
21
16.1681167640596
31
0.000000000000000
  0
LINE
  5
F102B8
330
F102B9
100
AcDbEntity
8
Geo
100
AcDbLine
10
-31.5022549869904
20
16.1681167640596
30
0.000000000000000
11
-31.4022549869904
21
16.1146600321704
31
0.000000000000000
  0
LINE
  5
F102BA
330
F102BB
100
AcDbEntity
8
Geo
100
AcDbLine
10
-31.4022549869904
20
16.1146600321704
30
0.000000000000000
11
-31.3022549869904
21
16.0604318616816
31
0.000000000000000
  0
LINE
  5
F102BC
330
F102BD
100
AcDbEntity
8
Geo
100
AcDbLine
10
-31.3022549869904
20
16.0604318616816
30
0.000000000000000
11
-31.2022549869904
21
16.0054400446256
31
0.000000000000000
  0
LINE
  5
F102BE
330
F102BF
100
AcDbEntity
8
Geo
100
AcDbLine
10
-31.2022549869904
20
16.0054400446256
30
0.000000000000000
11
-31.1022549869904
21
15.9496924827624
31
0.000000000000000
  0
LINE
  5
F102C0
330
F102C1
100
AcDbEntity
8
Geo
100
AcDbLine
10
-31.1022549869904
20
15.9496924827624
30
0.000000000000000
11
-31.0022549869904
21
15.8931971864451
31
0.000000000000000
  0
LINE
  5
F102C2
330
F102C3
100
AcDbEntity
8
Geo
100
AcDbLine
10
-31.0022549869904
20
15.8931971864451
30
0.000000000000000
11
-30.9022549869904
21
15.8359622734687
31
0.000000000000000
  0
LINE
  5
F102C4
330
F102C5
100
AcDbEntity
8
Geo
100
AcDbLine
10
-30.9022549869904
20
15.8359622734687
30
0.000000000000000
11
-30.8022549869904
21
15.7779959679032
31
0.000000000000000
  0
LINE
  5
F102C6
330
F102C7
100
AcDbEntity
8
Geo
100
AcDbLine
10
-30.8022549869904
20
15.7779959679032
30
0.000000000000000
11
-30.7022549869904
21
15.7193065989125
31
0.000000000000000
  0
LINE
  5
F102C8
330
F102C9
100
AcDbEntity
8
Geo
100
AcDbLine
10
-30.7022549869904
20
15.7193065989125
30
0.000000000000000
11
-30.6022549869904
21
15.6599025995571
31
0.000000000000000
  0
LINE
  5
F102CA
330
F102CB
100
AcDbEntity
8
Geo
100
AcDbLine
10
-30.6022549869904
20
15.6599025995571
30
0.000000000000000
11
-30.5022549869904
21
15.5997925055826
31
0.000000000000000
  0
LINE
  5
F102CC
330
F102CD
100
AcDbEntity
8
Geo
100
AcDbLine
10
-30.5022549869904
20
15.5997925055826
30
0.000000000000000
11
-30.4022549869904
21
15.5389849541933
31
0.000000000000000
  0
LINE
  5
F102CE
330
F102CF
100
AcDbEntity
8
Geo
100
AcDbLine
10
-30.4022549869904
20
15.5389849541933
30
0.000000000000000
11
-30.3022549869904
21
15.4774886828108
31
0.000000000000000
  0
LINE
  5
F102D0
330
F102D1
100
AcDbEntity
8
Geo
100
AcDbLine
10
-30.3022549869904
20
15.4774886828108
30
0.000000000000000
11
-30.2022549869904
21
15.4153125278188
31
0.000000000000000
  0
LINE
  5
F102D2
330
F102D3
100
AcDbEntity
8
Geo
100
AcDbLine
10
-30.2022549869904
20
15.4153125278188
30
0.000000000000000
11
-30.1022549869904
21
15.3524654232933
31
0.000000000000000
  0
LINE
  5
F102D4
330
F102D5
100
AcDbEntity
8
Geo
100
AcDbLine
10
-30.1022549869904
20
15.3524654232933
30
0.000000000000000
11
-30.0022549869904
21
15.2889563997188
31
0.000000000000000
  0
LINE
  5
F102D6
330
F102D7
100
AcDbEntity
8
Geo
100
AcDbLine
10
-30.0022549869904
20
15.2889563997188
30
0.000000000000000
11
-29.9022549869904
21
15.2247945826909
31
0.000000000000000
  0
LINE
  5
F102D8
330
F102D9
100
AcDbEntity
8
Geo
100
AcDbLine
10
-29.9022549869904
20
15.2247945826909
30
0.000000000000000
11
-29.8022549869904
21
15.1599891916047
31
0.000000000000000
  0
LINE
  5
F102DA
330
F102DB
100
AcDbEntity
8
Geo
100
AcDbLine
10
-29.8022549869904
20
15.1599891916047
30
0.000000000000000
11
-29.7022549869904
21
15.0945495383306
31
0.000000000000000
  0
LINE
  5
F102DC
330
F102DD
100
AcDbEntity
8
Geo
100
AcDbLine
10
-29.7022549869904
20
15.0945495383306
30
0.000000000000000
11
-29.6022549869904
21
15.0284850258758
31
0.000000000000000
  0
LINE
  5
F102DE
330
F102DF
100
AcDbEntity
8
Geo
100
AcDbLine
10
-29.6022549869904
20
15.0284850258758
30
0.000000000000000
11
-29.5022549869905
21
14.9618051470333
31
0.000000000000000
  0
LINE
  5
F102E0
330
F102E1
100
AcDbEntity
8
Geo
100
AcDbLine
10
-29.5022549869905
20
14.9618051470333
30
0.000000000000000
11
-29.4022549869904
21
14.8945194830180
31
0.000000000000000
  0
LINE
  5
F102E2
330
F102E3
100
AcDbEntity
8
Geo
100
AcDbLine
10
-29.4022549869904
20
14.8945194830180
30
0.000000000000000
11
-29.3022549869904
21
14.8266377020901
31
0.000000000000000
  0
LINE
  5
F102E4
330
F102E5
100
AcDbEntity
8
Geo
100
AcDbLine
10
-29.3022549869904
20
14.8266377020901
30
0.000000000000000
11
-29.2022549869905
21
14.7581695581654
31
0.000000000000000
  0
LINE
  5
F102E6
330
F102E7
100
AcDbEntity
8
Geo
100
AcDbLine
10
-29.2022549869905
20
14.7581695581654
30
0.000000000000000
11
-29.1022549869905
21
14.6891248894142
31
0.000000000000000
  0
LINE
  5
F102E8
330
F102E9
100
AcDbEntity
8
Geo
100
AcDbLine
10
-29.1022549869905
20
14.6891248894142
30
0.000000000000000
11
-29.0022549869905
21
14.6195136168475
31
0.000000000000000
  0
LINE
  5
F102EA
330
F102EB
100
AcDbEntity
8
Geo
100
AcDbLine
10
-29.0022549869905
20
14.6195136168475
30
0.000000000000000
11
-28.9022549869904
21
14.5493457428914
31
0.000000000000000
  0
LINE
  5
F102EC
330
F102ED
100
AcDbEntity
8
Geo
100
AcDbLine
10
-28.9022549869904
20
14.5493457428914
30
0.000000000000000
11
-28.8022549869905
21
14.4786313499500
31
0.000000000000000
  0
LINE
  5
F102EE
330
F102EF
100
AcDbEntity
8
Geo
100
AcDbLine
10
-28.8022549869905
20
14.4786313499500
30
0.000000000000000
11
-28.7022549869905
21
14.4073805989565
31
0.000000000000000
  0
LINE
  5
F102F0
330
F102F1
100
AcDbEntity
8
Geo
100
AcDbLine
10
-28.7022549869905
20
14.4073805989565
30
0.000000000000000
11
-28.6022549869905
21
14.3356037279133
31
0.000000000000000
  0
LINE
  5
F102F2
330
F102F3
100
AcDbEntity
8
Geo
100
AcDbLine
10
-28.6022549869905
20
14.3356037279133
30
0.000000000000000
11
-28.5022549869905
21
14.2633110504209
31
0.000000000000000
  0
LINE
  5
F102F4
330
F102F5
100
AcDbEntity
8
Geo
100
AcDbLine
10
-28.5022549869905
20
14.2633110504209
30
0.000000000000000
11
-28.4022549869905
21
14.1905129541956
31
0.000000000000000
  0
LINE
  5
F102F6
330
F102F7
100
AcDbEntity
8
Geo
100
AcDbLine
10
-28.4022549869905
20
14.1905129541956
30
0.000000000000000
11
-28.3022549869905
21
14.1172198995777
31
0.000000000000000
  0
LINE
  5
F102F8
330
F102F9
100
AcDbEntity
8
Geo
100
AcDbLine
10
-28.3022549869905
20
14.1172198995777
30
0.000000000000000
11
-28.2022549869905
21
14.0434424180276
31
0.000000000000000
  0
LINE
  5
F102FA
330
F102FB
100
AcDbEntity
8
Geo
100
AcDbLine
10
-28.2022549869905
20
14.0434424180276
30
0.000000000000000
11
-28.1022549869905
21
13.9691911106128
31
0.000000000000000
  0
LINE
  5
F102FC
330
F102FD
100
AcDbEntity
8
Geo
100
AcDbLine
10
-28.1022549869905
20
13.9691911106128
30
0.000000000000000
11
-28.0022549869905
21
13.8944766464851
31
0.000000000000000
  0
LINE
  5
F102FE
330
F102FF
100
AcDbEntity
8
Geo
100
AcDbLine
10
-28.0022549869905
20
13.8944766464851
30
0.000000000000000
11
-27.9022549869905
21
13.8193097613467
31
0.000000000000000
  0
LINE
  5
F10300
330
F10301
100
AcDbEntity
8
Geo
100
AcDbLine
10
-27.9022549869905
20
13.8193097613467
30
0.000000000000000
11
-27.8022549869905
21
13.7437012559086
31
0.000000000000000
  0
LINE
  5
F10302
330
F10303
100
AcDbEntity
8
Geo
100
AcDbLine
10
-27.8022549869905
20
13.7437012559086
30
0.000000000000000
11
-27.7022549869905
21
13.6676619943375
31
0.000000000000000
  0
LINE
  5
F10304
330
F10305
100
AcDbEntity
8
Geo
100
AcDbLine
10
-27.7022549869905
20
13.6676619943375
30
0.000000000000000
11
-27.6022549869905
21
13.5912029026959
31
0.000000000000000
  0
LINE
  5
F10306
330
F10307
100
AcDbEntity
8
Geo
100
AcDbLine
10
-27.6022549869905
20
13.5912029026959
30
0.000000000000000
11
-27.5022549869905
21
13.5143349673713
31
0.000000000000000
  0
LINE
  5
F10308
330
F10309
100
AcDbEntity
8
Geo
100
AcDbLine
10
-27.5022549869905
20
13.5143349673713
30
0.000000000000000
11
-27.4022549869905
21
13.4370692334977
31
0.000000000000000
  0
LINE
  5
F1030A
330
F1030B
100
AcDbEntity
8
Geo
100
AcDbLine
10
-27.4022549869905
20
13.4370692334977
30
0.000000000000000
11
-27.3022549869905
21
13.3594168033691
31
0.000000000000000
  0
LINE
  5
F1030C
330
F1030D
100
AcDbEntity
8
Geo
100
AcDbLine
10
-27.3022549869905
20
13.3594168033691
30
0.000000000000000
11
-27.2022549869905
21
13.2813888348433
31
0.000000000000000
  0
LINE
  5
F1030E
330
F1030F
100
AcDbEntity
8
Geo
100
AcDbLine
10
-27.2022549869905
20
13.2813888348433
30
0.000000000000000
11
-27.1022549869905
21
13.2029965397395
31
0.000000000000000
  0
LINE
  5
F10310
330
F10311
100
AcDbEntity
8
Geo
100
AcDbLine
10
-27.1022549869905
20
13.2029965397395
30
0.000000000000000
11
-27.0022549869905
21
13.1242511822267
31
0.000000000000000
  0
LINE
  5
F10312
330
F10313
100
AcDbEntity
8
Geo
100
AcDbLine
10
-27.0022549869905
20
13.1242511822267
30
0.000000000000000
11
-26.9022549869905
21
13.0451640772054
31
0.000000000000000
  0
LINE
  5
F10314
330
F10315
100
AcDbEntity
8
Geo
100
AcDbLine
10
-26.9022549869905
20
13.0451640772054
30
0.000000000000000
11
-26.8022549869905
21
12.9657465886817
31
0.000000000000000
  0
LINE
  5
F10316
330
F10317
100
AcDbEntity
8
Geo
100
AcDbLine
10
-26.8022549869905
20
12.9657465886817
30
0.000000000000000
11
-26.7022549869905
21
12.8860101281344
31
0.000000000000000
  0
LINE
  5
F10318
330
F10319
100
AcDbEntity
8
Geo
100
AcDbLine
10
-26.7022549869905
20
12.8860101281344
30
0.000000000000000
11
-26.6022549869905
21
12.8059661528755
31
0.000000000000000
  0
LINE
  5
F1031A
330
F1031B
100
AcDbEntity
8
Geo
100
AcDbLine
10
-26.6022549869905
20
12.8059661528755
30
0.000000000000000
11
-26.5022549869905
21
12.7256261644033
31
0.000000000000000
  0
LINE
  5
F1031C
330
F1031D
100
AcDbEntity
8
Geo
100
AcDbLine
10
-26.5022549869905
20
12.7256261644033
30
0.000000000000000
11
-26.4022549869905
21
12.6450017067506
31
0.000000000000000
  0
LINE
  5
F1031E
330
F1031F
100
AcDbEntity
8
Geo
100
AcDbLine
10
-26.4022549869905
20
12.6450017067506
30
0.000000000000000
11
-26.3022549869905
21
12.5641043648253
31
0.000000000000000
  0
LINE
  5
F10320
330
F10321
100
AcDbEntity
8
Geo
100
AcDbLine
10
-26.3022549869905
20
12.5641043648253
30
0.000000000000000
11
-26.2022549869905
21
12.4829457627459
31
0.000000000000000
  0
LINE
  5
F10322
330
F10323
100
AcDbEntity
8
Geo
100
AcDbLine
10
-26.2022549869905
20
12.4829457627459
30
0.000000000000000
11
-26.1022549869905
21
12.4015375621715
31
0.000000000000000
  0
LINE
  5
F10324
330
F10325
100
AcDbEntity
8
Geo
100
AcDbLine
10
-26.1022549869905
20
12.4015375621715
30
0.000000000000000
11
-26.0022549869905
21
12.3198914606258
31
0.000000000000000
  0
LINE
  5
F10326
330
F10327
100
AcDbEntity
8
Geo
100
AcDbLine
10
-26.0022549869905
20
12.3198914606258
30
0.000000000000000
11
-25.9022549869905
21
12.2380191898165
31
0.000000000000000
  0
LINE
  5
F10328
330
F10329
100
AcDbEntity
8
Geo
100
AcDbLine
10
-25.9022549869905
20
12.2380191898165
30
0.000000000000000
11
-25.8022549869905
21
12.1559325139494
31
0.000000000000000
  0
LINE
  5
F1032A
330
F1032B
100
AcDbEntity
8
Geo
100
AcDbLine
10
-25.8022549869905
20
12.1559325139494
30
0.000000000000000
11
-25.7022549869905
21
12.0736432280382
31
0.000000000000000
  0
LINE
  5
F1032C
330
F1032D
100
AcDbEntity
8
Geo
100
AcDbLine
10
-25.7022549869905
20
12.0736432280382
30
0.000000000000000
11
-25.6022549869905
21
11.9911631562096
31
0.000000000000000
  0
LINE
  5
F1032E
330
F1032F
100
AcDbEntity
8
Geo
100
AcDbLine
10
-25.6022549869905
20
11.9911631562096
30
0.000000000000000
11
-25.5022549869905
21
11.9085041500043
31
0.000000000000000
  0
LINE
  5
F10330
330
F10331
100
AcDbEntity
8
Geo
100
AcDbLine
10
-25.5022549869905
20
11.9085041500043
30
0.000000000000000
11
-25.4022549869905
21
11.8256780866739
31
0.000000000000000
  0
LINE
  5
F10332
330
F10333
100
AcDbEntity
8
Geo
100
AcDbLine
10
-25.4022549869905
20
11.8256780866739
30
0.000000000000000
11
-25.3022549869905
21
11.7426968674745
31
0.000000000000000
  0
LINE
  5
F10334
330
F10335
100
AcDbEntity
8
Geo
100
AcDbLine
10
-25.3022549869905
20
11.7426968674745
30
0.000000000000000
11
-25.2022549869905
21
11.6595724159565
31
0.000000000000000
  0
LINE
  5
F10336
330
F10337
100
AcDbEntity
8
Geo
100
AcDbLine
10
-25.2022549869905
20
11.6595724159565
30
0.000000000000000
11
-25.1022549869905
21
11.5763166762514
31
0.000000000000000
  0
LINE
  5
F10338
330
F10339
100
AcDbEntity
8
Geo
100
AcDbLine
10
-25.1022549869905
20
11.5763166762514
30
0.000000000000000
11
-25.0022549869905
21
11.4929416113552
31
0.000000000000000
  0
LINE
  5
F1033A
330
F1033B
100
AcDbEntity
8
Geo
100
AcDbLine
10
-25.0022549869905
20
11.4929416113552
30
0.000000000000000
11
-24.9022549869905
21
11.4094592014100
31
0.000000000000000
  0
LINE
  5
F1033C
330
F1033D
100
AcDbEntity
8
Geo
100
AcDbLine
10
-24.9022549869905
20
11.4094592014100
30
0.000000000000000
11
-24.8022549869905
21
11.3258814419821
31
0.000000000000000
  0
LINE
  5
F1033E
330
F1033F
100
AcDbEntity
8
Geo
100
AcDbLine
10
-24.8022549869905
20
11.3258814419821
30
0.000000000000000
11
-24.7022549869905
21
11.2422203423386
31
0.000000000000000
  0
LINE
  5
F10340
330
F10341
100
AcDbEntity
8
Geo
100
AcDbLine
10
-24.7022549869905
20
11.2422203423386
30
0.000000000000000
11
-24.6022549869905
21
11.1584879237218
31
0.000000000000000
  0
LINE
  5
F10342
330
F10343
100
AcDbEntity
8
Geo
100
AcDbLine
10
-24.6022549869905
20
11.1584879237218
30
0.000000000000000
11
-24.5022549869905
21
11.0746962176217
31
0.000000000000000
  0
LINE
  5
F10344
330
F10345
100
AcDbEntity
8
Geo
100
AcDbLine
10
-24.5022549869905
20
11.0746962176217
30
0.000000000000000
11
-24.4022549869905
21
10.9908572640474
31
0.000000000000000
  0
LINE
  5
F10346
330
F10347
100
AcDbEntity
8
Geo
100
AcDbLine
10
-24.4022549869905
20
10.9908572640474
30
0.000000000000000
11
-24.3022549869905
21
10.9069831097968
31
0.000000000000000
  0
LINE
  5
F10348
330
F10349
100
AcDbEntity
8
Geo
100
AcDbLine
10
-24.3022549869905
20
10.9069831097968
30
0.000000000000000
11
-24.2022549869905
21
10.8230858067260
31
0.000000000000000
  0
LINE
  5
F1034A
330
F1034B
100
AcDbEntity
8
Geo
100
AcDbLine
10
-24.2022549869905
20
10.8230858067260
30
0.000000000000000
11
-24.1022549869905
21
10.7391774100173
31
0.000000000000000
  0
LINE
  5
F1034C
330
F1034D
100
AcDbEntity
8
Geo
100
AcDbLine
10
-24.1022549869905
20
10.7391774100173
30
0.000000000000000
11
-24.0022549869905
21
10.6552699764469
31
0.000000000000000
  0
LINE
  5
F1034E
330
F1034F
100
AcDbEntity
8
Geo
100
AcDbLine
10
-24.0022549869905
20
10.6552699764469
30
0.000000000000000
11
-23.9022549869905
21
10.5713755626527
31
0.000000000000000
  0
LINE
  5
F10350
330
F10351
100
AcDbEntity
8
Geo
100
AcDbLine
10
-23.9022549869905
20
10.5713755626527
30
0.000000000000000
11
-23.8022549869905
21
10.4875062234018
31
0.000000000000000
  0
LINE
  5
F10352
330
F10353
100
AcDbEntity
8
Geo
100
AcDbLine
10
-23.8022549869905
20
10.4875062234018
30
0.000000000000000
11
-23.7022549869905
21
10.4036740098584
31
0.000000000000000
  0
LINE
  5
F10354
330
F10355
100
AcDbEntity
8
Geo
100
AcDbLine
10
-23.7022549869905
20
10.4036740098584
30
0.000000000000000
11
-23.6022549869905
21
10.3198909678519
31
0.000000000000000
  0
LINE
  5
F10356
330
F10357
100
AcDbEntity
8
Geo
100
AcDbLine
10
-23.6022549869905
20
10.3198909678519
30
0.000000000000000
11
-23.5022549869905
21
10.2361691361466
31
0.000000000000000
  0
LINE
  5
F10358
330
F10359
100
AcDbEntity
8
Geo
100
AcDbLine
10
-23.5022549869905
20
10.2361691361466
30
0.000000000000000
11
-23.4022549869905
21
10.1525205447111
31
0.000000000000000
  0
LINE
  5
F1035A
330
F1035B
100
AcDbEntity
8
Geo
100
AcDbLine
10
-23.4022549869905
20
10.1525205447111
30
0.000000000000000
11
-23.3022549869905
21
10.0689572129906
31
0.000000000000000
  0
LINE
  5
F1035C
330
F1035D
100
AcDbEntity
8
Geo
100
AcDbLine
10
-23.3022549869905
20
10.0689572129906
30
0.000000000000000
11
-23.2022549869905
21
9.98549114817884
31
0.000000000000000
  0
LINE
  5
F1035E
330
F1035F
100
AcDbEntity
8
Geo
100
AcDbLine
10
-23.2022549869905
20
9.98549114817884
30
0.000000000000000
11
-23.1022549869905
21
9.90213434349369
31
0.000000000000000
  0
LINE
  5
F10360
330
F10361
100
AcDbEntity
8
Geo
100
AcDbLine
10
-23.1022549869905
20
9.90213434349369
30
0.000000000000000
11
-23.0022549869905
21
9.81889877645329
31
0.000000000000000
  0
LINE
  5
F10362
330
F10363
100
AcDbEntity
8
Geo
100
AcDbLine
10
-23.0022549869905
20
9.81889877645329
30
0.000000000000000
11
-22.9022549869905
21
9.73579640715521
31
0.000000000000000
  0
LINE
  5
F10364
330
F10365
100
AcDbEntity
8
Geo
100
AcDbLine
10
-22.9022549869905
20
9.73579640715521
30
0.000000000000000
11
-22.8022549869905
21
9.65283917655786
31
0.000000000000000
  0
LINE
  5
F10366
330
F10367
100
AcDbEntity
8
Geo
100
AcDbLine
10
-22.8022549869905
20
9.65283917655786
30
0.000000000000000
11
-22.7022549869905
21
9.57003900476471
31
0.000000000000000
  0
LINE
  5
F10368
330
F10369
100
AcDbEntity
8
Geo
100
AcDbLine
10
-22.7022549869905
20
9.57003900476471
30
0.000000000000000
11
-22.6022549869905
21
9.48740778931151
31
0.000000000000000
  0
LINE
  5
F1036A
330
F1036B
100
AcDbEntity
8
Geo
100
AcDbLine
10
-22.6022549869905
20
9.48740778931151
30
0.000000000000000
11
-22.5022549869905
21
9.40495740345668
31
0.000000000000000
  0
LINE
  5
F1036C
330
F1036D
100
AcDbEntity
8
Geo
100
AcDbLine
10
-22.5022549869905
20
9.40495740345668
30
0.000000000000000
11
-22.4022549869905
21
9.32269969447532
31
0.000000000000000
  0
LINE
  5
F1036E
330
F1036F
100
AcDbEntity
8
Geo
100
AcDbLine
10
-22.4022549869905
20
9.32269969447532
30
0.000000000000000
11
-22.3022549869905
21
9.24064648195681
31
0.000000000000000
  0
LINE
  5
F10370
330
F10371
100
AcDbEntity
8
Geo
100
AcDbLine
10
-22.3022549869905
20
9.24064648195681
30
0.000000000000000
11
-22.2022549869905
21
9.15880955610649
31
0.000000000000000
  0
LINE
  5
F10372
330
F10373
100
AcDbEntity
8
Geo
100
AcDbLine
10
-22.2022549869905
20
9.15880955610649
30
0.000000000000000
11
-22.1022549869905
21
9.07720067605153
31
0.000000000000000
  0
LINE
  5
F10374
330
F10375
100
AcDbEntity
8
Geo
100
AcDbLine
10
-22.1022549869905
20
9.07720067605153
30
0.000000000000000
11
-22.0022549869905
21
8.99583156815126
31
0.000000000000000
  0
LINE
  5
F10376
330
F10377
100
AcDbEntity
8
Geo
100
AcDbLine
10
-22.0022549869905
20
8.99583156815126
30
0.000000000000000
11
-21.9022549869905
21
8.91471392431220
31
0.000000000000000
  0
LINE
  5
F10378
330
F10379
100
AcDbEntity
8
Geo
100
AcDbLine
10
-21.9022549869905
20
8.91471392431220
30
0.000000000000000
11
-21.8022549869905
21
8.83385940030808
31
0.000000000000000
  0
LINE
  5
F1037A
330
F1037B
100
AcDbEntity
8
Geo
100
AcDbLine
10
-21.8022549869905
20
8.83385940030808
30
0.000000000000000
11
-21.7022549869905
21
8.75327961410497
31
0.000000000000000
  0
LINE
  5
F1037C
330
F1037D
100
AcDbEntity
8
Geo
100
AcDbLine
10
-21.7022549869905
20
8.75327961410497
30
0.000000000000000
11
-21.6022549869905
21
8.67298614419198
31
0.000000000000000
  0
LINE
  5
F1037E
330
F1037F
100
AcDbEntity
8
Geo
100
AcDbLine
10
-21.6022549869905
20
8.67298614419198
30
0.000000000000000
11
-21.5022549869905
21
8.59299052791749
31
0.000000000000000
  0
LINE
  5
F10380
330
F10381
100
AcDbEntity
8
Geo
100
AcDbLine
10
-21.5022549869905
20
8.59299052791749
30
0.000000000000000
11
-21.4022549869905
21
8.51330425983134
31
0.000000000000000
  0
LINE
  5
F10382
330
F10383
100
AcDbEntity
8
Geo
100
AcDbLine
10
-21.4022549869905
20
8.51330425983134
30
0.000000000000000
11
-21.3022549869905
21
8.43393879003324
31
0.000000000000000
  0
LINE
  5
F10384
330
F10385
100
AcDbEntity
8
Geo
100
AcDbLine
10
-21.3022549869905
20
8.43393879003324
30
0.000000000000000
11
-21.2022549869905
21
8.35490552252746
31
0.000000000000000
  0
LINE
  5
F10386
330
F10387
100
AcDbEntity
8
Geo
100
AcDbLine
10
-21.2022549869905
20
8.35490552252746
30
0.000000000000000
11
-21.1022549869905
21
8.27621581358422
31
0.000000000000000
  0
LINE
  5
F10388
330
F10389
100
AcDbEntity
8
Geo
100
AcDbLine
10
-21.1022549869905
20
8.27621581358422
30
0.000000000000000
11
-21.0022549869905
21
8.19788097010787
31
0.000000000000000
  0
LINE
  5
F1038A
330
F1038B
100
AcDbEntity
8
Geo
100
AcDbLine
10
-21.0022549869905
20
8.19788097010787
30
0.000000000000000
11
-20.9022549869905
21
8.11991224801226
31
0.000000000000000
  0
LINE
  5
F1038C
330
F1038D
100
AcDbEntity
8
Geo
100
AcDbLine
10
-20.9022549869905
20
8.11991224801226
30
0.000000000000000
11
-20.8022549869905
21
8.04232085060333
31
0.000000000000000
  0
LINE
  5
F1038E
330
F1038F
100
AcDbEntity
8
Geo
100
AcDbLine
10
-20.8022549869905
20
8.04232085060333
30
0.000000000000000
11
-20.7022549869905
21
7.96511792696934
31
0.000000000000000
  0
LINE
  5
F10390
330
F10391
100
AcDbEntity
8
Geo
100
AcDbLine
10
-20.7022549869905
20
7.96511792696934
30
0.000000000000000
11
-20.6022549869905
21
7.88831457037887
31
0.000000000000000
  0
LINE
  5
F10392
330
F10393
100
AcDbEntity
8
Geo
100
AcDbLine
10
-20.6022549869905
20
7.88831457037887
30
0.000000000000000
11
-20.5022549869905
21
7.81192181668677
31
0.000000000000000
  0
LINE
  5
F10394
330
F10395
100
AcDbEntity
8
Geo
100
AcDbLine
10
-20.5022549869905
20
7.81192181668677
30
0.000000000000000
11
-20.4022549869905
21
7.73595064274850
31
0.000000000000000
  0
LINE
  5
F10396
330
F10397
100
AcDbEntity
8
Geo
100
AcDbLine
10
-20.4022549869905
20
7.73595064274850
30
0.000000000000000
11
-20.3022549869905
21
7.66041196484283
31
0.000000000000000
  0
LINE
  5
F10398
330
F10399
100
AcDbEntity
8
Geo
100
AcDbLine
10
-20.3022549869905
20
7.66041196484283
30
0.000000000000000
11
-20.2022549869905
21
7.58531663710325
31
0.000000000000000
  0
LINE
  5
F1039A
330
F1039B
100
AcDbEntity
8
Geo
100
AcDbLine
10
-20.2022549869905
20
7.58531663710325
30
0.000000000000000
11
-20.1022549869905
21
7.51067544995842
31
0.000000000000000
  0
LINE
  5
F1039C
330
F1039D
100
AcDbEntity
8
Geo
100
AcDbLine
10
-20.1022549869905
20
7.51067544995842
30
0.000000000000000
11
-20.0022549869905
21
7.43649912858163
31
0.000000000000000
  0
LINE
  5
F1039E
330
F1039F
100
AcDbEntity
8
Geo
100
AcDbLine
10
-20.0022549869905
20
7.43649912858163
30
0.000000000000000
11
-19.9022549869905
21
7.36279833134973
31
0.000000000000000
  0
LINE
  5
F103A0
330
F103A1
100
AcDbEntity
8
Geo
100
AcDbLine
10
-19.9022549869905
20
7.36279833134973
30
0.000000000000000
11
-19.8022549869905
21
7.28958364831162
31
0.000000000000000
  0
LINE
  5
F103A2
330
F103A3
100
AcDbEntity
8
Geo
100
AcDbLine
10
-19.8022549869905
20
7.28958364831162
30
0.000000000000000
11
-19.7022549869905
21
7.21686559966658
31
0.000000000000000
  0
LINE
  5
F103A4
330
F103A5
100
AcDbEntity
8
Geo
100
AcDbLine
10
-19.7022549869905
20
7.21686559966658
30
0.000000000000000
11
-19.6022549869905
21
7.14465463425263
31
0.000000000000000
  0
LINE
  5
F103A6
330
F103A7
100
AcDbEntity
8
Geo
100
AcDbLine
10
-19.6022549869905
20
7.14465463425263
30
0.000000000000000
11
-19.5022549869905
21
7.07296112804510
31
0.000000000000000
  0
LINE
  5
F103A8
330
F103A9
100
AcDbEntity
8
Geo
100
AcDbLine
10
-19.5022549869905
20
7.07296112804510
30
0.000000000000000
11
-19.4022549869905
21
7.00179538266578
31
0.000000000000000
  0
LINE
  5
F103AA
330
F103AB
100
AcDbEntity
8
Geo
100
AcDbLine
10
-19.4022549869905
20
7.00179538266578
30
0.000000000000000
11
-19.3022549869905
21
6.93116762390259
31
0.000000000000000
  0
LINE
  5
F103AC
330
F103AD
100
AcDbEntity
8
Geo
100
AcDbLine
10
-19.3022549869905
20
6.93116762390259
30
0.000000000000000
11
-19.2022549869905
21
6.86108800024034
31
0.000000000000000
  0
LINE
  5
F103AE
330
F103AF
100
AcDbEntity
8
Geo
100
AcDbLine
10
-19.2022549869905
20
6.86108800024034
30
0.000000000000000
11
-19.1022549869905
21
6.79156658140240
31
0.000000000000000
  0
LINE
  5
F103B0
330
F103B1
100
AcDbEntity
8
Geo
100
AcDbLine
10
-19.1022549869905
20
6.79156658140240
30
0.000000000000000
11
-19.0022549869905
21
6.72261335690387
31
0.000000000000000
  0
LINE
  5
F103B2
330
F103B3
100
AcDbEntity
8
Geo
100
AcDbLine
10
-19.0022549869905
20
6.72261335690387
30
0.000000000000000
11
-18.9022549869905
21
6.65423823461612
31
0.000000000000000
  0
LINE
  5
F103B4
330
F103B5
100
AcDbEntity
8
Geo
100
AcDbLine
10
-18.9022549869905
20
6.65423823461612
30
0.000000000000000
11
-18.8022549869905
21
6.58645103934317
31
0.000000000000000
  0
LINE
  5
F103B6
330
F103B7
100
AcDbEntity
8
Geo
100
AcDbLine
10
-18.8022549869905
20
6.58645103934317
30
0.000000000000000
11
-18.7022549869905
21
6.51926151140996
31
0.000000000000000
  0
LINE
  5
F103B8
330
F103B9
100
AcDbEntity
8
Geo
100
AcDbLine
10
-18.7022549869905
20
6.51926151140996
30
0.000000000000000
11
-18.6022549869905
21
6.45267930526275
31
0.000000000000000
  0
LINE
  5
F103BA
330
F103BB
100
AcDbEntity
8
Geo
100
AcDbLine
10
-18.6022549869905
20
6.45267930526275
30
0.000000000000000
11
-18.5022549869905
21
6.38671398808190
31
0.000000000000000
  0
LINE
  5
F103BC
330
F103BD
100
AcDbEntity
8
Geo
100
AcDbLine
10
-18.5022549869905
20
6.38671398808190
30
0.000000000000000
11
-18.4022549869905
21
6.32137503840715
31
0.000000000000000
  0
LINE
  5
F103BE
330
F103BF
100
AcDbEntity
8
Geo
100
AcDbLine
10
-18.4022549869905
20
6.32137503840715
30
0.000000000000000
11
-18.3022549869905
21
6.25667184477564
31
0.000000000000000
  0
LINE
  5
F103C0
330
F103C1
100
AcDbEntity
8
Geo
100
AcDbLine
10
-18.3022549869905
20
6.25667184477564
30
0.000000000000000
11
-18.2022549869905
21
6.19261370437288
31
0.000000000000000
  0
LINE
  5
F103C2
330
F103C3
100
AcDbEntity
8
Geo
100
AcDbLine
10
-18.2022549869905
20
6.19261370437288
30
0.000000000000000
11
-18.1022549869905
21
6.12920982169687
31
0.000000000000000
  0
LINE
  5
F103C4
330
F103C5
100
AcDbEntity
8
Geo
100
AcDbLine
10
-18.1022549869905
20
6.12920982169687
30
0.000000000000000
11
-18.0022549869905
21
6.06646930723547
31
0.000000000000000
  0
LINE
  5
F103C6
330
F103C7
100
AcDbEntity
8
Geo
100
AcDbLine
10
-18.0022549869905
20
6.06646930723547
30
0.000000000000000
11
-17.9022549869905
21
6.00440117615731
31
0.000000000000000
  0
LINE
  5
F103C8
330
F103C9
100
AcDbEntity
8
Geo
100
AcDbLine
10
-17.9022549869905
20
6.00440117615731
30
0.000000000000000
11
-17.8022549869905
21
5.94301434701646
31
0.000000000000000
  0
LINE
  5
F103CA
330
F103CB
100
AcDbEntity
8
Geo
100
AcDbLine
10
-17.8022549869905
20
5.94301434701646
30
0.000000000000000
11
-17.7022549869905
21
5.88231764047085
31
0.000000000000000
  0
LINE
  5
F103CC
330
F103CD
100
AcDbEntity
8
Geo
100
AcDbLine
10
-17.7022549869905
20
5.88231764047085
30
0.000000000000000
11
-17.6022549869905
21
5.82231977801489
31
0.000000000000000
  0
LINE
  5
F103CE
330
F103CF
100
AcDbEntity
8
Geo
100
AcDbLine
10
-17.6022549869905
20
5.82231977801489
30
0.000000000000000
11
-17.5022549869905
21
5.76302938072626
31
0.000000000000000
  0
LINE
  5
F103D0
330
F103D1
100
AcDbEntity
8
Geo
100
AcDbLine
10
-17.5022549869905
20
5.76302938072626
30
0.000000000000000
11
-17.4022549869905
21
5.70445496802714
31
0.000000000000000
  0
LINE
  5
F103D2
330
F103D3
100
AcDbEntity
8
Geo
100
AcDbLine
10
-17.4022549869905
20
5.70445496802714
30
0.000000000000000
11
-17.3022549869905
21
5.64660495646007
31
0.000000000000000
  0
LINE
  5
F103D4
330
F103D5
100
AcDbEntity
8
Geo
100
AcDbLine
10
-17.3022549869905
20
5.64660495646007
30
0.000000000000000
11
-17.2022549869905
21
5.58948765847857
31
0.000000000000000
  0
LINE
  5
F103D6
330
F103D7
100
AcDbEntity
8
Geo
100
AcDbLine
10
-17.2022549869905
20
5.58948765847857
30
0.000000000000000
11
-17.1022549869905
21
5.53311128125274
31
0.000000000000000
  0
LINE
  5
F103D8
330
F103D9
100
AcDbEntity
8
Geo
100
AcDbLine
10
-17.1022549869905
20
5.53311128125274
30
0.000000000000000
11
-17.0022549869905
21
5.47748392548996
31
0.000000000000000
  0
LINE
  5
F103DA
330
F103DB
100
AcDbEntity
8
Geo
100
AcDbLine
10
-17.0022549869905
20
5.47748392548996
30
0.000000000000000
11
-16.9022549869905
21
5.42261358427090
31
0.000000000000000
  0
LINE
  5
F103DC
330
F103DD
100
AcDbEntity
8
Geo
100
AcDbLine
10
-16.9022549869905
20
5.42261358427090
30
0.000000000000000
11
-16.8022549869905
21
5.36850814190100
31
0.000000000000000
  0
LINE
  5
F103DE
330
F103DF
100
AcDbEntity
8
Geo
100
AcDbLine
10
-16.8022549869905
20
5.36850814190100
30
0.000000000000000
11
-16.7022549869905
21
5.31517537277759
31
0.000000000000000
  0
LINE
  5
F103E0
330
F103E1
100
AcDbEntity
8
Geo
100
AcDbLine
10
-16.7022549869905
20
5.31517537277759
30
0.000000000000000
11
-16.6022549869905
21
5.26262294027277
31
0.000000000000000
  0
LINE
  5
F103E2
330
F103E3
100
AcDbEntity
8
Geo
100
AcDbLine
10
-16.6022549869905
20
5.26262294027277
30
0.000000000000000
11
-16.5022549869905
21
5.21085839563228
31
0.000000000000000
  0
LINE
  5
F103E4
330
F103E5
100
AcDbEntity
8
Geo
100
AcDbLine
10
-16.5022549869905
20
5.21085839563228
30
0.000000000000000
11
-16.4022549869905
21
5.15988917689041
31
0.000000000000000
  0
LINE
  5
F103E6
330
F103E7
100
AcDbEntity
8
Geo
100
AcDbLine
10
-16.4022549869905
20
5.15988917689041
30
0.000000000000000
11
-16.3022549869905
21
5.10972260780134
31
0.000000000000000
  0
LINE
  5
F103E8
330
F103E9
100
AcDbEntity
8
Geo
100
AcDbLine
10
-16.3022549869905
20
5.10972260780134
30
0.000000000000000
11
-16.2022549869905
21
5.06036589678666
31
0.000000000000000
  0
LINE
  5
F103EA
330
F103EB
100
AcDbEntity
8
Geo
100
AcDbLine
10
-16.2022549869905
20
5.06036589678666
30
0.000000000000000
11
-16.1022549869905
21
5.01182613589970
31
0.000000000000000
  0
LINE
  5
F103EC
330
F103ED
100
AcDbEntity
8
Geo
100
AcDbLine
10
-16.1022549869905
20
5.01182613589970
30
0.000000000000000
11
-16.0022549869905
21
4.96411029980643
31
0.000000000000000
  0
LINE
  5
F103EE
330
F103EF
100
AcDbEntity
8
Geo
100
AcDbLine
10
-16.0022549869905
20
4.96411029980643
30
0.000000000000000
11
-15.9022549869905
21
4.91722524478324
31
0.000000000000000
  0
LINE
  5
F103F0
330
F103F1
100
AcDbEntity
8
Geo
100
AcDbLine
10
-15.9022549869905
20
4.91722524478324
30
0.000000000000000
11
-15.8022549869905
21
4.87117770773184
31
0.000000000000000
  0
LINE
  5
F103F2
330
F103F3
100
AcDbEntity
8
Geo
100
AcDbLine
10
-15.8022549869905
20
4.87117770773184
30
0.000000000000000
11
-15.7022549869905
21
4.82597430521118
31
0.000000000000000
  0
LINE
  5
F103F4
330
F103F5
100
AcDbEntity
8
Geo
100
AcDbLine
10
-15.7022549869905
20
4.82597430521118
30
0.000000000000000
11
-15.6022549869905
21
4.78162153248671
31
0.000000000000000
  0
LINE
  5
F103F6
330
F103F7
100
AcDbEntity
8
Geo
100
AcDbLine
10
-15.6022549869905
20
4.78162153248671
30
0.000000000000000
11
-15.5022549869905
21
4.73812576259714
31
0.000000000000000
  0
LINE
  5
F103F8
330
F103F9
100
AcDbEntity
8
Geo
100
AcDbLine
10
-15.5022549869905
20
4.73812576259714
30
0.000000000000000
11
-15.4022549869904
21
4.69549324543863
31
0.000000000000000
  0
LINE
  5
F103FA
330
F103FB
100
AcDbEntity
8
Geo
100
AcDbLine
10
-15.4022549869904
20
4.69549324543863
30
0.000000000000000
11
-15.3022549869904
21
4.65373010686679
31
0.000000000000000
  0
LINE
  5
F103FC
330
F103FD
100
AcDbEntity
8
Geo
100
AcDbLine
10
-15.3022549869904
20
4.65373010686679
30
0.000000000000000
11
-15.2022549869904
21
4.61284234781642
31
0.000000000000000
  0
LINE
  5
F103FE
330
F103FF
100
AcDbEntity
8
Geo
100
AcDbLine
10
-15.2022549869904
20
4.61284234781642
30
0.000000000000000
11
-15.1022549869904
21
4.57283584343929
31
0.000000000000000
  0
LINE
  5
F10400
330
F10401
100
AcDbEntity
8
Geo
100
AcDbLine
10
-15.1022549869904
20
4.57283584343929
30
0.000000000000000
11
-15.0022549869904
21
4.53371634225988
31
0.000000000000000
  0
LINE
  5
F10402
330
F10403
100
AcDbEntity
8
Geo
100
AcDbLine
10
-15.0022549869904
20
4.53371634225988
30
0.000000000000000
11
-14.9022549869904
21
4.49548946534942
31
0.000000000000000
  0
LINE
  5
F10404
330
F10405
100
AcDbEntity
8
Geo
100
AcDbLine
10
-14.9022549869904
20
4.49548946534942
30
0.000000000000000
11
-14.8022549869904
21
4.45816070551817
31
0.000000000000000
  0
LINE
  5
F10406
330
F10407
100
AcDbEntity
8
Geo
100
AcDbLine
10
-14.8022549869904
20
4.45816070551817
30
0.000000000000000
11
-14.7022549869904
21
4.42173542652620
31
0.000000000000000
  0
LINE
  5
F10408
330
F10409
100
AcDbEntity
8
Geo
100
AcDbLine
10
-14.7022549869904
20
4.42173542652620
30
0.000000000000000
11
-14.6022549869904
21
4.38621886231262
31
0.000000000000000
  0
LINE
  5
F1040A
330
F1040B
100
AcDbEntity
8
Geo
100
AcDbLine
10
-14.6022549869904
20
4.38621886231262
30
0.000000000000000
11
-14.5022549869904
21
4.35161611624356
31
0.000000000000000
  0
LINE
  5
F1040C
330
F1040D
100
AcDbEntity
8
Geo
100
AcDbLine
10
-14.5022549869904
20
4.35161611624356
30
0.000000000000000
11
-14.4022549869904
21
4.31793216037885
31
0.000000000000000
  0
LINE
  5
F1040E
330
F1040F
100
AcDbEntity
8
Geo
100
AcDbLine
10
-14.4022549869904
20
4.31793216037885
30
0.000000000000000
11
-14.3022549869904
21
4.28517183475758
31
0.000000000000000
  0
LINE
  5
F10410
330
F10411
100
AcDbEntity
8
Geo
100
AcDbLine
10
-14.3022549869904
20
4.28517183475758
30
0.000000000000000
11
-14.2022549869904
21
4.25333984670265
31
0.000000000000000
  0
LINE
  5
F10412
330
F10413
100
AcDbEntity
8
Geo
100
AcDbLine
10
-14.2022549869904
20
4.25333984670265
30
0.000000000000000
11
-14.1022549869904
21
4.22244077014436
31
0.000000000000000
  0
LINE
  5
F10414
330
F10415
100
AcDbEntity
8
Geo
100
AcDbLine
10
-14.1022549869904
20
4.22244077014436
30
0.000000000000000
11
-14.0022549869904
21
4.19247904496322
31
0.000000000000000
  0
LINE
  5
F10416
330
F10417
100
AcDbEntity
8
Geo
100
AcDbLine
10
-14.0022549869904
20
4.19247904496322
30
0.000000000000000
11
-13.9022549869904
21
4.16345897635194
31
0.000000000000000
  0
LINE
  5
F10418
330
F10419
100
AcDbEntity
8
Geo
100
AcDbLine
10
-13.9022549869904
20
4.16345897635194
30
0.000000000000000
11
-13.8022549869904
21
4.13538473419681
31
0.000000000000000
  0
LINE
  5
F1041A
330
F1041B
100
AcDbEntity
8
Geo
100
AcDbLine
10
-13.8022549869904
20
4.13538473419681
30
0.000000000000000
11
-13.7022549869904
21
4.10826035247861
31
0.000000000000000
  0
LINE
  5
F1041C
330
F1041D
100
AcDbEntity
8
Geo
100
AcDbLine
10
-13.7022549869904
20
4.10826035247861
30
0.000000000000000
11
-13.6022549869904
21
4.08208972869287
31
0.000000000000000
  0
LINE
  5
F1041E
330
F1041F
100
AcDbEntity
8
Geo
100
AcDbLine
10
-13.6022549869904
20
4.08208972869287
30
0.000000000000000
11
-13.5022549869904
21
4.05687662328990
31
0.000000000000000
  0
LINE
  5
F10420
330
F10421
100
AcDbEntity
8
Geo
100
AcDbLine
10
-13.5022549869904
20
4.05687662328990
30
0.000000000000000
11
-13.4022549869904
21
4.03262465913445
31
0.000000000000000
  0
LINE
  5
F10422
330
F10423
100
AcDbEntity
8
Geo
100
AcDbLine
10
-13.4022549869904
20
4.03262465913445
30
0.000000000000000
11
-13.3022549869904
21
4.00933732098509
31
0.000000000000000
  0
LINE
  5
F10424
330
F10425
100
AcDbEntity
8
Geo
100
AcDbLine
10
-13.3022549869904
20
4.00933732098509
30
0.000000000000000
11
-13.2022549869904
21
3.98701795499357
31
0.000000000000000
  0
LINE
  5
F10426
330
F10427
100
AcDbEntity
8
Geo
100
AcDbLine
10
-13.2022549869904
20
3.98701795499357
30
0.000000000000000
11
-13.1022549869904
21
3.96566976822392
31
0.000000000000000
  0
LINE
  5
F10428
330
F10429
100
AcDbEntity
8
Geo
100
AcDbLine
10
-13.1022549869904
20
3.96566976822392
30
0.000000000000000
11
-13.0022549869904
21
3.94529582819171
31
0.000000000000000
  0
LINE
  5
F1042A
330
F1042B
100
AcDbEntity
8
Geo
100
AcDbLine
10
-13.0022549869904
20
3.94529582819171
30
0.000000000000000
11
-12.9022549869904
21
3.92589906242322
31
0.000000000000000
  0
LINE
  5
F1042C
330
F1042D
100
AcDbEntity
8
Geo
100
AcDbLine
10
-12.9022549869904
20
3.92589906242322
30
0.000000000000000
11
-12.8022549869904
21
3.90748225803482
31
0.000000000000000
  0
LINE
  5
F1042E
330
F1042F
100
AcDbEntity
8
Geo
100
AcDbLine
10
-12.8022549869904
20
3.90748225803482
30
0.000000000000000
11
-12.7022549869904
21
3.89004806133247
31
0.000000000000000
  0
LINE
  5
F10430
330
F10431
100
AcDbEntity
8
Geo
100
AcDbLine
10
-12.7022549869904
20
3.89004806133247
30
0.000000000000000
11
-12.6022549869904
21
3.87359897743149
31
0.000000000000000
  0
LINE
  5
F10432
330
F10433
100
AcDbEntity
8
Geo
100
AcDbLine
10
-12.6022549869904
20
3.87359897743149
30
0.000000000000000
11
-12.5022549869904
21
3.85813736989657
31
0.000000000000000
  0
LINE
  5
F10434
330
F10435
100
AcDbEntity
8
Geo
100
AcDbLine
10
-12.5022549869904
20
3.85813736989657
30
0.000000000000000
11
-12.4022549869904
21
3.84366546040219
31
0.000000000000000
  0
LINE
  5
F10436
330
F10437
100
AcDbEntity
8
Geo
100
AcDbLine
10
-12.4022549869904
20
3.84366546040219
30
0.000000000000000
11
-12.3022549869904
21
3.83018532841337
31
0.000000000000000
  0
LINE
  5
F10438
330
F10439
100
AcDbEntity
8
Geo
100
AcDbLine
10
-12.3022549869904
20
3.83018532841337
30
0.000000000000000
11
-12.2022549869904
21
3.81769891088685
31
0.000000000000000
  0
LINE
  5
F1043A
330
F1043B
100
AcDbEntity
8
Geo
100
AcDbLine
10
-12.2022549869904
20
3.81769891088685
30
0.000000000000000
11
-12.1022549869904
21
3.80620800199282
31
0.000000000000000
  0
LINE
  5
F1043C
330
F1043D
100
AcDbEntity
8
Geo
100
AcDbLine
10
-12.1022549869904
20
3.80620800199282
30
0.000000000000000
11
-12.0022549869904
21
3.79571425285707
31
0.000000000000000
  0
LINE
  5
F1043E
330
F1043F
100
AcDbEntity
8
Geo
100
AcDbLine
10
-12.0022549869904
20
3.79571425285707
30
0.000000000000000
11
-11.9022549869904
21
3.78621917132375
31
0.000000000000000
  0
LINE
  5
F10440
330
F10441
100
AcDbEntity
8
Geo
100
AcDbLine
10
-11.9022549869904
20
3.78621917132375
30
0.000000000000000
11
-11.8022549869904
21
3.77772412173872
31
0.000000000000000
  0
LINE
  5
F10442
330
F10443
100
AcDbEntity
8
Geo
100
AcDbLine
10
-11.8022549869904
20
3.77772412173872
30
0.000000000000000
11
-11.7022549869904
21
3.77023032475352
31
0.000000000000000
  0
LINE
  5
F10444
330
F10445
100
AcDbEntity
8
Geo
100
AcDbLine
10
-11.7022549869904
20
3.77023032475352
30
0.000000000000000
11
-11.6022549869904
21
3.76373885714993
31
0.000000000000000
  0
LINE
  5
F10446
330
F10447
100
AcDbEntity
8
Geo
100
AcDbLine
10
-11.6022549869904
20
3.76373885714993
30
0.000000000000000
11
-11.5022549869904
21
3.75825065168530
31
0.000000000000000
  0
LINE
  5
F10448
330
F10449
100
AcDbEntity
8
Geo
100
AcDbLine
10
-11.5022549869904
20
3.75825065168530
30
0.000000000000000
11
-11.4022549869904
21
3.75376649695847
31
0.000000000000000
  0
LINE
  5
F1044A
330
F1044B
100
AcDbEntity
8
Geo
100
AcDbLine
10
-11.4022549869904
20
3.75376649695847
30
0.000000000000000
11
-11.3022549869904
21
3.75028703729650
31
0.000000000000000
  0
LINE
  5
F1044C
330
F1044D
100
AcDbEntity
8
Geo
100
AcDbLine
10
-11.3022549869904
20
3.75028703729650
30
0.000000000000000
11
-11.2022549869904
21
3.74781277266208
31
0.000000000000000
  0
LINE
  5
F1044E
330
F1044F
100
AcDbEntity
8
Geo
100
AcDbLine
10
-11.2022549869904
20
3.74781277266208
30
0.000000000000000
11
-11.1022549869904
21
3.74634405858165
31
0.000000000000000
  0
LINE
  5
F10450
330
F10451
100
AcDbEntity
8
Geo
100
AcDbLine
10
-11.1022549869904
20
3.74634405858165
30
0.000000000000000
11
-11.0062281202710
21
3.74588031222895
31
0.000000000000000
  0
LINE
  5
F10452
330
F10453
100
AcDbEntity
8
Geo
100
AcDbLine
10
-9.40225498699036
20
3.83175095440325
30
0.000000000000000
11
-9.20225498699036
21
3.80753466660101
31
0.000000000000000
  0
LINE
  5
F10454
330
F10455
100
AcDbEntity
8
Geo
100
AcDbLine
10
-9.20225498699036
20
3.80753466660101
30
0.000000000000000
11
-9.10225498699036
21
3.79692114224071
31
0.000000000000000
  0
LINE
  5
F10456
330
F10457
100
AcDbEntity
8
Geo
100
AcDbLine
10
-9.10225498699036
20
3.79692114224071
30
0.000000000000000
11
-9.00225498699036
21
3.78730611206522
31
0.000000000000000
  0
LINE
  5
F10458
330
F10459
100
AcDbEntity
8
Geo
100
AcDbLine
10
-9.00225498699036
20
3.78730611206522
30
0.000000000000000
11
-8.90225498699036
21
3.77869095765583
31
0.000000000000000
  0
LINE
  5
F1045A
330
F1045B
100
AcDbEntity
8
Geo
100
AcDbLine
10
-8.90225498699036
20
3.77869095765583
30
0.000000000000000
11
-8.80225498699036
21
3.77107691692239
31
0.000000000000000
  0
LINE
  5
F1045C
330
F1045D
100
AcDbEntity
8
Geo
100
AcDbLine
10
-8.80225498699036
20
3.77107691692239
30
0.000000000000000
11
-8.70225498699035
21
3.76446508392767
31
0.000000000000000
  0
LINE
  5
F1045E
330
F1045F
100
AcDbEntity
8
Geo
100
AcDbLine
10
-8.70225498699035
20
3.76446508392767
30
0.000000000000000
11
-8.60225498699035
21
3.75885640873761
31
0.000000000000000
  0
LINE
  5
F10460
330
F10461
100
AcDbEntity
8
Geo
100
AcDbLine
10
-8.60225498699035
20
3.75885640873761
30
0.000000000000000
11
-8.50225498699035
21
3.75425169730154
31
0.000000000000000
  0
LINE
  5
F10462
330
F10463
100
AcDbEntity
8
Geo
100
AcDbLine
10
-8.50225498699035
20
3.75425169730154
30
0.000000000000000
11
-8.40225498699035
21
3.75065161135407
31
0.000000000000000
  0
LINE
  5
F10464
330
F10465
100
AcDbEntity
8
Geo
100
AcDbLine
10
-8.40225498699035
20
3.75065161135407
30
0.000000000000000
11
-8.30225498699035
21
3.74805666828103
31
0.000000000000000
  0
LINE
  5
F10466
330
F10467
100
AcDbEntity
8
Geo
100
AcDbLine
10
-8.30225498699035
20
3.74805666828103
30
0.000000000000000
11
-8.20225498699035
21
3.74646724075421
31
0.000000000000000
  0
LINE
  5
F10468
330
F10469
100
AcDbEntity
8
Geo
100
AcDbLine
10
-8.20225498699035
20
3.74646724075421
30
0.000000000000000
11
-8.10225498699035
21
3.74588355562922
31
0.000000000000000
  0
LINE
  5
F1046A
330
F1046B
100
AcDbEntity
8
Geo
100
AcDbLine
10
-8.10225498699035
20
3.74588355562922
30
0.000000000000000
11
-8.09422414405302
21
3.74588031222895
31
0.000000000000000
  0
LINE
  5
F1046C
330
F1046D
100
AcDbEntity
8
Geo
100
AcDbLine
10
-4.69641083570436
20
3.74588031222895
30
0.000000000000000
11
-4.60225498699030
21
3.78066319908165
31
0.000000000000000
  0
LINE
  5
F1046E
330
F1046F
100
AcDbEntity
8
Geo
100
AcDbLine
10
-4.60225498699030
20
3.78066319908165
30
0.000000000000000
11
-4.50225498699029
21
3.94109167429775
31
0.000000000000000
  0
LINE
  5
F10470
330
F10471
100
AcDbEntity
8
Geo
100
AcDbLine
10
-4.50225498699029
20
3.94109167429775
30
0.000000000000000
11
-4.40225498699029
21
4.33180195749025
31
0.000000000000000
  0
LINE
  5
F10472
330
F10473
100
AcDbEntity
8
Geo
100
AcDbLine
10
-4.40225498699029
20
4.33180195749025
30
0.000000000000000
11
-4.30225498699045
21
5.10845584875503
31
0.000000000000000
  0
LINE
  5
F10474
330
F10475
100
AcDbEntity
8
Geo
100
AcDbLine
10
-4.30225498699045
20
5.10845584875503
30
0.000000000000000
11
-4.30225498699045
21
5.32516165105865
31
0.000000000000000
  0
LINE
  5
F10476
330
F10477
100
AcDbEntity
8
Geo
100
AcDbLine
10
-4.30225498699045
20
5.32516165105865
30
0.000000000000000
11
-4.30225498699045
21
5.47079807921410
31
0.000000000000000
  0
LINE
  5
F10478
330
F10479
100
AcDbEntity
8
Geo
100
AcDbLine
10
-4.30225498699045
20
5.47079807921410
30
0.000000000000000
11
-4.30225498699045
21
5.34888462417684
31
0.000000000000000
  0
LINE
  5
F1047A
330
F1047B
100
AcDbEntity
8
Geo
100
AcDbLine
10
-4.30225498699045
20
5.34888462417684
30
0.000000000000000
11
-4.40225498699029
21
6.34249630718031
31
0.000000000000000
  0
LINE
  5
F1047C
330
F1047D
100
AcDbEntity
8
Geo
100
AcDbLine
10
-4.40225498699029
20
6.34249630718031
30
0.000000000000000
11
-4.50225498699029
21
7.39906819405675
31
0.000000000000000
  0
LINE
  5
F1047E
330
F1047F
100
AcDbEntity
8
Geo
100
AcDbLine
10
-4.50225498699029
20
7.39906819405675
30
0.000000000000000
11
-4.60225498699030
21
8.45454831042076
31
0.000000000000000
  0
LINE
  5
F10480
330
F10481
100
AcDbEntity
8
Geo
100
AcDbLine
10
-4.60225498699030
20
8.45454831042076
30
0.000000000000000
11
-4.70225498699030
21
9.46586163397486
31
0.000000000000000
  0
LINE
  5
F10482
330
F10483
100
AcDbEntity
8
Geo
100
AcDbLine
10
-4.70225498699030
20
9.46586163397486
30
0.000000000000000
11
-4.80225498699030
21
10.4066548503839
31
0.000000000000000
  0
LINE
  5
F10484
330
F10485
100
AcDbEntity
8
Geo
100
AcDbLine
10
-4.80225498699030
20
10.4066548503839
30
0.000000000000000
11
-4.90225498699030
21
11.2631059100559
31
0.000000000000000
  0
LINE
  5
F10486
330
F10487
100
AcDbEntity
8
Geo
100
AcDbLine
10
-4.90225498699030
20
11.2631059100559
30
0.000000000000000
11
-5.00225498699030
21
12.0302758733848
31
0.000000000000000
  0
LINE
  5
F10488
330
F10489
100
AcDbEntity
8
Geo
100
AcDbLine
10
-5.00225498699030
20
12.0302758733848
30
0.000000000000000
11
-5.10225498699030
21
12.7091690817763
31
0.000000000000000
  0
LINE
  5
F1048A
330
F1048B
100
AcDbEntity
8
Geo
100
AcDbLine
10
-5.10225498699030
20
12.7091690817763
30
0.000000000000000
11
-5.20225498699030
21
13.3044948598648
31
0.000000000000000
  0
LINE
  5
F1048C
330
F1048D
100
AcDbEntity
8
Geo
100
AcDbLine
10
-5.20225498699030
20
13.3044948598648
30
0.000000000000000
11
-5.30225498699031
21
13.8230419373180
31
0.000000000000000
  0
LINE
  5
F1048E
330
F1048F
100
AcDbEntity
8
Geo
100
AcDbLine
10
-5.30225498699031
20
13.8230419373180
30
0.000000000000000
11
-5.40225498699031
21
14.2725489406153
31
0.000000000000000
  0
LINE
  5
F10490
330
F10491
100
AcDbEntity
8
Geo
100
AcDbLine
10
-5.40225498699031
20
14.2725489406153
30
0.000000000000000
11
-5.50225498699031
21
14.6609555886767
31
0.000000000000000
  0
LINE
  5
F10492
330
F10493
100
AcDbEntity
8
Geo
100
AcDbLine
10
-5.50225498699031
20
14.6609555886767
30
0.000000000000000
11
-5.60225498699031
21
14.9959339314076
31
0.000000000000000
  0
LINE
  5
F10494
330
F10495
100
AcDbEntity
8
Geo
100
AcDbLine
10
-5.60225498699031
20
14.9959339314076
30
0.000000000000000
11
-5.70225498699031
21
15.2846180490178
31
0.000000000000000
  0
LINE
  5
F10496
330
F10497
100
AcDbEntity
8
Geo
100
AcDbLine
10
-5.70225498699031
20
15.2846180490178
30
0.000000000000000
11
-5.80225498699031
21
15.5334693619421
31
0.000000000000000
  0
LINE
  5
F10498
330
F10499
100
AcDbEntity
8
Geo
100
AcDbLine
10
-5.80225498699031
20
15.5334693619421
30
0.000000000000000
11
-5.90225498699031
21
15.7482309783320
31
0.000000000000000
  0
LINE
  5
F1049A
330
F1049B
100
AcDbEntity
8
Geo
100
AcDbLine
10
-5.90225498699031
20
15.7482309783320
30
0.000000000000000
11
-6.00225498699032
21
15.9339376806155
31
0.000000000000000
  0
LINE
  5
F1049C
330
F1049D
100
AcDbEntity
8
Geo
100
AcDbLine
10
-6.00225498699032
20
15.9339376806155
30
0.000000000000000
11
-6.10225498699032
21
16.0949583169383
31
0.000000000000000
  0
LINE
  5
F1049E
330
F1049F
100
AcDbEntity
8
Geo
100
AcDbLine
10
-6.10225498699032
20
16.0949583169383
30
0.000000000000000
11
-6.20225498699032
21
16.2350549290009
31
0.000000000000000
  0
LINE
  5
F104A0
330
F104A1
100
AcDbEntity
8
Geo
100
AcDbLine
10
-6.20225498699032
20
16.2350549290009
30
0.000000000000000
11
-6.30225498699032
21
16.3574484167808
31
0.000000000000000
  0
LINE
  5
F104A2
330
F104A3
100
AcDbEntity
8
Geo
100
AcDbLine
10
-6.30225498699032
20
16.3574484167808
30
0.000000000000000
11
-6.40225498699032
21
16.4648843923446
31
0.000000000000000
  0
LINE
  5
F104A4
330
F104A5
100
AcDbEntity
8
Geo
100
AcDbLine
10
-6.40225498699032
20
16.4648843923446
30
0.000000000000000
11
-6.50225498699032
21
16.5596955197694
31
0.000000000000000
  0
LINE
  5
F104A6
330
F104A7
100
AcDbEntity
8
Geo
100
AcDbLine
10
-6.50225498699032
20
16.5596955197694
30
0.000000000000000
11
-6.60225498699032
21
16.6438584056413
31
0.000000000000000
  0
LINE
  5
F104A8
330
F104A9
100
AcDbEntity
8
Geo
100
AcDbLine
10
-6.60225498699032
20
16.6438584056413
30
0.000000000000000
11
-6.70225498699033
21
16.7190442483888
31
0.000000000000000
  0
LINE
  5
F104AA
330
F104AB
100
AcDbEntity
8
Geo
100
AcDbLine
10
-6.70225498699033
20
16.7190442483888
30
0.000000000000000
11
-6.80225498699033
21
16.7866631643598
31
0.000000000000000
  0
LINE
  5
F104AC
330
F104AD
100
AcDbEntity
8
Geo
100
AcDbLine
10
-6.80225498699033
20
16.7866631643598
30
0.000000000000000
11
-6.90225498699033
21
16.8479025223085
31
0.000000000000000
  0
LINE
  5
F104AE
330
F104AF
100
AcDbEntity
8
Geo
100
AcDbLine
10
-6.90225498699033
20
16.8479025223085
30
0.000000000000000
11
-7.00225498699033
21
16.9037598347926
31
0.000000000000000
  0
LINE
  5
F104B0
330
F104B1
100
AcDbEntity
8
Geo
100
AcDbLine
10
-7.00225498699033
20
16.9037598347926
30
0.000000000000000
11
-7.10225498699033
21
16.9550708444822
31
0.000000000000000
  0
LINE
  5
F104B2
330
F104B3
100
AcDbEntity
8
Geo
100
AcDbLine
10
-7.10225498699033
20
16.9550708444822
30
0.000000000000000
11
-7.20225498699033
21
17.0025334537405
31
0.000000000000000
  0
LINE
  5
F104B4
330
F104B5
100
AcDbEntity
8
Geo
100
AcDbLine
10
-7.20225498699033
20
17.0025334537405
30
0.000000000000000
11
-7.30225498699033
21
17.0467281098121
31
0.000000000000000
  0
LINE
  5
F104B6
330
F104B7
100
AcDbEntity
8
Geo
100
AcDbLine
10
-7.30225498699033
20
17.0467281098121
30
0.000000000000000
11
-7.40225498699034
21
17.0881351974026
31
0.000000000000000
  0
LINE
  5
F104B8
330
F104B9
100
AcDbEntity
8
Geo
100
AcDbLine
10
-7.40225498699034
20
17.0881351974026
30
0.000000000000000
11
-7.50225498699034
21
17.1271499195639
31
0.000000000000000
  0
LINE
  5
F104BA
330
F104BB
100
AcDbEntity
8
Geo
100
AcDbLine
10
-7.50225498699034
20
17.1271499195639
30
0.000000000000000
11
-7.60225498699034
21
17.1640950755493
31
0.000000000000000
  0
LINE
  5
F104BC
330
F104BD
100
AcDbEntity
8
Geo
100
AcDbLine
10
-7.60225498699034
20
17.1640950755493
30
0.000000000000000
11
-7.70225498699034
21
17.1992320759911
31
0.000000000000000
  0
LINE
  5
F104BE
330
F104BF
100
AcDbEntity
8
Geo
100
AcDbLine
10
-7.70225498699034
20
17.1992320759911
30
0.000000000000000
11
-7.80225498699034
21
17.2327704743015
31
0.000000000000000
  0
LINE
  5
F104C0
330
F104C1
100
AcDbEntity
8
Geo
100
AcDbLine
10
-7.80225498699034
20
17.2327704743015
30
0.000000000000000
11
-7.90225498699034
21
17.2648762399131
31
0.000000000000000
  0
LINE
  5
F104C2
330
F104C3
100
AcDbEntity
8
Geo
100
AcDbLine
10
-7.90225498699034
20
17.2648762399131
30
0.000000000000000
11
-8.00225498699034
21
17.2956789541519
31
0.000000000000000
  0
LINE
  5
F104C4
330
F104C5
100
AcDbEntity
8
Geo
100
AcDbLine
10
-8.00225498699034
20
17.2956789541519
30
0.000000000000000
11
-8.10225498699035
21
17.3252780728379
31
0.000000000000000
  0
LINE
  5
F104C6
330
F104C7
100
AcDbEntity
8
Geo
100
AcDbLine
10
-8.10225498699035
20
17.3252780728379
30
0.000000000000000
11
-8.20225498699035
21
17.3537483704300
31
0.000000000000000
  0
LINE
  5
F104C8
330
F104C9
100
AcDbEntity
8
Geo
100
AcDbLine
10
-8.20225498699035
20
17.3537483704300
30
0.000000000000000
11
-8.30225498699035
21
17.3811446577916
31
0.000000000000000
  0
LINE
  5
F104CA
330
F104CB
100
AcDbEntity
8
Geo
100
AcDbLine
10
-8.30225498699035
20
17.3811446577916
30
0.000000000000000
11
-8.40225498699035
21
17.4075058484851
31
0.000000000000000
  0
LINE
  5
F104CC
330
F104CD
100
AcDbEntity
8
Geo
100
AcDbLine
10
-8.40225498699035
20
17.4075058484851
30
0.000000000000000
11
-8.50225498699035
21
17.4328584359713
31
0.000000000000000
  0
LINE
  5
F104CE
330
F104CF
100
AcDbEntity
8
Geo
100
AcDbLine
10
-8.50225498699035
20
17.4328584359713
30
0.000000000000000
11
-8.60225498699035
21
17.4572194352927
31
0.000000000000000
  0
LINE
  5
F104D0
330
F104D1
100
AcDbEntity
8
Geo
100
AcDbLine
10
-8.60225498699035
20
17.4572194352927
30
0.000000000000000
11
-8.70225498699035
21
17.4805988369569
31
0.000000000000000
  0
LINE
  5
F104D2
330
F104D3
100
AcDbEntity
8
Geo
100
AcDbLine
10
-8.70225498699035
20
17.4805988369569
30
0.000000000000000
11
-8.80225498699036
21
17.5030016170971
31
0.000000000000000
  0
LINE
  5
F104D4
330
F104D5
100
AcDbEntity
8
Geo
100
AcDbLine
10
-8.80225498699036
20
17.5030016170971
30
0.000000000000000
11
-8.90225498699036
21
17.5244293459677
31
0.000000000000000
  0
LINE
  5
F104D6
330
F104D7
100
AcDbEntity
8
Geo
100
AcDbLine
10
-8.90225498699036
20
17.5244293459677
30
0.000000000000000
11
-9.00225498699036
21
17.5448814359468
31
0.000000000000000
  0
LINE
  5
F104D8
330
F104D9
100
AcDbEntity
8
Geo
100
AcDbLine
10
-9.00225498699036
20
17.5448814359468
30
0.000000000000000
11
-9.10225498699036
21
17.5643560700598
31
0.000000000000000
  0
LINE
  5
F104DA
330
F104DB
100
AcDbEntity
8
Geo
100
AcDbLine
10
-9.10225498699036
20
17.5643560700598
30
0.000000000000000
11
-9.20225498699036
21
17.5828508523131
31
0.000000000000000
  0
LINE
  5
F104DC
330
F104DD
100
AcDbEntity
8
Geo
100
AcDbLine
10
-9.20225498699036
20
17.5828508523131
30
0.000000000000000
11
-9.40225498699036
21
17.6168906718697
31
0.000000000000000
  0
LINE
  5
F104DE
330
F104DF
100
AcDbEntity
8
Geo
100
AcDbLine
10
-8.09422414405300
20
17.7458803122289
30
0.000000000000000
11
-8.00225498699034
21
17.7454549334782
31
0.000000000000000
  0
LINE
  5
F104E0
330
F104E1
100
AcDbEntity
8
Geo
100
AcDbLine
10
-8.00225498699034
20
17.7454549334782
30
0.000000000000000
11
-7.90225498699034
21
17.7440270554487
31
0.000000000000000
  0
LINE
  5
F104E2
330
F104E3
100
AcDbEntity
8
Geo
100
AcDbLine
10
-7.90225498699034
20
17.7440270554487
30
0.000000000000000
11
-7.80225498699034
21
17.7415936838086
31
0.000000000000000
  0
LINE
  5
F104E4
330
F104E5
100
AcDbEntity
8
Geo
100
AcDbLine
10
-7.80225498699034
20
17.7415936838086
30
0.000000000000000
11
-7.70225498699034
21
17.7381552699260
31
0.000000000000000
  0
LINE
  5
F104E6
330
F104E7
100
AcDbEntity
8
Geo
100
AcDbLine
10
-7.70225498699034
20
17.7381552699260
30
0.000000000000000
11
-7.60225498699034
21
17.7337125262666
31
0.000000000000000
  0
LINE
  5
F104E8
330
F104E9
100
AcDbEntity
8
Geo
100
AcDbLine
10
-7.60225498699034
20
17.7337125262666
30
0.000000000000000
11
-7.50225498699034
21
17.7282665323118
31
0.000000000000000
  0
LINE
  5
F104EA
330
F104EB
100
AcDbEntity
8
Geo
100
AcDbLine
10
-7.50225498699034
20
17.7282665323118
30
0.000000000000000
11
-7.40225498699034
21
17.7218189173707
31
0.000000000000000
  0
LINE
  5
F104EC
330
F104ED
100
AcDbEntity
8
Geo
100
AcDbLine
10
-7.40225498699034
20
17.7218189173707
30
0.000000000000000
11
-7.30225498699033
21
17.7143721647291
31
0.000000000000000
  0
LINE
  5
F104EE
330
F104EF
100
AcDbEntity
8
Geo
100
AcDbLine
10
-7.30225498699033
20
17.7143721647291
30
0.000000000000000
11
-7.20225498699033
21
17.7059301017402
31
0.000000000000000
  0
LINE
  5
F104F0
330
F104F1
100
AcDbEntity
8
Geo
100
AcDbLine
10
-7.20225498699033
20
17.7059301017402
30
0.000000000000000
11
-7.10225498699033
21
17.6964986675475
31
0.000000000000000
  0
LINE
  5
F104F2
330
F104F3
100
AcDbEntity
8
Geo
100
AcDbLine
10
-7.10225498699033
20
17.6964986675475
30
0.000000000000000
11
-7.00225498699033
21
17.6860870857795
31
0.000000000000000
  0
LINE
  5
F104F4
330
F104F5
100
AcDbEntity
8
Geo
100
AcDbLine
10
-7.00225498699033
20
17.6860870857795
30
0.000000000000000
11
-6.90225498699033
21
17.6747096154417
31
0.000000000000000
  0
LINE
  5
F104F6
330
F104F7
100
AcDbEntity
8
Geo
100
AcDbLine
10
-6.90225498699033
20
17.6747096154417
30
0.000000000000000
11
-6.80225498699033
21
17.6623881109767
31
0.000000000000000
  0
LINE
  5
F104F8
330
F104F9
100
AcDbEntity
8
Geo
100
AcDbLine
10
-6.80225498699033
20
17.6623881109767
30
0.000000000000000
11
-6.70225498699033
21
17.6491556931406
31
0.000000000000000
  0
LINE
  5
F104FA
330
F104FB
100
AcDbEntity
8
Geo
100
AcDbLine
10
-6.70225498699033
20
17.6491556931406
30
0.000000000000000
11
-6.60225498699032
21
17.6350619158951
31
0.000000000000000
  0
LINE
  5
F104FC
330
F104FD
100
AcDbEntity
8
Geo
100
AcDbLine
10
-6.60225498699032
20
17.6350619158951
30
0.000000000000000
11
-6.50225498699032
21
17.6201799084679
31
0.000000000000000
  0
LINE
  5
F104FE
330
F104FF
100
AcDbEntity
8
Geo
100
AcDbLine
10
-6.50225498699032
20
17.6201799084679
30
0.000000000000000
11
-6.40225498699032
21
17.6046160691738
31
0.000000000000000
  0
LINE
  5
F10500
330
F10501
100
AcDbEntity
8
Geo
100
AcDbLine
10
-6.40225498699032
20
17.6046160691738
30
0.000000000000000
11
-6.30225498699032
21
17.5885229738129
31
0.000000000000000
  0
LINE
  5
F10502
330
F10503
100
AcDbEntity
8
Geo
100
AcDbLine
10
-6.30225498699032
20
17.5885229738129
30
0.000000000000000
11
-6.20225498699032
21
17.5721162083959
31
0.000000000000000
  0
LINE
  5
F10504
330
F10505
100
AcDbEntity
8
Geo
100
AcDbLine
10
-6.20225498699032
20
17.5721162083959
30
0.000000000000000
11
-6.10225498699032
21
17.5556957935075
31
0.000000000000000
  0
LINE
  5
F10506
330
F10507
100
AcDbEntity
8
Geo
100
AcDbLine
10
-6.10225498699032
20
17.5556957935075
30
0.000000000000000
11
-6.00225498699032
21
17.5396726498040
31
0.000000000000000
  0
LINE
  5
F10508
330
F10509
100
AcDbEntity
8
Geo
100
AcDbLine
10
-6.00225498699032
20
17.5396726498040
30
0.000000000000000
11
-5.90225498699031
21
17.5246000175506
31
0.000000000000000
  0
LINE
  5
F1050A
330
F1050B
100
AcDbEntity
8
Geo
100
AcDbLine
10
-5.90225498699031
20
17.5246000175506
30
0.000000000000000
11
-5.80225498699031
21
17.5112086533071
31
0.000000000000000
  0
LINE
  5
F1050C
330
F1050D
100
AcDbEntity
8
Geo
100
AcDbLine
10
-5.80225498699031
20
17.5112086533071
30
0.000000000000000
11
-5.70225498699031
21
17.5004426061208
31
0.000000000000000
  0
LINE
  5
F1050E
330
F1050F
100
AcDbEntity
8
Geo
100
AcDbLine
10
-5.70225498699031
20
17.5004426061208
30
0.000000000000000
11
-5.60225498699031
21
17.4934888211885
31
0.000000000000000
  0
LINE
  5
F10510
330
F10511
100
AcDbEntity
8
Geo
100
AcDbLine
10
-5.60225498699031
20
17.4934888211885
30
0.000000000000000
11
-5.50225498699031
21
17.4917877756201
31
0.000000000000000
  0
LINE
  5
F10512
330
F10513
100
AcDbEntity
8
Geo
100
AcDbLine
10
-5.50225498699031
20
17.4917877756201
30
0.000000000000000
11
-5.40225498699031
21
17.4970023120750
31
0.000000000000000
  0
LINE
  5
F10514
330
F10515
100
AcDbEntity
8
Geo
100
AcDbLine
10
-5.40225498699031
20
17.4970023120750
30
0.000000000000000
11
-5.30225498699031
21
17.5109054403000
31
0.000000000000000
  0
LINE
  5
F10516
330
F10517
100
AcDbEntity
8
Geo
100
AcDbLine
10
-5.30225498699031
20
17.5109054403000
30
0.000000000000000
11
-5.20225498699030
21
17.5351214676894
31
0.000000000000000
  0
LINE
  5
F10518
330
F10519
100
AcDbEntity
8
Geo
100
AcDbLine
10
-5.20225498699030
20
17.5351214676894
30
0.000000000000000
11
-5.10225498699030
21
17.5706128840821
31
0.000000000000000
  0
LINE
  5
F1051A
330
F1051B
100
AcDbEntity
8
Geo
100
AcDbLine
10
-5.10225498699030
20
17.5706128840821
30
0.000000000000000
11
-5.00225498699030
21
17.6167401123780
31
0.000000000000000
  0
LINE
  5
F1051C
330
F1051D
100
AcDbEntity
8
Geo
100
AcDbLine
10
-5.00225498699030
20
17.6167401123780
30
0.000000000000000
11
-4.90225498699030
21
17.6696227673046
31
0.000000000000000
  0
LINE
  5
F1051E
330
F1051F
100
AcDbEntity
8
Geo
100
AcDbLine
10
-4.90225498699030
20
17.6696227673046
30
0.000000000000000
11
-4.80225498699030
21
17.7193915049337
31
0.000000000000000
  0
LINE
  5
F10520
330
F10521
100
AcDbEntity
8
Geo
100
AcDbLine
10
-4.80225498699030
20
17.7193915049337
30
0.000000000000000
11
-4.70225498699030
21
17.7457466410674
31
0.000000000000000
  0
LINE
  5
F10522
330
F10523
100
AcDbEntity
8
Geo
100
AcDbLine
10
-4.70225498699030
20
17.7457466410674
30
0.000000000000000
11
-4.69641083570437
21
17.7458803122289
31
0.000000000000000
  0
LINE
  5
F10524
330
F10525
100
AcDbEntity
8
Geo
100
AcDbLine
10
-34.3022549869904
20
17.6243265878621
30
0.000000000000000
11
-34.2022549869904
21
17.6155690864344
31
0.000000000000000
  0
LINE
  5
F10526
330
F10527
100
AcDbEntity
8
Geo
100
AcDbLine
10
-34.2022549869904
20
17.6155690864344
30
0.000000000000000
11
-34.1022549869904
21
17.6058244811651
31
0.000000000000000
  0
LINE
  5
F10528
330
F10529
100
AcDbEntity
8
Geo
100
AcDbLine
10
-34.1022549869904
20
17.6058244811651
30
0.000000000000000
11
-34.0022549869905
21
17.5950941722539
31
0.000000000000000
  0
LINE
  5
F1052A
330
F1052B
100
AcDbEntity
8
Geo
100
AcDbLine
10
-34.0022549869905
20
17.5950941722539
30
0.000000000000000
11
-33.9022549869904
21
17.5833797015362
31
0.000000000000000
  0
LINE
  5
F1052C
330
F1052D
100
AcDbEntity
8
Geo
100
AcDbLine
10
-33.9022549869904
20
17.5833797015362
30
0.000000000000000
11
-33.8022549869904
21
17.5706827522615
31
0.000000000000000
  0
LINE
  5
F1052E
330
F1052F
100
AcDbEntity
8
Geo
100
AcDbLine
10
-33.8022549869904
20
17.5706827522615
30
0.000000000000000
11
-33.7022549869904
21
17.5570051488510
31
0.000000000000000
  0
LINE
  5
F10530
330
F10531
100
AcDbEntity
8
Geo
100
AcDbLine
10
-33.7022549869904
20
17.5570051488510
30
0.000000000000000
11
-33.6022549869904
21
17.5423488566362
31
0.000000000000000
  0
LINE
  5
F10532
330
F10533
100
AcDbEntity
8
Geo
100
AcDbLine
10
-33.6022549869904
20
17.5423488566362
30
0.000000000000000
11
-33.5022549869905
21
17.5267159815761
31
0.000000000000000
  0
LINE
  5
F10534
330
F10535
100
AcDbEntity
8
Geo
100
AcDbLine
10
-33.5022549869905
20
17.5267159815761
30
0.000000000000000
11
-33.4022549869904
21
17.5101087699544
31
0.000000000000000
  0
LINE
  5
F10536
330
F10537
100
AcDbEntity
8
Geo
100
AcDbLine
10
-33.4022549869904
20
17.5101087699544
30
0.000000000000000
11
-33.3022549869904
21
17.4925296080572
31
0.000000000000000
  0
LINE
  5
F10538
330
F10539
100
AcDbEntity
8
Geo
100
AcDbLine
10
-33.3022549869904
20
17.4925296080572
30
0.000000000000000
11
-33.2022549869904
21
17.4739810218298
31
0.000000000000000
  0
LINE
  5
F1053A
330
F1053B
100
AcDbEntity
8
Geo
100
AcDbLine
10
-33.2022549869904
20
17.4739810218298
30
0.000000000000000
11
-33.1022549869904
21
17.4544656765139
31
0.000000000000000
  0
LINE
  5
F1053C
330
F1053D
100
AcDbEntity
8
Geo
100
AcDbLine
10
-33.1022549869904
20
17.4544656765139
30
0.000000000000000
11
-33.0022549869905
21
17.4339863762645
31
0.000000000000000
  0
LINE
  5
F1053E
330
F1053F
100
AcDbEntity
8
Geo
100
AcDbLine
10
-33.0022549869905
20
17.4339863762645
30
0.000000000000000
11
-32.9022549869904
21
17.4125460637471
31
0.000000000000000
  0
LINE
  5
F10540
330
F10541
100
AcDbEntity
8
Geo
100
AcDbLine
10
-32.9022549869904
20
17.4125460637471
30
0.000000000000000
11
-32.8022549869904
21
17.3901478197147
31
0.000000000000000
  0
LINE
  5
F10542
330
F10543
100
AcDbEntity
8
Geo
100
AcDbLine
10
-32.8022549869904
20
17.3901478197147
30
0.000000000000000
11
-32.7022549869904
21
17.3667948625655
31
0.000000000000000
  0
LINE
  5
F10544
330
F10545
100
AcDbEntity
8
Geo
100
AcDbLine
10
-32.7022549869904
20
17.3667948625655
30
0.000000000000000
11
-32.6022549869904
21
17.3424905478798
31
0.000000000000000
  0
LINE
  5
F10546
330
F10547
100
AcDbEntity
8
Geo
100
AcDbLine
10
-32.6022549869904
20
17.3424905478798
30
0.000000000000000
11
-32.5022549869905
21
17.3172383679386
31
0.000000000000000
  0
LINE
  5
F10548
330
F10549
100
AcDbEntity
8
Geo
100
AcDbLine
10
-32.5022549869905
20
17.3172383679386
30
0.000000000000000
11
-32.4022549869904
21
17.2910419512211
31
0.000000000000000
  0
LINE
  5
F1054A
330
F1054B
100
AcDbEntity
8
Geo
100
AcDbLine
10
-32.4022549869904
20
17.2910419512211
30
0.000000000000000
11
-32.3022549869904
21
17.2639050618839
31
0.000000000000000
  0
LINE
  5
F1054C
330
F1054D
100
AcDbEntity
8
Geo
100
AcDbLine
10
-32.3022549869904
20
17.2639050618839
30
0.000000000000000
11
-32.2022549869904
21
17.2358315992196
31
0.000000000000000
  0
LINE
  5
F1054E
330
F1054F
100
AcDbEntity
8
Geo
100
AcDbLine
10
-32.2022549869904
20
17.2358315992196
30
0.000000000000000
11
-32.1022549869904
21
17.2068255970972
31
0.000000000000000
  0
LINE
  5
F10550
330
F10551
100
AcDbEntity
8
Geo
100
AcDbLine
10
-32.1022549869904
20
17.2068255970972
30
0.000000000000000
11
-32.0022549869905
21
17.1768912233816
31
0.000000000000000
  0
LINE
  5
F10552
330
F10553
100
AcDbEntity
8
Geo
100
AcDbLine
10
-32.0022549869905
20
17.1768912233816
30
0.000000000000000
11
-31.9022549869904
21
17.1460327793354
31
0.000000000000000
  0
LINE
  5
F10554
330
F10555
100
AcDbEntity
8
Geo
100
AcDbLine
10
-31.9022549869904
20
17.1460327793354
30
0.000000000000000
11
-31.8022549869904
21
17.1142546990007
31
0.000000000000000
  0
LINE
  5
F10556
330
F10557
100
AcDbEntity
8
Geo
100
AcDbLine
10
-31.8022549869904
20
17.1142546990007
30
0.000000000000000
11
-31.7022549869904
21
17.0815615485618
31
0.000000000000000
  0
LINE
  5
F10558
330
F10559
100
AcDbEntity
8
Geo
100
AcDbLine
10
-31.7022549869904
20
17.0815615485618
30
0.000000000000000
11
-31.6022549869904
21
17.0479580256892
31
0.000000000000000
  0
LINE
  5
F1055A
330
F1055B
100
AcDbEntity
8
Geo
100
AcDbLine
10
-31.6022549869904
20
17.0479580256892
30
0.000000000000000
11
-31.5022549869904
21
17.0134489588646
31
0.000000000000000
  0
LINE
  5
F1055C
330
F1055D
100
AcDbEntity
8
Geo
100
AcDbLine
10
-31.5022549869904
20
17.0134489588646
30
0.000000000000000
11
-31.4022549869904
21
16.9780393066871
31
0.000000000000000
  0
LINE
  5
F1055E
330
F1055F
100
AcDbEntity
8
Geo
100
AcDbLine
10
-31.4022549869904
20
16.9780393066871
30
0.000000000000000
11
-31.3022549869904
21
16.9417341571607
31
0.000000000000000
  0
LINE
  5
F10560
330
F10561
100
AcDbEntity
8
Geo
100
AcDbLine
10
-31.3022549869904
20
16.9417341571607
30
0.000000000000000
11
-31.2022549869904
21
16.9045387269630
31
0.000000000000000
  0
LINE
  5
F10562
330
F10563
100
AcDbEntity
8
Geo
100
AcDbLine
10
-31.2022549869904
20
16.9045387269630
30
0.000000000000000
11
-31.1022549869904
21
16.8664583606961
31
0.000000000000000
  0
LINE
  5
F10564
330
F10565
100
AcDbEntity
8
Geo
100
AcDbLine
10
-31.1022549869904
20
16.8664583606961
30
0.000000000000000
11
-31.0022549869904
21
16.8274985301181
31
0.000000000000000
  0
LINE
  5
F10566
330
F10567
100
AcDbEntity
8
Geo
100
AcDbLine
10
-31.0022549869904
20
16.8274985301181
30
0.000000000000000
11
-30.9022549869904
21
16.7876648333572
31
0.000000000000000
  0
LINE
  5
F10568
330
F10569
100
AcDbEntity
8
Geo
100
AcDbLine
10
-30.9022549869904
20
16.7876648333572
30
0.000000000000000
11
-30.8022549869904
21
16.7469629941073
31
0.000000000000000
  0
LINE
  5
F1056A
330
F1056B
100
AcDbEntity
8
Geo
100
AcDbLine
10
-30.8022549869904
20
16.7469629941073
30
0.000000000000000
11
-30.7022549869904
21
16.7053988608053
31
0.000000000000000
  0
LINE
  5
F1056C
330
F1056D
100
AcDbEntity
8
Geo
100
AcDbLine
10
-30.7022549869904
20
16.7053988608053
30
0.000000000000000
11
-30.6022549869904
21
16.6629784057911
31
0.000000000000000
  0
LINE
  5
F1056E
330
F1056F
100
AcDbEntity
8
Geo
100
AcDbLine
10
-30.6022549869904
20
16.6629784057911
30
0.000000000000000
11
-30.5022549869904
21
16.6197077244490
31
0.000000000000000
  0
LINE
  5
F10570
330
F10571
100
AcDbEntity
8
Geo
100
AcDbLine
10
-30.5022549869904
20
16.6197077244490
30
0.000000000000000
11
-30.4022549869904
21
16.5755930343323
31
0.000000000000000
  0
LINE
  5
F10572
330
F10573
100
AcDbEntity
8
Geo
100
AcDbLine
10
-30.4022549869904
20
16.5755930343323
30
0.000000000000000
11
-30.3022549869904
21
16.5306406742697
31
0.000000000000000
  0
LINE
  5
F10574
330
F10575
100
AcDbEntity
8
Geo
100
AcDbLine
10
-30.3022549869904
20
16.5306406742697
30
0.000000000000000
11
-30.2022549869904
21
16.4848571034545
31
0.000000000000000
  0
LINE
  5
F10576
330
F10577
100
AcDbEntity
8
Geo
100
AcDbLine
10
-30.2022549869904
20
16.4848571034545
30
0.000000000000000
11
-30.1022549869904
21
16.4382489005162
31
0.000000000000000
  0
LINE
  5
F10578
330
F10579
100
AcDbEntity
8
Geo
100
AcDbLine
10
-30.1022549869904
20
16.4382489005162
30
0.000000000000000
11
-30.0022549869904
21
16.3908227625759
31
0.000000000000000
  0
LINE
  5
F1057A
330
F1057B
100
AcDbEntity
8
Geo
100
AcDbLine
10
-30.0022549869904
20
16.3908227625759
30
0.000000000000000
11
-29.9022549869904
21
16.3425855042833
31
0.000000000000000
  0
LINE
  5
F1057C
330
F1057D
100
AcDbEntity
8
Geo
100
AcDbLine
10
-29.9022549869904
20
16.3425855042833
30
0.000000000000000
11
-29.8022549869904
21
16.2935440568378
31
0.000000000000000
  0
LINE
  5
F1057E
330
F1057F
100
AcDbEntity
8
Geo
100
AcDbLine
10
-29.8022549869904
20
16.2935440568378
30
0.000000000000000
11
-29.7022549869904
21
16.2437054669926
31
0.000000000000000
  0
LINE
  5
F10580
330
F10581
100
AcDbEntity
8
Geo
100
AcDbLine
10
-29.7022549869904
20
16.2437054669926
30
0.000000000000000
11
-29.6022549869904
21
16.1930768960420
31
0.000000000000000
  0
LINE
  5
F10582
330
F10583
100
AcDbEntity
8
Geo
100
AcDbLine
10
-29.6022549869904
20
16.1930768960420
30
0.000000000000000
11
-29.5022549869905
21
16.1416656187927
31
0.000000000000000
  0
LINE
  5
F10584
330
F10585
100
AcDbEntity
8
Geo
100
AcDbLine
10
-29.5022549869905
20
16.1416656187927
30
0.000000000000000
11
-29.4022549869904
21
16.0894790225180
31
0.000000000000000
  0
LINE
  5
F10586
330
F10587
100
AcDbEntity
8
Geo
100
AcDbLine
10
-29.4022549869904
20
16.0894790225180
30
0.000000000000000
11
-29.3022549869904
21
16.0365246058967
31
0.000000000000000
  0
LINE
  5
F10588
330
F10589
100
AcDbEntity
8
Geo
100
AcDbLine
10
-29.3022549869904
20
16.0365246058967
30
0.000000000000000
11
-29.2022549869905
21
15.9828099779356
31
0.000000000000000
  0
LINE
  5
F1058A
330
F1058B
100
AcDbEntity
8
Geo
100
AcDbLine
10
-29.2022549869905
20
15.9828099779356
30
0.000000000000000
11
-29.1022549869905
21
15.9283428568759
31
0.000000000000000
  0
LINE
  5
F1058C
330
F1058D
100
AcDbEntity
8
Geo
100
AcDbLine
10
-29.1022549869905
20
15.9283428568759
30
0.000000000000000
11
-29.0022549869905
21
15.8731310690845
31
0.000000000000000
  0
LINE
  5
F1058E
330
F1058F
100
AcDbEntity
8
Geo
100
AcDbLine
10
-29.0022549869905
20
15.8731310690845
30
0.000000000000000
11
-28.9022549869904
21
15.8171825479293
31
0.000000000000000
  0
LINE
  5
F10590
330
F10591
100
AcDbEntity
8
Geo
100
AcDbLine
10
-28.9022549869904
20
15.8171825479293
30
0.000000000000000
11
-28.8022549869905
21
15.7605053326390
31
0.000000000000000
  0
LINE
  5
F10592
330
F10593
100
AcDbEntity
8
Geo
100
AcDbLine
10
-28.8022549869905
20
15.7605053326390
30
0.000000000000000
11
-28.7022549869905
21
15.7031075671485
31
0.000000000000000
  0
LINE
  5
F10594
330
F10595
100
AcDbEntity
8
Geo
100
AcDbLine
10
-28.7022549869905
20
15.7031075671485
30
0.000000000000000
11
-28.6022549869905
21
15.6449974989280
31
0.000000000000000
  0
LINE
  5
F10596
330
F10597
100
AcDbEntity
8
Geo
100
AcDbLine
10
-28.6022549869905
20
15.6449974989280
30
0.000000000000000
11
-28.5022549869905
21
15.5861834777986
31
0.000000000000000
  0
LINE
  5
F10598
330
F10599
100
AcDbEntity
8
Geo
100
AcDbLine
10
-28.5022549869905
20
15.5861834777986
30
0.000000000000000
11
-28.4022549869905
21
15.5266739547321
31
0.000000000000000
  0
LINE
  5
F1059A
330
F1059B
100
AcDbEntity
8
Geo
100
AcDbLine
10
-28.4022549869905
20
15.5266739547321
30
0.000000000000000
11
-28.3022549869905
21
15.4664774806369
31
0.000000000000000
  0
LINE
  5
F1059C
330
F1059D
100
AcDbEntity
8
Geo
100
AcDbLine
10
-28.3022549869905
20
15.4664774806369
30
0.000000000000000
11
-28.2022549869905
21
15.4056027051290
31
0.000000000000000
  0
LINE
  5
F1059E
330
F1059F
100
AcDbEntity
8
Geo
100
AcDbLine
10
-28.2022549869905
20
15.4056027051290
30
0.000000000000000
11
-28.1022549869905
21
15.3440583752895
31
0.000000000000000
  0
LINE
  5
F105A0
330
F105A1
100
AcDbEntity
8
Geo
100
AcDbLine
10
-28.1022549869905
20
15.3440583752895
30
0.000000000000000
11
-28.0022549869905
21
15.2818533344077
31
0.000000000000000
  0
LINE
  5
F105A2
330
F105A3
100
AcDbEntity
8
Geo
100
AcDbLine
10
-28.0022549869905
20
15.2818533344077
30
0.000000000000000
11
-27.9022549869905
21
15.2189965207100
31
0.000000000000000
  0
LINE
  5
F105A4
330
F105A5
100
AcDbEntity
8
Geo
100
AcDbLine
10
-27.9022549869905
20
15.2189965207100
30
0.000000000000000
11
-27.8022549869905
21
15.1554969660763
31
0.000000000000000
  0
LINE
  5
F105A6
330
F105A7
100
AcDbEntity
8
Geo
100
AcDbLine
10
-27.8022549869905
20
15.1554969660763
30
0.000000000000000
11
-27.7022549869905
21
15.0913637947413
31
0.000000000000000
  0
LINE
  5
F105A8
330
F105A9
100
AcDbEntity
8
Geo
100
AcDbLine
10
-27.7022549869905
20
15.0913637947413
30
0.000000000000000
11
-27.6022549869905
21
15.0266062219842
31
0.000000000000000
  0
LINE
  5
F105AA
330
F105AB
100
AcDbEntity
8
Geo
100
AcDbLine
10
-27.6022549869905
20
15.0266062219842
30
0.000000000000000
11
-27.5022549869905
21
14.9612335528044
31
0.000000000000000
  0
LINE
  5
F105AC
330
F105AD
100
AcDbEntity
8
Geo
100
AcDbLine
10
-27.5022549869905
20
14.9612335528044
30
0.000000000000000
11
-27.4022549869905
21
14.8952551805841
31
0.000000000000000
  0
LINE
  5
F105AE
330
F105AF
100
AcDbEntity
8
Geo
100
AcDbLine
10
-27.4022549869905
20
14.8952551805841
30
0.000000000000000
11
-27.3022549869905
21
14.8286805857389
31
0.000000000000000
  0
LINE
  5
F105B0
330
F105B1
100
AcDbEntity
8
Geo
100
AcDbLine
10
-27.3022549869905
20
14.8286805857389
30
0.000000000000000
11
-27.2022549869905
21
14.7615193343554
31
0.000000000000000
  0
LINE
  5
F105B2
330
F105B3
100
AcDbEntity
8
Geo
100
AcDbLine
10
-27.2022549869905
20
14.7615193343554
30
0.000000000000000
11
-27.1022549869905
21
14.6937810768170
31
0.000000000000000
  0
LINE
  5
F105B4
330
F105B5
100
AcDbEntity
8
Geo
100
AcDbLine
10
-27.1022549869905
20
14.6937810768170
30
0.000000000000000
11
-27.0022549869905
21
14.6254755464167
31
0.000000000000000
  0
LINE
  5
F105B6
330
F105B7
100
AcDbEntity
8
Geo
100
AcDbLine
10
-27.0022549869905
20
14.6254755464167
30
0.000000000000000
11
-26.9022549869905
21
14.5566125579588
31
0.000000000000000
  0
LINE
  5
F105B8
330
F105B9
100
AcDbEntity
8
Geo
100
AcDbLine
10
-26.9022549869905
20
14.5566125579588
30
0.000000000000000
11
-26.8022549869905
21
14.4872020063488
31
0.000000000000000
  0
LINE
  5
F105BA
330
F105BB
100
AcDbEntity
8
Geo
100
AcDbLine
10
-26.8022549869905
20
14.4872020063488
30
0.000000000000000
11
-26.7022549869905
21
14.4172538651713
31
0.000000000000000
  0
LINE
  5
F105BC
330
F105BD
100
AcDbEntity
8
Geo
100
AcDbLine
10
-26.7022549869905
20
14.4172538651713
30
0.000000000000000
11
-26.6022549869905
21
14.3467781852569
31
0.000000000000000
  0
LINE
  5
F105BE
330
F105BF
100
AcDbEntity
8
Geo
100
AcDbLine
10
-26.6022549869905
20
14.3467781852569
30
0.000000000000000
11
-26.5022549869905
21
14.2757850932384
31
0.000000000000000
  0
LINE
  5
F105C0
330
F105C1
100
AcDbEntity
8
Geo
100
AcDbLine
10
-26.5022549869905
20
14.2757850932384
30
0.000000000000000
11
-26.4022549869905
21
14.2042847900950
31
0.000000000000000
  0
LINE
  5
F105C2
330
F105C3
100
AcDbEntity
8
Geo
100
AcDbLine
10
-26.4022549869905
20
14.2042847900950
30
0.000000000000000
11
-26.3022549869905
21
14.1322875496873
31
0.000000000000000
  0
LINE
  5
F105C4
330
F105C5
100
AcDbEntity
8
Geo
100
AcDbLine
10
-26.3022549869905
20
14.1322875496873
30
0.000000000000000
11
-26.2022549869905
21
14.0598037172805
31
0.000000000000000
  0
LINE
  5
F105C6
330
F105C7
100
AcDbEntity
8
Geo
100
AcDbLine
10
-26.2022549869905
20
14.0598037172805
30
0.000000000000000
11
-26.1022549869905
21
13.9868437080582
31
0.000000000000000
  0
LINE
  5
F105C8
330
F105C9
100
AcDbEntity
8
Geo
100
AcDbLine
10
-26.1022549869905
20
13.9868437080582
30
0.000000000000000
11
-26.0022549869905
21
13.9134180056256
31
0.000000000000000
  0
LINE
  5
F105CA
330
F105CB
100
AcDbEntity
8
Geo
100
AcDbLine
10
-26.0022549869905
20
13.9134180056256
30
0.000000000000000
11
-25.9022549869905
21
13.8395371605034
31
0.000000000000000
  0
LINE
  5
F105CC
330
F105CD
100
AcDbEntity
8
Geo
100
AcDbLine
10
-25.9022549869905
20
13.8395371605034
30
0.000000000000000
11
-25.8022549869905
21
13.7652117886114
31
0.000000000000000
  0
LINE
  5
F105CE
330
F105CF
100
AcDbEntity
8
Geo
100
AcDbLine
10
-25.8022549869905
20
13.7652117886114
30
0.000000000000000
11
-25.7022549869905
21
13.6904525697436
31
0.000000000000000
  0
LINE
  5
F105D0
330
F105D1
100
AcDbEntity
8
Geo
100
AcDbLine
10
-25.7022549869905
20
13.6904525697436
30
0.000000000000000
11
-25.6022549869905
21
13.6152702460332
31
0.000000000000000
  0
LINE
  5
F105D2
330
F105D3
100
AcDbEntity
8
Geo
100
AcDbLine
10
-25.6022549869905
20
13.6152702460332
30
0.000000000000000
11
-25.5022549869905
21
13.5396756204092
31
0.000000000000000
  0
LINE
  5
F105D4
330
F105D5
100
AcDbEntity
8
Geo
100
AcDbLine
10
-25.5022549869905
20
13.5396756204092
30
0.000000000000000
11
-25.4022549869905
21
13.4636795550444
31
0.000000000000000
  0
LINE
  5
F105D6
330
F105D7
100
AcDbEntity
8
Geo
100
AcDbLine
10
-25.4022549869905
20
13.4636795550444
30
0.000000000000000
11
-25.3022549869905
21
13.3872929697940
31
0.000000000000000
  0
LINE
  5
F105D8
330
F105D9
100
AcDbEntity
8
Geo
100
AcDbLine
10
-25.3022549869905
20
13.3872929697940
30
0.000000000000000
11
-25.2022549869905
21
13.3105268406273
31
0.000000000000000
  0
LINE
  5
F105DA
330
F105DB
100
AcDbEntity
8
Geo
100
AcDbLine
10
-25.2022549869905
20
13.3105268406273
30
0.000000000000000
11
-25.1022549869905
21
13.2333921980498
31
0.000000000000000
  0
LINE
  5
F105DC
330
F105DD
100
AcDbEntity
8
Geo
100
AcDbLine
10
-25.1022549869905
20
13.2333921980498
30
0.000000000000000
11
-25.0022549869905
21
13.1559001255189
31
0.000000000000000
  0
LINE
  5
F105DE
330
F105DF
100
AcDbEntity
8
Geo
100
AcDbLine
10
-25.0022549869905
20
13.1559001255189
30
0.000000000000000
11
-24.9022549869905
21
13.0780617578509
31
0.000000000000000
  0
LINE
  5
F105E0
330
F105E1
100
AcDbEntity
8
Geo
100
AcDbLine
10
-24.9022549869905
20
13.0780617578509
30
0.000000000000000
11
-24.8022549869905
21
12.9998882796210
31
0.000000000000000
  0
LINE
  5
F105E2
330
F105E3
100
AcDbEntity
8
Geo
100
AcDbLine
10
-24.8022549869905
20
12.9998882796210
30
0.000000000000000
11
-24.7022549869905
21
12.9213909235567
31
0.000000000000000
  0
LINE
  5
F105E4
330
F105E5
100
AcDbEntity
8
Geo
100
AcDbLine
10
-24.7022549869905
20
12.9213909235567
30
0.000000000000000
11
-24.6022549869905
21
12.8425809689231
31
0.000000000000000
  0
LINE
  5
F105E6
330
F105E7
100
AcDbEntity
8
Geo
100
AcDbLine
10
-24.6022549869905
20
12.8425809689231
30
0.000000000000000
11
-24.5022549869905
21
12.7634697399026
31
0.000000000000000
  0
LINE
  5
F105E8
330
F105E9
100
AcDbEntity
8
Geo
100
AcDbLine
10
-24.5022549869905
20
12.7634697399026
30
0.000000000000000
11
-24.4022549869905
21
12.6840686039679
31
0.000000000000000
  0
LINE
  5
F105EA
330
F105EB
100
AcDbEntity
8
Geo
100
AcDbLine
10
-24.4022549869905
20
12.6840686039679
30
0.000000000000000
11
-24.3022549869905
21
12.6043889702479
31
0.000000000000000
  0
LINE
  5
F105EC
330
F105ED
100
AcDbEntity
8
Geo
100
AcDbLine
10
-24.3022549869905
20
12.6043889702479
30
0.000000000000000
11
-24.2022549869905
21
12.5244422878891
31
0.000000000000000
  0
LINE
  5
F105EE
330
F105EF
100
AcDbEntity
8
Geo
100
AcDbLine
10
-24.2022549869905
20
12.5244422878891
30
0.000000000000000
11
-24.1022549869905
21
12.4442400444101
31
0.000000000000000
  0
LINE
  5
F105F0
330
F105F1
100
AcDbEntity
8
Geo
100
AcDbLine
10
-24.1022549869905
20
12.4442400444101
30
0.000000000000000
11
-24.0022549869905
21
12.3637937640509
31
0.000000000000000
  0
LINE
  5
F105F2
330
F105F3
100
AcDbEntity
8
Geo
100
AcDbLine
10
-24.0022549869905
20
12.3637937640509
30
0.000000000000000
11
-23.9022549869905
21
12.2831150061172
31
0.000000000000000
  0
LINE
  5
F105F4
330
F105F5
100
AcDbEntity
8
Geo
100
AcDbLine
10
-23.9022549869905
20
12.2831150061172
30
0.000000000000000
11
-23.8022549869905
21
12.2022153633193
31
0.000000000000000
  0
LINE
  5
F105F6
330
F105F7
100
AcDbEntity
8
Geo
100
AcDbLine
10
-23.8022549869905
20
12.2022153633193
30
0.000000000000000
11
-23.7022549869905
21
12.1211064601064
31
0.000000000000000
  0
LINE
  5
F105F8
330
F105F9
100
AcDbEntity
8
Geo
100
AcDbLine
10
-23.7022549869905
20
12.1211064601064
30
0.000000000000000
11
-23.6022549869905
21
12.0397999509963
31
0.000000000000000
  0
LINE
  5
F105FA
330
F105FB
100
AcDbEntity
8
Geo
100
AcDbLine
10
-23.6022549869905
20
12.0397999509963
30
0.000000000000000
11
-23.5022549869905
21
11.9583075189008
31
0.000000000000000
  0
LINE
  5
F105FC
330
F105FD
100
AcDbEntity
8
Geo
100
AcDbLine
10
-23.5022549869905
20
11.9583075189008
30
0.000000000000000
11
-23.4022549869905
21
11.8766408734467
31
0.000000000000000
  0
LINE
  5
F105FE
330
F105FF
100
AcDbEntity
8
Geo
100
AcDbLine
10
-23.4022549869905
20
11.8766408734467
30
0.000000000000000
11
-23.3022549869905
21
11.7948117492936
31
0.000000000000000
  0
LINE
  5
F10600
330
F10601
100
AcDbEntity
8
Geo
100
AcDbLine
10
-23.3022549869905
20
11.7948117492936
30
0.000000000000000
11
-23.2022549869905
21
11.7128319044478
31
0.000000000000000
  0
LINE
  5
F10602
330
F10603
100
AcDbEntity
8
Geo
100
AcDbLine
10
-23.2022549869905
20
11.7128319044478
30
0.000000000000000
11
-23.1022549869905
21
11.6307131185724
31
0.000000000000000
  0
LINE
  5
F10604
330
F10605
100
AcDbEntity
8
Geo
100
AcDbLine
10
-23.1022549869905
20
11.6307131185724
30
0.000000000000000
11
-23.0022549869905
21
11.5484671912949
31
0.000000000000000
  0
LINE
  5
F10606
330
F10607
100
AcDbEntity
8
Geo
100
AcDbLine
10
-23.0022549869905
20
11.5484671912949
30
0.000000000000000
11
-22.9022549869905
21
11.4661059405119
31
0.000000000000000
  0
LINE
  5
F10608
330
F10609
100
AcDbEntity
8
Geo
100
AcDbLine
10
-22.9022549869905
20
11.4661059405119
30
0.000000000000000
11
-22.8022549869905
21
11.3836412006906
31
0.000000000000000
  0
LINE
  5
F1060A
330
F1060B
100
AcDbEntity
8
Geo
100
AcDbLine
10
-22.8022549869905
20
11.3836412006906
30
0.000000000000000
11
-22.7022549869905
21
11.3010848211686
31
0.000000000000000
  0
LINE
  5
F1060C
330
F1060D
100
AcDbEntity
8
Geo
100
AcDbLine
10
-22.7022549869905
20
11.3010848211686
30
0.000000000000000
11
-22.6022549869905
21
11.2184486644512
31
0.000000000000000
  0
LINE
  5
F1060E
330
F1060F
100
AcDbEntity
8
Geo
100
AcDbLine
10
-22.6022549869905
20
11.2184486644512
30
0.000000000000000
11
-22.5022549869905
21
11.1357446045068
31
0.000000000000000
  0
LINE
  5
F10610
330
F10611
100
AcDbEntity
8
Geo
100
AcDbLine
10
-22.5022549869905
20
11.1357446045068
30
0.000000000000000
11
-22.4022549869905
21
11.0529845250609
31
0.000000000000000
  0
LINE
  5
F10612
330
F10613
100
AcDbEntity
8
Geo
100
AcDbLine
10
-22.4022549869905
20
11.0529845250609
30
0.000000000000000
11
-22.3022549869905
21
10.9701803178884
31
0.000000000000000
  0
LINE
  5
F10614
330
F10615
100
AcDbEntity
8
Geo
100
AcDbLine
10
-22.3022549869905
20
10.9701803178884
30
0.000000000000000
11
-22.2022549869905
21
10.8873438811048
31
0.000000000000000
  0
LINE
  5
F10616
330
F10617
100
AcDbEntity
8
Geo
100
AcDbLine
10
-22.2022549869905
20
10.8873438811048
30
0.000000000000000
11
-22.1022549869905
21
10.8044871174569
31
0.000000000000000
  0
LINE
  5
F10618
330
F10619
100
AcDbEntity
8
Geo
100
AcDbLine
10
-22.1022549869905
20
10.8044871174569
30
0.000000000000000
11
-22.0022549869905
21
10.7216219326119
31
0.000000000000000
  0
LINE
  5
F1061A
330
F1061B
100
AcDbEntity
8
Geo
100
AcDbLine
10
-22.0022549869905
20
10.7216219326119
30
0.000000000000000
11
-21.9022549869905
21
10.6387602334473
31
0.000000000000000
  0
LINE
  5
F1061C
330
F1061D
100
AcDbEntity
8
Geo
100
AcDbLine
10
-21.9022549869905
20
10.6387602334473
30
0.000000000000000
11
-21.8022549869905
21
10.5559139263397
31
0.000000000000000
  0
LINE
  5
F1061E
330
F1061F
100
AcDbEntity
8
Geo
100
AcDbLine
10
-21.8022549869905
20
10.5559139263397
30
0.000000000000000
11
-21.7022549869905
21
10.4730949154541
31
0.000000000000000
  0
LINE
  5
F10620
330
F10621
100
AcDbEntity
8
Geo
100
AcDbLine
10
-21.7022549869905
20
10.4730949154541
30
0.000000000000000
11
-21.6022549869905
21
10.3903151010331
31
0.000000000000000
  0
LINE
  5
F10622
330
F10623
100
AcDbEntity
8
Geo
100
AcDbLine
10
-21.6022549869905
20
10.3903151010331
30
0.000000000000000
11
-21.5022549869905
21
10.3075863776874
31
0.000000000000000
  0
LINE
  5
F10624
330
F10625
100
AcDbEntity
8
Geo
100
AcDbLine
10
-21.5022549869905
20
10.3075863776874
30
0.000000000000000
11
-21.4022549869905
21
10.2249206326861
31
0.000000000000000
  0
LINE
  5
F10626
330
F10627
100
AcDbEntity
8
Geo
100
AcDbLine
10
-21.4022549869905
20
10.2249206326861
30
0.000000000000000
11
-21.3022549869905
21
10.1423297442495
31
0.000000000000000
  0
LINE
  5
F10628
330
F10629
100
AcDbEntity
8
Geo
100
AcDbLine
10
-21.3022549869905
20
10.1423297442495
30
0.000000000000000
11
-21.2022549869905
21
10.0598255798412
31
0.000000000000000
  0
LINE
  5
F1062A
330
F1062B
100
AcDbEntity
8
Geo
100
AcDbLine
10
-21.2022549869905
20
10.0598255798412
30
0.000000000000000
11
-21.1022549869905
21
9.97741999446377
31
0.000000000000000
  0
LINE
  5
F1062C
330
F1062D
100
AcDbEntity
8
Geo
100
AcDbLine
10
-21.1022549869905
20
9.97741999446377
30
0.000000000000000
11
-21.0022549869905
21
9.89512482895499
31
0.000000000000000
  0
LINE
  5
F1062E
330
F1062F
100
AcDbEntity
8
Geo
100
AcDbLine
10
-21.0022549869905
20
9.89512482895499
30
0.000000000000000
11
-20.9022549869905
21
9.81295190828633
31
0.000000000000000
  0
LINE
  5
F10630
330
F10631
100
AcDbEntity
8
Geo
100
AcDbLine
10
-20.9022549869905
20
9.81295190828633
30
0.000000000000000
11
-20.8022549869905
21
9.73091303986397
31
0.000000000000000
  0
LINE
  5
F10632
330
F10633
100
AcDbEntity
8
Geo
100
AcDbLine
10
-20.8022549869905
20
9.73091303986397
30
0.000000000000000
11
-20.7022549869905
21
9.64902001183216
31
0.000000000000000
  0
LINE
  5
F10634
330
F10635
100
AcDbEntity
8
Geo
100
AcDbLine
10
-20.7022549869905
20
9.64902001183216
30
0.000000000000000
11
-20.6022549869905
21
9.56728459137936
31
0.000000000000000
  0
LINE
  5
F10636
330
F10637
100
AcDbEntity
8
Geo
100
AcDbLine
10
-20.6022549869905
20
9.56728459137936
30
0.000000000000000
11
-20.5022549869905
21
9.48571852304747
31
0.000000000000000
  0
LINE
  5
F10638
330
F10639
100
AcDbEntity
8
Geo
100
AcDbLine
10
-20.5022549869905
20
9.48571852304747
30
0.000000000000000
11
-20.4022549869905
21
9.40433352704419
31
0.000000000000000
  0
LINE
  5
F1063A
330
F1063B
100
AcDbEntity
8
Geo
100
AcDbLine
10
-20.4022549869905
20
9.40433352704419
30
0.000000000000000
11
-20.3022549869905
21
9.32314129755903
31
0.000000000000000
  0
LINE
  5
F1063C
330
F1063D
100
AcDbEntity
8
Geo
100
AcDbLine
10
-20.3022549869905
20
9.32314129755903
30
0.000000000000000
11
-20.2022549869905
21
9.24215350108287
31
0.000000000000000
  0
LINE
  5
F1063E
330
F1063F
100
AcDbEntity
8
Geo
100
AcDbLine
10
-20.2022549869905
20
9.24215350108287
30
0.000000000000000
11
-20.1022549869905
21
9.16138177473172
31
0.000000000000000
  0
LINE
  5
F10640
330
F10641
100
AcDbEntity
8
Geo
100
AcDbLine
10
-20.1022549869905
20
9.16138177473172
30
0.000000000000000
11
-20.0022549869905
21
9.08083772457448
31
0.000000000000000
  0
LINE
  5
F10642
330
F10643
100
AcDbEntity
8
Geo
100
AcDbLine
10
-20.0022549869905
20
9.08083772457448
30
0.000000000000000
11
-19.9022549869905
21
9.00053292396535
31
0.000000000000000
  0
LINE
  5
F10644
330
F10645
100
AcDbEntity
8
Geo
100
AcDbLine
10
-19.9022549869905
20
9.00053292396535
30
0.000000000000000
11
-19.8022549869905
21
8.92047891188080
31
0.000000000000000
  0
LINE
  5
F10646
330
F10647
100
AcDbEntity
8
Geo
100
AcDbLine
10
-19.8022549869905
20
8.92047891188080
30
0.000000000000000
11
-19.7022549869905
21
8.84068719126158
31
0.000000000000000
  0
LINE
  5
F10648
330
F10649
100
AcDbEntity
8
Geo
100
AcDbLine
10
-19.7022549869905
20
8.84068719126158
30
0.000000000000000
11
-19.6022549869905
21
8.76116922735983
31
0.000000000000000
  0
LINE
  5
F1064A
330
F1064B
100
AcDbEntity
8
Geo
100
AcDbLine
10
-19.6022549869905
20
8.76116922735983
30
0.000000000000000
11
-19.5022549869905
21
8.68193644609167
31
0.000000000000000
  0
LINE
  5
F1064C
330
F1064D
100
AcDbEntity
8
Geo
100
AcDbLine
10
-19.5022549869905
20
8.68193644609167
30
0.000000000000000
11
-19.4022549869905
21
8.60300023239537
31
0.000000000000000
  0
LINE
  5
F1064E
330
F1064F
100
AcDbEntity
8
Geo
100
AcDbLine
10
-19.4022549869905
20
8.60300023239537
30
0.000000000000000
11
-19.3022549869905
21
8.52437192859552
31
0.000000000000000
  0
LINE
  5
F10650
330
F10651
100
AcDbEntity
8
Geo
100
AcDbLine
10
-19.3022549869905
20
8.52437192859552
30
0.000000000000000
11
-19.2022549869905
21
8.44606283277320
31
0.000000000000000
  0
LINE
  5
F10652
330
F10653
100
AcDbEntity
8
Geo
100
AcDbLine
10
-19.2022549869905
20
8.44606283277320
30
0.000000000000000
11
-19.1022549869905
21
8.36808419714257
31
0.000000000000000
  0
LINE
  5
F10654
330
F10655
100
AcDbEntity
8
Geo
100
AcDbLine
10
-19.1022549869905
20
8.36808419714257
30
0.000000000000000
11
-19.0022549869905
21
8.29044722643404
31
0.000000000000000
  0
LINE
  5
F10656
330
F10657
100
AcDbEntity
8
Geo
100
AcDbLine
10
-19.0022549869905
20
8.29044722643404
30
0.000000000000000
11
-18.9022549869905
21
8.21316307628431
31
0.000000000000000
  0
LINE
  5
F10658
330
F10659
100
AcDbEntity
8
Geo
100
AcDbLine
10
-18.9022549869905
20
8.21316307628431
30
0.000000000000000
11
-18.8022549869905
21
8.13624285163333
31
0.000000000000000
  0
LINE
  5
F1065A
330
F1065B
100
AcDbEntity
8
Geo
100
AcDbLine
10
-18.8022549869905
20
8.13624285163333
30
0.000000000000000
11
-18.7022549869905
21
8.05969760512875
31
0.000000000000000
  0
LINE
  5
F1065C
330
F1065D
100
AcDbEntity
8
Geo
100
AcDbLine
10
-18.7022549869905
20
8.05969760512875
30
0.000000000000000
11
-18.6022549869905
21
7.98353833553764
31
0.000000000000000
  0
LINE
  5
F1065E
330
F1065F
100
AcDbEntity
8
Geo
100
AcDbLine
10
-18.6022549869905
20
7.98353833553764
30
0.000000000000000
11
-18.5022549869905
21
7.90777598616619
31
0.000000000000000
  0
LINE
  5
F10660
330
F10661
100
AcDbEntity
8
Geo
100
AcDbLine
10
-18.5022549869905
20
7.90777598616619
30
0.000000000000000
11
-18.4022549869905
21
7.83242144328722
31
0.000000000000000
  0
LINE
  5
F10662
330
F10663
100
AcDbEntity
8
Geo
100
AcDbLine
10
-18.4022549869905
20
7.83242144328722
30
0.000000000000000
11
-18.3022549869905
21
7.75748553457592
31
0.000000000000000
  0
LINE
  5
F10664
330
F10665
100
AcDbEntity
8
Geo
100
AcDbLine
10
-18.3022549869905
20
7.75748553457592
30
0.000000000000000
11
-18.2022549869905
21
7.68297902755404
31
0.000000000000000
  0
LINE
  5
F10666
330
F10667
100
AcDbEntity
8
Geo
100
AcDbLine
10
-18.2022549869905
20
7.68297902755404
30
0.000000000000000
11
-18.1022549869905
21
7.60891262804274
31
0.000000000000000
  0
LINE
  5
F10668
330
F10669
100
AcDbEntity
8
Geo
100
AcDbLine
10
-18.1022549869905
20
7.60891262804274
30
0.000000000000000
11
-18.0022549869905
21
7.53529697862422
31
0.000000000000000
  0
LINE
  5
F1066A
330
F1066B
100
AcDbEntity
8
Geo
100
AcDbLine
10
-18.0022549869905
20
7.53529697862422
30
0.000000000000000
11
-17.9022549869905
21
7.46214265711251
31
0.000000000000000
  0
LINE
  5
F1066C
330
F1066D
100
AcDbEntity
8
Geo
100
AcDbLine
10
-17.9022549869905
20
7.46214265711251
30
0.000000000000000
11
-17.8022549869905
21
7.38946017503356
31
0.000000000000000
  0
LINE
  5
F1066E
330
F1066F
100
AcDbEntity
8
Geo
100
AcDbLine
10
-17.8022549869905
20
7.38946017503356
30
0.000000000000000
11
-17.7022549869905
21
7.31725997611484
31
0.000000000000000
  0
LINE
  5
F10670
330
F10671
100
AcDbEntity
8
Geo
100
AcDbLine
10
-17.7022549869905
20
7.31725997611484
30
0.000000000000000
11
-17.6022549869905
21
7.24555243478464
31
0.000000000000000
  0
LINE
  5
F10672
330
F10673
100
AcDbEntity
8
Geo
100
AcDbLine
10
-17.6022549869905
20
7.24555243478464
30
0.000000000000000
11
-17.5022549869905
21
7.17434785468146
31
0.000000000000000
  0
LINE
  5
F10674
330
F10675
100
AcDbEntity
8
Geo
100
AcDbLine
10
-17.5022549869905
20
7.17434785468146
30
0.000000000000000
11
-17.4022549869905
21
7.10365646717337
31
0.000000000000000
  0
LINE
  5
F10676
330
F10677
100
AcDbEntity
8
Geo
100
AcDbLine
10
-17.4022549869905
20
7.10365646717337
30
0.000000000000000
11
-17.3022549869905
21
7.03348842988796
31
0.000000000000000
  0
LINE
  5
F10678
330
F10679
100
AcDbEntity
8
Geo
100
AcDbLine
10
-17.3022549869905
20
7.03348842988796
30
0.000000000000000
11
-17.2022549869905
21
6.96385382525277
31
0.000000000000000
  0
LINE
  5
F1067A
330
F1067B
100
AcDbEntity
8
Geo
100
AcDbLine
10
-17.2022549869905
20
6.96385382525277
30
0.000000000000000
11
-17.1022549869905
21
6.89476265904650
31
0.000000000000000
  0
LINE
  5
F1067C
330
F1067D
100
AcDbEntity
8
Geo
100
AcDbLine
10
-17.1022549869905
20
6.89476265904650
30
0.000000000000000
11
-17.0022549869905
21
6.82622485896135
31
0.000000000000000
  0
LINE
  5
F1067E
330
F1067F
100
AcDbEntity
8
Geo
100
AcDbLine
10
-17.0022549869905
20
6.82622485896135
30
0.000000000000000
11
-16.9022549869905
21
6.75825027317646
31
0.000000000000000
  0
LINE
  5
F10680
330
F10681
100
AcDbEntity
8
Geo
100
AcDbLine
10
-16.9022549869905
20
6.75825027317646
30
0.000000000000000
11
-16.8022549869905
21
6.69084866894288
31
0.000000000000000
  0
LINE
  5
F10682
330
F10683
100
AcDbEntity
8
Geo
100
AcDbLine
10
-16.8022549869905
20
6.69084866894288
30
0.000000000000000
11
-16.7022549869905
21
6.62402973118005
31
0.000000000000000
  0
LINE
  5
F10684
330
F10685
100
AcDbEntity
8
Geo
100
AcDbLine
10
-16.7022549869905
20
6.62402973118005
30
0.000000000000000
11
-16.6022549869905
21
6.55780306108424
31
0.000000000000000
  0
LINE
  5
F10686
330
F10687
100
AcDbEntity
8
Geo
100
AcDbLine
10
-16.6022549869905
20
6.55780306108424
30
0.000000000000000
11
-16.5022549869905
21
6.49217817474892
31
0.000000000000000
  0
LINE
  5
F10688
330
F10689
100
AcDbEntity
8
Geo
100
AcDbLine
10
-16.5022549869905
20
6.49217817474892
30
0.000000000000000
11
-16.4022549869905
21
6.42716450179739
31
0.000000000000000
  0
LINE
  5
F1068A
330
F1068B
100
AcDbEntity
8
Geo
100
AcDbLine
10
-16.4022549869905
20
6.42716450179739
30
0.000000000000000
11
-16.3022549869905
21
6.36277138402788
31
0.000000000000000
  0
LINE
  5
F1068C
330
F1068D
100
AcDbEntity
8
Geo
100
AcDbLine
10
-16.3022549869905
20
6.36277138402788
30
0.000000000000000
11
-16.2022549869905
21
6.29900807407118
31
0.000000000000000
  0
LINE
  5
F1068E
330
F1068F
100
AcDbEntity
8
Geo
100
AcDbLine
10
-16.2022549869905
20
6.29900807407118
30
0.000000000000000
11
-16.1022549869905
21
6.23588373406116
31
0.000000000000000
  0
LINE
  5
F10690
330
F10691
100
AcDbEntity
8
Geo
100
AcDbLine
10
-16.1022549869905
20
6.23588373406116
30
0.000000000000000
11
-16.0022549869905
21
6.17340743431828
31
0.000000000000000
  0
LINE
  5
F10692
330
F10693
100
AcDbEntity
8
Geo
100
AcDbLine
10
-16.0022549869905
20
6.17340743431828
30
0.000000000000000
11
-15.9022549869905
21
6.11158815204622
31
0.000000000000000
  0
LINE
  5
F10694
330
F10695
100
AcDbEntity
8
Geo
100
AcDbLine
10
-15.9022549869905
20
6.11158815204622
30
0.000000000000000
11
-15.8022549869905
21
6.05043477004202
31
0.000000000000000
  0
LINE
  5
F10696
330
F10697
100
AcDbEntity
8
Geo
100
AcDbLine
10
-15.8022549869905
20
6.05043477004202
30
0.000000000000000
11
-15.7022549869905
21
5.98995607541966
31
0.000000000000000
  0
LINE
  5
F10698
330
F10699
100
AcDbEntity
8
Geo
100
AcDbLine
10
-15.7022549869905
20
5.98995607541966
30
0.000000000000000
11
-15.6022549869905
21
5.93016075834747
31
0.000000000000000
  0
LINE
  5
F1069A
330
F1069B
100
AcDbEntity
8
Geo
100
AcDbLine
10
-15.6022549869905
20
5.93016075834747
30
0.000000000000000
11
-15.5022549869905
21
5.87105741079943
31
0.000000000000000
  0
LINE
  5
F1069C
330
F1069D
100
AcDbEntity
8
Geo
100
AcDbLine
10
-15.5022549869905
20
5.87105741079943
30
0.000000000000000
11
-15.4022549869904
21
5.81265452532060
31
0.000000000000000
  0
LINE
  5
F1069E
330
F1069F
100
AcDbEntity
8
Geo
100
AcDbLine
10
-15.4022549869904
20
5.81265452532060
30
0.000000000000000
11
-15.3022549869904
21
5.75496049380681
31
0.000000000000000
  0
LINE
  5
F106A0
330
F106A1
100
AcDbEntity
8
Geo
100
AcDbLine
10
-15.3022549869904
20
5.75496049380681
30
0.000000000000000
11
-15.2022549869904
21
5.69798360629884
31
0.000000000000000
  0
LINE
  5
F106A2
330
F106A3
100
AcDbEntity
8
Geo
100
AcDbLine
10
-15.2022549869904
20
5.69798360629884
30
0.000000000000000
11
-15.1022549869904
21
5.64173204979125
31
0.000000000000000
  0
LINE
  5
F106A4
330
F106A5
100
AcDbEntity
8
Geo
100
AcDbLine
10
-15.1022549869904
20
5.64173204979125
30
0.000000000000000
11
-15.0022549869904
21
5.58621390705597
31
0.000000000000000
  0
LINE
  5
F106A6
330
F106A7
100
AcDbEntity
8
Geo
100
AcDbLine
10
-15.0022549869904
20
5.58621390705597
30
0.000000000000000
11
-14.9022549869904
21
5.53143715548087
31
0.000000000000000
  0
LINE
  5
F106A8
330
F106A9
100
AcDbEntity
8
Geo
100
AcDbLine
10
-14.9022549869904
20
5.53143715548087
30
0.000000000000000
11
-14.8022549869904
21
5.47740966592352
31
0.000000000000000
  0
LINE
  5
F106AA
330
F106AB
100
AcDbEntity
8
Geo
100
AcDbLine
10
-14.8022549869904
20
5.47740966592352
30
0.000000000000000
11
-14.7022549869904
21
5.42413920158023
31
0.000000000000000
  0
LINE
  5
F106AC
330
F106AD
100
AcDbEntity
8
Geo
100
AcDbLine
10
-14.7022549869904
20
5.42413920158023
30
0.000000000000000
11
-14.6022549869904
21
5.37163341687054
31
0.000000000000000
  0
LINE
  5
F106AE
330
F106AF
100
AcDbEntity
8
Geo
100
AcDbLine
10
-14.6022549869904
20
5.37163341687054
30
0.000000000000000
11
-14.5022549869904
21
5.31989985633736
31
0.000000000000000
  0
LINE
  5
F106B0
330
F106B1
100
AcDbEntity
8
Geo
100
AcDbLine
10
-14.5022549869904
20
5.31989985633736
30
0.000000000000000
11
-14.4022549869904
21
5.26894595356294
31
0.000000000000000
  0
LINE
  5
F106B2
330
F106B3
100
AcDbEntity
8
Geo
100
AcDbLine
10
-14.4022549869904
20
5.26894595356294
30
0.000000000000000
11
-14.3022549869904
21
5.21877903010065
31
0.000000000000000
  0
LINE
  5
F106B4
330
F106B5
100
AcDbEntity
8
Geo
100
AcDbLine
10
-14.3022549869904
20
5.21877903010065
30
0.000000000000000
11
-14.2022549869904
21
5.16940629442303
31
0.000000000000000
  0
LINE
  5
F106B6
330
F106B7
100
AcDbEntity
8
Geo
100
AcDbLine
10
-14.2022549869904
20
5.16940629442303
30
0.000000000000000
11
-14.1022549869904
21
5.12083484088599
31
0.000000000000000
  0
LINE
  5
F106B8
330
F106B9
100
AcDbEntity
8
Geo
100
AcDbLine
10
-14.1022549869904
20
5.12083484088599
30
0.000000000000000
11
-14.0022549869904
21
5.07307164870939
31
0.000000000000000
  0
LINE
  5
F106BA
330
F106BB
100
AcDbEntity
8
Geo
100
AcDbLine
10
-14.0022549869904
20
5.07307164870939
30
0.000000000000000
11
-13.9022549869904
21
5.02612358097424
31
0.000000000000000
  0
LINE
  5
F106BC
330
F106BD
100
AcDbEntity
8
Geo
100
AcDbLine
10
-13.9022549869904
20
5.02612358097424
30
0.000000000000000
11
-13.8022549869904
21
4.97999738363649
31
0.000000000000000
  0
LINE
  5
F106BE
330
F106BF
100
AcDbEntity
8
Geo
100
AcDbLine
10
-13.8022549869904
20
4.97999738363649
30
0.000000000000000
11
-13.7022549869904
21
4.93469968455779
31
0.000000000000000
  0
LINE
  5
F106C0
330
F106C1
100
AcDbEntity
8
Geo
100
AcDbLine
10
-13.7022549869904
20
4.93469968455779
30
0.000000000000000
11
-13.6022549869904
21
4.89023699255304
31
0.000000000000000
  0
LINE
  5
F106C2
330
F106C3
100
AcDbEntity
8
Geo
100
AcDbLine
10
-13.6022549869904
20
4.89023699255304
30
0.000000000000000
11
-13.5022549869904
21
4.84661569645520
31
0.000000000000000
  0
LINE
  5
F106C4
330
F106C5
100
AcDbEntity
8
Geo
100
AcDbLine
10
-13.5022549869904
20
4.84661569645520
30
0.000000000000000
11
-13.4022549869904
21
4.80384206419729
31
0.000000000000000
  0
LINE
  5
F106C6
330
F106C7
100
AcDbEntity
8
Geo
100
AcDbLine
10
-13.4022549869904
20
4.80384206419729
30
0.000000000000000
11
-13.3022549869904
21
4.76192224191169
31
0.000000000000000
  0
LINE
  5
F106C8
330
F106C9
100
AcDbEntity
8
Geo
100
AcDbLine
10
-13.3022549869904
20
4.76192224191169
30
0.000000000000000
11
-13.2022549869904
21
4.72086225304706
31
0.000000000000000
  0
LINE
  5
F106CA
330
F106CB
100
AcDbEntity
8
Geo
100
AcDbLine
10
-13.2022549869904
20
4.72086225304706
30
0.000000000000000
11
-13.1022549869904
21
4.68066799750282
31
0.000000000000000
  0
LINE
  5
F106CC
330
F106CD
100
AcDbEntity
8
Geo
100
AcDbLine
10
-13.1022549869904
20
4.68066799750282
30
0.000000000000000
11
-13.0022549869904
21
4.64134525078136
31
0.000000000000000
  0
LINE
  5
F106CE
330
F106CF
100
AcDbEntity
8
Geo
100
AcDbLine
10
-13.0022549869904
20
4.64134525078136
30
0.000000000000000
11
-12.9022549869904
21
4.60289966315822
31
0.000000000000000
  0
LINE
  5
F106D0
330
F106D1
100
AcDbEntity
8
Geo
100
AcDbLine
10
-12.9022549869904
20
4.60289966315822
30
0.000000000000000
11
-12.8022549869904
21
4.56533675887015
31
0.000000000000000
  0
LINE
  5
F106D2
330
F106D3
100
AcDbEntity
8
Geo
100
AcDbLine
10
-12.8022549869904
20
4.56533675887015
30
0.000000000000000
11
-12.7022549869904
21
4.52866193532137
31
0.000000000000000
  0
LINE
  5
F106D4
330
F106D5
100
AcDbEntity
8
Geo
100
AcDbLine
10
-12.7022549869904
20
4.52866193532137
30
0.000000000000000
11
-12.6022549869904
21
4.49288046230799
31
0.000000000000000
  0
LINE
  5
F106D6
330
F106D7
100
AcDbEntity
8
Geo
100
AcDbLine
10
-12.6022549869904
20
4.49288046230799
30
0.000000000000000
11
-12.5022549869904
21
4.45799748126081
31
0.000000000000000
  0
LINE
  5
F106D8
330
F106D9
100
AcDbEntity
8
Geo
100
AcDbLine
10
-12.5022549869904
20
4.45799748126081
30
0.000000000000000
11
-12.4022549869904
21
4.42401800450657
31
0.000000000000000
  0
LINE
  5
F106DA
330
F106DB
100
AcDbEntity
8
Geo
100
AcDbLine
10
-12.4022549869904
20
4.42401800450657
30
0.000000000000000
11
-12.3022549869904
21
4.39094691454766
31
0.000000000000000
  0
LINE
  5
F106DC
330
F106DD
100
AcDbEntity
8
Geo
100
AcDbLine
10
-12.3022549869904
20
4.39094691454766
30
0.000000000000000
11
-12.2022549869904
21
4.35878896336064
31
0.000000000000000
  0
LINE
  5
F106DE
330
F106DF
100
AcDbEntity
8
Geo
100
AcDbLine
10
-12.2022549869904
20
4.35878896336064
30
0.000000000000000
11
-12.1022549869904
21
4.32754877171339
31
0.000000000000000
  0
LINE
  5
F106E0
330
F106E1
100
AcDbEntity
8
Geo
100
AcDbLine
10
-12.1022549869904
20
4.32754877171339
30
0.000000000000000
11
-12.0022549869904
21
4.29723082850112
31
0.000000000000000
  0
LINE
  5
F106E2
330
F106E3
100
AcDbEntity
8
Geo
100
AcDbLine
10
-12.0022549869904
20
4.29723082850112
30
0.000000000000000
11
-11.9022549869904
21
4.26783949010143
31
0.000000000000000
  0
LINE
  5
F106E4
330
F106E5
100
AcDbEntity
8
Geo
100
AcDbLine
10
-11.9022549869904
20
4.26783949010143
30
0.000000000000000
11
-11.8022549869904
21
4.23937897974831
31
0.000000000000000
  0
LINE
  5
F106E6
330
F106E7
100
AcDbEntity
8
Geo
100
AcDbLine
10
-11.8022549869904
20
4.23937897974831
30
0.000000000000000
11
-11.7022549869904
21
4.21185338692527
31
0.000000000000000
  0
LINE
  5
F106E8
330
F106E9
100
AcDbEntity
8
Geo
100
AcDbLine
10
-11.7022549869904
20
4.21185338692527
30
0.000000000000000
11
-11.6022549869904
21
4.18526666677779
31
0.000000000000000
  0
LINE
  5
F106EA
330
F106EB
100
AcDbEntity
8
Geo
100
AcDbLine
10
-11.6022549869904
20
4.18526666677779
30
0.000000000000000
11
-11.5022549869904
21
4.15962263954495
31
0.000000000000000
  0
LINE
  5
F106EC
330
F106ED
100
AcDbEntity
8
Geo
100
AcDbLine
10
-11.5022549869904
20
4.15962263954495
30
0.000000000000000
11
-11.4022549869904
21
4.13492499001055
31
0.000000000000000
  0
LINE
  5
F106EE
330
F106EF
100
AcDbEntity
8
Geo
100
AcDbLine
10
-11.4022549869904
20
4.13492499001055
30
0.000000000000000
11
-11.3022549869904
21
4.11117726697360
31
0.000000000000000
  0
LINE
  5
F106F0
330
F106F1
100
AcDbEntity
8
Geo
100
AcDbLine
10
-11.3022549869904
20
4.11117726697360
30
0.000000000000000
11
-11.2022549869904
21
4.08838288273839
31
0.000000000000000
  0
LINE
  5
F106F2
330
F106F3
100
AcDbEntity
8
Geo
100
AcDbLine
10
-11.2022549869904
20
4.08838288273839
30
0.000000000000000
11
-11.1022549869904
21
4.06654511262426
31
0.000000000000000
  0
LINE
  5
F106F4
330
F106F5
100
AcDbEntity
8
Geo
100
AcDbLine
10
-11.1022549869904
20
4.06654511262426
30
0.000000000000000
11
-11.0022549869904
21
4.04566709449484
31
0.000000000000000
  0
LINE
  5
F106F6
330
F106F7
100
AcDbEntity
8
Geo
100
AcDbLine
10
-11.0022549869904
20
4.04566709449484
30
0.000000000000000
11
-10.9022549869904
21
4.02575182830730
31
0.000000000000000
  0
LINE
  5
F106F8
330
F106F9
100
AcDbEntity
8
Geo
100
AcDbLine
10
-10.9022549869904
20
4.02575182830730
30
0.000000000000000
11
-10.8022549869904
21
4.00680217568117
31
0.000000000000000
  0
LINE
  5
F106FA
330
F106FB
100
AcDbEntity
8
Geo
100
AcDbLine
10
-10.8022549869904
20
4.00680217568117
30
0.000000000000000
11
-10.7022549869904
21
3.98882085948726
31
0.000000000000000
  0
LINE
  5
F106FC
330
F106FD
100
AcDbEntity
8
Geo
100
AcDbLine
10
-10.7022549869904
20
3.98882085948726
30
0.000000000000000
11
-10.6022549869904
21
3.97181046345634
31
0.000000000000000
  0
LINE
  5
F106FE
330
F106FF
100
AcDbEntity
8
Geo
100
AcDbLine
10
-10.6022549869904
20
3.97181046345634
30
0.000000000000000
11
-10.5022549869904
21
3.95577343180792
31
0.000000000000000
  0
LINE
  5
F10700
330
F10701
100
AcDbEntity
8
Geo
100
AcDbLine
10
-10.5022549869904
20
3.95577343180792
30
0.000000000000000
11
-10.4022549869904
21
3.94071206889900
31
0.000000000000000
  0
LINE
  5
F10702
330
F10703
100
AcDbEntity
8
Geo
100
AcDbLine
10
-10.4022549869904
20
3.94071206889900
30
0.000000000000000
11
-10.3022549869904
21
3.92662853889302
31
0.000000000000000
  0
LINE
  5
F10704
330
F10705
100
AcDbEntity
8
Geo
100
AcDbLine
10
-10.3022549869904
20
3.92662853889302
30
0.000000000000000
11
-10.2022549869904
21
3.91352486544883
31
0.000000000000000
  0
LINE
  5
F10706
330
F10707
100
AcDbEntity
8
Geo
100
AcDbLine
10
-10.2022549869904
20
3.91352486544883
30
0.000000000000000
11
-10.1022549869904
21
3.90140293142997
31
0.000000000000000
  0
LINE
  5
F10708
330
F10709
100
AcDbEntity
8
Geo
100
AcDbLine
10
-10.1022549869904
20
3.90140293142997
30
0.000000000000000
11
-10.0022549869904
21
3.89026447863406
31
0.000000000000000
  0
LINE
  5
F1070A
330
F1070B
100
AcDbEntity
8
Geo
100
AcDbLine
10
-10.0022549869904
20
3.89026447863406
30
0.000000000000000
11
-9.90225498699037
21
3.88011110754257
31
0.000000000000000
  0
LINE
  5
F1070C
330
F1070D
100
AcDbEntity
8
Geo
100
AcDbLine
10
-9.90225498699037
20
3.88011110754257
30
0.000000000000000
11
-9.80225498699037
21
3.87094427709081
31
0.000000000000000
  0
LINE
  5
F1070E
330
F1070F
100
AcDbEntity
8
Geo
100
AcDbLine
10
-9.80225498699037
20
3.87094427709081
30
0.000000000000000
11
-9.70225498699037
21
3.86276530445835
31
0.000000000000000
  0
LINE
  5
F10710
330
F10711
100
AcDbEntity
8
Geo
100
AcDbLine
10
-9.70225498699037
20
3.86276530445835
30
0.000000000000000
11
-9.60225498699037
21
3.85557536487967
31
0.000000000000000
  0
LINE
  5
F10712
330
F10713
100
AcDbEntity
8
Geo
100
AcDbLine
10
-9.60225498699037
20
3.85557536487967
30
0.000000000000000
11
-9.50225498699037
21
3.84937549147539
31
0.000000000000000
  0
LINE
  5
F10714
330
F10715
100
AcDbEntity
8
Geo
100
AcDbLine
10
-9.50225498699037
20
3.84937549147539
30
0.000000000000000
11
-9.40225498699036
21
3.84416657510375
31
0.000000000000000
  0
LINE
  5
F10716
330
F10717
100
AcDbEntity
8
Geo
100
AcDbLine
10
48.6977450130096
20
16.7458803122289
30
0.000000000000000
11
48.6977450130096
21
10.7458803122289
31
0.000000000000000
  0
LINE
  5
F10718
330
F10719
100
AcDbEntity
8
Geo
100
AcDbLine
10
-34.3022549869904
20
10.7458803122289
30
0.000000000000000
11
-34.3022549869904
21
3.74588031222895
31
0.000000000000000
  0
LINE
  5
F1071A
330
F1071B
100
AcDbEntity
8
Geo
100
AcDbLine
10
-34.3022549869904
20
3.74588031222895
30
0.000000000000000
11
-4.30225498699045
21
3.74588031222895
31
0.000000000000000
  0
LINE
  5
F1071C
330
F1071D
100
AcDbEntity
8
Geo
100
AcDbLine
10
-4.30225498699045
20
3.74588031222895
30
0.000000000000000
11
-4.30225498699045
21
4.04588031222895
31
0.000000000000000
  0
LINE
  5
F1071E
330
F1071F
100
AcDbEntity
8
Geo
100
AcDbLine
10
-4.30225498699045
20
4.04588031222895
30
0.000000000000000
11
3.69774501300955
21
4.04588031222895
31
0.000000000000000
  0
LINE
  5
F10720
330
F10721
100
AcDbEntity
8
Geo
100
AcDbLine
10
3.69774501300955
20
4.04588031222895
30
0.000000000000000
11
3.69774501300955
21
3.74588031222895
31
0.000000000000000
  0
LINE
  5
F10722
330
F10723
100
AcDbEntity
8
Geo
100
AcDbLine
10
3.69774501300955
20
3.74588031222895
30
0.000000000000000
11
47.6977450130096
21
3.74588031222895
31
0.000000000000000
  0
LINE
  5
F10724
330
F10725
100
AcDbEntity
8
Geo
100
AcDbLine
10
47.6977450130096
20
3.74588031222895
30
0.000000000000000
11
48.6977450130096
21
4.74588031222895
31
0.000000000000000
  0
LINE
  5
F10726
330
F10727
100
AcDbEntity
8
Geo
100
AcDbLine
10
-34.3022549869904
20
17.7458803122289
30
0.000000000000000
11
-34.3022549869904
21
3.74588031222895
31
0.000000000000000
  0
LINE
  5
F10728
330
F10729
100
AcDbEntity
8
Geo
100
AcDbLine
10
-4.30225498699045
20
17.7458803122289
30
0.000000000000000
11
-4.30225498699045
21
3.74588031222895
31
0.000000000000000
  0
LINE
  5
F1072A
330
F1072B
100
AcDbEntity
8
Geo
100
AcDbLine
10
-4.30225498699045
20
17.4458803122289
30
0.000000000000000
11
-4.30225498699045
21
4.04588031222895
31
0.000000000000000
  0
LINE
  5
F1072C
330
F1072D
100
AcDbEntity
8
Geo
100
AcDbLine
10
3.69774501300955
20
17.4458803122289
30
0.000000000000000
11
3.69774501300955
21
4.04588031222895
31
0.000000000000000
  0
LINE
  5
F1072E
330
F1072F
100
AcDbEntity
8
Geo
100
AcDbLine
10
3.69774501300955
20
17.4458803122289
30
0.000000000000000
11
3.69774501300955
21
4.04588031222895
31
0.000000000000000
  0
LINE
  5
F10730
330
F10731
100
AcDbEntity
8
Geo
100
AcDbLine
10
47.6977450130096
20
17.7458803122289
30
0.000000000000000
11
47.6977450130096
21
3.74588031222895
31
0.000000000000000
  0
LINE
  5
F10732
330
F10733
100
AcDbEntity
8
Geo
100
AcDbLine
10
48.6977450130096
20
16.7458803122289
30
0.000000000000000
11
48.6977450130096
21
4.74588031222895
31
0.000000000000000
  0
LINE
  5
F10734
330
F10735
100
AcDbEntity
8
Geo
 6
Dashdot
100
AcDbLine
10
-34.3022549869904
20
10.7458803122289
30
0.000000000000000
11
48.6977450130096
21
10.7458803122289
31
0.000000000000000
  0
LWPOLYLINE
  5
F10736
330
F10737
100
AcDbEntity
8
Rahmen
100
AcDbPolyline
90
   4
70
   1
43
   0.0
 10
-134.596704249783
 20
99.9002601908066
 10
143.339115351258
 20
99.9002601908066
 10
143.339115351258
 20
-100.082393755421
 10
-134.596704249783
 20
-100.082393755421
  0
TEXT
  5
F10738
330
F10739
 100
AcDbEntity
8
Text
100
AcDbText
10
-133.503902862099
20
-99.5823937554206
30
0.000000000000000
40
1.00000000000000
1
ISBESketcher - ©ISBE GmbH      lizensiert für: Schmid Werkzeuge
100
AcDbText
  0
LWPOLYLINE
  5
F1073A
330
F1073B
100
AcDbEntity
8
Rahmen
100
AcDbPolyline
90
   4
70
   1
43
   0.0
 10
103.451864700781
 20
-97.1682567215958
 10
143.339115351258
 20
-97.1682567215958
 10
143.339115351258
 20
-100.082393755421
 10
103.451864700781
 20
-100.082393755421
  0
TEXT
  5
F1073C
330
F1073D
 100
AcDbEntity
8
Text
100
AcDbText
10
104.500000000000
20
-99.4570685169124
30
0.000000000000000
40
1.50000000000000
1
Ers. durch:
100
AcDbText
  0
TEXT
  5
F1073E
330
F1073F
 100
AcDbEntity
8
Text
100
AcDbText
10
0.000000000000000
20
0.500000000000000
30
0.000000000000000
40
1.50000000000000
1

100
AcDbText
  0
LWPOLYLINE
  5
F10740
330
F10741
100
AcDbEntity
8
Rahmen
100
AcDbPolyline
90
   4
70
   1
43
   0.0
 10
63.3824804856895
 20
-97.1682567215958
 10
103.451864700781
 20
-97.1682567215958
 10
103.451864700781
 20
-100.082393755421
 10
63.3824804856895
 20
-100.082393755421
  0
TEXT
  5
F10742
330
F10743
 100
AcDbEntity
8
Text
100
AcDbText
10
64.5000000000000
20
-99.4570685169124
30
0.000000000000000
40
1.50000000000000
1
Ers. für:
100
AcDbText
  0
TEXT
  5
F10744
330
F10745
 100
AcDbEntity
8
Text
100
AcDbText
10
0.000000000000000
20
0.500000000000000
30
0.000000000000000
40
1.50000000000000
1

100
AcDbText
  0
LWPOLYLINE
  5
F10746
330
F10747
100
AcDbEntity
8
Rahmen
100
AcDbPolyline
90
   4
70
   1
43
   0.0
 10
130.043365134432
 20
-94.0719861231570
 10
143.339115351258
 20
-94.0719861231570
 10
143.339115351258
 20
-97.1682567215958
 10
130.043365134432
 20
-97.1682567215958
  0
TEXT
  5
F10748
330
F10749
 100
AcDbEntity
8
Text
100
AcDbText
10
131.166666666667
20
-96.4570685169124
30
0.000000000000000
40
1.50000000000000
1
Blätter
100
AcDbText
  0
TEXT
  5
F1074A
330
F1074B
 100
AcDbEntity
8
Text
100
AcDbText
10
0.000000000000000
20
0.500000000000000
30
0.000000000000000
40
1.50000000000000
1

100
AcDbText
  0
LWPOLYLINE
  5
F1074C
330
F1074D
100
AcDbEntity
8
Rahmen
100
AcDbPolyline
90
   4
70
   1
43
   0.0
 10
130.043365134432
 20
-91.1578490893322
 10
143.339115351258
 20
-91.1578490893322
 10
143.339115351258
 20
-94.0719861231570
 10
130.043365134432
 20
-94.0719861231570
  0
TEXT
  5
F1074E
330
F1074F
 100
AcDbEntity
8
Text
100
AcDbText
10
131.166666666667
20
-93.4570685169124
30
0.000000000000000
40
1.50000000000000
1
Blatt
100
AcDbText
  0
TEXT
  5
F10750
330
F10751
 100
AcDbEntity
8
Text
100
AcDbText
10
0.000000000000000
20
0.500000000000000
30
0.000000000000000
40
1.50000000000000
1

100
AcDbText
  0
LWPOLYLINE
  5
F10752
330
F10753
100
AcDbEntity
8
Rahmen
100
AcDbPolyline
90
   4
70
   1
43
   0.0
 10
63.3824804856895
 20
-91.1578490893322
 10
130.043365134432
 20
-91.1578490893322
 10
130.043365134432
 20
-97.1682567215958
 10
63.3824804856895
 20
-97.1682567215958
  0
TEXT
  5
F10754
330
F10755
 100
AcDbEntity
8
Text
100
AcDbText
10
64.5000000000000
20
-93.4570685169124
30
0.000000000000000
40
1.50000000000000
1
Datum:
100
AcDbText
  0
TEXT
  5
F10756
330
F10757
 100
AcDbEntity
8
Text
100
AcDbText
10
90.9139924833767
20
-96.4570685169124
30
0.000000000000000
40
1.50000000000000
1
29.09.2021
100
AcDbText
  0
LWPOLYLINE
  5
F10758
330
F10759
100
AcDbEntity
8
Rahmen
100
AcDbPolyline
90
   4
70
   1
43
   0.0
 10
63.3824804856895
 20
-85.1474414570685
 10
143.339115351258
 20
-85.1474414570685
 10
143.339115351258
 20
-91.1578490893322
 10
63.3824804856895
 20
-91.1578490893322
  0
TEXT
  5
F1075A
330
F1075B
 100
AcDbEntity
8
Text
100
AcDbText
10
0.000000000000000
20
0.500000000000000
30
0.000000000000000
40
1.50000000000000
1

100
AcDbText
  0
TEXT
  5
F1075C
330
F1075D
 100
AcDbEntity
8
Text
100
AcDbText
10
71.8087597571552
20
-89.6254697889564
30
0.000000000000000
40
2.50000000000000
1
VHM-Langlochfräser 0126-140-b
100
AcDbText
  0
LWPOLYLINE
  5
F1075E
330
F1075F
100
AcDbEntity
8
Rahmen
100
AcDbPolyline
90
   4
70
   1
43
   0.0
 10
103.451864700781
 20
-79.1370338248049
 10
143.339115351258
 20
-79.1370338248049
 10
143.339115351258
 20
-85.1474414570685
 10
103.451864700781
 20
-85.1474414570685
  0
TEXT
  5
F10760
330
F10761
 100
AcDbEntity
8
Text
100
AcDbText
10
104.500000000000
20
-81.4570685169124
30
0.000000000000000
40
1.50000000000000
1
Zu bearb. Material:
100
AcDbText
  0
TEXT
  5
F10762
330
F10763
 100
AcDbEntity
8
Text
100
AcDbText
10
0.000000000000000
20
0.500000000000000
30
0.000000000000000
40
1.50000000000000
1

100
AcDbText
  0
LWPOLYLINE
  5
F10764
330
F10765
100
AcDbEntity
8
Rahmen
100
AcDbPolyline
90
   4
70
   1
43
   0.0
 10
63.3824804856895
 20
-79.1370338248049
 10
103.451864700781
 20
-79.1370338248049
 10
103.451864700781
 20
-85.1474414570685
 10
63.3824804856895
 20
-85.1474414570685
  0
TEXT
  5
F10766
330
F10767
 100
AcDbEntity
8
Text
100
AcDbText
10
64.5000000000000
20
-81.4570685169124
30
0.000000000000000
40
1.50000000000000
1
Werkstoff:
100
AcDbText
  0
TEXT
  5
F10768
330
F10769
 100
AcDbEntity
8
Text
100
AcDbText
10
80.7679965307892
20
-84.4570685169124
30
0.000000000000000
40
1.50000000000000
1
VHM
100
AcDbText
  0
LWPOLYLINE
  5
F1076A
330
F1076B
100
AcDbEntity
8
Rahmen
100
AcDbPolyline
90
   4
70
   1
43
   0.0
 10
103.451864700781
 20
-76.0407632263660
 10
143.339115351258
 20
-76.0407632263660
 10
143.339115351258
 20
-79.1370338248049
 10
103.451864700781
 20
-79.1370338248049
  0
TEXT
  5
F1076C
330
F1076D
 100
AcDbEntity
8
Text
100
AcDbText
10
0.000000000000000
20
0.500000000000000
30
0.000000000000000
40
1.50000000000000
1

100
AcDbText
  0
TEXT
  5
F1076E
330
F1076F
 100
AcDbEntity
8
Text
100
AcDbText
10
0.000000000000000
20
0.500000000000000
30
0.000000000000000
40
1.50000000000000
1

100
AcDbText
  0
LWPOLYLINE
  5
F10770
330
F10771
100
AcDbEntity
8
Rahmen
100
AcDbPolyline
90
   4
70
   1
43
   0.0
 10
63.3824804856895
 20
-76.0407632263660
 10
103.451864700781
 20
-76.0407632263660
 10
103.451864700781
 20
-79.1370338248049
 10
63.3824804856895
 20
-79.1370338248049
  0
TEXT
  5
F10772
330
F10773
 100
AcDbEntity
8
Text
100
AcDbText
10
64.5000000000000
20
-78.4570685169124
30
0.000000000000000
40
1.50000000000000
1
Maßstab:
100
AcDbText
  0
TEXT
  5
F10774
330
F10775
 100
AcDbEntity
8
Text
100
AcDbText
10
89.0411968777103
20
-78.4570685169124
30
0.000000000000000
40
1.50000000000000
1
1 : 1
100
AcDbText
0
VIEWPORT
5
294
102
{ACAD_XDICTIONARY
360
58A
102
}
330
25D
100
AcDbEntity
67
1
8
0
60
1
100
AcDbViewport
10
0.0
20
0.0
30
0.0
40
10.0
41
10.0
68
-1
69
1
12
0.0
22
0.0
13
0.0
23
0.0
14
1.0
24
1.0
15
0.0
25
0.0
16
0.0
26
0.0
36
1.0
17
0.0
27
0.0
37
0.0
42
0.0
43
0.0
44
0.0
45
10.0
50
0.0
51
0.0000000000007958
72
100
90
32800
1

281
0
71
0
74
0
110
0.0
120
0.0
130
0.0
111
1.0
121
0.0
131
0.0
112
0.0
122
1.0
132
0.0
79
0
146
0.0
1001
VD_INVISIBLE_NOT_FOR_READ
1000
VD_INVISIBLE_NOT_FOR_READ
0
VIEWPORT
5
295
102
{ACAD_XDICTIONARY
360
58C
102
}
330
25D
100
AcDbEntity
67
1
8
0
60
1
100
AcDbViewport
10
0.0
20
0.0
30
0.0
40
10.0
41
10.0
68
0
69
2
12
0.0
22
0.0
13
0.0
23
0.0
14
1.0
24
1.0
15
0.0
25
0.0
16
0.0
26
0.0
36
1.0
17
0.0
27
0.0
37
0.0
42
0.0
43
0.0
44
0.0
45
10.0
50
0.0
51
0.0000000000007958
72
100
90
163872
1

281
0
71
0
74
0
110
0.0
120
0.0
130
0.0
111
1.0
121
0.0
131
0.0
112
0.0
122
1.0
132
0.0
79
0
146
0.0
1001
VD_INVISIBLE_NOT_FOR_READ
1000
VD_INVISIBLE_NOT_FOR_READ
0
ENDSEC
0
SECTION
2
OBJECTS
0
DICTIONARY
5
13
330
0
100
AcDbDictionary
281
1
3
ACAD_COLOR
350
FA7
3
ACAD_GROUP
350
14
3
ACAD_LAYOUT
350
FCF
3
ACAD_MATERIAL
350
F7A
3
ACAD_MLEADERSTYLE
350
FCD
3
ACAD_MLINESTYLE
350
16
3
ACAD_PLOTSETTINGS
350
17
3
ACAD_PLOTSTYLENAME
350
18
3
ACAD_SCALELIST
350
FAB
3
ACAD_TABLESTYLE
350
FA8
3
ACAD_VISUALSTYLE
350
F93
3
ACDB_RECOMPOSE_DATA
350
107E
3
AcDbVariableDictionary
350
FF0
3
DWGPROPS
350
107F
0
DICTIONARY
5
F1000F
330
F1000E
100
AcDbDictionary
280
1
281
1
3
ACAD_MTEXT_2008_RT
360
F10010
0
DICTIONARY
5
F10014
330
F10013
100
AcDbDictionary
280
1
281
1
3
ACAD_MTEXT_2008_RT
360
F10015
0
DICTIONARY
5
F1001E
330
F1001D
100
AcDbDictionary
280
1
281
1
3
ACAD_MTEXT_2008_RT
360
F1001F
0
DICTIONARY
5
F10005
330
F10004
100
AcDbDictionary
280
1
281
1
3
ACAD_MTEXT_2008_RT
360
F10006
0
DICTIONARY
5
F1000A
330
F10009
100
AcDbDictionary
280
1
281
1
3
ACAD_MTEXT_2008_RT
360
F1000B
0
DICTIONARY
5
F10019
330
F10018
100
AcDbDictionary
280
1
281
1
3
ACAD_MTEXT_2008_RT
360
F1001A
0
DICTIONARY
5
FA7
102
{ACAD_REACTORS
330
13
102
}
330
13
100
AcDbDictionary
281
1
0
DICTIONARY
5
14
330
13
100
AcDbDictionary
281
1
0
DICTIONARY
5
FCF
102
{ACAD_REACTORS
330
13
102
}
330
13
100
AcDbDictionary
281
1
3
Layout1
350
FD1
3
Model
350
FD0
0
DICTIONARY
5
F7A
102
{ACAD_REACTORS
330
13
102
}
330
13
100
AcDbDictionary
281
1
3
ByBlock
350
F83
3
ByLayer
350
F7B
3
Global
350
F8B
0
DICTIONARY
5
FCD
102
{ACAD_REACTORS
330
13
102
}
330
13
100
AcDbDictionary
281
1
3
Standard
350
FCE
0
DICTIONARY
5
16
330
13
100
AcDbDictionary
281
1
3
Standard
350
FAA
0
DICTIONARY
5
17
102
{ACAD_REACTORS
330
13
102
}
330
13
100
AcDbDictionary
281
1
0
ACDBDICTIONARYWDFLT
5
18
102
{ACAD_REACTORS
330
13
102
}
330
13
100
AcDbDictionary
281
1
3
Normal
350
19
100
AcDbDictionaryWithDefault
340
19
0
DICTIONARY
5
FAB
102
{ACAD_REACTORS
330
13
102
}
330
13
100
AcDbDictionary
281
1
3
A0
350
FAC
3
A1
350
FAD
3
A2
350
FAE
3
A3
350
FAF
3
A4
350
FB0
3
A5
350
FB1
3
A6
350
FB2
3
A7
350
FB3
3
A8
350
FB4
3
A9
350
FB5
3
B0
350
FB6
3
B1
350
FB7
3
B2
350
FB8
3
B3
350
FB9
3
B4
350
FBA
3
B5
350
FBB
3
B6
350
FBC
3
B7
350
FBD
3
B8
350
FBE
3
B9
350
FBF
3
C0
350
FC0
3
C1
350
FC1
3
C2
350
FC2
3
C3
350
FC3
3
C4
350
FC4
3
C5
350
FC5
3
C6
350
FC6
3
C7
350
FC7
3
C8
350
FC8
3
C9
350
FC9
3
D0
350
FCA
3
D1
350
FCB
3
D2
350
FCC
0
DICTIONARY
5
FA8
102
{ACAD_REACTORS
330
13
102
}
330
13
100
AcDbDictionary
281
1
3
Standard
350
FA9
0
DICTIONARY
5
F93
102
{ACAD_REACTORS
330
13
102
}
330
13
100
AcDbDictionary
281
1
3
2dWireframe
350
F99
3
3D Hidden
350
F9B
3
3dWireframe
350
F9A
3
Basic
350
F98
3
Brighten
350
F9F
3
ColorChange
350
FA3
3
Conceptual
350
F9C
3
Dim
350
F9E
3
EdgeColorOff
350
FA6
3
Facepattern
350
FA2
3
Flat
350
F94
3
FlatWithEdges
350
F95
3
Gouraud
350
F96
3
GouraudWithEdges
350
F97
3
JitterOff
350
FA4
3
Linepattern
350
FA1
3
OverhangOff
350
FA5
3
Realistic
350
F9D
3
Thicken
350
FA0
0
XRECORD
5
107E
102
{ACAD_REACTORS
330
13
102
}
330
13
100
AcDbXrecord
280
1
90
1
330
FA9
330
F1000E
330
F10013
330
F1001D
330
F10004
330
F10009
330
F10018
0
DICTIONARY
5
FF0
102
{ACAD_REACTORS
330
13
102
}
330
13
100
AcDbDictionary
281
1
3
CANNOSCALE
350
FF3
3
CMLEADERSTYLE
350
FF2
3
CTABLESTYLE
350
FF1
3
DIMASSOC
350
FF6
3
INDEXCTL
350
FF5
3
SORTENTS
350
FF4
3
XCLIPFRAME
350
1078
0
XRECORD
5
107F
102
{ACAD_REACTORS
330
13
102
}
330
13
100
AcDbXrecord
280
1
1
DWGPROPS COOKIE
2

3

4

6

7

8

9

300
=
301
=
302
=
303
=
304
=
305
=
306
=
307
=
308
=
309
=
40
0.0
41
0.0
42
0.0
1

90
0
0
XRECORD
5
F10010
102
{ACAD_REACTORS
330
F1000F
102
}
330
F1000F
100
AcDbXrecord
280
1
40
48458.0
1
30
0
XRECORD
5
F10015
102
{ACAD_REACTORS
330
F10014
102
}
330
F10014
100
AcDbXrecord
280
1
40
48458.0
1
83
0
XRECORD
5
F1001F
102
{ACAD_REACTORS
330
F1001E
102
}
330
F1001E
100
AcDbXrecord
280
1
40
48458.0
1
38
0
XRECORD
5
F10006
102
{ACAD_REACTORS
330
F10005
102
}
330
F10005
100
AcDbXrecord
280
1
40
48458.0
1
Ø14
0
XRECORD
5
F1001A
102
{ACAD_REACTORS
330
F10019
102
}
330
F10019
100
AcDbXrecord
280
1
40
48458.0
1
Ø13.4
0
LAYOUT
5
FD1
102
{ACAD_XDICTIONARY
360
10A9
102
}
102
{ACAD_REACTORS
330
FCF
102
}
330
FCF
100
AcDbPlotSettings
1

2
Microsoft XPS Document Writer
4

6

40
0.0
41
0.0
42
0.0
43
0.0
44
0.0
45
0.0
46
0.0
47
0.0
48
0.0
49
0.0
140
0.0
141
0.0
142
1.0
143
1.0
70
688
72
0
73
0
74
5
7

75
16
147
1.0
148
0.0
149
0.0
100
AcDbLayout
1
Layout1
70
1
71
1
10
0.0
20
0.0
11
12.0
21
9.0
12
0.0
22
0.0
32
0.0
14
1.000000000000000E+20
24
1.000000000000000E+20
34
1.000000000000000E+20
15
-1.000000000000000E+20
25
-1.000000000000000E+20
35
-1.000000000000000E+20
146
0.0
13
0.0
23
0.0
33
0.0
16
1.0
26
0.0
36
0.0
17
0.0
27
1.0
37
0.0
76
0
330
25D
0
LAYOUT
5
FD0
102
{ACAD_XDICTIONARY
360
10A7
102
}
102
{ACAD_REACTORS
330
FCF
102
}
330
FCF
100
AcDbPlotSettings
1

2
Microsoft XPS Document Writer
4

6

40
0.0
41
0.0
42
0.0
43
0.0
44
0.0
45
0.0
46
0.0
47
0.0
48
0.0
49
0.0
140
0.0
141
0.0
142
1.0
143
1.0
70
1712
72
0
73
0
74
0
7

75
0
147
1.0
148
0.0
149
0.0
100
AcDbLayout
1
Model
70
1
71
0
10
0.0
20
0.0
11
12.0
21
9.0
12
0.0
22
0.0
32
0.0
14
0.0
24
0.0
34
0.0
15
0.0
25
0.0
35
0.0
146
0.0
13
0.0
23
0.0
33
0.0
16
1.0
26
0.0
36
0.0
17
0.0
27
1.0
37
0.0
76
0
330
261
331
26B
0
MATERIAL
5
F83
102
{ACAD_XDICTIONARY
360
F84
102
}
102
{ACAD_REACTORS
330
F7A
102
}
330
F7A
100
AcDbMaterial
1
ByBlock
72
0
43
0.0208333333333333
43
0.0
43
0.0
43
0.0
43
0.0
43
0.0208333333333333
43
0.0
43
0.0
43
0.0
43
0.0
43
1.0
43
0.0
43
0.0
43
0.0
43
0.0
43
1.0
77
0
47
0.0208333333333333
47
0.0
47
0.0
47
0.0
47
0.0
47
0.0208333333333333
47
0.0
47
0.0
47
0.0
47
0.0
47
1.0
47
0.0
47
0.0
47
0.0
47
0.0
47
1.0
171
0
49
0.0208333333333333
49
0.0
49
0.0
49
0.0
49
0.0
49
0.0208333333333333
49
0.0
49
0.0
49
0.0
49
0.0
49
1.0
49
0.0
49
0.0
49
0.0
49
0.0
49
1.0
175
0
142
0.0208333333333333
142
0.0
142
0.0
142
0.0
142
0.0
142
0.0208333333333333
142
0.0
142
0.0
142
0.0
142
0.0
142
1.0
142
0.0
142
0.0
142
0.0
142
0.0
142
1.0
179
0
144
0.0208333333333333
144
0.0
144
0.0
144
0.0
144
0.0
144
0.0208333333333333
144
0.0
144
0.0
144
0.0
144
0.0
144
1.0
144
0.0
144
0.0
144
0.0
144
0.0
144
1.0
147
0.0208333333333333
147
0.0
147
0.0
147
0.0
147
0.0
147
0.0208333333333333
147
0.0
147
0.0
147
0.0
147
0.0
147
1.0
147
0.0
147
0.0
147
0.0
147
0.0
147
1.0
0
MATERIAL
5
F7B
102
{ACAD_XDICTIONARY
360
F7C
102
}
102
{ACAD_REACTORS
330
F7A
102
}
330
F7A
100
AcDbMaterial
1
ByLayer
72
0
43
0.0208333333333333
43
0.0
43
0.0
43
0.0
43
0.0
43
0.0208333333333333
43
0.0
43
0.0
43
0.0
43
0.0
43
1.0
43
0.0
43
0.0
43
0.0
43
0.0
43
1.0
77
0
47
0.0208333333333333
47
0.0
47
0.0
47
0.0
47
0.0
47
0.0208333333333333
47
0.0
47
0.0
47
0.0
47
0.0
47
1.0
47
0.0
47
0.0
47
0.0
47
0.0
47
1.0
171
0
49
0.0208333333333333
49
0.0
49
0.0
49
0.0
49
0.0
49
0.0208333333333333
49
0.0
49
0.0
49
0.0
49
0.0
49
1.0
49
0.0
49
0.0
49
0.0
49
0.0
49
1.0
175
0
142
0.0208333333333333
142
0.0
142
0.0
142
0.0
142
0.0
142
0.0208333333333333
142
0.0
142
0.0
142
0.0
142
0.0
142
1.0
142
0.0
142
0.0
142
0.0
142
0.0
142
1.0
179
0
144
0.0208333333333333
144
0.0
144
0.0
144
0.0
144
0.0
144
0.0208333333333333
144
0.0
144
0.0
144
0.0
144
0.0
144
1.0
144
0.0
144
0.0
144
0.0
144
0.0
144
1.0
147
0.0208333333333333
147
0.0
147
0.0
147
0.0
147
0.0
147
0.0208333333333333
147
0.0
147
0.0
147
0.0
147
0.0
147
1.0
147
0.0
147
0.0
147
0.0
147
0.0
147
1.0
0
MATERIAL
5
F8B
102
{ACAD_XDICTIONARY
360
F8C
102
}
102
{ACAD_REACTORS
330
F7A
102
}
330
F7A
100
AcDbMaterial
1
Global
72
0
43
0.0208333333333333
43
0.0
43
0.0
43
0.0
43
0.0
43
0.0208333333333333
43
0.0
43
0.0
43
0.0
43
0.0
43
1.0
43
0.0
43
0.0
43
0.0
43
0.0
43
1.0
77
0
47
0.0208333333333333
47
0.0
47
0.0
47
0.0
47
0.0
47
0.0208333333333333
47
0.0
47
0.0
47
0.0
47
0.0
47
1.0
47
0.0
47
0.0
47
0.0
47
0.0
47
1.0
171
0
49
0.0208333333333333
49
0.0
49
0.0
49
0.0
49
0.0
49
0.0208333333333333
49
0.0
49
0.0
49
0.0
49
0.0
49
1.0
49
0.0
49
0.0
49
0.0
49
0.0
49
1.0
175
0
142
0.0208333333333333
142
0.0
142
0.0
142
0.0
142
0.0
142
0.0208333333333333
142
0.0
142
0.0
142
0.0
142
0.0
142
1.0
142
0.0
142
0.0
142
0.0
142
0.0
142
1.0
179
0
144
0.0208333333333333
144
0.0
144
0.0
144
0.0
144
0.0
144
0.0208333333333333
144
0.0
144
0.0
144
0.0
144
0.0
144
1.0
144
0.0
144
0.0
144
0.0
144
0.0
144
1.0
147
0.0208333333333333
147
0.0
147
0.0
147
0.0
147
0.0
147
0.0208333333333333
147
0.0
147
0.0
147
0.0
147
0.0
147
1.0
147
0.0
147
0.0
147
0.0
147
0.0
147
1.0
0
MLEADERSTYLE
5
FCE
102
{ACAD_REACTORS
330
FCD
102
}
330
FCD
100
AcDbMLeaderStyle
170
2
171
1
172
0
90
2
40
0.0
41
0.0
173
1
91
-1056964608
340
256
92
-2
290
1
42
0.09
291
1
43
0.36
3
Standard
44
0.18
300

342
253
174
1
178
6
175
1
176
0
93
-1056964608
45
0.18
292
0
297
0
46
0.18
94
-1056964608
47
1.0
49
1.0
140
1.0
293
1
141
0.0
294
1
177
0
142
1.0
295
0
296
0
143
0.125
1001
ACAD_MLEADERVER
1070
2
0
MLINESTYLE
5
FAA
102
{ACAD_REACTORS
330
16
102
}
330
16
100
AcDbMlineStyle
2
STANDARD
70
0
3

62
256
51
90.0
52
90.0
71
2
49
0.5
62
256
6
BYLAYER
49
-0.5
62
256
6
BYLAYER
0
ACDBPLACEHOLDER
5
19
102
{ACAD_REACTORS
330
18
102
}
330
18
0
SCALE
5
FAC
102
{ACAD_REACTORS
330
FAB
102
}
330
FAB
100
AcDbScale
70
0
300
1:1
140
1.0
141
1.0
290
1
0
SCALE
5
FAD
102
{ACAD_REACTORS
330
FAB
102
}
330
FAB
100
AcDbScale
70
0
300
1:2
140
1.0
141
2.0
290
0
0
SCALE
5
FAE
102
{ACAD_REACTORS
330
FAB
102
}
330
FAB
100
AcDbScale
70
0
300
1:4
140
1.0
141
4.0
290
0
0
SCALE
5
FAF
102
{ACAD_REACTORS
330
FAB
102
}
330
FAB
100
AcDbScale
70
0
300
1:5
140
1.0
141
5.0
290
0
0
SCALE
5
FB0
102
{ACAD_REACTORS
330
FAB
102
}
330
FAB
100
AcDbScale
70
0
300
1:8
140
1.0
141
8.0
290
0
0
SCALE
5
FB1
102
{ACAD_REACTORS
330
FAB
102
}
330
FAB
100
AcDbScale
70
0
300
1:10
140
1.0
141
10.0
290
0
0
SCALE
5
FB2
102
{ACAD_REACTORS
330
FAB
102
}
330
FAB
100
AcDbScale
70
0
300
1:16
140
1.0
141
16.0
290
0
0
SCALE
5
FB3
102
{ACAD_REACTORS
330
FAB
102
}
330
FAB
100
AcDbScale
70
0
300
1:20
140
1.0
141
20.0
290
0
0
SCALE
5
FB4
102
{ACAD_REACTORS
330
FAB
102
}
330
FAB
100
AcDbScale
70
0
300
1:30
140
1.0
141
30.0
290
0
0
SCALE
5
FB5
102
{ACAD_REACTORS
330
FAB
102
}
330
FAB
100
AcDbScale
70
0
300
1:40
140
1.0
141
40.0
290
0
0
SCALE
5
FB6
102
{ACAD_REACTORS
330
FAB
102
}
330
FAB
100
AcDbScale
70
0
300
1:50
140
1.0
141
50.0
290
0
0
SCALE
5
FB7
102
{ACAD_REACTORS
330
FAB
102
}
330
FAB
100
AcDbScale
70
0
300
1:100
140
1.0
141
100.0
290
0
0
SCALE
5
FB8
102
{ACAD_REACTORS
330
FAB
102
}
330
FAB
100
AcDbScale
70
0
300
2:1
140
2.0
141
1.0
290
0
0
SCALE
5
FB9
102
{ACAD_REACTORS
330
FAB
102
}
330
FAB
100
AcDbScale
70
0
300
4:1
140
4.0
141
1.0
290
0
0
SCALE
5
FBA
102
{ACAD_REACTORS
330
FAB
102
}
330
FAB
100
AcDbScale
70
0
300
8:1
140
8.0
141
1.0
290
0
0
SCALE
5
FBB
102
{ACAD_REACTORS
330
FAB
102
}
330
FAB
100
AcDbScale
70
0
300
10:1
140
10.0
141
1.0
290
0
0
SCALE
5
FBC
102
{ACAD_REACTORS
330
FAB
102
}
330
FAB
100
AcDbScale
70
0
300
100:1
140
100.0
141
1.0
290
0
0
SCALE
5
FBD
102
{ACAD_REACTORS
330
FAB
102
}
330
FAB
100
AcDbScale
70
0
300
1/128" = 1'-0"
140
0.0078125
141
12.0
290
0
0
SCALE
5
FBE
102
{ACAD_REACTORS
330
FAB
102
}
330
FAB
100
AcDbScale
70
0
300
1/64" = 1'-0"
140
0.015625
141
12.0
290
0
0
SCALE
5
FBF
102
{ACAD_REACTORS
330
FAB
102
}
330
FAB
100
AcDbScale
70
0
300
1/32" = 1'-0"
140
0.03125
141
12.0
290
0
0
SCALE
5
FC0
102
{ACAD_REACTORS
330
FAB
102
}
330
FAB
100
AcDbScale
70
0
300
1/16" = 1'-0"
140
0.0625
141
12.0
290
0
0
SCALE
5
FC1
102
{ACAD_REACTORS
330
FAB
102
}
330
FAB
100
AcDbScale
70
0
300
3/32" = 1'-0"
140
0.09375
141
12.0
290
0
0
SCALE
5
FC2
102
{ACAD_REACTORS
330
FAB
102
}
330
FAB
100
AcDbScale
70
0
300
1/8" = 1'-0"
140
0.125
141
12.0
290
0
0
SCALE
5
FC3
102
{ACAD_REACTORS
330
FAB
102
}
330
FAB
100
AcDbScale
70
0
300
3/16" = 1'-0"
140
0.1875
141
12.0
290
0
0
SCALE
5
FC4
102
{ACAD_REACTORS
330
FAB
102
}
330
FAB
100
AcDbScale
70
0
300
1/4" = 1'-0"
140
0.25
141
12.0
290
0
0
SCALE
5
FC5
102
{ACAD_REACTORS
330
FAB
102
}
330
FAB
100
AcDbScale
70
0
300
3/8" = 1'-0"
140
0.375
141
12.0
290
0
0
SCALE
5
FC6
102
{ACAD_REACTORS
330
FAB
102
}
330
FAB
100
AcDbScale
70
0
300
1/2" = 1'-0"
140
0.5
141
12.0
290
0
0
SCALE
5
FC7
102
{ACAD_REACTORS
330
FAB
102
}
330
FAB
100
AcDbScale
70
0
300
3/4" = 1'-0"
140
0.75
141
12.0
290
0
0
SCALE
5
FC8
102
{ACAD_REACTORS
330
FAB
102
}
330
FAB
100
AcDbScale
70
0
300
1" = 1'-0"
140
1.0
141
12.0
290
0
0
SCALE
5
FC9
102
{ACAD_REACTORS
330
FAB
102
}
330
FAB
100
AcDbScale
70
0
300
1-1/2" = 1'-0"
140
1.5
141
12.0
290
0
0
SCALE
5
FCA
102
{ACAD_REACTORS
330
FAB
102
}
330
FAB
100
AcDbScale
70
0
300
3" = 1'-0"
140
3.0
141
12.0
290
0
0
SCALE
5
FCB
102
{ACAD_REACTORS
330
FAB
102
}
330
FAB
100
AcDbScale
70
0
300
6" = 1'-0"
140
6.0
141
12.0
290
0
0
SCALE
5
FCC
102
{ACAD_REACTORS
330
FAB
102
}
330
FAB
100
AcDbScale
70
0
300
1'-0" = 1'-0"
140
12.0
141
12.0
290
0
0
TABLESTYLE
5
FA9
102
{ACAD_XDICTIONARY
360
FF8
102
}
102
{ACAD_REACTORS
330
FA8
102
}
330
FA8
100
AcDbTableStyle
3
Standard
70
0
71
0
40
0.06
41
0.06
280
0
281
0
7
Standard
140
0.18
170
2
62
0
63
7
283
0
274
-2
284
1
64
0
275
-2
285
1
65
0
276
-2
286
1
66
0
277
-2
287
1
67
0
278
-2
288
1
68
0
279
-2
289
1
69
0
7
Standard
140
0.25
170
5
62
0
63
7
283
0
274
-2
284
1
64
0
275
-2
285
1
65
0
276
-2
286
1
66
0
277
-2
287
1
67
0
278
-2
288
1
68
0
279
-2
289
1
69
0
7
Standard
140
0.18
170
5
62
0
63
7
283
0
274
-2
284
1
64
0
275
-2
285
1
65
0
276
-2
286
1
66
0
277
-2
287
1
67
0
278
-2
288
1
68
0
279
-2
289
1
69
0
0
VISUALSTYLE
5
F99
102
{ACAD_XDICTIONARY
360
108A
102
}
102
{ACAD_REACTORS
330
F93
102
}
330
F93
100
AcDbVisualStyle
2

70
4
71
0
72
2
73
0
90
0
40
-0.6
41
-30.0
62
5
63
7
74
1
91
4
64
7
65
257
75
1
175
1
42
1.0
92
0
66
257
43
1.0
76
1
77
6
78
2
67
7
79
5
170
0
171
0
290
0
174
0
93
1
44
0.0
173
0
291
0
45
0.0
1001
ACAD
1000
AcDbSavedByObjectVersion
1070
0
0
VISUALSTYLE
5
F9B
102
{ACAD_XDICTIONARY
360
108E
102
}
102
{ACAD_REACTORS
330
F93
102
}
330
F93
100
AcDbVisualStyle
2

70
6
71
1
72
2
73
2
90
0
40
-0.6
41
-30.0
62
5
63
7
74
2
91
2
64
7
65
257
75
2
175
1
42
179.0
92
0
66
257
43
1.0
76
1
77
6
78
2
67
7
79
3
170
0
171
0
290
0
174
0
93
1
44
0.0
173
0
291
0
45
0.0
1001
ACAD
1000
AcDbSavedByObjectVersion
1070
0
0
VISUALSTYLE
5
F9A
102
{ACAD_XDICTIONARY
360
108C
102
}
102
{ACAD_REACTORS
330
F93
102
}
330
F93
100
AcDbVisualStyle
2

70
5
71
0
72
2
73
0
90
0
40
-0.6
41
-30.0
62
5
63
7
74
1
91
4
64
7
65
257
75
1
175
1
42
1.0
92
0
66
257
43
1.0
76
1
77
6
78
2
67
7
79
5
170
0
171
0
290
0
174
0
93
1
44
0.0
173
0
291
0
45
0.0
1001
ACAD
1000
AcDbSavedByObjectVersion
1070
0
0
VISUALSTYLE
5
F98
102
{ACAD_XDICTIONARY
360
1088
102
}
102
{ACAD_REACTORS
330
F93
102
}
330
F93
100
AcDbVisualStyle
2

70
7
71
1
72
0
73
1
90
0
40
-0.6
41
-30.0
62
5
63
7
74
0
91
4
64
7
65
257
75
1
175
1
42
1.0
92
8
66
7
43
1.0
76
1
77
6
78
2
67
7
79
5
170
0
171
0
290
0
174
0
93
1
44
0.0
173
0
291
1
45
0.0
1001
ACAD
1000
AcDbSavedByObjectVersion
1070
0
0
VISUALSTYLE
5
F9F
102
{ACAD_XDICTIONARY
360
1096
102
}
102
{ACAD_REACTORS
330
F93
102
}
330
F93
100
AcDbVisualStyle
2

70
12
71
2
72
2
73
0
90
0
40
-0.6
41
-30.0
62
5
63
7
74
1
91
4
64
7
65
257
75
1
175
1
42
1.0
92
8
66
7
43
1.0
76
1
77
6
78
2
67
7
79
5
170
0
171
0
290
0
174
0
93
1
44
50.0
173
0
291
1
45
0.0
1001
ACAD
1000
AcDbSavedByObjectVersion
1070
0
0
VISUALSTYLE
5
FA3
102
{ACAD_XDICTIONARY
360
109E
102
}
102
{ACAD_REACTORS
330
F93
102
}
330
F93
100
AcDbVisualStyle
2

70
16
71
2
72
2
73
3
90
0
40
-0.6
41
-30.0
62
5
63
8
74
1
91
4
64
7
65
257
75
1
175
1
42
1.0
92
8
66
8
43
1.0
76
1
77
6
78
2
67
7
79
5
170
0
171
0
290
0
174
0
93
1
44
0.0
173
0
291
1
45
0.0
1001
ACAD
1000
AcDbSavedByObjectVersion
1070
0
0
VISUALSTYLE
5
F9C
102
{ACAD_XDICTIONARY
360
1090
102
}
102
{ACAD_REACTORS
330
F93
102
}
330
F93
100
AcDbVisualStyle
2

70
9
71
3
72
2
73
0
90
0
40
-0.6
41
-30.0
62
5
63
7
74
2
91
2
64
7
65
257
75
1
175
1
42
179.0
92
8
66
7
43
1.0
76
1
77
6
78
2
67
7
79
3
170
0
171
0
290
0
174
0
93
1
44
0.0
173
0
291
0
45
0.0
1001
ACAD
1000
AcDbSavedByObjectVersion
1070
0
0
VISUALSTYLE
5
F9E
102
{ACAD_XDICTIONARY
360
1094
102
}
102
{ACAD_REACTORS
330
F93
102
}
330
F93
100
AcDbVisualStyle
2

70
11
71
2
72
2
73
0
90
0
40
-0.6
41
-30.0
62
5
63
7
74
1
91
4
64
7
65
257
75
1
175
1
42
1.0
92
8
66
7
43
1.0
76
1
77
6
78
2
67
7
79
5
170
0
171
0
290
0
174
0
93
1
44
-50.0
173
0
291
1
45
0.0
1001
ACAD
1000
AcDbSavedByObjectVersion
1070
0
0
VISUALSTYLE
5
FA6
102
{ACAD_XDICTIONARY
360
10A4
102
}
102
{ACAD_REACTORS
330
F93
102
}
330
F93
100
AcDbVisualStyle
2

70
22
71
2
72
2
73
0
90
0
40
-0.6
41
-30.0
62
5
63
7
74
1
91
4
64
7
65
257
75
1
175
1
42
1.0
92
8
66
7
43
1.0
76
1
77
6
78
2
67
7
79
5
170
0
171
0
290
0
174
0
93
1
44
0.0
173
0
291
1
45
0.0
1001
ACAD
1000
AcDbSavedByObjectVersion
1070
0
0
VISUALSTYLE
5
FA2
102
{ACAD_XDICTIONARY
360
109C
102
}
102
{ACAD_REACTORS
330
F93
102
}
330
F93
100
AcDbVisualStyle
2

70
15
71
2
72
2
73
0
90
0
40
-0.6
41
-30.0
62
5
63
7
74
1
91
4
64
7
65
257
75
1
175
1
42
1.0
92
8
66
7
43
1.0
76
1
77
6
78
2
67
7
79
5
170
0
171
0
290
0
174
0
93
1
44
0.0
173
0
291
1
45
0.0
1001
ACAD
1000
AcDbSavedByObjectVersion
1070
0
0
VISUALSTYLE
5
F94
102
{ACAD_XDICTIONARY
360
1080
102
}
102
{ACAD_REACTORS
330
F93
102
}
330
F93
100
AcDbVisualStyle
2

70
0
71
2
72
1
73
1
90
2
40
-0.6
41
30.0
62
5
63
7
74
0
91
4
64
7
65
257
75
1
175
1
42
1.0
92
8
66
7
43
1.0
76
1
77
6
78
2
67
7
79
5
170
0
171
0
290
0
174
0
93
13
44
0.0
173
0
291
1
45
0.0
1001
ACAD
1000
AcDbSavedByObjectVersion
1070
0
0
VISUALSTYLE
5
F95
102
{ACAD_XDICTIONARY
360
1082
102
}
102
{ACAD_REACTORS
330
F93
102
}
330
F93
100
AcDbVisualStyle
2

70
1
71
2
72
1
73
1
90
2
40
-0.6
41
30.0
62
5
63
7
74
1
91
4
64
7
65
257
75
1
175
1
42
1.0
92
0
66
257
43
1.0
76
1
77
6
78
2
67
7
79
5
170
0
171
0
290
0
174
0
93
13
44
0.0
173
0
291
1
45
0.0
1001
ACAD
1000
AcDbSavedByObjectVersion
1070
0
0
VISUALSTYLE
5
F96
102
{ACAD_XDICTIONARY
360
1084
102
}
102
{ACAD_REACTORS
330
F93
102
}
330
F93
100
AcDbVisualStyle
2

70
2
71
2
72
2
73
1
90
2
40
-0.6
41
30.0
62
5
63
7
74
0
91
4
64
7
65
257
75
1
175
1
42
1.0
92
0
66
7
43
1.0
76
1
77
6
78
2
67
7
79
5
170
0
171
0
290
0
174
0
93
13
44
0.0
173
0
291
1
45
0.0
1001
ACAD
1000
AcDbSavedByObjectVersion
1070
0
0
VISUALSTYLE
5
F97
102
{ACAD_XDICTIONARY
360
1086
102
}
102
{ACAD_REACTORS
330
F93
102
}
330
F93
100
AcDbVisualStyle
2

70
3
71
2
72
2
73
1
90
2
40
-0.6
41
30.0
62
5
63
7
74
1
91
4
64
7
65
257
75
1
175
1
42
1.0
92
0
66
257
43
1.0
76
1
77
6
78
2
67
7
79
5
170
0
171
0
290
0
174
0
93
13
44
0.0
173
0
291
1
45
0.0
1001
ACAD
1000
AcDbSavedByObjectVersion
1070
0
0
VISUALSTYLE
5
FA4
102
{ACAD_XDICTIONARY
360
10A0
102
}
102
{ACAD_REACTORS
330
F93
102
}
330
F93
100
AcDbVisualStyle
2

70
20
71
2
72
2
73
0
90
0
40
-0.6
41
-30.0
62
5
63
7
74
1
91
4
64
7
65
257
75
1
175
1
42
1.0
92
10
66
7
43
1.0
76
1
77
6
78
2
67
7
79
5
170
0
171
0
290
0
174
0
93
1
44
0.0
173
0
291
1
45
0.0
1001
ACAD
1000
AcDbSavedByObjectVersion
1070
0
0
VISUALSTYLE
5
FA1
102
{ACAD_XDICTIONARY
360
109A
102
}
102
{ACAD_REACTORS
330
F93
102
}
330
F93
100
AcDbVisualStyle
2

70
14
71
2
72
2
73
0
90
0
40
-0.6
41
-30.0
62
5
63
7
74
1
91
4
64
7
65
257
75
7
175
7
42
1.0
92
8
66
7
43
1.0
76
1
77
6
78
2
67
7
79
5
170
0
171
0
290
0
174
0
93
1
44
0.0
173
0
291
1
45
0.0
1001
ACAD
1000
AcDbSavedByObjectVersion
1070
0
0
VISUALSTYLE
5
FA5
102
{ACAD_XDICTIONARY
360
10A2
102
}
102
{ACAD_REACTORS
330
F93
102
}
330
F93
100
AcDbVisualStyle
2

70
21
71
2
72
2
73
0
90
0
40
-0.6
41
-30.0
62
5
63
7
74
1
91
4
64
7
65
257
75
1
175
1
42
1.0
92
9
66
7
43
1.0
76
1
77
6
78
2
67
7
79
5
170
0
171
0
290
0
174
0
93
1
44
0.0
173
0
291
1
45
0.0
1001
ACAD
1000
AcDbSavedByObjectVersion
1070
0
0
VISUALSTYLE
5
F9D
102
{ACAD_XDICTIONARY
360
1092
102
}
102
{ACAD_REACTORS
330
F93
102
}
330
F93
100
AcDbVisualStyle
2

70
8
71
2
72
2
73
0
90
0
40
-0.6
41
-30.0
62
5
63
7
74
1
91
0
64
7
65
257
75
1
175
1
42
1.0
92
8
66
8
43
1.0
76
1
77
6
78
2
67
7
79
5
170
0
171
0
290
0
174
0
93
13
44
0.0
173
0
291
0
45
0.0
1001
ACAD
1000
AcDbSavedByObjectVersion
1070
0
0
VISUALSTYLE
5
FA0
102
{ACAD_XDICTIONARY
360
1098
102
}
102
{ACAD_REACTORS
330
F93
102
}
330
F93
100
AcDbVisualStyle
2

70
13
71
2
72
2
73
0
90
0
40
-0.6
41
-30.0
62
5
63
7
74
1
91
4
64
7
65
257
75
1
175
1
42
1.0
92
12
66
7
43
1.0
76
1
77
6
78
2
67
7
79
5
170
0
171
0
290
0
174
0
93
1
44
0.0
173
0
291
1
45
0.0
1001
ACAD
1000
AcDbSavedByObjectVersion
1070
0
0
DICTIONARYVAR
5
FF3
102
{ACAD_REACTORS
330
FF0
102
}
330
FF0
100
DictionaryVariables
280
0
1
1:1
0
DICTIONARYVAR
5
FF2
102
{ACAD_REACTORS
330
FF0
102
}
330
FF0
100
DictionaryVariables
280
0
1
STANDARD
0
DICTIONARYVAR
5
FF1
102
{ACAD_REACTORS
330
FF0
102
}
330
FF0
100
DictionaryVariables
280
0
1
STANDARD
0
DICTIONARYVAR
5
FF6
102
{ACAD_REACTORS
330
FF0
102
}
330
FF0
100
DictionaryVariables
280
0
1
1
0
DICTIONARYVAR
5
FF5
102
{ACAD_REACTORS
330
FF0
102
}
330
FF0
100
DictionaryVariables
280
0
1
0
0
DICTIONARYVAR
5
FF4
102
{ACAD_REACTORS
330
FF0
102
}
330
FF0
100
DictionaryVariables
280
0
1
127
0
DICTIONARYVAR
5
1078
102
{ACAD_REACTORS
330
FF0
102
}
330
FF0
100
DictionaryVariables
280
0
1
2
0
DICTIONARY
5
10A9
330
FD1
100
AcDbDictionary
280
1
281
1
3
ACAD_XREC_ROUNDTRIP
360
10AA
0
DICTIONARY
5
10A7
330
FD0
100
AcDbDictionary
280
1
281
1
3
ACAD_XREC_ROUNDTRIP
360
10A8
0
DICTIONARY
5
F84
330
F83
100
AcDbDictionary
280
1
281
1
3
ACAD_XREC_ROUNDTRIP
360
FFF
3
BUMPTILE
360
F86
3
DIFFUSETILE
360
F85
3
OPACITYTILE
360
F89
3
REFLECTIONTILE
360
F88
3
REFRACTIONTILE
360
F8A
3
SPECULARTILE
360
F87
0
DICTIONARY
5
F7C
330
F7B
100
AcDbDictionary
280
1
281
1
3
ACAD_XREC_ROUNDTRIP
360
FFE
3
BUMPTILE
360
F7E
3
DIFFUSETILE
360
F7D
3
OPACITYTILE
360
F81
3
REFLECTIONTILE
360
F80
3
REFRACTIONTILE
360
F82
3
SPECULARTILE
360
F7F
0
DICTIONARY
5
F8C
330
F8B
100
AcDbDictionary
280
1
281
1
3
ACAD_XREC_ROUNDTRIP
360
1000
3
BUMPTILE
360
F8E
3
DIFFUSETILE
360
F8D
3
OPACITYTILE
360
F91
3
REFLECTIONTILE
360
F90
3
REFRACTIONTILE
360
F92
3
SPECULARTILE
360
F8F
0
DICTIONARY
5
FF8
330
FA9
100
AcDbDictionary
280
1
281
1
3
ACAD_ROUNDTRIP_2008_TABLESTYLE_CELLSTYLEMAP
360
1079
3
ACAD_XREC_ROUNDTRIP
360
10A6
0
DICTIONARY
5
108A
330
F99
100
AcDbDictionary
280
1
281
1
3
ACAD_XREC_ROUNDTRIP
360
108B
0
DICTIONARY
5
108E
330
F9B
100
AcDbDictionary
280
1
281
1
3
ACAD_XREC_ROUNDTRIP
360
108F
0
DICTIONARY
5
108C
330
F9A
100
AcDbDictionary
280
1
281
1
3
ACAD_XREC_ROUNDTRIP
360
108D
0
DICTIONARY
5
1088
330
F98
100
AcDbDictionary
280
1
281
1
3
ACAD_XREC_ROUNDTRIP
360
1089
0
DICTIONARY
5
1096
330
F9F
100
AcDbDictionary
280
1
281
1
3
ACAD_XREC_ROUNDTRIP
360
1097
0
DICTIONARY
5
109E
330
FA3
100
AcDbDictionary
280
1
281
1
3
ACAD_XREC_ROUNDTRIP
360
109F
0
DICTIONARY
5
1090
330
F9C
100
AcDbDictionary
280
1
281
1
3
ACAD_XREC_ROUNDTRIP
360
1091
0
DICTIONARY
5
1094
330
F9E
100
AcDbDictionary
280
1
281
1
3
ACAD_XREC_ROUNDTRIP
360
1095
0
DICTIONARY
5
10A4
330
FA6
100
AcDbDictionary
280
1
281
1
3
ACAD_XREC_ROUNDTRIP
360
10A5
0
DICTIONARY
5
109C
330
FA2
100
AcDbDictionary
280
1
281
1
3
ACAD_XREC_ROUNDTRIP
360
109D
0
DICTIONARY
5
1080
330
F94
100
AcDbDictionary
280
1
281
1
3
ACAD_XREC_ROUNDTRIP
360
1081
0
DICTIONARY
5
1082
330
F95
100
AcDbDictionary
280
1
281
1
3
ACAD_XREC_ROUNDTRIP
360
1083
0
DICTIONARY
5
1084
330
F96
100
AcDbDictionary
280
1
281
1
3
ACAD_XREC_ROUNDTRIP
360
1085
0
DICTIONARY
5
1086
330
F97
100
AcDbDictionary
280
1
281
1
3
ACAD_XREC_ROUNDTRIP
360
1087
0
DICTIONARY
5
10A0
330
FA4
100
AcDbDictionary
280
1
281
1
3
ACAD_XREC_ROUNDTRIP
360
10A1
0
DICTIONARY
5
109A
330
FA1
100
AcDbDictionary
280
1
281
1
3
ACAD_XREC_ROUNDTRIP
360
109B
0
DICTIONARY
5
10A2
330
FA5
100
AcDbDictionary
280
1
281
1
3
ACAD_XREC_ROUNDTRIP
360
10A3
0
DICTIONARY
5
1092
330
F9D
100
AcDbDictionary
280
1
281
1
3
ACAD_XREC_ROUNDTRIP
360
1093
0
DICTIONARY
5
1098
330
FA0
100
AcDbDictionary
280
1
281
1
3
ACAD_XREC_ROUNDTRIP
360
1099
0
XRECORD
5
10AA
102
{ACAD_REACTORS
330
10A9
102
}
330
10A9
100
AcDbXrecord
280
1
102
SHADEPLOT
70
0
102
SHADEPLOTRESLEVEL
70
2
102
SHADEPLOTCUSTOMDPI
70
300
0
XRECORD
5
10A8
102
{ACAD_REACTORS
330
10A7
102
}
330
10A7
100
AcDbXrecord
280
1
102
SHADEPLOT
70
0
102
SHADEPLOTRESLEVEL
70
2
102
SHADEPLOTCUSTOMDPI
70
300
0
XRECORD
5
FFF
102
{ACAD_REACTORS
330
F84
102
}
330
F84
100
AcDbXrecord
280
1
102
MATERIAL
148
0.0
149
0.0
149
0.0
93
0
94
127
282
0
72
0
77
0
171
0
175
0
179
0
273
0
0
XRECORD
5
F86
102
{ACAD_REACTORS
330
F84
102
}
330
F84
100
AcDbXrecord
280
1
270
1
271
1
0
XRECORD
5
F85
102
{ACAD_REACTORS
330
F84
102
}
330
F84
100
AcDbXrecord
280
1
270
1
271
1
0
XRECORD
5
F89
102
{ACAD_REACTORS
330
F84
102
}
330
F84
100
AcDbXrecord
280
1
270
1
271
1
0
XRECORD
5
F88
102
{ACAD_REACTORS
330
F84
102
}
330
F84
100
AcDbXrecord
280
1
270
1
271
1
0
XRECORD
5
F8A
102
{ACAD_REACTORS
330
F84
102
}
330
F84
100
AcDbXrecord
280
1
270
1
271
1
0
XRECORD
5
F87
102
{ACAD_REACTORS
330
F84
102
}
330
F84
100
AcDbXrecord
280
1
270
1
271
1
0
XRECORD
5
FFE
102
{ACAD_REACTORS
330
F7C
102
}
330
F7C
100
AcDbXrecord
280
1
102
MATERIAL
148
0.0
149
0.0
149
0.0
93
0
94
127
282
0
72
0
77
0
171
0
175
0
179
0
273
0
0
XRECORD
5
F7E
102
{ACAD_REACTORS
330
F7C
102
}
330
F7C
100
AcDbXrecord
280
1
270
1
271
1
0
XRECORD
5
F7D
102
{ACAD_REACTORS
330
F7C
102
}
330
F7C
100
AcDbXrecord
280
1
270
1
271
1
0
XRECORD
5
F81
102
{ACAD_REACTORS
330
F7C
102
}
330
F7C
100
AcDbXrecord
280
1
270
1
271
1
0
XRECORD
5
F80
102
{ACAD_REACTORS
330
F7C
102
}
330
F7C
100
AcDbXrecord
280
1
270
1
271
1
0
XRECORD
5
F82
102
{ACAD_REACTORS
330
F7C
102
}
330
F7C
100
AcDbXrecord
280
1
270
1
271
1
0
XRECORD
5
F7F
102
{ACAD_REACTORS
330
F7C
102
}
330
F7C
100
AcDbXrecord
280
1
270
1
271
1
0
XRECORD
5
1000
102
{ACAD_REACTORS
330
F8C
102
}
330
F8C
100
AcDbXrecord
280
1
102
MATERIAL
148
0.0
149
0.0
149
0.0
93
0
94
127
282
0
72
0
77
0
171
0
175
0
179
0
273
0
0
XRECORD
5
F8E
102
{ACAD_REACTORS
330
F8C
102
}
330
F8C
100
AcDbXrecord
280
1
270
1
271
1
0
XRECORD
5
F8D
102
{ACAD_REACTORS
330
F8C
102
}
330
F8C
100
AcDbXrecord
280
1
270
1
271
1
0
XRECORD
5
F91
102
{ACAD_REACTORS
330
F8C
102
}
330
F8C
100
AcDbXrecord
280
1
270
1
271
1
0
XRECORD
5
F90
102
{ACAD_REACTORS
330
F8C
102
}
330
F8C
100
AcDbXrecord
280
1
270
1
271
1
0
XRECORD
5
F92
102
{ACAD_REACTORS
330
F8C
102
}
330
F8C
100
AcDbXrecord
280
1
270
1
271
1
0
XRECORD
5
F8F
102
{ACAD_REACTORS
330
F8C
102
}
330
F8C
100
AcDbXrecord
280
1
270
1
271
1
0
CELLSTYLEMAP
5
1079
102
{ACAD_REACTORS
330
FF8
102
}
330
FF8
100
AcDbCellStyleMap
90
3
300
CELLSTYLE
1
TABLEFORMAT_BEGIN
90
5
170
1
91
0
92
32768
62
257
93
1
300
CONTENTFORMAT
1
CONTENTFORMAT_BEGIN
90
0
91
0
92
512
93
0
300

40
0.0
140
1.0
94
5
62
0
340
253
144
0.25
309
CONTENTFORMAT_END
171
1
301
MARGIN
1
CELLMARGIN_BEGIN
40
0.06
40
0.06
40
0.06
40
0.06
40
0.18
40
0.18
309
CELLMARGIN_END
94
6
95
1
302
GRIDFORMAT
1
GRIDFORMAT_BEGIN
90
0
91
1
62
0
92
-2
340
0
93
0
40
0.045
309
GRIDFORMAT_END
95
2
302
GRIDFORMAT
1
GRIDFORMAT_BEGIN
90
0
91
1
62
0
92
-2
340
0
93
0
40
0.045
309
GRIDFORMAT_END
95
4
302
GRIDFORMAT
1
GRIDFORMAT_BEGIN
90
0
91
1
62
0
92
-2
340
0
93
0
40
0.045
309
GRIDFORMAT_END
95
8
302
GRIDFORMAT
1
GRIDFORMAT_BEGIN
90
0
91
1
62
0
92
-2
340
0
93
0
40
0.045
309
GRIDFORMAT_END
95
16
302
GRIDFORMAT
1
GRIDFORMAT_BEGIN
90
0
91
1
62
0
92
-2
340
0
93
0
40
0.045
309
GRIDFORMAT_END
95
32
302
GRIDFORMAT
1
GRIDFORMAT_BEGIN
90
0
91
1
62
0
92
-2
340
0
93
0
40
0.045
309
GRIDFORMAT_END
309
TABLEFORMAT_END
1
CELLSTYLE_BEGIN
90
1
91
1
300
_TITLE
309
CELLSTYLE_END
300
CELLSTYLE
1
TABLEFORMAT_BEGIN
90
5
170
1
91
0
92
0
62
257
93
1
300
CONTENTFORMAT
1
CONTENTFORMAT_BEGIN
90
0
91
0
92
512
93
0
300

40
0.0
140
1.0
94
5
62
0
340
253
144
0.18
309
CONTENTFORMAT_END
171
1
301
MARGIN
1
CELLMARGIN_BEGIN
40
0.06
40
0.06
40
0.06
40
0.06
40
0.18
40
0.18
309
CELLMARGIN_END
94
6
95
1
302
GRIDFORMAT
1
GRIDFORMAT_BEGIN
90
0
91
1
62
0
92
-2
340
0
93
0
40
0.045
309
GRIDFORMAT_END
95
2
302
GRIDFORMAT
1
GRIDFORMAT_BEGIN
90
0
91
1
62
0
92
-2
340
0
93
0
40
0.045
309
GRIDFORMAT_END
95
4
302
GRIDFORMAT
1
GRIDFORMAT_BEGIN
90
0
91
1
62
0
92
-2
340
0
93
0
40
0.045
309
GRIDFORMAT_END
95
8
302
GRIDFORMAT
1
GRIDFORMAT_BEGIN
90
0
91
1
62
0
92
-2
340
0
93
0
40
0.045
309
GRIDFORMAT_END
95
16
302
GRIDFORMAT
1
GRIDFORMAT_BEGIN
90
0
91
1
62
0
92
-2
340
0
93
0
40
0.045
309
GRIDFORMAT_END
95
32
302
GRIDFORMAT
1
GRIDFORMAT_BEGIN
90
0
91
1
62
0
92
-2
340
0
93
0
40
0.045
309
GRIDFORMAT_END
309
TABLEFORMAT_END
1
CELLSTYLE_BEGIN
90
2
91
1
300
_HEADER
309
CELLSTYLE_END
300
CELLSTYLE
1
TABLEFORMAT_BEGIN
90
5
170
1
91
0
92
0
62
257
93
1
300
CONTENTFORMAT
1
CONTENTFORMAT_BEGIN
90
0
91
0
92
512
93
0
300

40
0.0
140
1.0
94
2
62
0
340
253
144
0.18
309
CONTENTFORMAT_END
171
1
301
MARGIN
1
CELLMARGIN_BEGIN
40
0.06
40
0.06
40
0.06
40
0.06
40
0.18
40
0.18
309
CELLMARGIN_END
94
6
95
1
302
GRIDFORMAT
1
GRIDFORMAT_BEGIN
90
0
91
1
62
0
92
-2
340
0
93
0
40
0.045
309
GRIDFORMAT_END
95
2
302
GRIDFORMAT
1
GRIDFORMAT_BEGIN
90
0
91
1
62
0
92
-2
340
0
93
0
40
0.045
309
GRIDFORMAT_END
95
4
302
GRIDFORMAT
1
GRIDFORMAT_BEGIN
90
0
91
1
62
0
92
-2
340
0
93
0
40
0.045
309
GRIDFORMAT_END
95
8
302
GRIDFORMAT
1
GRIDFORMAT_BEGIN
90
0
91
1
62
0
92
-2
340
0
93
0
40
0.045
309
GRIDFORMAT_END
95
16
302
GRIDFORMAT
1
GRIDFORMAT_BEGIN
90
0
91
1
62
0
92
-2
340
0
93
0
40
0.045
309
GRIDFORMAT_END
95
32
302
GRIDFORMAT
1
GRIDFORMAT_BEGIN
90
0
91
1
62
0
92
-2
340
0
93
0
40
0.045
309
GRIDFORMAT_END
309
TABLEFORMAT_END
1
CELLSTYLE_BEGIN
90
3
91
2
300
_DATA
309
CELLSTYLE_END
0
XRECORD
5
10A6
102
{ACAD_REACTORS
330
FF8
102
}
330
FF8
100
AcDbXrecord
280
1
102
ACAD_ROUNDTRIP_PRE2007_TABLESTYLE
90
512
91
0
1

92
512
93
0
2

94
512
95
0
3

0
XRECORD
5
108B
102
{ACAD_REACTORS
330
108A
102
}
330
108A
100
AcDbXrecord
280
1
102
RTVSPropertyOp0
70
1
102
RTVSPropertyOp1
70
1
102
RTVSPropertyOp2
70
1
102
RTVSPropertyOp3
70
1
102
RTVSPropertyOp4
70
1
102
RTVSPropertyOp5
70
1
102
RTVSPropertyOp6
70
1
102
RTVSPropertyOp7
70
1
102
RTVSPropertyOp8
70
1
102
RTVSPropertyOp9
70
1
102
RTVSPropertyOp10
70
1
102
RTVSPropertyOp11
70
1
102
RTVSPropertyOp12
70
1
102
RTVSPropertyOp13
70
1
102
RTVSPropertyOp14
70
1
102
RTVSPropertyOp15
70
1
102
RTVSPropertyOp16
70
1
102
RTVSPropertyOp17
70
1
102
RTVSPropertyOp18
70
1
102
RTVSPropertyOp19
70
1
102
RTVSPropertyOp20
70
1
102
RTVSPropertyOp21
70
1
102
RTVSPropertyOp22
70
1
102
RTVSPropertyOp23
70
1
102
RTVSPropertyOp24
70
1
102
RTVSPropertyOp25
70
1
102
RTVSPropertyOp26
70
1
102
RTVSPropertyOp27
70
1
0
XRECORD
5
108F
102
{ACAD_REACTORS
330
108E
102
}
330
108E
100
AcDbXrecord
280
1
102
RTVSPropertyOp0
70
1
102
RTVSPropertyOp1
70
1
102
RTVSPropertyOp2
70
1
102
RTVSPropertyOp3
70
1
102
RTVSPropertyOp4
70
1
102
RTVSPropertyOp5
70
1
102
RTVSPropertyOp6
70
1
102
RTVSPropertyOp7
70
1
102
RTVSPropertyOp8
70
1
102
RTVSPropertyOp9
70
1
102
RTVSPropertyOp10
70
1
102
RTVSPropertyOp11
70
1
102
RTVSPropertyOp12
70
1
102
RTVSPropertyOp13
70
1
102
RTVSPropertyOp14
70
1
102
RTVSPropertyOp15
70
1
102
RTVSPropertyOp16
70
1
102
RTVSPropertyOp17
70
1
102
RTVSPropertyOp18
70
1
102
RTVSPropertyOp19
70
1
102
RTVSPropertyOp20
70
1
102
RTVSPropertyOp21
70
1
102
RTVSPropertyOp22
70
1
102
RTVSPropertyOp23
70
1
102
RTVSPropertyOp24
70
1
102
RTVSPropertyOp25
70
1
102
RTVSPropertyOp26
70
1
102
RTVSPropertyOp27
70
1
0
XRECORD
5
108D
102
{ACAD_REACTORS
330
108C
102
}
330
108C
100
AcDbXrecord
280
1
102
RTVSPropertyOp0
70
1
102
RTVSPropertyOp1
70
1
102
RTVSPropertyOp2
70
1
102
RTVSPropertyOp3
70
1
102
RTVSPropertyOp4
70
1
102
RTVSPropertyOp5
70
1
102
RTVSPropertyOp6
70
1
102
RTVSPropertyOp7
70
1
102
RTVSPropertyOp8
70
1
102
RTVSPropertyOp9
70
1
102
RTVSPropertyOp10
70
1
102
RTVSPropertyOp11
70
1
102
RTVSPropertyOp12
70
1
102
RTVSPropertyOp13
70
1
102
RTVSPropertyOp14
70
1
102
RTVSPropertyOp15
70
1
102
RTVSPropertyOp16
70
1
102
RTVSPropertyOp17
70
1
102
RTVSPropertyOp18
70
1
102
RTVSPropertyOp19
70
1
102
RTVSPropertyOp20
70
1
102
RTVSPropertyOp21
70
1
102
RTVSPropertyOp22
70
1
102
RTVSPropertyOp23
70
1
102
RTVSPropertyOp24
70
1
102
RTVSPropertyOp25
70
1
102
RTVSPropertyOp26
70
1
102
RTVSPropertyOp27
70
1
0
XRECORD
5
1089
102
{ACAD_REACTORS
330
1088
102
}
330
1088
100
AcDbXrecord
280
1
102
RTVSPropertyOp0
70
1
102
RTVSPropertyOp1
70
1
102
RTVSPropertyOp2
70
1
102
RTVSPropertyOp3
70
1
102
RTVSPropertyOp4
70
1
102
RTVSPropertyOp5
70
1
102
RTVSPropertyOp6
70
1
102
RTVSPropertyOp7
70
1
102
RTVSPropertyOp8
70
1
102
RTVSPropertyOp9
70
1
102
RTVSPropertyOp10
70
1
102
RTVSPropertyOp11
70
1
102
RTVSPropertyOp12
70
1
102
RTVSPropertyOp13
70
1
102
RTVSPropertyOp14
70
1
102
RTVSPropertyOp15
70
1
102
RTVSPropertyOp16
70
1
102
RTVSPropertyOp17
70
1
102
RTVSPropertyOp18
70
1
102
RTVSPropertyOp19
70
1
102
RTVSPropertyOp20
70
1
102
RTVSPropertyOp21
70
1
102
RTVSPropertyOp22
70
1
102
RTVSPropertyOp23
70
1
102
RTVSPropertyOp24
70
1
102
RTVSPropertyOp25
70
1
102
RTVSPropertyOp26
70
1
102
RTVSPropertyOp27
70
1
0
XRECORD
5
1097
102
{ACAD_REACTORS
330
1096
102
}
330
1096
100
AcDbXrecord
280
1
102
RTVSPropertyOp0
70
1
102
RTVSPropertyOp1
70
1
102
RTVSPropertyOp2
70
1
102
RTVSPropertyOp3
70
1
102
RTVSPropertyOp4
70
1
102
RTVSPropertyOp5
70
1
102
RTVSPropertyOp6
70
1
102
RTVSPropertyOp7
70
1
102
RTVSPropertyOp8
70
1
102
RTVSPropertyOp9
70
1
102
RTVSPropertyOp10
70
1
102
RTVSPropertyOp11
70
1
102
RTVSPropertyOp12
70
1
102
RTVSPropertyOp13
70
1
102
RTVSPropertyOp14
70
1
102
RTVSPropertyOp15
70
1
102
RTVSPropertyOp16
70
1
102
RTVSPropertyOp17
70
1
102
RTVSPropertyOp18
70
1
102
RTVSPropertyOp19
70
1
102
RTVSPropertyOp20
70
1
102
RTVSPropertyOp21
70
1
102
RTVSPropertyOp22
70
1
102
RTVSPropertyOp23
70
1
102
RTVSPropertyOp24
70
1
102
RTVSPropertyOp25
70
1
102
RTVSPropertyOp26
70
1
102
RTVSPropertyOp27
70
1
0
XRECORD
5
109F
102
{ACAD_REACTORS
330
109E
102
}
330
109E
100
AcDbXrecord
280
1
102
RTVSPropertyOp0
70
1
102
RTVSPropertyOp1
70
1
102
RTVSPropertyOp2
70
1
102
RTVSPropertyOp3
70
1
102
RTVSPropertyOp4
70
1
102
RTVSPropertyOp5
70
1
102
RTVSPropertyOp6
70
1
102
RTVSPropertyOp7
70
1
102
RTVSPropertyOp8
70
1
102
RTVSPropertyOp9
70
1
102
RTVSPropertyOp10
70
1
102
RTVSPropertyOp11
70
1
102
RTVSPropertyOp12
70
1
102
RTVSPropertyOp13
70
1
102
RTVSPropertyOp14
70
1
102
RTVSPropertyOp15
70
1
102
RTVSPropertyOp16
70
1
102
RTVSPropertyOp17
70
1
102
RTVSPropertyOp18
70
1
102
RTVSPropertyOp19
70
1
102
RTVSPropertyOp20
70
1
102
RTVSPropertyOp21
70
1
102
RTVSPropertyOp22
70
1
102
RTVSPropertyOp23
70
1
102
RTVSPropertyOp24
70
1
102
RTVSPropertyOp25
70
1
102
RTVSPropertyOp26
70
1
102
RTVSPropertyOp27
70
1
0
XRECORD
5
1091
102
{ACAD_REACTORS
330
1090
102
}
330
1090
100
AcDbXrecord
280
1
102
RTVSPropertyOp0
70
1
102
RTVSPropertyOp1
70
1
102
RTVSPropertyOp2
70
1
102
RTVSPropertyOp3
70
1
102
RTVSPropertyOp4
70
1
102
RTVSPropertyOp5
70
1
102
RTVSPropertyOp6
70
1
102
RTVSPropertyOp7
70
1
102
RTVSPropertyOp8
70
1
102
RTVSPropertyOp9
70
1
102
RTVSPropertyOp10
70
1
102
RTVSPropertyOp11
70
1
102
RTVSPropertyOp12
70
1
102
RTVSPropertyOp13
70
1
102
RTVSPropertyOp14
70
1
102
RTVSPropertyOp15
70
1
102
RTVSPropertyOp16
70
1
102
RTVSPropertyOp17
70
1
102
RTVSPropertyOp18
70
1
102
RTVSPropertyOp19
70
1
102
RTVSPropertyOp20
70
1
102
RTVSPropertyOp21
70
1
102
RTVSPropertyOp22
70
1
102
RTVSPropertyOp23
70
1
102
RTVSPropertyOp24
70
1
102
RTVSPropertyOp25
70
1
102
RTVSPropertyOp26
70
1
102
RTVSPropertyOp27
70
1
0
XRECORD
5
1095
102
{ACAD_REACTORS
330
1094
102
}
330
1094
100
AcDbXrecord
280
1
102
RTVSPropertyOp0
70
1
102
RTVSPropertyOp1
70
1
102
RTVSPropertyOp2
70
1
102
RTVSPropertyOp3
70
1
102
RTVSPropertyOp4
70
1
102
RTVSPropertyOp5
70
1
102
RTVSPropertyOp6
70
1
102
RTVSPropertyOp7
70
1
102
RTVSPropertyOp8
70
1
102
RTVSPropertyOp9
70
1
102
RTVSPropertyOp10
70
1
102
RTVSPropertyOp11
70
1
102
RTVSPropertyOp12
70
1
102
RTVSPropertyOp13
70
1
102
RTVSPropertyOp14
70
1
102
RTVSPropertyOp15
70
1
102
RTVSPropertyOp16
70
1
102
RTVSPropertyOp17
70
1
102
RTVSPropertyOp18
70
1
102
RTVSPropertyOp19
70
1
102
RTVSPropertyOp20
70
1
102
RTVSPropertyOp21
70
1
102
RTVSPropertyOp22
70
1
102
RTVSPropertyOp23
70
1
102
RTVSPropertyOp24
70
1
102
RTVSPropertyOp25
70
1
102
RTVSPropertyOp26
70
1
102
RTVSPropertyOp27
70
1
0
XRECORD
5
10A5
102
{ACAD_REACTORS
330
10A4
102
}
330
10A4
100
AcDbXrecord
280
1
102
RTVSPropertyOp0
70
0
102
RTVSPropertyOp1
70
0
102
RTVSPropertyOp2
70
0
102
RTVSPropertyOp3
70
0
102
RTVSPropertyOp4
70
0
102
RTVSPropertyOp5
70
0
102
RTVSPropertyOp6
70
0
102
RTVSPropertyOp7
70
0
102
RTVSPropertyOp8
70
0
102
RTVSPropertyOp9
70
0
102
RTVSPropertyOp10
70
0
102
RTVSPropertyOp11
70
0
102
RTVSPropertyOp12
70
0
102
RTVSPropertyOp13
70
0
102
RTVSPropertyOp14
70
2
102
RTVSPropertyOp15
70
0
102
RTVSPropertyOp16
70
0
102
RTVSPropertyOp17
70
0
102
RTVSPropertyOp18
70
0
102
RTVSPropertyOp19
70
0
102
RTVSPropertyOp20
70
0
102
RTVSPropertyOp21
70
0
102
RTVSPropertyOp22
70
0
102
RTVSPropertyOp23
70
0
102
RTVSPropertyOp24
70
0
102
RTVSPropertyOp25
70
0
102
RTVSPropertyOp26
70
0
102
RTVSPropertyOp27
70
0
0
XRECORD
5
109D
102
{ACAD_REACTORS
330
109C
102
}
330
109C
100
AcDbXrecord
280
1
102
RTVSPropertyOp0
70
1
102
RTVSPropertyOp1
70
1
102
RTVSPropertyOp2
70
1
102
RTVSPropertyOp3
70
1
102
RTVSPropertyOp4
70
1
102
RTVSPropertyOp5
70
1
102
RTVSPropertyOp6
70
1
102
RTVSPropertyOp7
70
1
102
RTVSPropertyOp8
70
1
102
RTVSPropertyOp9
70
1
102
RTVSPropertyOp10
70
1
102
RTVSPropertyOp11
70
1
102
RTVSPropertyOp12
70
1
102
RTVSPropertyOp13
70
1
102
RTVSPropertyOp14
70
1
102
RTVSPropertyOp15
70
1
102
RTVSPropertyOp16
70
1
102
RTVSPropertyOp17
70
1
102
RTVSPropertyOp18
70
1
102
RTVSPropertyOp19
70
1
102
RTVSPropertyOp20
70
1
102
RTVSPropertyOp21
70
1
102
RTVSPropertyOp22
70
1
102
RTVSPropertyOp23
70
1
102
RTVSPropertyOp24
70
1
102
RTVSPropertyOp25
70
1
102
RTVSPropertyOp26
70
1
102
RTVSPropertyOp27
70
1
0
XRECORD
5
1081
102
{ACAD_REACTORS
330
1080
102
}
330
1080
100
AcDbXrecord
280
1
102
RTVSPropertyOp0
70
1
102
RTVSPropertyOp1
70
1
102
RTVSPropertyOp2
70
1
102
RTVSPropertyOp3
70
1
102
RTVSPropertyOp4
70
1
102
RTVSPropertyOp5
70
1
102
RTVSPropertyOp6
70
1
102
RTVSPropertyOp7
70
1
102
RTVSPropertyOp8
70
1
102
RTVSPropertyOp9
70
1
102
RTVSPropertyOp10
70
1
102
RTVSPropertyOp11
70
1
102
RTVSPropertyOp12
70
1
102
RTVSPropertyOp13
70
1
102
RTVSPropertyOp14
70
1
102
RTVSPropertyOp15
70
1
102
RTVSPropertyOp16
70
1
102
RTVSPropertyOp17
70
1
102
RTVSPropertyOp18
70
1
102
RTVSPropertyOp19
70
1
102
RTVSPropertyOp20
70
1
102
RTVSPropertyOp21
70
1
102
RTVSPropertyOp22
70
1
102
RTVSPropertyOp23
70
1
102
RTVSPropertyOp24
70
1
102
RTVSPropertyOp25
70
1
102
RTVSPropertyOp26
70
1
102
RTVSPropertyOp27
70
1
0
XRECORD
5
1083
102
{ACAD_REACTORS
330
1082
102
}
330
1082
100
AcDbXrecord
280
1
102
RTVSPropertyOp0
70
1
102
RTVSPropertyOp1
70
1
102
RTVSPropertyOp2
70
1
102
RTVSPropertyOp3
70
1
102
RTVSPropertyOp4
70
1
102
RTVSPropertyOp5
70
1
102
RTVSPropertyOp6
70
1
102
RTVSPropertyOp7
70
1
102
RTVSPropertyOp8
70
1
102
RTVSPropertyOp9
70
1
102
RTVSPropertyOp10
70
1
102
RTVSPropertyOp11
70
1
102
RTVSPropertyOp12
70
1
102
RTVSPropertyOp13
70
1
102
RTVSPropertyOp14
70
1
102
RTVSPropertyOp15
70
1
102
RTVSPropertyOp16
70
1
102
RTVSPropertyOp17
70
1
102
RTVSPropertyOp18
70
1
102
RTVSPropertyOp19
70
1
102
RTVSPropertyOp20
70
1
102
RTVSPropertyOp21
70
1
102
RTVSPropertyOp22
70
1
102
RTVSPropertyOp23
70
1
102
RTVSPropertyOp24
70
1
102
RTVSPropertyOp25
70
1
102
RTVSPropertyOp26
70
1
102
RTVSPropertyOp27
70
1
0
XRECORD
5
1085
102
{ACAD_REACTORS
330
1084
102
}
330
1084
100
AcDbXrecord
280
1
102
RTVSPropertyOp0
70
1
102
RTVSPropertyOp1
70
1
102
RTVSPropertyOp2
70
1
102
RTVSPropertyOp3
70
1
102
RTVSPropertyOp4
70
1
102
RTVSPropertyOp5
70
1
102
RTVSPropertyOp6
70
1
102
RTVSPropertyOp7
70
1
102
RTVSPropertyOp8
70
1
102
RTVSPropertyOp9
70
1
102
RTVSPropertyOp10
70
1
102
RTVSPropertyOp11
70
1
102
RTVSPropertyOp12
70
1
102
RTVSPropertyOp13
70
1
102
RTVSPropertyOp14
70
1
102
RTVSPropertyOp15
70
1
102
RTVSPropertyOp16
70
1
102
RTVSPropertyOp17
70
1
102
RTVSPropertyOp18
70
1
102
RTVSPropertyOp19
70
1
102
RTVSPropertyOp20
70
1
102
RTVSPropertyOp21
70
1
102
RTVSPropertyOp22
70
1
102
RTVSPropertyOp23
70
1
102
RTVSPropertyOp24
70
1
102
RTVSPropertyOp25
70
1
102
RTVSPropertyOp26
70
1
102
RTVSPropertyOp27
70
1
0
XRECORD
5
1087
102
{ACAD_REACTORS
330
1086
102
}
330
1086
100
AcDbXrecord
280
1
102
RTVSPropertyOp0
70
1
102
RTVSPropertyOp1
70
1
102
RTVSPropertyOp2
70
1
102
RTVSPropertyOp3
70
1
102
RTVSPropertyOp4
70
1
102
RTVSPropertyOp5
70
1
102
RTVSPropertyOp6
70
1
102
RTVSPropertyOp7
70
1
102
RTVSPropertyOp8
70
1
102
RTVSPropertyOp9
70
1
102
RTVSPropertyOp10
70
1
102
RTVSPropertyOp11
70
1
102
RTVSPropertyOp12
70
1
102
RTVSPropertyOp13
70
1
102
RTVSPropertyOp14
70
1
102
RTVSPropertyOp15
70
1
102
RTVSPropertyOp16
70
1
102
RTVSPropertyOp17
70
1
102
RTVSPropertyOp18
70
1
102
RTVSPropertyOp19
70
1
102
RTVSPropertyOp20
70
1
102
RTVSPropertyOp21
70
1
102
RTVSPropertyOp22
70
1
102
RTVSPropertyOp23
70
1
102
RTVSPropertyOp24
70
1
102
RTVSPropertyOp25
70
1
102
RTVSPropertyOp26
70
1
102
RTVSPropertyOp27
70
1
0
XRECORD
5
10A1
102
{ACAD_REACTORS
330
10A0
102
}
330
10A0
100
AcDbXrecord
280
1
102
RTVSPropertyOp0
70
0
102
RTVSPropertyOp1
70
0
102
RTVSPropertyOp2
70
0
102
RTVSPropertyOp3
70
0
102
RTVSPropertyOp4
70
0
102
RTVSPropertyOp5
70
0
102
RTVSPropertyOp6
70
0
102
RTVSPropertyOp7
70
0
102
RTVSPropertyOp8
70
0
102
RTVSPropertyOp9
70
0
102
RTVSPropertyOp10
70
0
102
RTVSPropertyOp11
70
0
102
RTVSPropertyOp12
70
0
102
RTVSPropertyOp13
70
0
102
RTVSPropertyOp14
70
2
102
RTVSPropertyOp15
70
0
102
RTVSPropertyOp16
70
0
102
RTVSPropertyOp17
70
0
102
RTVSPropertyOp18
70
0
102
RTVSPropertyOp19
70
0
102
RTVSPropertyOp20
70
0
102
RTVSPropertyOp21
70
0
102
RTVSPropertyOp22
70
0
102
RTVSPropertyOp23
70
0
102
RTVSPropertyOp24
70
0
102
RTVSPropertyOp25
70
0
102
RTVSPropertyOp26
70
0
102
RTVSPropertyOp27
70
0
0
XRECORD
5
109B
102
{ACAD_REACTORS
330
109A
102
}
330
109A
100
AcDbXrecord
280
1
102
RTVSPropertyOp0
70
1
102
RTVSPropertyOp1
70
1
102
RTVSPropertyOp2
70
1
102
RTVSPropertyOp3
70
1
102
RTVSPropertyOp4
70
1
102
RTVSPropertyOp5
70
1
102
RTVSPropertyOp6
70
1
102
RTVSPropertyOp7
70
1
102
RTVSPropertyOp8
70
1
102
RTVSPropertyOp9
70
1
102
RTVSPropertyOp10
70
1
102
RTVSPropertyOp11
70
1
102
RTVSPropertyOp12
70
1
102
RTVSPropertyOp13
70
1
102
RTVSPropertyOp14
70
1
102
RTVSPropertyOp15
70
1
102
RTVSPropertyOp16
70
1
102
RTVSPropertyOp17
70
1
102
RTVSPropertyOp18
70
1
102
RTVSPropertyOp19
70
1
102
RTVSPropertyOp20
70
1
102
RTVSPropertyOp21
70
1
102
RTVSPropertyOp22
70
1
102
RTVSPropertyOp23
70
1
102
RTVSPropertyOp24
70
1
102
RTVSPropertyOp25
70
1
102
RTVSPropertyOp26
70
1
102
RTVSPropertyOp27
70
1
0
XRECORD
5
10A3
102
{ACAD_REACTORS
330
10A2
102
}
330
10A2
100
AcDbXrecord
280
1
102
RTVSPropertyOp0
70
0
102
RTVSPropertyOp1
70
0
102
RTVSPropertyOp2
70
0
102
RTVSPropertyOp3
70
0
102
RTVSPropertyOp4
70
0
102
RTVSPropertyOp5
70
0
102
RTVSPropertyOp6
70
0
102
RTVSPropertyOp7
70
0
102
RTVSPropertyOp8
70
0
102
RTVSPropertyOp9
70
0
102
RTVSPropertyOp10
70
0
102
RTVSPropertyOp11
70
0
102
RTVSPropertyOp12
70
0
102
RTVSPropertyOp13
70
0
102
RTVSPropertyOp14
70
2
102
RTVSPropertyOp15
70
0
102
RTVSPropertyOp16
70
0
102
RTVSPropertyOp17
70
0
102
RTVSPropertyOp18
70
0
102
RTVSPropertyOp19
70
0
102
RTVSPropertyOp20
70
0
102
RTVSPropertyOp21
70
0
102
RTVSPropertyOp22
70
0
102
RTVSPropertyOp23
70
0
102
RTVSPropertyOp24
70
0
102
RTVSPropertyOp25
70
0
102
RTVSPropertyOp26
70
0
102
RTVSPropertyOp27
70
0
0
XRECORD
5
1093
102
{ACAD_REACTORS
330
1092
102
}
330
1092
100
AcDbXrecord
280
1
102
RTVSPropertyOp0
70
1
102
RTVSPropertyOp1
70
1
102
RTVSPropertyOp2
70
1
102
RTVSPropertyOp3
70
1
102
RTVSPropertyOp4
70
1
102
RTVSPropertyOp5
70
1
102
RTVSPropertyOp6
70
1
102
RTVSPropertyOp7
70
1
102
RTVSPropertyOp8
70
1
102
RTVSPropertyOp9
70
1
102
RTVSPropertyOp10
70
1
102
RTVSPropertyOp11
70
1
102
RTVSPropertyOp12
70
1
102
RTVSPropertyOp13
70
1
102
RTVSPropertyOp14
70
1
102
RTVSPropertyOp15
70
1
102
RTVSPropertyOp16
70
1
102
RTVSPropertyOp17
70
1
102
RTVSPropertyOp18
70
1
102
RTVSPropertyOp19
70
1
102
RTVSPropertyOp20
70
1
102
RTVSPropertyOp21
70
1
102
RTVSPropertyOp22
70
1
102
RTVSPropertyOp23
70
1
102
RTVSPropertyOp24
70
1
102
RTVSPropertyOp25
70
1
102
RTVSPropertyOp26
70
1
102
RTVSPropertyOp27
70
1
0
XRECORD
5
1099
102
{ACAD_REACTORS
330
1098
102
}
330
1098
100
AcDbXrecord
280
1
102
RTVSPropertyOp0
70
1
102
RTVSPropertyOp1
70
1
102
RTVSPropertyOp2
70
1
102
RTVSPropertyOp3
70
1
102
RTVSPropertyOp4
70
1
102
RTVSPropertyOp5
70
1
102
RTVSPropertyOp6
70
1
102
RTVSPropertyOp7
70
1
102
RTVSPropertyOp8
70
1
102
RTVSPropertyOp9
70
1
102
RTVSPropertyOp10
70
1
102
RTVSPropertyOp11
70
1
102
RTVSPropertyOp12
70
1
102
RTVSPropertyOp13
70
1
102
RTVSPropertyOp14
70
1
102
RTVSPropertyOp15
70
1
102
RTVSPropertyOp16
70
1
102
RTVSPropertyOp17
70
1
102
RTVSPropertyOp18
70
1
102
RTVSPropertyOp19
70
1
102
RTVSPropertyOp20
70
1
102
RTVSPropertyOp21
70
1
102
RTVSPropertyOp22
70
1
102
RTVSPropertyOp23
70
1
102
RTVSPropertyOp24
70
1
102
RTVSPropertyOp25
70
1
102
RTVSPropertyOp26
70
1
102
RTVSPropertyOp27
70
1
0
ENDSEC
0
EOF
