0
SECTION
2
HEADER
9
$ACADVER
1
AC1015
9
$ACADMAINTVER
70
20
9
$DWGCODEPAGE
3
ANSI_1252
9
$INSBASE
10
0.0
20
0.0
30
0.0
9
$EXTMIN
10
-150.000000000000
20
-105.000000000000
30
0.0
9
$EXTMAX
10
150.000000000000
20
105.000000000000
30
0.0
9
$LIMMIN
10
0.0
20
0.0
9
$LIMMAX
10
12.0
20
9.0
9
$ORTHOMODE
70
0
9
$REGENMODE
70
1
9
$FILLMODE
70
1
9
$QTEXTMODE
70
0
9
$MIRRTEXT
70
1
9
$LTSCALE
40
1.0
9
$ATTMODE
70
1
9
$TEXTSIZE
40
0.2
9
$TRACEWID
40
0.05
9
$TEXTSTYLE
7
Standard
9
$CLAYER
8
0
9
$CELTYPE
6
ByLayer
9
$CECOLOR
62
256
9
$CELTSCALE
40
1.0
9
$DISPSILH
70
0
9
$DIMSCALE
40
1.0
9
$DIMASZ
40
2.5
9
$DIMEXO
40
0.625
9
$DIMDLI
40
0.38
9
$DIMRND
40
0.0
9
$DIMDLE
40
0.0
9
$DIMEXE
40
1.25
9
$DIMTP
40
0.0
9
$DIMTM
40
0.000000001
9
$DIMTXT
40
2.5
9
$DIMCEN
40
0.09
9
$DIMTSZ
40
0.0
9
$DIMTOL
70
1
9
$DIMLIM
70
0
9
$DIMTIH
70
0
9
$DIMTOH
70
0
9
$DIMSE1
70
0
9
$DIMSE2
70
0
9
$DIMTAD
70
1
9
$DIMZIN
70
0
9
$DIMBLK
1
VDDIM_DEFAULT
9
$DIMASO
70
1
9
$DIMSHO
70
1
9
$DIMPOST
1

9
$DIMAPOST
1

9
$DIMALT
70
0
9
$DIMALTD
70
2
9
$DIMALTF
40
25.4
9
$DIMLFAC
40
1.00000000000000
9
$DIMTOFL
70
0
9
$DIMTVP
40
0.0
9
$DIMTIX
70
0
9
$DIMSOXD
70
0
9
$DIMSAH
70
0
9
$DIMBLK1
1

9
$DIMBLK2
1

9
$DIMSTYLE
2
BEM-ISBE
9
$DIMCLRD
70
0
9
$DIMCLRE
70
0
9
$DIMCLRT
70
0
9
$DIMTFAC
40
0.5
9
$DIMGAP
40
0.625
9
$DIMJUST
70
0
9
$DIMSD1
70
0
9
$DIMSD2
70
0
9
$DIMTOLJ
70
1
9
$DIMTZIN
70
0
9
$DIMALTZ
70
0
9
$DIMALTTZ
70
0
9
$DIMUPT
70
0
9
$DIMDEC
70
3
9
$DIMTDEC
70
3
9
$DIMALTU
70
2
9
$DIMALTTD
70
2
9
$DIMTXSTY
7
Standard
9
$DIMAUNIT
70
0
9
$DIMADEC
70
3
9
$DIMALTRND
40
0.0
9
$DIMAZIN
70
0
9
$DIMDSEP
70
46
9
$DIMATFIT
70
3
9
$DIMFRAC
70
0
9
$DIMLDRBLK
1

9
$DIMLUNIT
70
2
9
$DIMLWD
70
-2
9
$DIMLWE
70
-2
9
$DIMTMOVE
70
0
9
$LUNITS
70
2
9
$LUPREC
70
4
9
$SKETCHINC
40
0.1
9
$FILLETRAD
40
0.5
9
$AUNITS
70
0
9
$AUPREC
70
0
9
$MENU
1
.
9
$ELEVATION
40
0.0
9
$PELEVATION
40
0.0
9
$THICKNESS
40
0.0
9
$LIMCHECK
70
0
9
$CHAMFERA
40
0.5
9
$CHAMFERB
40
0.5
9
$CHAMFERC
40
1.0
9
$CHAMFERD
40
0.0
9
$SKPOLY
70
0
9
$TDCREATE
40
0.0
9
$TDUCREATE
40
0.0
9
$TDUPDATE
40
0.0
9
$TDUUPDATE
40
0.0
9
$TDINDWG
40
0.0
9
$TDUSRTIMER
40
0.0
9
$USRTIMER
70
1
9
$ANGBASE
50
0.0
9
$ANGDIR
70
0
9
$PDMODE
70
0
9
$PDSIZE
40
0.0
9
$PLINEWID
40
0.0
9
$SPLFRAME
70
0
9
$SPLINETYPE
70
6
9
$SPLINESEGS
70
8
9
$HANDSEED
5
10AB
9
$SURFTAB1
70
6
9
$SURFTAB2
70
6
9
$SURFTYPE
70
6
9
$SURFU
70
6
9
$SURFV
70
6
9
$UCSBASE
2

9
$UCSNAME
2

9
$UCSORG
10
0.0
20
0.0
30
0.0
9
$UCSXDIR
10
1.0
20
0.0
30
0.0
9
$UCSYDIR
10
0.0
20
1.0
30
0.0
9
$UCSORTHOREF
2

9
$UCSORTHOVIEW
70
0
9
$UCSORGTOP
10
0.0
20
0.0
30
0.0
9
$UCSORGBOTTOM
10
0.0
20
0.0
30
0.0
9
$UCSORGLEFT
10
0.0
20
0.0
30
0.0
9
$UCSORGRIGHT
10
0.0
20
0.0
30
0.0
9
$UCSORGFRONT
10
0.0
20
0.0
30
0.0
9
$UCSORGBACK
10
0.0
20
0.0
30
0.0
9
$PUCSBASE
2

9
$PUCSNAME
2

9
$PUCSORG
10
0.0
20
0.0
30
0.0
9
$PUCSXDIR
10
1.0
20
0.0
30
0.0
9
$PUCSYDIR
10
0.0
20
1.0
30
0.0
9
$PUCSORTHOREF
2

9
$PUCSORTHOVIEW
70
0
9
$PUCSORGTOP
10
0.0
20
0.0
30
0.0
9
$PUCSORGBOTTOM
10
0.0
20
0.0
30
0.0
9
$PUCSORGLEFT
10
0.0
20
0.0
30
0.0
9
$PUCSORGRIGHT
10
0.0
20
0.0
30
0.0
9
$PUCSORGFRONT
10
0.0
20
0.0
30
0.0
9
$PUCSORGBACK
10
0.0
20
0.0
30
0.0
9
$USERI1
70
0
9
$USERI2
70
0
9
$USERI3
70
0
9
$USERI4
70
0
9
$USERI5
70
0
9
$USERR1
40
0.0
9
$USERR2
40
0.0
9
$USERR3
40
0.0
9
$USERR4
40
0.0
9
$USERR5
40
0.0
9
$WORLDVIEW
70
1
9
$SHADEDGE
70
3
9
$SHADEDIF
70
70
9
$TILEMODE
70
1
9
$MAXACTVP
70
64
9
$PINSBASE
10
0.0
20
0.0
30
0.0
9
$PLIMCHECK
70
0
9
$PEXTMIN
10
1.000000000000000E+20
20
1.000000000000000E+20
30
1.000000000000000E+20
9
$PEXTMAX
10
-1.000000000000000E+20
20
-1.000000000000000E+20
30
-1.000000000000000E+20
9
$PLIMMIN
10
0.0
20
0.0
9
$PLIMMAX
10
12.0
20
9.0
9
$UNITMODE
70
0
9
$VISRETAIN
70
1
9
$PLINEGEN
70
0
9
$PSLTSCALE
70
1
9
$TREEDEPTH
70
3020
9
$CMLSTYLE
2
Standard
9
$CMLJUST
70
0
9
$CMLSCALE
40
1.0
9
$PROXYGRAPHICS
70
1
9
$MEASUREMENT
70
0
9
$CELWEIGHT
370
-1
9
$ENDCAPS
280
0
9
$JOINSTYLE
280
0
9
$LWDISPLAY
290
0
9
$INSUNITS
70
4
9
$HYPERLINKBASE
1

9
$STYLESHEET
1

9
$XEDIT
290
1
9
$CEPSNTYPE
380
0
9
$PSTYLEMODE
290
0
9
$FINGERPRINTGUID
2
{FAEB1C30-E019-11D5-929B-00C0DF256EC4}
9
$VERSIONGUID
2
{04C5C4E4-4947-4D90-8812-D401569E61F7}
9
$EXTNAMES
290
1
9
$PSVPSCALE
40
0.0
9
$OLESTARTUP
290
0
0
ENDSEC
0
SECTION
2
CLASSES
0
CLASS
1
ACDBDICTIONARYWDFLT
2
AcDbDictionaryWithDefault
3
ObjectDBX Classes
90
0
280
0
281
0
0
CLASS
1
ACDBPLACEHOLDER
2
AcDbPlaceHolder
3
ObjectDBX Classes
90
0
280
0
281
0
0
CLASS
1
LAYOUT
2
AcDbLayout
3
ObjectDBX Classes
90
0
280
0
281
0
0
CLASS
1
MATERIAL
2
AcDbMaterial
3
ObjectDBX Classes
90
1153
280
0
281
0
0
CLASS
1
VISUALSTYLE
2
AcDbVisualStyle
3
ObjectDBX Classes
90
4095
280
0
281
0
0
CLASS
1
TABLESTYLE
2
AcDbTableStyle
3
ObjectDBX Classes
90
4095
280
0
281
0
0
CLASS
1
SCALE
2
AcDbScale
3
ObjectDBX Classes
90
1153
280
0
281
0
0
CLASS
1
MLEADERSTYLE
2
AcDbMLeaderStyle
3
ACDB_MLEADERSTYLE_CLASS
90
4095
280
0
281
0
0
CLASS
1
DICTIONARYVAR
2
AcDbDictionaryVar
3
ObjectDBX Classes
90
0
280
0
281
0
0
CLASS
1
CELLSTYLEMAP
2
AcDbCellStyleMap
3
ObjectDBX Classes
90
1152
280
0
281
0
0
ENDSEC
0
SECTION
2
TABLES
0
TABLE
2
VPORT
5
24A
330
0
100
AcDbSymbolTable
70
1
0
VPORT
5
26B
330
24A
100
AcDbSymbolTableRecord
100
AcDbViewportTableRecord
2
*Active
70
0
10
0.0
20
0.0
11
1.0
21
1.0
12
0.000000000000000
22
0.000000000000000
13
0.0
23
0.0
14
10.0
24
10.0
15
10.0
25
10.0
16
0.0
26
0.0
36
1.0
17
0.0
27
0.0
37
0.0
40
210.000000000000
41
1.42857142857143
42
1.0
43
0.0
44
0.0
50
0.0
51
0.0000000000007958
71
0
72
100
73
1
74
3
75
0
76
0
77
0
78
1
281
0
65
1
110
0.0
120
0.0
130
0.0
111
1.0
121
0.0
131
0.0
112
0.0
122
1.0
132
0.0
79
0
146
0.0
0
ENDTAB
0
TABLE
2
LTYPE
5
247
330
0
100
AcDbSymbolTable
70
25
0
LTYPE
5
256
330
247
100
AcDbSymbolTableRecord
100
AcDbLinetypeTableRecord
2
ByBlock
70
0
3

72
65
73
0
40
0.0
0
LTYPE
5
257
330
247
100
AcDbSymbolTableRecord
100
AcDbLinetypeTableRecord
2
ByLayer
70
0
3

72
65
73
0
40
0.0
0
LTYPE
5
258
330
247
100
AcDbSymbolTableRecord
100
AcDbLinetypeTableRecord
2
Continuous
70
0
3
Solid line
72
65
73
0
40
0.0
0
LTYPE
5
273
330
247
100
AcDbSymbolTableRecord
100
AcDbLinetypeTableRecord
2
CENTER
70
0
3
Center ____ _ ____ _ ____ _ ____ _ ____ _ ____
72
65
73
4
40
2.0
49
1.25
74
0
49
-0.25
74
0
49
0.25
74
0
49
-0.25
74
0
0
LTYPE
5
274
330
247
100
AcDbSymbolTableRecord
100
AcDbLinetypeTableRecord
2
DASHDOT
70
0
3
Dashdot __ . __ . __ . __ . __ . __ . __ . __
72
65
73
4
40
1.0
49
0.5
74
0
49
-0.25
74
0
49
0.0
74
0
49
-0.25
74
0
0
LTYPE
5
275
330
247
100
AcDbSymbolTableRecord
100
AcDbLinetypeTableRecord
2
DASHED
70
0
3
Dashed __ __ __ __ __ __ __ __ __ __ __ __ __ _
72
65
73
2
40
0.75
49
0.5
74
0
49
-0.25
74
0
0
LTYPE
5
276
330
247
100
AcDbSymbolTableRecord
100
AcDbLinetypeTableRecord
2
HIDDEN
70
0
3
Hidden __ __ __ __ __ __ __ __ __ __ __ __ __ __
72
65
73
2
40
0.375
49
0.25
74
0
49
-0.125
74
0
0
LTYPE
5
277
330
247
100
AcDbSymbolTableRecord
100
AcDbLinetypeTableRecord
2
HIDDEN2
70
0
3
Hidden2 _ _ _ _ _ _ _ _ _ _ _ _ _ _ _ _ _
72
65
73
2
40
0.1875
49
0.125
74
0
49
-0.0625
74
0
0
LTYPE
5
278
330
247
100
AcDbSymbolTableRecord
100
AcDbLinetypeTableRecord
2
BORDER
70
0
3
Border __ __ . __ __ . __ __ . __ __ . __ __ .
72
65
73
6
40
1.75
49
0.5
74
0
49
-0.25
74
0
49
0.5
74
0
49
-0.25
74
0
49
0.0
74
0
49
-0.25
74
0
0
LTYPE
5
279
330
247
100
AcDbSymbolTableRecord
100
AcDbLinetypeTableRecord
2
BORDER2
70
0
3
Border2 __.__.__.__.__.__.__.__.__.__.__.
72
65
73
6
40
0.875
49
0.25
74
0
49
-0.125
74
0
49
0.25
74
0
49
-0.125
74
0
49
0.0
74
0
49
-0.125
74
0
0
LTYPE
5
27A
330
247
100
AcDbSymbolTableRecord
100
AcDbLinetypeTableRecord
2
BORDERX2
70
0
3
Borderx2  ____  ____  .  ____  ____  .  ___
72
65
73
6
40
3.5
49
1.0
74
0
49
-0.5
74
0
49
1.0
74
0
49
-0.5
74
0
49
0.0
74
0
49
-0.5
74
0
0
LTYPE
5
27B
330
247
100
AcDbSymbolTableRecord
100
AcDbLinetypeTableRecord
2
CENTER2
70
0
3
Center2  ___ _ ___ _ ___ _ ___ _ ___ _ ___
72
65
73
4
40
1.125
49
0.75
74
0
49
-0.125
74
0
49
0.125
74
0
49
-0.125
74
0
0
LTYPE
5
27C
330
247
100
AcDbSymbolTableRecord
100
AcDbLinetypeTableRecord
2
CENTERX2
70
0
3
Centerx2  ________  __  ________  __  _____
72
65
73
4
40
4.0
49
2.5
74
0
49
-0.5
74
0
49
0.5
74
0
49
-0.5
74
0
0
LTYPE
5
27D
330
247
100
AcDbSymbolTableRecord
100
AcDbLinetypeTableRecord
2
DASHDOT2
70
0
3
Dashdot2  _._._._._._._._._._._._._._._.
72
65
73
4
40
0.5
49
0.25
74
0
49
-0.125
74
0
49
0.0
74
0
49
-0.125
74
0
0
LTYPE
5
27E
330
247
100
AcDbSymbolTableRecord
100
AcDbLinetypeTableRecord
2
DASHDOTX2
70
0
3
Dashdotx2 ____  .  ____  .  ____  .  ___
72
65
73
4
40
2.0
49
1.0
74
0
49
-0.5
74
0
49
0.0
74
0
49
-0.5
74
0
0
LTYPE
5
27F
330
247
100
AcDbSymbolTableRecord
100
AcDbLinetypeTableRecord
2
DASHED2
70
0
3
Dashed2 _ _ _ _ _ _ _ _ _ _ _ _ _ _ _ _ _
72
65
73
2
40
0.375
49
0.25
74
0
49
-0.125
74
0
0
LTYPE
5
280
330
247
100
AcDbSymbolTableRecord
100
AcDbLinetypeTableRecord
2
DASHEDX2
70
0
3
Dashedx2 ____  ____  ____  ____  ____  ___
72
65
73
2
40
1.5
49
1.0
74
0
49
-0.5
74
0
0
LTYPE
5
281
330
247
100
AcDbSymbolTableRecord
100
AcDbLinetypeTableRecord
2
DIVIDE
70
0
3
Divide ____ . . ____ . . ____ . . ____ . . ____
72
65
73
6
40
1.25
49
0.5
74
0
49
-0.25
74
0
49
0.0
74
0
49
-0.25
74
0
49
0.0
74
0
49
-0.25
74
0
0
LTYPE
5
282
330
247
100
AcDbSymbolTableRecord
100
AcDbLinetypeTableRecord
2
DIVIDE2
70
0
3
Divide2 __..__..__..__..__..__..__..__.._
72
65
73
6
40
0.625
49
0.25
74
0
49
-0.125
74
0
49
0.0
74
0
49
-0.125
74
0
49
0.0
74
0
49
-0.125
74
0
0
LTYPE
5
283
330
247
100
AcDbSymbolTableRecord
100
AcDbLinetypeTableRecord
2
DIVIDEX2
70
0
3
Dividex2 ________  .  .  ________  .  .  _
72
65
73
6
40
2.5
49
1.0
74
0
49
-0.5
74
0
49
0.0
74
0
49
-0.5
74
0
49
0.0
74
0
49
-0.5
74
0
0
LTYPE
5
284
330
247
100
AcDbSymbolTableRecord
100
AcDbLinetypeTableRecord
2
DOT
70
0
3
Dot . . . . . . . . . . . . . . . . . . . . . . . .
72
65
73
2
40
0.25
49
0.0
74
0
49
-0.25
74
0
0
LTYPE
5
285
330
247
100
AcDbSymbolTableRecord
100
AcDbLinetypeTableRecord
2
DOT2
70
0
3
Dot2 ........................................
72
65
73
2
40
0.125
49
0.0
74
0
49
-0.125
74
0
0
LTYPE
5
286
330
247
100
AcDbSymbolTableRecord
100
AcDbLinetypeTableRecord
2
DOTX2
70
0
3
Dotx2 .  .  .  .  .  .  .  .  .  .  .  .  .  .
72
65
73
2
40
0.5
49
0.0
74
0
49
-0.5
74
0
0
LTYPE
5
287
330
247
100
AcDbSymbolTableRecord
100
AcDbLinetypeTableRecord
2
HIDDENX2
70
0
3
Hiddenx2 ____ ____ ____ ____ ____ ____ ____
72
65
73
2
40
0.75
49
0.5
74
0
49
-0.25
74
0
0
LTYPE
5
288
330
247
100
AcDbSymbolTableRecord
100
AcDbLinetypeTableRecord
2
PHANTOM
70
0
3
Phantom ______  __  __  ______  __  __  ______
72
65
73
6
40
2.5
49
1.25
74
0
49
-0.25
74
0
49
0.25
74
0
49
-0.25
74
0
49
0.25
74
0
49
-0.25
74
0
0
LTYPE
5
289
330
247
100
AcDbSymbolTableRecord
100
AcDbLinetypeTableRecord
2
PHANTOM2
70
0
3
Phantom2 ___ _ _ ___ _ _ ___ _ _ ___ _ _
72
65
73
6
40
1.25
49
0.625
74
0
49
-0.125
74
0
49
0.125
74
0
49
-0.125
74
0
49
0.125
74
0
49
-0.125
74
0
0
LTYPE
5
28A
330
247
100
AcDbSymbolTableRecord
100
AcDbLinetypeTableRecord
2
PHANTOMX2
70
0
3
Phantomx2 ____________    ____    ____   _
72
65
73
6
40
5.0
49
2.5
74
0
49
-0.5
74
0
49
0.5
74
0
49
-0.5
74
0
49
0.5
74
0
49
-0.5
74
0
0
ENDTAB
0
TABLE
2
LAYER
5
244
330
0
100
AcDbSymbolTable
70
6
0
LAYER
5
252
330
244
100
AcDbSymbolTableRecord
100
AcDbLayerTableRecord
2
0
70
0
62
7
6
Continuous
370
0
390
251
0
LAYER
5
23F
330
244
100
AcDbSymbolTableRecord
100
AcDbLayerTableRecord
2
Bemassung
70
0
 62
   7
6
Continuous
370
0
390
251
0
LAYER
5
240
330
244
100
AcDbSymbolTableRecord
100
AcDbLayerTableRecord
2
Rahmen
70
0
 62
   7
6
Continuous
370
0
390
251
0
LAYER
5
241
330
244
100
AcDbSymbolTableRecord
100
AcDbLayerTableRecord
2
Geo
70
0
 62
   7
6
Continuous
370
0
390
251
0
LAYER
5
33A
330
244
100
AcDbSymbolTableRecord
100
AcDbLayerTableRecord
2
Defpoints
70
0
62
7
6
Continuous
290
0
370
-3
390
251
0
LAYER
5
57E
330
244
100
AcDbSymbolTableRecord
100
AcDbLayerTableRecord
2
Text
70
0
 62
   7
6
Continuous
370
0
390
251
1001
AcAecLayerStandard
1000

1000

0
ENDTAB
0
TABLE
2
STYLE
5
245
330
0
100
AcDbSymbolTable
70
2
0
STYLE
5
253
330
245
100
AcDbSymbolTableRecord
100
AcDbTextStyleTableRecord
2
Standard
70
0
40
0.0
41
1.0
50
0.0
71
0
42
0.2
3
Arial
4

1001
ACAD
1000
Arial
1071
0
0
STYLE
5
132
330
245
100
AcDbSymbolTableRecord
100
AcDbTextStyleTableRecord
2
Beschriftung
70
0
40
0.0
41
1.0
50
0.0
71
0
42
0.2
3
Arial
4

1001
ACAD
1000
Arial
1071
0
1001
AcadAnnotative
1000
AnnotativeData
1070
1
1070
1
0
ENDTAB
0
TABLE
2
VIEW
5
248
330
0
100
AcDbSymbolTable
70
0
0
ENDTAB
0
TABLE
2
UCS
5
249
330
0
100
AcDbSymbolTable
70
0
0
ENDTAB
0
TABLE
2
APPID
5
24B
330
0
100
AcDbSymbolTable
70
13
0
APPID
5
254
330
24B
100
AcDbSymbolTableRecord
100
AcDbRegAppTableRecord
2
ACAD
70
0
0
APPID
5
26C
330
24B
100
AcDbSymbolTableRecord
100
AcDbRegAppTableRecord
2
VD_INVISIBLE_NOT_FOR_READ
70
0
0
APPID
5
26D
330
24B
100
AcDbSymbolTableRecord
100
AcDbRegAppTableRecord
2
VD_TEMPHATCH
70
0
0
APPID
5
26E
330
24B
100
AcDbSymbolTableRecord
100
AcDbRegAppTableRecord
2
VDEXTRAPARAM
70
0
0
APPID
5
26F
330
24B
100
AcDbSymbolTableRecord
100
AcDbRegAppTableRecord
2
PE_URL
70
0
0
APPID
5
270
330
24B
100
AcDbSymbolTableRecord
100
AcDbRegAppTableRecord
2
VD_UNKNOWN
70
0
0
APPID
5
28F
330
24B
100
AcDbSymbolTableRecord
100
AcDbRegAppTableRecord
2
AcadAnnotative
70
0
0
APPID
5
290
330
24B
100
AcDbSymbolTableRecord
100
AcDbRegAppTableRecord
2
ACAD_DSTYLE_DIMJAG
70
0
0
APPID
5
291
330
24B
100
AcDbSymbolTableRecord
100
AcDbRegAppTableRecord
2
ACAD_DSTYLE_DIMTALN
70
0
0
APPID
5
293
330
24B
100
AcDbSymbolTableRecord
100
AcDbRegAppTableRecord
2
ACAD_PSEXT
70
0
0
APPID
5
42A
330
24B
100
AcDbSymbolTableRecord
100
AcDbRegAppTableRecord
2
ACAD_MLEADERVER
70
0
0
APPID
5
532
330
24B
100
AcDbSymbolTableRecord
100
AcDbRegAppTableRecord
2
ACAD_EXEMPT_FROM_CAD_STANDARDS
70
0
0
APPID
5
57F
330
24B
100
AcDbSymbolTableRecord
100
AcDbRegAppTableRecord
2
AcAecLayerStandard
70
0
0
ENDTAB
0
TABLE
2
DIMSTYLE
5
24C
330
0
100
AcDbSymbolTable
70
3
100
AcDbDimStyleTable
71
2
340
27
340
269
0
DIMSTYLE
105
269
330
24C
100
AcDbSymbolTableRecord
100
AcDbDimStyleTableRecord
2
Standard
70
0
172
1
174
1
288
1
340
253
342
23C
0
DIMSTYLE
105
137
330
24C
100
AcDbSymbolTableRecord
100
AcDbDimStyleTableRecord
2
Beschriftung
70
0
41
2.5
42
0.625
44
1.25
73
0
74
0
77
1
140
2.5
147
0.625
172
1
174
1
271
2
288
1
340
253
342
23C
1001
AcadAnnotative
1000
AnnotativeData
1070
1
1070
1
1001
ACAD_DSTYLE_DIMJAG
1070
388
1040
1.5
1001
ACAD_DSTYLE_DIMTALN
1070
392
1070
0
0
DIMSTYLE
105
27
102
{ACAD_REACTORS
330
F1000D
330
F10012
330
F1001C
330
F10003
330
F10008
330
F10017
102
}
330
24C
100
AcDbSymbolTableRecord
100
AcDbDimStyleTableRecord
2
BEM-ISBE
70
0
41
2.5
42
0.625
44
1.25
48
0.000000001
71
1
73
0
74
0
77
1
140
2.5
144
1.00000000000000
146
0.5
147
0.625
171
 3
172
 1
179
 3
271
 3
272
 3
274
 3
340
253
342
23C
1001
ACAD_DSTYLE_DIMJAG
1070
388
1040
1.5
1001
ACAD_DSTYLE_DIMTALN
1070
392
1070
1
0
ENDTAB
0
TABLE
2
BLOCK_RECORD
5
243
330
0
100
AcDbSymbolTable
70
5
0
BLOCK_RECORD
5
261
330
243
100
AcDbSymbolTableRecord
100
AcDbBlockTableRecord
2
*Model_Space
340
FD0
0
BLOCK_RECORD
5
25D
330
243
100
AcDbSymbolTableRecord
100
AcDbBlockTableRecord
2
*Paper_Space
340
FD1
0
BLOCK_RECORD
5
265
330
243
100
AcDbSymbolTableRecord
100
AcDbBlockTableRecord
2
*Paper_Space0
340
0
0
BLOCK_RECORD
5
23C
330
243
100
AcDbSymbolTableRecord
100
AcDbBlockTableRecord
2
VDDIM_DEFAULT
340
0
102
{BLKREFS
102
}
0
BLOCK_RECORD
5
23E
330
243
100
AcDbSymbolTableRecord
100
AcDbBlockTableRecord
2
VDDIM_NONE
340
0
0
BLOCK_RECORD
5
F1000C
330
243
100
AcDbSymbolTableRecord
100
AcDbBlockTableRecord
2
*D5
340
0
0
BLOCK_RECORD
5
F10011
330
243
100
AcDbSymbolTableRecord
100
AcDbBlockTableRecord
2
*D6
340
0
0
BLOCK_RECORD
5
F1001B
330
243
100
AcDbSymbolTableRecord
100
AcDbBlockTableRecord
2
*D8
340
0
0
BLOCK_RECORD
5
F10002
330
243
100
AcDbSymbolTableRecord
100
AcDbBlockTableRecord
2
*D3
340
0
0
BLOCK_RECORD
5
F10007
330
243
100
AcDbSymbolTableRecord
100
AcDbBlockTableRecord
2
*D4
340
0
0
BLOCK_RECORD
5
F10016
330
243
100
AcDbSymbolTableRecord
100
AcDbBlockTableRecord
2
*D7
340
0
0
ENDTAB
0
ENDSEC
0
SECTION
2
BLOCKS
0
BLOCK
5
262
330
261
100
AcDbEntity
8
0
100
AcDbBlockBegin
2
*Model_Space
70
0
10
0.0
20
0.0
30
0.0
3
*Model_Space
1

0
ENDBLK
5
263
330
261
100
AcDbEntity
8
0
100
AcDbBlockEnd
0
BLOCK
5
25E
330
25D
100
AcDbEntity
67
1
8
0
100
AcDbBlockBegin
2
*Paper_Space
70
0
10
0.0
20
0.0
30
0.0
3
*Paper_Space
1

0
ENDBLK
5
25F
330
25D
100
AcDbEntity
67
1
8
0
100
AcDbBlockEnd
0
BLOCK
5
266
330
265
100
AcDbEntity
8
0
100
AcDbBlockBegin
2
*Paper_Space0
70
0
10
0.0
20
0.0
30
0.0
3
*Paper_Space0
1

0
VIEWPORT
5
296
102
{ACAD_XDICTIONARY
360
58E
102
}
330
265
100
AcDbEntity
8
0
60
1
100
AcDbViewport
10
0.0
20
0.0
30
0.0
40
10.0
41
10.0
69
0
12
0.0
22
0.0
13
0.0
23
0.0
14
1.0
24
1.0
15
0.0
25
0.0
16
0.0
26
0.0
36
1.0
17
0.0
27
0.0
37
0.0
42
0.0
43
0.0
44
0.0
45
10.0
50
0.0
51
0.0000000000007958
72
100
90
163872
1

281
0
71
0
74
0
110
0.0
120
0.0
130
0.0
111
1.0
121
0.0
131
0.0
112
0.0
122
1.0
132
0.0
79
0
146
0.0
1001
VD_INVISIBLE_NOT_FOR_READ
1000
VD_INVISIBLE_NOT_FOR_READ
0
VIEWPORT
5
297
102
{ACAD_XDICTIONARY
360
590
102
}
330
265
100
AcDbEntity
8
0
60
1
100
AcDbViewport
10
0.0
20
0.0
30
0.0
40
10.0
41
10.0
69
0
12
0.0
22
0.0
13
0.0
23
0.0
14
1.0
24
1.0
15
0.0
25
0.0
16
0.0
26
0.0
36
1.0
17
0.0
27
0.0
37
0.0
42
0.0
43
0.0
44
0.0
45
10.0
50
0.0
51
0.0000000000007958
72
100
90
163872
1

281
0
71
0
74
0
110
0.0
120
0.0
130
0.0
111
1.0
121
0.0
131
0.0
112
0.0
122
1.0
132
0.0
79
0
146
0.0
1001
VD_INVISIBLE_NOT_FOR_READ
1000
VD_INVISIBLE_NOT_FOR_READ
0
ENDBLK
5
267
330
265
100
AcDbEntity
8
0
100
AcDbBlockEnd
0
BLOCK
5
28B
330
23C
100
AcDbEntity
8
0
100
AcDbBlockBegin
2
VDDIM_DEFAULT
70
0
10
0.0
20
0.0
30
0.0
3
VDDIM_DEFAULT
1

0
LWPOLYLINE
5
23D
330
23C
100
AcDbEntity
8
0
6
Continuous
62
0
100
AcDbPolyline
90
4
70
0
43
0.0
10
0.0
20
0.0
10
-1.0
20
-0.1665
10
-1.0
20
0.1665
10
0.0
20
0.0
1001
VDEXTRAPARAM
1071
1
1071
0
1071
0
1040
1.0
1000

1000

1040
0.0
1040
0.0
0
HATCH
5
292
330
23C
100
AcDbEntity
8
0
6
Continuous
62
0
100
AcDbHatch
10
0.0
20
0.0
30
0.0
210
0.0
220
0.0
230
1.0
2
SOLID
70
1
71
0
91
1
92
2
72
0
73
1
93
3
10
0.0
20
0.0
10
-1.0
20
-0.1665
10
-1.0
20
0.1665
97
0
75
0
76
1
98
1
10
0.0
20
0.0
1001
VDEXTRAPARAM
1071
1
1071
0
1071
0
1040
1.0
1000

1000

1040
0.0
1040
0.0
1001
VD_TEMPHATCH
1000
VD_TEMPHATCH
0
ENDBLK
5
28C
330
23C
100
AcDbEntity
8
0
100
AcDbBlockEnd
0
BLOCK
5
28D
330
23E
100
AcDbEntity
8
0
100
AcDbBlockBegin
2
VDDIM_NONE
70
0
10
0.0
20
0.0
30
0.0
3
VDDIM_NONE
1

0
ENDBLK
5
28E
330
23E
100
AcDbEntity
8
0
100
AcDbBlockEnd
  0
BLOCK
  5
F10020
330
F1000C
100
AcDbEntity
  8
0
100
AcDbBlockBegin
  2
*D5
 70
     1
 10
0.0
 20
0.0
 30
0.0
  3
*D5
  1

  0
LINE
  5
F10021
330
F1000C
100
AcDbEntity
  8
Bemassung
 62
     0
370
    -2
100
AcDbLine
10
-6.04119687771031
20
-0.678924544666108
30
0.000000000000000
11
-6.04119687771031
21
-8.07892454466611
31
0.000000000000000
  0
LINE
  5
F10022
330
F1000C
100
AcDbEntity
  8
Bemassung
 62
     0
370
    -2
100
AcDbLine
10
-41.0411968777103
20
-8.07892454466611
30
0.000000000000000
11
-41.0411968777103
21
31.9210754553339
31
0.000000000000000
  0
LINE
  5
F10023
330
F1000C
100
AcDbEntity
  8
Bemassung
 62
     0
370
    -2
100
AcDbLine
10
-6.04119687771031
20
-6.07892454466611
30
0.000000000000000
11
-41.0411968777103
21
-6.07892454466611
31
0.000000000000000
  0
INSERT
  5
F10024
330
F1000C
100
AcDbEntity
  8
Bemassung
 62
     0
370
    -2
100
AcDbBlockReference
  2
VDDIM_DEFAULT
10
-6.04119687771031
20
-6.07892454466611
30
0.000000000000000
 41
2.50000000000000
 42
2.50000000000000
 43
2.50000000000000
  0
INSERT
  5
F10025
330
F1000C
100
AcDbEntity
  8
Bemassung
 62
     0
370
    -2
100
AcDbBlockReference
  2
VDDIM_DEFAULT
10
-41.0411968777103
20
-6.07892454466611
30
0.000000000000000
 41
2.50000000000000
 42
2.50000000000000
 43
2.50000000000000
 50
180.000000000000
  0
MTEXT
  5
F10026
330
F1000C
100
AcDbEntity
  8
Bemassung
 62
     0
100
AcDbMText
10
-23.5411968777103
20
-5.41225787799944
30
0.000000000000000
 40
2.50000000000000
 41
0.0
 71
     8
 72
     1
  1
35
 11
1.00000000000000
 21
0.000000000000000
 31
0.0
 73
     1
 44
1.0
1001
ACAD
1000
MTEXTBEGIN
1070
73
1070
1
1070
44
1040
1.0
1070
74
1070
0
1000
MTEXTEND
  0
POINT
  5
F10027
330
F1000C
100
AcDbEntity
  8
Bemassung
 62
     0
100
AcDbPoint
10
-6.04119687771031
20
-0.678924544666108
30
0.000000000000000
  0
POINT
  5
F10028
330
F1000C
100
AcDbEntity
  8
Bemassung
 62
     0
100
AcDbPoint
10
-41.0411968777103
20
-8.07892454466611
30
0.000000000000000
  0
ENDBLK
  5
F10029
330
F1000C
100
AcDbEntity
  8
0
100
AcDbBlockEnd
  0
BLOCK
  5
F1002A
330
F10011
100
AcDbEntity
  8
0
100
AcDbBlockBegin
  2
*D6
 70
     1
 10
0.0
 20
0.0
 30
0.0
  3
*D6
  1

  0
LINE
  5
F1002B
330
F10011
100
AcDbEntity
  8
Bemassung
 62
     0
370
    -2
100
AcDbLine
10
51.9588031222897
20
13.9210754553339
30
0.000000000000000
11
51.9588031222897
21
31.9210754553339
31
0.000000000000000
  0
LINE
  5
F1002C
330
F10011
100
AcDbEntity
  8
Bemassung
 62
     0
370
    -2
100
AcDbLine
10
-41.0411968777103
20
-8.07892454466611
30
0.000000000000000
11
-41.0411968777103
21
31.9210754553339
31
0.000000000000000
  0
LINE
  5
F1002D
330
F10011
100
AcDbEntity
  8
Bemassung
 62
     0
370
    -2
100
AcDbLine
10
51.9588031222897
20
29.9210754553339
30
0.000000000000000
11
-41.0411968777103
21
29.9210754553339
31
0.000000000000000
  0
INSERT
  5
F1002E
330
F10011
100
AcDbEntity
  8
Bemassung
 62
     0
370
    -2
100
AcDbBlockReference
  2
VDDIM_DEFAULT
10
51.9588031222897
20
29.9210754553339
30
0.000000000000000
 41
2.50000000000000
 42
2.50000000000000
 43
2.50000000000000
  0
INSERT
  5
F1002F
330
F10011
100
AcDbEntity
  8
Bemassung
 62
     0
370
    -2
100
AcDbBlockReference
  2
VDDIM_DEFAULT
10
-41.0411968777103
20
29.9210754553339
30
0.000000000000000
 41
2.50000000000000
 42
2.50000000000000
 43
2.50000000000000
 50
180.000000000000
  0
MTEXT
  5
F10030
330
F10011
100
AcDbEntity
  8
Bemassung
 62
     0
100
AcDbMText
10
5.45880312228969
20
30.5877421220006
30
0.000000000000000
 40
2.50000000000000
 41
0.0
 71
     8
 72
     1
  1
93
 11
1.00000000000000
 21
0.000000000000000
 31
0.0
 73
     1
 44
1.0
1001
ACAD
1000
MTEXTBEGIN
1070
73
1070
1
1070
44
1040
1.0
1070
74
1070
0
1000
MTEXTEND
  0
POINT
  5
F10031
330
F10011
100
AcDbEntity
  8
Bemassung
 62
     0
100
AcDbPoint
10
51.9588031222897
20
13.9210754553339
30
0.000000000000000
  0
POINT
  5
F10032
330
F10011
100
AcDbEntity
  8
Bemassung
 62
     0
100
AcDbPoint
10
-41.0411968777103
20
-8.07892454466611
30
0.000000000000000
  0
ENDBLK
  5
F10033
330
F10011
100
AcDbEntity
  8
0
100
AcDbBlockEnd
  0
BLOCK
  5
F10034
330
F1001B
100
AcDbEntity
  8
0
100
AcDbBlockBegin
  2
*D8
 70
     1
 10
0.0
 20
0.0
 30
0.0
  3
*D8
  1

  0
LINE
  5
F10035
330
F1001B
100
AcDbEntity
  8
Bemassung
 62
     0
370
    -2
100
AcDbLine
10
-41.0411968777103
20
14.9210754553339
30
0.000000000000000
11
-41.0411968777103
21
22.3347788378144
31
0.000000000000000
  0
LINE
  5
F10036
330
F1001B
100
AcDbEntity
  8
Bemassung
 62
     0
370
    -2
100
AcDbLine
10
3.95880312228969
20
14.5210754553339
30
0.000000000000000
11
3.95880312228969
21
22.3347788378144
31
0.000000000000000
  0
LINE
  5
F10037
330
F1001B
100
AcDbEntity
  8
Bemassung
 62
     0
370
    -2
100
AcDbLine
10
-41.0411968777103
20
20.3347788378144
30
0.000000000000000
11
3.95880312228969
21
20.3347788378144
31
0.000000000000000
  0
INSERT
  5
F10038
330
F1001B
100
AcDbEntity
  8
Bemassung
 62
     0
370
    -2
100
AcDbBlockReference
  2
VDDIM_DEFAULT
10
-41.0411968777103
20
20.3347788378144
30
0.000000000000000
 41
2.50000000000000
 42
2.50000000000000
 43
2.50000000000000
 50
180.000000000000
  0
INSERT
  5
F10039
330
F1001B
100
AcDbEntity
  8
Bemassung
 62
     0
370
    -2
100
AcDbBlockReference
  2
VDDIM_DEFAULT
10
3.95880312228969
20
20.3347788378144
30
0.000000000000000
 41
2.50000000000000
 42
2.50000000000000
 43
2.50000000000000
  0
MTEXT
  5
F1003A
330
F1001B
100
AcDbEntity
  8
Bemassung
 62
     0
100
AcDbMText
10
-18.5411968777103
20
21.0014455044811
30
0.000000000000000
 40
2.50000000000000
 41
0.0
 71
     8
 72
     1
  1
45
 11
1.00000000000000
 21
0.000000000000000
 31
0.0
 73
     1
 44
1.0
1001
ACAD
1000
MTEXTBEGIN
1070
73
1070
1
1070
44
1040
1.0
1070
74
1070
0
1000
MTEXTEND
  0
POINT
  5
F1003B
330
F1001B
100
AcDbEntity
  8
Bemassung
 62
     0
100
AcDbPoint
10
-41.0411968777103
20
14.9210754553339
30
0.000000000000000
  0
POINT
  5
F1003C
330
F1001B
100
AcDbEntity
  8
Bemassung
 62
     0
100
AcDbPoint
10
3.95880312228969
20
14.5210754553339
30
0.000000000000000
  0
ENDBLK
  5
F1003D
330
F1001B
100
AcDbEntity
  8
0
100
AcDbBlockEnd
  0
BLOCK
  5
F1003E
330
F10002
100
AcDbEntity
  8
0
100
AcDbBlockBegin
  2
*D3
 70
     1
 10
0.0
 20
0.0
 30
0.0
  3
*D3
  1

  0
LINE
  5
F1003F
330
F10002
100
AcDbEntity
  8
Bemassung
 62
     0
370
    -2
100
AcDbLine
10
-41.0411968777103
20
-1.07892454466611
30
0.000000000000000
11
-53.0411968777103
21
-1.07892454466611
31
0.000000000000000
  0
LINE
  5
F10040
330
F10002
100
AcDbEntity
  8
Bemassung
 62
     0
370
    -2
100
AcDbLine
10
-41.0411968777103
20
14.9210754553339
30
0.000000000000000
11
-53.0411968777103
21
14.9210754553339
31
0.000000000000000
  0
LINE
  5
F10041
330
F10002
100
AcDbEntity
  8
Bemassung
 62
     0
370
    -2
100
AcDbLine
10
-51.0411968777103
20
-1.07892454466611
30
0.000000000000000
11
-51.0411968777103
21
14.9210754553339
31
0.000000000000000
  0
INSERT
  5
F10042
330
F10002
100
AcDbEntity
  8
Bemassung
 62
     0
370
    -2
100
AcDbBlockReference
  2
VDDIM_DEFAULT
10
-51.0411968777103
20
-1.07892454466611
30
0.000000000000000
 41
2.50000000000000
 42
2.50000000000000
 43
2.50000000000000
 50
270.000000000000
  0
INSERT
  5
F10043
330
F10002
100
AcDbEntity
  8
Bemassung
 62
     0
370
    -2
100
AcDbBlockReference
  2
VDDIM_DEFAULT
10
-51.0411968777103
20
14.9210754553339
30
0.000000000000000
 41
2.50000000000000
 42
2.50000000000000
 43
2.50000000000000
 50
90.0000000000000
  0
MTEXT
  5
F10044
330
F10002
100
AcDbEntity
  8
Bemassung
 62
     0
100
AcDbMText
10
-51.7078635443770
20
6.92107545533389
30
0.000000000000000
 40
2.50000000000000
 41
0.0
 71
     8
 72
     1
  1
Ø16
 11
6.12323399573677e-17
 21
1.00000000000000
 31
0.0
 73
     1
 44
1.0
1001
ACAD
1000
MTEXTBEGIN
1070
73
1070
1
1070
44
1040
1.0
1070
74
1070
0
1000
MTEXTEND
  0
POINT
  5
F10045
330
F10002
100
AcDbEntity
  8
Bemassung
 62
     0
100
AcDbPoint
10
-41.0411968777103
20
-1.07892454466611
30
0.000000000000000
  0
POINT
  5
F10046
330
F10002
100
AcDbEntity
  8
Bemassung
 62
     0
100
AcDbPoint
10
-41.0411968777103
20
14.9210754553339
30
0.000000000000000
  0
ENDBLK
  5
F10047
330
F10002
100
AcDbEntity
  8
0
100
AcDbBlockEnd
  0
BLOCK
  5
F10048
330
F10007
100
AcDbEntity
  8
0
100
AcDbBlockBegin
  2
*D4
 70
     1
 10
0.0
 20
0.0
 30
0.0
  3
*D4
  1

  0
LINE
  5
F10049
330
F10007
100
AcDbEntity
  8
Bemassung
 62
     0
370
    -2
100
AcDbLine
10
50.9588031222897
20
-1.07892454466611
30
0.000000000000000
11
63.9588031222897
21
-1.07892454466611
31
0.000000000000000
  0
LINE
  5
F1004A
330
F10007
100
AcDbEntity
  8
Bemassung
 62
     0
370
    -2
100
AcDbLine
10
50.9588031222897
20
14.9210754553339
30
0.000000000000000
11
63.9588031222897
21
14.9210754553339
31
0.000000000000000
  0
LINE
  5
F1004B
330
F10007
100
AcDbEntity
  8
Bemassung
 62
     0
370
    -2
100
AcDbLine
10
61.9588031222897
20
-1.07892454466611
30
0.000000000000000
11
61.9588031222897
21
14.9210754553339
31
0.000000000000000
  0
INSERT
  5
F1004C
330
F10007
100
AcDbEntity
  8
Bemassung
 62
     0
370
    -2
100
AcDbBlockReference
  2
VDDIM_DEFAULT
10
61.9588031222897
20
-1.07892454466611
30
0.000000000000000
 41
2.50000000000000
 42
2.50000000000000
 43
2.50000000000000
 50
270.000000000000
  0
INSERT
  5
F1004D
330
F10007
100
AcDbEntity
  8
Bemassung
 62
     0
370
    -2
100
AcDbBlockReference
  2
VDDIM_DEFAULT
10
61.9588031222897
20
14.9210754553339
30
0.000000000000000
 41
2.50000000000000
 42
2.50000000000000
 43
2.50000000000000
 50
90.0000000000000
  0
MTEXT
  5
F1004E
330
F10007
100
AcDbEntity
  8
Bemassung
 62
     0
100
AcDbMText
10
61.2921364556230
20
6.92107545533389
30
0.000000000000000
 40
2.50000000000000
 41
0.0
 71
     8
 72
     1
  1
Ø16h6
 11
6.12323399573677e-17
 21
1.00000000000000
 31
0.0
 73
     1
 44
1.0
  0
POINT
  5
F1004F
330
F10007
100
AcDbEntity
  8
Bemassung
 62
     0
100
AcDbPoint
10
50.9588031222897
20
-1.07892454466611
30
0.000000000000000
  0
POINT
  5
F10050
330
F10007
100
AcDbEntity
  8
Bemassung
 62
     0
100
AcDbPoint
10
50.9588031222897
20
14.9210754553339
30
0.000000000000000
  0
ENDBLK
  5
F10051
330
F10007
100
AcDbEntity
  8
0
100
AcDbBlockEnd
  0
BLOCK
  5
F10052
330
F10016
100
AcDbEntity
  8
0
100
AcDbBlockBegin
  2
*D7
 70
     1
 10
0.0
 20
0.0
 30
0.0
  3
*D7
  1

  0
LINE
  5
F10053
330
F10016
100
AcDbEntity
  8
Bemassung
 62
     0
370
    -2
100
AcDbLine
10
-6.04119687771031
20
14.5210754553339
30
0.000000000000000
11
4.46109861214936
21
14.5210754553339
31
0.000000000000000
  0
LINE
  5
F10054
330
F10016
100
AcDbEntity
  8
Bemassung
 62
     0
370
    -2
100
AcDbLine
10
-6.04119687771031
20
-0.678924544666108
30
0.000000000000000
11
4.46109861214936
21
-0.678924544666108
31
0.000000000000000
  0
LINE
  5
F10055
330
F10016
100
AcDbEntity
  8
Bemassung
 62
     0
370
    -2
100
AcDbLine
10
2.46109861214936
20
14.5210754553339
30
0.000000000000000
11
2.46109861214936
21
-19.7614917606245
31
0.000000000000000
  0
INSERT
  5
F10056
330
F10016
100
AcDbEntity
  8
Bemassung
 62
     0
370
    -2
100
AcDbBlockReference
  2
VDDIM_DEFAULT
10
2.46109861214936
20
14.5210754553339
30
0.000000000000000
 41
2.50000000000000
 42
2.50000000000000
 43
2.50000000000000
 50
90.0000000000000
  0
INSERT
  5
F10057
330
F10016
100
AcDbEntity
  8
Bemassung
 62
     0
370
    -2
100
AcDbBlockReference
  2
VDDIM_DEFAULT
10
2.46109861214936
20
-0.678924544666108
30
0.000000000000000
 41
2.50000000000000
 42
2.50000000000000
 43
2.50000000000000
 50
270.000000000000
  0
MTEXT
  5
F10058
330
F10016
100
AcDbEntity
  8
Bemassung
 62
     0
100
AcDbMText
10
1.79443194548270
20
-14.8545533391153
30
0.000000000000000
 40
2.50000000000000
 41
0.0
 71
     8
 72
     1
  1
Ø15.2
 11
6.12323399573677e-17
 21
1.00000000000000
 31
0.0
 73
     1
 44
1.0
1001
ACAD
1000
MTEXTBEGIN
1070
73
1070
1
1070
44
1040
1.0
1070
74
1070
0
1000
MTEXTEND
  0
POINT
  5
F10059
330
F10016
100
AcDbEntity
  8
Bemassung
 62
     0
100
AcDbPoint
10
-6.04119687771031
20
14.5210754553339
30
0.000000000000000
  0
POINT
  5
F1005A
330
F10016
100
AcDbEntity
  8
Bemassung
 62
     0
100
AcDbPoint
10
-6.04119687771031
20
-0.678924544666108
30
0.000000000000000
  0
ENDBLK
  5
F1005B
330
F10016
100
AcDbEntity
  8
0
100
AcDbBlockEnd
0
ENDSEC
0
SECTION
2
ENTITIES
  0
DIMENSION
  5
F1000D
330
261
100
AcDbEntity
  8
Bemassung
100
AcDbDimension
  2
*D5
10
-41.0411968777103
20
-6.07892454466611
30
0.000000000000000
11
-23.5411968777103
21
-5.41225787799944
31
0.000000000000000
 70
32
 1
35
 71
     8
  3
BEM-ISBE
100
AcDbAlignedDimension
13
-6.04119687771031
23
-0.678924544666108
33
0.000000000000000
14
-41.0411968777103
24
-8.07892454466611
34
0.000000000000000
100
AcDbRotatedDimension
1001
ACAD
1000
DSTYLE
1002
{
1070
284
1070
8
1070
78
1070
8
1070
144
1040
1.00000000000000
1070
147
1040
0.625
1070
 72
1070
 0
1070
 71
1070
 0
1002
}
  0
DIMENSION
  5
F10012
330
261
100
AcDbEntity
  8
Bemassung
100
AcDbDimension
  2
*D6
10
-41.0411968777103
20
29.9210754553339
30
0.000000000000000
11
5.45880312228969
21
30.5877421220006
31
0.000000000000000
 70
32
 1
93
 71
     8
  3
BEM-ISBE
100
AcDbAlignedDimension
13
51.9588031222897
23
13.9210754553339
33
0.000000000000000
14
-41.0411968777103
24
-8.07892454466611
34
0.000000000000000
100
AcDbRotatedDimension
1001
ACAD
1000
DSTYLE
1002
{
1070
284
1070
8
1070
78
1070
8
1070
144
1040
1.00000000000000
1070
147
1040
0.625
1070
 72
1070
 0
1070
 71
1070
 0
1002
}
  0
DIMENSION
  5
F1001C
330
261
100
AcDbEntity
  8
Bemassung
100
AcDbDimension
  2
*D8
10
3.95880312228969
20
20.3347788378144
30
0.000000000000000
11
-18.5411968777103
21
21.0014455044811
31
0.000000000000000
 70
32
 1
45
 71
     8
  3
BEM-ISBE
100
AcDbAlignedDimension
13
-41.0411968777103
23
14.9210754553339
33
0.000000000000000
14
3.95880312228969
24
14.5210754553339
34
0.000000000000000
100
AcDbRotatedDimension
1001
ACAD
1000
DSTYLE
1002
{
1070
284
1070
8
1070
78
1070
8
1070
144
1040
1.00000000000000
1070
147
1040
0.625
1070
 72
1070
 0
1070
 71
1070
 0
1002
}
  0
DIMENSION
  5
F10003
330
261
100
AcDbEntity
  8
Bemassung
100
AcDbDimension
  2
*D3
10
-51.0411968777103
20
14.9210754553339
30
0.000000000000000
11
-51.7078635443770
21
6.92107545533389
31
0.000000000000000
 70
32
 1
Ø16
 71
     8
  3
BEM-ISBE
100
AcDbAlignedDimension
13
-41.0411968777103
23
-1.07892454466611
33
0.000000000000000
14
-41.0411968777103
24
14.9210754553339
34
0.000000000000000
50
90.0000000000000
100
AcDbRotatedDimension
1001
ACAD
1000
DSTYLE
1002
{
1070
284
1070
8
1070
78
1070
8
1070
144
1040
1.00000000000000
1070
147
1040
0.625
1070
 72
1070
 0
1070
 71
1070
 0
1002
}
  0
DIMENSION
  5
F10008
330
261
100
AcDbEntity
  8
Bemassung
100
AcDbDimension
  2
*D4
10
61.9588031222897
20
14.9210754553339
30
0.000000000000000
11
61.2921364556230
21
6.92107545533389
31
0.000000000000000
 70
32
 1
Ø16h6
 71
     8
  3
BEM-ISBE
100
AcDbAlignedDimension
13
50.9588031222897
23
-1.07892454466611
33
0.000000000000000
14
50.9588031222897
24
14.9210754553339
34
0.000000000000000
50
90.0000000000000
100
AcDbRotatedDimension
1001
ACAD
1000
DSTYLE
1002
{
1070
284
1070
8
1070
78
1070
8
1070
144
1040
1.00000000000000
1070
147
1040
0.625
1070
 72
1070
 0
1070
 71
1070
 0
1002
}
  0
DIMENSION
  5
F10017
330
261
100
AcDbEntity
  8
Bemassung
100
AcDbDimension
  2
*D7
10
2.46109861214936
20
-0.678924544666108
30
0.000000000000000
11
1.79443194548270
21
-14.8545533391153
31
0.000000000000000
 70
32
 1
Ø15.2
 71
     8
  3
BEM-ISBE
100
AcDbAlignedDimension
13
-6.04119687771031
23
14.5210754553339
33
0.000000000000000
14
-6.04119687771031
24
-0.678924544666108
34
0.000000000000000
50
90.0000000000000
100
AcDbRotatedDimension
1001
ACAD
1000
DSTYLE
1002
{
1070
284
1070
8
1070
78
1070
8
1070
144
1040
1.00000000000000
1070
147
1040
0.625
1070
 72
1070
 0
1070
 71
1070
 0
1002
}
  0
LINE
  5
F1005C
330
F1005D
100
AcDbEntity
8
Geo
100
AcDbLine
10
-41.0411968777103
20
6.92107545533389
30
0.000000000000000
11
-41.0411968777103
21
14.9210754553339
31
0.000000000000000
  0
LINE
  5
F1005E
330
F1005F
100
AcDbEntity
8
Geo
100
AcDbLine
10
-41.0411968777103
20
14.9210754553339
30
0.000000000000000
11
-6.04119687771031
21
14.9210754553339
31
0.000000000000000
  0
LINE
  5
F10060
330
F10061
100
AcDbEntity
8
Geo
100
AcDbLine
10
-6.04119687771031
20
14.9210754553339
30
0.000000000000000
11
-6.04119687771031
21
14.5210754553339
31
0.000000000000000
  0
LINE
  5
F10062
330
F10063
100
AcDbEntity
8
Geo
100
AcDbLine
10
-6.04119687771031
20
14.5210754553339
30
0.000000000000000
11
3.95880312228969
21
14.5210754553339
31
0.000000000000000
  0
LINE
  5
F10064
330
F10065
100
AcDbEntity
8
Geo
100
AcDbLine
10
3.95880312228969
20
14.5210754553339
30
0.000000000000000
11
3.95880312228969
21
14.9210754553339
31
0.000000000000000
  0
LINE
  5
F10066
330
F10067
100
AcDbEntity
8
Geo
100
AcDbLine
10
3.95880312228969
20
14.9210754553339
30
0.000000000000000
11
50.9588031222897
21
14.9210754553339
31
0.000000000000000
  0
LINE
  5
F10068
330
F10069
100
AcDbEntity
8
Geo
100
AcDbLine
10
50.9588031222897
20
14.9210754553339
30
0.000000000000000
11
51.9588031222897
21
13.9210754553339
31
0.000000000000000
  0
LINE
  5
F1006A
330
F1006B
100
AcDbEntity
8
Geo
100
AcDbLine
10
-41.0411968777103
20
14.9210754553339
30
0.000000000000000
11
-40.9411968777103
21
14.9206354042488
31
0.000000000000000
  0
LINE
  5
F1006C
330
F1006D
100
AcDbEntity
8
Geo
100
AcDbLine
10
-40.9411968777103
20
14.9206354042488
30
0.000000000000000
11
-40.8411968777103
21
14.9193152994048
31
0.000000000000000
  0
LINE
  5
F1006E
330
F1006F
100
AcDbEntity
8
Geo
100
AcDbLine
10
-40.8411968777103
20
14.9193152994048
30
0.000000000000000
11
-40.7411968777103
21
14.9171152860304
31
0.000000000000000
  0
LINE
  5
F10070
330
F10071
100
AcDbEntity
8
Geo
100
AcDbLine
10
-40.7411968777103
20
14.9171152860304
30
0.000000000000000
11
-40.6411968777103
21
14.9140356061549
31
0.000000000000000
  0
LINE
  5
F10072
330
F10073
100
AcDbEntity
8
Geo
100
AcDbLine
10
-40.6411968777103
20
14.9140356061549
30
0.000000000000000
11
-40.5411968777103
21
14.9100765985827
31
0.000000000000000
  0
LINE
  5
F10074
330
F10075
100
AcDbEntity
8
Geo
100
AcDbLine
10
-40.5411968777103
20
14.9100765985827
30
0.000000000000000
11
-40.4411968777103
21
14.9052386988550
31
0.000000000000000
  0
LINE
  5
F10076
330
F10077
100
AcDbEntity
8
Geo
100
AcDbLine
10
-40.4411968777103
20
14.9052386988550
30
0.000000000000000
11
-40.3411968777103
21
14.8995224392026
31
0.000000000000000
  0
LINE
  5
F10078
330
F10079
100
AcDbEntity
8
Geo
100
AcDbLine
10
-40.3411968777103
20
14.8995224392026
30
0.000000000000000
11
-40.2411968777103
21
14.8929284484871
31
0.000000000000000
  0
LINE
  5
F1007A
330
F1007B
100
AcDbEntity
8
Geo
100
AcDbLine
10
-40.2411968777103
20
14.8929284484871
30
0.000000000000000
11
-40.1411968777103
21
14.8854574521317
31
0.000000000000000
  0
LINE
  5
F1007C
330
F1007D
100
AcDbEntity
8
Geo
100
AcDbLine
10
-40.1411968777103
20
14.8854574521317
30
0.000000000000000
11
-40.0411968777103
21
14.8771102720414
31
0.000000000000000
  0
LINE
  5
F1007E
330
F1007F
100
AcDbEntity
8
Geo
100
AcDbLine
10
-40.0411968777103
20
14.8771102720414
30
0.000000000000000
11
-39.9411968777103
21
14.8678878265126
31
0.000000000000000
  0
LINE
  5
F10080
330
F10081
100
AcDbEntity
8
Geo
100
AcDbLine
10
-39.9411968777103
20
14.8678878265126
30
0.000000000000000
11
-39.8411968777103
21
14.8577911301321
31
0.000000000000000
  0
LINE
  5
F10082
330
F10083
100
AcDbEntity
8
Geo
100
AcDbLine
10
-39.8411968777103
20
14.8577911301321
30
0.000000000000000
11
-39.7411968777103
21
14.8468212936655
31
0.000000000000000
  0
LINE
  5
F10084
330
F10085
100
AcDbEntity
8
Geo
100
AcDbLine
10
-39.7411968777103
20
14.8468212936655
30
0.000000000000000
11
-39.6411968777103
21
14.8349795239348
31
0.000000000000000
  0
LINE
  5
F10086
330
F10087
100
AcDbEntity
8
Geo
100
AcDbLine
10
-39.6411968777103
20
14.8349795239348
30
0.000000000000000
11
-39.5411968777103
21
14.8222671236860
31
0.000000000000000
  0
LINE
  5
F10088
330
F10089
100
AcDbEntity
8
Geo
100
AcDbLine
10
-39.5411968777103
20
14.8222671236860
30
0.000000000000000
11
-39.4411968777103
21
14.8086854914454
31
0.000000000000000
  0
LINE
  5
F1008A
330
F1008B
100
AcDbEntity
8
Geo
100
AcDbLine
10
-39.4411968777103
20
14.8086854914454
30
0.000000000000000
11
-39.3411968777103
21
14.7942361213661
31
0.000000000000000
  0
LINE
  5
F1008C
330
F1008D
100
AcDbEntity
8
Geo
100
AcDbLine
10
-39.3411968777103
20
14.7942361213661
30
0.000000000000000
11
-39.2411968777103
21
14.7789206030633
31
0.000000000000000
  0
LINE
  5
F1008E
330
F1008F
100
AcDbEntity
8
Geo
100
AcDbLine
10
-39.2411968777103
20
14.7789206030633
30
0.000000000000000
11
-39.1411968777103
21
14.7627406214395
31
0.000000000000000
  0
LINE
  5
F10090
330
F10091
100
AcDbEntity
8
Geo
100
AcDbLine
10
-39.1411968777103
20
14.7627406214395
30
0.000000000000000
11
-39.0411968777103
21
14.7456979564995
31
0.000000000000000
  0
LINE
  5
F10092
330
F10093
100
AcDbEntity
8
Geo
100
AcDbLine
10
-39.0411968777103
20
14.7456979564995
30
0.000000000000000
11
-38.9411968777103
21
14.7277944831540
31
0.000000000000000
  0
LINE
  5
F10094
330
F10095
100
AcDbEntity
8
Geo
100
AcDbLine
10
-38.9411968777103
20
14.7277944831540
30
0.000000000000000
11
-38.8411968777103
21
14.7090321710138
31
0.000000000000000
  0
LINE
  5
F10096
330
F10097
100
AcDbEntity
8
Geo
100
AcDbLine
10
-38.8411968777103
20
14.7090321710138
30
0.000000000000000
11
-38.7411968777103
21
14.6894130841727
31
0.000000000000000
  0
LINE
  5
F10098
330
F10099
100
AcDbEntity
8
Geo
100
AcDbLine
10
-38.7411968777103
20
14.6894130841727
30
0.000000000000000
11
-38.6411968777103
21
14.6689393809809
31
0.000000000000000
  0
LINE
  5
F1009A
330
F1009B
100
AcDbEntity
8
Geo
100
AcDbLine
10
-38.6411968777103
20
14.6689393809809
30
0.000000000000000
11
-38.5411968777103
21
14.6476133138073
31
0.000000000000000
  0
LINE
  5
F1009C
330
F1009D
100
AcDbEntity
8
Geo
100
AcDbLine
10
-38.5411968777103
20
14.6476133138073
30
0.000000000000000
11
-38.4411968777103
21
14.6254372287916
31
0.000000000000000
  0
LINE
  5
F1009E
330
F1009F
100
AcDbEntity
8
Geo
100
AcDbLine
10
-38.4411968777103
20
14.6254372287916
30
0.000000000000000
11
-38.3411968777103
21
14.6024135655863
31
0.000000000000000
  0
LINE
  5
F100A0
330
F100A1
100
AcDbEntity
8
Geo
100
AcDbLine
10
-38.3411968777103
20
14.6024135655863
30
0.000000000000000
11
-38.2411968777103
21
14.5785448570885
31
0.000000000000000
  0
LINE
  5
F100A2
330
F100A3
100
AcDbEntity
8
Geo
100
AcDbLine
10
-38.2411968777103
20
14.5785448570885
30
0.000000000000000
11
-38.1411968777103
21
14.5538337291608
31
0.000000000000000
  0
LINE
  5
F100A4
330
F100A5
100
AcDbEntity
8
Geo
100
AcDbLine
10
-38.1411968777103
20
14.5538337291608
30
0.000000000000000
11
-38.0411968777103
21
14.5282829003431
31
0.000000000000000
  0
LINE
  5
F100A6
330
F100A7
100
AcDbEntity
8
Geo
100
AcDbLine
10
-38.0411968777103
20
14.5282829003431
30
0.000000000000000
11
-37.9411968777103
21
14.5018951815527
31
0.000000000000000
  0
LINE
  5
F100A8
330
F100A9
100
AcDbEntity
8
Geo
100
AcDbLine
10
-37.9411968777103
20
14.5018951815527
30
0.000000000000000
11
-37.8411968777103
21
14.4746734757757
31
0.000000000000000
  0
LINE
  5
F100AA
330
F100AB
100
AcDbEntity
8
Geo
100
AcDbLine
10
-37.8411968777103
20
14.4746734757757
30
0.000000000000000
11
-37.7411968777103
21
14.4466207777475
31
0.000000000000000
  0
LINE
  5
F100AC
330
F100AD
100
AcDbEntity
8
Geo
100
AcDbLine
10
-37.7411968777103
20
14.4466207777475
30
0.000000000000000
11
-37.6411968777103
21
14.4177401736230
31
0.000000000000000
  0
LINE
  5
F100AE
330
F100AF
100
AcDbEntity
8
Geo
100
AcDbLine
10
-37.6411968777103
20
14.4177401736230
30
0.000000000000000
11
-37.5411968777103
21
14.3880348406377
31
0.000000000000000
  0
LINE
  5
F100B0
330
F100B1
100
AcDbEntity
8
Geo
100
AcDbLine
10
-37.5411968777103
20
14.3880348406377
30
0.000000000000000
11
-37.4411968777103
21
14.3575080467574
31
0.000000000000000
  0
LINE
  5
F100B2
330
F100B3
100
AcDbEntity
8
Geo
100
AcDbLine
10
-37.4411968777103
20
14.3575080467574
30
0.000000000000000
11
-37.3411968777103
21
14.3261631503193
31
0.000000000000000
  0
LINE
  5
F100B4
330
F100B5
100
AcDbEntity
8
Geo
100
AcDbLine
10
-37.3411968777103
20
14.3261631503193
30
0.000000000000000
11
-37.2411968777103
21
14.2940035996625
31
0.000000000000000
  0
LINE
  5
F100B6
330
F100B7
100
AcDbEntity
8
Geo
100
AcDbLine
10
-37.2411968777103
20
14.2940035996625
30
0.000000000000000
11
-37.1411968777103
21
14.2610329327481
31
0.000000000000000
  0
LINE
  5
F100B8
330
F100B9
100
AcDbEntity
8
Geo
100
AcDbLine
10
-37.1411968777103
20
14.2610329327481
30
0.000000000000000
11
-37.0411968777103
21
14.2272547767707
31
0.000000000000000
  0
LINE
  5
F100BA
330
F100BB
100
AcDbEntity
8
Geo
100
AcDbLine
10
-37.0411968777103
20
14.2272547767707
30
0.000000000000000
11
-36.9411968777103
21
14.1926728477587
31
0.000000000000000
  0
LINE
  5
F100BC
330
F100BD
100
AcDbEntity
8
Geo
100
AcDbLine
10
-36.9411968777103
20
14.1926728477587
30
0.000000000000000
11
-36.8411968777103
21
14.1572909501661
31
0.000000000000000
  0
LINE
  5
F100BE
330
F100BF
100
AcDbEntity
8
Geo
100
AcDbLine
10
-36.8411968777103
20
14.1572909501661
30
0.000000000000000
11
-36.7411968777103
21
14.1211129764534
31
0.000000000000000
  0
LINE
  5
F100C0
330
F100C1
100
AcDbEntity
8
Geo
100
AcDbLine
10
-36.7411968777103
20
14.1211129764534
30
0.000000000000000
11
-36.6411968777103
21
14.0841429066597
31
0.000000000000000
  0
LINE
  5
F100C2
330
F100C3
100
AcDbEntity
8
Geo
100
AcDbLine
10
-36.6411968777103
20
14.0841429066597
30
0.000000000000000
11
-36.5411968777103
21
14.0463848079649
31
0.000000000000000
  0
LINE
  5
F100C4
330
F100C5
100
AcDbEntity
8
Geo
100
AcDbLine
10
-36.5411968777103
20
14.0463848079649
30
0.000000000000000
11
-36.4411968777103
21
14.0078428342421
31
0.000000000000000
  0
LINE
  5
F100C6
330
F100C7
100
AcDbEntity
8
Geo
100
AcDbLine
10
-36.4411968777103
20
14.0078428342421
30
0.000000000000000
11
-36.3411968777103
21
13.9685212256007
31
0.000000000000000
  0
LINE
  5
F100C8
330
F100C9
100
AcDbEntity
8
Geo
100
AcDbLine
10
-36.3411968777103
20
13.9685212256007
30
0.000000000000000
11
-36.2411968777103
21
13.9284243079196
31
0.000000000000000
  0
LINE
  5
F100CA
330
F100CB
100
AcDbEntity
8
Geo
100
AcDbLine
10
-36.2411968777103
20
13.9284243079196
30
0.000000000000000
11
-36.1411968777103
21
13.8875564923721
31
0.000000000000000
  0
LINE
  5
F100CC
330
F100CD
100
AcDbEntity
8
Geo
100
AcDbLine
10
-36.1411968777103
20
13.8875564923721
30
0.000000000000000
11
-36.0411968777103
21
13.8459222749397
31
0.000000000000000
  0
LINE
  5
F100CE
330
F100CF
100
AcDbEntity
8
Geo
100
AcDbLine
10
-36.0411968777103
20
13.8459222749397
30
0.000000000000000
11
-35.9411968777103
21
13.8035262359181
31
0.000000000000000
  0
LINE
  5
F100D0
330
F100D1
100
AcDbEntity
8
Geo
100
AcDbLine
10
-35.9411968777103
20
13.8035262359181
30
0.000000000000000
11
-35.8411968777103
21
13.7603730394129
31
0.000000000000000
  0
LINE
  5
F100D2
330
F100D3
100
AcDbEntity
8
Geo
100
AcDbLine
10
-35.8411968777103
20
13.7603730394129
30
0.000000000000000
11
-35.7411968777103
21
13.7164674328271
31
0.000000000000000
  0
LINE
  5
F100D4
330
F100D5
100
AcDbEntity
8
Geo
100
AcDbLine
10
-35.7411968777103
20
13.7164674328271
30
0.000000000000000
11
-35.6411968777103
21
13.6718142463379
31
0.000000000000000
  0
LINE
  5
F100D6
330
F100D7
100
AcDbEntity
8
Geo
100
AcDbLine
10
-35.6411968777103
20
13.6718142463379
30
0.000000000000000
11
-35.5411968777103
21
13.6264183923662
31
0.000000000000000
  0
LINE
  5
F100D8
330
F100D9
100
AcDbEntity
8
Geo
100
AcDbLine
10
-35.5411968777103
20
13.6264183923662
30
0.000000000000000
11
-35.4411968777103
21
13.5802848650357
31
0.000000000000000
  0
LINE
  5
F100DA
330
F100DB
100
AcDbEntity
8
Geo
100
AcDbLine
10
-35.4411968777103
20
13.5802848650357
30
0.000000000000000
11
-35.3411968777103
21
13.5334187396236
31
0.000000000000000
  0
LINE
  5
F100DC
330
F100DD
100
AcDbEntity
8
Geo
100
AcDbLine
10
-35.3411968777103
20
13.5334187396236
30
0.000000000000000
11
-35.2411968777103
21
13.4858251720023
31
0.000000000000000
  0
LINE
  5
F100DE
330
F100DF
100
AcDbEntity
8
Geo
100
AcDbLine
10
-35.2411968777103
20
13.4858251720023
30
0.000000000000000
11
-35.1411968777103
21
13.4375093980719
31
0.000000000000000
  0
LINE
  5
F100E0
330
F100E1
100
AcDbEntity
8
Geo
100
AcDbLine
10
-35.1411968777103
20
13.4375093980719
30
0.000000000000000
11
-35.0411968777103
21
13.3884767331846
31
0.000000000000000
  0
LINE
  5
F100E2
330
F100E3
100
AcDbEntity
8
Geo
100
AcDbLine
10
-35.0411968777103
20
13.3884767331846
30
0.000000000000000
11
-34.9411968777103
21
13.3387325715599
31
0.000000000000000
  0
LINE
  5
F100E4
330
F100E5
100
AcDbEntity
8
Geo
100
AcDbLine
10
-34.9411968777103
20
13.3387325715599
30
0.000000000000000
11
-34.8411968777103
21
13.2882823856909
31
0.000000000000000
  0
LINE
  5
F100E6
330
F100E7
100
AcDbEntity
8
Geo
100
AcDbLine
10
-34.8411968777103
20
13.2882823856909
30
0.000000000000000
11
-34.7411968777103
21
13.2371317257421
31
0.000000000000000
  0
LINE
  5
F100E8
330
F100E9
100
AcDbEntity
8
Geo
100
AcDbLine
10
-34.7411968777103
20
13.2371317257421
30
0.000000000000000
11
-34.6411968777103
21
13.1852862189396
31
0.000000000000000
  0
LINE
  5
F100EA
330
F100EB
100
AcDbEntity
8
Geo
100
AcDbLine
10
-34.6411968777103
20
13.1852862189396
30
0.000000000000000
11
-34.5411968777103
21
13.1327515689511
31
0.000000000000000
  0
LINE
  5
F100EC
330
F100ED
100
AcDbEntity
8
Geo
100
AcDbLine
10
-34.5411968777103
20
13.1327515689511
30
0.000000000000000
11
-34.4411968777103
21
13.0795335552592
31
0.000000000000000
  0
LINE
  5
F100EE
330
F100EF
100
AcDbEntity
8
Geo
100
AcDbLine
10
-34.4411968777103
20
13.0795335552592
30
0.000000000000000
11
-34.3411968777103
21
13.0256380325250
31
0.000000000000000
  0
LINE
  5
F100F0
330
F100F1
100
AcDbEntity
8
Geo
100
AcDbLine
10
-34.3411968777103
20
13.0256380325250
30
0.000000000000000
11
-34.2411968777103
21
12.9710709299442
31
0.000000000000000
  0
LINE
  5
F100F2
330
F100F3
100
AcDbEntity
8
Geo
100
AcDbLine
10
-34.2411968777103
20
12.9710709299442
30
0.000000000000000
11
-34.1411968777103
21
12.9158382505952
31
0.000000000000000
  0
LINE
  5
F100F4
330
F100F5
100
AcDbEntity
8
Geo
100
AcDbLine
10
-34.1411968777103
20
12.9158382505952
30
0.000000000000000
11
-34.0411968777103
21
12.8599460707779
31
0.000000000000000
  0
LINE
  5
F100F6
330
F100F7
100
AcDbEntity
8
Geo
100
AcDbLine
10
-34.0411968777103
20
12.8599460707779
30
0.000000000000000
11
-33.9411968777103
21
12.8034005393461
31
0.000000000000000
  0
LINE
  5
F100F8
330
F100F9
100
AcDbEntity
8
Geo
100
AcDbLine
10
-33.9411968777103
20
12.8034005393461
30
0.000000000000000
11
-33.8411968777103
21
12.7462078770302
31
0.000000000000000
  0
LINE
  5
F100FA
330
F100FB
100
AcDbEntity
8
Geo
100
AcDbLine
10
-33.8411968777103
20
12.7462078770302
30
0.000000000000000
11
-33.7411968777103
21
12.6883743757536
31
0.000000000000000
  0
LINE
  5
F100FC
330
F100FD
100
AcDbEntity
8
Geo
100
AcDbLine
10
-33.7411968777103
20
12.6883743757536
30
0.000000000000000
11
-33.6411968777103
21
12.6299063979401
31
0.000000000000000
  0
LINE
  5
F100FE
330
F100FF
100
AcDbEntity
8
Geo
100
AcDbLine
10
-33.6411968777103
20
12.6299063979401
30
0.000000000000000
11
-33.5411968777103
21
12.5708103758139
31
0.000000000000000
  0
LINE
  5
F10100
330
F10101
100
AcDbEntity
8
Geo
100
AcDbLine
10
-33.5411968777103
20
12.5708103758139
30
0.000000000000000
11
-33.4411968777103
21
12.5110928106921
31
0.000000000000000
  0
LINE
  5
F10102
330
F10103
100
AcDbEntity
8
Geo
100
AcDbLine
10
-33.4411968777103
20
12.5110928106921
30
0.000000000000000
11
-33.3411968777103
21
12.4507602722697
31
0.000000000000000
  0
LINE
  5
F10104
330
F10105
100
AcDbEntity
8
Geo
100
AcDbLine
10
-33.3411968777103
20
12.4507602722697
30
0.000000000000000
11
-33.2411968777103
21
12.3898193978962
31
0.000000000000000
  0
LINE
  5
F10106
330
F10107
100
AcDbEntity
8
Geo
100
AcDbLine
10
-33.2411968777103
20
12.3898193978962
30
0.000000000000000
11
-33.1411968777103
21
12.3282768918464
31
0.000000000000000
  0
LINE
  5
F10108
330
F10109
100
AcDbEntity
8
Geo
100
AcDbLine
10
-33.1411968777103
20
12.3282768918464
30
0.000000000000000
11
-33.0411968777103
21
12.2661395245816
31
0.000000000000000
  0
LINE
  5
F1010A
330
F1010B
100
AcDbEntity
8
Geo
100
AcDbLine
10
-33.0411968777103
20
12.2661395245816
30
0.000000000000000
11
-32.9411968777103
21
12.2034141320061
31
0.000000000000000
  0
LINE
  5
F1010C
330
F1010D
100
AcDbEntity
8
Geo
100
AcDbLine
10
-32.9411968777103
20
12.2034141320061
30
0.000000000000000
11
-32.8411968777103
21
12.1401076147139
31
0.000000000000000
  0
LINE
  5
F1010E
330
F1010F
100
AcDbEntity
8
Geo
100
AcDbLine
10
-32.8411968777103
20
12.1401076147139
30
0.000000000000000
11
-32.7411968777103
21
12.0762269372305
31
0.000000000000000
  0
LINE
  5
F10110
330
F10111
100
AcDbEntity
8
Geo
100
AcDbLine
10
-32.7411968777103
20
12.0762269372305
30
0.000000000000000
11
-32.6411968777103
21
12.0117791272463
31
0.000000000000000
  0
LINE
  5
F10112
330
F10113
100
AcDbEntity
8
Geo
100
AcDbLine
10
-32.6411968777103
20
12.0117791272463
30
0.000000000000000
11
-32.5411968777103
21
11.9467712748434
31
0.000000000000000
  0
LINE
  5
F10114
330
F10115
100
AcDbEntity
8
Geo
100
AcDbLine
10
-32.5411968777103
20
11.9467712748434
30
0.000000000000000
11
-32.4411968777103
21
11.8812105317159
31
0.000000000000000
  0
LINE
  5
F10116
330
F10117
100
AcDbEntity
8
Geo
100
AcDbLine
10
-32.4411968777103
20
11.8812105317159
30
0.000000000000000
11
-32.3411968777103
21
11.8151041103828
31
0.000000000000000
  0
LINE
  5
F10118
330
F10119
100
AcDbEntity
8
Geo
100
AcDbLine
10
-32.3411968777103
20
11.8151041103828
30
0.000000000000000
11
-32.2411968777103
21
11.7484592833947
31
0.000000000000000
  0
LINE
  5
F1011A
330
F1011B
100
AcDbEntity
8
Geo
100
AcDbLine
10
-32.2411968777103
20
11.7484592833947
30
0.000000000000000
11
-32.1411968777103
21
11.6812833825336
31
0.000000000000000
  0
LINE
  5
F1011C
330
F1011D
100
AcDbEntity
8
Geo
100
AcDbLine
10
-32.1411968777103
20
11.6812833825336
30
0.000000000000000
11
-32.0411968777103
21
11.6135837980067
31
0.000000000000000
  0
LINE
  5
F1011E
330
F1011F
100
AcDbEntity
8
Geo
100
AcDbLine
10
-32.0411968777103
20
11.6135837980067
30
0.000000000000000
11
-31.9411968777103
21
11.5453679776328
31
0.000000000000000
  0
LINE
  5
F10120
330
F10121
100
AcDbEntity
8
Geo
100
AcDbLine
10
-31.9411968777103
20
11.5453679776328
30
0.000000000000000
11
-31.8411968777103
21
11.4766434260234
31
0.000000000000000
  0
LINE
  5
F10122
330
F10123
100
AcDbEntity
8
Geo
100
AcDbLine
10
-31.8411968777103
20
11.4766434260234
30
0.000000000000000
11
-31.7411968777103
21
11.4074177037569
31
0.000000000000000
  0
LINE
  5
F10124
330
F10125
100
AcDbEntity
8
Geo
100
AcDbLine
10
-31.7411968777103
20
11.4074177037569
30
0.000000000000000
11
-31.6411968777103
21
11.3376984265467
31
0.000000000000000
  0
LINE
  5
F10126
330
F10127
100
AcDbEntity
8
Geo
100
AcDbLine
10
-31.6411968777103
20
11.3376984265467
30
0.000000000000000
11
-31.5411968777103
21
11.2674932644038
31
0.000000000000000
  0
LINE
  5
F10128
330
F10129
100
AcDbEntity
8
Geo
100
AcDbLine
10
-31.5411968777103
20
11.2674932644038
30
0.000000000000000
11
-31.4411968777103
21
11.1968099407926
31
0.000000000000000
  0
LINE
  5
F1012A
330
F1012B
100
AcDbEntity
8
Geo
100
AcDbLine
10
-31.4411968777103
20
11.1968099407926
30
0.000000000000000
11
-31.3411968777103
21
11.1256562317815
31
0.000000000000000
  0
LINE
  5
F1012C
330
F1012D
100
AcDbEntity
8
Geo
100
AcDbLine
10
-31.3411968777103
20
11.1256562317815
30
0.000000000000000
11
-31.2411968777103
21
11.0540399651872
31
0.000000000000000
  0
LINE
  5
F1012E
330
F1012F
100
AcDbEntity
8
Geo
100
AcDbLine
10
-31.2411968777103
20
11.0540399651872
30
0.000000000000000
11
-31.1411968777103
21
10.9819690197135
31
0.000000000000000
  0
LINE
  5
F10130
330
F10131
100
AcDbEntity
8
Geo
100
AcDbLine
10
-31.1411968777103
20
10.9819690197135
30
0.000000000000000
11
-31.0411968777103
21
10.9094513240851
31
0.000000000000000
  0
LINE
  5
F10132
330
F10133
100
AcDbEntity
8
Geo
100
AcDbLine
10
-31.0411968777103
20
10.9094513240851
30
0.000000000000000
11
-30.9411968777103
21
10.8364948561744
31
0.000000000000000
  0
LINE
  5
F10134
330
F10135
100
AcDbEntity
8
Geo
100
AcDbLine
10
-30.9411968777103
20
10.8364948561744
30
0.000000000000000
11
-30.8411968777103
21
10.7631076421248
31
0.000000000000000
  0
LINE
  5
F10136
330
F10137
100
AcDbEntity
8
Geo
100
AcDbLine
10
-30.8411968777103
20
10.7631076421248
30
0.000000000000000
11
-30.7411968777103
21
10.6892977554670
31
0.000000000000000
  0
LINE
  5
F10138
330
F10139
100
AcDbEntity
8
Geo
100
AcDbLine
10
-30.7411968777103
20
10.6892977554670
30
0.000000000000000
11
-30.6411968777103
21
10.6150733162313
31
0.000000000000000
  0
LINE
  5
F1013A
330
F1013B
100
AcDbEntity
8
Geo
100
AcDbLine
10
-30.6411968777103
20
10.6150733162313
30
0.000000000000000
11
-30.5411968777103
21
10.5404424900538
31
0.000000000000000
  0
LINE
  5
F1013C
330
F1013D
100
AcDbEntity
8
Geo
100
AcDbLine
10
-30.5411968777103
20
10.5404424900538
30
0.000000000000000
11
-30.4411968777103
21
10.4654134872785
31
0.000000000000000
  0
LINE
  5
F1013E
330
F1013F
100
AcDbEntity
8
Geo
100
AcDbLine
10
-30.4411968777103
20
10.4654134872785
30
0.000000000000000
11
-30.3411968777103
21
10.3899945620541
31
0.000000000000000
  0
LINE
  5
F10140
330
F10141
100
AcDbEntity
8
Geo
100
AcDbLine
10
-30.3411968777103
20
10.3899945620541
30
0.000000000000000
11
-30.2411968777103
21
10.3141940114254
31
0.000000000000000
  0
LINE
  5
F10142
330
F10143
100
AcDbEntity
8
Geo
100
AcDbLine
10
-30.2411968777103
20
10.3141940114254
30
0.000000000000000
11
-30.1411968777103
21
10.2380201744212
31
0.000000000000000
  0
LINE
  5
F10144
330
F10145
100
AcDbEntity
8
Geo
100
AcDbLine
10
-30.1411968777103
20
10.2380201744212
30
0.000000000000000
11
-30.0411968777103
21
10.1614814311362
31
0.000000000000000
  0
LINE
  5
F10146
330
F10147
100
AcDbEntity
8
Geo
100
AcDbLine
10
-30.0411968777103
20
10.1614814311362
30
0.000000000000000
11
-29.9411968777103
21
10.0845862018098
31
0.000000000000000
  0
LINE
  5
F10148
330
F10149
100
AcDbEntity
8
Geo
100
AcDbLine
10
-29.9411968777103
20
10.0845862018098
30
0.000000000000000
11
-29.8411968777103
21
10.0073429458993
31
0.000000000000000
  0
LINE
  5
F1014A
330
F1014B
100
AcDbEntity
8
Geo
100
AcDbLine
10
-29.8411968777103
20
10.0073429458993
30
0.000000000000000
11
-29.7411968777103
21
9.92976016114920
31
0.000000000000000
  0
LINE
  5
F1014C
330
F1014D
100
AcDbEntity
8
Geo
100
AcDbLine
10
-29.7411968777103
20
9.92976016114920
30
0.000000000000000
11
-29.6411968777103
21
9.85184638265679
31
0.000000000000000
  0
LINE
  5
F1014E
330
F1014F
100
AcDbEntity
8
Geo
100
AcDbLine
10
-29.6411968777103
20
9.85184638265679
30
0.000000000000000
11
-29.5411968777103
21
9.77361018193271
31
0.000000000000000
  0
LINE
  5
F10150
330
F10151
100
AcDbEntity
8
Geo
100
AcDbLine
10
-29.5411968777103
20
9.77361018193271
30
0.000000000000000
11
-29.4411968777103
21
9.69506016595821
31
0.000000000000000
  0
LINE
  5
F10152
330
F10153
100
AcDbEntity
8
Geo
100
AcDbLine
10
-29.4411968777103
20
9.69506016595821
30
0.000000000000000
11
-29.3411968777103
21
9.61620497623825
31
0.000000000000000
  0
LINE
  5
F10154
330
F10155
100
AcDbEntity
8
Geo
100
AcDbLine
10
-29.3411968777103
20
9.61620497623825
30
0.000000000000000
11
-29.2411968777103
21
9.53705328785076
31
0.000000000000000
  0
LINE
  5
F10156
330
F10157
100
AcDbEntity
8
Geo
100
AcDbLine
10
-29.2411968777103
20
9.53705328785076
30
0.000000000000000
11
-29.1411968777103
21
9.45761380849235
31
0.000000000000000
  0
LINE
  5
F10158
330
F10159
100
AcDbEntity
8
Geo
100
AcDbLine
10
-29.1411968777103
20
9.45761380849235
30
0.000000000000000
11
-29.0411968777103
21
9.37789527752027
31
0.000000000000000
  0
LINE
  5
F1015A
330
F1015B
100
AcDbEntity
8
Geo
100
AcDbLine
10
-29.0411968777103
20
9.37789527752027
30
0.000000000000000
11
-28.9411968777103
21
9.29790646499105
31
0.000000000000000
  0
LINE
  5
F1015C
330
F1015D
100
AcDbEntity
8
Geo
100
AcDbLine
10
-28.9411968777103
20
9.29790646499105
30
0.000000000000000
11
-28.8411968777103
21
9.21765617069563
31
0.000000000000000
  0
LINE
  5
F1015E
330
F1015F
100
AcDbEntity
8
Geo
100
AcDbLine
10
-28.8411968777103
20
9.21765617069563
30
0.000000000000000
11
-28.7411968777103
21
9.13715322319126
31
0.000000000000000
  0
LINE
  5
F10160
330
F10161
100
AcDbEntity
8
Geo
100
AcDbLine
10
-28.7411968777103
20
9.13715322319126
30
0.000000000000000
11
-28.6411968777103
21
9.05640647883031
31
0.000000000000000
  0
LINE
  5
F10162
330
F10163
100
AcDbEntity
8
Geo
100
AcDbLine
10
-28.6411968777103
20
9.05640647883031
30
0.000000000000000
11
-28.5411968777103
21
8.97542482078589
31
0.000000000000000
  0
LINE
  5
F10164
330
F10165
100
AcDbEntity
8
Geo
100
AcDbLine
10
-28.5411968777103
20
8.97542482078589
30
0.000000000000000
11
-28.4411968777103
21
8.89421715807462
31
0.000000000000000
  0
LINE
  5
F10166
330
F10167
100
AcDbEntity
8
Geo
100
AcDbLine
10
-28.4411968777103
20
8.89421715807462
30
0.000000000000000
11
-28.3411968777103
21
8.81279242457653
31
0.000000000000000
  0
LINE
  5
F10168
330
F10169
100
AcDbEntity
8
Geo
100
AcDbLine
10
-28.3411968777103
20
8.81279242457653
30
0.000000000000000
11
-28.2411968777103
21
8.73115957805220
31
0.000000000000000
  0
LINE
  5
F1016A
330
F1016B
100
AcDbEntity
8
Geo
100
AcDbLine
10
-28.2411968777103
20
8.73115957805220
30
0.000000000000000
11
-28.1411968777103
21
8.64932759915730
31
0.000000000000000
  0
LINE
  5
F1016C
330
F1016D
100
AcDbEntity
8
Geo
100
AcDbLine
10
-28.1411968777103
20
8.64932759915730
30
0.000000000000000
11
-28.0411968777103
21
8.56730549045460
31
0.000000000000000
  0
LINE
  5
F1016E
330
F1016F
100
AcDbEntity
8
Geo
100
AcDbLine
10
-28.0411968777103
20
8.56730549045460
30
0.000000000000000
11
-27.9411968777103
21
8.48510227542360
31
0.000000000000000
  0
LINE
  5
F10170
330
F10171
100
AcDbEntity
8
Geo
100
AcDbLine
10
-27.9411968777103
20
8.48510227542360
30
0.000000000000000
11
-27.8411968777103
21
8.40272699746779
31
0.000000000000000
  0
LINE
  5
F10172
330
F10173
100
AcDbEntity
8
Geo
100
AcDbLine
10
-27.8411968777103
20
8.40272699746779
30
0.000000000000000
11
-27.7411968777103
21
8.32018871891977
31
0.000000000000000
  0
LINE
  5
F10174
330
F10175
100
AcDbEntity
8
Geo
100
AcDbLine
10
-27.7411968777103
20
8.32018871891977
30
0.000000000000000
11
-27.6411968777103
21
8.23749652004430
31
0.000000000000000
  0
LINE
  5
F10176
330
F10177
100
AcDbEntity
8
Geo
100
AcDbLine
10
-27.6411968777103
20
8.23749652004430
30
0.000000000000000
11
-27.5411968777103
21
8.15465949803935
31
0.000000000000000
  0
LINE
  5
F10178
330
F10179
100
AcDbEntity
8
Geo
100
AcDbLine
10
-27.5411968777103
20
8.15465949803935
30
0.000000000000000
11
-27.4411968777103
21
8.07168676603527
31
0.000000000000000
  0
LINE
  5
F1017A
330
F1017B
100
AcDbEntity
8
Geo
100
AcDbLine
10
-27.4411968777103
20
8.07168676603527
30
0.000000000000000
11
-27.3411968777103
21
7.98858745209225
31
0.000000000000000
  0
LINE
  5
F1017C
330
F1017D
100
AcDbEntity
8
Geo
100
AcDbLine
10
-27.3411968777103
20
7.98858745209225
30
0.000000000000000
11
-27.2411968777103
21
7.90537069819610
31
0.000000000000000
  0
LINE
  5
F1017E
330
F1017F
100
AcDbEntity
8
Geo
100
AcDbLine
10
-27.2411968777103
20
7.90537069819610
30
0.000000000000000
11
-27.1411968777103
21
7.82204565925255
31
0.000000000000000
  0
LINE
  5
F10180
330
F10181
100
AcDbEntity
8
Geo
100
AcDbLine
10
-27.1411968777103
20
7.82204565925255
30
0.000000000000000
11
-27.0411968777103
21
7.73862150208002
31
0.000000000000000
  0
LINE
  5
F10182
330
F10183
100
AcDbEntity
8
Geo
100
AcDbLine
10
-27.0411968777103
20
7.73862150208002
30
0.000000000000000
11
-26.9411968777103
21
7.65510740440126
31
0.000000000000000
  0
LINE
  5
F10184
330
F10185
100
AcDbEntity
8
Geo
100
AcDbLine
10
-26.9411968777103
20
7.65510740440126
30
0.000000000000000
11
-26.8411968777103
21
7.57151255383358
31
0.000000000000000
  0
LINE
  5
F10186
330
F10187
100
AcDbEntity
8
Geo
100
AcDbLine
10
-26.8411968777103
20
7.57151255383358
30
0.000000000000000
11
-26.7411968777103
21
7.48784614687815
31
0.000000000000000
  0
LINE
  5
F10188
330
F10189
100
AcDbEntity
8
Geo
100
AcDbLine
10
-26.7411968777103
20
7.48784614687815
30
0.000000000000000
11
-26.6411968777103
21
7.40411738790828
31
0.000000000000000
  0
LINE
  5
F1018A
330
F1018B
100
AcDbEntity
8
Geo
100
AcDbLine
10
-26.6411968777103
20
7.40411738790828
30
0.000000000000000
11
-26.5411968777103
21
7.32033548815677
31
0.000000000000000
  0
LINE
  5
F1018C
330
F1018D
100
AcDbEntity
8
Geo
100
AcDbLine
10
-26.5411968777103
20
7.32033548815677
30
0.000000000000000
11
-26.4411968777103
21
7.23650966470259
31
0.000000000000000
  0
LINE
  5
F1018E
330
F1018F
100
AcDbEntity
8
Geo
100
AcDbLine
10
-26.4411968777103
20
7.23650966470259
30
0.000000000000000
11
-26.3411968777103
21
7.15264913945688
31
0.000000000000000
  0
LINE
  5
F10190
330
F10191
100
AcDbEntity
8
Geo
100
AcDbLine
10
-26.3411968777103
20
7.15264913945688
30
0.000000000000000
11
-26.2411968777103
21
7.06876313814843
31
0.000000000000000
  0
LINE
  5
F10192
330
F10193
100
AcDbEntity
8
Geo
100
AcDbLine
10
-26.2411968777103
20
7.06876313814843
30
0.000000000000000
11
-26.1411968777103
21
6.98486088930871
31
0.000000000000000
  0
LINE
  5
F10194
330
F10195
100
AcDbEntity
8
Geo
100
AcDbLine
10
-26.1411968777103
20
6.98486088930871
30
0.000000000000000
11
-26.0411968777103
21
6.90095162325663
31
0.000000000000000
  0
LINE
  5
F10196
330
F10197
100
AcDbEntity
8
Geo
100
AcDbLine
10
-26.0411968777103
20
6.90095162325663
30
0.000000000000000
11
-25.9411968777103
21
6.81704457108309
31
0.000000000000000
  0
LINE
  5
F10198
330
F10199
100
AcDbEntity
8
Geo
100
AcDbLine
10
-25.9411968777103
20
6.81704457108309
30
0.000000000000000
11
-25.8411968777103
21
6.73314896363543
31
0.000000000000000
  0
LINE
  5
F1019A
330
F1019B
100
AcDbEntity
8
Geo
100
AcDbLine
10
-25.8411968777103
20
6.73314896363543
30
0.000000000000000
11
-25.7411968777103
21
6.64927403050191
31
0.000000000000000
  0
LINE
  5
F1019C
330
F1019D
100
AcDbEntity
8
Geo
100
AcDbLine
10
-25.7411968777103
20
6.64927403050191
30
0.000000000000000
11
-25.6411968777103
21
6.56542899899636
31
0.000000000000000
  0
LINE
  5
F1019E
330
F1019F
100
AcDbEntity
8
Geo
100
AcDbLine
10
-25.6411968777103
20
6.56542899899636
30
0.000000000000000
11
-25.5411968777103
21
6.48162309314308
31
0.000000000000000
  0
LINE
  5
F101A0
330
F101A1
100
AcDbEntity
8
Geo
100
AcDbLine
10
-25.5411968777103
20
6.48162309314308
30
0.000000000000000
11
-25.4411968777103
21
6.39786553266199
31
0.000000000000000
  0
LINE
  5
F101A2
330
F101A3
100
AcDbEntity
8
Geo
100
AcDbLine
10
-25.4411968777103
20
6.39786553266199
30
0.000000000000000
11
-25.3411968777103
21
6.31416553195446
31
0.000000000000000
  0
LINE
  5
F101A4
330
F101A5
100
AcDbEntity
8
Geo
100
AcDbLine
10
-25.3411968777103
20
6.31416553195446
30
0.000000000000000
11
-25.2411968777103
21
6.23053229908951
31
0.000000000000000
  0
LINE
  5
F101A6
330
F101A7
100
AcDbEntity
8
Geo
100
AcDbLine
10
-25.2411968777103
20
6.23053229908951
30
0.000000000000000
11
-25.1411968777103
21
6.14697503479085
31
0.000000000000000
  0
LINE
  5
F101A8
330
F101A9
100
AcDbEntity
8
Geo
100
AcDbLine
10
-25.1411968777103
20
6.14697503479085
30
0.000000000000000
11
-25.0411968777103
21
6.06350293142470
31
0.000000000000000
  0
LINE
  5
F101AA
330
F101AB
100
AcDbEntity
8
Geo
100
AcDbLine
10
-25.0411968777103
20
6.06350293142470
30
0.000000000000000
11
-24.9411968777103
21
5.98012517198847
31
0.000000000000000
  0
LINE
  5
F101AC
330
F101AD
100
AcDbEntity
8
Geo
100
AcDbLine
10
-24.9411968777103
20
5.98012517198847
30
0.000000000000000
11
-24.8411968777103
21
5.89685092910053
31
0.000000000000000
  0
LINE
  5
F101AE
330
F101AF
100
AcDbEntity
8
Geo
100
AcDbLine
10
-24.8411968777103
20
5.89685092910053
30
0.000000000000000
11
-24.7411968777103
21
5.81368936399113
31
0.000000000000000
  0
LINE
  5
F101B0
330
F101B1
100
AcDbEntity
8
Geo
100
AcDbLine
10
-24.7411968777103
20
5.81368936399113
30
0.000000000000000
11
-24.6411968777103
21
5.73064962549449
31
0.000000000000000
  0
LINE
  5
F101B2
330
F101B3
100
AcDbEntity
8
Geo
100
AcDbLine
10
-24.6411968777103
20
5.73064962549449
30
0.000000000000000
11
-24.5411968777103
21
5.64774084904239
31
0.000000000000000
  0
LINE
  5
F101B4
330
F101B5
100
AcDbEntity
8
Geo
100
AcDbLine
10
-24.5411968777103
20
5.64774084904239
30
0.000000000000000
11
-24.4411968777103
21
5.56497215565907
31
0.000000000000000
  0
LINE
  5
F101B6
330
F101B7
100
AcDbEntity
8
Geo
100
AcDbLine
10
-24.4411968777103
20
5.56497215565907
30
0.000000000000000
11
-24.3411968777103
21
5.48235265095788
31
0.000000000000000
  0
LINE
  5
F101B8
330
F101B9
100
AcDbEntity
8
Geo
100
AcDbLine
10
-24.3411968777103
20
5.48235265095788
30
0.000000000000000
11
-24.2411968777103
21
5.39989142413948
31
0.000000000000000
  0
LINE
  5
F101BA
330
F101BB
100
AcDbEntity
8
Geo
100
AcDbLine
10
-24.2411968777103
20
5.39989142413948
30
0.000000000000000
11
-24.1411968777103
21
5.31759754699197
31
0.000000000000000
  0
LINE
  5
F101BC
330
F101BD
100
AcDbEntity
8
Geo
100
AcDbLine
10
-24.1411968777103
20
5.31759754699197
30
0.000000000000000
11
-24.0411968777103
21
5.23548007289282
31
0.000000000000000
  0
LINE
  5
F101BE
330
F101BF
100
AcDbEntity
8
Geo
100
AcDbLine
10
-24.0411968777103
20
5.23548007289282
30
0.000000000000000
11
-23.9411968777103
21
5.15354803581292
31
0.000000000000000
  0
LINE
  5
F101C0
330
F101C1
100
AcDbEntity
8
Geo
100
AcDbLine
10
-23.9411968777103
20
5.15354803581292
30
0.000000000000000
11
-23.8411968777103
21
5.07181044932275
31
0.000000000000000
  0
LINE
  5
F101C2
330
F101C3
100
AcDbEntity
8
Geo
100
AcDbLine
10
-23.8411968777103
20
5.07181044932275
30
0.000000000000000
11
-23.7411968777103
21
4.99027630560069
31
0.000000000000000
  0
LINE
  5
F101C4
330
F101C5
100
AcDbEntity
8
Geo
100
AcDbLine
10
-23.7411968777103
20
4.99027630560069
30
0.000000000000000
11
-23.6411968777103
21
4.90895457444385
31
0.000000000000000
  0
LINE
  5
F101C6
330
F101C7
100
AcDbEntity
8
Geo
100
AcDbLine
10
-23.6411968777103
20
4.90895457444385
30
0.000000000000000
11
-23.5411968777103
21
4.82785420228125
31
0.000000000000000
  0
LINE
  5
F101C8
330
F101C9
100
AcDbEntity
8
Geo
100
AcDbLine
10
-23.5411968777103
20
4.82785420228125
30
0.000000000000000
11
-23.4411968777103
21
4.74698411118957
31
0.000000000000000
  0
LINE
  5
F101CA
330
F101CB
100
AcDbEntity
8
Geo
100
AcDbLine
10
-23.4411968777103
20
4.74698411118957
30
0.000000000000000
11
-23.3411968777103
21
4.66635319791166
31
0.000000000000000
  0
LINE
  5
F101CC
330
F101CD
100
AcDbEntity
8
Geo
100
AcDbLine
10
-23.3411968777103
20
4.66635319791166
30
0.000000000000000
11
-23.2411968777103
21
4.58597033287772
31
0.000000000000000
  0
LINE
  5
F101CE
330
F101CF
100
AcDbEntity
8
Geo
100
AcDbLine
10
-23.2411968777103
20
4.58597033287772
30
0.000000000000000
11
-23.1411968777103
21
4.50584435922950
31
0.000000000000000
  0
LINE
  5
F101D0
330
F101D1
100
AcDbEntity
8
Geo
100
AcDbLine
10
-23.1411968777103
20
4.50584435922950
30
0.000000000000000
11
-23.0411968777103
21
4.42598409184742
31
0.000000000000000
  0
LINE
  5
F101D2
330
F101D3
100
AcDbEntity
8
Geo
100
AcDbLine
10
-23.0411968777103
20
4.42598409184742
30
0.000000000000000
11
-22.9411968777103
21
4.34639831638080
31
0.000000000000000
  0
LINE
  5
F101D4
330
F101D5
100
AcDbEntity
8
Geo
100
AcDbLine
10
-22.9411968777103
20
4.34639831638080
30
0.000000000000000
11
-22.8411968777103
21
4.26709578828137
31
0.000000000000000
  0
LINE
  5
F101D6
330
F101D7
100
AcDbEntity
8
Geo
100
AcDbLine
10
-22.8411968777103
20
4.26709578828137
30
0.000000000000000
11
-22.7411968777103
21
4.18808523183999
31
0.000000000000000
  0
LINE
  5
F101D8
330
F101D9
100
AcDbEntity
8
Geo
100
AcDbLine
10
-22.7411968777103
20
4.18808523183999
30
0.000000000000000
11
-22.6411968777103
21
4.10937533922695
31
0.000000000000000
  0
LINE
  5
F101DA
330
F101DB
100
AcDbEntity
8
Geo
100
AcDbLine
10
-22.6411968777103
20
4.10937533922695
30
0.000000000000000
11
-22.5411968777103
21
4.03097476953565
31
0.000000000000000
  0
LINE
  5
F101DC
330
F101DD
100
AcDbEntity
8
Geo
100
AcDbLine
10
-22.5411968777103
20
4.03097476953565
30
0.000000000000000
11
-22.4411968777103
21
3.95289214783004
31
0.000000000000000
  0
LINE
  5
F101DE
330
F101DF
100
AcDbEntity
8
Geo
100
AcDbLine
10
-22.4411968777103
20
3.95289214783004
30
0.000000000000000
11
-22.3411968777103
21
3.87513606419572
31
0.000000000000000
  0
LINE
  5
F101E0
330
F101E1
100
AcDbEntity
8
Geo
100
AcDbLine
10
-22.3411968777103
20
3.87513606419572
30
0.000000000000000
11
-22.2411968777103
21
3.79771507279494
31
0.000000000000000
  0
LINE
  5
F101E2
330
F101E3
100
AcDbEntity
8
Geo
100
AcDbLine
10
-22.2411968777103
20
3.79771507279494
30
0.000000000000000
11
-22.1411968777103
21
3.72063769092551
31
0.000000000000000
  0
LINE
  5
F101E4
330
F101E5
100
AcDbEntity
8
Geo
100
AcDbLine
10
-22.1411968777103
20
3.72063769092551
30
0.000000000000000
11
-22.0411968777103
21
3.64391239808381
31
0.000000000000000
  0
LINE
  5
F101E6
330
F101E7
100
AcDbEntity
8
Geo
100
AcDbLine
10
-22.0411968777103
20
3.64391239808381
30
0.000000000000000
11
-21.9411968777103
21
3.56754763503194
31
0.000000000000000
  0
LINE
  5
F101E8
330
F101E9
100
AcDbEntity
8
Geo
100
AcDbLine
10
-21.9411968777103
20
3.56754763503194
30
0.000000000000000
11
-21.8411968777103
21
3.49155180286910
31
0.000000000000000
  0
LINE
  5
F101EA
330
F101EB
100
AcDbEntity
8
Geo
100
AcDbLine
10
-21.8411968777103
20
3.49155180286910
30
0.000000000000000
11
-21.7411968777103
21
3.41593326210740
31
0.000000000000000
  0
LINE
  5
F101EC
330
F101ED
100
AcDbEntity
8
Geo
100
AcDbLine
10
-21.7411968777103
20
3.41593326210740
30
0.000000000000000
11
-21.6411968777103
21
3.34070033175206
31
0.000000000000000
  0
LINE
  5
F101EE
330
F101EF
100
AcDbEntity
8
Geo
100
AcDbLine
10
-21.6411968777103
20
3.34070033175206
30
0.000000000000000
11
-21.5411968777103
21
3.26586128838625
31
0.000000000000000
  0
LINE
  5
F101F0
330
F101F1
100
AcDbEntity
8
Geo
100
AcDbLine
10
-21.5411968777103
20
3.26586128838625
30
0.000000000000000
11
-21.4411968777103
21
3.19142436526053
31
0.000000000000000
  0
LINE
  5
F101F2
330
F101F3
100
AcDbEntity
8
Geo
100
AcDbLine
10
-21.4411968777103
20
3.19142436526053
30
0.000000000000000
11
-21.3411968777103
21
3.11739775138708
31
0.000000000000000
  0
LINE
  5
F101F4
330
F101F5
100
AcDbEntity
8
Geo
100
AcDbLine
10
-21.3411968777103
20
3.11739775138708
30
0.000000000000000
11
-21.2411968777103
21
3.04378959063886
31
0.000000000000000
  0
LINE
  5
F101F6
330
F101F7
100
AcDbEntity
8
Geo
100
AcDbLine
10
-21.2411968777103
20
3.04378959063886
30
0.000000000000000
11
-21.1411968777103
21
2.97060798085361
31
0.000000000000000
  0
LINE
  5
F101F8
330
F101F9
100
AcDbEntity
8
Geo
100
AcDbLine
10
-21.1411968777103
20
2.97060798085361
30
0.000000000000000
11
-21.0411968777103
21
2.89786097294303
31
0.000000000000000
  0
LINE
  5
F101FA
330
F101FB
100
AcDbEntity
8
Geo
100
AcDbLine
10
-21.0411968777103
20
2.89786097294303
30
0.000000000000000
11
-20.9411968777103
21
2.82555657000706
31
0.000000000000000
  0
LINE
  5
F101FC
330
F101FD
100
AcDbEntity
8
Geo
100
AcDbLine
10
-20.9411968777103
20
2.82555657000706
30
0.000000000000000
11
-20.8411968777103
21
2.75370272645345
31
0.000000000000000
  0
LINE
  5
F101FE
330
F101FF
100
AcDbEntity
8
Geo
100
AcDbLine
10
-20.8411968777103
20
2.75370272645345
30
0.000000000000000
11
-20.7411968777103
21
2.68230734712265
31
0.000000000000000
  0
LINE
  5
F10200
330
F10201
100
AcDbEntity
8
Geo
100
AcDbLine
10
-20.7411968777103
20
2.68230734712265
30
0.000000000000000
11
-20.6411968777103
21
2.61137828641820
31
0.000000000000000
  0
LINE
  5
F10202
330
F10203
100
AcDbEntity
8
Geo
100
AcDbLine
10
-20.6411968777103
20
2.61137828641820
30
0.000000000000000
11
-20.5411968777103
21
2.54092334744263
31
0.000000000000000
  0
LINE
  5
F10204
330
F10205
100
AcDbEntity
8
Geo
100
AcDbLine
10
-20.5411968777103
20
2.54092334744263
30
0.000000000000000
11
-20.4411968777103
21
2.47095028113902
31
0.000000000000000
  0
LINE
  5
F10206
330
F10207
100
AcDbEntity
8
Geo
100
AcDbLine
10
-20.4411968777103
20
2.47095028113902
30
0.000000000000000
11
-20.3411968777103
21
2.40146678543831
31
0.000000000000000
  0
LINE
  5
F10208
330
F10209
100
AcDbEntity
8
Geo
100
AcDbLine
10
-20.3411968777103
20
2.40146678543831
30
0.000000000000000
11
-20.2411968777103
21
2.33248050441242
31
0.000000000000000
  0
LINE
  5
F1020A
330
F1020B
100
AcDbEntity
8
Geo
100
AcDbLine
10
-20.2411968777103
20
2.33248050441242
30
0.000000000000000
11
-20.1411968777103
21
2.26399902743332
31
0.000000000000000
  0
LINE
  5
F1020C
330
F1020D
100
AcDbEntity
8
Geo
100
AcDbLine
10
-20.1411968777103
20
2.26399902743332
30
0.000000000000000
11
-20.0411968777103
21
2.19602988833805
31
0.000000000000000
  0
LINE
  5
F1020E
330
F1020F
100
AcDbEntity
8
Geo
100
AcDbLine
10
-20.0411968777103
20
2.19602988833805
30
0.000000000000000
11
-19.9411968777103
21
2.12858056459998
31
0.000000000000000
  0
LINE
  5
F10210
330
F10211
100
AcDbEntity
8
Geo
100
AcDbLine
10
-19.9411968777103
20
2.12858056459998
30
0.000000000000000
11
-19.8411968777103
21
2.06165847650612
31
0.000000000000000
  0
LINE
  5
F10212
330
F10213
100
AcDbEntity
8
Geo
100
AcDbLine
10
-19.8411968777103
20
2.06165847650612
30
0.000000000000000
11
-19.7411968777103
21
1.99527098634085
31
0.000000000000000
  0
LINE
  5
F10214
330
F10215
100
AcDbEntity
8
Geo
100
AcDbLine
10
-19.7411968777103
20
1.99527098634085
30
0.000000000000000
11
-19.6411968777103
21
1.92942539757594
31
0.000000000000000
  0
LINE
  5
F10216
330
F10217
100
AcDbEntity
8
Geo
100
AcDbLine
10
-19.6411968777103
20
1.92942539757594
30
0.000000000000000
11
-19.5411968777103
21
1.86412895406708
31
0.000000000000000
  0
LINE
  5
F10218
330
F10219
100
AcDbEntity
8
Geo
100
AcDbLine
10
-19.5411968777103
20
1.86412895406708
30
0.000000000000000
11
-19.4411968777103
21
1.79938883925698
31
0.000000000000000
  0
LINE
  5
F1021A
330
F1021B
100
AcDbEntity
8
Geo
100
AcDbLine
10
-19.4411968777103
20
1.79938883925698
30
0.000000000000000
11
-19.3411968777103
21
1.73521217538509
31
0.000000000000000
  0
LINE
  5
F1021C
330
F1021D
100
AcDbEntity
8
Geo
100
AcDbLine
10
-19.3411968777103
20
1.73521217538509
30
0.000000000000000
11
-19.2411968777103
21
1.67160602270403
31
0.000000000000000
  0
LINE
  5
F1021E
330
F1021F
100
AcDbEntity
8
Geo
100
AcDbLine
10
-19.2411968777103
20
1.67160602270403
30
0.000000000000000
11
-19.1411968777103
21
1.60857737870295
31
0.000000000000000
  0
LINE
  5
F10220
330
F10221
100
AcDbEntity
8
Geo
100
AcDbLine
10
-19.1411968777103
20
1.60857737870295
30
0.000000000000000
11
-19.0411968777103
21
1.54613317733763
31
0.000000000000000
  0
LINE
  5
F10222
330
F10223
100
AcDbEntity
8
Geo
100
AcDbLine
10
-19.0411968777103
20
1.54613317733763
30
0.000000000000000
11
-18.9411968777103
21
1.48428028826772
31
0.000000000000000
  0
LINE
  5
F10224
330
F10225
100
AcDbEntity
8
Geo
100
AcDbLine
10
-18.9411968777103
20
1.48428028826772
30
0.000000000000000
11
-18.8411968777103
21
1.42302551610096
31
0.000000000000000
  0
LINE
  5
F10226
330
F10227
100
AcDbEntity
8
Geo
100
AcDbLine
10
-18.8411968777103
20
1.42302551610096
30
0.000000000000000
11
-18.7411968777103
21
1.36237559964458
31
0.000000000000000
  0
LINE
  5
F10228
330
F10229
100
AcDbEntity
8
Geo
100
AcDbLine
10
-18.7411968777103
20
1.36237559964458
30
0.000000000000000
11
-18.6411968777103
21
1.30233721116397
31
0.000000000000000
  0
LINE
  5
F1022A
330
F1022B
100
AcDbEntity
8
Geo
100
AcDbLine
10
-18.6411968777103
20
1.30233721116397
30
0.000000000000000
11
-18.5411968777103
21
1.24291695564864
31
0.000000000000000
  0
LINE
  5
F1022C
330
F1022D
100
AcDbEntity
8
Geo
100
AcDbLine
10
-18.5411968777103
20
1.24291695564864
30
0.000000000000000
11
-18.4411968777103
21
1.18412137008555
31
0.000000000000000
  0
LINE
  5
F1022E
330
F1022F
100
AcDbEntity
8
Geo
100
AcDbLine
10
-18.4411968777103
20
1.18412137008555
30
0.000000000000000
11
-18.3411968777103
21
1.12595692274002
31
0.000000000000000
  0
LINE
  5
F10230
330
F10231
100
AcDbEntity
8
Geo
100
AcDbLine
10
-18.3411968777103
20
1.12595692274002
30
0.000000000000000
11
-18.2411968777103
21
1.06843001244409
31
0.000000000000000
  0
LINE
  5
F10232
330
F10233
100
AcDbEntity
8
Geo
100
AcDbLine
10
-18.2411968777103
20
1.06843001244409
30
0.000000000000000
11
-18.1411968777103
21
1.01154696789257
31
0.000000000000000
  0
LINE
  5
F10234
330
F10235
100
AcDbEntity
8
Geo
100
AcDbLine
10
-18.1411968777103
20
1.01154696789257
30
0.000000000000000
11
-18.0411968777102
21
0.955314046946851
31
0.000000000000000
  0
LINE
  5
F10236
330
F10237
100
AcDbEntity
8
Geo
100
AcDbLine
10
-18.0411968777102
20
0.955314046946851
30
0.000000000000000
11
-17.9411968777102
21
0.899737435946390
31
0.000000000000000
  0
LINE
  5
F10238
330
F10239
100
AcDbEntity
8
Geo
100
AcDbLine
10
-17.9411968777102
20
0.899737435946390
30
0.000000000000000
11
-17.8411968777102
21
0.844823249028183
31
0.000000000000000
  0
LINE
  5
F1023A
330
F1023B
100
AcDbEntity
8
Geo
100
AcDbLine
10
-17.8411968777102
20
0.844823249028183
30
0.000000000000000
11
-17.7411968777102
21
0.790577527454114
31
0.000000000000000
  0
LINE
  5
F1023C
330
F1023D
100
AcDbEntity
8
Geo
100
AcDbLine
10
-17.7411968777102
20
0.790577527454114
30
0.000000000000000
11
-17.6411968777102
21
0.737006238946345
31
0.000000000000000
  0
LINE
  5
F1023E
330
F1023F
100
AcDbEntity
8
Geo
100
AcDbLine
10
-17.6411968777102
20
0.737006238946345
30
0.000000000000000
11
-17.5411968777102
21
0.684115277030783
31
0.000000000000000
  0
LINE
  5
F10240
330
F10241
100
AcDbEntity
8
Geo
100
AcDbLine
10
-17.5411968777102
20
0.684115277030783
30
0.000000000000000
11
-17.4411968777102
21
0.631910460388726
31
0.000000000000000
  0
LINE
  5
F10242
330
F10243
100
AcDbEntity
8
Geo
100
AcDbLine
10
-17.4411968777102
20
0.631910460388726
30
0.000000000000000
11
-17.3411968777102
21
0.580397532216724
31
0.000000000000000
  0
LINE
  5
F10244
330
F10245
100
AcDbEntity
8
Geo
100
AcDbLine
10
-17.3411968777102
20
0.580397532216724
30
0.000000000000000
11
-17.2411968777102
21
0.529582159594761
31
0.000000000000000
  0
LINE
  5
F10246
330
F10247
100
AcDbEntity
8
Geo
100
AcDbLine
10
-17.2411968777102
20
0.529582159594761
30
0.000000000000000
11
-17.1411968777102
21
0.479469932862804
31
0.000000000000000
  0
LINE
  5
F10248
330
F10249
100
AcDbEntity
8
Geo
100
AcDbLine
10
-17.1411968777102
20
0.479469932862804
30
0.000000000000000
11
-17.0411968777102
21
0.430066365005789
31
0.000000000000000
  0
LINE
  5
F1024A
330
F1024B
100
AcDbEntity
8
Geo
100
AcDbLine
10
-17.0411968777102
20
0.430066365005789
30
0.000000000000000
11
-16.9411968777102
21
0.381376891047127
31
0.000000000000000
  0
LINE
  5
F1024C
330
F1024D
100
AcDbEntity
8
Geo
100
AcDbLine
10
-16.9411968777102
20
0.381376891047127
30
0.000000000000000
11
-16.8411968777102
21
0.333406867450780
31
0.000000000000000
  0
LINE
  5
F1024E
330
F1024F
100
AcDbEntity
8
Geo
100
AcDbLine
10
-16.8411968777102
20
0.333406867450780
30
0.000000000000000
11
-16.7411968777102
21
0.286161571531981
31
0.000000000000000
  0
LINE
  5
F10250
330
F10251
100
AcDbEntity
8
Geo
100
AcDbLine
10
-16.7411968777102
20
0.286161571531981
30
0.000000000000000
11
-16.6411968777102
21
0.239646200876663
31
0.000000000000000
  0
LINE
  5
F10252
330
F10253
100
AcDbEntity
8
Geo
100
AcDbLine
10
-16.6411968777102
20
0.239646200876663
30
0.000000000000000
11
-16.5411968777102
21
0.193865872769661
31
0.000000000000000
  0
LINE
  5
F10254
330
F10255
100
AcDbEntity
8
Geo
100
AcDbLine
10
-16.5411968777102
20
0.193865872769661
30
0.000000000000000
11
-16.4411968777102
21
0.148825623631736
31
0.000000000000000
  0
LINE
  5
F10256
330
F10257
100
AcDbEntity
8
Geo
100
AcDbLine
10
-16.4411968777102
20
0.148825623631736
30
0.000000000000000
11
-16.3411968777102
21
0.104530408465516
31
0.000000000000000
  0
LINE
  5
F10258
330
F10259
100
AcDbEntity
8
Geo
100
AcDbLine
10
-16.3411968777102
20
0.104530408465516
30
0.000000000000000
11
-16.2411968777102
21
0.0609851003103747
31
0.000000000000000
  0
LINE
  5
F1025A
330
F1025B
100
AcDbEntity
8
Geo
100
AcDbLine
10
-16.2411968777102
20
0.0609851003103747
30
0.000000000000000
11
-16.1411968777102
21
0.0181944897063397
31
0.000000000000000
  0
LINE
  5
F1025C
330
F1025D
100
AcDbEntity
8
Geo
100
AcDbLine
10
-16.1411968777102
20
0.0181944897063397
30
0.000000000000000
11
-16.0411968777102
21
-0.0238367158329336
31
0.000000000000000
  0
LINE
  5
F1025E
330
F1025F
100
AcDbEntity
8
Geo
100
AcDbLine
10
-16.0411968777102
20
-0.0238367158329336
30
0.000000000000000
11
-15.9411968777102
21
-0.0651038923380449
31
0.000000000000000
  0
LINE
  5
F10260
330
F10261
100
AcDbEntity
8
Geo
100
AcDbLine
10
-15.9411968777102
20
-0.0651038923380449
30
0.000000000000000
11
-15.8411968777102
21
-0.105602499892543
31
0.000000000000000
  0
LINE
  5
F10262
330
F10263
100
AcDbEntity
8
Geo
100
AcDbLine
10
-15.8411968777102
20
-0.105602499892543
30
0.000000000000000
11
-15.7411968777102
21
-0.145328083132378
31
0.000000000000000
  0
LINE
  5
F10264
330
F10265
100
AcDbEntity
8
Geo
100
AcDbLine
10
-15.7411968777102
20
-0.145328083132378
30
0.000000000000000
11
-15.6411968777102
21
-0.184276271736048
31
0.000000000000000
  0
LINE
  5
F10266
330
F10267
100
AcDbEntity
8
Geo
100
AcDbLine
10
-15.6411968777102
20
-0.184276271736048
30
0.000000000000000
11
-15.5411968777102
21
-0.222442780905390
31
0.000000000000000
  0
LINE
  5
F10268
330
F10269
100
AcDbEntity
8
Geo
100
AcDbLine
10
-15.5411968777102
20
-0.222442780905390
30
0.000000000000000
11
-15.4411968777102
21
-0.259823411836960
31
0.000000000000000
  0
LINE
  5
F1026A
330
F1026B
100
AcDbEntity
8
Geo
100
AcDbLine
10
-15.4411968777102
20
-0.259823411836960
30
0.000000000000000
11
-15.3411968777102
21
-0.296414052183957
31
0.000000000000000
  0
LINE
  5
F1026C
330
F1026D
100
AcDbEntity
8
Geo
100
AcDbLine
10
-15.3411968777102
20
-0.296414052183957
30
0.000000000000000
11
-15.2411968777102
21
-0.332210676508634
31
0.000000000000000
  0
LINE
  5
F1026E
330
F1026F
100
AcDbEntity
8
Geo
100
AcDbLine
10
-15.2411968777102
20
-0.332210676508634
30
0.000000000000000
11
-15.1411968777102
21
-0.367209346725147
31
0.000000000000000
  0
LINE
  5
F10270
330
F10271
100
AcDbEntity
8
Geo
100
AcDbLine
10
-15.1411968777102
20
-0.367209346725147
30
0.000000000000000
11
-15.0411968777102
21
-0.401406212532795
31
0.000000000000000
  0
LINE
  5
F10272
330
F10273
100
AcDbEntity
8
Geo
100
AcDbLine
10
-15.0411968777102
20
-0.401406212532795
30
0.000000000000000
11
-14.9411968777102
21
-0.434797511839601
31
0.000000000000000
  0
LINE
  5
F10274
330
F10275
100
AcDbEntity
8
Geo
100
AcDbLine
10
-14.9411968777102
20
-0.434797511839601
30
0.000000000000000
11
-14.8411968777102
21
-0.467379571176195
31
0.000000000000000
  0
LINE
  5
F10276
330
F10277
100
AcDbEntity
8
Geo
100
AcDbLine
10
-14.8411968777102
20
-0.467379571176195
30
0.000000000000000
11
-14.7411968777102
21
-0.499148806099932
31
0.000000000000000
  0
LINE
  5
F10278
330
F10279
100
AcDbEntity
8
Geo
100
AcDbLine
10
-14.7411968777102
20
-0.499148806099932
30
0.000000000000000
11
-14.6411968777102
21
-0.530101721589238
31
0.000000000000000
  0
LINE
  5
F1027A
330
F1027B
100
AcDbEntity
8
Geo
100
AcDbLine
10
-14.6411968777102
20
-0.530101721589238
30
0.000000000000000
11
-14.5411968777102
21
-0.560234912428103
31
0.000000000000000
  0
LINE
  5
F1027C
330
F1027D
100
AcDbEntity
8
Geo
100
AcDbLine
10
-14.5411968777102
20
-0.560234912428103
30
0.000000000000000
11
-14.4411968777102
21
-0.589545063580694
31
0.000000000000000
  0
LINE
  5
F1027E
330
F1027F
100
AcDbEntity
8
Geo
100
AcDbLine
10
-14.4411968777102
20
-0.589545063580694
30
0.000000000000000
11
-14.3411968777102
21
-0.618028950556056
31
0.000000000000000
  0
LINE
  5
F10280
330
F10281
100
AcDbEntity
8
Geo
100
AcDbLine
10
-14.3411968777102
20
-0.618028950556056
30
0.000000000000000
11
-14.2411968777102
21
-0.645683439762848
31
0.000000000000000
  0
LINE
  5
F10282
330
F10283
100
AcDbEntity
8
Geo
100
AcDbLine
10
-14.2411968777102
20
-0.645683439762848
30
0.000000000000000
11
-14.1411968777102
21
-0.672505488854074
31
0.000000000000000
  0
LINE
  5
F10284
330
F10285
100
AcDbEntity
8
Geo
100
AcDbLine
10
-14.1411968777102
20
-0.672505488854074
30
0.000000000000000
11
-14.0411968777102
21
-0.698492147061780
31
0.000000000000000
  0
LINE
  5
F10286
330
F10287
100
AcDbEntity
8
Geo
100
AcDbLine
10
-14.0411968777102
20
-0.698492147061780
30
0.000000000000000
11
-13.9411968777102
21
-0.723640555521684
31
0.000000000000000
  0
LINE
  5
F10288
330
F10289
100
AcDbEntity
8
Geo
100
AcDbLine
10
-13.9411968777102
20
-0.723640555521684
30
0.000000000000000
11
-13.8411968777102
21
-0.747947947587677
31
0.000000000000000
  0
LINE
  5
F1028A
330
F1028B
100
AcDbEntity
8
Geo
100
AcDbLine
10
-13.8411968777102
20
-0.747947947587677
30
0.000000000000000
11
-13.7411968777102
21
-0.771411649136195
31
0.000000000000000
  0
LINE
  5
F1028C
330
F1028D
100
AcDbEntity
8
Geo
100
AcDbLine
10
-13.7411968777102
20
-0.771411649136195
30
0.000000000000000
11
-13.6411968777102
21
-0.794029078860406
31
0.000000000000000
  0
LINE
  5
F1028E
330
F1028F
100
AcDbEntity
8
Geo
100
AcDbLine
10
-13.6411968777102
20
-0.794029078860406
30
0.000000000000000
11
-13.5411968777102
21
-0.815797748554189
31
0.000000000000000
  0
LINE
  5
F10290
330
F10291
100
AcDbEntity
8
Geo
100
AcDbLine
10
-13.5411968777102
20
-0.815797748554189
30
0.000000000000000
11
-13.4411968777102
21
-0.836715263385863
31
0.000000000000000
  0
LINE
  5
F10292
330
F10293
100
AcDbEntity
8
Geo
100
AcDbLine
10
-13.4411968777102
20
-0.836715263385863
30
0.000000000000000
11
-13.3411968777102
21
-0.856779322161652
31
0.000000000000000
  0
LINE
  5
F10294
330
F10295
100
AcDbEntity
8
Geo
100
AcDbLine
10
-13.3411968777102
20
-0.856779322161652
30
0.000000000000000
11
-13.2411968777102
21
-0.875987717578850
31
0.000000000000000
  0
LINE
  5
F10296
330
F10297
100
AcDbEntity
8
Geo
100
AcDbLine
10
-13.2411968777102
20
-0.875987717578850
30
0.000000000000000
11
-13.1411968777102
21
-0.894338336468644
31
0.000000000000000
  0
LINE
  5
F10298
330
F10299
100
AcDbEntity
8
Geo
100
AcDbLine
10
-13.1411968777102
20
-0.894338336468644
30
0.000000000000000
11
-13.0411968777102
21
-0.911829160028596
31
0.000000000000000
  0
LINE
  5
F1029A
330
F1029B
100
AcDbEntity
8
Geo
100
AcDbLine
10
-13.0411968777102
20
-0.911829160028596
30
0.000000000000000
11
-12.9411968777102
21
-0.928458264044733
31
0.000000000000000
  0
LINE
  5
F1029C
330
F1029D
100
AcDbEntity
8
Geo
100
AcDbLine
10
-12.9411968777102
20
-0.928458264044733
30
0.000000000000000
11
-12.8411968777102
21
-0.944223819103239
31
0.000000000000000
  0
LINE
  5
F1029E
330
F1029F
100
AcDbEntity
8
Geo
100
AcDbLine
10
-12.8411968777102
20
-0.944223819103239
30
0.000000000000000
11
-12.7411968777102
21
-0.959124090791713
31
0.000000000000000
  0
LINE
  5
F102A0
330
F102A1
100
AcDbEntity
8
Geo
100
AcDbLine
10
-12.7411968777102
20
-0.959124090791713
30
0.000000000000000
11
-12.6411968777102
21
-0.973157439889972
31
0.000000000000000
  0
LINE
  5
F102A2
330
F102A3
100
AcDbEntity
8
Geo
100
AcDbLine
10
-12.6411968777102
20
-0.973157439889972
30
0.000000000000000
11
-12.5411968777102
21
-0.986322322550393
31
0.000000000000000
  0
LINE
  5
F102A4
330
F102A5
100
AcDbEntity
8
Geo
100
AcDbLine
10
-12.5411968777102
20
-0.986322322550393
30
0.000000000000000
11
-12.4411968777102
21
-0.998617290467750
31
0.000000000000000
  0
LINE
  5
F102A6
330
F102A7
100
AcDbEntity
8
Geo
100
AcDbLine
10
-12.4411968777102
20
-0.998617290467750
30
0.000000000000000
11
-12.3411968777102
21
-1.01004099103855
31
0.000000000000000
  0
LINE
  5
F102A8
330
F102A9
100
AcDbEntity
8
Geo
100
AcDbLine
10
-12.3411968777102
20
-1.01004099103855
30
0.000000000000000
11
-12.2411968777102
21
-1.02059216750984
31
0.000000000000000
  0
LINE
  5
F102AA
330
F102AB
100
AcDbEntity
8
Geo
100
AcDbLine
10
-12.2411968777102
20
-1.02059216750984
30
0.000000000000000
11
-12.1411968777102
21
-1.03026965911744
31
0.000000000000000
  0
LINE
  5
F102AC
330
F102AD
100
AcDbEntity
8
Geo
100
AcDbLine
10
-12.1411968777102
20
-1.03026965911744
30
0.000000000000000
11
-12.0411968777102
21
-1.03907240121370
31
0.000000000000000
  0
LINE
  5
F102AE
330
F102AF
100
AcDbEntity
8
Geo
100
AcDbLine
10
-12.0411968777102
20
-1.03907240121370
30
0.000000000000000
11
-11.9411968777102
21
-1.04699942538456
31
0.000000000000000
  0
LINE
  5
F102B0
330
F102B1
100
AcDbEntity
8
Geo
100
AcDbLine
10
-11.9411968777102
20
-1.04699942538456
30
0.000000000000000
11
-11.8411968777102
21
-1.05404985955611
31
0.000000000000000
  0
LINE
  5
F102B2
330
F102B3
100
AcDbEntity
8
Geo
100
AcDbLine
10
-11.8411968777102
20
-1.05404985955611
30
0.000000000000000
11
-11.7411968777102
21
-1.06022292809057
31
0.000000000000000
  0
LINE
  5
F102B4
330
F102B5
100
AcDbEntity
8
Geo
100
AcDbLine
10
-11.7411968777102
20
-1.06022292809057
30
0.000000000000000
11
-11.6411968777102
21
-1.06551795187155
31
0.000000000000000
  0
LINE
  5
F102B6
330
F102B7
100
AcDbEntity
8
Geo
100
AcDbLine
10
-11.6411968777102
20
-1.06551795187155
30
0.000000000000000
11
-11.5411968777102
21
-1.06993434837881
31
0.000000000000000
  0
LINE
  5
F102B8
330
F102B9
100
AcDbEntity
8
Geo
100
AcDbLine
10
-11.5411968777102
20
-1.06993434837881
30
0.000000000000000
11
-11.4411968777102
21
-1.07347163175234
31
0.000000000000000
  0
LINE
  5
F102BA
330
F102BB
100
AcDbEntity
8
Geo
100
AcDbLine
10
-11.4411968777102
20
-1.07347163175234
30
0.000000000000000
11
-11.3411968777102
21
-1.07612941284578
31
0.000000000000000
  0
LINE
  5
F102BC
330
F102BD
100
AcDbEntity
8
Geo
100
AcDbLine
10
-11.3411968777102
20
-1.07612941284578
30
0.000000000000000
11
-11.2411968777102
21
-1.07790739926927
31
0.000000000000000
  0
LINE
  5
F102BE
330
F102BF
100
AcDbEntity
8
Geo
100
AcDbLine
10
-11.2411968777102
20
-1.07790739926927
30
0.000000000000000
11
-11.1411968777102
21
-1.07880539542161
31
0.000000000000000
  0
LINE
  5
F102C0
330
F102C1
100
AcDbEntity
8
Geo
100
AcDbLine
10
-41.0411968777103
20
-1.07892454466611
30
0.000000000000000
11
-41.0411968777103
21
-1.07892454466611
31
0.000000000000000
  0
LINE
  5
F102C2
330
F102C3
100
AcDbEntity
8
Geo
100
AcDbLine
10
-14.4171659029061
20
14.9210754553339
30
0.000000000000000
11
-14.3411968777102
21
14.9208214868215
31
0.000000000000000
  0
LINE
  5
F102C4
330
F102C5
100
AcDbEntity
8
Geo
100
AcDbLine
10
-14.3411968777102
20
14.9208214868215
30
0.000000000000000
11
-14.2411968777102
21
14.9197128563416
31
0.000000000000000
  0
LINE
  5
F102C6
330
F102C7
100
AcDbEntity
8
Geo
100
AcDbLine
10
-14.2411968777102
20
14.9197128563416
30
0.000000000000000
11
-14.1411968777102
21
14.9177242735949
31
0.000000000000000
  0
LINE
  5
F102C8
330
F102C9
100
AcDbEntity
8
Geo
100
AcDbLine
10
-14.1411968777102
20
14.9177242735949
30
0.000000000000000
11
-14.0411968777102
21
14.9148559573509
31
0.000000000000000
  0
LINE
  5
F102CA
330
F102CB
100
AcDbEntity
8
Geo
100
AcDbLine
10
-14.0411968777102
20
14.9148559573509
30
0.000000000000000
11
-13.9411968777102
21
14.9111082231609
31
0.000000000000000
  0
LINE
  5
F102CC
330
F102CD
100
AcDbEntity
8
Geo
100
AcDbLine
10
-13.9411968777102
20
14.9111082231609
30
0.000000000000000
11
-13.8411968777102
21
14.9064814833235
31
0.000000000000000
  0
LINE
  5
F102CE
330
F102CF
100
AcDbEntity
8
Geo
100
AcDbLine
10
-13.8411968777102
20
14.9064814833235
30
0.000000000000000
11
-13.7411968777102
21
14.9009762468394
31
0.000000000000000
  0
LINE
  5
F102D0
330
F102D1
100
AcDbEntity
8
Geo
100
AcDbLine
10
-13.7411968777102
20
14.9009762468394
30
0.000000000000000
11
-13.6411968777102
21
14.8945931193547
31
0.000000000000000
  0
LINE
  5
F102D2
330
F102D3
100
AcDbEntity
8
Geo
100
AcDbLine
10
-13.6411968777102
20
14.8945931193547
30
0.000000000000000
11
-13.5411968777102
21
14.8873328030951
31
0.000000000000000
  0
LINE
  5
F102D4
330
F102D5
100
AcDbEntity
8
Geo
100
AcDbLine
10
-13.5411968777102
20
14.8873328030951
30
0.000000000000000
11
-13.4411968777102
21
14.8791960967880
31
0.000000000000000
  0
LINE
  5
F102D6
330
F102D7
100
AcDbEntity
8
Geo
100
AcDbLine
10
-13.4411968777102
20
14.8791960967880
30
0.000000000000000
11
-13.3411968777102
21
14.8701838955750
31
0.000000000000000
  0
LINE
  5
F102D8
330
F102D9
100
AcDbEntity
8
Geo
100
AcDbLine
10
-13.3411968777102
20
14.8701838955750
30
0.000000000000000
11
-13.2411968777102
21
14.8602971909135
31
0.000000000000000
  0
LINE
  5
F102DA
330
F102DB
100
AcDbEntity
8
Geo
100
AcDbLine
10
-13.2411968777102
20
14.8602971909135
30
0.000000000000000
11
-13.1411968777102
21
14.8495370704670
31
0.000000000000000
  0
LINE
  5
F102DC
330
F102DD
100
AcDbEntity
8
Geo
100
AcDbLine
10
-13.1411968777102
20
14.8495370704670
30
0.000000000000000
11
-13.0411968777102
21
14.8379047179865
31
0.000000000000000
  0
LINE
  5
F102DE
330
F102DF
100
AcDbEntity
8
Geo
100
AcDbLine
10
-13.0411968777102
20
14.8379047179865
30
0.000000000000000
11
-12.9411968777102
21
14.8254014131790
31
0.000000000000000
  0
LINE
  5
F102E0
330
F102E1
100
AcDbEntity
8
Geo
100
AcDbLine
10
-12.9411968777102
20
14.8254014131790
30
0.000000000000000
11
-12.8411968777102
21
14.8120285315680
31
0.000000000000000
  0
LINE
  5
F102E2
330
F102E3
100
AcDbEntity
8
Geo
100
AcDbLine
10
-12.8411968777102
20
14.8120285315680
30
0.000000000000000
11
-12.7411968777102
21
14.7977875443411
31
0.000000000000000
  0
LINE
  5
F102E4
330
F102E5
100
AcDbEntity
8
Geo
100
AcDbLine
10
-12.7411968777102
20
14.7977875443411
30
0.000000000000000
11
-12.6411968777102
21
14.7826800181887
31
0.000000000000000
  0
LINE
  5
F102E6
330
F102E7
100
AcDbEntity
8
Geo
100
AcDbLine
10
-12.6411968777102
20
14.7826800181887
30
0.000000000000000
11
-12.5411968777102
21
14.7667076151319
31
0.000000000000000
  0
LINE
  5
F102E8
330
F102E9
100
AcDbEntity
8
Geo
100
AcDbLine
10
-12.5411968777102
20
14.7667076151319
30
0.000000000000000
11
-12.4411968777102
21
14.7498720923387
31
0.000000000000000
  0
LINE
  5
F102EA
330
F102EB
100
AcDbEntity
8
Geo
100
AcDbLine
10
-12.4411968777102
20
14.7498720923387
30
0.000000000000000
11
-12.3411968777102
21
14.7321753019319
31
0.000000000000000
  0
LINE
  5
F102EC
330
F102ED
100
AcDbEntity
8
Geo
100
AcDbLine
10
-12.3411968777102
20
14.7321753019319
30
0.000000000000000
11
-12.2411968777102
21
14.7136191907842
31
0.000000000000000
  0
LINE
  5
F102EE
330
F102EF
100
AcDbEntity
8
Geo
100
AcDbLine
10
-12.2411968777102
20
14.7136191907842
30
0.000000000000000
11
-12.1411968777102
21
14.6942058003050
31
0.000000000000000
  0
LINE
  5
F102F0
330
F102F1
100
AcDbEntity
8
Geo
100
AcDbLine
10
-12.1411968777102
20
14.6942058003050
30
0.000000000000000
11
-12.0411968777102
21
14.6739372662151
31
0.000000000000000
  0
LINE
  5
F102F2
330
F102F3
100
AcDbEntity
8
Geo
100
AcDbLine
10
-12.0411968777102
20
14.6739372662151
30
0.000000000000000
11
-11.9411968777102
21
14.6528158183122
31
0.000000000000000
  0
LINE
  5
F102F4
330
F102F5
100
AcDbEntity
8
Geo
100
AcDbLine
10
-11.9411968777102
20
14.6528158183122
30
0.000000000000000
11
-11.8411968777102
21
14.6308437802252
31
0.000000000000000
  0
LINE
  5
F102F6
330
F102F7
100
AcDbEntity
8
Geo
100
AcDbLine
10
-11.8411968777102
20
14.6308437802252
30
0.000000000000000
11
-11.7411968777102
21
14.6080235691589
31
0.000000000000000
  0
LINE
  5
F102F8
330
F102F9
100
AcDbEntity
8
Geo
100
AcDbLine
10
-11.7411968777102
20
14.6080235691589
30
0.000000000000000
11
-11.6411968777102
21
14.5843576956281
31
0.000000000000000
  0
LINE
  5
F102FA
330
F102FB
100
AcDbEntity
8
Geo
100
AcDbLine
10
-11.6411968777102
20
14.5843576956281
30
0.000000000000000
11
-11.5411968777102
21
14.5598487631809
31
0.000000000000000
  0
LINE
  5
F102FC
330
F102FD
100
AcDbEntity
8
Geo
100
AcDbLine
10
-11.5411968777102
20
14.5598487631809
30
0.000000000000000
11
-11.4411968777102
21
14.5344994681131
31
0.000000000000000
  0
LINE
  5
F102FE
330
F102FF
100
AcDbEntity
8
Geo
100
AcDbLine
10
-11.4411968777102
20
14.5344994681131
30
0.000000000000000
11
-11.3411968777102
21
14.5083125991708
31
0.000000000000000
  0
LINE
  5
F10300
330
F10301
100
AcDbEntity
8
Geo
100
AcDbLine
10
-11.3411968777102
20
14.5083125991708
30
0.000000000000000
11
-11.2411968777102
21
14.4812910372441
31
0.000000000000000
  0
LINE
  5
F10302
330
F10303
100
AcDbEntity
8
Geo
100
AcDbLine
10
-11.2411968777102
20
14.4812910372441
30
0.000000000000000
11
-11.1411968777102
21
14.4534377550498
31
0.000000000000000
  0
LINE
  5
F10304
330
F10305
100
AcDbEntity
8
Geo
100
AcDbLine
10
-41.0411968777103
20
14.4386164216212
30
0.000000000000000
11
-40.9411968777103
21
14.4095045374613
31
0.000000000000000
  0
LINE
  5
F10306
330
F10307
100
AcDbEntity
8
Geo
100
AcDbLine
10
-40.9411968777103
20
14.4095045374613
30
0.000000000000000
11
-40.8411968777103
21
14.3795688304656
31
0.000000000000000
  0
LINE
  5
F10308
330
F10309
100
AcDbEntity
8
Geo
100
AcDbLine
10
-40.8411968777103
20
14.3795688304656
30
0.000000000000000
11
-40.7411968777103
21
14.3488125939442
31
0.000000000000000
  0
LINE
  5
F1030A
330
F1030B
100
AcDbEntity
8
Geo
100
AcDbLine
10
-40.7411968777103
20
14.3488125939442
30
0.000000000000000
11
-40.6411968777103
21
14.3172392114760
31
0.000000000000000
  0
LINE
  5
F1030C
330
F1030D
100
AcDbEntity
8
Geo
100
AcDbLine
10
-40.6411968777103
20
14.3172392114760
30
0.000000000000000
11
-40.5411968777103
21
14.2848521565362
31
0.000000000000000
  0
LINE
  5
F1030E
330
F1030F
100
AcDbEntity
8
Geo
100
AcDbLine
10
-40.5411968777103
20
14.2848521565362
30
0.000000000000000
11
-40.4411968777103
21
14.2516549921145
31
0.000000000000000
  0
LINE
  5
F10310
330
F10311
100
AcDbEntity
8
Geo
100
AcDbLine
10
-40.4411968777103
20
14.2516549921145
30
0.000000000000000
11
-40.3411968777103
21
14.2176513703229
31
0.000000000000000
  0
LINE
  5
F10312
330
F10313
100
AcDbEntity
8
Geo
100
AcDbLine
10
-40.3411968777103
20
14.2176513703229
30
0.000000000000000
11
-40.2411968777103
21
14.1828450319942
31
0.000000000000000
  0
LINE
  5
F10314
330
F10315
100
AcDbEntity
8
Geo
100
AcDbLine
10
-40.2411968777103
20
14.1828450319942
30
0.000000000000000
11
-40.1411968777103
21
14.1472398062701
31
0.000000000000000
  0
LINE
  5
F10316
330
F10317
100
AcDbEntity
8
Geo
100
AcDbLine
10
-40.1411968777103
20
14.1472398062701
30
0.000000000000000
11
-40.0411968777103
21
14.1108396101800
31
0.000000000000000
  0
LINE
  5
F10318
330
F10319
100
AcDbEntity
8
Geo
100
AcDbLine
10
-40.0411968777103
20
14.1108396101800
30
0.000000000000000
11
-39.9411968777103
21
14.0736484482105
31
0.000000000000000
  0
LINE
  5
F1031A
330
F1031B
100
AcDbEntity
8
Geo
100
AcDbLine
10
-39.9411968777103
20
14.0736484482105
30
0.000000000000000
11
-39.8411968777103
21
14.0356704118644
31
0.000000000000000
  0
LINE
  5
F1031C
330
F1031D
100
AcDbEntity
8
Geo
100
AcDbLine
10
-39.8411968777103
20
14.0356704118644
30
0.000000000000000
11
-39.7411968777103
21
13.9969096792107
31
0.000000000000000
  0
LINE
  5
F1031E
330
F1031F
100
AcDbEntity
8
Geo
100
AcDbLine
10
-39.7411968777103
20
13.9969096792107
30
0.000000000000000
11
-39.6411968777103
21
13.9573705144250
31
0.000000000000000
  0
LINE
  5
F10320
330
F10321
100
AcDbEntity
8
Geo
100
AcDbLine
10
-39.6411968777103
20
13.9573705144250
30
0.000000000000000
11
-39.5411968777103
21
13.9170572673203
31
0.000000000000000
  0
LINE
  5
F10322
330
F10323
100
AcDbEntity
8
Geo
100
AcDbLine
10
-39.5411968777103
20
13.9170572673203
30
0.000000000000000
11
-39.4411968777103
21
13.8759743728688
31
0.000000000000000
  0
LINE
  5
F10324
330
F10325
100
AcDbEntity
8
Geo
100
AcDbLine
10
-39.4411968777103
20
13.8759743728688
30
0.000000000000000
11
-39.3411968777103
21
13.8341263507135
31
0.000000000000000
  0
LINE
  5
F10326
330
F10327
100
AcDbEntity
8
Geo
100
AcDbLine
10
-39.3411968777103
20
13.8341263507135
30
0.000000000000000
11
-39.2411968777103
21
13.7915178046712
31
0.000000000000000
  0
LINE
  5
F10328
330
F10329
100
AcDbEntity
8
Geo
100
AcDbLine
10
-39.2411968777103
20
13.7915178046712
30
0.000000000000000
11
-39.1411968777103
21
13.7481534222263
31
0.000000000000000
  0
LINE
  5
F1032A
330
F1032B
100
AcDbEntity
8
Geo
100
AcDbLine
10
-39.1411968777103
20
13.7481534222263
30
0.000000000000000
11
-39.0411968777103
21
13.7040379740145
31
0.000000000000000
  0
LINE
  5
F1032C
330
F1032D
100
AcDbEntity
8
Geo
100
AcDbLine
10
-39.0411968777103
20
13.7040379740145
30
0.000000000000000
11
-38.9411968777103
21
13.6591763132987
31
0.000000000000000
  0
LINE
  5
F1032E
330
F1032F
100
AcDbEntity
8
Geo
100
AcDbLine
10
-38.9411968777103
20
13.6591763132987
30
0.000000000000000
11
-38.8411968777103
21
13.6135733754344
31
0.000000000000000
  0
LINE
  5
F10330
330
F10331
100
AcDbEntity
8
Geo
100
AcDbLine
10
-38.8411968777103
20
13.6135733754344
30
0.000000000000000
11
-38.7411968777103
21
13.5672341773272
31
0.000000000000000
  0
LINE
  5
F10332
330
F10333
100
AcDbEntity
8
Geo
100
AcDbLine
10
-38.7411968777103
20
13.5672341773272
30
0.000000000000000
11
-38.6411968777103
21
13.5201638168807
31
0.000000000000000
  0
LINE
  5
F10334
330
F10335
100
AcDbEntity
8
Geo
100
AcDbLine
10
-38.6411968777103
20
13.5201638168807
30
0.000000000000000
11
-38.5411968777103
21
13.4723674724358
31
0.000000000000000
  0
LINE
  5
F10336
330
F10337
100
AcDbEntity
8
Geo
100
AcDbLine
10
-38.5411968777103
20
13.4723674724358
30
0.000000000000000
11
-38.4411968777103
21
13.4238504022006
31
0.000000000000000
  0
LINE
  5
F10338
330
F10339
100
AcDbEntity
8
Geo
100
AcDbLine
10
-38.4411968777103
20
13.4238504022006
30
0.000000000000000
11
-38.3411968777103
21
13.3746179436726
31
0.000000000000000
  0
LINE
  5
F1033A
330
F1033B
100
AcDbEntity
8
Geo
100
AcDbLine
10
-38.3411968777103
20
13.3746179436726
30
0.000000000000000
11
-38.2411968777103
21
13.3246755130510
31
0.000000000000000
  0
LINE
  5
F1033C
330
F1033D
100
AcDbEntity
8
Geo
100
AcDbLine
10
-38.2411968777103
20
13.3246755130510
30
0.000000000000000
11
-38.1411968777103
21
13.2740286046409
31
0.000000000000000
  0
LINE
  5
F1033E
330
F1033F
100
AcDbEntity
8
Geo
100
AcDbLine
10
-38.1411968777103
20
13.2740286046409
30
0.000000000000000
11
-38.0411968777103
21
13.2226827902491
31
0.000000000000000
  0
LINE
  5
F10340
330
F10341
100
AcDbEntity
8
Geo
100
AcDbLine
10
-38.0411968777103
20
13.2226827902491
30
0.000000000000000
11
-37.9411968777103
21
13.1706437185710
31
0.000000000000000
  0
LINE
  5
F10342
330
F10343
100
AcDbEntity
8
Geo
100
AcDbLine
10
-37.9411968777103
20
13.1706437185710
30
0.000000000000000
11
-37.8411968777103
21
13.1179171145690
31
0.000000000000000
  0
LINE
  5
F10344
330
F10345
100
AcDbEntity
8
Geo
100
AcDbLine
10
-37.8411968777103
20
13.1179171145690
30
0.000000000000000
11
-37.7411968777103
21
13.0645087788429
31
0.000000000000000
  0
LINE
  5
F10346
330
F10347
100
AcDbEntity
8
Geo
100
AcDbLine
10
-37.7411968777103
20
13.0645087788429
30
0.000000000000000
11
-37.6411968777103
21
13.0104245869919
31
0.000000000000000
  0
LINE
  5
F10348
330
F10349
100
AcDbEntity
8
Geo
100
AcDbLine
10
-37.6411968777103
20
13.0104245869919
30
0.000000000000000
11
-37.5411968777103
21
12.9556704889676
31
0.000000000000000
  0
LINE
  5
F1034A
330
F1034B
100
AcDbEntity
8
Geo
100
AcDbLine
10
-37.5411968777103
20
12.9556704889676
30
0.000000000000000
11
-37.4411968777103
21
12.9002525084202
31
0.000000000000000
  0
LINE
  5
F1034C
330
F1034D
100
AcDbEntity
8
Geo
100
AcDbLine
10
-37.4411968777103
20
12.9002525084202
30
0.000000000000000
11
-37.3411968777103
21
12.8441767420354
31
0.000000000000000
  0
LINE
  5
F1034E
330
F1034F
100
AcDbEntity
8
Geo
100
AcDbLine
10
-37.3411968777103
20
12.8441767420354
30
0.000000000000000
11
-37.2411968777103
21
12.7874493588634
31
0.000000000000000
  0
LINE
  5
F10350
330
F10351
100
AcDbEntity
8
Geo
100
AcDbLine
10
-37.2411968777103
20
12.7874493588634
30
0.000000000000000
11
-37.1411968777103
21
12.7300765996410
31
0.000000000000000
  0
LINE
  5
F10352
330
F10353
100
AcDbEntity
8
Geo
100
AcDbLine
10
-37.1411968777103
20
12.7300765996410
30
0.000000000000000
11
-37.0411968777103
21
12.6720647761045
31
0.000000000000000
  0
LINE
  5
F10354
330
F10355
100
AcDbEntity
8
Geo
100
AcDbLine
10
-37.0411968777103
20
12.6720647761045
30
0.000000000000000
11
-36.9411968777103
21
12.6134202702952
31
0.000000000000000
  0
LINE
  5
F10356
330
F10357
100
AcDbEntity
8
Geo
100
AcDbLine
10
-36.9411968777103
20
12.6134202702952
30
0.000000000000000
11
-36.8411968777103
21
12.5541495338579
31
0.000000000000000
  0
LINE
  5
F10358
330
F10359
100
AcDbEntity
8
Geo
100
AcDbLine
10
-36.8411968777103
20
12.5541495338579
30
0.000000000000000
11
-36.7411968777103
21
12.4942590873304
31
0.000000000000000
  0
LINE
  5
F1035A
330
F1035B
100
AcDbEntity
8
Geo
100
AcDbLine
10
-36.7411968777103
20
12.4942590873304
30
0.000000000000000
11
-36.6411968777103
21
12.4337555194267
31
0.000000000000000
  0
LINE
  5
F1035C
330
F1035D
100
AcDbEntity
8
Geo
100
AcDbLine
10
-36.6411968777103
20
12.4337555194267
30
0.000000000000000
11
-36.5411968777103
21
12.3726454863121
31
0.000000000000000
  0
LINE
  5
F1035E
330
F1035F
100
AcDbEntity
8
Geo
100
AcDbLine
10
-36.5411968777103
20
12.3726454863121
30
0.000000000000000
11
-36.4411968777103
21
12.3109357108706
31
0.000000000000000
  0
LINE
  5
F10360
330
F10361
100
AcDbEntity
8
Geo
100
AcDbLine
10
-36.4411968777103
20
12.3109357108706
30
0.000000000000000
11
-36.3411968777103
21
12.2486329819657
31
0.000000000000000
  0
LINE
  5
F10362
330
F10363
100
AcDbEntity
8
Geo
100
AcDbLine
10
-36.3411968777103
20
12.2486329819657
30
0.000000000000000
11
-36.2411968777103
21
12.1857441536932
31
0.000000000000000
  0
LINE
  5
F10364
330
F10365
100
AcDbEntity
8
Geo
100
AcDbLine
10
-36.2411968777103
20
12.1857441536932
30
0.000000000000000
11
-36.1411968777103
21
12.1222761446273
31
0.000000000000000
  0
LINE
  5
F10366
330
F10367
100
AcDbEntity
8
Geo
100
AcDbLine
10
-36.1411968777103
20
12.1222761446273
30
0.000000000000000
11
-36.0411968777103
21
12.0582359370597
31
0.000000000000000
  0
LINE
  5
F10368
330
F10369
100
AcDbEntity
8
Geo
100
AcDbLine
10
-36.0411968777103
20
12.0582359370597
30
0.000000000000000
11
-35.9411968777103
21
11.9936305762311
31
0.000000000000000
  0
LINE
  5
F1036A
330
F1036B
100
AcDbEntity
8
Geo
100
AcDbLine
10
-35.9411968777103
20
11.9936305762311
30
0.000000000000000
11
-35.8411968777103
21
11.9284671695562
31
0.000000000000000
  0
LINE
  5
F1036C
330
F1036D
100
AcDbEntity
8
Geo
100
AcDbLine
10
-35.8411968777103
20
11.9284671695562
30
0.000000000000000
11
-35.7411968777103
21
11.8627528858420
31
0.000000000000000
  0
LINE
  5
F1036E
330
F1036F
100
AcDbEntity
8
Geo
100
AcDbLine
10
-35.7411968777103
20
11.8627528858420
30
0.000000000000000
11
-35.6411968777103
21
11.7964949544989
31
0.000000000000000
  0
LINE
  5
F10370
330
F10371
100
AcDbEntity
8
Geo
100
AcDbLine
10
-35.6411968777103
20
11.7964949544989
30
0.000000000000000
11
-35.5411968777103
21
11.7297006647457
31
0.000000000000000
  0
LINE
  5
F10372
330
F10373
100
AcDbEntity
8
Geo
100
AcDbLine
10
-35.5411968777103
20
11.7297006647457
30
0.000000000000000
11
-35.4411968777103
21
11.6623773648071
31
0.000000000000000
  0
LINE
  5
F10374
330
F10375
100
AcDbEntity
8
Geo
100
AcDbLine
10
-35.4411968777103
20
11.6623773648071
30
0.000000000000000
11
-35.3411968777103
21
11.5945324611061
31
0.000000000000000
  0
LINE
  5
F10376
330
F10377
100
AcDbEntity
8
Geo
100
AcDbLine
10
-35.3411968777103
20
11.5945324611061
30
0.000000000000000
11
-35.2411968777103
21
11.5261734174485
31
0.000000000000000
  0
LINE
  5
F10378
330
F10379
100
AcDbEntity
8
Geo
100
AcDbLine
10
-35.2411968777103
20
11.5261734174485
30
0.000000000000000
11
-35.1411968777103
21
11.4573077542022
31
0.000000000000000
  0
LINE
  5
F1037A
330
F1037B
100
AcDbEntity
8
Geo
100
AcDbLine
10
-35.1411968777103
20
11.4573077542022
30
0.000000000000000
11
-35.0411968777103
21
11.3879430474695
31
0.000000000000000
  0
LINE
  5
F1037C
330
F1037D
100
AcDbEntity
8
Geo
100
AcDbLine
10
-35.0411968777103
20
11.3879430474695
30
0.000000000000000
11
-34.9411968777103
21
11.3180869282541
31
0.000000000000000
  0
LINE
  5
F1037E
330
F1037F
100
AcDbEntity
8
Geo
100
AcDbLine
10
-34.9411968777103
20
11.3180869282541
30
0.000000000000000
11
-34.8411968777103
21
11.2477470816212
31
0.000000000000000
  0
LINE
  5
F10380
330
F10381
100
AcDbEntity
8
Geo
100
AcDbLine
10
-34.8411968777103
20
11.2477470816212
30
0.000000000000000
11
-34.7411968777103
21
11.1769312458524
31
0.000000000000000
  0
LINE
  5
F10382
330
F10383
100
AcDbEntity
8
Geo
100
AcDbLine
10
-34.7411968777103
20
11.1769312458524
30
0.000000000000000
11
-34.6411968777103
21
11.1056472115940
31
0.000000000000000
  0
LINE
  5
F10384
330
F10385
100
AcDbEntity
8
Geo
100
AcDbLine
10
-34.6411968777103
20
11.1056472115940
30
0.000000000000000
11
-34.5411968777103
21
11.0339028210001
31
0.000000000000000
  0
LINE
  5
F10386
330
F10387
100
AcDbEntity
8
Geo
100
AcDbLine
10
-34.5411968777103
20
11.0339028210001
30
0.000000000000000
11
-34.4411968777103
21
10.9617059668699
31
0.000000000000000
  0
LINE
  5
F10388
330
F10389
100
AcDbEntity
8
Geo
100
AcDbLine
10
-34.4411968777103
20
10.9617059668699
30
0.000000000000000
11
-34.3411968777103
21
10.8890645917795
31
0.000000000000000
  0
LINE
  5
F1038A
330
F1038B
100
AcDbEntity
8
Geo
100
AcDbLine
10
-34.3411968777103
20
10.8890645917795
30
0.000000000000000
11
-34.2411968777103
21
10.8159866872079
31
0.000000000000000
  0
LINE
  5
F1038C
330
F1038D
100
AcDbEntity
8
Geo
100
AcDbLine
10
-34.2411968777103
20
10.8159866872079
30
0.000000000000000
11
-34.1411968777103
21
10.7424802926578
31
0.000000000000000
  0
LINE
  5
F1038E
330
F1038F
100
AcDbEntity
8
Geo
100
AcDbLine
10
-34.1411968777103
20
10.7424802926578
30
0.000000000000000
11
-34.0411968777103
21
10.6685534947714
31
0.000000000000000
  0
LINE
  5
F10390
330
F10391
100
AcDbEntity
8
Geo
100
AcDbLine
10
-34.0411968777103
20
10.6685534947714
30
0.000000000000000
11
-33.9411968777103
21
10.5942144264406
31
0.000000000000000
  0
LINE
  5
F10392
330
F10393
100
AcDbEntity
8
Geo
100
AcDbLine
10
-33.9411968777103
20
10.5942144264406
30
0.000000000000000
11
-33.8411968777103
21
10.5194712659123
31
0.000000000000000
  0
LINE
  5
F10394
330
F10395
100
AcDbEntity
8
Geo
100
AcDbLine
10
-33.8411968777103
20
10.5194712659123
30
0.000000000000000
11
-33.7411968777103
21
10.4443322358888
31
0.000000000000000
  0
LINE
  5
F10396
330
F10397
100
AcDbEntity
8
Geo
100
AcDbLine
10
-33.7411968777103
20
10.4443322358888
30
0.000000000000000
11
-33.6411968777103
21
10.3688056026230
31
0.000000000000000
  0
LINE
  5
F10398
330
F10399
100
AcDbEntity
8
Geo
100
AcDbLine
10
-33.6411968777103
20
10.3688056026230
30
0.000000000000000
11
-33.5411968777103
21
10.2928996750091
31
0.000000000000000
  0
LINE
  5
F1039A
330
F1039B
100
AcDbEntity
8
Geo
100
AcDbLine
10
-33.5411968777103
20
10.2928996750091
30
0.000000000000000
11
-33.4411968777103
21
10.2166228036685
31
0.000000000000000
  0
LINE
  5
F1039C
330
F1039D
100
AcDbEntity
8
Geo
100
AcDbLine
10
-33.4411968777103
20
10.2166228036685
30
0.000000000000000
11
-33.3411968777103
21
10.1399833800313
31
0.000000000000000
  0
LINE
  5
F1039E
330
F1039F
100
AcDbEntity
8
Geo
100
AcDbLine
10
-33.3411968777103
20
10.1399833800313
30
0.000000000000000
11
-33.2411968777103
21
10.0629898354129
31
0.000000000000000
  0
LINE
  5
F103A0
330
F103A1
100
AcDbEntity
8
Geo
100
AcDbLine
10
-33.2411968777103
20
10.0629898354129
30
0.000000000000000
11
-33.1411968777103
21
9.98565064008645
31
0.000000000000000
  0
LINE
  5
F103A2
330
F103A3
100
AcDbEntity
8
Geo
100
AcDbLine
10
-33.1411968777103
20
9.98565064008645
30
0.000000000000000
11
-33.0411968777103
21
9.90797430235115
31
0.000000000000000
  0
LINE
  5
F103A4
330
F103A5
100
AcDbEntity
8
Geo
100
AcDbLine
10
-33.0411968777103
20
9.90797430235115
30
0.000000000000000
11
-32.9411968777103
21
9.82996936759619
31
0.000000000000000
  0
LINE
  5
F103A6
330
F103A7
100
AcDbEntity
8
Geo
100
AcDbLine
10
-32.9411968777103
20
9.82996936759619
30
0.000000000000000
11
-32.8411968777103
21
9.75164441736062
31
0.000000000000000
  0
LINE
  5
F103A8
330
F103A9
100
AcDbEntity
8
Geo
100
AcDbLine
10
-32.8411968777103
20
9.75164441736062
30
0.000000000000000
11
-32.7411968777103
21
9.67300806838927
31
0.000000000000000
  0
LINE
  5
F103AA
330
F103AB
100
AcDbEntity
8
Geo
100
AcDbLine
10
-32.7411968777103
20
9.67300806838927
30
0.000000000000000
11
-32.6411968777103
21
9.59406897168481
31
0.000000000000000
  0
LINE
  5
F103AC
330
F103AD
100
AcDbEntity
8
Geo
100
AcDbLine
10
-32.6411968777103
20
9.59406897168481
30
0.000000000000000
11
-32.5411968777103
21
9.51483581155604
31
0.000000000000000
  0
LINE
  5
F103AE
330
F103AF
100
AcDbEntity
8
Geo
100
AcDbLine
10
-32.5411968777103
20
9.51483581155604
30
0.000000000000000
11
-32.4411968777103
21
9.43531730466248
31
0.000000000000000
  0
LINE
  5
F103B0
330
F103B1
100
AcDbEntity
8
Geo
100
AcDbLine
10
-32.4411968777103
20
9.43531730466248
30
0.000000000000000
11
-32.3411968777103
21
9.35552219905543
31
0.000000000000000
  0
LINE
  5
F103B2
330
F103B3
100
AcDbEntity
8
Geo
100
AcDbLine
10
-32.3411968777103
20
9.35552219905543
30
0.000000000000000
11
-32.2411968777103
21
9.27545927321560
31
0.000000000000000
  0
LINE
  5
F103B4
330
F103B5
100
AcDbEntity
8
Geo
100
AcDbLine
10
-32.2411968777103
20
9.27545927321560
30
0.000000000000000
11
-32.1411968777103
21
9.19513733508735
31
0.000000000000000
  0
LINE
  5
F103B6
330
F103B7
100
AcDbEntity
8
Geo
100
AcDbLine
10
-32.1411968777103
20
9.19513733508735
30
0.000000000000000
11
-32.0411968777103
21
9.11456522110966
31
0.000000000000000
  0
LINE
  5
F103B8
330
F103B9
100
AcDbEntity
8
Geo
100
AcDbLine
10
-32.0411968777103
20
9.11456522110966
30
0.000000000000000
11
-31.9411968777103
21
9.03375179524409
31
0.000000000000000
  0
LINE
  5
F103BA
330
F103BB
100
AcDbEntity
8
Geo
100
AcDbLine
10
-31.9411968777103
20
9.03375179524409
30
0.000000000000000
11
-31.8411968777103
21
8.95270594799957
31
0.000000000000000
  0
LINE
  5
F103BC
330
F103BD
100
AcDbEntity
8
Geo
100
AcDbLine
10
-31.8411968777103
20
8.95270594799957
30
0.000000000000000
11
-31.7411968777103
21
8.87143659545437
31
0.000000000000000
  0
LINE
  5
F103BE
330
F103BF
100
AcDbEntity
8
Geo
100
AcDbLine
10
-31.7411968777103
20
8.87143659545437
30
0.000000000000000
11
-31.6411968777103
21
8.78995267827517
31
0.000000000000000
  0
LINE
  5
F103C0
330
F103C1
100
AcDbEntity
8
Geo
100
AcDbLine
10
-31.6411968777103
20
8.78995267827517
30
0.000000000000000
11
-31.5411968777103
21
8.70826316073351
31
0.000000000000000
  0
LINE
  5
F103C2
330
F103C3
100
AcDbEntity
8
Geo
100
AcDbLine
10
-31.5411968777103
20
8.70826316073351
30
0.000000000000000
11
-31.4411968777103
21
8.62637702971960
31
0.000000000000000
  0
LINE
  5
F103C4
330
F103C5
100
AcDbEntity
8
Geo
100
AcDbLine
10
-31.4411968777103
20
8.62637702971960
30
0.000000000000000
11
-31.3411968777103
21
8.54430329375365
31
0.000000000000000
  0
LINE
  5
F103C6
330
F103C7
100
AcDbEntity
8
Geo
100
AcDbLine
10
-31.3411968777103
20
8.54430329375365
30
0.000000000000000
11
-31.2411968777103
21
8.46205098199479
31
0.000000000000000
  0
LINE
  5
F103C8
330
F103C9
100
AcDbEntity
8
Geo
100
AcDbLine
10
-31.2411968777103
20
8.46205098199479
30
0.000000000000000
11
-31.1411968777103
21
8.37962914324779
31
0.000000000000000
  0
LINE
  5
F103CA
330
F103CB
100
AcDbEntity
8
Geo
100
AcDbLine
10
-31.1411968777103
20
8.37962914324779
30
0.000000000000000
11
-31.0411968777103
21
8.29704684496754
31
0.000000000000000
  0
LINE
  5
F103CC
330
F103CD
100
AcDbEntity
8
Geo
100
AcDbLine
10
-31.0411968777103
20
8.29704684496754
30
0.000000000000000
11
-30.9411968777103
21
8.21431317226153
31
0.000000000000000
  0
LINE
  5
F103CE
330
F103CF
100
AcDbEntity
8
Geo
100
AcDbLine
10
-30.9411968777103
20
8.21431317226153
30
0.000000000000000
11
-30.8411968777103
21
8.13143722689038
31
0.000000000000000
  0
LINE
  5
F103D0
330
F103D1
100
AcDbEntity
8
Geo
100
AcDbLine
10
-30.8411968777103
20
8.13143722689038
30
0.000000000000000
11
-30.7411968777103
21
8.04842812626649
31
0.000000000000000
  0
LINE
  5
F103D2
330
F103D3
100
AcDbEntity
8
Geo
100
AcDbLine
10
-30.7411968777103
20
8.04842812626649
30
0.000000000000000
11
-30.6411968777103
21
7.96529500245109
31
0.000000000000000
  0
LINE
  5
F103D4
330
F103D5
100
AcDbEntity
8
Geo
100
AcDbLine
10
-30.6411968777103
20
7.96529500245109
30
0.000000000000000
11
-30.5411968777103
21
7.88204700114949
31
0.000000000000000
  0
LINE
  5
F103D6
330
F103D7
100
AcDbEntity
8
Geo
100
AcDbLine
10
-30.5411968777103
20
7.88204700114949
30
0.000000000000000
11
-30.4411968777103
21
7.79869328070502
31
0.000000000000000
  0
LINE
  5
F103D8
330
F103D9
100
AcDbEntity
8
Geo
100
AcDbLine
10
-30.4411968777103
20
7.79869328070502
30
0.000000000000000
11
-30.3411968777103
21
7.71524301109148
31
0.000000000000000
  0
LINE
  5
F103DA
330
F103DB
100
AcDbEntity
8
Geo
100
AcDbLine
10
-30.3411968777103
20
7.71524301109148
30
0.000000000000000
11
-30.2411968777103
21
7.63170537290427
31
0.000000000000000
  0
LINE
  5
F103DC
330
F103DD
100
AcDbEntity
8
Geo
100
AcDbLine
10
-30.2411968777103
20
7.63170537290427
30
0.000000000000000
11
-30.1411968777103
21
7.54808955635048
31
0.000000000000000
  0
LINE
  5
F103DE
330
F103DF
100
AcDbEntity
8
Geo
100
AcDbLine
10
-30.1411968777103
20
7.54808955635048
30
0.000000000000000
11
-30.0411968777103
21
7.46440476023782
31
0.000000000000000
  0
LINE
  5
F103E0
330
F103E1
100
AcDbEntity
8
Geo
100
AcDbLine
10
-30.0411968777103
20
7.46440476023782
30
0.000000000000000
11
-29.9411968777103
21
7.38066019096262
31
0.000000000000000
  0
LINE
  5
F103E2
330
F103E3
100
AcDbEntity
8
Geo
100
AcDbLine
10
-29.9411968777103
20
7.38066019096262
30
0.000000000000000
11
-29.8411968777103
21
7.29686506149701
31
0.000000000000000
  0
LINE
  5
F103E4
330
F103E5
100
AcDbEntity
8
Geo
100
AcDbLine
10
-29.8411968777103
20
7.29686506149701
30
0.000000000000000
11
-29.7411968777103
21
7.21302859037542
31
0.000000000000000
  0
LINE
  5
F103E6
330
F103E7
100
AcDbEntity
8
Geo
100
AcDbLine
10
-29.7411968777103
20
7.21302859037542
30
0.000000000000000
11
-29.6411968777103
21
7.12916000068036
31
0.000000000000000
  0
LINE
  5
F103E8
330
F103E9
100
AcDbEntity
8
Geo
100
AcDbLine
10
-29.6411968777103
20
7.12916000068036
30
0.000000000000000
11
-29.5411968777103
21
7.04526851902781
31
0.000000000000000
  0
LINE
  5
F103EA
330
F103EB
100
AcDbEntity
8
Geo
100
AcDbLine
10
-29.5411968777103
20
7.04526851902781
30
0.000000000000000
11
-29.4411968777103
21
6.96136337455215
31
0.000000000000000
  0
LINE
  5
F103EC
330
F103ED
100
AcDbEntity
8
Geo
100
AcDbLine
10
-29.4411968777103
20
6.96136337455215
30
0.000000000000000
11
-29.3411968777103
21
6.87745379789085
31
0.000000000000000
  0
LINE
  5
F103EE
330
F103EF
100
AcDbEntity
8
Geo
100
AcDbLine
10
-29.3411968777103
20
6.87745379789085
30
0.000000000000000
11
-29.2411968777103
21
6.79354902016897
31
0.000000000000000
  0
LINE
  5
F103F0
330
F103F1
100
AcDbEntity
8
Geo
100
AcDbLine
10
-29.2411968777103
20
6.79354902016897
30
0.000000000000000
11
-29.1411968777103
21
6.70965827198363
31
0.000000000000000
  0
LINE
  5
F103F2
330
F103F3
100
AcDbEntity
8
Geo
100
AcDbLine
10
-29.1411968777103
20
6.70965827198363
30
0.000000000000000
11
-29.0411968777103
21
6.62579078238853
31
0.000000000000000
  0
LINE
  5
F103F4
330
F103F5
100
AcDbEntity
8
Geo
100
AcDbLine
10
-29.0411968777103
20
6.62579078238853
30
0.000000000000000
11
-28.9411968777103
21
6.54195577787861
31
0.000000000000000
  0
LINE
  5
F103F6
330
F103F7
100
AcDbEntity
8
Geo
100
AcDbLine
10
-28.9411968777103
20
6.54195577787861
30
0.000000000000000
11
-28.8411968777103
21
6.45816248137505
31
0.000000000000000
  0
LINE
  5
F103F8
330
F103F9
100
AcDbEntity
8
Geo
100
AcDbLine
10
-28.8411968777103
20
6.45816248137505
30
0.000000000000000
11
-28.7411968777103
21
6.37442011121061
31
0.000000000000000
  0
LINE
  5
F103FA
330
F103FB
100
AcDbEntity
8
Geo
100
AcDbLine
10
-28.7411968777103
20
6.37442011121061
30
0.000000000000000
11
-28.6411968777103
21
6.29073788011551
31
0.000000000000000
  0
LINE
  5
F103FC
330
F103FD
100
AcDbEntity
8
Geo
100
AcDbLine
10
-28.6411968777103
20
6.29073788011551
30
0.000000000000000
11
-28.5411968777103
21
6.20712499420389
31
0.000000000000000
  0
LINE
  5
F103FE
330
F103FF
100
AcDbEntity
8
Geo
100
AcDbLine
10
-28.5411968777103
20
6.20712499420389
30
0.000000000000000
11
-28.4411968777103
21
6.12359065196105
31
0.000000000000000
  0
LINE
  5
F10400
330
F10401
100
AcDbEntity
8
Geo
100
AcDbLine
10
-28.4411968777103
20
6.12359065196105
30
0.000000000000000
11
-28.3411968777103
21
6.04014404323147
31
0.000000000000000
  0
LINE
  5
F10402
330
F10403
100
AcDbEntity
8
Geo
100
AcDbLine
10
-28.3411968777103
20
6.04014404323147
30
0.000000000000000
11
-28.2411968777103
21
5.95679434820784
31
0.000000000000000
  0
LINE
  5
F10404
330
F10405
100
AcDbEntity
8
Geo
100
AcDbLine
10
-28.2411968777103
20
5.95679434820784
30
0.000000000000000
11
-28.1411968777103
21
5.87355073642108
31
0.000000000000000
  0
LINE
  5
F10406
330
F10407
100
AcDbEntity
8
Geo
100
AcDbLine
10
-28.1411968777103
20
5.87355073642108
30
0.000000000000000
11
-28.0411968777103
21
5.79042236573162
31
0.000000000000000
  0
LINE
  5
F10408
330
F10409
100
AcDbEntity
8
Geo
100
AcDbLine
10
-28.0411968777103
20
5.79042236573162
30
0.000000000000000
11
-27.9411968777103
21
5.70741838132189
31
0.000000000000000
  0
LINE
  5
F1040A
330
F1040B
100
AcDbEntity
8
Geo
100
AcDbLine
10
-27.9411968777103
20
5.70741838132189
30
0.000000000000000
11
-27.8411968777103
21
5.62454791469024
31
0.000000000000000
  0
LINE
  5
F1040C
330
F1040D
100
AcDbEntity
8
Geo
100
AcDbLine
10
-27.8411968777103
20
5.62454791469024
30
0.000000000000000
11
-27.7411968777103
21
5.54182008264636
31
0.000000000000000
  0
LINE
  5
F1040E
330
F1040F
100
AcDbEntity
8
Geo
100
AcDbLine
10
-27.7411968777103
20
5.54182008264636
30
0.000000000000000
11
-27.6411968777103
21
5.45924398630832
31
0.000000000000000
  0
LINE
  5
F10410
330
F10411
100
AcDbEntity
8
Geo
100
AcDbLine
10
-27.6411968777103
20
5.45924398630832
30
0.000000000000000
11
-27.5411968777103
21
5.37682871010131
31
0.000000000000000
  0
LINE
  5
F10412
330
F10413
100
AcDbEntity
8
Geo
100
AcDbLine
10
-27.5411968777103
20
5.37682871010131
30
0.000000000000000
11
-27.4411968777103
21
5.29458332075826
31
0.000000000000000
  0
LINE
  5
F10414
330
F10415
100
AcDbEntity
8
Geo
100
AcDbLine
10
-27.4411968777103
20
5.29458332075826
30
0.000000000000000
11
-27.3411968777103
21
5.21251686632239
31
0.000000000000000
  0
LINE
  5
F10416
330
F10417
100
AcDbEntity
8
Geo
100
AcDbLine
10
-27.3411968777103
20
5.21251686632239
30
0.000000000000000
11
-27.2411968777103
21
5.13063837515177
31
0.000000000000000
  0
LINE
  5
F10418
330
F10419
100
AcDbEntity
8
Geo
100
AcDbLine
10
-27.2411968777103
20
5.13063837515177
30
0.000000000000000
11
-27.1411968777103
21
5.04895685492612
31
0.000000000000000
  0
LINE
  5
F1041A
330
F1041B
100
AcDbEntity
8
Geo
100
AcDbLine
10
-27.1411968777103
20
5.04895685492612
30
0.000000000000000
11
-27.0411968777103
21
4.96748129165584
31
0.000000000000000
  0
LINE
  5
F1041C
330
F1041D
100
AcDbEntity
8
Geo
100
AcDbLine
10
-27.0411968777103
20
4.96748129165584
30
0.000000000000000
11
-26.9411968777103
21
4.88622064869344
31
0.000000000000000
  0
LINE
  5
F1041E
330
F1041F
100
AcDbEntity
8
Geo
100
AcDbLine
10
-26.9411968777103
20
4.88622064869344
30
0.000000000000000
11
-26.8411968777103
21
4.80518386574745
31
0.000000000000000
  0
LINE
  5
F10420
330
F10421
100
AcDbEntity
8
Geo
100
AcDbLine
10
-26.8411968777103
20
4.80518386574745
30
0.000000000000000
11
-26.7411968777103
21
4.72437985789893
31
0.000000000000000
  0
LINE
  5
F10422
330
F10423
100
AcDbEntity
8
Geo
100
AcDbLine
10
-26.7411968777103
20
4.72437985789893
30
0.000000000000000
11
-26.6411968777103
21
4.64381751462072
31
0.000000000000000
  0
LINE
  5
F10424
330
F10425
100
AcDbEntity
8
Geo
100
AcDbLine
10
-26.6411968777103
20
4.64381751462072
30
0.000000000000000
11
-26.5411968777103
21
4.56350569879946
31
0.000000000000000
  0
LINE
  5
F10426
330
F10427
100
AcDbEntity
8
Geo
100
AcDbLine
10
-26.5411968777103
20
4.56350569879946
30
0.000000000000000
11
-26.4411968777103
21
4.48345324576057
31
0.000000000000000
  0
LINE
  5
F10428
330
F10429
100
AcDbEntity
8
Geo
100
AcDbLine
10
-26.4411968777103
20
4.48345324576057
30
0.000000000000000
11
-26.3411968777103
21
4.40366896229626
31
0.000000000000000
  0
LINE
  5
F1042A
330
F1042B
100
AcDbEntity
8
Geo
100
AcDbLine
10
-26.3411968777103
20
4.40366896229626
30
0.000000000000000
11
-26.2411968777103
21
4.32416162569666
31
0.000000000000000
  0
LINE
  5
F1042C
330
F1042D
100
AcDbEntity
8
Geo
100
AcDbLine
10
-26.2411968777103
20
4.32416162569666
30
0.000000000000000
11
-26.1411968777103
21
4.24493998278420
31
0.000000000000000
  0
LINE
  5
F1042E
330
F1042F
100
AcDbEntity
8
Geo
100
AcDbLine
10
-26.1411968777103
20
4.24493998278420
30
0.000000000000000
11
-26.0411968777103
21
4.16601274895137
31
0.000000000000000
  0
LINE
  5
F10430
330
F10431
100
AcDbEntity
8
Geo
100
AcDbLine
10
-26.0411968777103
20
4.16601274895137
30
0.000000000000000
11
-25.9411968777103
21
4.08738860720188
31
0.000000000000000
  0
LINE
  5
F10432
330
F10433
100
AcDbEntity
8
Geo
100
AcDbLine
10
-25.9411968777103
20
4.08738860720188
30
0.000000000000000
11
-25.8411968777103
21
4.00907620719546
31
0.000000000000000
  0
LINE
  5
F10434
330
F10435
100
AcDbEntity
8
Geo
100
AcDbLine
10
-25.8411968777103
20
4.00907620719546
30
0.000000000000000
11
-25.7411968777103
21
3.93108416429625
31
0.000000000000000
  0
LINE
  5
F10436
330
F10437
100
AcDbEntity
8
Geo
100
AcDbLine
10
-25.7411968777103
20
3.93108416429625
30
0.000000000000000
11
-25.6411968777103
21
3.85342105862505
31
0.000000000000000
  0
LINE
  5
F10438
330
F10439
100
AcDbEntity
8
Geo
100
AcDbLine
10
-25.6411968777103
20
3.85342105862505
30
0.000000000000000
11
-25.5411968777103
21
3.77609543411531
31
0.000000000000000
  0
LINE
  5
F1043A
330
F1043B
100
AcDbEntity
8
Geo
100
AcDbLine
10
-25.5411968777103
20
3.77609543411531
30
0.000000000000000
11
-25.4411968777103
21
3.69911579757330
31
0.000000000000000
  0
LINE
  5
F1043C
330
F1043D
100
AcDbEntity
8
Geo
100
AcDbLine
10
-25.4411968777103
20
3.69911579757330
30
0.000000000000000
11
-25.3411968777103
21
3.62249061774214
31
0.000000000000000
  0
LINE
  5
F1043E
330
F1043F
100
AcDbEntity
8
Geo
100
AcDbLine
10
-25.3411968777103
20
3.62249061774214
30
0.000000000000000
11
-25.2411968777103
21
3.54622832437024
31
0.000000000000000
  0
LINE
  5
F10440
330
F10441
100
AcDbEntity
8
Geo
100
AcDbLine
10
-25.2411968777103
20
3.54622832437024
30
0.000000000000000
11
-25.1411968777103
21
3.47033730728381
31
0.000000000000000
  0
LINE
  5
F10442
330
F10443
100
AcDbEntity
8
Geo
100
AcDbLine
10
-25.1411968777103
20
3.47033730728381
30
0.000000000000000
11
-25.0411968777103
21
3.39482591546398
31
0.000000000000000
  0
LINE
  5
F10444
330
F10445
100
AcDbEntity
8
Geo
100
AcDbLine
10
-25.0411968777103
20
3.39482591546398
30
0.000000000000000
11
-24.9411968777103
21
3.31970245612820
31
0.000000000000000
  0
LINE
  5
F10446
330
F10447
100
AcDbEntity
8
Geo
100
AcDbLine
10
-24.9411968777103
20
3.31970245612820
30
0.000000000000000
11
-24.8411968777103
21
3.24497519381644
31
0.000000000000000
  0
LINE
  5
F10448
330
F10449
100
AcDbEntity
8
Geo
100
AcDbLine
10
-24.8411968777103
20
3.24497519381644
30
0.000000000000000
11
-24.7411968777103
21
3.17065234948191
31
0.000000000000000
  0
LINE
  5
F1044A
330
F1044B
100
AcDbEntity
8
Geo
100
AcDbLine
10
-24.7411968777103
20
3.17065234948191
30
0.000000000000000
11
-24.6411968777103
21
3.09674209958668
31
0.000000000000000
  0
LINE
  5
F1044C
330
F1044D
100
AcDbEntity
8
Geo
100
AcDbLine
10
-24.6411968777103
20
3.09674209958668
30
0.000000000000000
11
-24.5411968777103
21
3.02325257520217
31
0.000000000000000
  0
LINE
  5
F1044E
330
F1044F
100
AcDbEntity
8
Geo
100
AcDbLine
10
-24.5411968777103
20
3.02325257520217
30
0.000000000000000
11
-24.4411968777103
21
2.95019186111461
31
0.000000000000000
  0
LINE
  5
F10450
330
F10451
100
AcDbEntity
8
Geo
100
AcDbLine
10
-24.4411968777103
20
2.95019186111461
30
0.000000000000000
11
-24.3411968777103
21
2.87756799493563
31
0.000000000000000
  0
LINE
  5
F10452
330
F10453
100
AcDbEntity
8
Geo
100
AcDbLine
10
-24.3411968777103
20
2.87756799493563
30
0.000000000000000
11
-24.2411968777103
21
2.80538896621802
31
0.000000000000000
  0
LINE
  5
F10454
330
F10455
100
AcDbEntity
8
Geo
100
AcDbLine
10
-24.2411968777103
20
2.80538896621802
30
0.000000000000000
11
-24.1411968777103
21
2.73366271557675
31
0.000000000000000
  0
LINE
  5
F10456
330
F10457
100
AcDbEntity
8
Geo
100
AcDbLine
10
-24.1411968777103
20
2.73366271557675
30
0.000000000000000
11
-24.0411968777103
21
2.66239713381542
31
0.000000000000000
  0
LINE
  5
F10458
330
F10459
100
AcDbEntity
8
Geo
100
AcDbLine
10
-24.0411968777103
20
2.66239713381542
30
0.000000000000000
11
-23.9411968777103
21
2.59160006105817
31
0.000000000000000
  0
LINE
  5
F1045A
330
F1045B
100
AcDbEntity
8
Geo
100
AcDbLine
10
-23.9411968777103
20
2.59160006105817
30
0.000000000000000
11
-23.8411968777103
21
2.52127928588719
31
0.000000000000000
  0
LINE
  5
F1045C
330
F1045D
100
AcDbEntity
8
Geo
100
AcDbLine
10
-23.8411968777103
20
2.52127928588719
30
0.000000000000000
11
-23.7411968777103
21
2.45144254448582
31
0.000000000000000
  0
LINE
  5
F1045E
330
F1045F
100
AcDbEntity
8
Geo
100
AcDbLine
10
-23.7411968777103
20
2.45144254448582
30
0.000000000000000
11
-23.6411968777103
21
2.38209751978753
31
0.000000000000000
  0
LINE
  5
F10460
330
F10461
100
AcDbEntity
8
Geo
100
AcDbLine
10
-23.6411968777103
20
2.38209751978753
30
0.000000000000000
11
-23.5411968777103
21
2.31325184063065
31
0.000000000000000
  0
LINE
  5
F10462
330
F10463
100
AcDbEntity
8
Geo
100
AcDbLine
10
-23.5411968777103
20
2.31325184063065
30
0.000000000000000
11
-23.4411968777103
21
2.24491308091914
31
0.000000000000000
  0
LINE
  5
F10464
330
F10465
100
AcDbEntity
8
Geo
100
AcDbLine
10
-23.4411968777103
20
2.24491308091914
30
0.000000000000000
11
-23.3411968777103
21
2.17708875878934
31
0.000000000000000
  0
LINE
  5
F10466
330
F10467
100
AcDbEntity
8
Geo
100
AcDbLine
10
-23.3411968777103
20
2.17708875878934
30
0.000000000000000
11
-23.2411968777103
21
2.10978633578288
31
0.000000000000000
  0
LINE
  5
F10468
330
F10469
100
AcDbEntity
8
Geo
100
AcDbLine
10
-23.2411968777103
20
2.10978633578288
30
0.000000000000000
11
-23.1411968777103
21
2.04301321602584
31
0.000000000000000
  0
LINE
  5
F1046A
330
F1046B
100
AcDbEntity
8
Geo
100
AcDbLine
10
-23.1411968777103
20
2.04301321602584
30
0.000000000000000
11
-23.0411968777103
21
1.97677674541416
31
0.000000000000000
  0
LINE
  5
F1046C
330
F1046D
100
AcDbEntity
8
Geo
100
AcDbLine
10
-23.0411968777103
20
1.97677674541416
30
0.000000000000000
11
-22.9411968777103
21
1.91108421080553
31
0.000000000000000
  0
LINE
  5
F1046E
330
F1046F
100
AcDbEntity
8
Geo
100
AcDbLine
10
-22.9411968777103
20
1.91108421080553
30
0.000000000000000
11
-22.8411968777103
21
1.84594283921775
31
0.000000000000000
  0
LINE
  5
F10470
330
F10471
100
AcDbEntity
8
Geo
100
AcDbLine
10
-22.8411968777103
20
1.84594283921775
30
0.000000000000000
11
-22.7411968777103
21
1.78135979703361
31
0.000000000000000
  0
LINE
  5
F10472
330
F10473
100
AcDbEntity
8
Geo
100
AcDbLine
10
-22.7411968777103
20
1.78135979703361
30
0.000000000000000
11
-22.6411968777103
21
1.71734218921258
31
0.000000000000000
  0
LINE
  5
F10474
330
F10475
100
AcDbEntity
8
Geo
100
AcDbLine
10
-22.6411968777103
20
1.71734218921258
30
0.000000000000000
11
-22.5411968777103
21
1.65389705850909
31
0.000000000000000
  0
LINE
  5
F10476
330
F10477
100
AcDbEntity
8
Geo
100
AcDbLine
10
-22.5411968777103
20
1.65389705850909
30
0.000000000000000
11
-22.4411968777103
21
1.59103138469780
31
0.000000000000000
  0
LINE
  5
F10478
330
F10479
100
AcDbEntity
8
Geo
100
AcDbLine
10
-22.4411968777103
20
1.59103138469780
30
0.000000000000000
11
-22.3411968777103
21
1.52875208380569
31
0.000000000000000
  0
LINE
  5
F1047A
330
F1047B
100
AcDbEntity
8
Geo
100
AcDbLine
10
-22.3411968777103
20
1.52875208380569
30
0.000000000000000
11
-22.2411968777103
21
1.46706600735127
31
0.000000000000000
  0
LINE
  5
F1047C
330
F1047D
100
AcDbEntity
8
Geo
100
AcDbLine
10
-22.2411968777103
20
1.46706600735127
30
0.000000000000000
11
-22.1411968777103
21
1.40597994159074
31
0.000000000000000
  0
LINE
  5
F1047E
330
F1047F
100
AcDbEntity
8
Geo
100
AcDbLine
10
-22.1411968777103
20
1.40597994159074
30
0.000000000000000
11
-22.0411968777103
21
1.34550060677148
31
0.000000000000000
  0
LINE
  5
F10480
330
F10481
100
AcDbEntity
8
Geo
100
AcDbLine
10
-22.0411968777103
20
1.34550060677148
30
0.000000000000000
11
-21.9411968777103
21
1.28563465639273
31
0.000000000000000
  0
LINE
  5
F10482
330
F10483
100
AcDbEntity
8
Geo
100
AcDbLine
10
-21.9411968777103
20
1.28563465639273
30
0.000000000000000
11
-21.8411968777103
21
1.22638867647359
31
0.000000000000000
  0
LINE
  5
F10484
330
F10485
100
AcDbEntity
8
Geo
100
AcDbLine
10
-21.8411968777103
20
1.22638867647359
30
0.000000000000000
11
-21.7411968777103
21
1.16776918482849
31
0.000000000000000
  0
LINE
  5
F10486
330
F10487
100
AcDbEntity
8
Geo
100
AcDbLine
10
-21.7411968777103
20
1.16776918482849
30
0.000000000000000
11
-21.6411968777103
21
1.10978263035016
31
0.000000000000000
  0
LINE
  5
F10488
330
F10489
100
AcDbEntity
8
Geo
100
AcDbLine
10
-21.6411968777103
20
1.10978263035016
30
0.000000000000000
11
-21.5411968777103
21
1.05243539230016
31
0.000000000000000
  0
LINE
  5
F1048A
330
F1048B
100
AcDbEntity
8
Geo
100
AcDbLine
10
-21.5411968777103
20
1.05243539230016
30
0.000000000000000
11
-21.4411968777103
21
0.995733779607066
31
0.000000000000000
  0
LINE
  5
F1048C
330
F1048D
100
AcDbEntity
8
Geo
100
AcDbLine
10
-21.4411968777103
20
0.995733779607066
30
0.000000000000000
11
-21.3411968777103
21
0.939684030172429
31
0.000000000000000
  0
LINE
  5
F1048E
330
F1048F
100
AcDbEntity
8
Geo
100
AcDbLine
10
-21.3411968777103
20
0.939684030172429
30
0.000000000000000
11
-21.2411968777103
21
0.884292310184515
31
0.000000000000000
  0
LINE
  5
F10490
330
F10491
100
AcDbEntity
8
Geo
100
AcDbLine
10
-21.2411968777103
20
0.884292310184515
30
0.000000000000000
11
-21.1411968777103
21
0.829564713439941
31
0.000000000000000
  0
LINE
  5
F10492
330
F10493
100
AcDbEntity
8
Geo
100
AcDbLine
10
-21.1411968777103
20
0.829564713439941
30
0.000000000000000
11
-21.0411968777103
21
0.775507260673293
31
0.000000000000000
  0
LINE
  5
F10494
330
F10495
100
AcDbEntity
8
Geo
100
AcDbLine
10
-21.0411968777103
20
0.775507260673293
30
0.000000000000000
11
-20.9411968777103
21
0.722125898894755
31
0.000000000000000
  0
LINE
  5
F10496
330
F10497
100
AcDbEntity
8
Geo
100
AcDbLine
10
-20.9411968777103
20
0.722125898894755
30
0.000000000000000
11
-20.8411968777103
21
0.669426500735872
31
0.000000000000000
  0
LINE
  5
F10498
330
F10499
100
AcDbEntity
8
Geo
100
AcDbLine
10
-20.8411968777103
20
0.669426500735872
30
0.000000000000000
11
-20.7411968777103
21
0.617414863803480
31
0.000000000000000
  0
LINE
  5
F1049A
330
F1049B
100
AcDbEntity
8
Geo
100
AcDbLine
10
-20.7411968777103
20
0.617414863803480
30
0.000000000000000
11
-20.6411968777103
21
0.566096710041895
31
0.000000000000000
  0
LINE
  5
F1049C
330
F1049D
100
AcDbEntity
8
Geo
100
AcDbLine
10
-20.6411968777103
20
0.566096710041895
30
0.000000000000000
11
-20.5411968777103
21
0.515477685103426
31
0.000000000000000
  0
LINE
  5
F1049E
330
F1049F
100
AcDbEntity
8
Geo
100
AcDbLine
10
-20.5411968777103
20
0.515477685103426
30
0.000000000000000
11
-20.4411968777103
21
0.465563357727292
31
0.000000000000000
  0
LINE
  5
F104A0
330
F104A1
100
AcDbEntity
8
Geo
100
AcDbLine
10
-20.4411968777103
20
0.465563357727292
30
0.000000000000000
11
-20.3411968777103
21
0.416359219126968
31
0.000000000000000
  0
LINE
  5
F104A2
330
F104A3
100
AcDbEntity
8
Geo
100
AcDbLine
10
-20.3411968777103
20
0.416359219126968
30
0.000000000000000
11
-20.2411968777103
21
0.367870682386102
31
0.000000000000000
  0
LINE
  5
F104A4
330
F104A5
100
AcDbEntity
8
Geo
100
AcDbLine
10
-20.2411968777103
20
0.367870682386102
30
0.000000000000000
11
-20.1411968777103
21
0.320103081862994
31
0.000000000000000
  0
LINE
  5
F104A6
330
F104A7
100
AcDbEntity
8
Geo
100
AcDbLine
10
-20.1411968777103
20
0.320103081862994
30
0.000000000000000
11
-20.0411968777103
21
0.273061672603756
31
0.000000000000000
  0
LINE
  5
F104A8
330
F104A9
100
AcDbEntity
8
Geo
100
AcDbLine
10
-20.0411968777103
20
0.273061672603756
30
0.000000000000000
11
-19.9411968777103
21
0.226751629764183
31
0.000000000000000
  0
LINE
  5
F104AA
330
F104AB
100
AcDbEntity
8
Geo
100
AcDbLine
10
-19.9411968777103
20
0.226751629764183
30
0.000000000000000
11
-19.8411968777103
21
0.181178048040428
31
0.000000000000000
  0
LINE
  5
F104AC
330
F104AD
100
AcDbEntity
8
Geo
100
AcDbLine
10
-19.8411968777103
20
0.181178048040428
30
0.000000000000000
11
-19.7411968777103
21
0.136345941108508
31
0.000000000000000
  0
LINE
  5
F104AE
330
F104AF
100
AcDbEntity
8
Geo
100
AcDbLine
10
-19.7411968777103
20
0.136345941108508
30
0.000000000000000
11
-19.6411968777103
21
0.0922602410727560
31
0.000000000000000
  0
LINE
  5
F104B0
330
F104B1
100
AcDbEntity
8
Geo
100
AcDbLine
10
-19.6411968777103
20
0.0922602410727560
30
0.000000000000000
11
-19.5411968777103
21
0.0489257979232001
31
0.000000000000000
  0
LINE
  5
F104B2
330
F104B3
100
AcDbEntity
8
Geo
100
AcDbLine
10
-19.5411968777103
20
0.0489257979232001
30
0.000000000000000
11
-19.4411968777103
21
0.00634737900202431
31
0.000000000000000
  0
LINE
  5
F104B4
330
F104B5
100
AcDbEntity
8
Geo
100
AcDbLine
10
-19.4411968777103
20
0.00634737900202431
30
0.000000000000000
11
-19.3411968777103
21
-0.0354703315209086
31
0.000000000000000
  0
LINE
  5
F104B6
330
F104B7
100
AcDbEntity
8
Geo
100
AcDbLine
10
-19.3411968777103
20
-0.0354703315209086
30
0.000000000000000
11
-19.2411968777103
21
-0.0765227331633778
31
0.000000000000000
  0
LINE
  5
F104B8
330
F104B9
100
AcDbEntity
8
Geo
100
AcDbLine
10
-19.2411968777103
20
-0.0765227331633778
30
0.000000000000000
11
-19.1411968777103
21
-0.116805309636909
31
0.000000000000000
  0
LINE
  5
F104BA
330
F104BB
100
AcDbEntity
8
Geo
100
AcDbLine
10
-19.1411968777103
20
-0.116805309636909
30
0.000000000000000
11
-19.0411968777103
21
-0.156313629343634
31
0.000000000000000
  0
LINE
  5
F104BC
330
F104BD
100
AcDbEntity
8
Geo
100
AcDbLine
10
-19.0411968777103
20
-0.156313629343634
30
0.000000000000000
11
-18.9411968777103
21
-0.195043345863810
31
0.000000000000000
  0
LINE
  5
F104BE
330
F104BF
100
AcDbEntity
8
Geo
100
AcDbLine
10
-18.9411968777103
20
-0.195043345863810
30
0.000000000000000
11
-18.8411968777103
21
-0.232990198433994
31
0.000000000000000
  0
LINE
  5
F104C0
330
F104C1
100
AcDbEntity
8
Geo
100
AcDbLine
10
-18.8411968777103
20
-0.232990198433994
30
0.000000000000000
11
-18.7411968777103
21
-0.270150012415775
31
0.000000000000000
  0
LINE
  5
F104C2
330
F104C3
100
AcDbEntity
8
Geo
100
AcDbLine
10
-18.7411968777103
20
-0.270150012415775
30
0.000000000000000
11
-18.6411968777103
21
-0.306518699755035
31
0.000000000000000
  0
LINE
  5
F104C4
330
F104C5
100
AcDbEntity
8
Geo
100
AcDbLine
10
-18.6411968777103
20
-0.306518699755035
30
0.000000000000000
11
-18.5411968777103
21
-0.342092259431693
31
0.000000000000000
  0
LINE
  5
F104C6
330
F104C7
100
AcDbEntity
8
Geo
100
AcDbLine
10
-18.5411968777103
20
-0.342092259431693
30
0.000000000000000
11
-18.4411968777103
21
-0.376866777899865
31
0.000000000000000
  0
LINE
  5
F104C8
330
F104C9
100
AcDbEntity
8
Geo
100
AcDbLine
10
-18.4411968777103
20
-0.376866777899865
30
0.000000000000000
11
-18.3411968777103
21
-0.410838429518405
31
0.000000000000000
  0
LINE
  5
F104CA
330
F104CB
100
AcDbEntity
8
Geo
100
AcDbLine
10
-18.3411968777103
20
-0.410838429518405
30
0.000000000000000
11
-18.2411968777103
21
-0.444003476971775
31
0.000000000000000
  0
LINE
  5
F104CC
330
F104CD
100
AcDbEntity
8
Geo
100
AcDbLine
10
-18.2411968777103
20
-0.444003476971775
30
0.000000000000000
11
-18.1411968777103
21
-0.476358271681194
31
0.000000000000000
  0
LINE
  5
F104CE
330
F104CF
100
AcDbEntity
8
Geo
100
AcDbLine
10
-18.1411968777103
20
-0.476358271681194
30
0.000000000000000
11
-18.0411968777102
21
-0.507899254206031
31
0.000000000000000
  0
LINE
  5
F104D0
330
F104D1
100
AcDbEntity
8
Geo
100
AcDbLine
10
-18.0411968777102
20
-0.507899254206031
30
0.000000000000000
11
-17.9411968777102
21
-0.538622954635394
31
0.000000000000000
  0
LINE
  5
F104D2
330
F104D3
100
AcDbEntity
8
Geo
100
AcDbLine
10
-17.9411968777102
20
-0.538622954635394
30
0.000000000000000
11
-17.8411968777102
21
-0.568525992969851
31
0.000000000000000
  0
LINE
  5
F104D4
330
F104D5
100
AcDbEntity
8
Geo
100
AcDbLine
10
-17.8411968777102
20
-0.568525992969851
30
0.000000000000000
11
-17.7411968777102
21
-0.597605079493288
31
0.000000000000000
  0
LINE
  5
F104D6
330
F104D7
100
AcDbEntity
8
Geo
100
AcDbLine
10
-17.7411968777102
20
-0.597605079493288
30
0.000000000000000
11
-17.6411968777102
21
-0.625857015134809
31
0.000000000000000
  0
LINE
  5
F104D8
330
F104D9
100
AcDbEntity
8
Geo
100
AcDbLine
10
-17.6411968777102
20
-0.625857015134809
30
0.000000000000000
11
-17.5411968777102
21
-0.653278691820683
31
0.000000000000000
  0
LINE
  5
F104DA
330
F104DB
100
AcDbEntity
8
Geo
100
AcDbLine
10
-17.5411968777102
20
-0.653278691820683
30
0.000000000000000
11
-17.4411968777102
21
-0.679867092816261
31
0.000000000000000
  0
LINE
  5
F104DC
330
F104DD
100
AcDbEntity
8
Geo
100
AcDbLine
10
-17.4411968777102
20
-0.679867092816261
30
0.000000000000000
11
-17.3411968777102
21
-0.705619293057869
31
0.000000000000000
  0
LINE
  5
F104DE
330
F104DF
100
AcDbEntity
8
Geo
100
AcDbLine
10
-17.3411968777102
20
-0.705619293057869
30
0.000000000000000
11
-17.2411968777102
21
-0.730532459474592
31
0.000000000000000
  0
LINE
  5
F104E0
330
F104E1
100
AcDbEntity
8
Geo
100
AcDbLine
10
-17.2411968777102
20
-0.730532459474592
30
0.000000000000000
11
-17.1411968777102
21
-0.754603851299949
31
0.000000000000000
  0
LINE
  5
F104E2
330
F104E3
100
AcDbEntity
8
Geo
100
AcDbLine
10
-17.1411968777102
20
-0.754603851299949
30
0.000000000000000
11
-17.0411968777102
21
-0.777830820373421
31
0.000000000000000
  0
LINE
  5
F104E4
330
F104E5
100
AcDbEntity
8
Geo
100
AcDbLine
10
-17.0411968777102
20
-0.777830820373421
30
0.000000000000000
11
-16.9411968777102
21
-0.800210811431768
31
0.000000000000000
  0
LINE
  5
F104E6
330
F104E7
100
AcDbEntity
8
Geo
100
AcDbLine
10
-16.9411968777102
20
-0.800210811431768
30
0.000000000000000
11
-16.8411968777102
21
-0.821741362390155
31
0.000000000000000
  0
LINE
  5
F104E8
330
F104E9
100
AcDbEntity
8
Geo
100
AcDbLine
10
-16.8411968777102
20
-0.821741362390155
30
0.000000000000000
11
-16.7411968777102
21
-0.842420104613002
31
0.000000000000000
  0
LINE
  5
F104EA
330
F104EB
100
AcDbEntity
8
Geo
100
AcDbLine
10
-16.7411968777102
20
-0.842420104613002
30
0.000000000000000
11
-16.6411968777102
21
-0.862244763174575
31
0.000000000000000
  0
LINE
  5
F104EC
330
F104ED
100
AcDbEntity
8
Geo
100
AcDbLine
10
-16.6411968777102
20
-0.862244763174575
30
0.000000000000000
11
-16.5411968777102
21
-0.881213157109242
31
0.000000000000000
  0
LINE
  5
F104EE
330
F104EF
100
AcDbEntity
8
Geo
100
AcDbLine
10
-16.5411968777102
20
-0.881213157109242
30
0.000000000000000
11
-16.4411968777102
21
-0.899323199651421
31
0.000000000000000
  0
LINE
  5
F104F0
330
F104F1
100
AcDbEntity
8
Geo
100
AcDbLine
10
-16.4411968777102
20
-0.899323199651421
30
0.000000000000000
11
-16.3411968777102
21
-0.916572898465144
31
0.000000000000000
  0
LINE
  5
F104F2
330
F104F3
100
AcDbEntity
8
Geo
100
AcDbLine
10
-16.3411968777102
20
-0.916572898465144
30
0.000000000000000
11
-16.2411968777102
21
-0.932960355863243
31
0.000000000000000
  0
LINE
  5
F104F4
330
F104F5
100
AcDbEntity
8
Geo
100
AcDbLine
10
-16.2411968777102
20
-0.932960355863243
30
0.000000000000000
11
-16.1411968777102
21
-0.948483769016113
31
0.000000000000000
  0
LINE
  5
F104F6
330
F104F7
100
AcDbEntity
8
Geo
100
AcDbLine
10
-16.1411968777102
20
-0.948483769016113
30
0.000000000000000
11
-16.0411968777102
21
-0.963141430150055
31
0.000000000000000
  0
LINE
  5
F104F8
330
F104F9
100
AcDbEntity
8
Geo
100
AcDbLine
10
-16.0411968777102
20
-0.963141430150055
30
0.000000000000000
11
-15.9411968777102
21
-0.976931726735147
31
0.000000000000000
  0
LINE
  5
F104FA
330
F104FB
100
AcDbEntity
8
Geo
100
AcDbLine
10
-15.9411968777102
20
-0.976931726735147
30
0.000000000000000
11
-15.8411968777102
21
-0.989853141662645
31
0.000000000000000
  0
LINE
  5
F104FC
330
F104FD
100
AcDbEntity
8
Geo
100
AcDbLine
10
-15.8411968777102
20
-0.989853141662645
30
0.000000000000000
11
-15.7411968777102
21
-1.00190425341188
31
0.000000000000000
  0
LINE
  5
F104FE
330
F104FF
100
AcDbEntity
8
Geo
100
AcDbLine
10
-15.7411968777102
20
-1.00190425341188
30
0.000000000000000
11
-15.6411968777102
21
-1.01308373620666
31
0.000000000000000
  0
LINE
  5
F10500
330
F10501
100
AcDbEntity
8
Geo
100
AcDbLine
10
-15.6411968777102
20
-1.01308373620666
30
0.000000000000000
11
-15.5411968777102
21
-1.02339036016110
31
0.000000000000000
  0
LINE
  5
F10502
330
F10503
100
AcDbEntity
8
Geo
100
AcDbLine
10
-15.5411968777102
20
-1.02339036016110
30
0.000000000000000
11
-15.4411968777102
21
-1.03282299141493
31
0.000000000000000
  0
LINE
  5
F10504
330
F10505
100
AcDbEntity
8
Geo
100
AcDbLine
10
-15.4411968777102
20
-1.03282299141493
30
0.000000000000000
11
-15.3411968777102
21
-1.04138059225825
31
0.000000000000000
  0
LINE
  5
F10506
330
F10507
100
AcDbEntity
8
Geo
100
AcDbLine
10
-15.3411968777102
20
-1.04138059225825
30
0.000000000000000
11
-15.2411968777102
21
-1.04906222124567
31
0.000000000000000
  0
LINE
  5
F10508
330
F10509
100
AcDbEntity
8
Geo
100
AcDbLine
10
-15.2411968777102
20
-1.04906222124567
30
0.000000000000000
11
-15.1411968777102
21
-1.05586703329991
31
0.000000000000000
  0
LINE
  5
F1050A
330
F1050B
100
AcDbEntity
8
Geo
100
AcDbLine
10
-15.1411968777102
20
-1.05586703329991
30
0.000000000000000
11
-15.0411968777102
21
-1.06179427980472
31
0.000000000000000
  0
LINE
  5
F1050C
330
F1050D
100
AcDbEntity
8
Geo
100
AcDbLine
10
-15.0411968777102
20
-1.06179427980472
30
0.000000000000000
11
-14.9411968777102
21
-1.06684330868730
31
0.000000000000000
  0
LINE
  5
F1050E
330
F1050F
100
AcDbEntity
8
Geo
100
AcDbLine
10
-14.9411968777102
20
-1.06684330868730
30
0.000000000000000
11
-14.8411968777102
21
-1.07101356448999
31
0.000000000000000
  0
LINE
  5
F10510
330
F10511
100
AcDbEntity
8
Geo
100
AcDbLine
10
-14.8411968777102
20
-1.07101356448999
30
0.000000000000000
11
-14.7411968777102
21
-1.07430458843138
31
0.000000000000000
  0
LINE
  5
F10512
330
F10513
100
AcDbEntity
8
Geo
100
AcDbLine
10
-14.7411968777102
20
-1.07430458843138
30
0.000000000000000
11
-14.6411968777102
21
-1.07671601845682
31
0.000000000000000
  0
LINE
  5
F10514
330
F10515
100
AcDbEntity
8
Geo
100
AcDbLine
10
-14.6411968777102
20
-1.07671601845682
30
0.000000000000000
11
-14.5411968777102
21
-1.07824758927821
31
0.000000000000000
  0
LINE
  5
F10516
330
F10517
100
AcDbEntity
8
Geo
100
AcDbLine
10
-14.5411968777102
20
-1.07824758927821
30
0.000000000000000
11
-14.4411968777102
21
-1.07889913240319
31
0.000000000000000
  0
LINE
  5
F10518
330
F10519
100
AcDbEntity
8
Geo
100
AcDbLine
10
-14.4411968777102
20
-1.07889913240319
30
0.000000000000000
11
-14.4171659029061
21
-1.07892454466611
31
0.000000000000000
  0
LINE
  5
F1051A
330
F1051B
100
AcDbEntity
8
Geo
100
AcDbLine
10
-11.1411968777102
20
-1.07880539542161
30
0.000000000000000
11
-11.0891608723484
21
-1.07892454466611
31
0.000000000000000
  0
LINE
  5
F1051C
330
F1051D
100
AcDbEntity
8
Geo
100
AcDbLine
10
-6.36012973620893
20
-1.07892454466611
30
0.000000000000000
11
-6.34119687771008
21
-1.07727365906975
31
0.000000000000000
  0
LINE
  5
F1051E
330
F1051F
100
AcDbEntity
8
Geo
100
AcDbLine
10
-6.34119687771008
20
-1.07727365906975
30
0.000000000000000
11
-6.24119687771008
21
-0.978263364164109
31
0.000000000000000
  0
LINE
  5
F10520
330
F10521
100
AcDbEntity
8
Geo
100
AcDbLine
10
-6.24119687771008
20
-0.978263364164109
30
0.000000000000000
11
-6.14119687771008
21
-0.632511422086713
31
0.000000000000000
  0
LINE
  5
F10522
330
F10523
100
AcDbEntity
8
Geo
100
AcDbLine
10
-6.14119687771008
20
-0.632511422086713
30
0.000000000000000
11
-6.04119687771031
21
0.141408446046233
31
0.000000000000000
  0
LINE
  5
F10524
330
F10525
100
AcDbEntity
8
Geo
100
AcDbLine
10
-6.04119687771031
20
0.141408446046233
30
0.000000000000000
11
-6.04119687771031
21
0.450709544753627
31
0.000000000000000
  0
LINE
  5
F10526
330
F10527
100
AcDbEntity
8
Geo
100
AcDbLine
10
-6.04119687771031
20
0.450709544753627
30
0.000000000000000
11
-6.04119687771031
21
0.584044095049640
31
0.000000000000000
  0
LINE
  5
F10528
330
F10529
100
AcDbEntity
8
Geo
100
AcDbLine
10
-6.04119687771031
20
0.584044095049640
30
0.000000000000000
11
-6.04119687771031
21
0.389047603656569
31
0.000000000000000
  0
LINE
  5
F1052A
330
F1052B
100
AcDbEntity
8
Geo
100
AcDbLine
10
-6.04119687771031
20
0.389047603656569
30
0.000000000000000
11
-6.14119687771008
21
1.42855089966141
31
0.000000000000000
  0
LINE
  5
F1052C
330
F1052D
100
AcDbEntity
8
Geo
100
AcDbLine
10
-6.14119687771008
20
1.42855089966141
30
0.000000000000000
11
-6.24119687771008
21
2.56083603634199
31
0.000000000000000
  0
LINE
  5
F1052E
330
F1052F
100
AcDbEntity
8
Geo
100
AcDbLine
10
-6.24119687771008
20
2.56083603634199
30
0.000000000000000
11
-6.34119687771008
21
3.71097638570277
31
0.000000000000000
  0
LINE
  5
F10530
330
F10531
100
AcDbEntity
8
Geo
100
AcDbLine
10
-6.34119687771008
20
3.71097638570277
30
0.000000000000000
11
-6.44119687771008
21
4.82728600839398
31
0.000000000000000
  0
LINE
  5
F10532
330
F10533
100
AcDbEntity
8
Geo
100
AcDbLine
10
-6.44119687771008
20
4.82728600839398
30
0.000000000000000
11
-6.54119687771009
21
5.87693218350391
31
0.000000000000000
  0
LINE
  5
F10534
330
F10535
100
AcDbEntity
8
Geo
100
AcDbLine
10
-6.54119687771009
20
5.87693218350391
30
0.000000000000000
11
-6.64119687771009
21
6.84145123889176
31
0.000000000000000
  0
LINE
  5
F10536
330
F10537
100
AcDbEntity
8
Geo
100
AcDbLine
10
-6.64119687771009
20
6.84145123889176
30
0.000000000000000
11
-6.74119687771009
21
7.71275517325267
31
0.000000000000000
  0
LINE
  5
F10538
330
F10539
100
AcDbEntity
8
Geo
100
AcDbLine
10
-6.74119687771009
20
7.71275517325267
30
0.000000000000000
11
-6.84119687771009
21
8.48985734729542
31
0.000000000000000
  0
LINE
  5
F1053A
330
F1053B
100
AcDbEntity
8
Geo
100
AcDbLine
10
-6.84119687771009
20
8.48985734729542
30
0.000000000000000
11
-6.94119687771009
21
9.17634072930390
31
0.000000000000000
  0
LINE
  5
F1053C
330
F1053D
100
AcDbEntity
8
Geo
100
AcDbLine
10
-6.94119687771009
20
9.17634072930390
30
0.000000000000000
11
-7.04119687771009
21
9.77849052913058
31
0.000000000000000
  0
LINE
  5
F1053E
330
F1053F
100
AcDbEntity
8
Geo
100
AcDbLine
10
-7.04119687771009
20
9.77849052913058
30
0.000000000000000
11
-7.14119687771009
21
10.3039742404783
31
0.000000000000000
  0
LINE
  5
F10540
330
F10541
100
AcDbEntity
8
Geo
100
AcDbLine
10
-7.14119687771009
20
10.3039742404783
30
0.000000000000000
11
-7.24119687771010
21
10.7609480310981
31
0.000000000000000
  0
LINE
  5
F10542
330
F10543
100
AcDbEntity
8
Geo
100
AcDbLine
10
-7.24119687771010
20
10.7609480310981
30
0.000000000000000
11
-7.34119687771010
21
11.1574811382649
31
0.000000000000000
  0
LINE
  5
F10544
330
F10545
100
AcDbEntity
8
Geo
100
AcDbLine
10
-7.34119687771010
20
11.1574811382649
30
0.000000000000000
11
-7.44119687771010
21
11.5012088836702
31
0.000000000000000
  0
LINE
  5
F10546
330
F10547
100
AcDbEntity
8
Geo
100
AcDbLine
10
-7.44119687771010
20
11.5012088836702
30
0.000000000000000
11
-7.54119687771010
21
11.7991444437162
31
0.000000000000000
  0
LINE
  5
F10548
330
F10549
100
AcDbEntity
8
Geo
100
AcDbLine
10
-7.54119687771010
20
11.7991444437162
30
0.000000000000000
11
-7.64119687771010
21
12.0575969268434
31
0.000000000000000
  0
LINE
  5
F1054A
330
F1054B
100
AcDbEntity
8
Geo
100
AcDbLine
10
-7.64119687771010
20
12.0575969268434
30
0.000000000000000
11
-7.74119687771010
21
12.2821576633537
31
0.000000000000000
  0
LINE
  5
F1054C
330
F1054D
100
AcDbEntity
8
Geo
100
AcDbLine
10
-7.74119687771010
20
12.2821576633537
30
0.000000000000000
11
-7.84119687771010
21
12.4777278473724
31
0.000000000000000
  0
LINE
  5
F1054E
330
F1054F
100
AcDbEntity
8
Geo
100
AcDbLine
10
-7.84119687771010
20
12.4777278473724
30
0.000000000000000
11
-7.94119687771011
21
12.6485691381084
31
0.000000000000000
  0
LINE
  5
F10550
330
F10551
100
AcDbEntity
8
Geo
100
AcDbLine
10
-7.94119687771011
20
12.6485691381084
30
0.000000000000000
11
-8.04119687771011
21
12.7983650212878
31
0.000000000000000
  0
LINE
  5
F10552
330
F10553
100
AcDbEntity
8
Geo
100
AcDbLine
10
-8.04119687771011
20
12.7983650212878
30
0.000000000000000
11
-8.14119687771011
21
12.9302851461297
31
0.000000000000000
  0
LINE
  5
F10554
330
F10555
100
AcDbEntity
8
Geo
100
AcDbLine
10
-8.14119687771011
20
12.9302851461297
30
0.000000000000000
11
-8.24119687771011
21
13.0470479235022
31
0.000000000000000
  0
LINE
  5
F10556
330
F10557
100
AcDbEntity
8
Geo
100
AcDbLine
10
-8.24119687771011
20
13.0470479235022
30
0.000000000000000
11
-8.34119687771011
21
13.1509787528591
31
0.000000000000000
  0
LINE
  5
F10558
330
F10559
100
AcDbEntity
8
Geo
100
AcDbLine
10
-8.34119687771011
20
13.1509787528591
30
0.000000000000000
11
-8.44119687771011
21
13.2440626172145
31
0.000000000000000
  0
LINE
  5
F1055A
330
F1055B
100
AcDbEntity
8
Geo
100
AcDbLine
10
-8.44119687771011
20
13.2440626172145
30
0.000000000000000
11
-8.54119687771011
21
13.3279906570000
31
0.000000000000000
  0
LINE
  5
F1055C
330
F1055D
100
AcDbEntity
8
Geo
100
AcDbLine
10
-8.54119687771011
20
13.3279906570000
30
0.000000000000000
11
-8.64119687771012
21
13.4042008602367
31
0.000000000000000
  0
LINE
  5
F1055E
330
F1055F
100
AcDbEntity
8
Geo
100
AcDbLine
10
-8.64119687771012
20
13.4042008602367
30
0.000000000000000
11
-8.74119687771012
21
13.4739133002167
31
0.000000000000000
  0
LINE
  5
F10560
330
F10561
100
AcDbEntity
8
Geo
100
AcDbLine
10
-8.74119687771012
20
13.4739133002167
30
0.000000000000000
11
-8.84119687771012
21
13.5381604925473
31
0.000000000000000
  0
LINE
  5
F10562
330
F10563
100
AcDbEntity
8
Geo
100
AcDbLine
10
-8.84119687771012
20
13.5381604925473
30
0.000000000000000
11
-8.94119687771012
21
13.5978134867445
31
0.000000000000000
  0
LINE
  5
F10564
330
F10565
100
AcDbEntity
8
Geo
100
AcDbLine
10
-8.94119687771012
20
13.5978134867445
30
0.000000000000000
11
-9.04119687771012
21
13.6536042919376
31
0.000000000000000
  0
LINE
  5
F10566
330
F10567
100
AcDbEntity
8
Geo
100
AcDbLine
10
-9.04119687771012
20
13.6536042919376
30
0.000000000000000
11
-9.14119687771012
21
13.7061451875736
31
0.000000000000000
  0
LINE
  5
F10568
330
F10569
100
AcDbEntity
8
Geo
100
AcDbLine
10
-9.14119687771012
20
13.7061451875736
30
0.000000000000000
11
-9.24119687771012
21
13.7559454054122
31
0.000000000000000
  0
LINE
  5
F1056A
330
F1056B
100
AcDbEntity
8
Geo
100
AcDbLine
10
-9.24119687771012
20
13.7559454054122
30
0.000000000000000
11
-9.34119687771013
21
13.8034255995300
31
0.000000000000000
  0
LINE
  5
F1056C
330
F1056D
100
AcDbEntity
8
Geo
100
AcDbLine
10
-9.34119687771013
20
13.8034255995300
30
0.000000000000000
11
-9.44119687771013
21
13.8489304532519
31
0.000000000000000
  0
LINE
  5
F1056E
330
F1056F
100
AcDbEntity
8
Geo
100
AcDbLine
10
-9.44119687771013
20
13.8489304532519
30
0.000000000000000
11
-9.54119687771013
21
13.8927397097359
31
0.000000000000000
  0
LINE
  5
F10570
330
F10571
100
AcDbEntity
8
Geo
100
AcDbLine
10
-9.54119687771013
20
13.8927397097359
30
0.000000000000000
11
-9.64119687771013
21
13.9350778582978
31
0.000000000000000
  0
LINE
  5
F10572
330
F10573
100
AcDbEntity
8
Geo
100
AcDbLine
10
-9.64119687771013
20
13.9350778582978
30
0.000000000000000
11
-9.74119687771013
21
13.9761226621540
31
0.000000000000000
  0
LINE
  5
F10574
330
F10575
100
AcDbEntity
8
Geo
100
AcDbLine
10
-9.74119687771013
20
13.9761226621540
30
0.000000000000000
11
-9.84119687771013
21
14.0160126749818
31
0.000000000000000
  0
LINE
  5
F10576
330
F10577
100
AcDbEntity
8
Geo
100
AcDbLine
10
-9.84119687771013
20
14.0160126749818
30
0.000000000000000
11
-9.94119687771013
21
14.0548538629789
31
0.000000000000000
  0
LINE
  5
F10578
330
F10579
100
AcDbEntity
8
Geo
100
AcDbLine
10
-9.94119687771013
20
14.0548538629789
30
0.000000000000000
11
-10.0411968777101
21
14.0927254251231
31
0.000000000000000
  0
LINE
  5
F1057A
330
F1057B
100
AcDbEntity
8
Geo
100
AcDbLine
10
-10.0411968777101
20
14.0927254251231
30
0.000000000000000
11
-10.1411968777101
21
14.1296848861527
31
0.000000000000000
  0
LINE
  5
F1057C
330
F1057D
100
AcDbEntity
8
Geo
100
AcDbLine
10
-10.1411968777101
20
14.1296848861527
30
0.000000000000000
11
-10.2411968777101
21
14.1657725234608
31
0.000000000000000
  0
LINE
  5
F1057E
330
F1057F
100
AcDbEntity
8
Geo
100
AcDbLine
10
-10.2411968777101
20
14.1657725234608
30
0.000000000000000
11
-10.3411968777101
21
14.2010151797068
31
0.000000000000000
  0
LINE
  5
F10580
330
F10581
100
AcDbEntity
8
Geo
100
AcDbLine
10
-10.3411968777101
20
14.2010151797068
30
0.000000000000000
11
-10.4411968777101
21
14.2354295066695
31
0.000000000000000
  0
LINE
  5
F10582
330
F10583
100
AcDbEntity
8
Geo
100
AcDbLine
10
-10.4411968777101
20
14.2354295066695
30
0.000000000000000
11
-10.5411968777101
21
14.2690246819576
31
0.000000000000000
  0
LINE
  5
F10584
330
F10585
100
AcDbEntity
8
Geo
100
AcDbLine
10
-10.5411968777101
20
14.2690246819576
30
0.000000000000000
11
-10.6411968777101
21
14.3018046380261
31
0.000000000000000
  0
LINE
  5
F10586
330
F10587
100
AcDbEntity
8
Geo
100
AcDbLine
10
-10.6411968777101
20
14.3018046380261
30
0.000000000000000
11
-10.7411968777101
21
14.3337698420060
31
0.000000000000000
  0
LINE
  5
F10588
330
F10589
100
AcDbEntity
8
Geo
100
AcDbLine
10
-10.7411968777101
20
14.3337698420060
30
0.000000000000000
11
-10.8411968777101
21
14.3649186647177
31
0.000000000000000
  0
LINE
  5
F1058A
330
F1058B
100
AcDbEntity
8
Geo
100
AcDbLine
10
-10.8411968777101
20
14.3649186647177
30
0.000000000000000
11
-10.9411968777101
21
14.3952483775875
31
0.000000000000000
  0
LINE
  5
F1058C
330
F1058D
100
AcDbEntity
8
Geo
100
AcDbLine
10
-10.9411968777101
20
14.3952483775875
30
0.000000000000000
11
-11.1411968777102
21
14.4534377550498
31
0.000000000000000
  0
LINE
  5
F1058E
330
F1058F
100
AcDbEntity
8
Geo
100
AcDbLine
10
-11.0891608723484
20
14.9210754553339
30
0.000000000000000
11
-10.9411968777101
21
14.9201120292374
31
0.000000000000000
  0
LINE
  5
F10590
330
F10591
100
AcDbEntity
8
Geo
100
AcDbLine
10
-10.9411968777101
20
14.9201120292374
30
0.000000000000000
11
-10.8411968777101
21
14.9183698491144
31
0.000000000000000
  0
LINE
  5
F10592
330
F10593
100
AcDbEntity
8
Geo
100
AcDbLine
10
-10.8411968777101
20
14.9183698491144
30
0.000000000000000
11
-10.7411968777101
21
14.9157478644724
31
0.000000000000000
  0
LINE
  5
F10594
330
F10595
100
AcDbEntity
8
Geo
100
AcDbLine
10
-10.7411968777101
20
14.9157478644724
30
0.000000000000000
11
-10.6411968777101
21
14.9122463637634
31
0.000000000000000
  0
LINE
  5
F10596
330
F10597
100
AcDbEntity
8
Geo
100
AcDbLine
10
-10.6411968777101
20
14.9122463637634
30
0.000000000000000
11
-10.5411968777101
21
14.9078657321975
31
0.000000000000000
  0
LINE
  5
F10598
330
F10599
100
AcDbEntity
8
Geo
100
AcDbLine
10
-10.5411968777101
20
14.9078657321975
30
0.000000000000000
11
-10.4411968777101
21
14.9026064517040
31
0.000000000000000
  0
LINE
  5
F1059A
330
F1059B
100
AcDbEntity
8
Geo
100
AcDbLine
10
-10.4411968777101
20
14.9026064517040
30
0.000000000000000
11
-10.3411968777101
21
14.8964691008953
31
0.000000000000000
  0
LINE
  5
F1059C
330
F1059D
100
AcDbEntity
8
Geo
100
AcDbLine
10
-10.3411968777101
20
14.8964691008953
30
0.000000000000000
11
-10.2411968777101
21
14.8894543550753
31
0.000000000000000
  0
LINE
  5
F1059E
330
F1059F
100
AcDbEntity
8
Geo
100
AcDbLine
10
-10.2411968777101
20
14.8894543550753
30
0.000000000000000
11
-10.1411968777101
21
14.8815629864137
31
0.000000000000000
  0
LINE
  5
F105A0
330
F105A1
100
AcDbEntity
8
Geo
100
AcDbLine
10
-10.1411968777101
20
14.8815629864137
30
0.000000000000000
11
-10.0411968777101
21
14.8727958645899
31
0.000000000000000
  0
LINE
  5
F105A2
330
F105A3
100
AcDbEntity
8
Geo
100
AcDbLine
10
-10.0411968777101
20
14.8727958645899
30
0.000000000000000
11
-9.94119687771013
21
14.8631539585921
31
0.000000000000000
  0
LINE
  5
F105A4
330
F105A5
100
AcDbEntity
8
Geo
100
AcDbLine
10
-9.94119687771013
20
14.8631539585921
30
0.000000000000000
11
-9.84119687771013
21
14.8526383410692
31
0.000000000000000
  0
LINE
  5
F105A6
330
F105A7
100
AcDbEntity
8
Geo
100
AcDbLine
10
-9.84119687771013
20
14.8526383410692
30
0.000000000000000
11
-9.74119687771013
21
14.8412501978906
31
0.000000000000000
  0
LINE
  5
F105A8
330
F105A9
100
AcDbEntity
8
Geo
100
AcDbLine
10
-9.74119687771013
20
14.8412501978906
30
0.000000000000000
11
-9.64119687771013
21
14.8289908476566
31
0.000000000000000
  0
LINE
  5
F105AA
330
F105AB
100
AcDbEntity
8
Geo
100
AcDbLine
10
-9.64119687771013
20
14.8289908476566
30
0.000000000000000
11
-9.54119687771013
21
14.8158617792189
31
0.000000000000000
  0
LINE
  5
F105AC
330
F105AD
100
AcDbEntity
8
Geo
100
AcDbLine
10
-9.54119687771013
20
14.8158617792189
30
0.000000000000000
11
-9.44119687771013
21
14.8018647203297
31
0.000000000000000
  0
LINE
  5
F105AE
330
F105AF
100
AcDbEntity
8
Geo
100
AcDbLine
10
-9.44119687771013
20
14.8018647203297
30
0.000000000000000
11
-9.34119687771013
21
14.7870017580105
31
0.000000000000000
  0
LINE
  5
F105B0
330
F105B1
100
AcDbEntity
8
Geo
100
AcDbLine
10
-9.34119687771013
20
14.7870017580105
30
0.000000000000000
11
-9.24119687771012
21
14.7712755419612
31
0.000000000000000
  0
LINE
  5
F105B2
330
F105B3
100
AcDbEntity
8
Geo
100
AcDbLine
10
-9.24119687771012
20
14.7712755419612
30
0.000000000000000
11
-9.14119687771012
21
14.7546896173436
31
0.000000000000000
  0
LINE
  5
F105B4
330
F105B5
100
AcDbEntity
8
Geo
100
AcDbLine
10
-9.14119687771012
20
14.7546896173436
30
0.000000000000000
11
-9.04119687771012
21
14.7372489538338
31
0.000000000000000
  0
LINE
  5
F105B6
330
F105B7
100
AcDbEntity
8
Geo
100
AcDbLine
10
-9.04119687771012
20
14.7372489538338
30
0.000000000000000
11
-8.94119687771012
21
14.7189607654220
31
0.000000000000000
  0
LINE
  5
F105B8
330
F105B9
100
AcDbEntity
8
Geo
100
AcDbLine
10
-8.94119687771012
20
14.7189607654220
30
0.000000000000000
11
-8.84119687771012
21
14.6998357517590
31
0.000000000000000
  0
LINE
  5
F105BA
330
F105BB
100
AcDbEntity
8
Geo
100
AcDbLine
10
-8.84119687771012
20
14.6998357517590
30
0.000000000000000
11
-8.74119687771012
21
14.6798899388017
31
0.000000000000000
  0
LINE
  5
F105BC
330
F105BD
100
AcDbEntity
8
Geo
100
AcDbLine
10
-8.74119687771012
20
14.6798899388017
30
0.000000000000000
11
-8.64119687771012
21
14.6591473560816
31
0.000000000000000
  0
LINE
  5
F105BE
330
F105BF
100
AcDbEntity
8
Geo
100
AcDbLine
10
-8.64119687771012
20
14.6591473560816
30
0.000000000000000
11
-8.54119687771011
21
14.6376438619628
31
0.000000000000000
  0
LINE
  5
F105C0
330
F105C1
100
AcDbEntity
8
Geo
100
AcDbLine
10
-8.54119687771011
20
14.6376438619628
30
0.000000000000000
11
-8.44119687771011
21
14.6154325180698
31
0.000000000000000
  0
LINE
  5
F105C2
330
F105C3
100
AcDbEntity
8
Geo
100
AcDbLine
10
-8.44119687771011
20
14.6154325180698
30
0.000000000000000
11
-8.34119687771011
21
14.5925910196446
31
0.000000000000000
  0
LINE
  5
F105C4
330
F105C5
100
AcDbEntity
8
Geo
100
AcDbLine
10
-8.34119687771011
20
14.5925910196446
30
0.000000000000000
11
-8.24119687771011
21
14.5692318072674
31
0.000000000000000
  0
LINE
  5
F105C6
330
F105C7
100
AcDbEntity
8
Geo
100
AcDbLine
10
-8.24119687771011
20
14.5692318072674
30
0.000000000000000
11
-8.14119687771011
21
14.5455156095892
31
0.000000000000000
  0
LINE
  5
F105C8
330
F105C9
100
AcDbEntity
8
Geo
100
AcDbLine
10
-8.14119687771011
20
14.5455156095892
30
0.000000000000000
11
-8.04119687771011
21
14.5216692802585
31
0.000000000000000
  0
LINE
  5
F105CA
330
F105CB
100
AcDbEntity
8
Geo
100
AcDbLine
10
-8.04119687771011
20
14.5216692802585
30
0.000000000000000
11
-7.94119687771011
21
14.4980088641800
31
0.000000000000000
  0
LINE
  5
F105CC
330
F105CD
100
AcDbEntity
8
Geo
100
AcDbLine
10
-7.94119687771011
20
14.4980088641800
30
0.000000000000000
11
-7.84119687771010
21
14.4749688032976
31
0.000000000000000
  0
LINE
  5
F105CE
330
F105CF
100
AcDbEntity
8
Geo
100
AcDbLine
10
-7.84119687771010
20
14.4749688032976
30
0.000000000000000
11
-7.74119687771010
21
14.4531379752303
31
0.000000000000000
  0
LINE
  5
F105D0
330
F105D1
100
AcDbEntity
8
Geo
100
AcDbLine
10
-7.74119687771010
20
14.4531379752303
30
0.000000000000000
11
-7.64119687771010
21
14.4333026904135
31
0.000000000000000
  0
LINE
  5
F105D2
330
F105D3
100
AcDbEntity
8
Geo
100
AcDbLine
10
-7.64119687771010
20
14.4333026904135
30
0.000000000000000
11
-7.54119687771010
21
14.4164955943067
31
0.000000000000000
  0
LINE
  5
F105D4
330
F105D5
100
AcDbEntity
8
Geo
100
AcDbLine
10
-7.54119687771010
20
14.4164955943067
30
0.000000000000000
11
-7.44119687771010
21
14.4040472087284
31
0.000000000000000
  0
LINE
  5
F105D6
330
F105D7
100
AcDbEntity
8
Geo
100
AcDbLine
10
-7.44119687771010
20
14.4040472087284
30
0.000000000000000
11
-7.34119687771010
21
14.3976329226189
31
0.000000000000000
  0
LINE
  5
F105D8
330
F105D9
100
AcDbEntity
8
Geo
100
AcDbLine
10
-7.34119687771010
20
14.3976329226189
30
0.000000000000000
11
-7.24119687771010
21
14.3993015236617
31
0.000000000000000
  0
LINE
  5
F105DA
330
F105DB
100
AcDbEntity
8
Geo
100
AcDbLine
10
-7.24119687771010
20
14.3993015236617
30
0.000000000000000
11
-7.14119687771009
21
14.4114601196843
31
0.000000000000000
  0
LINE
  5
F105DC
330
F105DD
100
AcDbEntity
8
Geo
100
AcDbLine
10
-7.14119687771009
20
14.4114601196843
30
0.000000000000000
11
-7.04119687771009
21
14.4367717860164
31
0.000000000000000
  0
LINE
  5
F105DE
330
F105DF
100
AcDbEntity
8
Geo
100
AcDbLine
10
-7.04119687771009
20
14.4367717860164
30
0.000000000000000
11
-6.94119687771009
21
14.4778921665875
31
0.000000000000000
  0
LINE
  5
F105E0
330
F105E1
100
AcDbEntity
8
Geo
100
AcDbLine
10
-6.94119687771009
20
14.4778921665875
30
0.000000000000000
11
-6.84119687771009
21
14.5369228868145
31
0.000000000000000
  0
LINE
  5
F105E2
330
F105E3
100
AcDbEntity
8
Geo
100
AcDbLine
10
-6.84119687771009
20
14.5369228868145
30
0.000000000000000
11
-6.74119687771009
21
14.6143832166246
31
0.000000000000000
  0
LINE
  5
F105E4
330
F105E5
100
AcDbEntity
8
Geo
100
AcDbLine
10
-6.74119687771009
20
14.6143832166246
30
0.000000000000000
11
-6.64119687771009
21
14.7073840617527
31
0.000000000000000
  0
LINE
  5
F105E6
330
F105E7
100
AcDbEntity
8
Geo
100
AcDbLine
10
-6.64119687771009
20
14.7073840617527
30
0.000000000000000
11
-6.54119687771009
21
14.8065175676473
31
0.000000000000000
  0
LINE
  5
F105E8
330
F105E9
100
AcDbEntity
8
Geo
100
AcDbLine
10
-6.54119687771009
20
14.8065175676473
30
0.000000000000000
11
-6.44119687771008
21
14.8907537710608
31
0.000000000000000
  0
LINE
  5
F105EA
330
F105EB
100
AcDbEntity
8
Geo
100
AcDbLine
10
-6.44119687771008
20
14.8907537710608
30
0.000000000000000
11
-6.36012973620893
21
14.9210754553339
31
0.000000000000000
  0
LINE
  5
F105EC
330
F105ED
100
AcDbEntity
8
Geo
100
AcDbLine
10
-12.0414930522299
20
14.9210754553339
30
0.000000000000000
11
-12.0411968777102
21
14.8215376738139
31
0.000000000000000
  0
LINE
  5
F105EE
330
F105EF
100
AcDbEntity
8
Geo
100
AcDbLine
10
-12.0411968777102
20
14.8215376738139
30
0.000000000000000
11
-11.9411968777102
21
14.8211005238068
31
0.000000000000000
  0
LINE
  5
F105F0
330
F105F1
100
AcDbEntity
8
Geo
100
AcDbLine
10
-11.9411968777102
20
14.8211005238068
30
0.000000000000000
11
-11.8411968777102
21
14.8197942701489
31
0.000000000000000
  0
LINE
  5
F105F2
330
F105F3
100
AcDbEntity
8
Geo
100
AcDbLine
10
-11.8411968777102
20
14.8197942701489
30
0.000000000000000
11
-11.7411968777102
21
14.8176190565446
31
0.000000000000000
  0
LINE
  5
F105F4
330
F105F5
100
AcDbEntity
8
Geo
100
AcDbLine
10
-11.7411968777102
20
14.8176190565446
30
0.000000000000000
11
-11.6411968777102
21
14.8145751222954
31
0.000000000000000
  0
LINE
  5
F105F6
330
F105F7
100
AcDbEntity
8
Geo
100
AcDbLine
10
-11.6411968777102
20
14.8145751222954
30
0.000000000000000
11
-11.5411968777102
21
14.8106628022727
31
0.000000000000000
  0
LINE
  5
F105F8
330
F105F9
100
AcDbEntity
8
Geo
100
AcDbLine
10
-11.5411968777102
20
14.8106628022727
30
0.000000000000000
11
-11.4411968777102
21
14.8058825268819
31
0.000000000000000
  0
LINE
  5
F105FA
330
F105FB
100
AcDbEntity
8
Geo
100
AcDbLine
10
-11.4411968777102
20
14.8058825268819
30
0.000000000000000
11
-11.3411968777102
21
14.8002348220142
31
0.000000000000000
  0
LINE
  5
F105FC
330
F105FD
100
AcDbEntity
8
Geo
100
AcDbLine
10
-11.3411968777102
20
14.8002348220142
30
0.000000000000000
11
-11.2411968777102
21
14.7937203089894
31
0.000000000000000
  0
LINE
  5
F105FE
330
F105FF
100
AcDbEntity
8
Geo
100
AcDbLine
10
-11.2411968777102
20
14.7937203089894
30
0.000000000000000
11
-11.1411968777102
21
14.7863397044869
31
0.000000000000000
  0
LINE
  5
F10600
330
F10601
100
AcDbEntity
8
Geo
100
AcDbLine
10
-41.0411968777103
20
14.7821569132003
30
0.000000000000000
11
-40.9411968777103
21
14.7734611368148
31
0.000000000000000
  0
LINE
  5
F10602
330
F10603
100
AcDbEntity
8
Geo
100
AcDbLine
10
-40.9411968777103
20
14.7734611368148
30
0.000000000000000
11
-40.8411968777103
21
14.7639014977194
31
0.000000000000000
  0
LINE
  5
F10604
330
F10605
100
AcDbEntity
8
Geo
100
AcDbLine
10
-40.8411968777103
20
14.7639014977194
30
0.000000000000000
11
-40.7411968777103
21
14.7534790475965
31
0.000000000000000
  0
LINE
  5
F10606
330
F10607
100
AcDbEntity
8
Geo
100
AcDbLine
10
-40.7411968777103
20
14.7534790475965
30
0.000000000000000
11
-40.6411968777103
21
14.7421949330487
31
0.000000000000000
  0
LINE
  5
F10608
330
F10609
100
AcDbEntity
8
Geo
100
AcDbLine
10
-40.6411968777103
20
14.7421949330487
30
0.000000000000000
11
-40.5411968777103
21
14.7300503954728
31
0.000000000000000
  0
LINE
  5
F1060A
330
F1060B
100
AcDbEntity
8
Geo
100
AcDbLine
10
-40.5411968777103
20
14.7300503954728
30
0.000000000000000
11
-40.4411968777103
21
14.7170467709229
31
0.000000000000000
  0
LINE
  5
F1060C
330
F1060D
100
AcDbEntity
8
Geo
100
AcDbLine
10
-40.4411968777103
20
14.7170467709229
30
0.000000000000000
11
-40.3411968777103
21
14.7031854899639
31
0.000000000000000
  0
LINE
  5
F1060E
330
F1060F
100
AcDbEntity
8
Geo
100
AcDbLine
10
-40.3411968777103
20
14.7031854899639
30
0.000000000000000
11
-40.2411968777103
21
14.6884680775137
31
0.000000000000000
  0
LINE
  5
F10610
330
F10611
100
AcDbEntity
8
Geo
100
AcDbLine
10
-40.2411968777103
20
14.6884680775137
30
0.000000000000000
11
-40.1411968777103
21
14.6728961526755
31
0.000000000000000
  0
LINE
  5
F10612
330
F10613
100
AcDbEntity
8
Geo
100
AcDbLine
10
-40.1411968777103
20
14.6728961526755
30
0.000000000000000
11
-40.0411968777103
21
14.6564714285601
31
0.000000000000000
  0
LINE
  5
F10614
330
F10615
100
AcDbEntity
8
Geo
100
AcDbLine
10
-40.0411968777103
20
14.6564714285601
30
0.000000000000000
11
-39.9411968777103
21
14.6391957120968
31
0.000000000000000
  0
LINE
  5
F10616
330
F10617
100
AcDbEntity
8
Geo
100
AcDbLine
10
-39.9411968777103
20
14.6391957120968
30
0.000000000000000
11
-39.8411968777103
21
14.6210709038351
31
0.000000000000000
  0
LINE
  5
F10618
330
F10619
100
AcDbEntity
8
Geo
100
AcDbLine
10
-39.8411968777103
20
14.6210709038351
30
0.000000000000000
11
-39.7411968777103
21
14.6020989977353
31
0.000000000000000
  0
LINE
  5
F1061A
330
F1061B
100
AcDbEntity
8
Geo
100
AcDbLine
10
-39.7411968777103
20
14.6020989977353
30
0.000000000000000
11
-39.6411968777103
21
14.5822820809495
31
0.000000000000000
  0
LINE
  5
F1061C
330
F1061D
100
AcDbEntity
8
Geo
100
AcDbLine
10
-39.6411968777103
20
14.5822820809495
30
0.000000000000000
11
-39.5411968777103
21
14.5616223335915
31
0.000000000000000
  0
LINE
  5
F1061E
330
F1061F
100
AcDbEntity
8
Geo
100
AcDbLine
10
-39.5411968777103
20
14.5616223335915
30
0.000000000000000
11
-39.4411968777103
21
14.5401220284975
31
0.000000000000000
  0
LINE
  5
F10620
330
F10621
100
AcDbEntity
8
Geo
100
AcDbLine
10
-39.4411968777103
20
14.5401220284975
30
0.000000000000000
11
-39.3411968777103
21
14.5177835309755
31
0.000000000000000
  0
LINE
  5
F10622
330
F10623
100
AcDbEntity
8
Geo
100
AcDbLine
10
-39.3411968777103
20
14.5177835309755
30
0.000000000000000
11
-39.2411968777103
21
14.4946092985456
31
0.000000000000000
  0
LINE
  5
F10624
330
F10625
100
AcDbEntity
8
Geo
100
AcDbLine
10
-39.2411968777103
20
14.4946092985456
30
0.000000000000000
11
-39.1411968777103
21
14.4706018806693
31
0.000000000000000
  0
LINE
  5
F10626
330
F10627
100
AcDbEntity
8
Geo
100
AcDbLine
10
-39.1411968777103
20
14.4706018806693
30
0.000000000000000
11
-39.0411968777103
21
14.4457639184692
31
0.000000000000000
  0
LINE
  5
F10628
330
F10629
100
AcDbEntity
8
Geo
100
AcDbLine
10
-39.0411968777103
20
14.4457639184692
30
0.000000000000000
11
-38.9411968777103
21
14.4200981444383
31
0.000000000000000
  0
LINE
  5
F1062A
330
F1062B
100
AcDbEntity
8
Geo
100
AcDbLine
10
-38.9411968777103
20
14.4200981444383
30
0.000000000000000
11
-38.8411968777103
21
14.3936073821396
31
0.000000000000000
  0
LINE
  5
F1062C
330
F1062D
100
AcDbEntity
8
Geo
100
AcDbLine
10
-38.8411968777103
20
14.3936073821396
30
0.000000000000000
11
-38.7411968777103
21
14.3662945458953
31
0.000000000000000
  0
LINE
  5
F1062E
330
F1062F
100
AcDbEntity
8
Geo
100
AcDbLine
10
-38.7411968777103
20
14.3662945458953
30
0.000000000000000
11
-38.6411968777103
21
14.3381626404661
31
0.000000000000000
  0
LINE
  5
F10630
330
F10631
100
AcDbEntity
8
Geo
100
AcDbLine
10
-38.6411968777103
20
14.3381626404661
30
0.000000000000000
11
-38.5411968777103
21
14.3092147607209
31
0.000000000000000
  0
LINE
  5
F10632
330
F10633
100
AcDbEntity
8
Geo
100
AcDbLine
10
-38.5411968777103
20
14.3092147607209
30
0.000000000000000
11
-38.4411968777103
21
14.2794540912963
31
0.000000000000000
  0
LINE
  5
F10634
330
F10635
100
AcDbEntity
8
Geo
100
AcDbLine
10
-38.4411968777103
20
14.2794540912963
30
0.000000000000000
11
-38.3411968777103
21
14.2488839062458
31
0.000000000000000
  0
LINE
  5
F10636
330
F10637
100
AcDbEntity
8
Geo
100
AcDbLine
10
-38.3411968777103
20
14.2488839062458
30
0.000000000000000
11
-38.2411968777103
21
14.2175075686804
31
0.000000000000000
  0
LINE
  5
F10638
330
F10639
100
AcDbEntity
8
Geo
100
AcDbLine
10
-38.2411968777103
20
14.2175075686804
30
0.000000000000000
11
-38.1411968777103
21
14.1853285303977
31
0.000000000000000
  0
LINE
  5
F1063A
330
F1063B
100
AcDbEntity
8
Geo
100
AcDbLine
10
-38.1411968777103
20
14.1853285303977
30
0.000000000000000
11
-38.0411968777103
21
14.1523503315031
31
0.000000000000000
  0
LINE
  5
F1063C
330
F1063D
100
AcDbEntity
8
Geo
100
AcDbLine
10
-38.0411968777103
20
14.1523503315031
30
0.000000000000000
11
-37.9411968777103
21
14.1185766000196
31
0.000000000000000
  0
LINE
  5
F1063E
330
F1063F
100
AcDbEntity
8
Geo
100
AcDbLine
10
-37.9411968777103
20
14.1185766000196
30
0.000000000000000
11
-37.8411968777103
21
14.0840110514890
31
0.000000000000000
  0
LINE
  5
F10640
330
F10641
100
AcDbEntity
8
Geo
100
AcDbLine
10
-37.8411968777103
20
14.0840110514890
30
0.000000000000000
11
-37.7411968777103
21
14.0486574885630
31
0.000000000000000
  0
LINE
  5
F10642
330
F10643
100
AcDbEntity
8
Geo
100
AcDbLine
10
-37.7411968777103
20
14.0486574885630
30
0.000000000000000
11
-37.6411968777103
21
14.0125198005851
31
0.000000000000000
  0
LINE
  5
F10644
330
F10645
100
AcDbEntity
8
Geo
100
AcDbLine
10
-37.6411968777103
20
14.0125198005851
30
0.000000000000000
11
-37.5411968777103
21
13.9756019631624
31
0.000000000000000
  0
LINE
  5
F10646
330
F10647
100
AcDbEntity
8
Geo
100
AcDbLine
10
-37.5411968777103
20
13.9756019631624
30
0.000000000000000
11
-37.4411968777103
21
13.9379080377287
31
0.000000000000000
  0
LINE
  5
F10648
330
F10649
100
AcDbEntity
8
Geo
100
AcDbLine
10
-37.4411968777103
20
13.9379080377287
30
0.000000000000000
11
-37.3411968777103
21
13.8994421710970
31
0.000000000000000
  0
LINE
  5
F1064A
330
F1064B
100
AcDbEntity
8
Geo
100
AcDbLine
10
-37.3411968777103
20
13.8994421710970
30
0.000000000000000
11
-37.2411968777103
21
13.8602085950041
31
0.000000000000000
  0
LINE
  5
F1064C
330
F1064D
100
AcDbEntity
8
Geo
100
AcDbLine
10
-37.2411968777103
20
13.8602085950041
30
0.000000000000000
11
-37.1411968777103
21
13.8202116256442
31
0.000000000000000
  0
LINE
  5
F1064E
330
F1064F
100
AcDbEntity
8
Geo
100
AcDbLine
10
-37.1411968777103
20
13.8202116256442
30
0.000000000000000
11
-37.0411968777103
21
13.7794556631949
31
0.000000000000000
  0
LINE
  5
F10650
330
F10651
100
AcDbEntity
8
Geo
100
AcDbLine
10
-37.0411968777103
20
13.7794556631949
30
0.000000000000000
11
-36.9411968777103
21
13.7379451913325
31
0.000000000000000
  0
LINE
  5
F10652
330
F10653
100
AcDbEntity
8
Geo
100
AcDbLine
10
-36.9411968777103
20
13.7379451913325
30
0.000000000000000
11
-36.8411968777103
21
13.6956847767390
31
0.000000000000000
  0
LINE
  5
F10654
330
F10655
100
AcDbEntity
8
Geo
100
AcDbLine
10
-36.8411968777103
20
13.6956847767390
30
0.000000000000000
11
-36.7411968777103
21
13.6526790685999
31
0.000000000000000
  0
LINE
  5
F10656
330
F10657
100
AcDbEntity
8
Geo
100
AcDbLine
10
-36.7411968777103
20
13.6526790685999
30
0.000000000000000
11
-36.6411968777103
21
13.6089327980922
31
0.000000000000000
  0
LINE
  5
F10658
330
F10659
100
AcDbEntity
8
Geo
100
AcDbLine
10
-36.6411968777103
20
13.6089327980922
30
0.000000000000000
11
-36.5411968777103
21
13.5644507778644
31
0.000000000000000
  0
LINE
  5
F1065A
330
F1065B
100
AcDbEntity
8
Geo
100
AcDbLine
10
-36.5411968777103
20
13.5644507778644
30
0.000000000000000
11
-36.4411968777103
21
13.5192379015067
31
0.000000000000000
  0
LINE
  5
F1065C
330
F1065D
100
AcDbEntity
8
Geo
100
AcDbLine
10
-36.4411968777103
20
13.5192379015067
30
0.000000000000000
11
-36.3411968777103
21
13.4732991430131
31
0.000000000000000
  0
LINE
  5
F1065E
330
F1065F
100
AcDbEntity
8
Geo
100
AcDbLine
10
-36.3411968777103
20
13.4732991430131
30
0.000000000000000
11
-36.2411968777103
21
13.4266395562337
31
0.000000000000000
  0
LINE
  5
F10660
330
F10661
100
AcDbEntity
8
Geo
100
AcDbLine
10
-36.2411968777103
20
13.4266395562337
30
0.000000000000000
11
-36.1411968777103
21
13.3792642743188
31
0.000000000000000
  0
LINE
  5
F10662
330
F10663
100
AcDbEntity
8
Geo
100
AcDbLine
10
-36.1411968777103
20
13.3792642743188
30
0.000000000000000
11
-36.0411968777103
21
13.3311785091546
31
0.000000000000000
  0
LINE
  5
F10664
330
F10665
100
AcDbEntity
8
Geo
100
AcDbLine
10
-36.0411968777103
20
13.3311785091546
30
0.000000000000000
11
-35.9411968777103
21
13.2823875507893
31
0.000000000000000
  0
LINE
  5
F10666
330
F10667
100
AcDbEntity
8
Geo
100
AcDbLine
10
-35.9411968777103
20
13.2823875507893
30
0.000000000000000
11
-35.8411968777103
21
13.2328967668515
31
0.000000000000000
  0
LINE
  5
F10668
330
F10669
100
AcDbEntity
8
Geo
100
AcDbLine
10
-35.8411968777103
20
13.2328967668515
30
0.000000000000000
11
-35.7411968777103
21
13.1827116019595
31
0.000000000000000
  0
LINE
  5
F1066A
330
F1066B
100
AcDbEntity
8
Geo
100
AcDbLine
10
-35.7411968777103
20
13.1827116019595
30
0.000000000000000
11
-35.6411968777103
21
13.1318375771223
31
0.000000000000000
  0
LINE
  5
F1066C
330
F1066D
100
AcDbEntity
8
Geo
100
AcDbLine
10
-35.6411968777103
20
13.1318375771223
30
0.000000000000000
11
-35.5411968777103
21
13.0802802891324
31
0.000000000000000
  0
LINE
  5
F1066E
330
F1066F
100
AcDbEntity
8
Geo
100
AcDbLine
10
-35.5411968777103
20
13.0802802891324
30
0.000000000000000
11
-35.4411968777103
21
13.0280454099499
31
0.000000000000000
  0
LINE
  5
F10670
330
F10671
100
AcDbEntity
8
Geo
100
AcDbLine
10
-35.4411968777103
20
13.0280454099499
30
0.000000000000000
11
-35.3411968777103
21
12.9751386860787
31
0.000000000000000
  0
LINE
  5
F10672
330
F10673
100
AcDbEntity
8
Geo
100
AcDbLine
10
-35.3411968777103
20
12.9751386860787
30
0.000000000000000
11
-35.2411968777103
21
12.9215659379340
31
0.000000000000000
  0
LINE
  5
F10674
330
F10675
100
AcDbEntity
8
Geo
100
AcDbLine
10
-35.2411968777103
20
12.9215659379340
30
0.000000000000000
11
-35.1411968777103
21
12.8673330592024
31
0.000000000000000
  0
LINE
  5
F10676
330
F10677
100
AcDbEntity
8
Geo
100
AcDbLine
10
-35.1411968777103
20
12.8673330592024
30
0.000000000000000
11
-35.0411968777103
21
12.8124460161931
31
0.000000000000000
  0
LINE
  5
F10678
330
F10679
100
AcDbEntity
8
Geo
100
AcDbLine
10
-35.0411968777103
20
12.8124460161931
30
0.000000000000000
11
-34.9411968777103
21
12.7569108471818
31
0.000000000000000
  0
LINE
  5
F1067A
330
F1067B
100
AcDbEntity
8
Geo
100
AcDbLine
10
-34.9411968777103
20
12.7569108471818
30
0.000000000000000
11
-34.8411968777103
21
12.7007336617464
31
0.000000000000000
  0
LINE
  5
F1067C
330
F1067D
100
AcDbEntity
8
Geo
100
AcDbLine
10
-34.8411968777103
20
12.7007336617464
30
0.000000000000000
11
-34.7411968777103
21
12.6439206400948
31
0.000000000000000
  0
LINE
  5
F1067E
330
F1067F
100
AcDbEntity
8
Geo
100
AcDbLine
10
-34.7411968777103
20
12.6439206400948
30
0.000000000000000
11
-34.6411968777103
21
12.5864780323848
31
0.000000000000000
  0
LINE
  5
F10680
330
F10681
100
AcDbEntity
8
Geo
100
AcDbLine
10
-34.6411968777103
20
12.5864780323848
30
0.000000000000000
11
-34.5411968777103
21
12.5284121580369
31
0.000000000000000
  0
LINE
  5
F10682
330
F10683
100
AcDbEntity
8
Geo
100
AcDbLine
10
-34.5411968777103
20
12.5284121580369
30
0.000000000000000
11
-34.4411968777103
21
12.4697294050390
31
0.000000000000000
  0
LINE
  5
F10684
330
F10685
100
AcDbEntity
8
Geo
100
AcDbLine
10
-34.4411968777103
20
12.4697294050390
30
0.000000000000000
11
-34.3411968777103
21
12.4104362292433
31
0.000000000000000
  0
LINE
  5
F10686
330
F10687
100
AcDbEntity
8
Geo
100
AcDbLine
10
-34.3411968777103
20
12.4104362292433
30
0.000000000000000
11
-34.2411968777103
21
12.3505391536563
31
0.000000000000000
  0
LINE
  5
F10688
330
F10689
100
AcDbEntity
8
Geo
100
AcDbLine
10
-34.2411968777103
20
12.3505391536563
30
0.000000000000000
11
-34.1411968777103
21
12.2900447677214
31
0.000000000000000
  0
LINE
  5
F1068A
330
F1068B
100
AcDbEntity
8
Geo
100
AcDbLine
10
-34.1411968777103
20
12.2900447677214
30
0.000000000000000
11
-34.0411968777103
21
12.2289597265936
31
0.000000000000000
  0
LINE
  5
F1068C
330
F1068D
100
AcDbEntity
8
Geo
100
AcDbLine
10
-34.0411968777103
20
12.2289597265936
30
0.000000000000000
11
-33.9411968777103
21
12.1672907504075
31
0.000000000000000
  0
LINE
  5
F1068E
330
F1068F
100
AcDbEntity
8
Geo
100
AcDbLine
10
-33.9411968777103
20
12.1672907504075
30
0.000000000000000
11
-33.8411968777103
21
12.1050446235381
31
0.000000000000000
  0
LINE
  5
F10690
330
F10691
100
AcDbEntity
8
Geo
100
AcDbLine
10
-33.8411968777103
20
12.1050446235381
30
0.000000000000000
11
-33.7411968777103
21
12.0422281938544
31
0.000000000000000
  0
LINE
  5
F10692
330
F10693
100
AcDbEntity
8
Geo
100
AcDbLine
10
-33.7411968777103
20
12.0422281938544
30
0.000000000000000
11
-33.6411968777103
21
11.9788483719659
31
0.000000000000000
  0
LINE
  5
F10694
330
F10695
100
AcDbEntity
8
Geo
100
AcDbLine
10
-33.6411968777103
20
11.9788483719659
30
0.000000000000000
11
-33.5411968777103
21
11.9149121304623
31
0.000000000000000
  0
LINE
  5
F10696
330
F10697
100
AcDbEntity
8
Geo
100
AcDbLine
10
-33.5411968777103
20
11.9149121304623
30
0.000000000000000
11
-33.4411968777103
21
11.8504265031468
31
0.000000000000000
  0
LINE
  5
F10698
330
F10699
100
AcDbEntity
8
Geo
100
AcDbLine
10
-33.4411968777103
20
11.8504265031468
30
0.000000000000000
11
-33.3411968777103
21
11.7853985842620
31
0.000000000000000
  0
LINE
  5
F1069A
330
F1069B
100
AcDbEntity
8
Geo
100
AcDbLine
10
-33.3411968777103
20
11.7853985842620
30
0.000000000000000
11
-33.2411968777103
21
11.7198355277095
31
0.000000000000000
  0
LINE
  5
F1069C
330
F1069D
100
AcDbEntity
8
Geo
100
AcDbLine
10
-33.2411968777103
20
11.7198355277095
30
0.000000000000000
11
-33.1411968777103
21
11.6537445462627
31
0.000000000000000
  0
LINE
  5
F1069E
330
F1069F
100
AcDbEntity
8
Geo
100
AcDbLine
10
-33.1411968777103
20
11.6537445462627
30
0.000000000000000
11
-33.0411968777103
21
11.5871329107738
31
0.000000000000000
  0
LINE
  5
F106A0
330
F106A1
100
AcDbEntity
8
Geo
100
AcDbLine
10
-33.0411968777103
20
11.5871329107738
30
0.000000000000000
11
-32.9411968777103
21
11.5200079493733
31
0.000000000000000
  0
LINE
  5
F106A2
330
F106A3
100
AcDbEntity
8
Geo
100
AcDbLine
10
-32.9411968777103
20
11.5200079493733
30
0.000000000000000
11
-32.8411968777103
21
11.4523770466642
31
0.000000000000000
  0
LINE
  5
F106A4
330
F106A5
100
AcDbEntity
8
Geo
100
AcDbLine
10
-32.8411968777103
20
11.4523770466642
30
0.000000000000000
11
-32.7411968777103
21
11.3842476429097
31
0.000000000000000
  0
LINE
  5
F106A6
330
F106A7
100
AcDbEntity
8
Geo
100
AcDbLine
10
-32.7411968777103
20
11.3842476429097
30
0.000000000000000
11
-32.6411968777103
21
11.3156272332141
31
0.000000000000000
  0
LINE
  5
F106A8
330
F106A9
100
AcDbEntity
8
Geo
100
AcDbLine
10
-32.6411968777103
20
11.3156272332141
30
0.000000000000000
11
-32.5411968777103
21
11.2465233666989
31
0.000000000000000
  0
LINE
  5
F106AA
330
F106AB
100
AcDbEntity
8
Geo
100
AcDbLine
10
-32.5411968777103
20
11.2465233666989
30
0.000000000000000
11
-32.4411968777103
21
11.1769436456721
31
0.000000000000000
  0
LINE
  5
F106AC
330
F106AD
100
AcDbEntity
8
Geo
100
AcDbLine
10
-32.4411968777103
20
11.1769436456721
30
0.000000000000000
11
-32.3411968777103
21
11.1068957247915
31
0.000000000000000
  0
LINE
  5
F106AE
330
F106AF
100
AcDbEntity
8
Geo
100
AcDbLine
10
-32.3411968777103
20
11.1068957247915
30
0.000000000000000
11
-32.2411968777103
21
11.0363873102230
31
0.000000000000000
  0
LINE
  5
F106B0
330
F106B1
100
AcDbEntity
8
Geo
100
AcDbLine
10
-32.2411968777103
20
11.0363873102230
30
0.000000000000000
11
-32.1411968777103
21
10.9654261587927
31
0.000000000000000
  0
LINE
  5
F106B2
330
F106B3
100
AcDbEntity
8
Geo
100
AcDbLine
10
-32.1411968777103
20
10.9654261587927
30
0.000000000000000
11
-32.0411968777103
21
10.8940200771336
31
0.000000000000000
  0
LINE
  5
F106B4
330
F106B5
100
AcDbEntity
8
Geo
100
AcDbLine
10
-32.0411968777103
20
10.8940200771336
30
0.000000000000000
11
-31.9411968777103
21
10.8221769208265
31
0.000000000000000
  0
LINE
  5
F106B6
330
F106B7
100
AcDbEntity
8
Geo
100
AcDbLine
10
-31.9411968777103
20
10.8221769208265
30
0.000000000000000
11
-31.8411968777103
21
10.7499045935362
31
0.000000000000000
  0
LINE
  5
F106B8
330
F106B9
100
AcDbEntity
8
Geo
100
AcDbLine
10
-31.8411968777103
20
10.7499045935362
30
0.000000000000000
11
-31.7411968777103
21
10.6772110461417
31
0.000000000000000
  0
LINE
  5
F106BA
330
F106BB
100
AcDbEntity
8
Geo
100
AcDbLine
10
-31.7411968777103
20
10.6772110461417
30
0.000000000000000
11
-31.6411968777103
21
10.6041042758616
31
0.000000000000000
  0
LINE
  5
F106BC
330
F106BD
100
AcDbEntity
8
Geo
100
AcDbLine
10
-31.6411968777103
20
10.6041042758616
30
0.000000000000000
11
-31.5411968777103
21
10.5305923253743
31
0.000000000000000
  0
LINE
  5
F106BE
330
F106BF
100
AcDbEntity
8
Geo
100
AcDbLine
10
-31.5411968777103
20
10.5305923253743
30
0.000000000000000
11
-31.4411968777103
21
10.4566832819332
31
0.000000000000000
  0
LINE
  5
F106C0
330
F106C1
100
AcDbEntity
8
Geo
100
AcDbLine
10
-31.4411968777103
20
10.4566832819332
30
0.000000000000000
11
-31.3411968777103
21
10.3823852764770
31
0.000000000000000
  0
LINE
  5
F106C2
330
F106C3
100
AcDbEntity
8
Geo
100
AcDbLine
10
-31.3411968777103
20
10.3823852764770
30
0.000000000000000
11
-31.2411968777103
21
10.3077064827351
31
0.000000000000000
  0
LINE
  5
F106C4
330
F106C5
100
AcDbEntity
8
Geo
100
AcDbLine
10
-31.2411968777103
20
10.3077064827351
30
0.000000000000000
11
-31.1411968777103
21
10.2326551163286
31
0.000000000000000
  0
LINE
  5
F106C6
330
F106C7
100
AcDbEntity
8
Geo
100
AcDbLine
10
-31.1411968777103
20
10.2326551163286
30
0.000000000000000
11
-31.0411968777103
21
10.1572394338664
31
0.000000000000000
  0
LINE
  5
F106C8
330
F106C9
100
AcDbEntity
8
Geo
100
AcDbLine
10
-31.0411968777103
20
10.1572394338664
30
0.000000000000000
11
-30.9411968777103
21
10.0814677320366
31
0.000000000000000
  0
LINE
  5
F106CA
330
F106CB
100
AcDbEntity
8
Geo
100
AcDbLine
10
-30.9411968777103
20
10.0814677320366
30
0.000000000000000
11
-30.8411968777103
21
10.0053483466941
31
0.000000000000000
  0
LINE
  5
F106CC
330
F106CD
100
AcDbEntity
8
Geo
100
AcDbLine
10
-30.8411968777103
20
10.0053483466941
30
0.000000000000000
11
-30.7411968777103
21
9.92888965194350
31
0.000000000000000
  0
LINE
  5
F106CE
330
F106CF
100
AcDbEntity
8
Geo
100
AcDbLine
10
-30.7411968777103
20
9.92888965194350
30
0.000000000000000
11
-30.6411968777103
21
9.85210005921769
31
0.000000000000000
  0
LINE
  5
F106D0
330
F106D1
100
AcDbEntity
8
Geo
100
AcDbLine
10
-30.6411968777103
20
9.85210005921769
30
0.000000000000000
11
-30.5411968777103
21
9.77498801635255
31
0.000000000000000
  0
LINE
  5
F106D2
330
F106D3
100
AcDbEntity
8
Geo
100
AcDbLine
10
-30.5411968777103
20
9.77498801635255
30
0.000000000000000
11
-30.4411968777103
21
9.69756200665761
31
0.000000000000000
  0
LINE
  5
F106D4
330
F106D5
100
AcDbEntity
8
Geo
100
AcDbLine
10
-30.4411968777103
20
9.69756200665761
30
0.000000000000000
11
-30.3411968777103
21
9.61983054798278
31
0.000000000000000
  0
LINE
  5
F106D6
330
F106D7
100
AcDbEntity
8
Geo
100
AcDbLine
10
-30.3411968777103
20
9.61983054798278
30
0.000000000000000
11
-30.2411968777103
21
9.54180219178122
31
0.000000000000000
  0
LINE
  5
F106D8
330
F106D9
100
AcDbEntity
8
Geo
100
AcDbLine
10
-30.2411968777103
20
9.54180219178122
30
0.000000000000000
11
-30.1411968777103
21
9.46348552216866
31
0.000000000000000
  0
LINE
  5
F106DA
330
F106DB
100
AcDbEntity
8
Geo
100
AcDbLine
10
-30.1411968777103
20
9.46348552216866
30
0.000000000000000
11
-30.0411968777103
21
9.38488915497894
31
0.000000000000000
  0
LINE
  5
F106DC
330
F106DD
100
AcDbEntity
8
Geo
100
AcDbLine
10
-30.0411968777103
20
9.38488915497894
30
0.000000000000000
11
-29.9411968777103
21
9.30602173681624
31
0.000000000000000
  0
LINE
  5
F106DE
330
F106DF
100
AcDbEntity
8
Geo
100
AcDbLine
10
-29.9411968777103
20
9.30602173681624
30
0.000000000000000
11
-29.8411968777103
21
9.22689194410379
31
0.000000000000000
  0
LINE
  5
F106E0
330
F106E1
100
AcDbEntity
8
Geo
100
AcDbLine
10
-29.8411968777103
20
9.22689194410379
30
0.000000000000000
11
-29.7411968777103
21
9.14750848212937
31
0.000000000000000
  0
LINE
  5
F106E2
330
F106E3
100
AcDbEntity
8
Geo
100
AcDbLine
10
-29.7411968777103
20
9.14750848212937
30
0.000000000000000
11
-29.6411968777103
21
9.06788008408763
31
0.000000000000000
  0
LINE
  5
F106E4
330
F106E5
100
AcDbEntity
8
Geo
100
AcDbLine
10
-29.6411968777103
20
9.06788008408763
30
0.000000000000000
11
-29.5411968777103
21
8.98801551011931
31
0.000000000000000
  0
LINE
  5
F106E6
330
F106E7
100
AcDbEntity
8
Geo
100
AcDbLine
10
-29.5411968777103
20
8.98801551011931
30
0.000000000000000
11
-29.4411968777103
21
8.90792354634752
31
0.000000000000000
  0
LINE
  5
F106E8
330
F106E9
100
AcDbEntity
8
Geo
100
AcDbLine
10
-29.4411968777103
20
8.90792354634752
30
0.000000000000000
11
-29.3411968777103
21
8.82761300391115
31
0.000000000000000
  0
LINE
  5
F106EA
330
F106EB
100
AcDbEntity
8
Geo
100
AcDbLine
10
-29.3411968777103
20
8.82761300391115
30
0.000000000000000
11
-29.2411968777103
21
8.74709271799553
31
0.000000000000000
  0
LINE
  5
F106EC
330
F106ED
100
AcDbEntity
8
Geo
100
AcDbLine
10
-29.2411968777103
20
8.74709271799553
30
0.000000000000000
11
-29.1411968777103
21
8.66637154686046
31
0.000000000000000
  0
LINE
  5
F106EE
330
F106EF
100
AcDbEntity
8
Geo
100
AcDbLine
10
-29.1411968777103
20
8.66637154686046
30
0.000000000000000
11
-29.0411968777103
21
8.58545837086569
31
0.000000000000000
  0
LINE
  5
F106F0
330
F106F1
100
AcDbEntity
8
Geo
100
AcDbLine
10
-29.0411968777103
20
8.58545837086569
30
0.000000000000000
11
-28.9411968777103
21
8.50436209149392
31
0.000000000000000
  0
LINE
  5
F106F2
330
F106F3
100
AcDbEntity
8
Geo
100
AcDbLine
10
-28.9411968777103
20
8.50436209149392
30
0.000000000000000
11
-28.8411968777103
21
8.42309163037160
31
0.000000000000000
  0
LINE
  5
F106F4
330
F106F5
100
AcDbEntity
8
Geo
100
AcDbLine
10
-28.8411968777103
20
8.42309163037160
30
0.000000000000000
11
-28.7411968777103
21
8.34165592828737
31
0.000000000000000
  0
LINE
  5
F106F6
330
F106F7
100
AcDbEntity
8
Geo
100
AcDbLine
10
-28.7411968777103
20
8.34165592828737
30
0.000000000000000
11
-28.6411968777103
21
8.26006394420850
31
0.000000000000000
  0
LINE
  5
F106F8
330
F106F9
100
AcDbEntity
8
Geo
100
AcDbLine
10
-28.6411968777103
20
8.26006394420850
30
0.000000000000000
11
-28.5411968777103
21
8.17832465429528
31
0.000000000000000
  0
LINE
  5
F106FA
330
F106FB
100
AcDbEntity
8
Geo
100
AcDbLine
10
-28.5411968777103
20
8.17832465429528
30
0.000000000000000
11
-28.4411968777103
21
8.09644705091350
31
0.000000000000000
  0
LINE
  5
F106FC
330
F106FD
100
AcDbEntity
8
Geo
100
AcDbLine
10
-28.4411968777103
20
8.09644705091350
30
0.000000000000000
11
-28.3411968777103
21
8.01444014164523
31
0.000000000000000
  0
LINE
  5
F106FE
330
F106FF
100
AcDbEntity
8
Geo
100
AcDbLine
10
-28.3411968777103
20
8.01444014164523
30
0.000000000000000
11
-28.2411968777103
21
7.93231294829780
31
0.000000000000000
  0
LINE
  5
F10700
330
F10701
100
AcDbEntity
8
Geo
100
AcDbLine
10
-28.2411968777103
20
7.93231294829780
30
0.000000000000000
11
-28.1411968777103
21
7.85007450591137
31
0.000000000000000
  0
LINE
  5
F10702
330
F10703
100
AcDbEntity
8
Geo
100
AcDbLine
10
-28.1411968777103
20
7.85007450591137
30
0.000000000000000
11
-28.0411968777103
21
7.76773386176488
31
0.000000000000000
  0
LINE
  5
F10704
330
F10705
100
AcDbEntity
8
Geo
100
AcDbLine
10
-28.0411968777103
20
7.76773386176488
30
0.000000000000000
11
-27.9411968777103
21
7.68530007438077
31
0.000000000000000
  0
LINE
  5
F10706
330
F10707
100
AcDbEntity
8
Geo
100
AcDbLine
10
-27.9411968777103
20
7.68530007438077
30
0.000000000000000
11
-27.8411968777103
21
7.60278221252846
31
0.000000000000000
  0
LINE
  5
F10708
330
F10709
100
AcDbEntity
8
Geo
100
AcDbLine
10
-27.8411968777103
20
7.60278221252846
30
0.000000000000000
11
-27.7411968777103
21
7.52018935422659
31
0.000000000000000
  0
LINE
  5
F1070A
330
F1070B
100
AcDbEntity
8
Geo
100
AcDbLine
10
-27.7411968777103
20
7.52018935422659
30
0.000000000000000
11
-27.6411968777103
21
7.43753058574440
31
0.000000000000000
  0
LINE
  5
F1070C
330
F1070D
100
AcDbEntity
8
Geo
100
AcDbLine
10
-27.6411968777103
20
7.43753058574440
30
0.000000000000000
11
-27.5411968777103
21
7.35481500060208
31
0.000000000000000
  0
LINE
  5
F1070E
330
F1070F
100
AcDbEntity
8
Geo
100
AcDbLine
10
-27.5411968777103
20
7.35481500060208
30
0.000000000000000
11
-27.4411968777103
21
7.27205169857038
31
0.000000000000000
  0
LINE
  5
F10710
330
F10711
100
AcDbEntity
8
Geo
100
AcDbLine
10
-27.4411968777103
20
7.27205169857038
30
0.000000000000000
11
-27.3411968777103
21
7.18924978466951
31
0.000000000000000
  0
LINE
  5
F10712
330
F10713
100
AcDbEntity
8
Geo
100
AcDbLine
10
-27.3411968777103
20
7.18924978466951
30
0.000000000000000
11
-27.2411968777103
21
7.10641836816748
31
0.000000000000000
  0
LINE
  5
F10714
330
F10715
100
AcDbEntity
8
Geo
100
AcDbLine
10
-27.2411968777103
20
7.10641836816748
30
0.000000000000000
11
-27.1411968777103
21
7.02356656157798
31
0.000000000000000
  0
LINE
  5
F10716
330
F10717
100
AcDbEntity
8
Geo
100
AcDbLine
10
-27.1411968777103
20
7.02356656157798
30
0.000000000000000
11
-27.0411968777103
21
6.94070347965785
31
0.000000000000000
  0
LINE
  5
F10718
330
F10719
100
AcDbEntity
8
Geo
100
AcDbLine
10
-27.0411968777103
20
6.94070347965785
30
0.000000000000000
11
-26.9411968777103
21
6.85783823840437
31
0.000000000000000
  0
LINE
  5
F1071A
330
F1071B
100
AcDbEntity
8
Geo
100
AcDbLine
10
-26.9411968777103
20
6.85783823840437
30
0.000000000000000
11
-26.8411968777103
21
6.77497995405238
31
0.000000000000000
  0
LINE
  5
F1071C
330
F1071D
100
AcDbEntity
8
Geo
100
AcDbLine
10
-26.8411968777103
20
6.77497995405238
30
0.000000000000000
11
-26.7411968777103
21
6.69213774207135
31
0.000000000000000
  0
LINE
  5
F1071E
330
F1071F
100
AcDbEntity
8
Geo
100
AcDbLine
10
-26.7411968777103
20
6.69213774207135
30
0.000000000000000
11
-26.6411968777103
21
6.60932071616260
31
0.000000000000000
  0
LINE
  5
F10720
330
F10721
100
AcDbEntity
8
Geo
100
AcDbLine
10
-26.6411968777103
20
6.60932071616260
30
0.000000000000000
11
-26.5411968777103
21
6.52653798725666
31
0.000000000000000
  0
LINE
  5
F10722
330
F10723
100
AcDbEntity
8
Geo
100
AcDbLine
10
-26.5411968777103
20
6.52653798725666
30
0.000000000000000
11
-26.4411968777103
21
6.44379866251096
31
0.000000000000000
  0
LINE
  5
F10724
330
F10725
100
AcDbEntity
8
Geo
100
AcDbLine
10
-26.4411968777103
20
6.44379866251096
30
0.000000000000000
11
-26.3411968777103
21
6.36111184430789
31
0.000000000000000
  0
LINE
  5
F10726
330
F10727
100
AcDbEntity
8
Geo
100
AcDbLine
10
-26.3411968777103
20
6.36111184430789
30
0.000000000000000
11
-26.2411968777103
21
6.27848662925349
31
0.000000000000000
  0
LINE
  5
F10728
330
F10729
100
AcDbEntity
8
Geo
100
AcDbLine
10
-26.2411968777103
20
6.27848662925349
30
0.000000000000000
11
-26.1411968777103
21
6.19593210717663
31
0.000000000000000
  0
LINE
  5
F1072A
330
F1072B
100
AcDbEntity
8
Geo
100
AcDbLine
10
-26.1411968777103
20
6.19593210717663
30
0.000000000000000
11
-26.0411968777103
21
6.11345736012906
31
0.000000000000000
  0
LINE
  5
F1072C
330
F1072D
100
AcDbEntity
8
Geo
100
AcDbLine
10
-26.0411968777103
20
6.11345736012906
30
0.000000000000000
11
-25.9411968777103
21
6.03107146138628
31
0.000000000000000
  0
LINE
  5
F1072E
330
F1072F
100
AcDbEntity
8
Geo
100
AcDbLine
10
-25.9411968777103
20
6.03107146138628
30
0.000000000000000
11
-25.8411968777103
21
5.94878347444931
31
0.000000000000000
  0
LINE
  5
F10730
330
F10731
100
AcDbEntity
8
Geo
100
AcDbLine
10
-25.8411968777103
20
5.94878347444931
30
0.000000000000000
11
-25.7411968777103
21
5.86660245204764
31
0.000000000000000
  0
LINE
  5
F10732
330
F10733
100
AcDbEntity
8
Geo
100
AcDbLine
10
-25.7411968777103
20
5.86660245204764
30
0.000000000000000
11
-25.6411968777103
21
5.78453743514328
31
0.000000000000000
  0
LINE
  5
F10734
330
F10735
100
AcDbEntity
8
Geo
100
AcDbLine
10
-25.6411968777103
20
5.78453743514328
30
0.000000000000000
11
-25.5411968777103
21
5.70259745193618
31
0.000000000000000
  0
LINE
  5
F10736
330
F10737
100
AcDbEntity
8
Geo
100
AcDbLine
10
-25.5411968777103
20
5.70259745193618
30
0.000000000000000
11
-25.4411968777103
21
5.62079151687096
31
0.000000000000000
  0
LINE
  5
F10738
330
F10739
100
AcDbEntity
8
Geo
100
AcDbLine
10
-25.4411968777103
20
5.62079151687096
30
0.000000000000000
11
-25.3411968777103
21
5.53912862964525
31
0.000000000000000
  0
LINE
  5
F1073A
330
F1073B
100
AcDbEntity
8
Geo
100
AcDbLine
10
-25.3411968777103
20
5.53912862964525
30
0.000000000000000
11
-25.2411968777103
21
5.45761777421958
31
0.000000000000000
  0
LINE
  5
F1073C
330
F1073D
100
AcDbEntity
8
Geo
100
AcDbLine
10
-25.2411968777103
20
5.45761777421958
30
0.000000000000000
11
-25.1411968777103
21
5.37626791782904
31
0.000000000000000
  0
LINE
  5
F1073E
330
F1073F
100
AcDbEntity
8
Geo
100
AcDbLine
10
-25.1411968777103
20
5.37626791782904
30
0.000000000000000
11
-25.0411968777103
21
5.29508800999677
31
0.000000000000000
  0
LINE
  5
F10740
330
F10741
100
AcDbEntity
8
Geo
100
AcDbLine
10
-25.0411968777103
20
5.29508800999677
30
0.000000000000000
11
-24.9411968777103
21
5.21408698154942
31
0.000000000000000
  0
LINE
  5
F10742
330
F10743
100
AcDbEntity
8
Geo
100
AcDbLine
10
-24.9411968777103
20
5.21408698154942
30
0.000000000000000
11
-24.8411968777103
21
5.13327374363458
31
0.000000000000000
  0
LINE
  5
F10744
330
F10745
100
AcDbEntity
8
Geo
100
AcDbLine
10
-24.8411968777103
20
5.13327374363458
30
0.000000000000000
11
-24.7411968777103
21
5.05265718674053
31
0.000000000000000
  0
LINE
  5
F10746
330
F10747
100
AcDbEntity
8
Geo
100
AcDbLine
10
-24.7411968777103
20
5.05265718674053
30
0.000000000000000
11
-24.6411968777103
21
4.97224617971810
31
0.000000000000000
  0
LINE
  5
F10748
330
F10749
100
AcDbEntity
8
Geo
100
AcDbLine
10
-24.6411968777103
20
4.97224617971810
30
0.000000000000000
11
-24.5411968777103
21
4.89204956880500
31
0.000000000000000
  0
LINE
  5
F1074A
330
F1074B
100
AcDbEntity
8
Geo
100
AcDbLine
10
-24.5411968777103
20
4.89204956880500
30
0.000000000000000
11
-24.4411968777103
21
4.81207617665265
31
0.000000000000000
  0
LINE
  5
F1074C
330
F1074D
100
AcDbEntity
8
Geo
100
AcDbLine
10
-24.4411968777103
20
4.81207617665265
30
0.000000000000000
11
-24.3411968777103
21
4.73233480135556
31
0.000000000000000
  0
LINE
  5
F1074E
330
F1074F
100
AcDbEntity
8
Geo
100
AcDbLine
10
-24.3411968777103
20
4.73233480135556
30
0.000000000000000
11
-24.2411968777103
21
4.65283421548339
31
0.000000000000000
  0
LINE
  5
F10750
330
F10751
100
AcDbEntity
8
Geo
100
AcDbLine
10
-24.2411968777103
20
4.65283421548339
30
0.000000000000000
11
-24.1411968777103
21
4.57358316511593
31
0.000000000000000
  0
LINE
  5
F10752
330
F10753
100
AcDbEntity
8
Geo
100
AcDbLine
10
-24.1411968777103
20
4.57358316511593
30
0.000000000000000
11
-24.0411968777103
21
4.49459036888084
31
0.000000000000000
  0
LINE
  5
F10754
330
F10755
100
AcDbEntity
8
Geo
100
AcDbLine
10
-24.0411968777103
20
4.49459036888084
30
0.000000000000000
11
-23.9411968777103
21
4.41586451699455
31
0.000000000000000
  0
LINE
  5
F10756
330
F10757
100
AcDbEntity
8
Geo
100
AcDbLine
10
-23.9411968777103
20
4.41586451699455
30
0.000000000000000
11
-23.8411968777103
21
4.33741427030621
31
0.000000000000000
  0
LINE
  5
F10758
330
F10759
100
AcDbEntity
8
Geo
100
AcDbLine
10
-23.8411968777103
20
4.33741427030621
30
0.000000000000000
11
-23.7411968777103
21
4.25924825934484
31
0.000000000000000
  0
LINE
  5
F1075A
330
F1075B
100
AcDbEntity
8
Geo
100
AcDbLine
10
-23.7411968777103
20
4.25924825934484
30
0.000000000000000
11
-23.6411968777103
21
4.18137508336994
31
0.000000000000000
  0
LINE
  5
F1075C
330
F1075D
100
AcDbEntity
8
Geo
100
AcDbLine
10
-23.6411968777103
20
4.18137508336994
30
0.000000000000000
11
-23.5411968777103
21
4.10380330942541
31
0.000000000000000
  0
LINE
  5
F1075E
330
F1075F
100
AcDbEntity
8
Geo
100
AcDbLine
10
-23.5411968777103
20
4.10380330942541
30
0.000000000000000
11
-23.4411968777103
21
4.02654147139706
31
0.000000000000000
  0
LINE
  5
F10760
330
F10761
100
AcDbEntity
8
Geo
100
AcDbLine
10
-23.4411968777103
20
4.02654147139706
30
0.000000000000000
11
-23.3411968777103
21
3.94959806907381
31
0.000000000000000
  0
LINE
  5
F10762
330
F10763
100
AcDbEntity
8
Geo
100
AcDbLine
10
-23.3411968777103
20
3.94959806907381
30
0.000000000000000
11
-23.2411968777103
21
3.87298156721259
31
0.000000000000000
  0
LINE
  5
F10764
330
F10765
100
AcDbEntity
8
Geo
100
AcDbLine
10
-23.2411968777103
20
3.87298156721259
30
0.000000000000000
11
-23.1411968777103
21
3.79670039460709
31
0.000000000000000
  0
LINE
  5
F10766
330
F10767
100
AcDbEntity
8
Geo
100
AcDbLine
10
-23.1411968777103
20
3.79670039460709
30
0.000000000000000
11
-23.0411968777103
21
3.72076294316049
31
0.000000000000000
  0
LINE
  5
F10768
330
F10769
100
AcDbEntity
8
Geo
100
AcDbLine
10
-23.0411968777103
20
3.72076294316049
30
0.000000000000000
11
-22.9411968777103
21
3.64517756696229
31
0.000000000000000
  0
LINE
  5
F1076A
330
F1076B
100
AcDbEntity
8
Geo
100
AcDbLine
10
-22.9411968777103
20
3.64517756696229
30
0.000000000000000
11
-22.8411968777103
21
3.56995258136917
31
0.000000000000000
  0
LINE
  5
F1076C
330
F1076D
100
AcDbEntity
8
Geo
100
AcDbLine
10
-22.8411968777103
20
3.56995258136917
30
0.000000000000000
11
-22.7411968777103
21
3.49509626209028
31
0.000000000000000
  0
LINE
  5
F1076E
330
F1076F
100
AcDbEntity
8
Geo
100
AcDbLine
10
-22.7411968777103
20
3.49509626209028
30
0.000000000000000
11
-22.6411968777103
21
3.42061684427675
31
0.000000000000000
  0
LINE
  5
F10770
330
F10771
100
AcDbEntity
8
Geo
100
AcDbLine
10
-22.6411968777103
20
3.42061684427675
30
0.000000000000000
11
-22.5411968777103
21
3.34652252161572
31
0.000000000000000
  0
LINE
  5
F10772
330
F10773
100
AcDbEntity
8
Geo
100
AcDbLine
10
-22.5411968777103
20
3.34652252161572
30
0.000000000000000
11
-22.4411968777103
21
3.27282144542898
31
0.000000000000000
  0
LINE
  5
F10774
330
F10775
100
AcDbEntity
8
Geo
100
AcDbLine
10
-22.4411968777103
20
3.27282144542898
30
0.000000000000000
11
-22.3411968777103
21
3.19952172377616
31
0.000000000000000
  0
LINE
  5
F10776
330
F10777
100
AcDbEntity
8
Geo
100
AcDbLine
10
-22.3411968777103
20
3.19952172377616
30
0.000000000000000
11
-22.2411968777103
21
3.12663142056277
31
0.000000000000000
  0
LINE
  5
F10778
330
F10779
100
AcDbEntity
8
Geo
100
AcDbLine
10
-22.2411968777103
20
3.12663142056277
30
0.000000000000000
11
-22.1411968777103
21
3.05415855465306
31
0.000000000000000
  0
LINE
  5
F1077A
330
F1077B
100
AcDbEntity
8
Geo
100
AcDbLine
10
-22.1411968777103
20
3.05415855465306
30
0.000000000000000
11
-22.0411968777103
21
2.98211109898787
31
0.000000000000000
  0
LINE
  5
F1077C
330
F1077D
100
AcDbEntity
8
Geo
100
AcDbLine
10
-22.0411968777103
20
2.98211109898787
30
0.000000000000000
11
-21.9411968777103
21
2.91049697970744
31
0.000000000000000
  0
LINE
  5
F1077E
330
F1077F
100
AcDbEntity
8
Geo
100
AcDbLine
10
-21.9411968777103
20
2.91049697970744
30
0.000000000000000
11
-21.8411968777103
21
2.83932407527950
31
0.000000000000000
  0
LINE
  5
F10780
330
F10781
100
AcDbEntity
8
Geo
100
AcDbLine
10
-21.8411968777103
20
2.83932407527950
30
0.000000000000000
11
-21.7411968777103
21
2.76860021563251
31
0.000000000000000
  0
LINE
  5
F10782
330
F10783
100
AcDbEntity
8
Geo
100
AcDbLine
10
-21.7411968777103
20
2.76860021563251
30
0.000000000000000
11
-21.6411968777103
21
2.69833318129426
31
0.000000000000000
  0
LINE
  5
F10784
330
F10785
100
AcDbEntity
8
Geo
100
AcDbLine
10
-21.6411968777103
20
2.69833318129426
30
0.000000000000000
11
-21.5411968777103
21
2.62853070253593
31
0.000000000000000
  0
LINE
  5
F10786
330
F10787
100
AcDbEntity
8
Geo
100
AcDbLine
10
-21.5411968777103
20
2.62853070253593
30
0.000000000000000
11
-21.4411968777103
21
2.55920045852165
31
0.000000000000000
  0
LINE
  5
F10788
330
F10789
100
AcDbEntity
8
Geo
100
AcDbLine
10
-21.4411968777103
20
2.55920045852165
30
0.000000000000000
11
-21.3411968777103
21
2.49035007646368
31
0.000000000000000
  0
LINE
  5
F1078A
330
F1078B
100
AcDbEntity
8
Geo
100
AcDbLine
10
-21.3411968777103
20
2.49035007646368
30
0.000000000000000
11
-21.2411968777103
21
2.42198713078338
31
0.000000000000000
  0
LINE
  5
F1078C
330
F1078D
100
AcDbEntity
8
Geo
100
AcDbLine
10
-21.2411968777103
20
2.42198713078338
30
0.000000000000000
11
-21.1411968777103
21
2.35411914227784
31
0.000000000000000
  0
LINE
  5
F1078E
330
F1078F
100
AcDbEntity
8
Geo
100
AcDbLine
10
-21.1411968777103
20
2.35411914227784
30
0.000000000000000
11
-21.0411968777103
21
2.28675357729256
31
0.000000000000000
  0
LINE
  5
F10790
330
F10791
100
AcDbEntity
8
Geo
100
AcDbLine
10
-21.0411968777103
20
2.28675357729256
30
0.000000000000000
11
-20.9411968777103
21
2.21989784690003
31
0.000000000000000
  0
LINE
  5
F10792
330
F10793
100
AcDbEntity
8
Geo
100
AcDbLine
10
-20.9411968777103
20
2.21989784690003
30
0.000000000000000
11
-20.8411968777103
21
2.15355930608442
31
0.000000000000000
  0
LINE
  5
F10794
330
F10795
100
AcDbEntity
8
Geo
100
AcDbLine
10
-20.8411968777103
20
2.15355930608442
30
0.000000000000000
11
-20.7411968777103
21
2.08774525293247
31
0.000000000000000
  0
LINE
  5
F10796
330
F10797
100
AcDbEntity
8
Geo
100
AcDbLine
10
-20.7411968777103
20
2.08774525293247
30
0.000000000000000
11
-20.6411968777103
21
2.02246292783053
31
0.000000000000000
  0
LINE
  5
F10798
330
F10799
100
AcDbEntity
8
Geo
100
AcDbLine
10
-20.6411968777103
20
2.02246292783053
30
0.000000000000000
11
-20.5411968777103
21
1.95771951266811
31
0.000000000000000
  0
LINE
  5
F1079A
330
F1079B
100
AcDbEntity
8
Geo
100
AcDbLine
10
-20.5411968777103
20
1.95771951266811
30
0.000000000000000
11
-20.4411968777103
21
1.89352213004773
31
0.000000000000000
  0
LINE
  5
F1079C
330
F1079D
100
AcDbEntity
8
Geo
100
AcDbLine
10
-20.4411968777103
20
1.89352213004773
30
0.000000000000000
11
-20.3411968777103
21
1.82987784250136
31
0.000000000000000
  0
LINE
  5
F1079E
330
F1079F
100
AcDbEntity
8
Geo
100
AcDbLine
10
-20.3411968777103
20
1.82987784250136
30
0.000000000000000
11
-20.2411968777103
21
1.76679365171346
31
0.000000000000000
  0
LINE
  5
F107A0
330
F107A1
100
AcDbEntity
8
Geo
100
AcDbLine
10
-20.2411968777103
20
1.76679365171346
30
0.000000000000000
11
-20.1411968777103
21
1.70427649775067
31
0.000000000000000
  0
LINE
  5
F107A2
330
F107A3
100
AcDbEntity
8
Geo
100
AcDbLine
10
-20.1411968777103
20
1.70427649775067
30
0.000000000000000
11
-20.0411968777103
21
1.64233325829834
31
0.000000000000000
  0
LINE
  5
F107A4
330
F107A5
100
AcDbEntity
8
Geo
100
AcDbLine
10
-20.0411968777103
20
1.64233325829834
30
0.000000000000000
11
-19.9411968777103
21
1.58097074790393
31
0.000000000000000
  0
LINE
  5
F107A6
330
F107A7
100
AcDbEntity
8
Geo
100
AcDbLine
10
-19.9411968777103
20
1.58097074790393
30
0.000000000000000
11
-19.8411968777103
21
1.52019571722724
31
0.000000000000000
  0
LINE
  5
F107A8
330
F107A9
100
AcDbEntity
8
Geo
100
AcDbLine
10
-19.8411968777103
20
1.52019571722724
30
0.000000000000000
11
-19.7411968777103
21
1.46001485229782
31
0.000000000000000
  0
LINE
  5
F107AA
330
F107AB
100
AcDbEntity
8
Geo
100
AcDbLine
10
-19.7411968777103
20
1.46001485229782
30
0.000000000000000
11
-19.6411968777103
21
1.40043477377941
31
0.000000000000000
  0
LINE
  5
F107AC
330
F107AD
100
AcDbEntity
8
Geo
100
AcDbLine
10
-19.6411968777103
20
1.40043477377941
30
0.000000000000000
11
-19.5411968777103
21
1.34146203624155
31
0.000000000000000
  0
LINE
  5
F107AE
330
F107AF
100
AcDbEntity
8
Geo
100
AcDbLine
10
-19.5411968777103
20
1.34146203624155
30
0.000000000000000
11
-19.4411968777103
21
1.28310312743853
31
0.000000000000000
  0
LINE
  5
F107B0
330
F107B1
100
AcDbEntity
8
Geo
100
AcDbLine
10
-19.4411968777103
20
1.28310312743853
30
0.000000000000000
11
-19.3411968777103
21
1.22536446759563
31
0.000000000000000
  0
LINE
  5
F107B2
330
F107B3
100
AcDbEntity
8
Geo
100
AcDbLine
10
-19.3411968777103
20
1.22536446759563
30
0.000000000000000
11
-19.2411968777103
21
1.16825240870284
31
0.000000000000000
  0
LINE
  5
F107B4
330
F107B5
100
AcDbEntity
8
Geo
100
AcDbLine
10
-19.2411968777103
20
1.16825240870284
30
0.000000000000000
11
-19.1411968777103
21
1.11177323381602
31
0.000000000000000
  0
LINE
  5
F107B6
330
F107B7
100
AcDbEntity
8
Geo
100
AcDbLine
10
-19.1411968777103
20
1.11177323381602
30
0.000000000000000
11
-19.0411968777103
21
1.05593315636572
31
0.000000000000000
  0
LINE
  5
F107B8
330
F107B9
100
AcDbEntity
8
Geo
100
AcDbLine
10
-19.0411968777103
20
1.05593315636572
30
0.000000000000000
11
-18.9411968777103
21
1.00073831947361
31
0.000000000000000
  0
LINE
  5
F107BA
330
F107BB
100
AcDbEntity
8
Geo
100
AcDbLine
10
-18.9411968777103
20
1.00073831947361
30
0.000000000000000
11
-18.8411968777103
21
0.946194795276662
31
0.000000000000000
  0
LINE
  5
F107BC
330
F107BD
100
AcDbEntity
8
Geo
100
AcDbLine
10
-18.8411968777103
20
0.946194795276662
30
0.000000000000000
11
-18.7411968777103
21
0.892308584259119
31
0.000000000000000
  0
LINE
  5
F107BE
330
F107BF
100
AcDbEntity
8
Geo
100
AcDbLine
10
-18.7411968777103
20
0.892308584259119
30
0.000000000000000
11
-18.6411968777103
21
0.839085614592395
31
0.000000000000000
  0
LINE
  5
F107C0
330
F107C1
100
AcDbEntity
8
Geo
100
AcDbLine
10
-18.6411968777103
20
0.839085614592395
30
0.000000000000000
11
-18.5411968777103
21
0.786531741482872
31
0.000000000000000
  0
LINE
  5
F107C2
330
F107C3
100
AcDbEntity
8
Geo
100
AcDbLine
10
-18.5411968777103
20
0.786531741482872
30
0.000000000000000
11
-18.4411968777103
21
0.734652746527775
31
0.000000000000000
  0
LINE
  5
F107C4
330
F107C5
100
AcDbEntity
8
Geo
100
AcDbLine
10
-18.4411968777103
20
0.734652746527775
30
0.000000000000000
11
-18.3411968777103
21
0.683454337079112
31
0.000000000000000
  0
LINE
  5
F107C6
330
F107C7
100
AcDbEntity
8
Geo
100
AcDbLine
10
-18.3411968777103
20
0.683454337079112
30
0.000000000000000
11
-18.2411968777103
21
0.632942145615784
31
0.000000000000000
  0
LINE
  5
F107C8
330
F107C9
100
AcDbEntity
8
Geo
100
AcDbLine
10
-18.2411968777103
20
0.632942145615784
30
0.000000000000000
11
-18.1411968777103
21
0.583121729123962
31
0.000000000000000
  0
LINE
  5
F107CA
330
F107CB
100
AcDbEntity
8
Geo
100
AcDbLine
10
-18.1411968777103
20
0.583121729123962
30
0.000000000000000
11
-18.0411968777102
21
0.533998568485729
31
0.000000000000000
  0
LINE
  5
F107CC
330
F107CD
100
AcDbEntity
8
Geo
100
AcDbLine
10
-18.0411968777102
20
0.533998568485729
30
0.000000000000000
11
-17.9411968777102
21
0.485578067876121
31
0.000000000000000
  0
LINE
  5
F107CE
330
F107CF
100
AcDbEntity
8
Geo
100
AcDbLine
10
-17.9411968777102
20
0.485578067876121
30
0.000000000000000
11
-17.8411968777102
21
0.437865554168596
31
0.000000000000000
  0
LINE
  5
F107D0
330
F107D1
100
AcDbEntity
8
Geo
100
AcDbLine
10
-17.8411968777102
20
0.437865554168596
30
0.000000000000000
11
-17.7411968777102
21
0.390866276349008
31
0.000000000000000
  0
LINE
  5
F107D2
330
F107D3
100
AcDbEntity
8
Geo
100
AcDbLine
10
-17.7411968777102
20
0.390866276349008
30
0.000000000000000
11
-17.6411968777102
21
0.344585404938162
31
0.000000000000000
  0
LINE
  5
F107D4
330
F107D5
100
AcDbEntity
8
Geo
100
AcDbLine
10
-17.6411968777102
20
0.344585404938162
30
0.000000000000000
11
-17.5411968777102
21
0.299028031422974
31
0.000000000000000
  0
LINE
  5
F107D6
330
F107D7
100
AcDbEntity
8
Geo
100
AcDbLine
10
-17.5411968777102
20
0.299028031422974
30
0.000000000000000
11
-17.4411968777102
21
0.254199167696362
31
0.000000000000000
  0
LINE
  5
F107D8
330
F107D9
100
AcDbEntity
8
Geo
100
AcDbLine
10
-17.4411968777102
20
0.254199167696362
30
0.000000000000000
11
-17.3411968777102
21
0.210103745505851
31
0.000000000000000
  0
LINE
  5
F107DA
330
F107DB
100
AcDbEntity
8
Geo
100
AcDbLine
10
-17.3411968777102
20
0.210103745505851
30
0.000000000000000
11
-17.2411968777102
21
0.166746615911041
31
0.000000000000000
  0
LINE
  5
F107DC
330
F107DD
100
AcDbEntity
8
Geo
100
AcDbLine
10
-17.2411968777102
20
0.166746615911041
30
0.000000000000000
11
-17.1411968777102
21
0.124132548749911
31
0.000000000000000
  0
LINE
  5
F107DE
330
F107DF
100
AcDbEntity
8
Geo
100
AcDbLine
10
-17.1411968777102
20
0.124132548749911
30
0.000000000000000
11
-17.0411968777102
21
0.0822662321140841
31
0.000000000000000
  0
LINE
  5
F107E0
330
F107E1
100
AcDbEntity
8
Geo
100
AcDbLine
10
-17.0411968777102
20
0.0822662321140841
30
0.000000000000000
11
-16.9411968777102
21
0.0411522718330772
31
0.000000000000000
  0
LINE
  5
F107E2
330
F107E3
100
AcDbEntity
8
Geo
100
AcDbLine
10
-16.9411968777102
20
0.0411522718330772
30
0.000000000000000
11
-16.8411968777102
21
0.000795190967598280
31
0.000000000000000
  0
LINE
  5
F107E4
330
F107E5
100
AcDbEntity
8
Geo
100
AcDbLine
10
-16.8411968777102
20
0.000795190967598280
30
0.000000000000000
11
-16.7411968777102
21
-0.0388005706880454
31
0.000000000000000
  0
LINE
  5
F107E6
330
F107E7
100
AcDbEntity
8
Geo
100
AcDbLine
10
-16.7411968777102
20
-0.0388005706880454
30
0.000000000000000
11
-16.6411968777102
21
-0.0776306570943861
31
0.000000000000000
  0
LINE
  5
F107E8
330
F107E9
100
AcDbEntity
8
Geo
100
AcDbLine
10
-16.6411968777102
20
-0.0776306570943861
30
0.000000000000000
11
-16.5411968777102
21
-0.115690796446005
31
0.000000000000000
  0
LINE
  5
F107EA
330
F107EB
100
AcDbEntity
8
Geo
100
AcDbLine
10
-16.5411968777102
20
-0.115690796446005
30
0.000000000000000
11
-16.4411968777102
21
-0.152976801641504
31
0.000000000000000
  0
LINE
  5
F107EC
330
F107ED
100
AcDbEntity
8
Geo
100
AcDbLine
10
-16.4411968777102
20
-0.152976801641504
30
0.000000000000000
11
-16.3411968777102
21
-0.189484570744117
31
0.000000000000000
  0
LINE
  5
F107EE
330
F107EF
100
AcDbEntity
8
Geo
100
AcDbLine
10
-16.3411968777102
20
-0.189484570744117
30
0.000000000000000
11
-16.2411968777102
21
-0.225210087432997
31
0.000000000000000
  0
LINE
  5
F107F0
330
F107F1
100
AcDbEntity
8
Geo
100
AcDbLine
10
-16.2411968777102
20
-0.225210087432997
30
0.000000000000000
11
-16.1411968777102
21
-0.260149421445039
31
0.000000000000000
  0
LINE
  5
F107F2
330
F107F3
100
AcDbEntity
8
Geo
100
AcDbLine
10
-16.1411968777102
20
-0.260149421445039
30
0.000000000000000
11
-16.0411968777102
21
-0.294298729007289
31
0.000000000000000
  0
LINE
  5
F107F4
330
F107F5
100
AcDbEntity
8
Geo
100
AcDbLine
10
-16.0411968777102
20
-0.294298729007289
30
0.000000000000000
11
-15.9411968777102
21
-0.327654253259786
31
0.000000000000000
  0
LINE
  5
F107F6
330
F107F7
100
AcDbEntity
8
Geo
100
AcDbLine
10
-15.9411968777102
20
-0.327654253259786
30
0.000000000000000
11
-15.8411968777102
21
-0.360212324668868
31
0.000000000000000
  0
LINE
  5
F107F8
330
F107F9
100
AcDbEntity
8
Geo
100
AcDbLine
10
-15.8411968777102
20
-0.360212324668868
30
0.000000000000000
11
-15.7411968777102
21
-0.391969361430870
31
0.000000000000000
  0
LINE
  5
F107FA
330
F107FB
100
AcDbEntity
8
Geo
100
AcDbLine
10
-15.7411968777102
20
-0.391969361430870
30
0.000000000000000
11
-15.6411968777102
21
-0.422921869866173
31
0.000000000000000
  0
LINE
  5
F107FC
330
F107FD
100
AcDbEntity
8
Geo
100
AcDbLine
10
-15.6411968777102
20
-0.422921869866173
30
0.000000000000000
11
-15.5411968777102
21
-0.453066444803546
31
0.000000000000000
  0
LINE
  5
F107FE
330
F107FF
100
AcDbEntity
8
Geo
100
AcDbLine
10
-15.5411968777102
20
-0.453066444803546
30
0.000000000000000
11
-15.4411968777102
21
-0.482399769954763
31
0.000000000000000
  0
LINE
  5
F10800
330
F10801
100
AcDbEntity
8
Geo
100
AcDbLine
10
-15.4411968777102
20
-0.482399769954763
30
0.000000000000000
11
-15.3411968777102
21
-0.510918618279431
31
0.000000000000000
  0
LINE
  5
F10802
330
F10803
100
AcDbEntity
8
Geo
100
AcDbLine
10
-15.3411968777102
20
-0.510918618279431
30
0.000000000000000
11
-15.2411968777102
21
-0.538619852340013
31
0.000000000000000
  0
LINE
  5
F10804
330
F10805
100
AcDbEntity
8
Geo
100
AcDbLine
10
-15.2411968777102
20
-0.538619852340013
30
0.000000000000000
11
-15.1411968777102
21
-0.565500424646983
31
0.000000000000000
  0
LINE
  5
F10806
330
F10807
100
AcDbEntity
8
Geo
100
AcDbLine
10
-15.1411968777102
20
-0.565500424646983
30
0.000000000000000
11
-15.0411968777102
21
-0.591557377994086
31
0.000000000000000
  0
LINE
  5
F10808
330
F10809
100
AcDbEntity
8
Geo
100
AcDbLine
10
-15.0411968777102
20
-0.591557377994086
30
0.000000000000000
11
-14.9411968777102
21
-0.616787845783676
31
0.000000000000000
  0
LINE
  5
F1080A
330
F1080B
100
AcDbEntity
8
Geo
100
AcDbLine
10
-14.9411968777102
20
-0.616787845783676
30
0.000000000000000
11
-14.8411968777102
21
-0.641189052342074
31
0.000000000000000
  0
LINE
  5
F1080C
330
F1080D
100
AcDbEntity
8
Geo
100
AcDbLine
10
-14.8411968777102
20
-0.641189052342074
30
0.000000000000000
11
-14.7411968777102
21
-0.664758313224921
31
0.000000000000000
  0
LINE
  5
F1080E
330
F1080F
100
AcDbEntity
8
Geo
100
AcDbLine
10
-14.7411968777102
20
-0.664758313224921
30
0.000000000000000
11
-14.6411968777102
21
-0.687493035512507
31
0.000000000000000
  0
LINE
  5
F10810
330
F10811
100
AcDbEntity
8
Geo
100
AcDbLine
10
-14.6411968777102
20
-0.687493035512507
30
0.000000000000000
11
-14.5411968777102
21
-0.709390718095033
31
0.000000000000000
  0
LINE
  5
F10812
330
F10813
100
AcDbEntity
8
Geo
100
AcDbLine
10
-14.5411968777102
20
-0.709390718095033
30
0.000000000000000
11
-14.4411968777102
21
-0.730448951947754
31
0.000000000000000
  0
LINE
  5
F10814
330
F10815
100
AcDbEntity
8
Geo
100
AcDbLine
10
-14.4411968777102
20
-0.730448951947754
30
0.000000000000000
11
-14.3411968777102
21
-0.750665420396004
31
0.000000000000000
  0
LINE
  5
F10816
330
F10817
100
AcDbEntity
8
Geo
100
AcDbLine
10
-14.3411968777102
20
-0.750665420396004
30
0.000000000000000
11
-14.2411968777102
21
-0.770037899370068
31
0.000000000000000
  0
LINE
  5
F10818
330
F10819
100
AcDbEntity
8
Geo
100
AcDbLine
10
-14.2411968777102
20
-0.770037899370068
30
0.000000000000000
11
-14.1411968777102
21
-0.788564257649844
31
0.000000000000000
  0
LINE
  5
F1081A
330
F1081B
100
AcDbEntity
8
Geo
100
AcDbLine
10
-14.1411968777102
20
-0.788564257649844
30
0.000000000000000
11
-14.0411968777102
21
-0.806242457099312
31
0.000000000000000
  0
LINE
  5
F1081C
330
F1081D
100
AcDbEntity
8
Geo
100
AcDbLine
10
-14.0411968777102
20
-0.806242457099312
30
0.000000000000000
11
-13.9411968777102
21
-0.823070552890768
31
0.000000000000000
  0
LINE
  5
F1081E
330
F1081F
100
AcDbEntity
8
Geo
100
AcDbLine
10
-13.9411968777102
20
-0.823070552890768
30
0.000000000000000
11
-13.8411968777102
21
-0.839046693718755
31
0.000000000000000
  0
LINE
  5
F10820
330
F10821
100
AcDbEntity
8
Geo
100
AcDbLine
10
-13.8411968777102
20
-0.839046693718755
30
0.000000000000000
11
-13.7411968777102
21
-0.854169122003746
31
0.000000000000000
  0
LINE
  5
F10822
330
F10823
100
AcDbEntity
8
Geo
100
AcDbLine
10
-13.7411968777102
20
-0.854169122003746
30
0.000000000000000
11
-13.6411968777102
21
-0.868436174085498
31
0.000000000000000
  0
LINE
  5
F10824
330
F10825
100
AcDbEntity
8
Geo
100
AcDbLine
10
-13.6411968777102
20
-0.868436174085498
30
0.000000000000000
11
-13.5411968777102
21
-0.881846280406073
31
0.000000000000000
  0
LINE
  5
F10826
330
F10827
100
AcDbEntity
8
Geo
100
AcDbLine
10
-13.5411968777102
20
-0.881846280406073
30
0.000000000000000
11
-13.4411968777102
21
-0.894397965682511
31
0.000000000000000
  0
LINE
  5
F10828
330
F10829
100
AcDbEntity
8
Geo
100
AcDbLine
10
-13.4411968777102
20
-0.894397965682511
30
0.000000000000000
11
-13.3411968777102
21
-0.906089849069131
31
0.000000000000000
  0
LINE
  5
F1082A
330
F1082B
100
AcDbEntity
8
Geo
100
AcDbLine
10
-13.3411968777102
20
-0.906089849069131
30
0.000000000000000
11
-13.2411968777102
21
-0.916920644309442
31
0.000000000000000
  0
LINE
  5
F1082C
330
F1082D
100
AcDbEntity
8
Geo
100
AcDbLine
10
-13.2411968777102
20
-0.916920644309442
30
0.000000000000000
11
-13.1411968777102
21
-0.926889159877645
31
0.000000000000000
  0
LINE
  5
F1082E
330
F1082F
100
AcDbEntity
8
Geo
100
AcDbLine
10
-13.1411968777102
20
-0.926889159877645
30
0.000000000000000
11
-13.0411968777102
21
-0.935994299109712
31
0.000000000000000
  0
LINE
  5
F10830
330
F10831
100
AcDbEntity
8
Geo
100
AcDbLine
10
-13.0411968777102
20
-0.935994299109712
30
0.000000000000000
11
-12.9411968777102
21
-0.944235060324049
31
0.000000000000000
  0
LINE
  5
F10832
330
F10833
100
AcDbEntity
8
Geo
100
AcDbLine
10
-12.9411968777102
20
-0.944235060324049
30
0.000000000000000
11
-12.8411968777102
21
-0.951610536931675
31
0.000000000000000
  0
LINE
  5
F10834
330
F10835
100
AcDbEntity
8
Geo
100
AcDbLine
10
-12.8411968777102
20
-0.951610536931675
30
0.000000000000000
11
-12.7411968777102
21
-0.958119917535967
31
0.000000000000000
  0
LINE
  5
F10836
330
F10837
100
AcDbEntity
8
Geo
100
AcDbLine
10
-12.7411968777102
20
-0.958119917535967
30
0.000000000000000
11
-12.6411968777102
21
-0.963762486021929
31
0.000000000000000
  0
LINE
  5
F10838
330
F10839
100
AcDbEntity
8
Geo
100
AcDbLine
10
-12.6411968777102
20
-0.963762486021929
30
0.000000000000000
11
-12.5411968777102
21
-0.968537621634963
31
0.000000000000000
  0
LINE
  5
F1083A
330
F1083B
100
AcDbEntity
8
Geo
100
AcDbLine
10
-12.5411968777102
20
-0.968537621634963
30
0.000000000000000
11
-12.4411968777102
21
-0.972444799049167
31
0.000000000000000
  0
LINE
  5
F1083C
330
F1083D
100
AcDbEntity
8
Geo
100
AcDbLine
10
-12.4411968777102
20
-0.972444799049167
30
0.000000000000000
11
-12.3411968777102
21
-0.975483588425126
31
0.000000000000000
  0
LINE
  5
F1083E
330
F1083F
100
AcDbEntity
8
Geo
100
AcDbLine
10
-12.3411968777102
20
-0.975483588425126
30
0.000000000000000
11
-12.2411968777102
21
-0.977653655457200
31
0.000000000000000
  0
LINE
  5
F10840
330
F10841
100
AcDbEntity
8
Geo
100
AcDbLine
10
-12.2411968777102
20
-0.977653655457200
30
0.000000000000000
11
-12.1411968777102
21
-0.978954761410300
31
0.000000000000000
  0
LINE
  5
F10842
330
F10843
100
AcDbEntity
8
Geo
100
AcDbLine
10
-12.1411968777102
20
-0.978954761410300
30
0.000000000000000
11
-12.0414930522299
21
-1.07892454466611
31
0.000000000000000
  0
LINE
  5
F10844
330
F10845
100
AcDbEntity
8
Geo
100
AcDbLine
10
51.9588031222897
20
13.9210754553339
30
0.000000000000000
11
51.9588031222897
21
6.92107545533389
31
0.000000000000000
  0
LINE
  5
F10846
330
F10847
100
AcDbEntity
8
Geo
100
AcDbLine
10
-41.0411968777103
20
6.92107545533389
30
0.000000000000000
11
-41.0411968777103
21
-1.07892454466611
31
0.000000000000000
  0
LINE
  5
F10848
330
F10849
100
AcDbEntity
8
Geo
100
AcDbLine
10
-41.0411968777103
20
-1.07892454466611
30
0.000000000000000
11
-6.04119687771031
21
-1.07892454466611
31
0.000000000000000
  0
LINE
  5
F1084A
330
F1084B
100
AcDbEntity
8
Geo
100
AcDbLine
10
-6.04119687771031
20
-1.07892454466611
30
0.000000000000000
11
-6.04119687771031
21
-0.678924544666108
31
0.000000000000000
  0
LINE
  5
F1084C
330
F1084D
100
AcDbEntity
8
Geo
100
AcDbLine
10
-6.04119687771031
20
-0.678924544666108
30
0.000000000000000
11
3.95880312228969
21
-0.678924544666108
31
0.000000000000000
  0
LINE
  5
F1084E
330
F1084F
100
AcDbEntity
8
Geo
100
AcDbLine
10
3.95880312228969
20
-0.678924544666108
30
0.000000000000000
11
3.95880312228969
21
-1.07892454466611
31
0.000000000000000
  0
LINE
  5
F10850
330
F10851
100
AcDbEntity
8
Geo
100
AcDbLine
10
3.95880312228969
20
-1.07892454466611
30
0.000000000000000
11
50.9588031222897
21
-1.07892454466611
31
0.000000000000000
  0
LINE
  5
F10852
330
F10853
100
AcDbEntity
8
Geo
100
AcDbLine
10
50.9588031222897
20
-1.07892454466611
30
0.000000000000000
11
51.9588031222897
21
-0.0789245446661093
31
0.000000000000000
  0
LINE
  5
F10854
330
F10855
100
AcDbEntity
8
Geo
100
AcDbLine
10
-41.0411968777103
20
14.9210754553339
30
0.000000000000000
11
-41.0411968777103
21
-1.07892454466611
31
0.000000000000000
  0
LINE
  5
F10856
330
F10857
100
AcDbEntity
8
Geo
100
AcDbLine
10
-6.04119687771031
20
14.9210754553339
30
0.000000000000000
11
-6.04119687771031
21
-1.07892454466611
31
0.000000000000000
  0
LINE
  5
F10858
330
F10859
100
AcDbEntity
8
Geo
100
AcDbLine
10
-6.04119687771031
20
14.5210754553339
30
0.000000000000000
11
-6.04119687771031
21
-0.678924544666108
31
0.000000000000000
  0
LINE
  5
F1085A
330
F1085B
100
AcDbEntity
8
Geo
100
AcDbLine
10
3.95880312228969
20
14.5210754553339
30
0.000000000000000
11
3.95880312228969
21
-0.678924544666108
31
0.000000000000000
  0
LINE
  5
F1085C
330
F1085D
100
AcDbEntity
8
Geo
100
AcDbLine
10
3.95880312228969
20
14.5210754553339
30
0.000000000000000
11
3.95880312228969
21
-0.678924544666108
31
0.000000000000000
  0
LINE
  5
F1085E
330
F1085F
100
AcDbEntity
8
Geo
100
AcDbLine
10
50.9588031222897
20
14.9210754553339
30
0.000000000000000
11
50.9588031222897
21
-1.07892454466611
31
0.000000000000000
  0
LINE
  5
F10860
330
F10861
100
AcDbEntity
8
Geo
100
AcDbLine
10
51.9588031222897
20
13.9210754553339
30
0.000000000000000
11
51.9588031222897
21
-0.0789245446661093
31
0.000000000000000
  0
LINE
  5
F10862
330
F10863
100
AcDbEntity
8
Geo
 6
Dashdot
100
AcDbLine
10
-41.0411968777103
20
6.92107545533389
30
0.000000000000000
11
51.9588031222897
21
6.92107545533389
31
0.000000000000000
  0
LWPOLYLINE
  5
F10864
330
F10865
100
AcDbEntity
8
Rahmen
100
AcDbPolyline
90
   4
70
   1
43
   0.0
 10
-134.596704249783
 20
99.9002601908066
 10
143.339115351258
 20
99.9002601908066
 10
143.339115351258
 20
-100.082393755421
 10
-134.596704249783
 20
-100.082393755421
  0
TEXT
  5
F10866
330
F10867
 100
AcDbEntity
8
Text
100
AcDbText
10
-133.503902862099
20
-99.5823937554206
30
0.000000000000000
40
1.00000000000000
1
ISBESketcher - ©ISBE GmbH      lizensiert für: Schmid Werkzeuge
100
AcDbText
  0
LWPOLYLINE
  5
F10868
330
F10869
100
AcDbEntity
8
Rahmen
100
AcDbPolyline
90
   4
70
   1
43
   0.0
 10
103.451864700781
 20
-97.1682567215958
 10
143.339115351258
 20
-97.1682567215958
 10
143.339115351258
 20
-100.082393755421
 10
103.451864700781
 20
-100.082393755421
  0
TEXT
  5
F1086A
330
F1086B
 100
AcDbEntity
8
Text
100
AcDbText
10
104.500000000000
20
-99.4570685169124
30
0.000000000000000
40
1.50000000000000
1
Ers. durch:
100
AcDbText
  0
TEXT
  5
F1086C
330
F1086D
 100
AcDbEntity
8
Text
100
AcDbText
10
0.000000000000000
20
0.500000000000000
30
0.000000000000000
40
1.50000000000000
1

100
AcDbText
  0
LWPOLYLINE
  5
F1086E
330
F1086F
100
AcDbEntity
8
Rahmen
100
AcDbPolyline
90
   4
70
   1
43
   0.0
 10
63.3824804856895
 20
-97.1682567215958
 10
103.451864700781
 20
-97.1682567215958
 10
103.451864700781
 20
-100.082393755421
 10
63.3824804856895
 20
-100.082393755421
  0
TEXT
  5
F10870
330
F10871
 100
AcDbEntity
8
Text
100
AcDbText
10
64.5000000000000
20
-99.4570685169124
30
0.000000000000000
40
1.50000000000000
1
Ers. für:
100
AcDbText
  0
TEXT
  5
F10872
330
F10873
 100
AcDbEntity
8
Text
100
AcDbText
10
0.000000000000000
20
0.500000000000000
30
0.000000000000000
40
1.50000000000000
1

100
AcDbText
  0
LWPOLYLINE
  5
F10874
330
F10875
100
AcDbEntity
8
Rahmen
100
AcDbPolyline
90
   4
70
   1
43
   0.0
 10
130.043365134432
 20
-94.0719861231570
 10
143.339115351258
 20
-94.0719861231570
 10
143.339115351258
 20
-97.1682567215958
 10
130.043365134432
 20
-97.1682567215958
  0
TEXT
  5
F10876
330
F10877
 100
AcDbEntity
8
Text
100
AcDbText
10
131.166666666667
20
-96.4570685169124
30
0.000000000000000
40
1.50000000000000
1
Blätter
100
AcDbText
  0
TEXT
  5
F10878
330
F10879
 100
AcDbEntity
8
Text
100
AcDbText
10
0.000000000000000
20
0.500000000000000
30
0.000000000000000
40
1.50000000000000
1

100
AcDbText
  0
LWPOLYLINE
  5
F1087A
330
F1087B
100
AcDbEntity
8
Rahmen
100
AcDbPolyline
90
   4
70
   1
43
   0.0
 10
130.043365134432
 20
-91.1578490893322
 10
143.339115351258
 20
-91.1578490893322
 10
143.339115351258
 20
-94.0719861231570
 10
130.043365134432
 20
-94.0719861231570
  0
TEXT
  5
F1087C
330
F1087D
 100
AcDbEntity
8
Text
100
AcDbText
10
131.166666666667
20
-93.4570685169124
30
0.000000000000000
40
1.50000000000000
1
Blatt
100
AcDbText
  0
TEXT
  5
F1087E
330
F1087F
 100
AcDbEntity
8
Text
100
AcDbText
10
0.000000000000000
20
0.500000000000000
30
0.000000000000000
40
1.50000000000000
1

100
AcDbText
  0
LWPOLYLINE
  5
F10880
330
F10881
100
AcDbEntity
8
Rahmen
100
AcDbPolyline
90
   4
70
   1
43
   0.0
 10
63.3824804856895
 20
-91.1578490893322
 10
130.043365134432
 20
-91.1578490893322
 10
130.043365134432
 20
-97.1682567215958
 10
63.3824804856895
 20
-97.1682567215958
  0
TEXT
  5
F10882
330
F10883
 100
AcDbEntity
8
Text
100
AcDbText
10
64.5000000000000
20
-93.4570685169124
30
0.000000000000000
40
1.50000000000000
1
Datum:
100
AcDbText
  0
TEXT
  5
F10884
330
F10885
 100
AcDbEntity
8
Text
100
AcDbText
10
90.9139924833767
20
-96.4570685169124
30
0.000000000000000
40
1.50000000000000
1
29.09.2021
100
AcDbText
  0
LWPOLYLINE
  5
F10886
330
F10887
100
AcDbEntity
8
Rahmen
100
AcDbPolyline
90
   4
70
   1
43
   0.0
 10
63.3824804856895
 20
-85.1474414570685
 10
143.339115351258
 20
-85.1474414570685
 10
143.339115351258
 20
-91.1578490893322
 10
63.3824804856895
 20
-91.1578490893322
  0
TEXT
  5
F10888
330
F10889
 100
AcDbEntity
8
Text
100
AcDbText
10
0.000000000000000
20
0.500000000000000
30
0.000000000000000
40
1.50000000000000
1

100
AcDbText
  0
TEXT
  5
F1088A
330
F1088B
 100
AcDbEntity
8
Text
100
AcDbText
10
71.8087597571552
20
-89.6254697889564
30
0.000000000000000
40
2.50000000000000
1
VHM-Langlochfräser 0126-160-b
100
AcDbText
  0
LWPOLYLINE
  5
F1088C
330
F1088D
100
AcDbEntity
8
Rahmen
100
AcDbPolyline
90
   4
70
   1
43
   0.0
 10
103.451864700781
 20
-79.1370338248049
 10
143.339115351258
 20
-79.1370338248049
 10
143.339115351258
 20
-85.1474414570685
 10
103.451864700781
 20
-85.1474414570685
  0
TEXT
  5
F1088E
330
F1088F
 100
AcDbEntity
8
Text
100
AcDbText
10
104.500000000000
20
-81.4570685169124
30
0.000000000000000
40
1.50000000000000
1
Zu bearb. Material:
100
AcDbText
  0
TEXT
  5
F10890
330
F10891
 100
AcDbEntity
8
Text
100
AcDbText
10
0.000000000000000
20
0.500000000000000
30
0.000000000000000
40
1.50000000000000
1

100
AcDbText
  0
LWPOLYLINE
  5
F10892
330
F10893
100
AcDbEntity
8
Rahmen
100
AcDbPolyline
90
   4
70
   1
43
   0.0
 10
63.3824804856895
 20
-79.1370338248049
 10
103.451864700781
 20
-79.1370338248049
 10
103.451864700781
 20
-85.1474414570685
 10
63.3824804856895
 20
-85.1474414570685
  0
TEXT
  5
F10894
330
F10895
 100
AcDbEntity
8
Text
100
AcDbText
10
64.5000000000000
20
-81.4570685169124
30
0.000000000000000
40
1.50000000000000
1
Werkstoff:
100
AcDbText
  0
TEXT
  5
F10896
330
F10897
 100
AcDbEntity
8
Text
100
AcDbText
10
80.7679965307892
20
-84.4570685169124
30
0.000000000000000
40
1.50000000000000
1
VHM
100
AcDbText
  0
LWPOLYLINE
  5
F10898
330
F10899
100
AcDbEntity
8
Rahmen
100
AcDbPolyline
90
   4
70
   1
43
   0.0
 10
103.451864700781
 20
-76.0407632263660
 10
143.339115351258
 20
-76.0407632263660
 10
143.339115351258
 20
-79.1370338248049
 10
103.451864700781
 20
-79.1370338248049
  0
TEXT
  5
F1089A
330
F1089B
 100
AcDbEntity
8
Text
100
AcDbText
10
0.000000000000000
20
0.500000000000000
30
0.000000000000000
40
1.50000000000000
1

100
AcDbText
  0
TEXT
  5
F1089C
330
F1089D
 100
AcDbEntity
8
Text
100
AcDbText
10
0.000000000000000
20
0.500000000000000
30
0.000000000000000
40
1.50000000000000
1

100
AcDbText
  0
LWPOLYLINE
  5
F1089E
330
F1089F
100
AcDbEntity
8
Rahmen
100
AcDbPolyline
90
   4
70
   1
43
   0.0
 10
63.3824804856895
 20
-76.0407632263660
 10
103.451864700781
 20
-76.0407632263660
 10
103.451864700781
 20
-79.1370338248049
 10
63.3824804856895
 20
-79.1370338248049
  0
TEXT
  5
F108A0
330
F108A1
 100
AcDbEntity
8
Text
100
AcDbText
10
64.5000000000000
20
-78.4570685169124
30
0.000000000000000
40
1.50000000000000
1
Maßstab:
100
AcDbText
  0
TEXT
  5
F108A2
330
F108A3
 100
AcDbEntity
8
Text
100
AcDbText
10
89.0411968777103
20
-78.4570685169124
30
0.000000000000000
40
1.50000000000000
1
1 : 1
100
AcDbText
0
VIEWPORT
5
294
102
{ACAD_XDICTIONARY
360
58A
102
}
330
25D
100
AcDbEntity
67
1
8
0
60
1
100
AcDbViewport
10
0.0
20
0.0
30
0.0
40
10.0
41
10.0
68
-1
69
1
12
0.0
22
0.0
13
0.0
23
0.0
14
1.0
24
1.0
15
0.0
25
0.0
16
0.0
26
0.0
36
1.0
17
0.0
27
0.0
37
0.0
42
0.0
43
0.0
44
0.0
45
10.0
50
0.0
51
0.0000000000007958
72
100
90
32800
1

281
0
71
0
74
0
110
0.0
120
0.0
130
0.0
111
1.0
121
0.0
131
0.0
112
0.0
122
1.0
132
0.0
79
0
146
0.0
1001
VD_INVISIBLE_NOT_FOR_READ
1000
VD_INVISIBLE_NOT_FOR_READ
0
VIEWPORT
5
295
102
{ACAD_XDICTIONARY
360
58C
102
}
330
25D
100
AcDbEntity
67
1
8
0
60
1
100
AcDbViewport
10
0.0
20
0.0
30
0.0
40
10.0
41
10.0
68
0
69
2
12
0.0
22
0.0
13
0.0
23
0.0
14
1.0
24
1.0
15
0.0
25
0.0
16
0.0
26
0.0
36
1.0
17
0.0
27
0.0
37
0.0
42
0.0
43
0.0
44
0.0
45
10.0
50
0.0
51
0.0000000000007958
72
100
90
163872
1

281
0
71
0
74
0
110
0.0
120
0.0
130
0.0
111
1.0
121
0.0
131
0.0
112
0.0
122
1.0
132
0.0
79
0
146
0.0
1001
VD_INVISIBLE_NOT_FOR_READ
1000
VD_INVISIBLE_NOT_FOR_READ
0
ENDSEC
0
SECTION
2
OBJECTS
0
DICTIONARY
5
13
330
0
100
AcDbDictionary
281
1
3
ACAD_COLOR
350
FA7
3
ACAD_GROUP
350
14
3
ACAD_LAYOUT
350
FCF
3
ACAD_MATERIAL
350
F7A
3
ACAD_MLEADERSTYLE
350
FCD
3
ACAD_MLINESTYLE
350
16
3
ACAD_PLOTSETTINGS
350
17
3
ACAD_PLOTSTYLENAME
350
18
3
ACAD_SCALELIST
350
FAB
3
ACAD_TABLESTYLE
350
FA8
3
ACAD_VISUALSTYLE
350
F93
3
ACDB_RECOMPOSE_DATA
350
107E
3
AcDbVariableDictionary
350
FF0
3
DWGPROPS
350
107F
0
DICTIONARY
5
F1000F
330
F1000E
100
AcDbDictionary
280
1
281
1
3
ACAD_MTEXT_2008_RT
360
F10010
0
DICTIONARY
5
F10014
330
F10013
100
AcDbDictionary
280
1
281
1
3
ACAD_MTEXT_2008_RT
360
F10015
0
DICTIONARY
5
F1001E
330
F1001D
100
AcDbDictionary
280
1
281
1
3
ACAD_MTEXT_2008_RT
360
F1001F
0
DICTIONARY
5
F10005
330
F10004
100
AcDbDictionary
280
1
281
1
3
ACAD_MTEXT_2008_RT
360
F10006
0
DICTIONARY
5
F1000A
330
F10009
100
AcDbDictionary
280
1
281
1
3
ACAD_MTEXT_2008_RT
360
F1000B
0
DICTIONARY
5
F10019
330
F10018
100
AcDbDictionary
280
1
281
1
3
ACAD_MTEXT_2008_RT
360
F1001A
0
DICTIONARY
5
FA7
102
{ACAD_REACTORS
330
13
102
}
330
13
100
AcDbDictionary
281
1
0
DICTIONARY
5
14
330
13
100
AcDbDictionary
281
1
0
DICTIONARY
5
FCF
102
{ACAD_REACTORS
330
13
102
}
330
13
100
AcDbDictionary
281
1
3
Layout1
350
FD1
3
Model
350
FD0
0
DICTIONARY
5
F7A
102
{ACAD_REACTORS
330
13
102
}
330
13
100
AcDbDictionary
281
1
3
ByBlock
350
F83
3
ByLayer
350
F7B
3
Global
350
F8B
0
DICTIONARY
5
FCD
102
{ACAD_REACTORS
330
13
102
}
330
13
100
AcDbDictionary
281
1
3
Standard
350
FCE
0
DICTIONARY
5
16
330
13
100
AcDbDictionary
281
1
3
Standard
350
FAA
0
DICTIONARY
5
17
102
{ACAD_REACTORS
330
13
102
}
330
13
100
AcDbDictionary
281
1
0
ACDBDICTIONARYWDFLT
5
18
102
{ACAD_REACTORS
330
13
102
}
330
13
100
AcDbDictionary
281
1
3
Normal
350
19
100
AcDbDictionaryWithDefault
340
19
0
DICTIONARY
5
FAB
102
{ACAD_REACTORS
330
13
102
}
330
13
100
AcDbDictionary
281
1
3
A0
350
FAC
3
A1
350
FAD
3
A2
350
FAE
3
A3
350
FAF
3
A4
350
FB0
3
A5
350
FB1
3
A6
350
FB2
3
A7
350
FB3
3
A8
350
FB4
3
A9
350
FB5
3
B0
350
FB6
3
B1
350
FB7
3
B2
350
FB8
3
B3
350
FB9
3
B4
350
FBA
3
B5
350
FBB
3
B6
350
FBC
3
B7
350
FBD
3
B8
350
FBE
3
B9
350
FBF
3
C0
350
FC0
3
C1
350
FC1
3
C2
350
FC2
3
C3
350
FC3
3
C4
350
FC4
3
C5
350
FC5
3
C6
350
FC6
3
C7
350
FC7
3
C8
350
FC8
3
C9
350
FC9
3
D0
350
FCA
3
D1
350
FCB
3
D2
350
FCC
0
DICTIONARY
5
FA8
102
{ACAD_REACTORS
330
13
102
}
330
13
100
AcDbDictionary
281
1
3
Standard
350
FA9
0
DICTIONARY
5
F93
102
{ACAD_REACTORS
330
13
102
}
330
13
100
AcDbDictionary
281
1
3
2dWireframe
350
F99
3
3D Hidden
350
F9B
3
3dWireframe
350
F9A
3
Basic
350
F98
3
Brighten
350
F9F
3
ColorChange
350
FA3
3
Conceptual
350
F9C
3
Dim
350
F9E
3
EdgeColorOff
350
FA6
3
Facepattern
350
FA2
3
Flat
350
F94
3
FlatWithEdges
350
F95
3
Gouraud
350
F96
3
GouraudWithEdges
350
F97
3
JitterOff
350
FA4
3
Linepattern
350
FA1
3
OverhangOff
350
FA5
3
Realistic
350
F9D
3
Thicken
350
FA0
0
XRECORD
5
107E
102
{ACAD_REACTORS
330
13
102
}
330
13
100
AcDbXrecord
280
1
90
1
330
FA9
330
F1000E
330
F10013
330
F1001D
330
F10004
330
F10009
330
F10018
0
DICTIONARY
5
FF0
102
{ACAD_REACTORS
330
13
102
}
330
13
100
AcDbDictionary
281
1
3
CANNOSCALE
350
FF3
3
CMLEADERSTYLE
350
FF2
3
CTABLESTYLE
350
FF1
3
DIMASSOC
350
FF6
3
INDEXCTL
350
FF5
3
SORTENTS
350
FF4
3
XCLIPFRAME
350
1078
0
XRECORD
5
107F
102
{ACAD_REACTORS
330
13
102
}
330
13
100
AcDbXrecord
280
1
1
DWGPROPS COOKIE
2

3

4

6

7

8

9

300
=
301
=
302
=
303
=
304
=
305
=
306
=
307
=
308
=
309
=
40
0.0
41
0.0
42
0.0
1

90
0
0
XRECORD
5
F10010
102
{ACAD_REACTORS
330
F1000F
102
}
330
F1000F
100
AcDbXrecord
280
1
40
48458.0
1
35
0
XRECORD
5
F10015
102
{ACAD_REACTORS
330
F10014
102
}
330
F10014
100
AcDbXrecord
280
1
40
48458.0
1
93
0
XRECORD
5
F1001F
102
{ACAD_REACTORS
330
F1001E
102
}
330
F1001E
100
AcDbXrecord
280
1
40
48458.0
1
45
0
XRECORD
5
F10006
102
{ACAD_REACTORS
330
F10005
102
}
330
F10005
100
AcDbXrecord
280
1
40
48458.0
1
Ø16
0
XRECORD
5
F1001A
102
{ACAD_REACTORS
330
F10019
102
}
330
F10019
100
AcDbXrecord
280
1
40
48458.0
1
Ø15.2
0
LAYOUT
5
FD1
102
{ACAD_XDICTIONARY
360
10A9
102
}
102
{ACAD_REACTORS
330
FCF
102
}
330
FCF
100
AcDbPlotSettings
1

2
Microsoft XPS Document Writer
4

6

40
0.0
41
0.0
42
0.0
43
0.0
44
0.0
45
0.0
46
0.0
47
0.0
48
0.0
49
0.0
140
0.0
141
0.0
142
1.0
143
1.0
70
688
72
0
73
0
74
5
7

75
16
147
1.0
148
0.0
149
0.0
100
AcDbLayout
1
Layout1
70
1
71
1
10
0.0
20
0.0
11
12.0
21
9.0
12
0.0
22
0.0
32
0.0
14
1.000000000000000E+20
24
1.000000000000000E+20
34
1.000000000000000E+20
15
-1.000000000000000E+20
25
-1.000000000000000E+20
35
-1.000000000000000E+20
146
0.0
13
0.0
23
0.0
33
0.0
16
1.0
26
0.0
36
0.0
17
0.0
27
1.0
37
0.0
76
0
330
25D
0
LAYOUT
5
FD0
102
{ACAD_XDICTIONARY
360
10A7
102
}
102
{ACAD_REACTORS
330
FCF
102
}
330
FCF
100
AcDbPlotSettings
1

2
Microsoft XPS Document Writer
4

6

40
0.0
41
0.0
42
0.0
43
0.0
44
0.0
45
0.0
46
0.0
47
0.0
48
0.0
49
0.0
140
0.0
141
0.0
142
1.0
143
1.0
70
1712
72
0
73
0
74
0
7

75
0
147
1.0
148
0.0
149
0.0
100
AcDbLayout
1
Model
70
1
71
0
10
0.0
20
0.0
11
12.0
21
9.0
12
0.0
22
0.0
32
0.0
14
0.0
24
0.0
34
0.0
15
0.0
25
0.0
35
0.0
146
0.0
13
0.0
23
0.0
33
0.0
16
1.0
26
0.0
36
0.0
17
0.0
27
1.0
37
0.0
76
0
330
261
331
26B
0
MATERIAL
5
F83
102
{ACAD_XDICTIONARY
360
F84
102
}
102
{ACAD_REACTORS
330
F7A
102
}
330
F7A
100
AcDbMaterial
1
ByBlock
72
0
43
0.0208333333333333
43
0.0
43
0.0
43
0.0
43
0.0
43
0.0208333333333333
43
0.0
43
0.0
43
0.0
43
0.0
43
1.0
43
0.0
43
0.0
43
0.0
43
0.0
43
1.0
77
0
47
0.0208333333333333
47
0.0
47
0.0
47
0.0
47
0.0
47
0.0208333333333333
47
0.0
47
0.0
47
0.0
47
0.0
47
1.0
47
0.0
47
0.0
47
0.0
47
0.0
47
1.0
171
0
49
0.0208333333333333
49
0.0
49
0.0
49
0.0
49
0.0
49
0.0208333333333333
49
0.0
49
0.0
49
0.0
49
0.0
49
1.0
49
0.0
49
0.0
49
0.0
49
0.0
49
1.0
175
0
142
0.0208333333333333
142
0.0
142
0.0
142
0.0
142
0.0
142
0.0208333333333333
142
0.0
142
0.0
142
0.0
142
0.0
142
1.0
142
0.0
142
0.0
142
0.0
142
0.0
142
1.0
179
0
144
0.0208333333333333
144
0.0
144
0.0
144
0.0
144
0.0
144
0.0208333333333333
144
0.0
144
0.0
144
0.0
144
0.0
144
1.0
144
0.0
144
0.0
144
0.0
144
0.0
144
1.0
147
0.0208333333333333
147
0.0
147
0.0
147
0.0
147
0.0
147
0.0208333333333333
147
0.0
147
0.0
147
0.0
147
0.0
147
1.0
147
0.0
147
0.0
147
0.0
147
0.0
147
1.0
0
MATERIAL
5
F7B
102
{ACAD_XDICTIONARY
360
F7C
102
}
102
{ACAD_REACTORS
330
F7A
102
}
330
F7A
100
AcDbMaterial
1
ByLayer
72
0
43
0.0208333333333333
43
0.0
43
0.0
43
0.0
43
0.0
43
0.0208333333333333
43
0.0
43
0.0
43
0.0
43
0.0
43
1.0
43
0.0
43
0.0
43
0.0
43
0.0
43
1.0
77
0
47
0.0208333333333333
47
0.0
47
0.0
47
0.0
47
0.0
47
0.0208333333333333
47
0.0
47
0.0
47
0.0
47
0.0
47
1.0
47
0.0
47
0.0
47
0.0
47
0.0
47
1.0
171
0
49
0.0208333333333333
49
0.0
49
0.0
49
0.0
49
0.0
49
0.0208333333333333
49
0.0
49
0.0
49
0.0
49
0.0
49
1.0
49
0.0
49
0.0
49
0.0
49
0.0
49
1.0
175
0
142
0.0208333333333333
142
0.0
142
0.0
142
0.0
142
0.0
142
0.0208333333333333
142
0.0
142
0.0
142
0.0
142
0.0
142
1.0
142
0.0
142
0.0
142
0.0
142
0.0
142
1.0
179
0
144
0.0208333333333333
144
0.0
144
0.0
144
0.0
144
0.0
144
0.0208333333333333
144
0.0
144
0.0
144
0.0
144
0.0
144
1.0
144
0.0
144
0.0
144
0.0
144
0.0
144
1.0
147
0.0208333333333333
147
0.0
147
0.0
147
0.0
147
0.0
147
0.0208333333333333
147
0.0
147
0.0
147
0.0
147
0.0
147
1.0
147
0.0
147
0.0
147
0.0
147
0.0
147
1.0
0
MATERIAL
5
F8B
102
{ACAD_XDICTIONARY
360
F8C
102
}
102
{ACAD_REACTORS
330
F7A
102
}
330
F7A
100
AcDbMaterial
1
Global
72
0
43
0.0208333333333333
43
0.0
43
0.0
43
0.0
43
0.0
43
0.0208333333333333
43
0.0
43
0.0
43
0.0
43
0.0
43
1.0
43
0.0
43
0.0
43
0.0
43
0.0
43
1.0
77
0
47
0.0208333333333333
47
0.0
47
0.0
47
0.0
47
0.0
47
0.0208333333333333
47
0.0
47
0.0
47
0.0
47
0.0
47
1.0
47
0.0
47
0.0
47
0.0
47
0.0
47
1.0
171
0
49
0.0208333333333333
49
0.0
49
0.0
49
0.0
49
0.0
49
0.0208333333333333
49
0.0
49
0.0
49
0.0
49
0.0
49
1.0
49
0.0
49
0.0
49
0.0
49
0.0
49
1.0
175
0
142
0.0208333333333333
142
0.0
142
0.0
142
0.0
142
0.0
142
0.0208333333333333
142
0.0
142
0.0
142
0.0
142
0.0
142
1.0
142
0.0
142
0.0
142
0.0
142
0.0
142
1.0
179
0
144
0.0208333333333333
144
0.0
144
0.0
144
0.0
144
0.0
144
0.0208333333333333
144
0.0
144
0.0
144
0.0
144
0.0
144
1.0
144
0.0
144
0.0
144
0.0
144
0.0
144
1.0
147
0.0208333333333333
147
0.0
147
0.0
147
0.0
147
0.0
147
0.0208333333333333
147
0.0
147
0.0
147
0.0
147
0.0
147
1.0
147
0.0
147
0.0
147
0.0
147
0.0
147
1.0
0
MLEADERSTYLE
5
FCE
102
{ACAD_REACTORS
330
FCD
102
}
330
FCD
100
AcDbMLeaderStyle
170
2
171
1
172
0
90
2
40
0.0
41
0.0
173
1
91
-1056964608
340
256
92
-2
290
1
42
0.09
291
1
43
0.36
3
Standard
44
0.18
300

342
253
174
1
178
6
175
1
176
0
93
-1056964608
45
0.18
292
0
297
0
46
0.18
94
-1056964608
47
1.0
49
1.0
140
1.0
293
1
141
0.0
294
1
177
0
142
1.0
295
0
296
0
143
0.125
1001
ACAD_MLEADERVER
1070
2
0
MLINESTYLE
5
FAA
102
{ACAD_REACTORS
330
16
102
}
330
16
100
AcDbMlineStyle
2
STANDARD
70
0
3

62
256
51
90.0
52
90.0
71
2
49
0.5
62
256
6
BYLAYER
49
-0.5
62
256
6
BYLAYER
0
ACDBPLACEHOLDER
5
19
102
{ACAD_REACTORS
330
18
102
}
330
18
0
SCALE
5
FAC
102
{ACAD_REACTORS
330
FAB
102
}
330
FAB
100
AcDbScale
70
0
300
1:1
140
1.0
141
1.0
290
1
0
SCALE
5
FAD
102
{ACAD_REACTORS
330
FAB
102
}
330
FAB
100
AcDbScale
70
0
300
1:2
140
1.0
141
2.0
290
0
0
SCALE
5
FAE
102
{ACAD_REACTORS
330
FAB
102
}
330
FAB
100
AcDbScale
70
0
300
1:4
140
1.0
141
4.0
290
0
0
SCALE
5
FAF
102
{ACAD_REACTORS
330
FAB
102
}
330
FAB
100
AcDbScale
70
0
300
1:5
140
1.0
141
5.0
290
0
0
SCALE
5
FB0
102
{ACAD_REACTORS
330
FAB
102
}
330
FAB
100
AcDbScale
70
0
300
1:8
140
1.0
141
8.0
290
0
0
SCALE
5
FB1
102
{ACAD_REACTORS
330
FAB
102
}
330
FAB
100
AcDbScale
70
0
300
1:10
140
1.0
141
10.0
290
0
0
SCALE
5
FB2
102
{ACAD_REACTORS
330
FAB
102
}
330
FAB
100
AcDbScale
70
0
300
1:16
140
1.0
141
16.0
290
0
0
SCALE
5
FB3
102
{ACAD_REACTORS
330
FAB
102
}
330
FAB
100
AcDbScale
70
0
300
1:20
140
1.0
141
20.0
290
0
0
SCALE
5
FB4
102
{ACAD_REACTORS
330
FAB
102
}
330
FAB
100
AcDbScale
70
0
300
1:30
140
1.0
141
30.0
290
0
0
SCALE
5
FB5
102
{ACAD_REACTORS
330
FAB
102
}
330
FAB
100
AcDbScale
70
0
300
1:40
140
1.0
141
40.0
290
0
0
SCALE
5
FB6
102
{ACAD_REACTORS
330
FAB
102
}
330
FAB
100
AcDbScale
70
0
300
1:50
140
1.0
141
50.0
290
0
0
SCALE
5
FB7
102
{ACAD_REACTORS
330
FAB
102
}
330
FAB
100
AcDbScale
70
0
300
1:100
140
1.0
141
100.0
290
0
0
SCALE
5
FB8
102
{ACAD_REACTORS
330
FAB
102
}
330
FAB
100
AcDbScale
70
0
300
2:1
140
2.0
141
1.0
290
0
0
SCALE
5
FB9
102
{ACAD_REACTORS
330
FAB
102
}
330
FAB
100
AcDbScale
70
0
300
4:1
140
4.0
141
1.0
290
0
0
SCALE
5
FBA
102
{ACAD_REACTORS
330
FAB
102
}
330
FAB
100
AcDbScale
70
0
300
8:1
140
8.0
141
1.0
290
0
0
SCALE
5
FBB
102
{ACAD_REACTORS
330
FAB
102
}
330
FAB
100
AcDbScale
70
0
300
10:1
140
10.0
141
1.0
290
0
0
SCALE
5
FBC
102
{ACAD_REACTORS
330
FAB
102
}
330
FAB
100
AcDbScale
70
0
300
100:1
140
100.0
141
1.0
290
0
0
SCALE
5
FBD
102
{ACAD_REACTORS
330
FAB
102
}
330
FAB
100
AcDbScale
70
0
300
1/128" = 1'-0"
140
0.0078125
141
12.0
290
0
0
SCALE
5
FBE
102
{ACAD_REACTORS
330
FAB
102
}
330
FAB
100
AcDbScale
70
0
300
1/64" = 1'-0"
140
0.015625
141
12.0
290
0
0
SCALE
5
FBF
102
{ACAD_REACTORS
330
FAB
102
}
330
FAB
100
AcDbScale
70
0
300
1/32" = 1'-0"
140
0.03125
141
12.0
290
0
0
SCALE
5
FC0
102
{ACAD_REACTORS
330
FAB
102
}
330
FAB
100
AcDbScale
70
0
300
1/16" = 1'-0"
140
0.0625
141
12.0
290
0
0
SCALE
5
FC1
102
{ACAD_REACTORS
330
FAB
102
}
330
FAB
100
AcDbScale
70
0
300
3/32" = 1'-0"
140
0.09375
141
12.0
290
0
0
SCALE
5
FC2
102
{ACAD_REACTORS
330
FAB
102
}
330
FAB
100
AcDbScale
70
0
300
1/8" = 1'-0"
140
0.125
141
12.0
290
0
0
SCALE
5
FC3
102
{ACAD_REACTORS
330
FAB
102
}
330
FAB
100
AcDbScale
70
0
300
3/16" = 1'-0"
140
0.1875
141
12.0
290
0
0
SCALE
5
FC4
102
{ACAD_REACTORS
330
FAB
102
}
330
FAB
100
AcDbScale
70
0
300
1/4" = 1'-0"
140
0.25
141
12.0
290
0
0
SCALE
5
FC5
102
{ACAD_REACTORS
330
FAB
102
}
330
FAB
100
AcDbScale
70
0
300
3/8" = 1'-0"
140
0.375
141
12.0
290
0
0
SCALE
5
FC6
102
{ACAD_REACTORS
330
FAB
102
}
330
FAB
100
AcDbScale
70
0
300
1/2" = 1'-0"
140
0.5
141
12.0
290
0
0
SCALE
5
FC7
102
{ACAD_REACTORS
330
FAB
102
}
330
FAB
100
AcDbScale
70
0
300
3/4" = 1'-0"
140
0.75
141
12.0
290
0
0
SCALE
5
FC8
102
{ACAD_REACTORS
330
FAB
102
}
330
FAB
100
AcDbScale
70
0
300
1" = 1'-0"
140
1.0
141
12.0
290
0
0
SCALE
5
FC9
102
{ACAD_REACTORS
330
FAB
102
}
330
FAB
100
AcDbScale
70
0
300
1-1/2" = 1'-0"
140
1.5
141
12.0
290
0
0
SCALE
5
FCA
102
{ACAD_REACTORS
330
FAB
102
}
330
FAB
100
AcDbScale
70
0
300
3" = 1'-0"
140
3.0
141
12.0
290
0
0
SCALE
5
FCB
102
{ACAD_REACTORS
330
FAB
102
}
330
FAB
100
AcDbScale
70
0
300
6" = 1'-0"
140
6.0
141
12.0
290
0
0
SCALE
5
FCC
102
{ACAD_REACTORS
330
FAB
102
}
330
FAB
100
AcDbScale
70
0
300
1'-0" = 1'-0"
140
12.0
141
12.0
290
0
0
TABLESTYLE
5
FA9
102
{ACAD_XDICTIONARY
360
FF8
102
}
102
{ACAD_REACTORS
330
FA8
102
}
330
FA8
100
AcDbTableStyle
3
Standard
70
0
71
0
40
0.06
41
0.06
280
0
281
0
7
Standard
140
0.18
170
2
62
0
63
7
283
0
274
-2
284
1
64
0
275
-2
285
1
65
0
276
-2
286
1
66
0
277
-2
287
1
67
0
278
-2
288
1
68
0
279
-2
289
1
69
0
7
Standard
140
0.25
170
5
62
0
63
7
283
0
274
-2
284
1
64
0
275
-2
285
1
65
0
276
-2
286
1
66
0
277
-2
287
1
67
0
278
-2
288
1
68
0
279
-2
289
1
69
0
7
Standard
140
0.18
170
5
62
0
63
7
283
0
274
-2
284
1
64
0
275
-2
285
1
65
0
276
-2
286
1
66
0
277
-2
287
1
67
0
278
-2
288
1
68
0
279
-2
289
1
69
0
0
VISUALSTYLE
5
F99
102
{ACAD_XDICTIONARY
360
108A
102
}
102
{ACAD_REACTORS
330
F93
102
}
330
F93
100
AcDbVisualStyle
2

70
4
71
0
72
2
73
0
90
0
40
-0.6
41
-30.0
62
5
63
7
74
1
91
4
64
7
65
257
75
1
175
1
42
1.0
92
0
66
257
43
1.0
76
1
77
6
78
2
67
7
79
5
170
0
171
0
290
0
174
0
93
1
44
0.0
173
0
291
0
45
0.0
1001
ACAD
1000
AcDbSavedByObjectVersion
1070
0
0
VISUALSTYLE
5
F9B
102
{ACAD_XDICTIONARY
360
108E
102
}
102
{ACAD_REACTORS
330
F93
102
}
330
F93
100
AcDbVisualStyle
2

70
6
71
1
72
2
73
2
90
0
40
-0.6
41
-30.0
62
5
63
7
74
2
91
2
64
7
65
257
75
2
175
1
42
179.0
92
0
66
257
43
1.0
76
1
77
6
78
2
67
7
79
3
170
0
171
0
290
0
174
0
93
1
44
0.0
173
0
291
0
45
0.0
1001
ACAD
1000
AcDbSavedByObjectVersion
1070
0
0
VISUALSTYLE
5
F9A
102
{ACAD_XDICTIONARY
360
108C
102
}
102
{ACAD_REACTORS
330
F93
102
}
330
F93
100
AcDbVisualStyle
2

70
5
71
0
72
2
73
0
90
0
40
-0.6
41
-30.0
62
5
63
7
74
1
91
4
64
7
65
257
75
1
175
1
42
1.0
92
0
66
257
43
1.0
76
1
77
6
78
2
67
7
79
5
170
0
171
0
290
0
174
0
93
1
44
0.0
173
0
291
0
45
0.0
1001
ACAD
1000
AcDbSavedByObjectVersion
1070
0
0
VISUALSTYLE
5
F98
102
{ACAD_XDICTIONARY
360
1088
102
}
102
{ACAD_REACTORS
330
F93
102
}
330
F93
100
AcDbVisualStyle
2

70
7
71
1
72
0
73
1
90
0
40
-0.6
41
-30.0
62
5
63
7
74
0
91
4
64
7
65
257
75
1
175
1
42
1.0
92
8
66
7
43
1.0
76
1
77
6
78
2
67
7
79
5
170
0
171
0
290
0
174
0
93
1
44
0.0
173
0
291
1
45
0.0
1001
ACAD
1000
AcDbSavedByObjectVersion
1070
0
0
VISUALSTYLE
5
F9F
102
{ACAD_XDICTIONARY
360
1096
102
}
102
{ACAD_REACTORS
330
F93
102
}
330
F93
100
AcDbVisualStyle
2

70
12
71
2
72
2
73
0
90
0
40
-0.6
41
-30.0
62
5
63
7
74
1
91
4
64
7
65
257
75
1
175
1
42
1.0
92
8
66
7
43
1.0
76
1
77
6
78
2
67
7
79
5
170
0
171
0
290
0
174
0
93
1
44
50.0
173
0
291
1
45
0.0
1001
ACAD
1000
AcDbSavedByObjectVersion
1070
0
0
VISUALSTYLE
5
FA3
102
{ACAD_XDICTIONARY
360
109E
102
}
102
{ACAD_REACTORS
330
F93
102
}
330
F93
100
AcDbVisualStyle
2

70
16
71
2
72
2
73
3
90
0
40
-0.6
41
-30.0
62
5
63
8
74
1
91
4
64
7
65
257
75
1
175
1
42
1.0
92
8
66
8
43
1.0
76
1
77
6
78
2
67
7
79
5
170
0
171
0
290
0
174
0
93
1
44
0.0
173
0
291
1
45
0.0
1001
ACAD
1000
AcDbSavedByObjectVersion
1070
0
0
VISUALSTYLE
5
F9C
102
{ACAD_XDICTIONARY
360
1090
102
}
102
{ACAD_REACTORS
330
F93
102
}
330
F93
100
AcDbVisualStyle
2

70
9
71
3
72
2
73
0
90
0
40
-0.6
41
-30.0
62
5
63
7
74
2
91
2
64
7
65
257
75
1
175
1
42
179.0
92
8
66
7
43
1.0
76
1
77
6
78
2
67
7
79
3
170
0
171
0
290
0
174
0
93
1
44
0.0
173
0
291
0
45
0.0
1001
ACAD
1000
AcDbSavedByObjectVersion
1070
0
0
VISUALSTYLE
5
F9E
102
{ACAD_XDICTIONARY
360
1094
102
}
102
{ACAD_REACTORS
330
F93
102
}
330
F93
100
AcDbVisualStyle
2

70
11
71
2
72
2
73
0
90
0
40
-0.6
41
-30.0
62
5
63
7
74
1
91
4
64
7
65
257
75
1
175
1
42
1.0
92
8
66
7
43
1.0
76
1
77
6
78
2
67
7
79
5
170
0
171
0
290
0
174
0
93
1
44
-50.0
173
0
291
1
45
0.0
1001
ACAD
1000
AcDbSavedByObjectVersion
1070
0
0
VISUALSTYLE
5
FA6
102
{ACAD_XDICTIONARY
360
10A4
102
}
102
{ACAD_REACTORS
330
F93
102
}
330
F93
100
AcDbVisualStyle
2

70
22
71
2
72
2
73
0
90
0
40
-0.6
41
-30.0
62
5
63
7
74
1
91
4
64
7
65
257
75
1
175
1
42
1.0
92
8
66
7
43
1.0
76
1
77
6
78
2
67
7
79
5
170
0
171
0
290
0
174
0
93
1
44
0.0
173
0
291
1
45
0.0
1001
ACAD
1000
AcDbSavedByObjectVersion
1070
0
0
VISUALSTYLE
5
FA2
102
{ACAD_XDICTIONARY
360
109C
102
}
102
{ACAD_REACTORS
330
F93
102
}
330
F93
100
AcDbVisualStyle
2

70
15
71
2
72
2
73
0
90
0
40
-0.6
41
-30.0
62
5
63
7
74
1
91
4
64
7
65
257
75
1
175
1
42
1.0
92
8
66
7
43
1.0
76
1
77
6
78
2
67
7
79
5
170
0
171
0
290
0
174
0
93
1
44
0.0
173
0
291
1
45
0.0
1001
ACAD
1000
AcDbSavedByObjectVersion
1070
0
0
VISUALSTYLE
5
F94
102
{ACAD_XDICTIONARY
360
1080
102
}
102
{ACAD_REACTORS
330
F93
102
}
330
F93
100
AcDbVisualStyle
2

70
0
71
2
72
1
73
1
90
2
40
-0.6
41
30.0
62
5
63
7
74
0
91
4
64
7
65
257
75
1
175
1
42
1.0
92
8
66
7
43
1.0
76
1
77
6
78
2
67
7
79
5
170
0
171
0
290
0
174
0
93
13
44
0.0
173
0
291
1
45
0.0
1001
ACAD
1000
AcDbSavedByObjectVersion
1070
0
0
VISUALSTYLE
5
F95
102
{ACAD_XDICTIONARY
360
1082
102
}
102
{ACAD_REACTORS
330
F93
102
}
330
F93
100
AcDbVisualStyle
2

70
1
71
2
72
1
73
1
90
2
40
-0.6
41
30.0
62
5
63
7
74
1
91
4
64
7
65
257
75
1
175
1
42
1.0
92
0
66
257
43
1.0
76
1
77
6
78
2
67
7
79
5
170
0
171
0
290
0
174
0
93
13
44
0.0
173
0
291
1
45
0.0
1001
ACAD
1000
AcDbSavedByObjectVersion
1070
0
0
VISUALSTYLE
5
F96
102
{ACAD_XDICTIONARY
360
1084
102
}
102
{ACAD_REACTORS
330
F93
102
}
330
F93
100
AcDbVisualStyle
2

70
2
71
2
72
2
73
1
90
2
40
-0.6
41
30.0
62
5
63
7
74
0
91
4
64
7
65
257
75
1
175
1
42
1.0
92
0
66
7
43
1.0
76
1
77
6
78
2
67
7
79
5
170
0
171
0
290
0
174
0
93
13
44
0.0
173
0
291
1
45
0.0
1001
ACAD
1000
AcDbSavedByObjectVersion
1070
0
0
VISUALSTYLE
5
F97
102
{ACAD_XDICTIONARY
360
1086
102
}
102
{ACAD_REACTORS
330
F93
102
}
330
F93
100
AcDbVisualStyle
2

70
3
71
2
72
2
73
1
90
2
40
-0.6
41
30.0
62
5
63
7
74
1
91
4
64
7
65
257
75
1
175
1
42
1.0
92
0
66
257
43
1.0
76
1
77
6
78
2
67
7
79
5
170
0
171
0
290
0
174
0
93
13
44
0.0
173
0
291
1
45
0.0
1001
ACAD
1000
AcDbSavedByObjectVersion
1070
0
0
VISUALSTYLE
5
FA4
102
{ACAD_XDICTIONARY
360
10A0
102
}
102
{ACAD_REACTORS
330
F93
102
}
330
F93
100
AcDbVisualStyle
2

70
20
71
2
72
2
73
0
90
0
40
-0.6
41
-30.0
62
5
63
7
74
1
91
4
64
7
65
257
75
1
175
1
42
1.0
92
10
66
7
43
1.0
76
1
77
6
78
2
67
7
79
5
170
0
171
0
290
0
174
0
93
1
44
0.0
173
0
291
1
45
0.0
1001
ACAD
1000
AcDbSavedByObjectVersion
1070
0
0
VISUALSTYLE
5
FA1
102
{ACAD_XDICTIONARY
360
109A
102
}
102
{ACAD_REACTORS
330
F93
102
}
330
F93
100
AcDbVisualStyle
2

70
14
71
2
72
2
73
0
90
0
40
-0.6
41
-30.0
62
5
63
7
74
1
91
4
64
7
65
257
75
7
175
7
42
1.0
92
8
66
7
43
1.0
76
1
77
6
78
2
67
7
79
5
170
0
171
0
290
0
174
0
93
1
44
0.0
173
0
291
1
45
0.0
1001
ACAD
1000
AcDbSavedByObjectVersion
1070
0
0
VISUALSTYLE
5
FA5
102
{ACAD_XDICTIONARY
360
10A2
102
}
102
{ACAD_REACTORS
330
F93
102
}
330
F93
100
AcDbVisualStyle
2

70
21
71
2
72
2
73
0
90
0
40
-0.6
41
-30.0
62
5
63
7
74
1
91
4
64
7
65
257
75
1
175
1
42
1.0
92
9
66
7
43
1.0
76
1
77
6
78
2
67
7
79
5
170
0
171
0
290
0
174
0
93
1
44
0.0
173
0
291
1
45
0.0
1001
ACAD
1000
AcDbSavedByObjectVersion
1070
0
0
VISUALSTYLE
5
F9D
102
{ACAD_XDICTIONARY
360
1092
102
}
102
{ACAD_REACTORS
330
F93
102
}
330
F93
100
AcDbVisualStyle
2

70
8
71
2
72
2
73
0
90
0
40
-0.6
41
-30.0
62
5
63
7
74
1
91
0
64
7
65
257
75
1
175
1
42
1.0
92
8
66
8
43
1.0
76
1
77
6
78
2
67
7
79
5
170
0
171
0
290
0
174
0
93
13
44
0.0
173
0
291
0
45
0.0
1001
ACAD
1000
AcDbSavedByObjectVersion
1070
0
0
VISUALSTYLE
5
FA0
102
{ACAD_XDICTIONARY
360
1098
102
}
102
{ACAD_REACTORS
330
F93
102
}
330
F93
100
AcDbVisualStyle
2

70
13
71
2
72
2
73
0
90
0
40
-0.6
41
-30.0
62
5
63
7
74
1
91
4
64
7
65
257
75
1
175
1
42
1.0
92
12
66
7
43
1.0
76
1
77
6
78
2
67
7
79
5
170
0
171
0
290
0
174
0
93
1
44
0.0
173
0
291
1
45
0.0
1001
ACAD
1000
AcDbSavedByObjectVersion
1070
0
0
DICTIONARYVAR
5
FF3
102
{ACAD_REACTORS
330
FF0
102
}
330
FF0
100
DictionaryVariables
280
0
1
1:1
0
DICTIONARYVAR
5
FF2
102
{ACAD_REACTORS
330
FF0
102
}
330
FF0
100
DictionaryVariables
280
0
1
STANDARD
0
DICTIONARYVAR
5
FF1
102
{ACAD_REACTORS
330
FF0
102
}
330
FF0
100
DictionaryVariables
280
0
1
STANDARD
0
DICTIONARYVAR
5
FF6
102
{ACAD_REACTORS
330
FF0
102
}
330
FF0
100
DictionaryVariables
280
0
1
1
0
DICTIONARYVAR
5
FF5
102
{ACAD_REACTORS
330
FF0
102
}
330
FF0
100
DictionaryVariables
280
0
1
0
0
DICTIONARYVAR
5
FF4
102
{ACAD_REACTORS
330
FF0
102
}
330
FF0
100
DictionaryVariables
280
0
1
127
0
DICTIONARYVAR
5
1078
102
{ACAD_REACTORS
330
FF0
102
}
330
FF0
100
DictionaryVariables
280
0
1
2
0
DICTIONARY
5
10A9
330
FD1
100
AcDbDictionary
280
1
281
1
3
ACAD_XREC_ROUNDTRIP
360
10AA
0
DICTIONARY
5
10A7
330
FD0
100
AcDbDictionary
280
1
281
1
3
ACAD_XREC_ROUNDTRIP
360
10A8
0
DICTIONARY
5
F84
330
F83
100
AcDbDictionary
280
1
281
1
3
ACAD_XREC_ROUNDTRIP
360
FFF
3
BUMPTILE
360
F86
3
DIFFUSETILE
360
F85
3
OPACITYTILE
360
F89
3
REFLECTIONTILE
360
F88
3
REFRACTIONTILE
360
F8A
3
SPECULARTILE
360
F87
0
DICTIONARY
5
F7C
330
F7B
100
AcDbDictionary
280
1
281
1
3
ACAD_XREC_ROUNDTRIP
360
FFE
3
BUMPTILE
360
F7E
3
DIFFUSETILE
360
F7D
3
OPACITYTILE
360
F81
3
REFLECTIONTILE
360
F80
3
REFRACTIONTILE
360
F82
3
SPECULARTILE
360
F7F
0
DICTIONARY
5
F8C
330
F8B
100
AcDbDictionary
280
1
281
1
3
ACAD_XREC_ROUNDTRIP
360
1000
3
BUMPTILE
360
F8E
3
DIFFUSETILE
360
F8D
3
OPACITYTILE
360
F91
3
REFLECTIONTILE
360
F90
3
REFRACTIONTILE
360
F92
3
SPECULARTILE
360
F8F
0
DICTIONARY
5
FF8
330
FA9
100
AcDbDictionary
280
1
281
1
3
ACAD_ROUNDTRIP_2008_TABLESTYLE_CELLSTYLEMAP
360
1079
3
ACAD_XREC_ROUNDTRIP
360
10A6
0
DICTIONARY
5
108A
330
F99
100
AcDbDictionary
280
1
281
1
3
ACAD_XREC_ROUNDTRIP
360
108B
0
DICTIONARY
5
108E
330
F9B
100
AcDbDictionary
280
1
281
1
3
ACAD_XREC_ROUNDTRIP
360
108F
0
DICTIONARY
5
108C
330
F9A
100
AcDbDictionary
280
1
281
1
3
ACAD_XREC_ROUNDTRIP
360
108D
0
DICTIONARY
5
1088
330
F98
100
AcDbDictionary
280
1
281
1
3
ACAD_XREC_ROUNDTRIP
360
1089
0
DICTIONARY
5
1096
330
F9F
100
AcDbDictionary
280
1
281
1
3
ACAD_XREC_ROUNDTRIP
360
1097
0
DICTIONARY
5
109E
330
FA3
100
AcDbDictionary
280
1
281
1
3
ACAD_XREC_ROUNDTRIP
360
109F
0
DICTIONARY
5
1090
330
F9C
100
AcDbDictionary
280
1
281
1
3
ACAD_XREC_ROUNDTRIP
360
1091
0
DICTIONARY
5
1094
330
F9E
100
AcDbDictionary
280
1
281
1
3
ACAD_XREC_ROUNDTRIP
360
1095
0
DICTIONARY
5
10A4
330
FA6
100
AcDbDictionary
280
1
281
1
3
ACAD_XREC_ROUNDTRIP
360
10A5
0
DICTIONARY
5
109C
330
FA2
100
AcDbDictionary
280
1
281
1
3
ACAD_XREC_ROUNDTRIP
360
109D
0
DICTIONARY
5
1080
330
F94
100
AcDbDictionary
280
1
281
1
3
ACAD_XREC_ROUNDTRIP
360
1081
0
DICTIONARY
5
1082
330
F95
100
AcDbDictionary
280
1
281
1
3
ACAD_XREC_ROUNDTRIP
360
1083
0
DICTIONARY
5
1084
330
F96
100
AcDbDictionary
280
1
281
1
3
ACAD_XREC_ROUNDTRIP
360
1085
0
DICTIONARY
5
1086
330
F97
100
AcDbDictionary
280
1
281
1
3
ACAD_XREC_ROUNDTRIP
360
1087
0
DICTIONARY
5
10A0
330
FA4
100
AcDbDictionary
280
1
281
1
3
ACAD_XREC_ROUNDTRIP
360
10A1
0
DICTIONARY
5
109A
330
FA1
100
AcDbDictionary
280
1
281
1
3
ACAD_XREC_ROUNDTRIP
360
109B
0
DICTIONARY
5
10A2
330
FA5
100
AcDbDictionary
280
1
281
1
3
ACAD_XREC_ROUNDTRIP
360
10A3
0
DICTIONARY
5
1092
330
F9D
100
AcDbDictionary
280
1
281
1
3
ACAD_XREC_ROUNDTRIP
360
1093
0
DICTIONARY
5
1098
330
FA0
100
AcDbDictionary
280
1
281
1
3
ACAD_XREC_ROUNDTRIP
360
1099
0
XRECORD
5
10AA
102
{ACAD_REACTORS
330
10A9
102
}
330
10A9
100
AcDbXrecord
280
1
102
SHADEPLOT
70
0
102
SHADEPLOTRESLEVEL
70
2
102
SHADEPLOTCUSTOMDPI
70
300
0
XRECORD
5
10A8
102
{ACAD_REACTORS
330
10A7
102
}
330
10A7
100
AcDbXrecord
280
1
102
SHADEPLOT
70
0
102
SHADEPLOTRESLEVEL
70
2
102
SHADEPLOTCUSTOMDPI
70
300
0
XRECORD
5
FFF
102
{ACAD_REACTORS
330
F84
102
}
330
F84
100
AcDbXrecord
280
1
102
MATERIAL
148
0.0
149
0.0
149
0.0
93
0
94
127
282
0
72
0
77
0
171
0
175
0
179
0
273
0
0
XRECORD
5
F86
102
{ACAD_REACTORS
330
F84
102
}
330
F84
100
AcDbXrecord
280
1
270
1
271
1
0
XRECORD
5
F85
102
{ACAD_REACTORS
330
F84
102
}
330
F84
100
AcDbXrecord
280
1
270
1
271
1
0
XRECORD
5
F89
102
{ACAD_REACTORS
330
F84
102
}
330
F84
100
AcDbXrecord
280
1
270
1
271
1
0
XRECORD
5
F88
102
{ACAD_REACTORS
330
F84
102
}
330
F84
100
AcDbXrecord
280
1
270
1
271
1
0
XRECORD
5
F8A
102
{ACAD_REACTORS
330
F84
102
}
330
F84
100
AcDbXrecord
280
1
270
1
271
1
0
XRECORD
5
F87
102
{ACAD_REACTORS
330
F84
102
}
330
F84
100
AcDbXrecord
280
1
270
1
271
1
0
XRECORD
5
FFE
102
{ACAD_REACTORS
330
F7C
102
}
330
F7C
100
AcDbXrecord
280
1
102
MATERIAL
148
0.0
149
0.0
149
0.0
93
0
94
127
282
0
72
0
77
0
171
0
175
0
179
0
273
0
0
XRECORD
5
F7E
102
{ACAD_REACTORS
330
F7C
102
}
330
F7C
100
AcDbXrecord
280
1
270
1
271
1
0
XRECORD
5
F7D
102
{ACAD_REACTORS
330
F7C
102
}
330
F7C
100
AcDbXrecord
280
1
270
1
271
1
0
XRECORD
5
F81
102
{ACAD_REACTORS
330
F7C
102
}
330
F7C
100
AcDbXrecord
280
1
270
1
271
1
0
XRECORD
5
F80
102
{ACAD_REACTORS
330
F7C
102
}
330
F7C
100
AcDbXrecord
280
1
270
1
271
1
0
XRECORD
5
F82
102
{ACAD_REACTORS
330
F7C
102
}
330
F7C
100
AcDbXrecord
280
1
270
1
271
1
0
XRECORD
5
F7F
102
{ACAD_REACTORS
330
F7C
102
}
330
F7C
100
AcDbXrecord
280
1
270
1
271
1
0
XRECORD
5
1000
102
{ACAD_REACTORS
330
F8C
102
}
330
F8C
100
AcDbXrecord
280
1
102
MATERIAL
148
0.0
149
0.0
149
0.0
93
0
94
127
282
0
72
0
77
0
171
0
175
0
179
0
273
0
0
XRECORD
5
F8E
102
{ACAD_REACTORS
330
F8C
102
}
330
F8C
100
AcDbXrecord
280
1
270
1
271
1
0
XRECORD
5
F8D
102
{ACAD_REACTORS
330
F8C
102
}
330
F8C
100
AcDbXrecord
280
1
270
1
271
1
0
XRECORD
5
F91
102
{ACAD_REACTORS
330
F8C
102
}
330
F8C
100
AcDbXrecord
280
1
270
1
271
1
0
XRECORD
5
F90
102
{ACAD_REACTORS
330
F8C
102
}
330
F8C
100
AcDbXrecord
280
1
270
1
271
1
0
XRECORD
5
F92
102
{ACAD_REACTORS
330
F8C
102
}
330
F8C
100
AcDbXrecord
280
1
270
1
271
1
0
XRECORD
5
F8F
102
{ACAD_REACTORS
330
F8C
102
}
330
F8C
100
AcDbXrecord
280
1
270
1
271
1
0
CELLSTYLEMAP
5
1079
102
{ACAD_REACTORS
330
FF8
102
}
330
FF8
100
AcDbCellStyleMap
90
3
300
CELLSTYLE
1
TABLEFORMAT_BEGIN
90
5
170
1
91
0
92
32768
62
257
93
1
300
CONTENTFORMAT
1
CONTENTFORMAT_BEGIN
90
0
91
0
92
512
93
0
300

40
0.0
140
1.0
94
5
62
0
340
253
144
0.25
309
CONTENTFORMAT_END
171
1
301
MARGIN
1
CELLMARGIN_BEGIN
40
0.06
40
0.06
40
0.06
40
0.06
40
0.18
40
0.18
309
CELLMARGIN_END
94
6
95
1
302
GRIDFORMAT
1
GRIDFORMAT_BEGIN
90
0
91
1
62
0
92
-2
340
0
93
0
40
0.045
309
GRIDFORMAT_END
95
2
302
GRIDFORMAT
1
GRIDFORMAT_BEGIN
90
0
91
1
62
0
92
-2
340
0
93
0
40
0.045
309
GRIDFORMAT_END
95
4
302
GRIDFORMAT
1
GRIDFORMAT_BEGIN
90
0
91
1
62
0
92
-2
340
0
93
0
40
0.045
309
GRIDFORMAT_END
95
8
302
GRIDFORMAT
1
GRIDFORMAT_BEGIN
90
0
91
1
62
0
92
-2
340
0
93
0
40
0.045
309
GRIDFORMAT_END
95
16
302
GRIDFORMAT
1
GRIDFORMAT_BEGIN
90
0
91
1
62
0
92
-2
340
0
93
0
40
0.045
309
GRIDFORMAT_END
95
32
302
GRIDFORMAT
1
GRIDFORMAT_BEGIN
90
0
91
1
62
0
92
-2
340
0
93
0
40
0.045
309
GRIDFORMAT_END
309
TABLEFORMAT_END
1
CELLSTYLE_BEGIN
90
1
91
1
300
_TITLE
309
CELLSTYLE_END
300
CELLSTYLE
1
TABLEFORMAT_BEGIN
90
5
170
1
91
0
92
0
62
257
93
1
300
CONTENTFORMAT
1
CONTENTFORMAT_BEGIN
90
0
91
0
92
512
93
0
300

40
0.0
140
1.0
94
5
62
0
340
253
144
0.18
309
CONTENTFORMAT_END
171
1
301
MARGIN
1
CELLMARGIN_BEGIN
40
0.06
40
0.06
40
0.06
40
0.06
40
0.18
40
0.18
309
CELLMARGIN_END
94
6
95
1
302
GRIDFORMAT
1
GRIDFORMAT_BEGIN
90
0
91
1
62
0
92
-2
340
0
93
0
40
0.045
309
GRIDFORMAT_END
95
2
302
GRIDFORMAT
1
GRIDFORMAT_BEGIN
90
0
91
1
62
0
92
-2
340
0
93
0
40
0.045
309
GRIDFORMAT_END
95
4
302
GRIDFORMAT
1
GRIDFORMAT_BEGIN
90
0
91
1
62
0
92
-2
340
0
93
0
40
0.045
309
GRIDFORMAT_END
95
8
302
GRIDFORMAT
1
GRIDFORMAT_BEGIN
90
0
91
1
62
0
92
-2
340
0
93
0
40
0.045
309
GRIDFORMAT_END
95
16
302
GRIDFORMAT
1
GRIDFORMAT_BEGIN
90
0
91
1
62
0
92
-2
340
0
93
0
40
0.045
309
GRIDFORMAT_END
95
32
302
GRIDFORMAT
1
GRIDFORMAT_BEGIN
90
0
91
1
62
0
92
-2
340
0
93
0
40
0.045
309
GRIDFORMAT_END
309
TABLEFORMAT_END
1
CELLSTYLE_BEGIN
90
2
91
1
300
_HEADER
309
CELLSTYLE_END
300
CELLSTYLE
1
TABLEFORMAT_BEGIN
90
5
170
1
91
0
92
0
62
257
93
1
300
CONTENTFORMAT
1
CONTENTFORMAT_BEGIN
90
0
91
0
92
512
93
0
300

40
0.0
140
1.0
94
2
62
0
340
253
144
0.18
309
CONTENTFORMAT_END
171
1
301
MARGIN
1
CELLMARGIN_BEGIN
40
0.06
40
0.06
40
0.06
40
0.06
40
0.18
40
0.18
309
CELLMARGIN_END
94
6
95
1
302
GRIDFORMAT
1
GRIDFORMAT_BEGIN
90
0
91
1
62
0
92
-2
340
0
93
0
40
0.045
309
GRIDFORMAT_END
95
2
302
GRIDFORMAT
1
GRIDFORMAT_BEGIN
90
0
91
1
62
0
92
-2
340
0
93
0
40
0.045
309
GRIDFORMAT_END
95
4
302
GRIDFORMAT
1
GRIDFORMAT_BEGIN
90
0
91
1
62
0
92
-2
340
0
93
0
40
0.045
309
GRIDFORMAT_END
95
8
302
GRIDFORMAT
1
GRIDFORMAT_BEGIN
90
0
91
1
62
0
92
-2
340
0
93
0
40
0.045
309
GRIDFORMAT_END
95
16
302
GRIDFORMAT
1
GRIDFORMAT_BEGIN
90
0
91
1
62
0
92
-2
340
0
93
0
40
0.045
309
GRIDFORMAT_END
95
32
302
GRIDFORMAT
1
GRIDFORMAT_BEGIN
90
0
91
1
62
0
92
-2
340
0
93
0
40
0.045
309
GRIDFORMAT_END
309
TABLEFORMAT_END
1
CELLSTYLE_BEGIN
90
3
91
2
300
_DATA
309
CELLSTYLE_END
0
XRECORD
5
10A6
102
{ACAD_REACTORS
330
FF8
102
}
330
FF8
100
AcDbXrecord
280
1
102
ACAD_ROUNDTRIP_PRE2007_TABLESTYLE
90
512
91
0
1

92
512
93
0
2

94
512
95
0
3

0
XRECORD
5
108B
102
{ACAD_REACTORS
330
108A
102
}
330
108A
100
AcDbXrecord
280
1
102
RTVSPropertyOp0
70
1
102
RTVSPropertyOp1
70
1
102
RTVSPropertyOp2
70
1
102
RTVSPropertyOp3
70
1
102
RTVSPropertyOp4
70
1
102
RTVSPropertyOp5
70
1
102
RTVSPropertyOp6
70
1
102
RTVSPropertyOp7
70
1
102
RTVSPropertyOp8
70
1
102
RTVSPropertyOp9
70
1
102
RTVSPropertyOp10
70
1
102
RTVSPropertyOp11
70
1
102
RTVSPropertyOp12
70
1
102
RTVSPropertyOp13
70
1
102
RTVSPropertyOp14
70
1
102
RTVSPropertyOp15
70
1
102
RTVSPropertyOp16
70
1
102
RTVSPropertyOp17
70
1
102
RTVSPropertyOp18
70
1
102
RTVSPropertyOp19
70
1
102
RTVSPropertyOp20
70
1
102
RTVSPropertyOp21
70
1
102
RTVSPropertyOp22
70
1
102
RTVSPropertyOp23
70
1
102
RTVSPropertyOp24
70
1
102
RTVSPropertyOp25
70
1
102
RTVSPropertyOp26
70
1
102
RTVSPropertyOp27
70
1
0
XRECORD
5
108F
102
{ACAD_REACTORS
330
108E
102
}
330
108E
100
AcDbXrecord
280
1
102
RTVSPropertyOp0
70
1
102
RTVSPropertyOp1
70
1
102
RTVSPropertyOp2
70
1
102
RTVSPropertyOp3
70
1
102
RTVSPropertyOp4
70
1
102
RTVSPropertyOp5
70
1
102
RTVSPropertyOp6
70
1
102
RTVSPropertyOp7
70
1
102
RTVSPropertyOp8
70
1
102
RTVSPropertyOp9
70
1
102
RTVSPropertyOp10
70
1
102
RTVSPropertyOp11
70
1
102
RTVSPropertyOp12
70
1
102
RTVSPropertyOp13
70
1
102
RTVSPropertyOp14
70
1
102
RTVSPropertyOp15
70
1
102
RTVSPropertyOp16
70
1
102
RTVSPropertyOp17
70
1
102
RTVSPropertyOp18
70
1
102
RTVSPropertyOp19
70
1
102
RTVSPropertyOp20
70
1
102
RTVSPropertyOp21
70
1
102
RTVSPropertyOp22
70
1
102
RTVSPropertyOp23
70
1
102
RTVSPropertyOp24
70
1
102
RTVSPropertyOp25
70
1
102
RTVSPropertyOp26
70
1
102
RTVSPropertyOp27
70
1
0
XRECORD
5
108D
102
{ACAD_REACTORS
330
108C
102
}
330
108C
100
AcDbXrecord
280
1
102
RTVSPropertyOp0
70
1
102
RTVSPropertyOp1
70
1
102
RTVSPropertyOp2
70
1
102
RTVSPropertyOp3
70
1
102
RTVSPropertyOp4
70
1
102
RTVSPropertyOp5
70
1
102
RTVSPropertyOp6
70
1
102
RTVSPropertyOp7
70
1
102
RTVSPropertyOp8
70
1
102
RTVSPropertyOp9
70
1
102
RTVSPropertyOp10
70
1
102
RTVSPropertyOp11
70
1
102
RTVSPropertyOp12
70
1
102
RTVSPropertyOp13
70
1
102
RTVSPropertyOp14
70
1
102
RTVSPropertyOp15
70
1
102
RTVSPropertyOp16
70
1
102
RTVSPropertyOp17
70
1
102
RTVSPropertyOp18
70
1
102
RTVSPropertyOp19
70
1
102
RTVSPropertyOp20
70
1
102
RTVSPropertyOp21
70
1
102
RTVSPropertyOp22
70
1
102
RTVSPropertyOp23
70
1
102
RTVSPropertyOp24
70
1
102
RTVSPropertyOp25
70
1
102
RTVSPropertyOp26
70
1
102
RTVSPropertyOp27
70
1
0
XRECORD
5
1089
102
{ACAD_REACTORS
330
1088
102
}
330
1088
100
AcDbXrecord
280
1
102
RTVSPropertyOp0
70
1
102
RTVSPropertyOp1
70
1
102
RTVSPropertyOp2
70
1
102
RTVSPropertyOp3
70
1
102
RTVSPropertyOp4
70
1
102
RTVSPropertyOp5
70
1
102
RTVSPropertyOp6
70
1
102
RTVSPropertyOp7
70
1
102
RTVSPropertyOp8
70
1
102
RTVSPropertyOp9
70
1
102
RTVSPropertyOp10
70
1
102
RTVSPropertyOp11
70
1
102
RTVSPropertyOp12
70
1
102
RTVSPropertyOp13
70
1
102
RTVSPropertyOp14
70
1
102
RTVSPropertyOp15
70
1
102
RTVSPropertyOp16
70
1
102
RTVSPropertyOp17
70
1
102
RTVSPropertyOp18
70
1
102
RTVSPropertyOp19
70
1
102
RTVSPropertyOp20
70
1
102
RTVSPropertyOp21
70
1
102
RTVSPropertyOp22
70
1
102
RTVSPropertyOp23
70
1
102
RTVSPropertyOp24
70
1
102
RTVSPropertyOp25
70
1
102
RTVSPropertyOp26
70
1
102
RTVSPropertyOp27
70
1
0
XRECORD
5
1097
102
{ACAD_REACTORS
330
1096
102
}
330
1096
100
AcDbXrecord
280
1
102
RTVSPropertyOp0
70
1
102
RTVSPropertyOp1
70
1
102
RTVSPropertyOp2
70
1
102
RTVSPropertyOp3
70
1
102
RTVSPropertyOp4
70
1
102
RTVSPropertyOp5
70
1
102
RTVSPropertyOp6
70
1
102
RTVSPropertyOp7
70
1
102
RTVSPropertyOp8
70
1
102
RTVSPropertyOp9
70
1
102
RTVSPropertyOp10
70
1
102
RTVSPropertyOp11
70
1
102
RTVSPropertyOp12
70
1
102
RTVSPropertyOp13
70
1
102
RTVSPropertyOp14
70
1
102
RTVSPropertyOp15
70
1
102
RTVSPropertyOp16
70
1
102
RTVSPropertyOp17
70
1
102
RTVSPropertyOp18
70
1
102
RTVSPropertyOp19
70
1
102
RTVSPropertyOp20
70
1
102
RTVSPropertyOp21
70
1
102
RTVSPropertyOp22
70
1
102
RTVSPropertyOp23
70
1
102
RTVSPropertyOp24
70
1
102
RTVSPropertyOp25
70
1
102
RTVSPropertyOp26
70
1
102
RTVSPropertyOp27
70
1
0
XRECORD
5
109F
102
{ACAD_REACTORS
330
109E
102
}
330
109E
100
AcDbXrecord
280
1
102
RTVSPropertyOp0
70
1
102
RTVSPropertyOp1
70
1
102
RTVSPropertyOp2
70
1
102
RTVSPropertyOp3
70
1
102
RTVSPropertyOp4
70
1
102
RTVSPropertyOp5
70
1
102
RTVSPropertyOp6
70
1
102
RTVSPropertyOp7
70
1
102
RTVSPropertyOp8
70
1
102
RTVSPropertyOp9
70
1
102
RTVSPropertyOp10
70
1
102
RTVSPropertyOp11
70
1
102
RTVSPropertyOp12
70
1
102
RTVSPropertyOp13
70
1
102
RTVSPropertyOp14
70
1
102
RTVSPropertyOp15
70
1
102
RTVSPropertyOp16
70
1
102
RTVSPropertyOp17
70
1
102
RTVSPropertyOp18
70
1
102
RTVSPropertyOp19
70
1
102
RTVSPropertyOp20
70
1
102
RTVSPropertyOp21
70
1
102
RTVSPropertyOp22
70
1
102
RTVSPropertyOp23
70
1
102
RTVSPropertyOp24
70
1
102
RTVSPropertyOp25
70
1
102
RTVSPropertyOp26
70
1
102
RTVSPropertyOp27
70
1
0
XRECORD
5
1091
102
{ACAD_REACTORS
330
1090
102
}
330
1090
100
AcDbXrecord
280
1
102
RTVSPropertyOp0
70
1
102
RTVSPropertyOp1
70
1
102
RTVSPropertyOp2
70
1
102
RTVSPropertyOp3
70
1
102
RTVSPropertyOp4
70
1
102
RTVSPropertyOp5
70
1
102
RTVSPropertyOp6
70
1
102
RTVSPropertyOp7
70
1
102
RTVSPropertyOp8
70
1
102
RTVSPropertyOp9
70
1
102
RTVSPropertyOp10
70
1
102
RTVSPropertyOp11
70
1
102
RTVSPropertyOp12
70
1
102
RTVSPropertyOp13
70
1
102
RTVSPropertyOp14
70
1
102
RTVSPropertyOp15
70
1
102
RTVSPropertyOp16
70
1
102
RTVSPropertyOp17
70
1
102
RTVSPropertyOp18
70
1
102
RTVSPropertyOp19
70
1
102
RTVSPropertyOp20
70
1
102
RTVSPropertyOp21
70
1
102
RTVSPropertyOp22
70
1
102
RTVSPropertyOp23
70
1
102
RTVSPropertyOp24
70
1
102
RTVSPropertyOp25
70
1
102
RTVSPropertyOp26
70
1
102
RTVSPropertyOp27
70
1
0
XRECORD
5
1095
102
{ACAD_REACTORS
330
1094
102
}
330
1094
100
AcDbXrecord
280
1
102
RTVSPropertyOp0
70
1
102
RTVSPropertyOp1
70
1
102
RTVSPropertyOp2
70
1
102
RTVSPropertyOp3
70
1
102
RTVSPropertyOp4
70
1
102
RTVSPropertyOp5
70
1
102
RTVSPropertyOp6
70
1
102
RTVSPropertyOp7
70
1
102
RTVSPropertyOp8
70
1
102
RTVSPropertyOp9
70
1
102
RTVSPropertyOp10
70
1
102
RTVSPropertyOp11
70
1
102
RTVSPropertyOp12
70
1
102
RTVSPropertyOp13
70
1
102
RTVSPropertyOp14
70
1
102
RTVSPropertyOp15
70
1
102
RTVSPropertyOp16
70
1
102
RTVSPropertyOp17
70
1
102
RTVSPropertyOp18
70
1
102
RTVSPropertyOp19
70
1
102
RTVSPropertyOp20
70
1
102
RTVSPropertyOp21
70
1
102
RTVSPropertyOp22
70
1
102
RTVSPropertyOp23
70
1
102
RTVSPropertyOp24
70
1
102
RTVSPropertyOp25
70
1
102
RTVSPropertyOp26
70
1
102
RTVSPropertyOp27
70
1
0
XRECORD
5
10A5
102
{ACAD_REACTORS
330
10A4
102
}
330
10A4
100
AcDbXrecord
280
1
102
RTVSPropertyOp0
70
0
102
RTVSPropertyOp1
70
0
102
RTVSPropertyOp2
70
0
102
RTVSPropertyOp3
70
0
102
RTVSPropertyOp4
70
0
102
RTVSPropertyOp5
70
0
102
RTVSPropertyOp6
70
0
102
RTVSPropertyOp7
70
0
102
RTVSPropertyOp8
70
0
102
RTVSPropertyOp9
70
0
102
RTVSPropertyOp10
70
0
102
RTVSPropertyOp11
70
0
102
RTVSPropertyOp12
70
0
102
RTVSPropertyOp13
70
0
102
RTVSPropertyOp14
70
2
102
RTVSPropertyOp15
70
0
102
RTVSPropertyOp16
70
0
102
RTVSPropertyOp17
70
0
102
RTVSPropertyOp18
70
0
102
RTVSPropertyOp19
70
0
102
RTVSPropertyOp20
70
0
102
RTVSPropertyOp21
70
0
102
RTVSPropertyOp22
70
0
102
RTVSPropertyOp23
70
0
102
RTVSPropertyOp24
70
0
102
RTVSPropertyOp25
70
0
102
RTVSPropertyOp26
70
0
102
RTVSPropertyOp27
70
0
0
XRECORD
5
109D
102
{ACAD_REACTORS
330
109C
102
}
330
109C
100
AcDbXrecord
280
1
102
RTVSPropertyOp0
70
1
102
RTVSPropertyOp1
70
1
102
RTVSPropertyOp2
70
1
102
RTVSPropertyOp3
70
1
102
RTVSPropertyOp4
70
1
102
RTVSPropertyOp5
70
1
102
RTVSPropertyOp6
70
1
102
RTVSPropertyOp7
70
1
102
RTVSPropertyOp8
70
1
102
RTVSPropertyOp9
70
1
102
RTVSPropertyOp10
70
1
102
RTVSPropertyOp11
70
1
102
RTVSPropertyOp12
70
1
102
RTVSPropertyOp13
70
1
102
RTVSPropertyOp14
70
1
102
RTVSPropertyOp15
70
1
102
RTVSPropertyOp16
70
1
102
RTVSPropertyOp17
70
1
102
RTVSPropertyOp18
70
1
102
RTVSPropertyOp19
70
1
102
RTVSPropertyOp20
70
1
102
RTVSPropertyOp21
70
1
102
RTVSPropertyOp22
70
1
102
RTVSPropertyOp23
70
1
102
RTVSPropertyOp24
70
1
102
RTVSPropertyOp25
70
1
102
RTVSPropertyOp26
70
1
102
RTVSPropertyOp27
70
1
0
XRECORD
5
1081
102
{ACAD_REACTORS
330
1080
102
}
330
1080
100
AcDbXrecord
280
1
102
RTVSPropertyOp0
70
1
102
RTVSPropertyOp1
70
1
102
RTVSPropertyOp2
70
1
102
RTVSPropertyOp3
70
1
102
RTVSPropertyOp4
70
1
102
RTVSPropertyOp5
70
1
102
RTVSPropertyOp6
70
1
102
RTVSPropertyOp7
70
1
102
RTVSPropertyOp8
70
1
102
RTVSPropertyOp9
70
1
102
RTVSPropertyOp10
70
1
102
RTVSPropertyOp11
70
1
102
RTVSPropertyOp12
70
1
102
RTVSPropertyOp13
70
1
102
RTVSPropertyOp14
70
1
102
RTVSPropertyOp15
70
1
102
RTVSPropertyOp16
70
1
102
RTVSPropertyOp17
70
1
102
RTVSPropertyOp18
70
1
102
RTVSPropertyOp19
70
1
102
RTVSPropertyOp20
70
1
102
RTVSPropertyOp21
70
1
102
RTVSPropertyOp22
70
1
102
RTVSPropertyOp23
70
1
102
RTVSPropertyOp24
70
1
102
RTVSPropertyOp25
70
1
102
RTVSPropertyOp26
70
1
102
RTVSPropertyOp27
70
1
0
XRECORD
5
1083
102
{ACAD_REACTORS
330
1082
102
}
330
1082
100
AcDbXrecord
280
1
102
RTVSPropertyOp0
70
1
102
RTVSPropertyOp1
70
1
102
RTVSPropertyOp2
70
1
102
RTVSPropertyOp3
70
1
102
RTVSPropertyOp4
70
1
102
RTVSPropertyOp5
70
1
102
RTVSPropertyOp6
70
1
102
RTVSPropertyOp7
70
1
102
RTVSPropertyOp8
70
1
102
RTVSPropertyOp9
70
1
102
RTVSPropertyOp10
70
1
102
RTVSPropertyOp11
70
1
102
RTVSPropertyOp12
70
1
102
RTVSPropertyOp13
70
1
102
RTVSPropertyOp14
70
1
102
RTVSPropertyOp15
70
1
102
RTVSPropertyOp16
70
1
102
RTVSPropertyOp17
70
1
102
RTVSPropertyOp18
70
1
102
RTVSPropertyOp19
70
1
102
RTVSPropertyOp20
70
1
102
RTVSPropertyOp21
70
1
102
RTVSPropertyOp22
70
1
102
RTVSPropertyOp23
70
1
102
RTVSPropertyOp24
70
1
102
RTVSPropertyOp25
70
1
102
RTVSPropertyOp26
70
1
102
RTVSPropertyOp27
70
1
0
XRECORD
5
1085
102
{ACAD_REACTORS
330
1084
102
}
330
1084
100
AcDbXrecord
280
1
102
RTVSPropertyOp0
70
1
102
RTVSPropertyOp1
70
1
102
RTVSPropertyOp2
70
1
102
RTVSPropertyOp3
70
1
102
RTVSPropertyOp4
70
1
102
RTVSPropertyOp5
70
1
102
RTVSPropertyOp6
70
1
102
RTVSPropertyOp7
70
1
102
RTVSPropertyOp8
70
1
102
RTVSPropertyOp9
70
1
102
RTVSPropertyOp10
70
1
102
RTVSPropertyOp11
70
1
102
RTVSPropertyOp12
70
1
102
RTVSPropertyOp13
70
1
102
RTVSPropertyOp14
70
1
102
RTVSPropertyOp15
70
1
102
RTVSPropertyOp16
70
1
102
RTVSPropertyOp17
70
1
102
RTVSPropertyOp18
70
1
102
RTVSPropertyOp19
70
1
102
RTVSPropertyOp20
70
1
102
RTVSPropertyOp21
70
1
102
RTVSPropertyOp22
70
1
102
RTVSPropertyOp23
70
1
102
RTVSPropertyOp24
70
1
102
RTVSPropertyOp25
70
1
102
RTVSPropertyOp26
70
1
102
RTVSPropertyOp27
70
1
0
XRECORD
5
1087
102
{ACAD_REACTORS
330
1086
102
}
330
1086
100
AcDbXrecord
280
1
102
RTVSPropertyOp0
70
1
102
RTVSPropertyOp1
70
1
102
RTVSPropertyOp2
70
1
102
RTVSPropertyOp3
70
1
102
RTVSPropertyOp4
70
1
102
RTVSPropertyOp5
70
1
102
RTVSPropertyOp6
70
1
102
RTVSPropertyOp7
70
1
102
RTVSPropertyOp8
70
1
102
RTVSPropertyOp9
70
1
102
RTVSPropertyOp10
70
1
102
RTVSPropertyOp11
70
1
102
RTVSPropertyOp12
70
1
102
RTVSPropertyOp13
70
1
102
RTVSPropertyOp14
70
1
102
RTVSPropertyOp15
70
1
102
RTVSPropertyOp16
70
1
102
RTVSPropertyOp17
70
1
102
RTVSPropertyOp18
70
1
102
RTVSPropertyOp19
70
1
102
RTVSPropertyOp20
70
1
102
RTVSPropertyOp21
70
1
102
RTVSPropertyOp22
70
1
102
RTVSPropertyOp23
70
1
102
RTVSPropertyOp24
70
1
102
RTVSPropertyOp25
70
1
102
RTVSPropertyOp26
70
1
102
RTVSPropertyOp27
70
1
0
XRECORD
5
10A1
102
{ACAD_REACTORS
330
10A0
102
}
330
10A0
100
AcDbXrecord
280
1
102
RTVSPropertyOp0
70
0
102
RTVSPropertyOp1
70
0
102
RTVSPropertyOp2
70
0
102
RTVSPropertyOp3
70
0
102
RTVSPropertyOp4
70
0
102
RTVSPropertyOp5
70
0
102
RTVSPropertyOp6
70
0
102
RTVSPropertyOp7
70
0
102
RTVSPropertyOp8
70
0
102
RTVSPropertyOp9
70
0
102
RTVSPropertyOp10
70
0
102
RTVSPropertyOp11
70
0
102
RTVSPropertyOp12
70
0
102
RTVSPropertyOp13
70
0
102
RTVSPropertyOp14
70
2
102
RTVSPropertyOp15
70
0
102
RTVSPropertyOp16
70
0
102
RTVSPropertyOp17
70
0
102
RTVSPropertyOp18
70
0
102
RTVSPropertyOp19
70
0
102
RTVSPropertyOp20
70
0
102
RTVSPropertyOp21
70
0
102
RTVSPropertyOp22
70
0
102
RTVSPropertyOp23
70
0
102
RTVSPropertyOp24
70
0
102
RTVSPropertyOp25
70
0
102
RTVSPropertyOp26
70
0
102
RTVSPropertyOp27
70
0
0
XRECORD
5
109B
102
{ACAD_REACTORS
330
109A
102
}
330
109A
100
AcDbXrecord
280
1
102
RTVSPropertyOp0
70
1
102
RTVSPropertyOp1
70
1
102
RTVSPropertyOp2
70
1
102
RTVSPropertyOp3
70
1
102
RTVSPropertyOp4
70
1
102
RTVSPropertyOp5
70
1
102
RTVSPropertyOp6
70
1
102
RTVSPropertyOp7
70
1
102
RTVSPropertyOp8
70
1
102
RTVSPropertyOp9
70
1
102
RTVSPropertyOp10
70
1
102
RTVSPropertyOp11
70
1
102
RTVSPropertyOp12
70
1
102
RTVSPropertyOp13
70
1
102
RTVSPropertyOp14
70
1
102
RTVSPropertyOp15
70
1
102
RTVSPropertyOp16
70
1
102
RTVSPropertyOp17
70
1
102
RTVSPropertyOp18
70
1
102
RTVSPropertyOp19
70
1
102
RTVSPropertyOp20
70
1
102
RTVSPropertyOp21
70
1
102
RTVSPropertyOp22
70
1
102
RTVSPropertyOp23
70
1
102
RTVSPropertyOp24
70
1
102
RTVSPropertyOp25
70
1
102
RTVSPropertyOp26
70
1
102
RTVSPropertyOp27
70
1
0
XRECORD
5
10A3
102
{ACAD_REACTORS
330
10A2
102
}
330
10A2
100
AcDbXrecord
280
1
102
RTVSPropertyOp0
70
0
102
RTVSPropertyOp1
70
0
102
RTVSPropertyOp2
70
0
102
RTVSPropertyOp3
70
0
102
RTVSPropertyOp4
70
0
102
RTVSPropertyOp5
70
0
102
RTVSPropertyOp6
70
0
102
RTVSPropertyOp7
70
0
102
RTVSPropertyOp8
70
0
102
RTVSPropertyOp9
70
0
102
RTVSPropertyOp10
70
0
102
RTVSPropertyOp11
70
0
102
RTVSPropertyOp12
70
0
102
RTVSPropertyOp13
70
0
102
RTVSPropertyOp14
70
2
102
RTVSPropertyOp15
70
0
102
RTVSPropertyOp16
70
0
102
RTVSPropertyOp17
70
0
102
RTVSPropertyOp18
70
0
102
RTVSPropertyOp19
70
0
102
RTVSPropertyOp20
70
0
102
RTVSPropertyOp21
70
0
102
RTVSPropertyOp22
70
0
102
RTVSPropertyOp23
70
0
102
RTVSPropertyOp24
70
0
102
RTVSPropertyOp25
70
0
102
RTVSPropertyOp26
70
0
102
RTVSPropertyOp27
70
0
0
XRECORD
5
1093
102
{ACAD_REACTORS
330
1092
102
}
330
1092
100
AcDbXrecord
280
1
102
RTVSPropertyOp0
70
1
102
RTVSPropertyOp1
70
1
102
RTVSPropertyOp2
70
1
102
RTVSPropertyOp3
70
1
102
RTVSPropertyOp4
70
1
102
RTVSPropertyOp5
70
1
102
RTVSPropertyOp6
70
1
102
RTVSPropertyOp7
70
1
102
RTVSPropertyOp8
70
1
102
RTVSPropertyOp9
70
1
102
RTVSPropertyOp10
70
1
102
RTVSPropertyOp11
70
1
102
RTVSPropertyOp12
70
1
102
RTVSPropertyOp13
70
1
102
RTVSPropertyOp14
70
1
102
RTVSPropertyOp15
70
1
102
RTVSPropertyOp16
70
1
102
RTVSPropertyOp17
70
1
102
RTVSPropertyOp18
70
1
102
RTVSPropertyOp19
70
1
102
RTVSPropertyOp20
70
1
102
RTVSPropertyOp21
70
1
102
RTVSPropertyOp22
70
1
102
RTVSPropertyOp23
70
1
102
RTVSPropertyOp24
70
1
102
RTVSPropertyOp25
70
1
102
RTVSPropertyOp26
70
1
102
RTVSPropertyOp27
70
1
0
XRECORD
5
1099
102
{ACAD_REACTORS
330
1098
102
}
330
1098
100
AcDbXrecord
280
1
102
RTVSPropertyOp0
70
1
102
RTVSPropertyOp1
70
1
102
RTVSPropertyOp2
70
1
102
RTVSPropertyOp3
70
1
102
RTVSPropertyOp4
70
1
102
RTVSPropertyOp5
70
1
102
RTVSPropertyOp6
70
1
102
RTVSPropertyOp7
70
1
102
RTVSPropertyOp8
70
1
102
RTVSPropertyOp9
70
1
102
RTVSPropertyOp10
70
1
102
RTVSPropertyOp11
70
1
102
RTVSPropertyOp12
70
1
102
RTVSPropertyOp13
70
1
102
RTVSPropertyOp14
70
1
102
RTVSPropertyOp15
70
1
102
RTVSPropertyOp16
70
1
102
RTVSPropertyOp17
70
1
102
RTVSPropertyOp18
70
1
102
RTVSPropertyOp19
70
1
102
RTVSPropertyOp20
70
1
102
RTVSPropertyOp21
70
1
102
RTVSPropertyOp22
70
1
102
RTVSPropertyOp23
70
1
102
RTVSPropertyOp24
70
1
102
RTVSPropertyOp25
70
1
102
RTVSPropertyOp26
70
1
102
RTVSPropertyOp27
70
1
0
ENDSEC
0
EOF
