0
SECTION
2
HEADER
9
$ACADVER
1
AC1015
9
$ACADMAINTVER
70
20
9
$DWGCODEPAGE
3
ANSI_1252
9
$INSBASE
10
0.0
20
0.0
30
0.0
9
$EXTMIN
10
-150.000000000000
20
-105.000000000000
30
0.0
9
$EXTMAX
10
150.000000000000
20
105.000000000000
30
0.0
9
$LIMMIN
10
0.0
20
0.0
9
$LIMMAX
10
12.0
20
9.0
9
$ORTHOMODE
70
0
9
$REGENMODE
70
1
9
$FILLMODE
70
1
9
$QTEXTMODE
70
0
9
$MIRRTEXT
70
1
9
$LTSCALE
40
1.0
9
$ATTMODE
70
1
9
$TEXTSIZE
40
0.2
9
$TRACEWID
40
0.05
9
$TEXTSTYLE
7
Standard
9
$CLAYER
8
0
9
$CELTYPE
6
ByLayer
9
$CECOLOR
62
256
9
$CELTSCALE
40
1.0
9
$DISPSILH
70
0
9
$DIMSCALE
40
1.0
9
$DIMASZ
40
2.5
9
$DIMEXO
40
0.625
9
$DIMDLI
40
0.38
9
$DIMRND
40
0.0
9
$DIMDLE
40
0.0
9
$DIMEXE
40
1.25
9
$DIMTP
40
0.0
9
$DIMTM
40
0.000000001
9
$DIMTXT
40
2.5
9
$DIMCEN
40
0.09
9
$DIMTSZ
40
0.0
9
$DIMTOL
70
1
9
$DIMLIM
70
0
9
$DIMTIH
70
0
9
$DIMTOH
70
0
9
$DIMSE1
70
0
9
$DIMSE2
70
0
9
$DIMTAD
70
1
9
$DIMZIN
70
0
9
$DIMBLK
1
VDDIM_DEFAULT
9
$DIMASO
70
1
9
$DIMSHO
70
1
9
$DIMPOST
1

9
$DIMAPOST
1

9
$DIMALT
70
0
9
$DIMALTD
70
2
9
$DIMALTF
40
25.4
9
$DIMLFAC
40
1.00000000000000
9
$DIMTOFL
70
0
9
$DIMTVP
40
0.0
9
$DIMTIX
70
0
9
$DIMSOXD
70
0
9
$DIMSAH
70
0
9
$DIMBLK1
1

9
$DIMBLK2
1

9
$DIMSTYLE
2
BEM-ISBE
9
$DIMCLRD
70
0
9
$DIMCLRE
70
0
9
$DIMCLRT
70
0
9
$DIMTFAC
40
0.5
9
$DIMGAP
40
0.625
9
$DIMJUST
70
0
9
$DIMSD1
70
0
9
$DIMSD2
70
0
9
$DIMTOLJ
70
1
9
$DIMTZIN
70
0
9
$DIMALTZ
70
0
9
$DIMALTTZ
70
0
9
$DIMUPT
70
0
9
$DIMDEC
70
3
9
$DIMTDEC
70
3
9
$DIMALTU
70
2
9
$DIMALTTD
70
2
9
$DIMTXSTY
7
Standard
9
$DIMAUNIT
70
0
9
$DIMADEC
70
3
9
$DIMALTRND
40
0.0
9
$DIMAZIN
70
0
9
$DIMDSEP
70
46
9
$DIMATFIT
70
3
9
$DIMFRAC
70
0
9
$DIMLDRBLK
1

9
$DIMLUNIT
70
2
9
$DIMLWD
70
-2
9
$DIMLWE
70
-2
9
$DIMTMOVE
70
0
9
$LUNITS
70
2
9
$LUPREC
70
4
9
$SKETCHINC
40
0.1
9
$FILLETRAD
40
0.5
9
$AUNITS
70
0
9
$AUPREC
70
0
9
$MENU
1
.
9
$ELEVATION
40
0.0
9
$PELEVATION
40
0.0
9
$THICKNESS
40
0.0
9
$LIMCHECK
70
0
9
$CHAMFERA
40
0.5
9
$CHAMFERB
40
0.5
9
$CHAMFERC
40
1.0
9
$CHAMFERD
40
0.0
9
$SKPOLY
70
0
9
$TDCREATE
40
0.0
9
$TDUCREATE
40
0.0
9
$TDUPDATE
40
0.0
9
$TDUUPDATE
40
0.0
9
$TDINDWG
40
0.0
9
$TDUSRTIMER
40
0.0
9
$USRTIMER
70
1
9
$ANGBASE
50
0.0
9
$ANGDIR
70
0
9
$PDMODE
70
0
9
$PDSIZE
40
0.0
9
$PLINEWID
40
0.0
9
$SPLFRAME
70
0
9
$SPLINETYPE
70
6
9
$SPLINESEGS
70
8
9
$HANDSEED
5
10AB
9
$SURFTAB1
70
6
9
$SURFTAB2
70
6
9
$SURFTYPE
70
6
9
$SURFU
70
6
9
$SURFV
70
6
9
$UCSBASE
2

9
$UCSNAME
2

9
$UCSORG
10
0.0
20
0.0
30
0.0
9
$UCSXDIR
10
1.0
20
0.0
30
0.0
9
$UCSYDIR
10
0.0
20
1.0
30
0.0
9
$UCSORTHOREF
2

9
$UCSORTHOVIEW
70
0
9
$UCSORGTOP
10
0.0
20
0.0
30
0.0
9
$UCSORGBOTTOM
10
0.0
20
0.0
30
0.0
9
$UCSORGLEFT
10
0.0
20
0.0
30
0.0
9
$UCSORGRIGHT
10
0.0
20
0.0
30
0.0
9
$UCSORGFRONT
10
0.0
20
0.0
30
0.0
9
$UCSORGBACK
10
0.0
20
0.0
30
0.0
9
$PUCSBASE
2

9
$PUCSNAME
2

9
$PUCSORG
10
0.0
20
0.0
30
0.0
9
$PUCSXDIR
10
1.0
20
0.0
30
0.0
9
$PUCSYDIR
10
0.0
20
1.0
30
0.0
9
$PUCSORTHOREF
2

9
$PUCSORTHOVIEW
70
0
9
$PUCSORGTOP
10
0.0
20
0.0
30
0.0
9
$PUCSORGBOTTOM
10
0.0
20
0.0
30
0.0
9
$PUCSORGLEFT
10
0.0
20
0.0
30
0.0
9
$PUCSORGRIGHT
10
0.0
20
0.0
30
0.0
9
$PUCSORGFRONT
10
0.0
20
0.0
30
0.0
9
$PUCSORGBACK
10
0.0
20
0.0
30
0.0
9
$USERI1
70
0
9
$USERI2
70
0
9
$USERI3
70
0
9
$USERI4
70
0
9
$USERI5
70
0
9
$USERR1
40
0.0
9
$USERR2
40
0.0
9
$USERR3
40
0.0
9
$USERR4
40
0.0
9
$USERR5
40
0.0
9
$WORLDVIEW
70
1
9
$SHADEDGE
70
3
9
$SHADEDIF
70
70
9
$TILEMODE
70
1
9
$MAXACTVP
70
64
9
$PINSBASE
10
0.0
20
0.0
30
0.0
9
$PLIMCHECK
70
0
9
$PEXTMIN
10
1.000000000000000E+20
20
1.000000000000000E+20
30
1.000000000000000E+20
9
$PEXTMAX
10
-1.000000000000000E+20
20
-1.000000000000000E+20
30
-1.000000000000000E+20
9
$PLIMMIN
10
0.0
20
0.0
9
$PLIMMAX
10
12.0
20
9.0
9
$UNITMODE
70
0
9
$VISRETAIN
70
1
9
$PLINEGEN
70
0
9
$PSLTSCALE
70
1
9
$TREEDEPTH
70
3020
9
$CMLSTYLE
2
Standard
9
$CMLJUST
70
0
9
$CMLSCALE
40
1.0
9
$PROXYGRAPHICS
70
1
9
$MEASUREMENT
70
0
9
$CELWEIGHT
370
-1
9
$ENDCAPS
280
0
9
$JOINSTYLE
280
0
9
$LWDISPLAY
290
0
9
$INSUNITS
70
4
9
$HYPERLINKBASE
1

9
$STYLESHEET
1

9
$XEDIT
290
1
9
$CEPSNTYPE
380
0
9
$PSTYLEMODE
290
0
9
$FINGERPRINTGUID
2
{FAEB1C30-E019-11D5-929B-00C0DF256EC4}
9
$VERSIONGUID
2
{04C5C4E4-4947-4D90-8812-D401569E61F7}
9
$EXTNAMES
290
1
9
$PSVPSCALE
40
0.0
9
$OLESTARTUP
290
0
0
ENDSEC
0
SECTION
2
CLASSES
0
CLASS
1
ACDBDICTIONARYWDFLT
2
AcDbDictionaryWithDefault
3
ObjectDBX Classes
90
0
280
0
281
0
0
CLASS
1
ACDBPLACEHOLDER
2
AcDbPlaceHolder
3
ObjectDBX Classes
90
0
280
0
281
0
0
CLASS
1
LAYOUT
2
AcDbLayout
3
ObjectDBX Classes
90
0
280
0
281
0
0
CLASS
1
MATERIAL
2
AcDbMaterial
3
ObjectDBX Classes
90
1153
280
0
281
0
0
CLASS
1
VISUALSTYLE
2
AcDbVisualStyle
3
ObjectDBX Classes
90
4095
280
0
281
0
0
CLASS
1
TABLESTYLE
2
AcDbTableStyle
3
ObjectDBX Classes
90
4095
280
0
281
0
0
CLASS
1
SCALE
2
AcDbScale
3
ObjectDBX Classes
90
1153
280
0
281
0
0
CLASS
1
MLEADERSTYLE
2
AcDbMLeaderStyle
3
ACDB_MLEADERSTYLE_CLASS
90
4095
280
0
281
0
0
CLASS
1
DICTIONARYVAR
2
AcDbDictionaryVar
3
ObjectDBX Classes
90
0
280
0
281
0
0
CLASS
1
CELLSTYLEMAP
2
AcDbCellStyleMap
3
ObjectDBX Classes
90
1152
280
0
281
0
0
ENDSEC
0
SECTION
2
TABLES
0
TABLE
2
VPORT
5
24A
330
0
100
AcDbSymbolTable
70
1
0
VPORT
5
26B
330
24A
100
AcDbSymbolTableRecord
100
AcDbViewportTableRecord
2
*Active
70
0
10
0.0
20
0.0
11
1.0
21
1.0
12
0.000000000000000
22
0.000000000000000
13
0.0
23
0.0
14
10.0
24
10.0
15
10.0
25
10.0
16
0.0
26
0.0
36
1.0
17
0.0
27
0.0
37
0.0
40
210.000000000000
41
1.42857142857143
42
1.0
43
0.0
44
0.0
50
0.0
51
0.0000000000007958
71
0
72
100
73
1
74
3
75
0
76
0
77
0
78
1
281
0
65
1
110
0.0
120
0.0
130
0.0
111
1.0
121
0.0
131
0.0
112
0.0
122
1.0
132
0.0
79
0
146
0.0
0
ENDTAB
0
TABLE
2
LTYPE
5
247
330
0
100
AcDbSymbolTable
70
25
0
LTYPE
5
256
330
247
100
AcDbSymbolTableRecord
100
AcDbLinetypeTableRecord
2
ByBlock
70
0
3

72
65
73
0
40
0.0
0
LTYPE
5
257
330
247
100
AcDbSymbolTableRecord
100
AcDbLinetypeTableRecord
2
ByLayer
70
0
3

72
65
73
0
40
0.0
0
LTYPE
5
258
330
247
100
AcDbSymbolTableRecord
100
AcDbLinetypeTableRecord
2
Continuous
70
0
3
Solid line
72
65
73
0
40
0.0
0
LTYPE
5
273
330
247
100
AcDbSymbolTableRecord
100
AcDbLinetypeTableRecord
2
CENTER
70
0
3
Center ____ _ ____ _ ____ _ ____ _ ____ _ ____
72
65
73
4
40
2.0
49
1.25
74
0
49
-0.25
74
0
49
0.25
74
0
49
-0.25
74
0
0
LTYPE
5
274
330
247
100
AcDbSymbolTableRecord
100
AcDbLinetypeTableRecord
2
DASHDOT
70
0
3
Dashdot __ . __ . __ . __ . __ . __ . __ . __
72
65
73
4
40
1.0
49
0.5
74
0
49
-0.25
74
0
49
0.0
74
0
49
-0.25
74
0
0
LTYPE
5
275
330
247
100
AcDbSymbolTableRecord
100
AcDbLinetypeTableRecord
2
DASHED
70
0
3
Dashed __ __ __ __ __ __ __ __ __ __ __ __ __ _
72
65
73
2
40
0.75
49
0.5
74
0
49
-0.25
74
0
0
LTYPE
5
276
330
247
100
AcDbSymbolTableRecord
100
AcDbLinetypeTableRecord
2
HIDDEN
70
0
3
Hidden __ __ __ __ __ __ __ __ __ __ __ __ __ __
72
65
73
2
40
0.375
49
0.25
74
0
49
-0.125
74
0
0
LTYPE
5
277
330
247
100
AcDbSymbolTableRecord
100
AcDbLinetypeTableRecord
2
HIDDEN2
70
0
3
Hidden2 _ _ _ _ _ _ _ _ _ _ _ _ _ _ _ _ _
72
65
73
2
40
0.1875
49
0.125
74
0
49
-0.0625
74
0
0
LTYPE
5
278
330
247
100
AcDbSymbolTableRecord
100
AcDbLinetypeTableRecord
2
BORDER
70
0
3
Border __ __ . __ __ . __ __ . __ __ . __ __ .
72
65
73
6
40
1.75
49
0.5
74
0
49
-0.25
74
0
49
0.5
74
0
49
-0.25
74
0
49
0.0
74
0
49
-0.25
74
0
0
LTYPE
5
279
330
247
100
AcDbSymbolTableRecord
100
AcDbLinetypeTableRecord
2
BORDER2
70
0
3
Border2 __.__.__.__.__.__.__.__.__.__.__.
72
65
73
6
40
0.875
49
0.25
74
0
49
-0.125
74
0
49
0.25
74
0
49
-0.125
74
0
49
0.0
74
0
49
-0.125
74
0
0
LTYPE
5
27A
330
247
100
AcDbSymbolTableRecord
100
AcDbLinetypeTableRecord
2
BORDERX2
70
0
3
Borderx2  ____  ____  .  ____  ____  .  ___
72
65
73
6
40
3.5
49
1.0
74
0
49
-0.5
74
0
49
1.0
74
0
49
-0.5
74
0
49
0.0
74
0
49
-0.5
74
0
0
LTYPE
5
27B
330
247
100
AcDbSymbolTableRecord
100
AcDbLinetypeTableRecord
2
CENTER2
70
0
3
Center2  ___ _ ___ _ ___ _ ___ _ ___ _ ___
72
65
73
4
40
1.125
49
0.75
74
0
49
-0.125
74
0
49
0.125
74
0
49
-0.125
74
0
0
LTYPE
5
27C
330
247
100
AcDbSymbolTableRecord
100
AcDbLinetypeTableRecord
2
CENTERX2
70
0
3
Centerx2  ________  __  ________  __  _____
72
65
73
4
40
4.0
49
2.5
74
0
49
-0.5
74
0
49
0.5
74
0
49
-0.5
74
0
0
LTYPE
5
27D
330
247
100
AcDbSymbolTableRecord
100
AcDbLinetypeTableRecord
2
DASHDOT2
70
0
3
Dashdot2  _._._._._._._._._._._._._._._.
72
65
73
4
40
0.5
49
0.25
74
0
49
-0.125
74
0
49
0.0
74
0
49
-0.125
74
0
0
LTYPE
5
27E
330
247
100
AcDbSymbolTableRecord
100
AcDbLinetypeTableRecord
2
DASHDOTX2
70
0
3
Dashdotx2 ____  .  ____  .  ____  .  ___
72
65
73
4
40
2.0
49
1.0
74
0
49
-0.5
74
0
49
0.0
74
0
49
-0.5
74
0
0
LTYPE
5
27F
330
247
100
AcDbSymbolTableRecord
100
AcDbLinetypeTableRecord
2
DASHED2
70
0
3
Dashed2 _ _ _ _ _ _ _ _ _ _ _ _ _ _ _ _ _
72
65
73
2
40
0.375
49
0.25
74
0
49
-0.125
74
0
0
LTYPE
5
280
330
247
100
AcDbSymbolTableRecord
100
AcDbLinetypeTableRecord
2
DASHEDX2
70
0
3
Dashedx2 ____  ____  ____  ____  ____  ___
72
65
73
2
40
1.5
49
1.0
74
0
49
-0.5
74
0
0
LTYPE
5
281
330
247
100
AcDbSymbolTableRecord
100
AcDbLinetypeTableRecord
2
DIVIDE
70
0
3
Divide ____ . . ____ . . ____ . . ____ . . ____
72
65
73
6
40
1.25
49
0.5
74
0
49
-0.25
74
0
49
0.0
74
0
49
-0.25
74
0
49
0.0
74
0
49
-0.25
74
0
0
LTYPE
5
282
330
247
100
AcDbSymbolTableRecord
100
AcDbLinetypeTableRecord
2
DIVIDE2
70
0
3
Divide2 __..__..__..__..__..__..__..__.._
72
65
73
6
40
0.625
49
0.25
74
0
49
-0.125
74
0
49
0.0
74
0
49
-0.125
74
0
49
0.0
74
0
49
-0.125
74
0
0
LTYPE
5
283
330
247
100
AcDbSymbolTableRecord
100
AcDbLinetypeTableRecord
2
DIVIDEX2
70
0
3
Dividex2 ________  .  .  ________  .  .  _
72
65
73
6
40
2.5
49
1.0
74
0
49
-0.5
74
0
49
0.0
74
0
49
-0.5
74
0
49
0.0
74
0
49
-0.5
74
0
0
LTYPE
5
284
330
247
100
AcDbSymbolTableRecord
100
AcDbLinetypeTableRecord
2
DOT
70
0
3
Dot . . . . . . . . . . . . . . . . . . . . . . . .
72
65
73
2
40
0.25
49
0.0
74
0
49
-0.25
74
0
0
LTYPE
5
285
330
247
100
AcDbSymbolTableRecord
100
AcDbLinetypeTableRecord
2
DOT2
70
0
3
Dot2 ........................................
72
65
73
2
40
0.125
49
0.0
74
0
49
-0.125
74
0
0
LTYPE
5
286
330
247
100
AcDbSymbolTableRecord
100
AcDbLinetypeTableRecord
2
DOTX2
70
0
3
Dotx2 .  .  .  .  .  .  .  .  .  .  .  .  .  .
72
65
73
2
40
0.5
49
0.0
74
0
49
-0.5
74
0
0
LTYPE
5
287
330
247
100
AcDbSymbolTableRecord
100
AcDbLinetypeTableRecord
2
HIDDENX2
70
0
3
Hiddenx2 ____ ____ ____ ____ ____ ____ ____
72
65
73
2
40
0.75
49
0.5
74
0
49
-0.25
74
0
0
LTYPE
5
288
330
247
100
AcDbSymbolTableRecord
100
AcDbLinetypeTableRecord
2
PHANTOM
70
0
3
Phantom ______  __  __  ______  __  __  ______
72
65
73
6
40
2.5
49
1.25
74
0
49
-0.25
74
0
49
0.25
74
0
49
-0.25
74
0
49
0.25
74
0
49
-0.25
74
0
0
LTYPE
5
289
330
247
100
AcDbSymbolTableRecord
100
AcDbLinetypeTableRecord
2
PHANTOM2
70
0
3
Phantom2 ___ _ _ ___ _ _ ___ _ _ ___ _ _
72
65
73
6
40
1.25
49
0.625
74
0
49
-0.125
74
0
49
0.125
74
0
49
-0.125
74
0
49
0.125
74
0
49
-0.125
74
0
0
LTYPE
5
28A
330
247
100
AcDbSymbolTableRecord
100
AcDbLinetypeTableRecord
2
PHANTOMX2
70
0
3
Phantomx2 ____________    ____    ____   _
72
65
73
6
40
5.0
49
2.5
74
0
49
-0.5
74
0
49
0.5
74
0
49
-0.5
74
0
49
0.5
74
0
49
-0.5
74
0
0
ENDTAB
0
TABLE
2
LAYER
5
244
330
0
100
AcDbSymbolTable
70
6
0
LAYER
5
252
330
244
100
AcDbSymbolTableRecord
100
AcDbLayerTableRecord
2
0
70
0
62
7
6
Continuous
370
0
390
251
0
LAYER
5
23F
330
244
100
AcDbSymbolTableRecord
100
AcDbLayerTableRecord
2
Bemassung
70
0
 62
   7
6
Continuous
370
0
390
251
0
LAYER
5
240
330
244
100
AcDbSymbolTableRecord
100
AcDbLayerTableRecord
2
Rahmen
70
0
 62
   7
6
Continuous
370
0
390
251
0
LAYER
5
241
330
244
100
AcDbSymbolTableRecord
100
AcDbLayerTableRecord
2
Geo
70
0
 62
   7
6
Continuous
370
0
390
251
0
LAYER
5
33A
330
244
100
AcDbSymbolTableRecord
100
AcDbLayerTableRecord
2
Defpoints
70
0
62
7
6
Continuous
290
0
370
-3
390
251
0
LAYER
5
57E
330
244
100
AcDbSymbolTableRecord
100
AcDbLayerTableRecord
2
Text
70
0
 62
   7
6
Continuous
370
0
390
251
1001
AcAecLayerStandard
1000

1000

0
ENDTAB
0
TABLE
2
STYLE
5
245
330
0
100
AcDbSymbolTable
70
2
0
STYLE
5
253
330
245
100
AcDbSymbolTableRecord
100
AcDbTextStyleTableRecord
2
Standard
70
0
40
0.0
41
1.0
50
0.0
71
0
42
0.2
3
Arial
4

1001
ACAD
1000
Arial
1071
0
0
STYLE
5
132
330
245
100
AcDbSymbolTableRecord
100
AcDbTextStyleTableRecord
2
Beschriftung
70
0
40
0.0
41
1.0
50
0.0
71
0
42
0.2
3
Arial
4

1001
ACAD
1000
Arial
1071
0
1001
AcadAnnotative
1000
AnnotativeData
1070
1
1070
1
0
ENDTAB
0
TABLE
2
VIEW
5
248
330
0
100
AcDbSymbolTable
70
0
0
ENDTAB
0
TABLE
2
UCS
5
249
330
0
100
AcDbSymbolTable
70
0
0
ENDTAB
0
TABLE
2
APPID
5
24B
330
0
100
AcDbSymbolTable
70
13
0
APPID
5
254
330
24B
100
AcDbSymbolTableRecord
100
AcDbRegAppTableRecord
2
ACAD
70
0
0
APPID
5
26C
330
24B
100
AcDbSymbolTableRecord
100
AcDbRegAppTableRecord
2
VD_INVISIBLE_NOT_FOR_READ
70
0
0
APPID
5
26D
330
24B
100
AcDbSymbolTableRecord
100
AcDbRegAppTableRecord
2
VD_TEMPHATCH
70
0
0
APPID
5
26E
330
24B
100
AcDbSymbolTableRecord
100
AcDbRegAppTableRecord
2
VDEXTRAPARAM
70
0
0
APPID
5
26F
330
24B
100
AcDbSymbolTableRecord
100
AcDbRegAppTableRecord
2
PE_URL
70
0
0
APPID
5
270
330
24B
100
AcDbSymbolTableRecord
100
AcDbRegAppTableRecord
2
VD_UNKNOWN
70
0
0
APPID
5
28F
330
24B
100
AcDbSymbolTableRecord
100
AcDbRegAppTableRecord
2
AcadAnnotative
70
0
0
APPID
5
290
330
24B
100
AcDbSymbolTableRecord
100
AcDbRegAppTableRecord
2
ACAD_DSTYLE_DIMJAG
70
0
0
APPID
5
291
330
24B
100
AcDbSymbolTableRecord
100
AcDbRegAppTableRecord
2
ACAD_DSTYLE_DIMTALN
70
0
0
APPID
5
293
330
24B
100
AcDbSymbolTableRecord
100
AcDbRegAppTableRecord
2
ACAD_PSEXT
70
0
0
APPID
5
42A
330
24B
100
AcDbSymbolTableRecord
100
AcDbRegAppTableRecord
2
ACAD_MLEADERVER
70
0
0
APPID
5
532
330
24B
100
AcDbSymbolTableRecord
100
AcDbRegAppTableRecord
2
ACAD_EXEMPT_FROM_CAD_STANDARDS
70
0
0
APPID
5
57F
330
24B
100
AcDbSymbolTableRecord
100
AcDbRegAppTableRecord
2
AcAecLayerStandard
70
0
0
ENDTAB
0
TABLE
2
DIMSTYLE
5
24C
330
0
100
AcDbSymbolTable
70
3
100
AcDbDimStyleTable
71
2
340
27
340
269
0
DIMSTYLE
105
269
330
24C
100
AcDbSymbolTableRecord
100
AcDbDimStyleTableRecord
2
Standard
70
0
172
1
174
1
288
1
340
253
342
23C
0
DIMSTYLE
105
137
330
24C
100
AcDbSymbolTableRecord
100
AcDbDimStyleTableRecord
2
Beschriftung
70
0
41
2.5
42
0.625
44
1.25
73
0
74
0
77
1
140
2.5
147
0.625
172
1
174
1
271
2
288
1
340
253
342
23C
1001
AcadAnnotative
1000
AnnotativeData
1070
1
1070
1
1001
ACAD_DSTYLE_DIMJAG
1070
388
1040
1.5
1001
ACAD_DSTYLE_DIMTALN
1070
392
1070
0
0
DIMSTYLE
105
27
102
{ACAD_REACTORS
330
F10012
330
F10017
330
F10008
330
F10003
330
F1000D
102
}
330
24C
100
AcDbSymbolTableRecord
100
AcDbDimStyleTableRecord
2
BEM-ISBE
70
0
41
2.5
42
0.625
44
1.25
48
0.000000001
71
1
73
0
74
0
77
1
140
2.5
144
1.00000000000000
146
0.5
147
0.625
171
 3
172
 1
179
 3
271
 3
272
 3
274
 3
340
253
342
23C
1001
ACAD_DSTYLE_DIMJAG
1070
388
1040
1.5
1001
ACAD_DSTYLE_DIMTALN
1070
392
1070
1
0
ENDTAB
0
TABLE
2
BLOCK_RECORD
5
243
330
0
100
AcDbSymbolTable
70
5
0
BLOCK_RECORD
5
261
330
243
100
AcDbSymbolTableRecord
100
AcDbBlockTableRecord
2
*Model_Space
340
FD0
0
BLOCK_RECORD
5
25D
330
243
100
AcDbSymbolTableRecord
100
AcDbBlockTableRecord
2
*Paper_Space
340
FD1
0
BLOCK_RECORD
5
265
330
243
100
AcDbSymbolTableRecord
100
AcDbBlockTableRecord
2
*Paper_Space0
340
0
0
BLOCK_RECORD
5
23C
330
243
100
AcDbSymbolTableRecord
100
AcDbBlockTableRecord
2
VDDIM_DEFAULT
340
0
102
{BLKREFS
102
}
0
BLOCK_RECORD
5
23E
330
243
100
AcDbSymbolTableRecord
100
AcDbBlockTableRecord
2
VDDIM_NONE
340
0
0
BLOCK_RECORD
5
F10011
330
243
100
AcDbSymbolTableRecord
100
AcDbBlockTableRecord
2
*D6
340
0
0
BLOCK_RECORD
5
F10016
330
243
100
AcDbSymbolTableRecord
100
AcDbBlockTableRecord
2
*D7
340
0
0
BLOCK_RECORD
5
F10007
330
243
100
AcDbSymbolTableRecord
100
AcDbBlockTableRecord
2
*D4
340
0
0
BLOCK_RECORD
5
F10002
330
243
100
AcDbSymbolTableRecord
100
AcDbBlockTableRecord
2
*D3
340
0
0
BLOCK_RECORD
5
F1000C
330
243
100
AcDbSymbolTableRecord
100
AcDbBlockTableRecord
2
*D5
340
0
0
ENDTAB
0
ENDSEC
0
SECTION
2
BLOCKS
0
BLOCK
5
262
330
261
100
AcDbEntity
8
0
100
AcDbBlockBegin
2
*Model_Space
70
0
10
0.0
20
0.0
30
0.0
3
*Model_Space
1

0
ENDBLK
5
263
330
261
100
AcDbEntity
8
0
100
AcDbBlockEnd
0
BLOCK
5
25E
330
25D
100
AcDbEntity
67
1
8
0
100
AcDbBlockBegin
2
*Paper_Space
70
0
10
0.0
20
0.0
30
0.0
3
*Paper_Space
1

0
ENDBLK
5
25F
330
25D
100
AcDbEntity
67
1
8
0
100
AcDbBlockEnd
0
BLOCK
5
266
330
265
100
AcDbEntity
8
0
100
AcDbBlockBegin
2
*Paper_Space0
70
0
10
0.0
20
0.0
30
0.0
3
*Paper_Space0
1

0
VIEWPORT
5
296
102
{ACAD_XDICTIONARY
360
58E
102
}
330
265
100
AcDbEntity
8
0
60
1
100
AcDbViewport
10
0.0
20
0.0
30
0.0
40
10.0
41
10.0
69
0
12
0.0
22
0.0
13
0.0
23
0.0
14
1.0
24
1.0
15
0.0
25
0.0
16
0.0
26
0.0
36
1.0
17
0.0
27
0.0
37
0.0
42
0.0
43
0.0
44
0.0
45
10.0
50
0.0
51
0.0000000000007958
72
100
90
163872
1

281
0
71
0
74
0
110
0.0
120
0.0
130
0.0
111
1.0
121
0.0
131
0.0
112
0.0
122
1.0
132
0.0
79
0
146
0.0
1001
VD_INVISIBLE_NOT_FOR_READ
1000
VD_INVISIBLE_NOT_FOR_READ
0
VIEWPORT
5
297
102
{ACAD_XDICTIONARY
360
590
102
}
330
265
100
AcDbEntity
8
0
60
1
100
AcDbViewport
10
0.0
20
0.0
30
0.0
40
10.0
41
10.0
69
0
12
0.0
22
0.0
13
0.0
23
0.0
14
1.0
24
1.0
15
0.0
25
0.0
16
0.0
26
0.0
36
1.0
17
0.0
27
0.0
37
0.0
42
0.0
43
0.0
44
0.0
45
10.0
50
0.0
51
0.0000000000007958
72
100
90
163872
1

281
0
71
0
74
0
110
0.0
120
0.0
130
0.0
111
1.0
121
0.0
131
0.0
112
0.0
122
1.0
132
0.0
79
0
146
0.0
1001
VD_INVISIBLE_NOT_FOR_READ
1000
VD_INVISIBLE_NOT_FOR_READ
0
ENDBLK
5
267
330
265
100
AcDbEntity
8
0
100
AcDbBlockEnd
0
BLOCK
5
28B
330
23C
100
AcDbEntity
8
0
100
AcDbBlockBegin
2
VDDIM_DEFAULT
70
0
10
0.0
20
0.0
30
0.0
3
VDDIM_DEFAULT
1

0
LWPOLYLINE
5
23D
330
23C
100
AcDbEntity
8
0
6
Continuous
62
0
100
AcDbPolyline
90
4
70
0
43
0.0
10
0.0
20
0.0
10
-1.0
20
-0.1665
10
-1.0
20
0.1665
10
0.0
20
0.0
1001
VDEXTRAPARAM
1071
1
1071
0
1071
0
1040
1.0
1000

1000

1040
0.0
1040
0.0
0
HATCH
5
292
330
23C
100
AcDbEntity
8
0
6
Continuous
62
0
100
AcDbHatch
10
0.0
20
0.0
30
0.0
210
0.0
220
0.0
230
1.0
2
SOLID
70
1
71
0
91
1
92
2
72
0
73
1
93
3
10
0.0
20
0.0
10
-1.0
20
-0.1665
10
-1.0
20
0.1665
97
0
75
0
76
1
98
1
10
0.0
20
0.0
1001
VDEXTRAPARAM
1071
1
1071
0
1071
0
1040
1.0
1000

1000

1040
0.0
1040
0.0
1001
VD_TEMPHATCH
1000
VD_TEMPHATCH
0
ENDBLK
5
28C
330
23C
100
AcDbEntity
8
0
100
AcDbBlockEnd
0
BLOCK
5
28D
330
23E
100
AcDbEntity
8
0
100
AcDbBlockBegin
2
VDDIM_NONE
70
0
10
0.0
20
0.0
30
0.0
3
VDDIM_NONE
1

0
ENDBLK
5
28E
330
23E
100
AcDbEntity
8
0
100
AcDbBlockEnd
  0
BLOCK
  5
F1001B
330
F10011
100
AcDbEntity
  8
0
100
AcDbBlockBegin
  2
*D6
 70
     1
 10
0.0
 20
0.0
 30
0.0
  3
*D6
  1

  0
LINE
  5
F1001C
330
F10011
100
AcDbEntity
  8
Bemassung
 62
     0
370
    -2
100
AcDbLine
10
-28.2698504027618
20
-5.40851553509782
30
0.000000000000000
11
-28.2698504027618
21
-16.4085155350978
31
0.000000000000000
  0
LINE
  5
F1001D
330
F10011
100
AcDbEntity
  8
Bemassung
 62
     0
370
    -2
100
AcDbLine
10
-68.2698504027618
20
-16.4085155350978
30
0.000000000000000
11
-68.2698504027618
21
26.5914844649022
31
0.000000000000000
  0
LINE
  5
F1001E
330
F10011
100
AcDbEntity
  8
Bemassung
 62
     0
370
    -2
100
AcDbLine
10
-28.2698504027618
20
-14.4085155350978
30
0.000000000000000
11
-68.2698504027618
21
-14.4085155350978
31
0.000000000000000
  0
INSERT
  5
F1001F
330
F10011
100
AcDbEntity
  8
Bemassung
 62
     0
370
    -2
100
AcDbBlockReference
  2
VDDIM_DEFAULT
10
-28.2698504027618
20
-14.4085155350978
30
0.000000000000000
 41
2.50000000000000
 42
2.50000000000000
 43
2.50000000000000
  0
INSERT
  5
F10020
330
F10011
100
AcDbEntity
  8
Bemassung
 62
     0
370
    -2
100
AcDbBlockReference
  2
VDDIM_DEFAULT
10
-68.2698504027618
20
-14.4085155350978
30
0.000000000000000
 41
2.50000000000000
 42
2.50000000000000
 43
2.50000000000000
 50
180.000000000000
  0
MTEXT
  5
F10021
330
F10011
100
AcDbEntity
  8
Bemassung
 62
     0
100
AcDbMText
10
-48.2698504027618
20
-13.7418488684312
30
0.000000000000000
 40
2.50000000000000
 41
0.0
 71
     8
 72
     1
  1
40
 11
1.00000000000000
 21
0.000000000000000
 31
0.0
 73
     1
 44
1.0
1001
ACAD
1000
MTEXTBEGIN
1070
73
1070
1
1070
44
1040
1.0
1070
74
1070
0
1000
MTEXTEND
  0
POINT
  5
F10022
330
F10011
100
AcDbEntity
  8
Bemassung
 62
     0
100
AcDbPoint
10
-28.2698504027618
20
-5.40851553509782
30
0.000000000000000
  0
POINT
  5
F10023
330
F10011
100
AcDbEntity
  8
Bemassung
 62
     0
100
AcDbPoint
10
-68.2698504027618
20
-16.4085155350978
30
0.000000000000000
  0
ENDBLK
  5
F10024
330
F10011
100
AcDbEntity
  8
0
100
AcDbBlockEnd
  0
BLOCK
  5
F10025
330
F10016
100
AcDbEntity
  8
0
100
AcDbBlockBegin
  2
*D7
 70
     1
 10
0.0
 20
0.0
 30
0.0
  3
*D7
  1

  0
LINE
  5
F10026
330
F10016
100
AcDbEntity
  8
Bemassung
 62
     0
370
    -2
100
AcDbLine
10
81.7301495972382
20
13.0914844649022
30
0.000000000000000
11
81.7301495972382
21
26.5914844649022
31
0.000000000000000
  0
LINE
  5
F10027
330
F10016
100
AcDbEntity
  8
Bemassung
 62
     0
370
    -2
100
AcDbLine
10
-68.2698504027618
20
-16.4085155350978
30
0.000000000000000
11
-68.2698504027618
21
26.5914844649022
31
0.000000000000000
  0
LINE
  5
F10028
330
F10016
100
AcDbEntity
  8
Bemassung
 62
     0
370
    -2
100
AcDbLine
10
81.7301495972382
20
24.5914844649022
30
0.000000000000000
11
-68.2698504027618
21
24.5914844649022
31
0.000000000000000
  0
INSERT
  5
F10029
330
F10016
100
AcDbEntity
  8
Bemassung
 62
     0
370
    -2
100
AcDbBlockReference
  2
VDDIM_DEFAULT
10
81.7301495972382
20
24.5914844649022
30
0.000000000000000
 41
2.50000000000000
 42
2.50000000000000
 43
2.50000000000000
  0
INSERT
  5
F1002A
330
F10016
100
AcDbEntity
  8
Bemassung
 62
     0
370
    -2
100
AcDbBlockReference
  2
VDDIM_DEFAULT
10
-68.2698504027618
20
24.5914844649022
30
0.000000000000000
 41
2.50000000000000
 42
2.50000000000000
 43
2.50000000000000
 50
180.000000000000
  0
MTEXT
  5
F1002B
330
F10016
100
AcDbEntity
  8
Bemassung
 62
     0
100
AcDbMText
10
6.73014959723818
20
25.2581511315688
30
0.000000000000000
 40
2.50000000000000
 41
0.0
 71
     8
 72
     1
  1
150
 11
1.00000000000000
 21
0.000000000000000
 31
0.0
 73
     1
 44
1.0
1001
ACAD
1000
MTEXTBEGIN
1070
73
1070
1
1070
44
1040
1.0
1070
74
1070
0
1000
MTEXTEND
  0
POINT
  5
F1002C
330
F10016
100
AcDbEntity
  8
Bemassung
 62
     0
100
AcDbPoint
10
81.7301495972382
20
13.0914844649022
30
0.000000000000000
  0
POINT
  5
F1002D
330
F10016
100
AcDbEntity
  8
Bemassung
 62
     0
100
AcDbPoint
10
-68.2698504027618
20
-16.4085155350978
30
0.000000000000000
  0
ENDBLK
  5
F1002E
330
F10016
100
AcDbEntity
  8
0
100
AcDbBlockEnd
  0
BLOCK
  5
F1002F
330
F10007
100
AcDbEntity
  8
0
100
AcDbBlockBegin
  2
*D4
 70
     1
 10
0.0
 20
0.0
 30
0.0
  3
*D4
  1

  0
LINE
  5
F10030
330
F10007
100
AcDbEntity
  8
Bemassung
 62
     0
370
    -2
100
AcDbLine
10
-65.6138541158101
20
11.3786495183492
30
0.000000000000000
11
-77.7764386262296
21
22.6190398795423
31
0.000000000000000
  0
INSERT
  5
F10031
330
F10007
100
AcDbEntity
  8
Bemassung
 62
     0
370
    -2
100
AcDbBlockReference
  2
VDDIM_DEFAULT
10
-65.6138541158101
20
11.3786495183492
30
0.000000000000000
 41
2.50000000000000
 42
2.50000000000000
 43
2.50000000000000
 50
317.256572522713
  0
MTEXT
  5
F10032
330
F10007
100
AcDbEntity
  8
Bemassung
 62
     0
100
AcDbMText
10
-75.3965779792893
20
20.4196255483257
30
0.000000000000000
 40
2.50000000000000
 41
0.0
 71
     8
 72
     1
  1
R10
 11
0.734400371304832
 21
-0.678716505344702
 31
0.0
 73
     1
 44
1.0
1001
ACAD
1000
MTEXTBEGIN
1070
73
1070
1
1070
44
1040
1.0
1070
74
1070
0
1000
MTEXTEND
  0
POINT
  5
F10033
330
F10007
100
AcDbEntity
  8
Bemassung
 62
     0
100
AcDbPoint
10
-65.6138541158101
20
11.3786495183492
30
0.000000000000000
  0
POINT
  5
F10034
330
F10007
100
AcDbEntity
  8
Bemassung
 62
     0
100
AcDbPoint
10
-58.2698504027618
20
4.59148446490218
30
0.000000000000000
  0
ENDBLK
  5
F10035
330
F10007
100
AcDbEntity
  8
0
100
AcDbBlockEnd
  0
BLOCK
  5
F10036
330
F10002
100
AcDbEntity
  8
0
100
AcDbBlockBegin
  2
*D3
 70
     1
 10
0.0
 20
0.0
 30
0.0
  3
*D3
  1

  0
LINE
  5
F10037
330
F10002
100
AcDbEntity
  8
Bemassung
 62
     0
370
    -2
100
AcDbLine
10
-58.2698504027618
20
-5.40851553509782
30
0.000000000000000
11
-80.2698504027618
21
-5.40851553509782
31
0.000000000000000
  0
LINE
  5
F10038
330
F10002
100
AcDbEntity
  8
Bemassung
 62
     0
370
    -2
100
AcDbLine
10
-58.2698504027618
20
14.5914844649022
30
0.000000000000000
11
-80.2698504027618
21
14.5914844649022
31
0.000000000000000
  0
LINE
  5
F10039
330
F10002
100
AcDbEntity
  8
Bemassung
 62
     0
370
    -2
100
AcDbLine
10
-78.2698504027618
20
-5.40851553509782
30
0.000000000000000
11
-78.2698504027618
21
14.5914844649022
31
0.000000000000000
  0
INSERT
  5
F1003A
330
F10002
100
AcDbEntity
  8
Bemassung
 62
     0
370
    -2
100
AcDbBlockReference
  2
VDDIM_DEFAULT
10
-78.2698504027618
20
-5.40851553509782
30
0.000000000000000
 41
2.50000000000000
 42
2.50000000000000
 43
2.50000000000000
 50
270.000000000000
  0
INSERT
  5
F1003B
330
F10002
100
AcDbEntity
  8
Bemassung
 62
     0
370
    -2
100
AcDbBlockReference
  2
VDDIM_DEFAULT
10
-78.2698504027618
20
14.5914844649022
30
0.000000000000000
 41
2.50000000000000
 42
2.50000000000000
 43
2.50000000000000
 50
90.0000000000000
  0
MTEXT
  5
F1003C
330
F10002
100
AcDbEntity
  8
Bemassung
 62
     0
100
AcDbMText
10
-78.9365170694285
20
4.59148446490218
30
0.000000000000000
 40
2.50000000000000
 41
0.0
 71
     8
 72
     1
  1
Ø20
 11
6.12323399573677e-17
 21
1.00000000000000
 31
0.0
 73
     1
 44
1.0
1001
ACAD
1000
MTEXTBEGIN
1070
73
1070
1
1070
44
1040
1.0
1070
74
1070
0
1000
MTEXTEND
  0
POINT
  5
F1003D
330
F10002
100
AcDbEntity
  8
Bemassung
 62
     0
100
AcDbPoint
10
-58.2698504027618
20
-5.40851553509782
30
0.000000000000000
  0
POINT
  5
F1003E
330
F10002
100
AcDbEntity
  8
Bemassung
 62
     0
100
AcDbPoint
10
-58.2698504027618
20
14.5914844649022
30
0.000000000000000
  0
ENDBLK
  5
F1003F
330
F10002
100
AcDbEntity
  8
0
100
AcDbBlockEnd
  0
BLOCK
  5
F10040
330
F1000C
100
AcDbEntity
  8
0
100
AcDbBlockBegin
  2
*D5
 70
     1
 10
0.0
 20
0.0
 30
0.0
  3
*D5
  1

  0
LINE
  5
F10041
330
F1000C
100
AcDbEntity
  8
Bemassung
 62
     0
370
    -2
100
AcDbLine
10
80.2301495972382
20
-5.40851553509782
30
0.000000000000000
11
94.5634829305715
21
-5.40851553509782
31
0.000000000000000
  0
LINE
  5
F10042
330
F1000C
100
AcDbEntity
  8
Bemassung
 62
     0
370
    -2
100
AcDbLine
10
80.2301495972382
20
14.5914844649022
30
0.000000000000000
11
94.5634829305715
21
14.5914844649022
31
0.000000000000000
  0
LINE
  5
F10043
330
F1000C
100
AcDbEntity
  8
Bemassung
 62
     0
370
    -2
100
AcDbLine
10
92.5634829305715
20
-5.40851553509782
30
0.000000000000000
11
92.5634829305715
21
14.5914844649022
31
0.000000000000000
  0
INSERT
  5
F10044
330
F1000C
100
AcDbEntity
  8
Bemassung
 62
     0
370
    -2
100
AcDbBlockReference
  2
VDDIM_DEFAULT
10
92.5634829305715
20
-5.40851553509782
30
0.000000000000000
 41
2.50000000000000
 42
2.50000000000000
 43
2.50000000000000
 50
270.000000000000
  0
INSERT
  5
F10045
330
F1000C
100
AcDbEntity
  8
Bemassung
 62
     0
370
    -2
100
AcDbBlockReference
  2
VDDIM_DEFAULT
10
92.5634829305715
20
14.5914844649022
30
0.000000000000000
 41
2.50000000000000
 42
2.50000000000000
 43
2.50000000000000
 50
90.0000000000000
  0
MTEXT
  5
F10046
330
F1000C
100
AcDbEntity
  8
Bemassung
 62
     0
100
AcDbMText
10
91.8968162639048
20
3.26237054085131
30
0.000000000000000
 40
2.50000000000000
 41
0.0
 71
     8
 72
     1
  1
Ø20h6
 11
6.12323399573677e-17
 21
1.00000000000000
 31
0.0
 73
     1
 44
1.0
  0
POINT
  5
F10047
330
F1000C
100
AcDbEntity
  8
Bemassung
 62
     0
100
AcDbPoint
10
80.2301495972382
20
-5.40851553509782
30
0.000000000000000
  0
POINT
  5
F10048
330
F1000C
100
AcDbEntity
  8
Bemassung
 62
     0
100
AcDbPoint
10
80.2301495972382
20
14.5914844649022
30
0.000000000000000
  0
ENDBLK
  5
F10049
330
F1000C
100
AcDbEntity
  8
0
100
AcDbBlockEnd
0
ENDSEC
0
SECTION
2
ENTITIES
  0
DIMENSION
  5
F10012
330
261
100
AcDbEntity
  8
Bemassung
100
AcDbDimension
  2
*D6
10
-68.2698504027618
20
-14.4085155350978
30
0.000000000000000
11
-48.2698504027618
21
-13.7418488684312
31
0.000000000000000
 70
32
 1
40
 71
     8
  3
BEM-ISBE
100
AcDbAlignedDimension
13
-28.2698504027618
23
-5.40851553509782
33
0.000000000000000
14
-68.2698504027618
24
-16.4085155350978
34
0.000000000000000
100
AcDbRotatedDimension
1001
ACAD
1000
DSTYLE
1002
{
1070
284
1070
8
1070
78
1070
8
1070
144
1040
1.00000000000000
1070
147
1040
0.625
1070
 72
1070
 0
1070
 71
1070
 0
1002
}
  0
DIMENSION
  5
F10017
330
261
100
AcDbEntity
  8
Bemassung
100
AcDbDimension
  2
*D7
10
-68.2698504027618
20
24.5914844649022
30
0.000000000000000
11
6.73014959723818
21
25.2581511315688
31
0.000000000000000
 70
32
 1
150
 71
     8
  3
BEM-ISBE
100
AcDbAlignedDimension
13
81.7301495972382
23
13.0914844649022
33
0.000000000000000
14
-68.2698504027618
24
-16.4085155350978
34
0.000000000000000
100
AcDbRotatedDimension
1001
ACAD
1000
DSTYLE
1002
{
1070
284
1070
8
1070
78
1070
8
1070
144
1040
1.00000000000000
1070
147
1040
0.625
1070
 72
1070
 0
1070
 71
1070
 0
1002
}
  0
DIMENSION
  5
F10008
330
261
100
AcDbEntity
  8
Bemassung
100
AcDbDimension
  2
*D4
10
-58.2698504027618
20
4.59148446490218
30
0.000000000000000
11
-75.3965779792893
21
20.4196255483257
31
0.000000000000000
 70
164
 1
R10
 71
     8
  3
BEM-ISBE
100
AcDbRadialDimension
15
-65.6138541158101
25
11.3786495183492
35
0.000000000000000
40
0.0
1001
ACAD
1000
DSTYLE
1002
{
1070
284
1070
8
1070
78
1070
8
1070
144
1040
1.00000000000000
1070
147
1040
0.625
1070
 72
1070
 0
1070
 71
1070
 0
1002
}
  0
DIMENSION
  5
F10003
330
261
100
AcDbEntity
  8
Bemassung
100
AcDbDimension
  2
*D3
10
-78.2698504027618
20
14.5914844649022
30
0.000000000000000
11
-78.9365170694285
21
4.59148446490218
31
0.000000000000000
 70
32
 1
Ø20
 71
     8
  3
BEM-ISBE
100
AcDbAlignedDimension
13
-58.2698504027618
23
-5.40851553509782
33
0.000000000000000
14
-58.2698504027618
24
14.5914844649022
34
0.000000000000000
50
90.0000000000000
100
AcDbRotatedDimension
1001
ACAD
1000
DSTYLE
1002
{
1070
284
1070
8
1070
78
1070
8
1070
144
1040
1.00000000000000
1070
147
1040
0.625
1070
 72
1070
 0
1070
 71
1070
 0
1002
}
  0
DIMENSION
  5
F1000D
330
261
100
AcDbEntity
  8
Bemassung
100
AcDbDimension
  2
*D5
10
92.5634829305715
20
14.5914844649022
30
0.000000000000000
11
91.8968162639048
21
3.26237054085131
31
0.000000000000000
 70
32
 1
Ø20h6
 71
     8
  3
BEM-ISBE
100
AcDbAlignedDimension
13
80.2301495972382
23
-5.40851553509782
33
0.000000000000000
14
80.2301495972382
24
14.5914844649022
34
0.000000000000000
50
90.0000000000000
100
AcDbRotatedDimension
1001
ACAD
1000
DSTYLE
1002
{
1070
284
1070
8
1070
78
1070
8
1070
144
1040
1.00000000000000
1070
147
1040
0.625
1070
 72
1070
 0
1070
 71
1070
 0
1002
}
  0
ARC
  5
F1004A
330
F1004B
100
AcDbEntity
8
Geo
100
AcDbCircle
10
-58.2698504027618
20
4.59148446490218
30
0.000000000000000
 40
10.0000000000000
100
AcDbArc
 50
90.0000000000000
 51
180.000000000000
  0
LINE
  5
F1004C
330
F1004D
100
AcDbEntity
8
Geo
100
AcDbLine
10
-58.2698504027618
20
14.5914844649022
30
0.000000000000000
11
-28.2698504027618
21
14.5914844649022
31
0.000000000000000
  0
LINE
  5
F1004E
330
F1004F
100
AcDbEntity
8
Geo
100
AcDbLine
10
-28.2698504027618
20
14.5914844649022
30
0.000000000000000
11
80.2301495972382
21
14.5914844649022
31
0.000000000000000
  0
LINE
  5
F10050
330
F10051
100
AcDbEntity
8
Geo
100
AcDbLine
10
80.2301495972382
20
14.5914844649022
30
0.000000000000000
11
81.7301495972382
21
13.0914844649022
31
0.000000000000000
  0
LINE
  5
F10052
330
F10053
100
AcDbEntity
8
Geo
100
AcDbLine
10
-66.8698504027618
20
9.69442479377141
30
0.000000000000000
11
-66.8698504027618
21
9.69347709765994
31
0.000000000000000
  0
LINE
  5
F10054
330
F10055
100
AcDbEntity
8
Geo
100
AcDbLine
10
-66.8698504027618
20
9.69347709765994
30
0.000000000000000
11
-66.7698504027618
21
9.83885560828139
31
0.000000000000000
  0
LINE
  5
F10056
330
F10057
100
AcDbEntity
8
Geo
100
AcDbLine
10
-66.7698504027618
20
9.83885560828139
30
0.000000000000000
11
-66.6698504027618
21
9.96880051537137
31
0.000000000000000
  0
LINE
  5
F10058
330
F10059
100
AcDbEntity
8
Geo
100
AcDbLine
10
-66.6698504027618
20
9.96880051537137
30
0.000000000000000
11
-66.5698504027618
21
10.0898317616174
31
0.000000000000000
  0
LINE
  5
F1005A
330
F1005B
100
AcDbEntity
8
Geo
100
AcDbLine
10
-66.5698504027618
20
10.0898317616174
30
0.000000000000000
11
-66.4698504027618
21
10.2041852106666
31
0.000000000000000
  0
LINE
  5
F1005C
330
F1005D
100
AcDbEntity
8
Geo
100
AcDbLine
10
-66.4698504027618
20
10.2041852106666
30
0.000000000000000
11
-66.3698504027618
21
10.3131704815390
31
0.000000000000000
  0
LINE
  5
F1005E
330
F1005F
100
AcDbEntity
8
Geo
100
AcDbLine
10
-66.3698504027618
20
10.3131704815390
30
0.000000000000000
11
-66.2698504027618
21
10.4174854461301
31
0.000000000000000
  0
LINE
  5
F10060
330
F10061
100
AcDbEntity
8
Geo
100
AcDbLine
10
-66.2698504027618
20
10.4174854461301
30
0.000000000000000
11
-66.1698504027618
21
10.5177811896413
31
0.000000000000000
  0
LINE
  5
F10062
330
F10063
100
AcDbEntity
8
Geo
100
AcDbLine
10
-66.1698504027618
20
10.5177811896413
30
0.000000000000000
11
-66.0698504027618
21
10.6143759607343
31
0.000000000000000
  0
LINE
  5
F10064
330
F10065
100
AcDbEntity
8
Geo
100
AcDbLine
10
-66.0698504027618
20
10.6143759607343
30
0.000000000000000
11
-65.9698504027618
21
10.7076060070484
31
0.000000000000000
  0
LINE
  5
F10066
330
F10067
100
AcDbEntity
8
Geo
100
AcDbLine
10
-65.9698504027618
20
10.7076060070484
30
0.000000000000000
11
-65.8698504027618
21
10.7977307311912
31
0.000000000000000
  0
LINE
  5
F10068
330
F10069
100
AcDbEntity
8
Geo
100
AcDbLine
10
-65.8698504027618
20
10.7977307311912
30
0.000000000000000
11
-65.7698504027618
21
10.8849561250721
31
0.000000000000000
  0
LINE
  5
F1006A
330
F1006B
100
AcDbEntity
8
Geo
100
AcDbLine
10
-65.7698504027618
20
10.8849561250721
30
0.000000000000000
11
-65.6698504027618
21
10.9695378524633
31
0.000000000000000
  0
LINE
  5
F1006C
330
F1006D
100
AcDbEntity
8
Geo
100
AcDbLine
10
-65.6698504027618
20
10.9695378524633
30
0.000000000000000
11
-65.5698504027618
21
11.0516254815029
31
0.000000000000000
  0
LINE
  5
F1006E
330
F1006F
100
AcDbEntity
8
Geo
100
AcDbLine
10
-65.5698504027618
20
11.0516254815029
30
0.000000000000000
11
-65.4698504027618
21
11.1312794985000
31
0.000000000000000
  0
LINE
  5
F10070
330
F10071
100
AcDbEntity
8
Geo
100
AcDbLine
10
-65.4698504027618
20
11.1312794985000
30
0.000000000000000
11
-65.3698504027618
21
11.2086771247557
31
0.000000000000000
  0
LINE
  5
F10072
330
F10073
100
AcDbEntity
8
Geo
100
AcDbLine
10
-65.3698504027618
20
11.2086771247557
30
0.000000000000000
11
-65.2698504027618
21
11.2838635885908
31
0.000000000000000
  0
LINE
  5
F10074
330
F10075
100
AcDbEntity
8
Geo
100
AcDbLine
10
-65.2698504027618
20
11.2838635885908
30
0.000000000000000
11
-65.1698504027618
21
11.3557077127620
31
0.000000000000000
  0
LINE
  5
F10076
330
F10077
100
AcDbEntity
8
Geo
100
AcDbLine
10
-65.1698504027618
20
11.3557077127620
30
0.000000000000000
11
-65.0698504027618
21
11.4238485781573
31
0.000000000000000
  0
LINE
  5
F10078
330
F10079
100
AcDbEntity
8
Geo
100
AcDbLine
10
-65.0698504027618
20
11.4238485781573
30
0.000000000000000
11
-64.9698504027618
21
11.4883807549935
31
0.000000000000000
  0
LINE
  5
F1007A
330
F1007B
100
AcDbEntity
8
Geo
100
AcDbLine
10
-64.9698504027618
20
11.4883807549935
30
0.000000000000000
11
-64.8698504027618
21
11.5493915616582
31
0.000000000000000
  0
LINE
  5
F1007C
330
F1007D
100
AcDbEntity
8
Geo
100
AcDbLine
10
-64.8698504027618
20
11.5493915616582
30
0.000000000000000
11
-64.7698504027618
21
11.6069618879551
31
0.000000000000000
  0
LINE
  5
F1007E
330
F1007F
100
AcDbEntity
8
Geo
100
AcDbLine
10
-64.7698504027618
20
11.6069618879551
30
0.000000000000000
11
-64.6698504027618
21
11.6611669094245
31
0.000000000000000
  0
LINE
  5
F10080
330
F10081
100
AcDbEntity
8
Geo
100
AcDbLine
10
-64.6698504027618
20
11.6611669094245
30
0.000000000000000
11
-64.5698504027618
21
11.7120767097698
31
0.000000000000000
  0
LINE
  5
F10082
330
F10083
100
AcDbEntity
8
Geo
100
AcDbLine
10
-64.5698504027618
20
11.7120767097698
30
0.000000000000000
11
-64.4698504027618
21
11.7597568253651
31
0.000000000000000
  0
LINE
  5
F10084
330
F10085
100
AcDbEntity
8
Geo
100
AcDbLine
10
-64.4698504027618
20
11.7597568253651
30
0.000000000000000
11
-64.3698504027618
21
11.8042687233764
31
0.000000000000000
  0
LINE
  5
F10086
330
F10087
100
AcDbEntity
8
Geo
100
AcDbLine
10
-64.3698504027618
20
11.8042687233764
30
0.000000000000000
11
-64.2698504027618
21
11.8456702230683
31
0.000000000000000
  0
LINE
  5
F10088
330
F10089
100
AcDbEntity
8
Geo
100
AcDbLine
10
-64.2698504027618
20
11.8456702230683
30
0.000000000000000
11
-64.1698504027618
21
11.8840158682776
31
0.000000000000000
  0
LINE
  5
F1008A
330
F1008B
100
AcDbEntity
8
Geo
100
AcDbLine
10
-64.1698504027618
20
11.8840158682776
30
0.000000000000000
11
-64.0698504027618
21
11.9193572577467
31
0.000000000000000
  0
LINE
  5
F1008C
330
F1008D
100
AcDbEntity
8
Geo
100
AcDbLine
10
-64.0698504027618
20
11.9193572577467
30
0.000000000000000
11
-63.9698504027618
21
11.9517433389528
31
0.000000000000000
  0
LINE
  5
F1008E
330
F1008F
100
AcDbEntity
8
Geo
100
AcDbLine
10
-63.9698504027618
20
11.9517433389528
30
0.000000000000000
11
-63.8698504027618
21
11.9812206701992
31
0.000000000000000
  0
LINE
  5
F10090
330
F10091
100
AcDbEntity
8
Geo
100
AcDbLine
10
-63.8698504027618
20
11.9812206701992
30
0.000000000000000
11
-63.7698504027618
21
12.0078336550189
31
0.000000000000000
  0
LINE
  5
F10092
330
F10093
100
AcDbEntity
8
Geo
100
AcDbLine
10
-63.7698504027618
20
12.0078336550189
30
0.000000000000000
11
-63.6698504027618
21
12.0316247523423
31
0.000000000000000
  0
LINE
  5
F10094
330
F10095
100
AcDbEntity
8
Geo
100
AcDbLine
10
-63.6698504027618
20
12.0316247523423
30
0.000000000000000
11
-63.5698504027618
21
12.0526346653871
31
0.000000000000000
  0
LINE
  5
F10096
330
F10097
100
AcDbEntity
8
Geo
100
AcDbLine
10
-63.5698504027618
20
12.0526346653871
30
0.000000000000000
11
-63.4698504027618
21
12.0709025118084
31
0.000000000000000
  0
LINE
  5
F10098
330
F10099
100
AcDbEntity
8
Geo
100
AcDbLine
10
-63.4698504027618
20
12.0709025118084
30
0.000000000000000
11
-63.3698504027618
21
12.0864659772999
31
0.000000000000000
  0
LINE
  5
F1009A
330
F1009B
100
AcDbEntity
8
Geo
100
AcDbLine
10
-63.3698504027618
20
12.0864659772999
30
0.000000000000000
11
-63.2698504027618
21
12.0993614545386
31
0.000000000000000
  0
LINE
  5
F1009C
330
F1009D
100
AcDbEntity
8
Geo
100
AcDbLine
10
-63.2698504027618
20
12.0993614545386
30
0.000000000000000
11
-63.1698504027618
21
12.1096241691176
31
0.000000000000000
  0
LINE
  5
F1009E
330
F1009F
100
AcDbEntity
8
Geo
100
AcDbLine
10
-63.1698504027618
20
12.1096241691176
30
0.000000000000000
11
-63.0698504027618
21
12.1172882938964
31
0.000000000000000
  0
LINE
  5
F100A0
330
F100A1
100
AcDbEntity
8
Geo
100
AcDbLine
10
-63.0698504027618
20
12.1172882938964
30
0.000000000000000
11
-62.9698504027618
21
12.1223870530172
31
0.000000000000000
  0
LINE
  5
F100A2
330
F100A3
100
AcDbEntity
8
Geo
100
AcDbLine
10
-62.9698504027618
20
12.1223870530172
30
0.000000000000000
11
-62.8698504027618
21
12.1249528166787
31
0.000000000000000
  0
LINE
  5
F100A4
330
F100A5
100
AcDbEntity
8
Geo
100
AcDbLine
10
-62.8698504027618
20
12.1249528166787
30
0.000000000000000
11
-62.7698504027618
21
12.1250171876287
31
0.000000000000000
  0
LINE
  5
F100A6
330
F100A7
100
AcDbEntity
8
Geo
100
AcDbLine
10
-62.7698504027618
20
12.1250171876287
30
0.000000000000000
11
-62.6698504027618
21
12.1226110802154
31
0.000000000000000
  0
LINE
  5
F100A8
330
F100A9
100
AcDbEntity
8
Geo
100
AcDbLine
10
-62.6698504027618
20
12.1226110802154
30
0.000000000000000
11
-62.5698504027618
21
12.1177647927453
31
0.000000000000000
  0
LINE
  5
F100AA
330
F100AB
100
AcDbEntity
8
Geo
100
AcDbLine
10
-62.5698504027618
20
12.1177647927453
30
0.000000000000000
11
-62.4698504027618
21
12.1105080738021
31
0.000000000000000
  0
LINE
  5
F100AC
330
F100AD
100
AcDbEntity
8
Geo
100
AcDbLine
10
-62.4698504027618
20
12.1105080738021
30
0.000000000000000
11
-62.3698504027618
21
12.1008701831119
31
0.000000000000000
  0
LINE
  5
F100AE
330
F100AF
100
AcDbEntity
8
Geo
100
AcDbLine
10
-62.3698504027618
20
12.1008701831119
30
0.000000000000000
11
-62.2698504027618
21
12.0888799474714
31
0.000000000000000
  0
LINE
  5
F100B0
330
F100B1
100
AcDbEntity
8
Geo
100
AcDbLine
10
-62.2698504027618
20
12.0888799474714
30
0.000000000000000
11
-62.1698504027618
21
12.0745658121996
31
0.000000000000000
  0
LINE
  5
F100B2
330
F100B3
100
AcDbEntity
8
Geo
100
AcDbLine
10
-62.1698504027618
20
12.0745658121996
30
0.000000000000000
11
-62.0698504027618
21
12.0579558885247
31
0.000000000000000
  0
LINE
  5
F100B4
330
F100B5
100
AcDbEntity
8
Geo
100
AcDbLine
10
-62.0698504027618
20
12.0579558885247
30
0.000000000000000
11
-61.9698504027618
21
12.0390779972727
31
0.000000000000000
  0
LINE
  5
F100B6
330
F100B7
100
AcDbEntity
8
Geo
100
AcDbLine
10
-61.9698504027618
20
12.0390779972727
30
0.000000000000000
11
-61.8698504027618
21
12.0179597091870
31
0.000000000000000
  0
LINE
  5
F100B8
330
F100B9
100
AcDbEntity
8
Geo
100
AcDbLine
10
-61.8698504027618
20
12.0179597091870
30
0.000000000000000
11
-61.7698504027618
21
11.9946283821739
31
0.000000000000000
  0
LINE
  5
F100BA
330
F100BB
100
AcDbEntity
8
Geo
100
AcDbLine
10
-61.7698504027618
20
11.9946283821739
30
0.000000000000000
11
-61.6698504027618
21
11.9691111957385
31
0.000000000000000
  0
LINE
  5
F100BC
330
F100BD
100
AcDbEntity
8
Geo
100
AcDbLine
10
-61.6698504027618
20
11.9691111957385
30
0.000000000000000
11
-61.5698504027618
21
11.9414351828512
31
0.000000000000000
  0
LINE
  5
F100BE
330
F100BF
100
AcDbEntity
8
Geo
100
AcDbLine
10
-61.5698504027618
20
11.9414351828512
30
0.000000000000000
11
-61.4698504027618
21
11.9116272594580
31
0.000000000000000
  0
LINE
  5
F100C0
330
F100C1
100
AcDbEntity
8
Geo
100
AcDbLine
10
-61.4698504027618
20
11.9116272594580
30
0.000000000000000
11
-61.3698504027618
21
11.8797142518312
31
0.000000000000000
  0
LINE
  5
F100C2
330
F100C3
100
AcDbEntity
8
Geo
100
AcDbLine
10
-61.3698504027618
20
11.8797142518312
30
0.000000000000000
11
-61.2698504027618
21
11.8457229219349
31
0.000000000000000
  0
LINE
  5
F100C4
330
F100C5
100
AcDbEntity
8
Geo
100
AcDbLine
10
-61.2698504027618
20
11.8457229219349
30
0.000000000000000
11
-61.1698504027618
21
11.8096799909662
31
0.000000000000000
  0
LINE
  5
F100C6
330
F100C7
100
AcDbEntity
8
Geo
100
AcDbLine
10
-61.1698504027618
20
11.8096799909662
30
0.000000000000000
11
-61.0698504027618
21
11.7716121612163
31
0.000000000000000
  0
LINE
  5
F100C8
330
F100C9
100
AcDbEntity
8
Geo
100
AcDbLine
10
-61.0698504027618
20
11.7716121612163
30
0.000000000000000
11
-60.9698504027618
21
11.7315461363828
31
0.000000000000000
  0
LINE
  5
F100CA
330
F100CB
100
AcDbEntity
8
Geo
100
AcDbLine
10
-60.9698504027618
20
11.7315461363828
30
0.000000000000000
11
-60.8698504027618
21
11.6895086404549
31
0.000000000000000
  0
LINE
  5
F100CC
330
F100CD
100
AcDbEntity
8
Geo
100
AcDbLine
10
-60.8698504027618
20
11.6895086404549
30
0.000000000000000
11
-60.7698504027618
21
11.6455264352793
31
0.000000000000000
  0
LINE
  5
F100CE
330
F100CF
100
AcDbEntity
8
Geo
100
AcDbLine
10
-60.7698504027618
20
11.6455264352793
30
0.000000000000000
11
-60.6698504027618
21
11.5996263369077
31
0.000000000000000
  0
LINE
  5
F100D0
330
F100D1
100
AcDbEntity
8
Geo
100
AcDbLine
10
-60.6698504027618
20
11.5996263369077
30
0.000000000000000
11
-60.5698504027618
21
11.5518352308179
31
0.000000000000000
  0
LINE
  5
F100D2
330
F100D3
100
AcDbEntity
8
Geo
100
AcDbLine
10
-60.5698504027618
20
11.5518352308179
30
0.000000000000000
11
-60.4698504027618
21
11.5021800860913
31
0.000000000000000
  0
LINE
  5
F100D4
330
F100D5
100
AcDbEntity
8
Geo
100
AcDbLine
10
-60.4698504027618
20
11.5021800860913
30
0.000000000000000
11
-60.3698504027618
21
11.4506879686249
31
0.000000000000000
  0
LINE
  5
F100D6
330
F100D7
100
AcDbEntity
8
Geo
100
AcDbLine
10
-60.3698504027618
20
11.4506879686249
30
0.000000000000000
11
-60.2698504027618
21
11.3973860534484
31
0.000000000000000
  0
LINE
  5
F100D8
330
F100D9
100
AcDbEntity
8
Geo
100
AcDbLine
10
-60.2698504027618
20
11.3973860534484
30
0.000000000000000
11
-60.1698504027618
21
11.3423016362117
31
0.000000000000000
  0
LINE
  5
F100DA
330
F100DB
100
AcDbEntity
8
Geo
100
AcDbLine
10
-60.1698504027618
20
11.3423016362117
30
0.000000000000000
11
-60.0698504027618
21
11.2854621439029
31
0.000000000000000
  0
LINE
  5
F100DC
330
F100DD
100
AcDbEntity
8
Geo
100
AcDbLine
10
-60.0698504027618
20
11.2854621439029
30
0.000000000000000
11
-59.9698504027618
21
11.2268951448523
31
0.000000000000000
  0
LINE
  5
F100DE
330
F100DF
100
AcDbEntity
8
Geo
100
AcDbLine
10
-59.9698504027618
20
11.2268951448523
30
0.000000000000000
11
-59.8698504027618
21
11.1666283580748
31
0.000000000000000
  0
LINE
  5
F100E0
330
F100E1
100
AcDbEntity
8
Geo
100
AcDbLine
10
-59.8698504027618
20
11.1666283580748
30
0.000000000000000
11
-59.7698504027618
21
11.1046896619973
31
0.000000000000000
  0
LINE
  5
F100E2
330
F100E3
100
AcDbEntity
8
Geo
100
AcDbLine
10
-59.7698504027618
20
11.1046896619973
30
0.000000000000000
11
-59.6698504027618
21
11.0411071026168
31
0.000000000000000
  0
LINE
  5
F100E4
330
F100E5
100
AcDbEntity
8
Geo
100
AcDbLine
10
-59.6698504027618
20
11.0411071026168
30
0.000000000000000
11
-59.5698504027618
21
10.9759089011290
31
0.000000000000000
  0
LINE
  5
F100E6
330
F100E7
100
AcDbEntity
8
Geo
100
AcDbLine
10
-59.5698504027618
20
10.9759089011290
30
0.000000000000000
11
-59.4698504027618
21
10.9091234610676
31
0.000000000000000
  0
LINE
  5
F100E8
330
F100E9
100
AcDbEntity
8
Geo
100
AcDbLine
10
-59.4698504027618
20
10.9091234610676
30
0.000000000000000
11
-59.3698504027618
21
10.8407793749888
31
0.000000000000000
  0
LINE
  5
F100EA
330
F100EB
100
AcDbEntity
8
Geo
100
AcDbLine
10
-59.3698504027618
20
10.8407793749888
30
0.000000000000000
11
-59.2698504027618
21
10.7709054307364
31
0.000000000000000
  0
LINE
  5
F100EC
330
F100ED
100
AcDbEntity
8
Geo
100
AcDbLine
10
-59.2698504027618
20
10.7709054307364
30
0.000000000000000
11
-59.1698504027618
21
10.6995306173175
31
0.000000000000000
  0
LINE
  5
F100EE
330
F100EF
100
AcDbEntity
8
Geo
100
AcDbLine
10
-59.1698504027618
20
10.6995306173175
30
0.000000000000000
11
-59.0698504027618
21
10.6266841304199
31
0.000000000000000
  0
LINE
  5
F100F0
330
F100F1
100
AcDbEntity
8
Geo
100
AcDbLine
10
-59.0698504027618
20
10.6266841304199
30
0.000000000000000
11
-58.9698504027618
21
10.5523953775985
31
0.000000000000000
  0
LINE
  5
F100F2
330
F100F3
100
AcDbEntity
8
Geo
100
AcDbLine
10
-58.9698504027618
20
10.5523953775985
30
0.000000000000000
11
-58.8698504027618
21
10.4766939831584
31
0.000000000000000
  0
LINE
  5
F100F4
330
F100F5
100
AcDbEntity
8
Geo
100
AcDbLine
10
-58.8698504027618
20
10.4766939831584
30
0.000000000000000
11
-58.7698504027618
21
10.3996097927589
31
0.000000000000000
  0
LINE
  5
F100F6
330
F100F7
100
AcDbEntity
8
Geo
100
AcDbLine
10
-58.7698504027618
20
10.3996097927589
30
0.000000000000000
11
-58.6698504027618
21
10.3211728777627
31
0.000000000000000
  0
LINE
  5
F100F8
330
F100F9
100
AcDbEntity
8
Geo
100
AcDbLine
10
-58.6698504027618
20
10.3211728777627
30
0.000000000000000
11
-58.5698504027618
21
10.2414135393538
31
0.000000000000000
  0
LINE
  5
F100FA
330
F100FB
100
AcDbEntity
8
Geo
100
AcDbLine
10
-58.5698504027618
20
10.2414135393538
30
0.000000000000000
11
-58.4698504027618
21
10.1603623124457
31
0.000000000000000
  0
LINE
  5
F100FC
330
F100FD
100
AcDbEntity
8
Geo
100
AcDbLine
10
-58.4698504027618
20
10.1603623124457
30
0.000000000000000
11
-58.3698504027618
21
10.0780499694011
31
0.000000000000000
  0
LINE
  5
F100FE
330
F100FF
100
AcDbEntity
8
Geo
100
AcDbLine
10
-58.3698504027618
20
10.0780499694011
30
0.000000000000000
11
-58.2698504027618
21
9.99450752358358
31
0.000000000000000
  0
LINE
  5
F10100
330
F10101
100
AcDbEntity
8
Geo
100
AcDbLine
10
-58.2698504027618
20
9.99450752358358
30
0.000000000000000
11
-58.1698504027618
21
9.91009167864573
31
0.000000000000000
  0
LINE
  5
F10102
330
F10103
100
AcDbEntity
8
Geo
100
AcDbLine
10
-58.1698504027618
20
9.91009167864573
30
0.000000000000000
11
-58.0698504027618
21
9.82514397741868
31
0.000000000000000
  0
LINE
  5
F10104
330
F10105
100
AcDbEntity
8
Geo
100
AcDbLine
10
-58.0698504027618
20
9.82514397741868
30
0.000000000000000
11
-57.9698504027618
21
9.73967291460173
31
0.000000000000000
  0
LINE
  5
F10106
330
F10107
100
AcDbEntity
8
Geo
100
AcDbLine
10
-57.9698504027618
20
9.73967291460173
30
0.000000000000000
11
-57.8698504027618
21
9.65368703722996
31
0.000000000000000
  0
LINE
  5
F10108
330
F10109
100
AcDbEntity
8
Geo
100
AcDbLine
10
-57.8698504027618
20
9.65368703722996
30
0.000000000000000
11
-57.7698504027618
21
9.56719494381945
31
0.000000000000000
  0
LINE
  5
F1010A
330
F1010B
100
AcDbEntity
8
Geo
100
AcDbLine
10
-57.7698504027618
20
9.56719494381945
30
0.000000000000000
11
-57.6698504027618
21
9.48020528350746
31
0.000000000000000
  0
LINE
  5
F1010C
330
F1010D
100
AcDbEntity
8
Geo
100
AcDbLine
10
-57.6698504027618
20
9.48020528350746
30
0.000000000000000
11
-57.5698504027618
21
9.39272675518752
31
0.000000000000000
  0
LINE
  5
F1010E
330
F1010F
100
AcDbEntity
8
Geo
100
AcDbLine
10
-57.5698504027618
20
9.39272675518752
30
0.000000000000000
11
-57.4698504027618
21
9.30476810663958
31
0.000000000000000
  0
LINE
  5
F10110
330
F10111
100
AcDbEntity
8
Geo
100
AcDbLine
10
-57.4698504027618
20
9.30476810663958
30
0.000000000000000
11
-57.3698504027618
21
9.21633813365519
31
0.000000000000000
  0
LINE
  5
F10112
330
F10113
100
AcDbEntity
8
Geo
100
AcDbLine
10
-57.3698504027618
20
9.21633813365519
30
0.000000000000000
11
-57.2698504027618
21
9.12744567915795
31
0.000000000000000
  0
LINE
  5
F10114
330
F10115
100
AcDbEntity
8
Geo
100
AcDbLine
10
-57.2698504027618
20
9.12744567915795
30
0.000000000000000
11
-57.1698504027618
21
9.03809963231925
31
0.000000000000000
  0
LINE
  5
F10116
330
F10117
100
AcDbEntity
8
Geo
100
AcDbLine
10
-57.1698504027618
20
9.03809963231925
30
0.000000000000000
11
-57.0698504027618
21
8.94830892766930
31
0.000000000000000
  0
LINE
  5
F10118
330
F10119
100
AcDbEntity
8
Geo
100
AcDbLine
10
-57.0698504027618
20
8.94830892766930
30
0.000000000000000
11
-56.9698504027618
21
8.85808254420375
31
0.000000000000000
  0
LINE
  5
F1011A
330
F1011B
100
AcDbEntity
8
Geo
100
AcDbLine
10
-56.9698504027618
20
8.85808254420375
30
0.000000000000000
11
-56.8698504027618
21
8.76742950448576
31
0.000000000000000
  0
LINE
  5
F1011C
330
F1011D
100
AcDbEntity
8
Geo
100
AcDbLine
10
-56.8698504027618
20
8.76742950448576
30
0.000000000000000
11
-56.7698504027618
21
8.67635887374375
31
0.000000000000000
  0
LINE
  5
F1011E
330
F1011F
100
AcDbEntity
8
Geo
100
AcDbLine
10
-56.7698504027618
20
8.67635887374375
30
0.000000000000000
11
-56.6698504027618
21
8.58487975896491
31
0.000000000000000
  0
LINE
  5
F10120
330
F10121
100
AcDbEntity
8
Geo
100
AcDbLine
10
-56.6698504027618
20
8.58487975896491
30
0.000000000000000
11
-56.5698504027618
21
8.49300130798448
31
0.000000000000000
  0
LINE
  5
F10122
330
F10123
100
AcDbEntity
8
Geo
100
AcDbLine
10
-56.5698504027618
20
8.49300130798448
30
0.000000000000000
11
-56.4698504027618
21
8.40073270857100
31
0.000000000000000
  0
LINE
  5
F10124
330
F10125
100
AcDbEntity
8
Geo
100
AcDbLine
10
-56.4698504027618
20
8.40073270857100
30
0.000000000000000
11
-56.3698504027618
21
8.30808318750751
31
0.000000000000000
  0
LINE
  5
F10126
330
F10127
100
AcDbEntity
8
Geo
100
AcDbLine
10
-56.3698504027618
20
8.30808318750751
30
0.000000000000000
11
-56.2698504027618
21
8.21506200966891
31
0.000000000000000
  0
LINE
  5
F10128
330
F10129
100
AcDbEntity
8
Geo
100
AcDbLine
10
-56.2698504027618
20
8.21506200966891
30
0.000000000000000
11
-56.1698504027618
21
8.12167847709548
31
0.000000000000000
  0
LINE
  5
F1012A
330
F1012B
100
AcDbEntity
8
Geo
100
AcDbLine
10
-56.1698504027618
20
8.12167847709548
30
0.000000000000000
11
-56.0698504027618
21
8.02794192806265
31
0.000000000000000
  0
LINE
  5
F1012C
330
F1012D
100
AcDbEntity
8
Geo
100
AcDbLine
10
-56.0698504027618
20
8.02794192806265
30
0.000000000000000
11
-55.9698504027618
21
7.93386173614720
31
0.000000000000000
  0
LINE
  5
F1012E
330
F1012F
100
AcDbEntity
8
Geo
100
AcDbLine
10
-55.9698504027618
20
7.93386173614720
30
0.000000000000000
11
-55.8698504027618
21
7.83944730928994
31
0.000000000000000
  0
LINE
  5
F10130
330
F10131
100
AcDbEntity
8
Geo
100
AcDbLine
10
-55.8698504027618
20
7.83944730928994
30
0.000000000000000
11
-55.7698504027618
21
7.74470808885486
31
0.000000000000000
  0
LINE
  5
F10132
330
F10133
100
AcDbEntity
8
Geo
100
AcDbLine
10
-55.7698504027618
20
7.74470808885486
30
0.000000000000000
11
-55.6698504027618
21
7.64965354868507
31
0.000000000000000
  0
LINE
  5
F10134
330
F10135
100
AcDbEntity
8
Geo
100
AcDbLine
10
-55.6698504027618
20
7.64965354868507
30
0.000000000000000
11
-55.5698504027618
21
7.55429319415537
31
0.000000000000000
  0
LINE
  5
F10136
330
F10137
100
AcDbEntity
8
Geo
100
AcDbLine
10
-55.5698504027618
20
7.55429319415537
30
0.000000000000000
11
-55.4698504027618
21
7.45863656122173
31
0.000000000000000
  0
LINE
  5
F10138
330
F10139
100
AcDbEntity
8
Geo
100
AcDbLine
10
-55.4698504027618
20
7.45863656122173
30
0.000000000000000
11
-55.3698504027618
21
7.36269321546775
31
0.000000000000000
  0
LINE
  5
F1013A
330
F1013B
100
AcDbEntity
8
Geo
100
AcDbLine
10
-55.3698504027618
20
7.36269321546775
30
0.000000000000000
11
-55.2698504027618
21
7.26647275114805
31
0.000000000000000
  0
LINE
  5
F1013C
330
F1013D
100
AcDbEntity
8
Geo
100
AcDbLine
10
-55.2698504027618
20
7.26647275114805
30
0.000000000000000
11
-55.1698504027619
21
7.16998479022887
31
0.000000000000000
  0
LINE
  5
F1013E
330
F1013F
100
AcDbEntity
8
Geo
100
AcDbLine
10
-55.1698504027619
20
7.16998479022887
30
0.000000000000000
11
-55.0698504027619
21
7.07323898142591
31
0.000000000000000
  0
LINE
  5
F10140
330
F10141
100
AcDbEntity
8
Geo
100
AcDbLine
10
-55.0698504027619
20
7.07323898142591
30
0.000000000000000
11
-54.9698504027618
21
6.97624499923941
31
0.000000000000000
  0
LINE
  5
F10142
330
F10143
100
AcDbEntity
8
Geo
100
AcDbLine
10
-54.9698504027618
20
6.97624499923941
30
0.000000000000000
11
-54.8698504027618
21
6.87901254298677
31
0.000000000000000
  0
LINE
  5
F10144
330
F10145
100
AcDbEntity
8
Geo
100
AcDbLine
10
-54.8698504027618
20
6.87901254298677
30
0.000000000000000
11
-54.7698504027618
21
6.78155133583259
31
0.000000000000000
  0
LINE
  5
F10146
330
F10147
100
AcDbEntity
8
Geo
100
AcDbLine
10
-54.7698504027618
20
6.78155133583259
30
0.000000000000000
11
-54.6698504027619
21
6.68387112381637
31
0.000000000000000
  0
LINE
  5
F10148
330
F10149
100
AcDbEntity
8
Geo
100
AcDbLine
10
-54.6698504027619
20
6.68387112381637
30
0.000000000000000
11
-54.5698504027619
21
6.58598167487791
31
0.000000000000000
  0
LINE
  5
F1014A
330
F1014B
100
AcDbEntity
8
Geo
100
AcDbLine
10
-54.5698504027619
20
6.58598167487791
30
0.000000000000000
11
-54.4698504027618
21
6.48789277788052
31
0.000000000000000
  0
LINE
  5
F1014C
330
F1014D
100
AcDbEntity
8
Geo
100
AcDbLine
10
-54.4698504027618
20
6.48789277788052
30
0.000000000000000
11
-54.3698504027619
21
6.38961424163217
31
0.000000000000000
  0
LINE
  5
F1014E
330
F1014F
100
AcDbEntity
8
Geo
100
AcDbLine
10
-54.3698504027619
20
6.38961424163217
30
0.000000000000000
11
-54.2698504027619
21
6.29115589390459
31
0.000000000000000
  0
LINE
  5
F10150
330
F10151
100
AcDbEntity
8
Geo
100
AcDbLine
10
-54.2698504027619
20
6.29115589390459
30
0.000000000000000
11
-54.1698504027619
21
6.19252758045049
31
0.000000000000000
  0
LINE
  5
F10152
330
F10153
100
AcDbEntity
8
Geo
100
AcDbLine
10
-54.1698504027619
20
6.19252758045049
30
0.000000000000000
11
-54.0698504027619
21
6.09373916401903
31
0.000000000000000
  0
LINE
  5
F10154
330
F10155
100
AcDbEntity
8
Geo
100
AcDbLine
10
-54.0698504027619
20
6.09373916401903
30
0.000000000000000
11
-53.9698504027618
21
5.99480052336954
31
0.000000000000000
  0
LINE
  5
F10156
330
F10157
100
AcDbEntity
8
Geo
100
AcDbLine
10
-53.9698504027618
20
5.99480052336954
30
0.000000000000000
11
-53.8698504027619
21
5.89572155228363
31
0.000000000000000
  0
LINE
  5
F10158
330
F10159
100
AcDbEntity
8
Geo
100
AcDbLine
10
-53.8698504027619
20
5.89572155228363
30
0.000000000000000
11
-53.7698504027619
21
5.79651215857584
31
0.000000000000000
  0
LINE
  5
F1015A
330
F1015B
100
AcDbEntity
8
Geo
100
AcDbLine
10
-53.7698504027619
20
5.79651215857584
30
0.000000000000000
11
-53.6698504027619
21
5.69718226310287
31
0.000000000000000
  0
LINE
  5
F1015C
330
F1015D
100
AcDbEntity
8
Geo
100
AcDbLine
10
-53.6698504027619
20
5.69718226310287
30
0.000000000000000
11
-53.5698504027619
21
5.59774179877149
31
0.000000000000000
  0
LINE
  5
F1015E
330
F1015F
100
AcDbEntity
8
Geo
100
AcDbLine
10
-53.5698504027619
20
5.59774179877149
30
0.000000000000000
11
-53.4698504027619
21
5.49820070954527
31
0.000000000000000
  0
LINE
  5
F10160
330
F10161
100
AcDbEntity
8
Geo
100
AcDbLine
10
-53.4698504027619
20
5.49820070954527
30
0.000000000000000
11
-53.3698504027619
21
5.39856894945018
31
0.000000000000000
  0
LINE
  5
F10162
330
F10163
100
AcDbEntity
8
Geo
100
AcDbLine
10
-53.3698504027619
20
5.39856894945018
30
0.000000000000000
11
-53.2698504027619
21
5.29885648157920
31
0.000000000000000
  0
LINE
  5
F10164
330
F10165
100
AcDbEntity
8
Geo
100
AcDbLine
10
-53.2698504027619
20
5.29885648157920
30
0.000000000000000
11
-53.1698504027619
21
5.19907327709603
31
0.000000000000000
  0
LINE
  5
F10166
330
F10167
100
AcDbEntity
8
Geo
100
AcDbLine
10
-53.1698504027619
20
5.19907327709603
30
0.000000000000000
11
-53.0698504027619
21
5.09922931423797
31
0.000000000000000
  0
LINE
  5
F10168
330
F10169
100
AcDbEntity
8
Geo
100
AcDbLine
10
-53.0698504027619
20
5.09922931423797
30
0.000000000000000
11
-52.9698504027619
21
4.99933457731809
31
0.000000000000000
  0
LINE
  5
F1016A
330
F1016B
100
AcDbEntity
8
Geo
100
AcDbLine
10
-52.9698504027619
20
4.99933457731809
30
0.000000000000000
11
-52.8698504027619
21
4.89939905572684
31
0.000000000000000
  0
LINE
  5
F1016C
330
F1016D
100
AcDbEntity
8
Geo
100
AcDbLine
10
-52.8698504027619
20
4.89939905572684
30
0.000000000000000
11
-52.7698504027619
21
4.79943274293310
31
0.000000000000000
  0
LINE
  5
F1016E
330
F1016F
100
AcDbEntity
8
Geo
100
AcDbLine
10
-52.7698504027619
20
4.79943274293310
30
0.000000000000000
11
-52.6698504027619
21
4.69944563548485
31
0.000000000000000
  0
LINE
  5
F10170
330
F10171
100
AcDbEntity
8
Geo
100
AcDbLine
10
-52.6698504027619
20
4.69944563548485
30
0.000000000000000
11
-52.5698504027619
21
4.59944773200951
31
0.000000000000000
  0
LINE
  5
F10172
330
F10173
100
AcDbEntity
8
Geo
100
AcDbLine
10
-52.5698504027619
20
4.59944773200951
30
0.000000000000000
11
-52.4698504027619
21
4.49944903221409
31
0.000000000000000
  0
LINE
  5
F10174
330
F10175
100
AcDbEntity
8
Geo
100
AcDbLine
10
-52.4698504027619
20
4.49944903221409
30
0.000000000000000
11
-52.3698504027619
21
4.39945953588525
31
0.000000000000000
  0
LINE
  5
F10176
330
F10177
100
AcDbEntity
8
Geo
100
AcDbLine
10
-52.3698504027619
20
4.39945953588525
30
0.000000000000000
11
-52.2698504027619
21
4.29948924188929
31
0.000000000000000
  0
LINE
  5
F10178
330
F10179
100
AcDbEntity
8
Geo
100
AcDbLine
10
-52.2698504027619
20
4.29948924188929
30
0.000000000000000
11
-52.1698504027619
21
4.19954814717230
31
0.000000000000000
  0
LINE
  5
F1017A
330
F1017B
100
AcDbEntity
8
Geo
100
AcDbLine
10
-52.1698504027619
20
4.19954814717230
30
0.000000000000000
11
-52.0698504027619
21
4.09964624576047
31
0.000000000000000
  0
LINE
  5
F1017C
330
F1017D
100
AcDbEntity
8
Geo
100
AcDbLine
10
-52.0698504027619
20
4.09964624576047
30
0.000000000000000
11
-51.9698504027619
21
3.99979352776069
31
0.000000000000000
  0
LINE
  5
F1017E
330
F1017F
100
AcDbEntity
8
Geo
100
AcDbLine
10
-51.9698504027619
20
3.99979352776069
30
0.000000000000000
11
-51.8698504027619
21
3.89999997836155
31
0.000000000000000
  0
LINE
  5
F10180
330
F10181
100
AcDbEntity
8
Geo
100
AcDbLine
10
-51.8698504027619
20
3.89999997836155
30
0.000000000000000
11
-51.7698504027619
21
3.80027557683483
31
0.000000000000000
  0
LINE
  5
F10182
330
F10183
100
AcDbEntity
8
Geo
100
AcDbLine
10
-51.7698504027619
20
3.80027557683483
30
0.000000000000000
11
-51.6698504027619
21
3.70063029553757
31
0.000000000000000
  0
LINE
  5
F10184
330
F10185
100
AcDbEntity
8
Geo
100
AcDbLine
10
-51.6698504027619
20
3.70063029553757
30
0.000000000000000
11
-51.5698504027619
21
3.60107409891488
31
0.000000000000000
  0
LINE
  5
F10186
330
F10187
100
AcDbEntity
8
Geo
100
AcDbLine
10
-51.5698504027619
20
3.60107409891488
30
0.000000000000000
11
-51.4698504027618
21
3.50161694250345
31
0.000000000000000
  0
LINE
  5
F10188
330
F10189
100
AcDbEntity
8
Geo
100
AcDbLine
10
-51.4698504027618
20
3.50161694250345
30
0.000000000000000
11
-51.3698504027618
21
3.40226877193603
31
0.000000000000000
  0
LINE
  5
F1018A
330
F1018B
100
AcDbEntity
8
Geo
100
AcDbLine
10
-51.3698504027618
20
3.40226877193603
30
0.000000000000000
11
-51.2698504027618
21
3.30303952194691
31
0.000000000000000
  0
LINE
  5
F1018C
330
F1018D
100
AcDbEntity
8
Geo
100
AcDbLine
10
-51.2698504027618
20
3.30303952194691
30
0.000000000000000
11
-51.1698504027618
21
3.20393911537838
31
0.000000000000000
  0
LINE
  5
F1018E
330
F1018F
100
AcDbEntity
8
Geo
100
AcDbLine
10
-51.1698504027618
20
3.20393911537838
30
0.000000000000000
11
-51.0698504027618
21
3.10497746218851
31
0.000000000000000
  0
LINE
  5
F10190
330
F10191
100
AcDbEntity
8
Geo
100
AcDbLine
10
-51.0698504027618
20
3.10497746218851
30
0.000000000000000
11
-50.9698504027618
21
3.00616445846017
31
0.000000000000000
  0
LINE
  5
F10192
330
F10193
100
AcDbEntity
8
Geo
100
AcDbLine
10
-50.9698504027618
20
3.00616445846017
30
0.000000000000000
11
-50.8698504027618
21
2.90750998541137
31
0.000000000000000
  0
LINE
  5
F10194
330
F10195
100
AcDbEntity
8
Geo
100
AcDbLine
10
-50.8698504027618
20
2.90750998541137
30
0.000000000000000
11
-50.7698504027618
21
2.80902390840722
31
0.000000000000000
  0
LINE
  5
F10196
330
F10197
100
AcDbEntity
8
Geo
100
AcDbLine
10
-50.7698504027618
20
2.80902390840722
30
0.000000000000000
11
-50.6698504027618
21
2.71071607597334
31
0.000000000000000
  0
LINE
  5
F10198
330
F10199
100
AcDbEntity
8
Geo
100
AcDbLine
10
-50.6698504027618
20
2.71071607597334
30
0.000000000000000
11
-50.5698504027618
21
2.61259631881105
31
0.000000000000000
  0
LINE
  5
F1019A
330
F1019B
100
AcDbEntity
8
Geo
100
AcDbLine
10
-50.5698504027618
20
2.61259631881105
30
0.000000000000000
11
-50.4698504027618
21
2.51467444881430
31
0.000000000000000
  0
LINE
  5
F1019C
330
F1019D
100
AcDbEntity
8
Geo
100
AcDbLine
10
-50.4698504027618
20
2.51467444881430
30
0.000000000000000
11
-50.3698504027618
21
2.41696025808849
31
0.000000000000000
  0
LINE
  5
F1019E
330
F1019F
100
AcDbEntity
8
Geo
100
AcDbLine
10
-50.3698504027618
20
2.41696025808849
30
0.000000000000000
11
-50.2698504027618
21
2.31946351797126
31
0.000000000000000
  0
LINE
  5
F101A0
330
F101A1
100
AcDbEntity
8
Geo
100
AcDbLine
10
-50.2698504027618
20
2.31946351797126
30
0.000000000000000
11
-50.1698504027618
21
2.22219397805538
31
0.000000000000000
  0
LINE
  5
F101A2
330
F101A3
100
AcDbEntity
8
Geo
100
AcDbLine
10
-50.1698504027618
20
2.22219397805538
30
0.000000000000000
11
-50.0698504027618
21
2.12516136521379
31
0.000000000000000
  0
LINE
  5
F101A4
330
F101A5
100
AcDbEntity
8
Geo
100
AcDbLine
10
-50.0698504027618
20
2.12516136521379
30
0.000000000000000
11
-49.9698504027618
21
2.02837538262690
31
0.000000000000000
  0
LINE
  5
F101A6
330
F101A7
100
AcDbEntity
8
Geo
100
AcDbLine
10
-49.9698504027618
20
2.02837538262690
30
0.000000000000000
11
-49.8698504027618
21
1.93184570881232
31
0.000000000000000
  0
LINE
  5
F101A8
330
F101A9
100
AcDbEntity
8
Geo
100
AcDbLine
10
-49.8698504027618
20
1.93184570881232
30
0.000000000000000
11
-49.7698504027618
21
1.83558199665699
31
0.000000000000000
  0
LINE
  5
F101AA
330
F101AB
100
AcDbEntity
8
Geo
100
AcDbLine
10
-49.7698504027618
20
1.83558199665699
30
0.000000000000000
11
-49.6698504027618
21
1.73959387245191
31
0.000000000000000
  0
LINE
  5
F101AC
330
F101AD
100
AcDbEntity
8
Geo
100
AcDbLine
10
-49.6698504027618
20
1.73959387245191
30
0.000000000000000
11
-49.5698504027618
21
1.64389093492951
31
0.000000000000000
  0
LINE
  5
F101AE
330
F101AF
100
AcDbEntity
8
Geo
100
AcDbLine
10
-49.5698504027618
20
1.64389093492951
30
0.000000000000000
11
-49.4698504027618
21
1.54848275430378
31
0.000000000000000
  0
LINE
  5
F101B0
330
F101B1
100
AcDbEntity
8
Geo
100
AcDbLine
10
-49.4698504027618
20
1.54848275430378
30
0.000000000000000
11
-49.3698504027618
21
1.45337887131329
31
0.000000000000000
  0
LINE
  5
F101B2
330
F101B3
100
AcDbEntity
8
Geo
100
AcDbLine
10
-49.3698504027618
20
1.45337887131329
30
0.000000000000000
11
-49.2698504027618
21
1.35858879626708
31
0.000000000000000
  0
LINE
  5
F101B4
330
F101B5
100
AcDbEntity
8
Geo
100
AcDbLine
10
-49.2698504027618
20
1.35858879626708
30
0.000000000000000
11
-49.1698504027618
21
1.26412200809366
31
0.000000000000000
  0
LINE
  5
F101B6
330
F101B7
100
AcDbEntity
8
Geo
100
AcDbLine
10
-49.1698504027618
20
1.26412200809366
30
0.000000000000000
11
-49.0698504027618
21
1.16998795339313
31
0.000000000000000
  0
LINE
  5
F101B8
330
F101B9
100
AcDbEntity
8
Geo
100
AcDbLine
10
-49.0698504027618
20
1.16998795339313
30
0.000000000000000
11
-48.9698504027618
21
1.07619604549251
31
0.000000000000000
  0
LINE
  5
F101BA
330
F101BB
100
AcDbEntity
8
Geo
100
AcDbLine
10
-48.9698504027618
20
1.07619604549251
30
0.000000000000000
11
-48.8698504027618
21
0.982755663504432
31
0.000000000000000
  0
LINE
  5
F101BC
330
F101BD
100
AcDbEntity
8
Geo
100
AcDbLine
10
-48.8698504027618
20
0.982755663504432
30
0.000000000000000
11
-48.7698504027618
21
0.889676151389233
31
0.000000000000000
  0
LINE
  5
F101BE
330
F101BF
100
AcDbEntity
8
Geo
100
AcDbLine
10
-48.7698504027618
20
0.889676151389233
30
0.000000000000000
11
-48.6698504027618
21
0.796966817020555
31
0.000000000000000
  0
LINE
  5
F101C0
330
F101C1
100
AcDbEntity
8
Geo
100
AcDbLine
10
-48.6698504027618
20
0.796966817020555
30
0.000000000000000
11
-48.5698504027618
21
0.704636931254578
31
0.000000000000000
  0
LINE
  5
F101C2
330
F101C3
100
AcDbEntity
8
Geo
100
AcDbLine
10
-48.5698504027618
20
0.704636931254578
30
0.000000000000000
11
-48.4698504027618
21
0.612695727002937
31
0.000000000000000
  0
LINE
  5
F101C4
330
F101C5
100
AcDbEntity
8
Geo
100
AcDbLine
10
-48.4698504027618
20
0.612695727002937
30
0.000000000000000
11
-48.3698504027618
21
0.521152398309439
31
0.000000000000000
  0
LINE
  5
F101C6
330
F101C7
100
AcDbEntity
8
Geo
100
AcDbLine
10
-48.3698504027618
20
0.521152398309439
30
0.000000000000000
11
-48.2698504027618
21
0.430016099430672
31
0.000000000000000
  0
LINE
  5
F101C8
330
F101C9
100
AcDbEntity
8
Geo
100
AcDbLine
10
-48.2698504027618
20
0.430016099430672
30
0.000000000000000
11
-48.1698504027618
21
0.339295943920570
31
0.000000000000000
  0
LINE
  5
F101CA
330
F101CB
100
AcDbEntity
8
Geo
100
AcDbLine
10
-48.1698504027618
20
0.339295943920570
30
0.000000000000000
11
-48.0698504027618
21
0.249001003719088
31
0.000000000000000
  0
LINE
  5
F101CC
330
F101CD
100
AcDbEntity
8
Geo
100
AcDbLine
10
-48.0698504027618
20
0.249001003719088
30
0.000000000000000
11
-47.9698504027618
21
0.159140308244999
31
0.000000000000000
  0
LINE
  5
F101CE
330
F101CF
100
AcDbEntity
8
Geo
100
AcDbLine
10
-47.9698504027618
20
0.159140308244999
30
0.000000000000000
11
-47.8698504027618
21
0.0697228434929702
31
0.000000000000000
  0
LINE
  5
F101D0
330
F101D1
100
AcDbEntity
8
Geo
100
AcDbLine
10
-47.8698504027618
20
0.0697228434929702
30
0.000000000000000
11
-47.7698504027618
21
-0.0192424488650413
31
0.000000000000000
  0
LINE
  5
F101D2
330
F101D3
100
AcDbEntity
8
Geo
100
AcDbLine
10
-47.7698504027618
20
-0.0192424488650413
30
0.000000000000000
11
-47.6698504027618
21
-0.107746672373937
31
0.000000000000000
  0
LINE
  5
F101D4
330
F101D5
100
AcDbEntity
8
Geo
100
AcDbLine
10
-47.6698504027618
20
-0.107746672373937
30
0.000000000000000
11
-47.5698504027618
21
-0.195780976685115
31
0.000000000000000
  0
LINE
  5
F101D6
330
F101D7
100
AcDbEntity
8
Geo
100
AcDbLine
10
-47.5698504027618
20
-0.195780976685115
30
0.000000000000000
11
-47.4698504027618
21
-0.283336558441510
31
0.000000000000000
  0
LINE
  5
F101D8
330
F101D9
100
AcDbEntity
8
Geo
100
AcDbLine
10
-47.4698504027618
20
-0.283336558441510
30
0.000000000000000
11
-47.3698504027618
21
-0.370404662157909
31
0.000000000000000
  0
LINE
  5
F101DA
330
F101DB
100
AcDbEntity
8
Geo
100
AcDbLine
10
-47.3698504027618
20
-0.370404662157909
30
0.000000000000000
11
-47.2698504027618
21
-0.456976581096495
31
0.000000000000000
  0
LINE
  5
F101DC
330
F101DD
100
AcDbEntity
8
Geo
100
AcDbLine
10
-47.2698504027618
20
-0.456976581096495
30
0.000000000000000
11
-47.1698504027618
21
-0.543043658137518
31
0.000000000000000
  0
LINE
  5
F101DE
330
F101DF
100
AcDbEntity
8
Geo
100
AcDbLine
10
-47.1698504027618
20
-0.543043658137518
30
0.000000000000000
11
-47.0698504027618
21
-0.628597286644995
31
0.000000000000000
  0
LINE
  5
F101E0
330
F101E1
100
AcDbEntity
8
Geo
100
AcDbLine
10
-47.0698504027618
20
-0.628597286644995
30
0.000000000000000
11
-46.9698504027618
21
-0.713628911327373
31
0.000000000000000
  0
LINE
  5
F101E2
330
F101E3
100
AcDbEntity
8
Geo
100
AcDbLine
10
-46.9698504027618
20
-0.713628911327373
30
0.000000000000000
11
-46.8698504027618
21
-0.798130029093040
31
0.000000000000000
  0
LINE
  5
F101E4
330
F101E5
100
AcDbEntity
8
Geo
100
AcDbLine
10
-46.8698504027618
20
-0.798130029093040
30
0.000000000000000
11
-46.7698504027618
21
-0.882092189900638
31
0.000000000000000
  0
LINE
  5
F101E6
330
F101E7
100
AcDbEntity
8
Geo
100
AcDbLine
10
-46.7698504027618
20
-0.882092189900638
30
0.000000000000000
11
-46.6698504027618
21
-0.965506997604054
31
0.000000000000000
  0
LINE
  5
F101E8
330
F101E9
100
AcDbEntity
8
Geo
100
AcDbLine
10
-46.6698504027618
20
-0.965506997604054
30
0.000000000000000
11
-46.5698504027618
21
-1.04836611079203
31
0.000000000000000
  0
LINE
  5
F101EA
330
F101EB
100
AcDbEntity
8
Geo
100
AcDbLine
10
-46.5698504027618
20
-1.04836611079203
30
0.000000000000000
11
-46.4698504027618
21
-1.13066124362230
31
0.000000000000000
  0
LINE
  5
F101EC
330
F101ED
100
AcDbEntity
8
Geo
100
AcDbLine
10
-46.4698504027618
20
-1.13066124362230
30
0.000000000000000
11
-46.3698504027618
21
-1.21238416665015
31
0.000000000000000
  0
LINE
  5
F101EE
330
F101EF
100
AcDbEntity
8
Geo
100
AcDbLine
10
-46.3698504027618
20
-1.21238416665015
30
0.000000000000000
11
-46.2698504027618
21
-1.29352670765139
31
0.000000000000000
  0
LINE
  5
F101F0
330
F101F1
100
AcDbEntity
8
Geo
100
AcDbLine
10
-46.2698504027618
20
-1.29352670765139
30
0.000000000000000
11
-46.1698504027618
21
-1.37408075243953
31
0.000000000000000
  0
LINE
  5
F101F2
330
F101F3
100
AcDbEntity
8
Geo
100
AcDbLine
10
-46.1698504027618
20
-1.37408075243953
30
0.000000000000000
11
-46.0698504027618
21
-1.45403824567723
31
0.000000000000000
  0
LINE
  5
F101F4
330
F101F5
100
AcDbEntity
8
Geo
100
AcDbLine
10
-46.0698504027618
20
-1.45403824567723
30
0.000000000000000
11
-45.9698504027618
21
-1.53339119168179
31
0.000000000000000
  0
LINE
  5
F101F6
330
F101F7
100
AcDbEntity
8
Geo
100
AcDbLine
10
-45.9698504027618
20
-1.53339119168179
30
0.000000000000000
11
-45.8698504027618
21
-1.61213165522473
31
0.000000000000000
  0
LINE
  5
F101F8
330
F101F9
100
AcDbEntity
8
Geo
100
AcDbLine
10
-45.8698504027618
20
-1.61213165522473
30
0.000000000000000
11
-45.7698504027618
21
-1.69025176232533
31
0.000000000000000
  0
LINE
  5
F101FA
330
F101FB
100
AcDbEntity
8
Geo
100
AcDbLine
10
-45.7698504027618
20
-1.69025176232533
30
0.000000000000000
11
-45.6698504027618
21
-1.76774370103796
31
0.000000000000000
  0
LINE
  5
F101FC
330
F101FD
100
AcDbEntity
8
Geo
100
AcDbLine
10
-45.6698504027618
20
-1.76774370103796
30
0.000000000000000
11
-45.5698504027618
21
-1.84459972223334
31
0.000000000000000
  0
LINE
  5
F101FE
330
F101FF
100
AcDbEntity
8
Geo
100
AcDbLine
10
-45.5698504027618
20
-1.84459972223334
30
0.000000000000000
11
-45.4698504027618
21
-1.92081214037340
31
0.000000000000000
  0
LINE
  5
F10200
330
F10201
100
AcDbEntity
8
Geo
100
AcDbLine
10
-45.4698504027618
20
-1.92081214037340
30
0.000000000000000
11
-45.3698504027618
21
-1.99637333427982
31
0.000000000000000
  0
LINE
  5
F10202
330
F10203
100
AcDbEntity
8
Geo
100
AcDbLine
10
-45.3698504027618
20
-1.99637333427982
30
0.000000000000000
11
-45.2698504027618
21
-2.07127574789618
31
0.000000000000000
  0
LINE
  5
F10204
330
F10205
100
AcDbEntity
8
Geo
100
AcDbLine
10
-45.2698504027618
20
-2.07127574789618
30
0.000000000000000
11
-45.1698504027618
21
-2.14551189104355
31
0.000000000000000
  0
LINE
  5
F10206
330
F10207
100
AcDbEntity
8
Geo
100
AcDbLine
10
-45.1698504027618
20
-2.14551189104355
30
0.000000000000000
11
-45.0698504027618
21
-2.21907434016947
31
0.000000000000000
  0
LINE
  5
F10208
330
F10209
100
AcDbEntity
8
Geo
100
AcDbLine
10
-45.0698504027618
20
-2.21907434016947
30
0.000000000000000
11
-44.9698504027618
21
-2.29195573909033
31
0.000000000000000
  0
LINE
  5
F1020A
330
F1020B
100
AcDbEntity
8
Geo
100
AcDbLine
10
-44.9698504027618
20
-2.29195573909033
30
0.000000000000000
11
-44.8698504027618
21
-2.36414879972696
31
0.000000000000000
  0
LINE
  5
F1020C
330
F1020D
100
AcDbEntity
8
Geo
100
AcDbLine
10
-44.8698504027618
20
-2.36414879972696
30
0.000000000000000
11
-44.7698504027618
21
-2.43564630283348
31
0.000000000000000
  0
LINE
  5
F1020E
330
F1020F
100
AcDbEntity
8
Geo
100
AcDbLine
10
-44.7698504027618
20
-2.43564630283348
30
0.000000000000000
11
-44.6698504027618
21
-2.50644109871915
31
0.000000000000000
  0
LINE
  5
F10210
330
F10211
100
AcDbEntity
8
Geo
100
AcDbLine
10
-44.6698504027618
20
-2.50644109871915
30
0.000000000000000
11
-44.5698504027618
21
-2.57652610796337
31
0.000000000000000
  0
LINE
  5
F10212
330
F10213
100
AcDbEntity
8
Geo
100
AcDbLine
10
-44.5698504027618
20
-2.57652610796337
30
0.000000000000000
11
-44.4698504027618
21
-2.64589432212363
31
0.000000000000000
  0
LINE
  5
F10214
330
F10215
100
AcDbEntity
8
Geo
100
AcDbLine
10
-44.4698504027618
20
-2.64589432212363
30
0.000000000000000
11
-44.3698504027617
21
-2.71453880443632
31
0.000000000000000
  0
LINE
  5
F10216
330
F10217
100
AcDbEntity
8
Geo
100
AcDbLine
10
-44.3698504027617
20
-2.71453880443632
30
0.000000000000000
11
-44.2698504027617
21
-2.78245269051040
31
0.000000000000000
  0
LINE
  5
F10218
330
F10219
100
AcDbEntity
8
Geo
100
AcDbLine
10
-44.2698504027617
20
-2.78245269051040
30
0.000000000000000
11
-44.1698504027617
21
-2.84962918901387
31
0.000000000000000
  0
LINE
  5
F1021A
330
F1021B
100
AcDbEntity
8
Geo
100
AcDbLine
10
-44.1698504027617
20
-2.84962918901387
30
0.000000000000000
11
-44.0698504027617
21
-2.91606158235285
31
0.000000000000000
  0
LINE
  5
F1021C
330
F1021D
100
AcDbEntity
8
Geo
100
AcDbLine
10
-44.0698504027617
20
-2.91606158235285
30
0.000000000000000
11
-43.9698504027617
21
-2.98174322734338
31
0.000000000000000
  0
LINE
  5
F1021E
330
F1021F
100
AcDbEntity
8
Geo
100
AcDbLine
10
-43.9698504027617
20
-2.98174322734338
30
0.000000000000000
11
-43.8698504027617
21
-3.04666755587569
31
0.000000000000000
  0
LINE
  5
F10220
330
F10221
100
AcDbEntity
8
Geo
100
AcDbLine
10
-43.8698504027617
20
-3.04666755587569
30
0.000000000000000
11
-43.7698504027617
21
-3.11082807557102
31
0.000000000000000
  0
LINE
  5
F10222
330
F10223
100
AcDbEntity
8
Geo
100
AcDbLine
10
-43.7698504027617
20
-3.11082807557102
30
0.000000000000000
11
-43.6698504027617
21
-3.17421837043088
31
0.000000000000000
  0
LINE
  5
F10224
330
F10225
100
AcDbEntity
8
Geo
100
AcDbLine
10
-43.6698504027617
20
-3.17421837043088
30
0.000000000000000
11
-43.5698504027617
21
-3.23683210147860
31
0.000000000000000
  0
LINE
  5
F10226
330
F10227
100
AcDbEntity
8
Geo
100
AcDbLine
10
-43.5698504027617
20
-3.23683210147860
30
0.000000000000000
11
-43.4698504027617
21
-3.29866300739326
31
0.000000000000000
  0
LINE
  5
F10228
330
F10229
100
AcDbEntity
8
Geo
100
AcDbLine
10
-43.4698504027617
20
-3.29866300739326
30
0.000000000000000
11
-43.3698504027617
21
-3.35970490513579
31
0.000000000000000
  0
LINE
  5
F1022A
330
F1022B
100
AcDbEntity
8
Geo
100
AcDbLine
10
-43.3698504027617
20
-3.35970490513579
30
0.000000000000000
11
-43.2698504027617
21
-3.41995169056728
31
0.000000000000000
  0
LINE
  5
F1022C
330
F1022D
100
AcDbEntity
8
Geo
100
AcDbLine
10
-43.2698504027617
20
-3.41995169056728
30
0.000000000000000
11
-43.1698504027617
21
-3.47939733905941
31
0.000000000000000
  0
LINE
  5
F1022E
330
F1022F
100
AcDbEntity
8
Geo
100
AcDbLine
10
-43.1698504027617
20
-3.47939733905941
30
0.000000000000000
11
-43.0698504027617
21
-3.53803590609684
31
0.000000000000000
  0
LINE
  5
F10230
330
F10231
100
AcDbEntity
8
Geo
100
AcDbLine
10
-43.0698504027617
20
-3.53803590609684
30
0.000000000000000
11
-42.9698504027617
21
-3.59586152787176
31
0.000000000000000
  0
LINE
  5
F10232
330
F10233
100
AcDbEntity
8
Geo
100
AcDbLine
10
-42.9698504027617
20
-3.59586152787176
30
0.000000000000000
11
-42.8698504027617
21
-3.65286842187017
31
0.000000000000000
  0
LINE
  5
F10234
330
F10235
100
AcDbEntity
8
Geo
100
AcDbLine
10
-42.8698504027617
20
-3.65286842187017
30
0.000000000000000
11
-42.7698504027617
21
-3.70905088745016
31
0.000000000000000
  0
LINE
  5
F10236
330
F10237
100
AcDbEntity
8
Geo
100
AcDbLine
10
-42.7698504027617
20
-3.70905088745016
30
0.000000000000000
11
-42.6698504027617
21
-3.76440330641202
31
0.000000000000000
  0
LINE
  5
F10238
330
F10239
100
AcDbEntity
8
Geo
100
AcDbLine
10
-42.6698504027617
20
-3.76440330641202
30
0.000000000000000
11
-42.5698504027617
21
-3.81892014355996
31
0.000000000000000
  0
LINE
  5
F1023A
330
F1023B
100
AcDbEntity
8
Geo
100
AcDbLine
10
-42.5698504027617
20
-3.81892014355996
30
0.000000000000000
11
-42.4698504027617
21
-3.87259594725570
31
0.000000000000000
  0
LINE
  5
F1023C
330
F1023D
100
AcDbEntity
8
Geo
100
AcDbLine
10
-42.4698504027617
20
-3.87259594725570
30
0.000000000000000
11
-42.3698504027617
21
-3.92542534996360
31
0.000000000000000
  0
LINE
  5
F1023E
330
F1023F
100
AcDbEntity
8
Geo
100
AcDbLine
10
-42.3698504027617
20
-3.92542534996360
30
0.000000000000000
11
-42.2698504027617
21
-3.97740306878741
31
0.000000000000000
  0
LINE
  5
F10240
330
F10241
100
AcDbEntity
8
Geo
100
AcDbLine
10
-42.2698504027617
20
-3.97740306878741
30
0.000000000000000
11
-42.1698504027617
21
-4.02852390599857
31
0.000000000000000
  0
LINE
  5
F10242
330
F10243
100
AcDbEntity
8
Geo
100
AcDbLine
10
-42.1698504027617
20
-4.02852390599857
30
0.000000000000000
11
-42.0698504027617
21
-4.07878274955596
31
0.000000000000000
  0
LINE
  5
F10244
330
F10245
100
AcDbEntity
8
Geo
100
AcDbLine
10
-42.0698504027617
20
-4.07878274955596
30
0.000000000000000
11
-41.9698504027617
21
-4.12817457361710
31
0.000000000000000
  0
LINE
  5
F10246
330
F10247
100
AcDbEntity
8
Geo
100
AcDbLine
10
-41.9698504027617
20
-4.12817457361710
30
0.000000000000000
11
-41.8698504027617
21
-4.17669443904075
31
0.000000000000000
  0
LINE
  5
F10248
330
F10249
100
AcDbEntity
8
Geo
100
AcDbLine
10
-41.8698504027617
20
-4.17669443904075
30
0.000000000000000
11
-41.7698504027617
21
-4.22433749388079
31
0.000000000000000
  0
LINE
  5
F1024A
330
F1024B
100
AcDbEntity
8
Geo
100
AcDbLine
10
-41.7698504027617
20
-4.22433749388079
30
0.000000000000000
11
-41.6698504027617
21
-4.27109897387145
31
0.000000000000000
  0
LINE
  5
F1024C
330
F1024D
100
AcDbEntity
8
Geo
100
AcDbLine
10
-41.6698504027617
20
-4.27109897387145
30
0.000000000000000
11
-41.5698504027617
21
-4.31697420290370
31
0.000000000000000
  0
LINE
  5
F1024E
330
F1024F
100
AcDbEntity
8
Geo
100
AcDbLine
10
-41.5698504027617
20
-4.31697420290370
30
0.000000000000000
11
-41.4698504027617
21
-4.36195859349285
31
0.000000000000000
  0
LINE
  5
F10250
330
F10251
100
AcDbEntity
8
Geo
100
AcDbLine
10
-41.4698504027617
20
-4.36195859349285
30
0.000000000000000
11
-41.3698504027617
21
-4.40604764723734
31
0.000000000000000
  0
LINE
  5
F10252
330
F10253
100
AcDbEntity
8
Geo
100
AcDbLine
10
-41.3698504027617
20
-4.40604764723734
30
0.000000000000000
11
-41.2698504027617
21
-4.44923695526854
31
0.000000000000000
  0
LINE
  5
F10254
330
F10255
100
AcDbEntity
8
Geo
100
AcDbLine
10
-41.2698504027617
20
-4.44923695526854
30
0.000000000000000
11
-41.1698504027617
21
-4.49152219869163
31
0.000000000000000
  0
LINE
  5
F10256
330
F10257
100
AcDbEntity
8
Geo
100
AcDbLine
10
-41.1698504027617
20
-4.49152219869163
30
0.000000000000000
11
-41.0698504027617
21
-4.53289914901750
31
0.000000000000000
  0
LINE
  5
F10258
330
F10259
100
AcDbEntity
8
Geo
100
AcDbLine
10
-41.0698504027617
20
-4.53289914901750
30
0.000000000000000
11
-40.9698504027617
21
-4.57336366858562
31
0.000000000000000
  0
LINE
  5
F1025A
330
F1025B
100
AcDbEntity
8
Geo
100
AcDbLine
10
-40.9698504027617
20
-4.57336366858562
30
0.000000000000000
11
-40.8698504027617
21
-4.61291171097773
31
0.000000000000000
  0
LINE
  5
F1025C
330
F1025D
100
AcDbEntity
8
Geo
100
AcDbLine
10
-40.8698504027617
20
-4.61291171097773
30
0.000000000000000
11
-40.7698504027617
21
-4.65153932142256
31
0.000000000000000
  0
LINE
  5
F1025E
330
F1025F
100
AcDbEntity
8
Geo
100
AcDbLine
10
-40.7698504027617
20
-4.65153932142256
30
0.000000000000000
11
-40.6698504027617
21
-4.68924263719125
31
0.000000000000000
  0
LINE
  5
F10260
330
F10261
100
AcDbEntity
8
Geo
100
AcDbLine
10
-40.6698504027617
20
-4.68924263719125
30
0.000000000000000
11
-40.5698504027617
21
-4.72601788798364
31
0.000000000000000
  0
LINE
  5
F10262
330
F10263
100
AcDbEntity
8
Geo
100
AcDbLine
10
-40.5698504027617
20
-4.72601788798364
30
0.000000000000000
11
-40.4698504027617
21
-4.76186139630530
31
0.000000000000000
  0
LINE
  5
F10264
330
F10265
100
AcDbEntity
8
Geo
100
AcDbLine
10
-40.4698504027617
20
-4.76186139630530
30
0.000000000000000
11
-40.3698504027617
21
-4.79676957783528
31
0.000000000000000
  0
LINE
  5
F10266
330
F10267
100
AcDbEntity
8
Geo
100
AcDbLine
10
-40.3698504027617
20
-4.79676957783528
30
0.000000000000000
11
-40.2698504027617
21
-4.83073894178449
31
0.000000000000000
  0
LINE
  5
F10268
330
F10269
100
AcDbEntity
8
Geo
100
AcDbLine
10
-40.2698504027617
20
-4.83073894178449
30
0.000000000000000
11
-40.1698504027617
21
-4.86376609124487
31
0.000000000000000
  0
LINE
  5
F1026A
330
F1026B
100
AcDbEntity
8
Geo
100
AcDbLine
10
-40.1698504027617
20
-4.86376609124487
30
0.000000000000000
11
-40.0698504027617
21
-4.89584772352898
31
0.000000000000000
  0
LINE
  5
F1026C
330
F1026D
100
AcDbEntity
8
Geo
100
AcDbLine
10
-40.0698504027617
20
-4.89584772352898
30
0.000000000000000
11
-39.9698504027617
21
-4.92698063050033
31
0.000000000000000
  0
LINE
  5
F1026E
330
F1026F
100
AcDbEntity
8
Geo
100
AcDbLine
10
-39.9698504027617
20
-4.92698063050033
30
0.000000000000000
11
-39.8698504027617
21
-4.95716169889417
31
0.000000000000000
  0
LINE
  5
F10270
330
F10271
100
AcDbEntity
8
Geo
100
AcDbLine
10
-39.8698504027617
20
-4.95716169889417
30
0.000000000000000
11
-39.7698504027617
21
-4.98638791062880
31
0.000000000000000
  0
LINE
  5
F10272
330
F10273
100
AcDbEntity
8
Geo
100
AcDbLine
10
-39.7698504027617
20
-4.98638791062880
30
0.000000000000000
11
-39.6698504027617
21
-5.01465634310742
31
0.000000000000000
  0
LINE
  5
F10274
330
F10275
100
AcDbEntity
8
Geo
100
AcDbLine
10
-39.6698504027617
20
-5.01465634310742
30
0.000000000000000
11
-39.5698504027617
21
-5.04196416951033
31
0.000000000000000
  0
LINE
  5
F10276
330
F10277
100
AcDbEntity
8
Geo
100
AcDbLine
10
-39.5698504027617
20
-5.04196416951033
30
0.000000000000000
11
-39.4698504027617
21
-5.06830865907764
31
0.000000000000000
  0
LINE
  5
F10278
330
F10279
100
AcDbEntity
8
Geo
100
AcDbLine
10
-39.4698504027617
20
-5.06830865907764
30
0.000000000000000
11
-39.3698504027617
21
-5.09368717738236
31
0.000000000000000
  0
LINE
  5
F1027A
330
F1027B
100
AcDbEntity
8
Geo
100
AcDbLine
10
-39.3698504027617
20
-5.09368717738236
30
0.000000000000000
11
-39.2698504027617
21
-5.11809718659380
31
0.000000000000000
  0
LINE
  5
F1027C
330
F1027D
100
AcDbEntity
8
Geo
100
AcDbLine
10
-39.2698504027617
20
-5.11809718659380
30
0.000000000000000
11
-39.1698504027617
21
-5.14153624573138
31
0.000000000000000
  0
LINE
  5
F1027E
330
F1027F
100
AcDbEntity
8
Geo
100
AcDbLine
10
-39.1698504027617
20
-5.14153624573138
30
0.000000000000000
11
-39.0698504027617
21
-5.16400201090871
31
0.000000000000000
  0
LINE
  5
F10280
330
F10281
100
AcDbEntity
8
Geo
100
AcDbLine
10
-39.0698504027617
20
-5.16400201090871
30
0.000000000000000
11
-38.9698504027617
21
-5.18549223556801
31
0.000000000000000
  0
LINE
  5
F10282
330
F10283
100
AcDbEntity
8
Geo
100
AcDbLine
10
-38.9698504027617
20
-5.18549223556801
30
0.000000000000000
11
-38.8698504027617
21
-5.20600477070473
31
0.000000000000000
  0
LINE
  5
F10284
330
F10285
100
AcDbEntity
8
Geo
100
AcDbLine
10
-38.8698504027617
20
-5.20600477070473
30
0.000000000000000
11
-38.7698504027617
21
-5.22553756508242
31
0.000000000000000
  0
LINE
  5
F10286
330
F10287
100
AcDbEntity
8
Geo
100
AcDbLine
10
-38.7698504027617
20
-5.22553756508242
30
0.000000000000000
11
-38.6698504027617
21
-5.24408866543794
31
0.000000000000000
  0
LINE
  5
F10288
330
F10289
100
AcDbEntity
8
Geo
100
AcDbLine
10
-38.6698504027617
20
-5.24408866543794
30
0.000000000000000
11
-38.5698504027617
21
-5.26165621667671
31
0.000000000000000
  0
LINE
  5
F1028A
330
F1028B
100
AcDbEntity
8
Geo
100
AcDbLine
10
-38.5698504027617
20
-5.26165621667671
30
0.000000000000000
11
-38.4698504027617
21
-5.27823846205825
31
0.000000000000000
  0
LINE
  5
F1028C
330
F1028D
100
AcDbEntity
8
Geo
100
AcDbLine
10
-38.4698504027617
20
-5.27823846205825
30
0.000000000000000
11
-38.3698504027617
21
-5.29383374337183
31
0.000000000000000
  0
LINE
  5
F1028E
330
F1028F
100
AcDbEntity
8
Geo
100
AcDbLine
10
-38.3698504027617
20
-5.29383374337183
30
0.000000000000000
11
-38.2698504027617
21
-5.30844050110232
31
0.000000000000000
  0
LINE
  5
F10290
330
F10291
100
AcDbEntity
8
Geo
100
AcDbLine
10
-38.2698504027617
20
-5.30844050110232
30
0.000000000000000
11
-38.1698504027617
21
-5.32205727458612
31
0.000000000000000
  0
LINE
  5
F10292
330
F10293
100
AcDbEntity
8
Geo
100
AcDbLine
10
-38.1698504027617
20
-5.32205727458612
30
0.000000000000000
11
-38.0698504027617
21
-5.33468270215723
31
0.000000000000000
  0
LINE
  5
F10294
330
F10295
100
AcDbEntity
8
Geo
100
AcDbLine
10
-38.0698504027617
20
-5.33468270215723
30
0.000000000000000
11
-37.9698504027617
21
-5.34631552128341
31
0.000000000000000
  0
LINE
  5
F10296
330
F10297
100
AcDbEntity
8
Geo
100
AcDbLine
10
-37.9698504027617
20
-5.34631552128341
30
0.000000000000000
11
-37.8698504027617
21
-5.35695456869245
31
0.000000000000000
  0
LINE
  5
F10298
330
F10299
100
AcDbEntity
8
Geo
100
AcDbLine
10
-37.8698504027617
20
-5.35695456869245
30
0.000000000000000
11
-37.7698504027617
21
-5.36659878048846
31
0.000000000000000
  0
LINE
  5
F1029A
330
F1029B
100
AcDbEntity
8
Geo
100
AcDbLine
10
-37.7698504027617
20
-5.36659878048846
30
0.000000000000000
11
-37.6698504027617
21
-5.37524719225831
31
0.000000000000000
  0
LINE
  5
F1029C
330
F1029D
100
AcDbEntity
8
Geo
100
AcDbLine
10
-37.6698504027617
20
-5.37524719225831
30
0.000000000000000
11
-37.5698504027617
21
-5.38289893916803
31
0.000000000000000
  0
LINE
  5
F1029E
330
F1029F
100
AcDbEntity
8
Geo
100
AcDbLine
10
-37.5698504027617
20
-5.38289893916803
30
0.000000000000000
11
-37.4698504027617
21
-5.38955325604930
31
0.000000000000000
  0
LINE
  5
F102A0
330
F102A1
100
AcDbEntity
8
Geo
100
AcDbLine
10
-37.4698504027617
20
-5.38955325604930
30
0.000000000000000
11
-37.3698504027616
21
-5.39520947747597
31
0.000000000000000
  0
LINE
  5
F102A2
330
F102A3
100
AcDbEntity
8
Geo
100
AcDbLine
10
-37.3698504027616
20
-5.39520947747597
30
0.000000000000000
11
-37.2698504027616
21
-5.39986703783063
31
0.000000000000000
  0
LINE
  5
F102A4
330
F102A5
100
AcDbEntity
8
Geo
100
AcDbLine
10
-37.2698504027616
20
-5.39986703783063
30
0.000000000000000
11
-37.1698504027616
21
-5.40352547136111
31
0.000000000000000
  0
LINE
  5
F102A6
330
F102A7
100
AcDbEntity
8
Geo
100
AcDbLine
10
-37.1698504027616
20
-5.40352547136111
30
0.000000000000000
11
-37.0698504027616
21
-5.40618441222711
31
0.000000000000000
  0
LINE
  5
F102A8
330
F102A9
100
AcDbEntity
8
Geo
100
AcDbLine
10
-37.0698504027616
20
-5.40618441222711
30
0.000000000000000
11
-36.9698504027616
21
-5.40784359453676
31
0.000000000000000
  0
LINE
  5
F102AA
330
F102AB
100
AcDbEntity
8
Geo
100
AcDbLine
10
-36.9698504027616
20
-5.40784359453676
30
0.000000000000000
11
-36.8698504027616
21
-5.40850285237322
31
0.000000000000000
  0
LINE
  5
F102AC
330
F102AD
100
AcDbEntity
8
Geo
100
AcDbLine
10
-36.8698504027616
20
-5.40850285237322
30
0.000000000000000
11
-36.8539237147820
21
-5.40851553509782
31
0.000000000000000
  0
LINE
  5
F102AE
330
F102AF
100
AcDbEntity
8
Geo
100
AcDbLine
10
-66.8698504027618
20
5.78331066857032
30
0.000000000000000
11
-66.8698504027618
21
-0.511455863967050
31
0.000000000000000
  0
LINE
  5
F102B0
330
F102B1
100
AcDbEntity
8
Geo
100
AcDbLine
10
-36.8539237147820
20
14.5914844649022
30
0.000000000000000
11
-36.7698504027616
21
14.5911310496156
31
0.000000000000000
  0
LINE
  5
F102B2
330
F102B3
100
AcDbEntity
8
Geo
100
AcDbLine
10
-36.7698504027616
20
14.5911310496156
30
0.000000000000000
11
-36.6698504027616
21
14.5897903607282
31
0.000000000000000
  0
LINE
  5
F102B4
330
F102B5
100
AcDbEntity
8
Geo
100
AcDbLine
10
-36.6698504027616
20
14.5897903607282
30
0.000000000000000
11
-36.5698504027616
21
14.5874498495830
31
0.000000000000000
  0
LINE
  5
F102B6
330
F102B7
100
AcDbEntity
8
Geo
100
AcDbLine
10
-36.5698504027616
20
14.5874498495830
30
0.000000000000000
11
-36.4698504027616
21
14.5841097502294
31
0.000000000000000
  0
LINE
  5
F102B8
330
F102B9
100
AcDbEntity
8
Geo
100
AcDbLine
10
-36.4698504027616
20
14.5841097502294
30
0.000000000000000
11
-36.3698504027616
21
14.5797703966744
31
0.000000000000000
  0
LINE
  5
F102BA
330
F102BB
100
AcDbEntity
8
Geo
100
AcDbLine
10
-36.3698504027616
20
14.5797703966744
30
0.000000000000000
11
-36.2698504027616
21
14.5744322228497
31
0.000000000000000
  0
LINE
  5
F102BC
330
F102BD
100
AcDbEntity
8
Geo
100
AcDbLine
10
-36.2698504027616
20
14.5744322228497
30
0.000000000000000
11
-36.1698504027616
21
14.5680957625683
31
0.000000000000000
  0
LINE
  5
F102BE
330
F102BF
100
AcDbEntity
8
Geo
100
AcDbLine
10
-36.1698504027616
20
14.5680957625683
30
0.000000000000000
11
-36.0698504027616
21
14.5607616494710
31
0.000000000000000
  0
LINE
  5
F102C0
330
F102C1
100
AcDbEntity
8
Geo
100
AcDbLine
10
-36.0698504027616
20
14.5607616494710
30
0.000000000000000
11
-35.9698504027616
21
14.5524306169630
31
0.000000000000000
  0
LINE
  5
F102C2
330
F102C3
100
AcDbEntity
8
Geo
100
AcDbLine
10
-35.9698504027616
20
14.5524306169630
30
0.000000000000000
11
-35.8698504027616
21
14.5431034981405
31
0.000000000000000
  0
LINE
  5
F102C4
330
F102C5
100
AcDbEntity
8
Geo
100
AcDbLine
10
-35.8698504027616
20
14.5431034981405
30
0.000000000000000
11
-35.7698504027616
21
14.5327812257076
31
0.000000000000000
  0
LINE
  5
F102C6
330
F102C7
100
AcDbEntity
8
Geo
100
AcDbLine
10
-35.7698504027616
20
14.5327812257076
30
0.000000000000000
11
-35.6698504027616
21
14.5214648318831
31
0.000000000000000
  0
LINE
  5
F102C8
330
F102C9
100
AcDbEntity
8
Geo
100
AcDbLine
10
-35.6698504027616
20
14.5214648318831
30
0.000000000000000
11
-35.5698504027616
21
14.5091554482968
31
0.000000000000000
  0
LINE
  5
F102CA
330
F102CB
100
AcDbEntity
8
Geo
100
AcDbLine
10
-35.5698504027616
20
14.5091554482968
30
0.000000000000000
11
-35.4698504027616
21
14.4958543058769
31
0.000000000000000
  0
LINE
  5
F102CC
330
F102CD
100
AcDbEntity
8
Geo
100
AcDbLine
10
-35.4698504027616
20
14.4958543058769
30
0.000000000000000
11
-35.3698504027616
21
14.4815627347265
31
0.000000000000000
  0
LINE
  5
F102CE
330
F102CF
100
AcDbEntity
8
Geo
100
AcDbLine
10
-35.3698504027616
20
14.4815627347265
30
0.000000000000000
11
-35.2698504027616
21
14.4662821639908
31
0.000000000000000
  0
LINE
  5
F102D0
330
F102D1
100
AcDbEntity
8
Geo
100
AcDbLine
10
-35.2698504027616
20
14.4662821639908
30
0.000000000000000
11
-35.1698504027616
21
14.4500141217141
31
0.000000000000000
  0
LINE
  5
F102D2
330
F102D3
100
AcDbEntity
8
Geo
100
AcDbLine
10
-35.1698504027616
20
14.4500141217141
30
0.000000000000000
11
-35.0698504027616
21
14.4327602346873
31
0.000000000000000
  0
LINE
  5
F102D4
330
F102D5
100
AcDbEntity
8
Geo
100
AcDbLine
10
-35.0698504027616
20
14.4327602346873
30
0.000000000000000
11
-34.9698504027616
21
14.4145222282844
31
0.000000000000000
  0
LINE
  5
F102D6
330
F102D7
100
AcDbEntity
8
Geo
100
AcDbLine
10
-34.9698504027616
20
14.4145222282844
30
0.000000000000000
11
-34.8698504027616
21
14.3953019262911
31
0.000000000000000
  0
LINE
  5
F102D8
330
F102D9
100
AcDbEntity
8
Geo
100
AcDbLine
10
-34.8698504027616
20
14.3953019262911
30
0.000000000000000
11
-34.7698504027616
21
14.3751012507214
31
0.000000000000000
  0
LINE
  5
F102DA
330
F102DB
100
AcDbEntity
8
Geo
100
AcDbLine
10
-34.7698504027616
20
14.3751012507214
30
0.000000000000000
11
-34.6698504027616
21
14.3539222216262
31
0.000000000000000
  0
LINE
  5
F102DC
330
F102DD
100
AcDbEntity
8
Geo
100
AcDbLine
10
-34.6698504027616
20
14.3539222216262
30
0.000000000000000
11
-34.5698504027616
21
14.3317669568906
31
0.000000000000000
  0
LINE
  5
F102DE
330
F102DF
100
AcDbEntity
8
Geo
100
AcDbLine
10
-34.5698504027616
20
14.3317669568906
30
0.000000000000000
11
-34.4698504027616
21
14.3086376720227
31
0.000000000000000
  0
LINE
  5
F102E0
330
F102E1
100
AcDbEntity
8
Geo
100
AcDbLine
10
-34.4698504027616
20
14.3086376720227
30
0.000000000000000
11
-34.3698504027616
21
14.2845366799317
31
0.000000000000000
  0
LINE
  5
F102E2
330
F102E3
100
AcDbEntity
8
Geo
100
AcDbLine
10
-34.3698504027616
20
14.2845366799317
30
0.000000000000000
11
-34.2698504027616
21
14.2594663906967
31
0.000000000000000
  0
LINE
  5
F102E4
330
F102E5
100
AcDbEntity
8
Geo
100
AcDbLine
10
-34.2698504027616
20
14.2594663906967
30
0.000000000000000
11
-34.1698504027616
21
14.2334293113257
31
0.000000000000000
  0
LINE
  5
F102E6
330
F102E7
100
AcDbEntity
8
Geo
100
AcDbLine
10
-34.1698504027616
20
14.2334293113257
30
0.000000000000000
11
-34.0698504027616
21
14.2064280455051
31
0.000000000000000
  0
LINE
  5
F102E8
330
F102E9
100
AcDbEntity
8
Geo
100
AcDbLine
10
-34.0698504027616
20
14.2064280455051
30
0.000000000000000
11
-33.9698504027616
21
14.1784652933388
31
0.000000000000000
  0
LINE
  5
F102EA
330
F102EB
100
AcDbEntity
8
Geo
100
AcDbLine
10
-33.9698504027616
20
14.1784652933388
30
0.000000000000000
11
-33.8698504027616
21
14.1495438510787
31
0.000000000000000
  0
LINE
  5
F102EC
330
F102ED
100
AcDbEntity
8
Geo
100
AcDbLine
10
-33.8698504027616
20
14.1495438510787
30
0.000000000000000
11
-33.7698504027616
21
14.1196666108451
31
0.000000000000000
  0
LINE
  5
F102EE
330
F102EF
100
AcDbEntity
8
Geo
100
AcDbLine
10
-33.7698504027616
20
14.1196666108451
30
0.000000000000000
11
-33.6698504027616
21
14.0888365603370
31
0.000000000000000
  0
LINE
  5
F102F0
330
F102F1
100
AcDbEntity
8
Geo
100
AcDbLine
10
-33.6698504027616
20
14.0888365603370
30
0.000000000000000
11
-33.5698504027616
21
14.0570567825338
31
0.000000000000000
  0
LINE
  5
F102F2
330
F102F3
100
AcDbEntity
8
Geo
100
AcDbLine
10
-33.5698504027616
20
14.0570567825338
30
0.000000000000000
11
-33.4698504027616
21
14.0243304553868
31
0.000000000000000
  0
LINE
  5
F102F4
330
F102F5
100
AcDbEntity
8
Geo
100
AcDbLine
10
-33.4698504027616
20
14.0243304553868
30
0.000000000000000
11
-33.3698504027616
21
13.9906608515014
31
0.000000000000000
  0
LINE
  5
F102F6
330
F102F7
100
AcDbEntity
8
Geo
100
AcDbLine
10
-66.8698504027618
20
9.69347709765994
30
0.000000000000000
11
-66.8698504027618
21
9.69442479377141
31
0.000000000000000
  0
LINE
  5
F102F8
330
F102F9
100
AcDbEntity
8
Geo
100
AcDbLine
10
-40.3445822151783
20
14.5914844649022
30
0.000000000000000
11
-40.2698504027617
21
14.5912052228491
31
0.000000000000000
  0
LINE
  5
F102FA
330
F102FB
100
AcDbEntity
8
Geo
100
AcDbLine
10
-40.2698504027617
20
14.5912052228491
30
0.000000000000000
11
-40.1698504027617
21
14.5899579407080
31
0.000000000000000
  0
LINE
  5
F102FC
330
F102FD
100
AcDbEntity
8
Geo
100
AcDbLine
10
-40.1698504027617
20
14.5899579407080
30
0.000000000000000
11
-40.0698504027617
21
14.5877108195515
31
0.000000000000000
  0
LINE
  5
F102FE
330
F102FF
100
AcDbEntity
8
Geo
100
AcDbLine
10
-40.0698504027617
20
14.5877108195515
30
0.000000000000000
11
-39.9698504027617
21
14.5844640840896
31
0.000000000000000
  0
LINE
  5
F10300
330
F10301
100
AcDbEntity
8
Geo
100
AcDbLine
10
-39.9698504027617
20
14.5844640840896
30
0.000000000000000
11
-39.8698504027617
21
14.5802180589933
31
0.000000000000000
  0
LINE
  5
F10302
330
F10303
100
AcDbEntity
8
Geo
100
AcDbLine
10
-39.8698504027617
20
14.5802180589933
30
0.000000000000000
11
-39.7698504027617
21
14.5749731688615
31
0.000000000000000
  0
LINE
  5
F10304
330
F10305
100
AcDbEntity
8
Geo
100
AcDbLine
10
-39.7698504027617
20
14.5749731688615
30
0.000000000000000
11
-39.6698504027617
21
14.5687299381788
31
0.000000000000000
  0
LINE
  5
F10306
330
F10307
100
AcDbEntity
8
Geo
100
AcDbLine
10
-39.6698504027617
20
14.5687299381788
30
0.000000000000000
11
-39.5698504027617
21
14.5614889912632
31
0.000000000000000
  0
LINE
  5
F10308
330
F10309
100
AcDbEntity
8
Geo
100
AcDbLine
10
-39.5698504027617
20
14.5614889912632
30
0.000000000000000
11
-39.4698504027617
21
14.5532510522032
31
0.000000000000000
  0
LINE
  5
F1030A
330
F1030B
100
AcDbEntity
8
Geo
100
AcDbLine
10
-39.4698504027617
20
14.5532510522032
30
0.000000000000000
11
-39.3698504027617
21
14.5440169447860
31
0.000000000000000
  0
LINE
  5
F1030C
330
F1030D
100
AcDbEntity
8
Geo
100
AcDbLine
10
-39.3698504027617
20
14.5440169447860
30
0.000000000000000
11
-39.2698504027617
21
14.5337875924145
31
0.000000000000000
  0
LINE
  5
F1030E
330
F1030F
100
AcDbEntity
8
Geo
100
AcDbLine
10
-39.2698504027617
20
14.5337875924145
30
0.000000000000000
11
-39.1698504027617
21
14.5225640180154
31
0.000000000000000
  0
LINE
  5
F10310
330
F10311
100
AcDbEntity
8
Geo
100
AcDbLine
10
-39.1698504027617
20
14.5225640180154
30
0.000000000000000
11
-39.0698504027617
21
14.5103473439370
31
0.000000000000000
  0
LINE
  5
F10312
330
F10313
100
AcDbEntity
8
Geo
100
AcDbLine
10
-39.0698504027617
20
14.5103473439370
30
0.000000000000000
11
-38.9698504027617
21
14.4971387918363
31
0.000000000000000
  0
LINE
  5
F10314
330
F10315
100
AcDbEntity
8
Geo
100
AcDbLine
10
-38.9698504027617
20
14.4971387918363
30
0.000000000000000
11
-38.8698504027617
21
14.4829396825576
31
0.000000000000000
  0
LINE
  5
F10316
330
F10317
100
AcDbEntity
8
Geo
100
AcDbLine
10
-38.8698504027617
20
14.4829396825576
30
0.000000000000000
11
-38.7698504027617
21
14.4677514360000
31
0.000000000000000
  0
LINE
  5
F10318
330
F10319
100
AcDbEntity
8
Geo
100
AcDbLine
10
-38.7698504027617
20
14.4677514360000
30
0.000000000000000
11
-38.6698504027617
21
14.4515755709755
31
0.000000000000000
  0
LINE
  5
F1031A
330
F1031B
100
AcDbEntity
8
Geo
100
AcDbLine
10
-38.6698504027617
20
14.4515755709755
30
0.000000000000000
11
-38.5698504027617
21
14.4344137050571
31
0.000000000000000
  0
LINE
  5
F1031C
330
F1031D
100
AcDbEntity
8
Geo
100
AcDbLine
10
-38.5698504027617
20
14.4344137050571
30
0.000000000000000
11
-38.4698504027617
21
14.4162675544171
31
0.000000000000000
  0
LINE
  5
F1031E
330
F1031F
100
AcDbEntity
8
Geo
100
AcDbLine
10
-38.4698504027617
20
14.4162675544171
30
0.000000000000000
11
-38.3698504027617
21
14.3971389336554
31
0.000000000000000
  0
LINE
  5
F10320
330
F10321
100
AcDbEntity
8
Geo
100
AcDbLine
10
-38.3698504027617
20
14.3971389336554
30
0.000000000000000
11
-38.2698504027617
21
14.3770297556182
31
0.000000000000000
  0
LINE
  5
F10322
330
F10323
100
AcDbEntity
8
Geo
100
AcDbLine
10
-38.2698504027617
20
14.3770297556182
30
0.000000000000000
11
-38.1698504027617
21
14.3559420312066
31
0.000000000000000
  0
LINE
  5
F10324
330
F10325
100
AcDbEntity
8
Geo
100
AcDbLine
10
-38.1698504027617
20
14.3559420312066
30
0.000000000000000
11
-38.0698504027617
21
14.3338778691753
31
0.000000000000000
  0
LINE
  5
F10326
330
F10327
100
AcDbEntity
8
Geo
100
AcDbLine
10
-38.0698504027617
20
14.3338778691753
30
0.000000000000000
11
-37.9698504027617
21
14.3108394759222
31
0.000000000000000
  0
LINE
  5
F10328
330
F10329
100
AcDbEntity
8
Geo
100
AcDbLine
10
-37.9698504027617
20
14.3108394759222
30
0.000000000000000
11
-37.8698504027617
21
14.2868291552675
31
0.000000000000000
  0
LINE
  5
F1032A
330
F1032B
100
AcDbEntity
8
Geo
100
AcDbLine
10
-37.8698504027617
20
14.2868291552675
30
0.000000000000000
11
-37.7698504027617
21
14.2618493082231
31
0.000000000000000
  0
LINE
  5
F1032C
330
F1032D
100
AcDbEntity
8
Geo
100
AcDbLine
10
-37.7698504027617
20
14.2618493082231
30
0.000000000000000
11
-37.6698504027617
21
14.2359024327531
31
0.000000000000000
  0
LINE
  5
F1032E
330
F1032F
100
AcDbEntity
8
Geo
100
AcDbLine
10
-37.6698504027617
20
14.2359024327531
30
0.000000000000000
11
-37.5698504027617
21
14.2089911235232
31
0.000000000000000
  0
LINE
  5
F10330
330
F10331
100
AcDbEntity
8
Geo
100
AcDbLine
10
-37.5698504027617
20
14.2089911235232
30
0.000000000000000
11
-37.4698504027617
21
14.1811180716420
31
0.000000000000000
  0
LINE
  5
F10332
330
F10333
100
AcDbEntity
8
Geo
100
AcDbLine
10
-37.4698504027617
20
14.1811180716420
30
0.000000000000000
11
-37.3698504027616
21
14.1522860643915
31
0.000000000000000
  0
LINE
  5
F10334
330
F10335
100
AcDbEntity
8
Geo
100
AcDbLine
10
-37.3698504027616
20
14.1522860643915
30
0.000000000000000
11
-37.2698504027616
21
14.1224979849484
31
0.000000000000000
  0
LINE
  5
F10336
330
F10337
100
AcDbEntity
8
Geo
100
AcDbLine
10
-37.2698504027616
20
14.1224979849484
30
0.000000000000000
11
-37.1698504027616
21
14.0917568120957
31
0.000000000000000
  0
LINE
  5
F10338
330
F10339
100
AcDbEntity
8
Geo
100
AcDbLine
10
-37.1698504027616
20
14.0917568120957
30
0.000000000000000
11
-37.0698504027616
21
14.0600656199252
31
0.000000000000000
  0
LINE
  5
F1033A
330
F1033B
100
AcDbEntity
8
Geo
100
AcDbLine
10
-37.0698504027616
20
14.0600656199252
30
0.000000000000000
11
-36.9698504027616
21
14.0274275775296
31
0.000000000000000
  0
LINE
  5
F1033C
330
F1033D
100
AcDbEntity
8
Geo
100
AcDbLine
10
-36.9698504027616
20
14.0274275775296
30
0.000000000000000
11
-36.8698504027616
21
13.9938459486861
31
0.000000000000000
  0
LINE
  5
F1033E
330
F1033F
100
AcDbEntity
8
Geo
100
AcDbLine
10
-36.8698504027616
20
13.9938459486861
30
0.000000000000000
11
-36.7698504027616
21
13.9593240915294
31
0.000000000000000
  0
LINE
  5
F10340
330
F10341
100
AcDbEntity
8
Geo
100
AcDbLine
10
-36.7698504027616
20
13.9593240915294
30
0.000000000000000
11
-36.6698504027616
21
13.9238654582166
31
0.000000000000000
  0
LINE
  5
F10342
330
F10343
100
AcDbEntity
8
Geo
100
AcDbLine
10
-36.6698504027616
20
13.9238654582166
30
0.000000000000000
11
-36.5698504027616
21
13.8874735945814
31
0.000000000000000
  0
LINE
  5
F10344
330
F10345
100
AcDbEntity
8
Geo
100
AcDbLine
10
-36.5698504027616
20
13.8874735945814
30
0.000000000000000
11
-36.4698504027616
21
13.8501521397798
31
0.000000000000000
  0
LINE
  5
F10346
330
F10347
100
AcDbEntity
8
Geo
100
AcDbLine
10
-36.4698504027616
20
13.8501521397798
30
0.000000000000000
11
-36.3698504027616
21
13.8119048259264
31
0.000000000000000
  0
LINE
  5
F10348
330
F10349
100
AcDbEntity
8
Geo
100
AcDbLine
10
-36.3698504027616
20
13.8119048259264
30
0.000000000000000
11
-36.2698504027616
21
13.7727354777204
31
0.000000000000000
  0
LINE
  5
F1034A
330
F1034B
100
AcDbEntity
8
Geo
100
AcDbLine
10
-36.2698504027616
20
13.7727354777204
30
0.000000000000000
11
-36.1698504027616
21
13.7326480120642
31
0.000000000000000
  0
LINE
  5
F1034C
330
F1034D
100
AcDbEntity
8
Geo
100
AcDbLine
10
-36.1698504027616
20
13.7326480120642
30
0.000000000000000
11
-36.0698504027616
21
13.6916464376709
31
0.000000000000000
  0
LINE
  5
F1034E
330
F1034F
100
AcDbEntity
8
Geo
100
AcDbLine
10
-36.0698504027616
20
13.6916464376709
30
0.000000000000000
11
-35.9698504027616
21
13.6497348546638
31
0.000000000000000
  0
LINE
  5
F10350
330
F10351
100
AcDbEntity
8
Geo
100
AcDbLine
10
-35.9698504027616
20
13.6497348546638
30
0.000000000000000
11
-35.8698504027616
21
13.6069174541662
31
0.000000000000000
  0
LINE
  5
F10352
330
F10353
100
AcDbEntity
8
Geo
100
AcDbLine
10
-35.8698504027616
20
13.6069174541662
30
0.000000000000000
11
-35.7698504027616
21
13.5631985178825
31
0.000000000000000
  0
LINE
  5
F10354
330
F10355
100
AcDbEntity
8
Geo
100
AcDbLine
10
-35.7698504027616
20
13.5631985178825
30
0.000000000000000
11
-35.6698504027616
21
13.5185824176699
31
0.000000000000000
  0
LINE
  5
F10356
330
F10357
100
AcDbEntity
8
Geo
100
AcDbLine
10
-35.6698504027616
20
13.5185824176699
30
0.000000000000000
11
-35.5698504027616
21
13.4730736151013
31
0.000000000000000
  0
LINE
  5
F10358
330
F10359
100
AcDbEntity
8
Geo
100
AcDbLine
10
-35.5698504027616
20
13.4730736151013
30
0.000000000000000
11
-35.4698504027616
21
13.4266766610189
31
0.000000000000000
  0
LINE
  5
F1035A
330
F1035B
100
AcDbEntity
8
Geo
100
AcDbLine
10
-35.4698504027616
20
13.4266766610189
30
0.000000000000000
11
-35.3698504027616
21
13.3793961950796
31
0.000000000000000
  0
LINE
  5
F1035C
330
F1035D
100
AcDbEntity
8
Geo
100
AcDbLine
10
-35.3698504027616
20
13.3793961950796
30
0.000000000000000
11
-35.2698504027616
21
13.3312369452904
31
0.000000000000000
  0
LINE
  5
F1035E
330
F1035F
100
AcDbEntity
8
Geo
100
AcDbLine
10
-35.2698504027616
20
13.3312369452904
30
0.000000000000000
11
-35.1698504027616
21
13.2822037275364
31
0.000000000000000
  0
LINE
  5
F10360
330
F10361
100
AcDbEntity
8
Geo
100
AcDbLine
10
-35.1698504027616
20
13.2822037275364
30
0.000000000000000
11
-35.0698504027616
21
13.2323014450983
31
0.000000000000000
  0
LINE
  5
F10362
330
F10363
100
AcDbEntity
8
Geo
100
AcDbLine
10
-35.0698504027616
20
13.2323014450983
30
0.000000000000000
11
-34.9698504027616
21
13.1815350881629
31
0.000000000000000
  0
LINE
  5
F10364
330
F10365
100
AcDbEntity
8
Geo
100
AcDbLine
10
-34.9698504027616
20
13.1815350881629
30
0.000000000000000
11
-34.8698504027616
21
13.1299097333235
31
0.000000000000000
  0
LINE
  5
F10366
330
F10367
100
AcDbEntity
8
Geo
100
AcDbLine
10
-34.8698504027616
20
13.1299097333235
30
0.000000000000000
11
-34.7698504027616
21
13.0774305430726
31
0.000000000000000
  0
LINE
  5
F10368
330
F10369
100
AcDbEntity
8
Geo
100
AcDbLine
10
-34.7698504027616
20
13.0774305430726
30
0.000000000000000
11
-34.6698504027616
21
13.0241027652854
31
0.000000000000000
  0
LINE
  5
F1036A
330
F1036B
100
AcDbEntity
8
Geo
100
AcDbLine
10
-34.6698504027616
20
13.0241027652854
30
0.000000000000000
11
-34.5698504027616
21
12.9699317326954
31
0.000000000000000
  0
LINE
  5
F1036C
330
F1036D
100
AcDbEntity
8
Geo
100
AcDbLine
10
-34.5698504027616
20
12.9699317326954
30
0.000000000000000
11
-34.4698504027616
21
12.9149228623606
31
0.000000000000000
  0
LINE
  5
F1036E
330
F1036F
100
AcDbEntity
8
Geo
100
AcDbLine
10
-34.4698504027616
20
12.9149228623606
30
0.000000000000000
11
-34.3698504027616
21
12.8590816551222
31
0.000000000000000
  0
LINE
  5
F10370
330
F10371
100
AcDbEntity
8
Geo
100
AcDbLine
10
-34.3698504027616
20
12.8590816551222
30
0.000000000000000
11
-34.2698504027616
21
12.8024136950545
31
0.000000000000000
  0
LINE
  5
F10372
330
F10373
100
AcDbEntity
8
Geo
100
AcDbLine
10
-34.2698504027616
20
12.8024136950545
30
0.000000000000000
11
-34.1698504027616
21
12.7449246489062
31
0.000000000000000
  0
LINE
  5
F10374
330
F10375
100
AcDbEntity
8
Geo
100
AcDbLine
10
-34.1698504027616
20
12.7449246489062
30
0.000000000000000
11
-34.0698504027616
21
12.6866202655340
31
0.000000000000000
  0
LINE
  5
F10376
330
F10377
100
AcDbEntity
8
Geo
100
AcDbLine
10
-34.0698504027616
20
12.6866202655340
30
0.000000000000000
11
-33.9698504027616
21
12.6275063753276
31
0.000000000000000
  0
LINE
  5
F10378
330
F10379
100
AcDbEntity
8
Geo
100
AcDbLine
10
-33.9698504027616
20
12.6275063753276
30
0.000000000000000
11
-33.8698504027616
21
12.5675888896269
31
0.000000000000000
  0
LINE
  5
F1037A
330
F1037B
100
AcDbEntity
8
Geo
100
AcDbLine
10
-33.8698504027616
20
12.5675888896269
30
0.000000000000000
11
-33.7698504027616
21
12.5068738001304
31
0.000000000000000
  0
LINE
  5
F1037C
330
F1037D
100
AcDbEntity
8
Geo
100
AcDbLine
10
-33.7698504027616
20
12.5068738001304
30
0.000000000000000
11
-33.6698504027616
21
12.4453671782965
31
0.000000000000000
  0
LINE
  5
F1037E
330
F1037F
100
AcDbEntity
8
Geo
100
AcDbLine
10
-33.6698504027616
20
12.4453671782965
30
0.000000000000000
11
-33.5698504027616
21
12.3830751747362
31
0.000000000000000
  0
LINE
  5
F10380
330
F10381
100
AcDbEntity
8
Geo
100
AcDbLine
10
-33.5698504027616
20
12.3830751747362
30
0.000000000000000
11
-33.4698504027616
21
12.3200040185978
31
0.000000000000000
  0
LINE
  5
F10382
330
F10383
100
AcDbEntity
8
Geo
100
AcDbLine
10
-33.4698504027616
20
12.3200040185978
30
0.000000000000000
11
-33.3698504027616
21
12.2561600169445
31
0.000000000000000
  0
LINE
  5
F10384
330
F10385
100
AcDbEntity
8
Geo
100
AcDbLine
10
-66.8698504027618
20
-0.511455863967050
30
0.000000000000000
11
-66.8698504027618
21
5.78331066857032
31
0.000000000000000
  0
LINE
  5
F10386
330
F10387
100
AcDbEntity
8
Geo
100
AcDbLine
10
-66.8698504027618
20
5.78331066857032
30
0.000000000000000
11
-66.7698504027618
21
6.37195016728439
31
0.000000000000000
  0
LINE
  5
F10388
330
F10389
100
AcDbEntity
8
Geo
100
AcDbLine
10
-66.7698504027618
20
6.37195016728439
30
0.000000000000000
11
-66.6698504027618
21
6.77105476830793
31
0.000000000000000
  0
LINE
  5
F1038A
330
F1038B
100
AcDbEntity
8
Geo
100
AcDbLine
10
-66.6698504027618
20
6.77105476830793
30
0.000000000000000
11
-66.5698504027618
21
7.08596503721741
31
0.000000000000000
  0
LINE
  5
F1038C
330
F1038D
100
AcDbEntity
8
Geo
100
AcDbLine
10
-66.5698504027618
20
7.08596503721741
30
0.000000000000000
11
-66.4698504027618
21
7.34978525218040
31
0.000000000000000
  0
LINE
  5
F1038E
330
F1038F
100
AcDbEntity
8
Geo
100
AcDbLine
10
-66.4698504027618
20
7.34978525218040
30
0.000000000000000
11
-66.3698504027618
21
7.57809633273366
31
0.000000000000000
  0
LINE
  5
F10390
330
F10391
100
AcDbEntity
8
Geo
100
AcDbLine
10
-66.3698504027618
20
7.57809633273366
30
0.000000000000000
11
-66.2698504027618
21
7.77971216847574
31
0.000000000000000
  0
LINE
  5
F10392
330
F10393
100
AcDbEntity
8
Geo
100
AcDbLine
10
-66.2698504027618
20
7.77971216847574
30
0.000000000000000
11
-66.1698504027618
21
7.96019381240647
31
0.000000000000000
  0
LINE
  5
F10394
330
F10395
100
AcDbEntity
8
Geo
100
AcDbLine
10
-66.1698504027618
20
7.96019381240647
30
0.000000000000000
11
-66.0698504027618
21
8.12331610708216
31
0.000000000000000
  0
LINE
  5
F10396
330
F10397
100
AcDbEntity
8
Geo
100
AcDbLine
10
-66.0698504027618
20
8.12331610708216
30
0.000000000000000
11
-65.9698504027618
21
8.27177990229575
31
0.000000000000000
  0
LINE
  5
F10398
330
F10399
100
AcDbEntity
8
Geo
100
AcDbLine
10
-65.9698504027618
20
8.27177990229575
30
0.000000000000000
11
-65.8698504027618
21
8.40759610162548
31
0.000000000000000
  0
LINE
  5
F1039A
330
F1039B
100
AcDbEntity
8
Geo
100
AcDbLine
10
-65.8698504027618
20
8.40759610162548
30
0.000000000000000
11
-65.7698504027618
21
8.53230938910367
31
0.000000000000000
  0
LINE
  5
F1039C
330
F1039D
100
AcDbEntity
8
Geo
100
AcDbLine
10
-65.7698504027618
20
8.53230938910367
30
0.000000000000000
11
-65.6698504027618
21
8.64713656769415
31
0.000000000000000
  0
LINE
  5
F1039E
330
F1039F
100
AcDbEntity
8
Geo
100
AcDbLine
10
-65.6698504027618
20
8.64713656769415
30
0.000000000000000
11
-65.5698504027618
21
8.75305626018109
31
0.000000000000000
  0
LINE
  5
F103A0
330
F103A1
100
AcDbEntity
8
Geo
100
AcDbLine
10
-65.5698504027618
20
8.75305626018109
30
0.000000000000000
11
-65.4698504027618
21
8.85086937322844
31
0.000000000000000
  0
LINE
  5
F103A2
330
F103A3
100
AcDbEntity
8
Geo
100
AcDbLine
10
-65.4698504027618
20
8.85086937322844
30
0.000000000000000
11
-65.3698504027618
21
8.94124119221784
31
0.000000000000000
  0
LINE
  5
F103A4
330
F103A5
100
AcDbEntity
8
Geo
100
AcDbLine
10
-65.3698504027618
20
8.94124119221784
30
0.000000000000000
11
-65.2698504027618
21
9.02473149983803
31
0.000000000000000
  0
LINE
  5
F103A6
330
F103A7
100
AcDbEntity
8
Geo
100
AcDbLine
10
-65.2698504027618
20
9.02473149983803
30
0.000000000000000
11
-65.1698504027618
21
9.10181663703186
31
0.000000000000000
  0
LINE
  5
F103A8
330
F103A9
100
AcDbEntity
8
Geo
100
AcDbLine
10
-65.1698504027618
20
9.10181663703186
30
0.000000000000000
11
-65.0698504027618
21
9.17290599398008
31
0.000000000000000
  0
LINE
  5
F103AA
330
F103AB
100
AcDbEntity
8
Geo
100
AcDbLine
10
-65.0698504027618
20
9.17290599398008
30
0.000000000000000
11
-64.9698504027618
21
9.23835455897386
31
0.000000000000000
  0
LINE
  5
F103AC
330
F103AD
100
AcDbEntity
8
Geo
100
AcDbLine
10
-64.9698504027618
20
9.23835455897386
30
0.000000000000000
11
-64.8698504027618
21
9.29847261892968
31
0.000000000000000
  0
LINE
  5
F103AE
330
F103AF
100
AcDbEntity
8
Geo
100
AcDbLine
10
-64.8698504027618
20
9.29847261892968
30
0.000000000000000
11
-64.7698504027618
21
9.35353336375903
31
0.000000000000000
  0
LINE
  5
F103B0
330
F103B1
100
AcDbEntity
8
Geo
100
AcDbLine
10
-64.7698504027618
20
9.35353336375903
30
0.000000000000000
11
-64.6698504027618
21
9.40377892272404
31
0.000000000000000
  0
LINE
  5
F103B2
330
F103B3
100
AcDbEntity
8
Geo
100
AcDbLine
10
-64.6698504027618
20
9.40377892272404
30
0.000000000000000
11
-64.5698504027618
21
9.44942521050056
31
0.000000000000000
  0
LINE
  5
F103B4
330
F103B5
100
AcDbEntity
8
Geo
100
AcDbLine
10
-64.5698504027618
20
9.44942521050056
30
0.000000000000000
11
-64.4698504027618
21
9.49066585762668
31
0.000000000000000
  0
LINE
  5
F103B6
330
F103B7
100
AcDbEntity
8
Geo
100
AcDbLine
10
-64.4698504027618
20
9.49066585762668
30
0.000000000000000
11
-64.3698504027618
21
9.52767542810802
31
0.000000000000000
  0
LINE
  5
F103B8
330
F103B9
100
AcDbEntity
8
Geo
100
AcDbLine
10
-64.3698504027618
20
9.52767542810802
30
0.000000000000000
11
-64.2698504027618
21
9.56061207592916
31
0.000000000000000
  0
LINE
  5
F103BA
330
F103BB
100
AcDbEntity
8
Geo
100
AcDbLine
10
-64.2698504027618
20
9.56061207592916
30
0.000000000000000
11
-64.1698504027618
21
9.58961975546276
31
0.000000000000000
  0
LINE
  5
F103BC
330
F103BD
100
AcDbEntity
8
Geo
100
AcDbLine
10
-64.1698504027618
20
9.58961975546276
30
0.000000000000000
11
-64.0698504027618
21
9.61483007391685
31
0.000000000000000
  0
LINE
  5
F103BE
330
F103BF
100
AcDbEntity
8
Geo
100
AcDbLine
10
-64.0698504027618
20
9.61483007391685
30
0.000000000000000
11
-63.9698504027618
21
9.63636385409374
31
0.000000000000000
  0
LINE
  5
F103C0
330
F103C1
100
AcDbEntity
8
Geo
100
AcDbLine
10
-63.9698504027618
20
9.63636385409374
30
0.000000000000000
11
-63.8698504027618
21
9.65433246086223
31
0.000000000000000
  0
LINE
  5
F103C2
330
F103C3
100
AcDbEntity
8
Geo
100
AcDbLine
10
-63.8698504027618
20
9.65433246086223
30
0.000000000000000
11
-63.7698504027618
21
9.66883893348937
31
0.000000000000000
  0
LINE
  5
F103C4
330
F103C5
100
AcDbEntity
8
Geo
100
AcDbLine
10
-63.7698504027618
20
9.66883893348937
30
0.000000000000000
11
-63.6698504027618
21
9.67997895737443
31
0.000000000000000
  0
LINE
  5
F103C6
330
F103C7
100
AcDbEntity
8
Geo
100
AcDbLine
10
-63.6698504027618
20
9.67997895737443
30
0.000000000000000
11
-63.5698504027618
21
9.68784170208898
31
0.000000000000000
  0
LINE
  5
F103C8
330
F103C9
100
AcDbEntity
8
Geo
100
AcDbLine
10
-63.5698504027618
20
9.68784170208898
30
0.000000000000000
11
-63.4698504027618
21
9.69251054745948
31
0.000000000000000
  0
LINE
  5
F103CA
330
F103CB
100
AcDbEntity
8
Geo
100
AcDbLine
10
-63.4698504027618
20
9.69251054745948
30
0.000000000000000
11
-63.3698504027618
21
9.69406371537359
31
0.000000000000000
  0
LINE
  5
F103CC
330
F103CD
100
AcDbEntity
8
Geo
100
AcDbLine
10
-63.3698504027618
20
9.69406371537359
30
0.000000000000000
11
-63.2698504027618
21
9.69257482178491
31
0.000000000000000
  0
LINE
  5
F103CE
330
F103CF
100
AcDbEntity
8
Geo
100
AcDbLine
10
-63.2698504027618
20
9.69257482178491
30
0.000000000000000
11
-63.1698504027618
21
9.68811336083679
31
0.000000000000000
  0
LINE
  5
F103D0
330
F103D1
100
AcDbEntity
8
Geo
100
AcDbLine
10
-63.1698504027618
20
9.68811336083679
30
0.000000000000000
11
-63.0698504027618
21
9.68074513097839
31
0.000000000000000
  0
LINE
  5
F103D2
330
F103D3
100
AcDbEntity
8
Geo
100
AcDbLine
10
-63.0698504027618
20
9.68074513097839
30
0.000000000000000
11
-62.9698504027618
21
9.67053261129349
31
0.000000000000000
  0
LINE
  5
F103D4
330
F103D5
100
AcDbEntity
8
Geo
100
AcDbLine
10
-62.9698504027618
20
9.67053261129349
30
0.000000000000000
11
-62.8698504027618
21
9.65753529492158
31
0.000000000000000
  0
LINE
  5
F103D6
330
F103D7
100
AcDbEntity
8
Geo
100
AcDbLine
10
-62.8698504027618
20
9.65753529492158
30
0.000000000000000
11
-62.7698504027618
21
9.64180998535529
31
0.000000000000000
  0
LINE
  5
F103D8
330
F103D9
100
AcDbEntity
8
Geo
100
AcDbLine
10
-62.7698504027618
20
9.64180998535529
30
0.000000000000000
11
-62.6698504027618
21
9.62341106049992
31
0.000000000000000
  0
LINE
  5
F103DA
330
F103DB
100
AcDbEntity
8
Geo
100
AcDbLine
10
-62.6698504027618
20
9.62341106049992
30
0.000000000000000
11
-62.5698504027618
21
9.60239070863923
31
0.000000000000000
  0
LINE
  5
F103DC
330
F103DD
100
AcDbEntity
8
Geo
100
AcDbLine
10
-62.5698504027618
20
9.60239070863923
30
0.000000000000000
11
-62.4698504027618
21
9.57879913983687
31
0.000000000000000
  0
LINE
  5
F103DE
330
F103DF
100
AcDbEntity
8
Geo
100
AcDbLine
10
-62.4698504027618
20
9.57879913983687
30
0.000000000000000
11
-62.3698504027618
21
9.55268477579158
31
0.000000000000000
  0
LINE
  5
F103E0
330
F103E1
100
AcDbEntity
8
Geo
100
AcDbLine
10
-62.3698504027618
20
9.55268477579158
30
0.000000000000000
11
-62.2698504027618
21
9.52409442073574
31
0.000000000000000
  0
LINE
  5
F103E2
330
F103E3
100
AcDbEntity
8
Geo
100
AcDbLine
10
-62.2698504027618
20
9.52409442073574
30
0.000000000000000
11
-62.1698504027618
21
9.49307341560773
31
0.000000000000000
  0
LINE
  5
F103E4
330
F103E5
100
AcDbEntity
8
Geo
100
AcDbLine
10
-62.1698504027618
20
9.49307341560773
30
0.000000000000000
11
-62.0698504027618
21
9.45966577742525
31
0.000000000000000
  0
LINE
  5
F103E6
330
F103E7
100
AcDbEntity
8
Geo
100
AcDbLine
10
-62.0698504027618
20
9.45966577742525
30
0.000000000000000
11
-61.9698504027618
21
9.42391432553035
31
0.000000000000000
  0
LINE
  5
F103E8
330
F103E9
100
AcDbEntity
8
Geo
100
AcDbLine
10
-61.9698504027618
20
9.42391432553035
30
0.000000000000000
11
-61.8698504027618
21
9.38586079615898
31
0.000000000000000
  0
LINE
  5
F103EA
330
F103EB
100
AcDbEntity
8
Geo
100
AcDbLine
10
-61.8698504027618
20
9.38586079615898
30
0.000000000000000
11
-61.7698504027618
21
9.34554594660192
31
0.000000000000000
  0
LINE
  5
F103EC
330
F103ED
100
AcDbEntity
8
Geo
100
AcDbLine
10
-61.7698504027618
20
9.34554594660192
30
0.000000000000000
11
-61.6698504027618
21
9.30300965006558
31
0.000000000000000
  0
LINE
  5
F103EE
330
F103EF
100
AcDbEntity
8
Geo
100
AcDbLine
10
-61.6698504027618
20
9.30300965006558
30
0.000000000000000
11
-61.5698504027618
21
9.25829098220413
31
0.000000000000000
  0
LINE
  5
F103F0
330
F103F1
100
AcDbEntity
8
Geo
100
AcDbLine
10
-61.5698504027618
20
9.25829098220413
30
0.000000000000000
11
-61.4698504027618
21
9.21142830017805
31
0.000000000000000
  0
LINE
  5
F103F2
330
F103F3
100
AcDbEntity
8
Geo
100
AcDbLine
10
-61.4698504027618
20
9.21142830017805
30
0.000000000000000
11
-61.3698504027618
21
9.16245931499203
31
0.000000000000000
  0
LINE
  5
F103F4
330
F103F5
100
AcDbEntity
8
Geo
100
AcDbLine
10
-61.3698504027618
20
9.16245931499203
30
0.000000000000000
11
-61.2698504027618
21
9.11142115777838
31
0.000000000000000
  0
LINE
  5
F103F6
330
F103F7
100
AcDbEntity
8
Geo
100
AcDbLine
10
-61.2698504027618
20
9.11142115777838
30
0.000000000000000
11
-61.1698504027618
21
9.05835044061551
31
0.000000000000000
  0
LINE
  5
F103F8
330
F103F9
100
AcDbEntity
8
Geo
100
AcDbLine
10
-61.1698504027618
20
9.05835044061551
30
0.000000000000000
11
-61.0698504027618
21
9.00328331240510
31
0.000000000000000
  0
LINE
  5
F103FA
330
F103FB
100
AcDbEntity
8
Geo
100
AcDbLine
10
-61.0698504027618
20
9.00328331240510
30
0.000000000000000
11
-60.9698504027618
21
8.94625551027414
31
0.000000000000000
  0
LINE
  5
F103FC
330
F103FD
100
AcDbEntity
8
Geo
100
AcDbLine
10
-60.9698504027618
20
8.94625551027414
30
0.000000000000000
11
-60.8698504027618
21
8.88730240691694
31
0.000000000000000
  0
LINE
  5
F103FE
330
F103FF
100
AcDbEntity
8
Geo
100
AcDbLine
10
-60.8698504027618
20
8.88730240691694
30
0.000000000000000
11
-60.7698504027618
21
8.82645905424887
31
0.000000000000000
  0
LINE
  5
F10400
330
F10401
100
AcDbEntity
8
Geo
100
AcDbLine
10
-60.7698504027618
20
8.82645905424887
30
0.000000000000000
11
-60.6698504027618
21
8.76376022370403
31
0.000000000000000
  0
LINE
  5
F10402
330
F10403
100
AcDbEntity
8
Geo
100
AcDbLine
10
-60.6698504027618
20
8.76376022370403
30
0.000000000000000
11
-60.5698504027618
21
8.69924044347528
31
0.000000000000000
  0
LINE
  5
F10404
330
F10405
100
AcDbEntity
8
Geo
100
AcDbLine
10
-60.5698504027618
20
8.69924044347528
30
0.000000000000000
11
-60.4698504027618
21
8.63293403296496
31
0.000000000000000
  0
LINE
  5
F10406
330
F10407
100
AcDbEntity
8
Geo
100
AcDbLine
10
-60.4698504027618
20
8.63293403296496
30
0.000000000000000
11
-60.3698504027618
21
8.56487513468785
31
0.000000000000000
  0
LINE
  5
F10408
330
F10409
100
AcDbEntity
8
Geo
100
AcDbLine
10
-60.3698504027618
20
8.56487513468785
30
0.000000000000000
11
-60.2698504027618
21
8.49509774384445
31
0.000000000000000
  0
LINE
  5
F1040A
330
F1040B
100
AcDbEntity
8
Geo
100
AcDbLine
10
-60.2698504027618
20
8.49509774384445
30
0.000000000000000
11
-60.1698504027618
21
8.42363573576188
31
0.000000000000000
  0
LINE
  5
F1040C
330
F1040D
100
AcDbEntity
8
Geo
100
AcDbLine
10
-60.1698504027618
20
8.42363573576188
30
0.000000000000000
11
-60.0698504027618
21
8.35052289138089
31
0.000000000000000
  0
LINE
  5
F1040E
330
F1040F
100
AcDbEntity
8
Geo
100
AcDbLine
10
-60.0698504027618
20
8.35052289138089
30
0.000000000000000
11
-59.9698504027618
21
8.27579292095142
31
0.000000000000000
  0
LINE
  5
F10410
330
F10411
100
AcDbEntity
8
Geo
100
AcDbLine
10
-59.9698504027618
20
8.27579292095142
30
0.000000000000000
11
-59.8698504027618
21
8.19947948608394
31
0.000000000000000
  0
LINE
  5
F10412
330
F10413
100
AcDbEntity
8
Geo
100
AcDbLine
10
-59.8698504027618
20
8.19947948608394
30
0.000000000000000
11
-59.7698504027618
21
8.12161622029110
31
0.000000000000000
  0
LINE
  5
F10414
330
F10415
100
AcDbEntity
8
Geo
100
AcDbLine
10
-59.7698504027618
20
8.12161622029110
30
0.000000000000000
11
-59.6698504027618
21
8.04223674814232
31
0.000000000000000
  0
LINE
  5
F10416
330
F10417
100
AcDbEntity
8
Geo
100
AcDbLine
10
-59.6698504027618
20
8.04223674814232
30
0.000000000000000
11
-59.5698504027618
21
7.96137470314360
31
0.000000000000000
  0
LINE
  5
F10418
330
F10419
100
AcDbEntity
8
Geo
100
AcDbLine
10
-59.5698504027618
20
7.96137470314360
30
0.000000000000000
11
-59.4698504027618
21
7.87906374444531
31
0.000000000000000
  0
LINE
  5
F1041A
330
F1041B
100
AcDbEntity
8
Geo
100
AcDbLine
10
-59.4698504027618
20
7.87906374444531
30
0.000000000000000
11
-59.3698504027618
21
7.79533757247256
31
0.000000000000000
  0
LINE
  5
F1041C
330
F1041D
100
AcDbEntity
8
Geo
100
AcDbLine
10
-59.3698504027618
20
7.79533757247256
30
0.000000000000000
11
-59.2698504027618
21
7.71022994356496
31
0.000000000000000
  0
LINE
  5
F1041E
330
F1041F
100
AcDbEntity
8
Geo
100
AcDbLine
10
-59.2698504027618
20
7.71022994356496
30
0.000000000000000
11
-59.1698504027618
21
7.62377468370624
31
0.000000000000000
  0
LINE
  5
F10420
330
F10421
100
AcDbEntity
8
Geo
100
AcDbLine
10
-59.1698504027618
20
7.62377468370624
30
0.000000000000000
11
-59.0698504027618
21
7.53600570141760
31
0.000000000000000
  0
LINE
  5
F10422
330
F10423
100
AcDbEntity
8
Geo
100
AcDbLine
10
-59.0698504027618
20
7.53600570141760
30
0.000000000000000
11
-58.9698504027618
21
7.44695699988384
31
0.000000000000000
  0
LINE
  5
F10424
330
F10425
100
AcDbEntity
8
Geo
100
AcDbLine
10
-58.9698504027618
20
7.44695699988384
30
0.000000000000000
11
-58.8698504027618
21
7.35666268837604
31
0.000000000000000
  0
LINE
  5
F10426
330
F10427
100
AcDbEntity
8
Geo
100
AcDbLine
10
-58.8698504027618
20
7.35666268837604
30
0.000000000000000
11
-58.7698504027618
21
7.26515699303037
31
0.000000000000000
  0
LINE
  5
F10428
330
F10429
100
AcDbEntity
8
Geo
100
AcDbLine
10
-58.7698504027618
20
7.26515699303037
30
0.000000000000000
11
-58.6698504027618
21
7.17247426703874
31
0.000000000000000
  0
LINE
  5
F1042A
330
F1042B
100
AcDbEntity
8
Geo
100
AcDbLine
10
-58.6698504027618
20
7.17247426703874
30
0.000000000000000
11
-58.5698504027618
21
7.07864900030343
31
0.000000000000000
  0
LINE
  5
F1042C
330
F1042D
100
AcDbEntity
8
Geo
100
AcDbLine
10
-58.5698504027618
20
7.07864900030343
30
0.000000000000000
11
-58.4698504027618
21
6.98371582860490
31
0.000000000000000
  0
LINE
  5
F1042E
330
F1042F
100
AcDbEntity
8
Geo
100
AcDbLine
10
-58.4698504027618
20
6.98371582860490
30
0.000000000000000
11
-58.3698504027618
21
6.88770954232895
31
0.000000000000000
  0
LINE
  5
F10430
330
F10431
100
AcDbEntity
8
Geo
100
AcDbLine
10
-58.3698504027618
20
6.88770954232895
30
0.000000000000000
11
-58.2698504027618
21
6.79066509479735
31
0.000000000000000
  0
LINE
  5
F10432
330
F10433
100
AcDbEntity
8
Geo
100
AcDbLine
10
-58.2698504027618
20
6.79066509479735
30
0.000000000000000
11
-58.1698504027618
21
6.69300492782579
31
0.000000000000000
  0
LINE
  5
F10434
330
F10435
100
AcDbEntity
8
Geo
100
AcDbLine
10
-58.1698504027618
20
6.69300492782579
30
0.000000000000000
11
-58.0698504027618
21
6.59513461055921
31
0.000000000000000
  0
LINE
  5
F10436
330
F10437
100
AcDbEntity
8
Geo
100
AcDbLine
10
-58.0698504027618
20
6.59513461055921
30
0.000000000000000
11
-57.9698504027618
21
6.49706392994776
31
0.000000000000000
  0
LINE
  5
F10438
330
F10439
100
AcDbEntity
8
Geo
100
AcDbLine
10
-57.9698504027618
20
6.49706392994776
30
0.000000000000000
11
-57.8698504027618
21
6.39880269297778
31
0.000000000000000
  0
LINE
  5
F1043A
330
F1043B
100
AcDbEntity
8
Geo
100
AcDbLine
10
-57.8698504027618
20
6.39880269297778
30
0.000000000000000
11
-57.7698504027618
21
6.30036072569109
31
0.000000000000000
  0
LINE
  5
F1043C
330
F1043D
100
AcDbEntity
8
Geo
100
AcDbLine
10
-57.7698504027618
20
6.30036072569109
30
0.000000000000000
11
-57.6698504027618
21
6.20174787220239
31
0.000000000000000
  0
LINE
  5
F1043E
330
F1043F
100
AcDbEntity
8
Geo
100
AcDbLine
10
-57.6698504027618
20
6.20174787220239
30
0.000000000000000
11
-57.5698504027618
21
6.10297399371483
31
0.000000000000000
  0
LINE
  5
F10440
330
F10441
100
AcDbEntity
8
Geo
100
AcDbLine
10
-57.5698504027618
20
6.10297399371483
30
0.000000000000000
11
-57.4698504027618
21
6.00404896753396
31
0.000000000000000
  0
LINE
  5
F10442
330
F10443
100
AcDbEntity
8
Geo
100
AcDbLine
10
-57.4698504027618
20
6.00404896753396
30
0.000000000000000
11
-57.3698504027618
21
5.90498268607996
31
0.000000000000000
  0
LINE
  5
F10444
330
F10445
100
AcDbEntity
8
Geo
100
AcDbLine
10
-57.3698504027618
20
5.90498268607996
30
0.000000000000000
11
-57.2698504027618
21
5.80578505589842
31
0.000000000000000
  0
LINE
  5
F10446
330
F10447
100
AcDbEntity
8
Geo
100
AcDbLine
10
-57.2698504027618
20
5.80578505589842
30
0.000000000000000
11
-57.1698504027618
21
5.70646599666970
31
0.000000000000000
  0
LINE
  5
F10448
330
F10449
100
AcDbEntity
8
Geo
100
AcDbLine
10
-57.1698504027618
20
5.70646599666970
30
0.000000000000000
11
-57.0698504027618
21
5.60703544021695
31
0.000000000000000
  0
LINE
  5
F1044A
330
F1044B
100
AcDbEntity
8
Geo
100
AcDbLine
10
-57.0698504027618
20
5.60703544021695
30
0.000000000000000
11
-56.9698504027618
21
5.50750332951295
31
0.000000000000000
  0
LINE
  5
F1044C
330
F1044D
100
AcDbEntity
8
Geo
100
AcDbLine
10
-56.9698504027618
20
5.50750332951295
30
0.000000000000000
11
-56.8698504027618
21
5.40787961768584
31
0.000000000000000
  0
LINE
  5
F1044E
330
F1044F
100
AcDbEntity
8
Geo
100
AcDbLine
10
-56.8698504027618
20
5.40787961768584
30
0.000000000000000
11
-56.7698504027618
21
5.30817426702378
31
0.000000000000000
  0
LINE
  5
F10450
330
F10451
100
AcDbEntity
8
Geo
100
AcDbLine
10
-56.7698504027618
20
5.30817426702378
30
0.000000000000000
11
-56.6698504027618
21
5.20839724797875
31
0.000000000000000
  0
LINE
  5
F10452
330
F10453
100
AcDbEntity
8
Geo
100
AcDbLine
10
-56.6698504027618
20
5.20839724797875
30
0.000000000000000
11
-56.5698504027618
21
5.10855853816950
31
0.000000000000000
  0
LINE
  5
F10454
330
F10455
100
AcDbEntity
8
Geo
100
AcDbLine
10
-56.5698504027618
20
5.10855853816950
30
0.000000000000000
11
-56.4698504027618
21
5.00866812138382
31
0.000000000000000
  0
LINE
  5
F10456
330
F10457
100
AcDbEntity
8
Geo
100
AcDbLine
10
-56.4698504027618
20
5.00866812138382
30
0.000000000000000
11
-56.3698504027618
21
4.90873598658014
31
0.000000000000000
  0
LINE
  5
F10458
330
F10459
100
AcDbEntity
8
Geo
100
AcDbLine
10
-56.3698504027618
20
4.90873598658014
30
0.000000000000000
11
-56.2698504027618
21
4.80877212688867
31
0.000000000000000
  0
LINE
  5
F1045A
330
F1045B
100
AcDbEntity
8
Geo
100
AcDbLine
10
-56.2698504027618
20
4.80877212688867
30
0.000000000000000
11
-56.1698504027618
21
4.70878653861208
31
0.000000000000000
  0
LINE
  5
F1045C
330
F1045D
100
AcDbEntity
8
Geo
100
AcDbLine
10
-56.1698504027618
20
4.70878653861208
30
0.000000000000000
11
-56.0698504027618
21
4.60878922022586
31
0.000000000000000
  0
LINE
  5
F1045E
330
F1045F
100
AcDbEntity
8
Geo
100
AcDbLine
10
-56.0698504027618
20
4.60878922022586
30
0.000000000000000
11
-55.9698504027618
21
4.50879017137853
31
0.000000000000000
  0
LINE
  5
F10460
330
F10461
100
AcDbEntity
8
Geo
100
AcDbLine
10
-55.9698504027618
20
4.50879017137853
30
0.000000000000000
11
-55.8698504027618
21
4.40879939189165
31
0.000000000000000
  0
LINE
  5
F10462
330
F10463
100
AcDbEntity
8
Geo
100
AcDbLine
10
-55.8698504027618
20
4.40879939189165
30
0.000000000000000
11
-55.7698504027618
21
4.30882688075982
31
0.000000000000000
  0
LINE
  5
F10464
330
F10465
100
AcDbEntity
8
Geo
100
AcDbLine
10
-55.7698504027618
20
4.30882688075982
30
0.000000000000000
11
-55.6698504027618
21
4.20888263515087
31
0.000000000000000
  0
LINE
  5
F10466
330
F10467
100
AcDbEntity
8
Geo
100
AcDbLine
10
-55.6698504027618
20
4.20888263515087
30
0.000000000000000
11
-55.5698504027618
21
4.10897664940605
31
0.000000000000000
  0
LINE
  5
F10468
330
F10469
100
AcDbEntity
8
Geo
100
AcDbLine
10
-55.5698504027618
20
4.10897664940605
30
0.000000000000000
11
-55.4698504027618
21
4.00911891404070
31
0.000000000000000
  0
LINE
  5
F1046A
330
F1046B
100
AcDbEntity
8
Geo
100
AcDbLine
10
-55.4698504027618
20
4.00911891404070
30
0.000000000000000
11
-55.3698504027618
21
3.90931941474513
31
0.000000000000000
  0
LINE
  5
F1046C
330
F1046D
100
AcDbEntity
8
Geo
100
AcDbLine
10
-55.3698504027618
20
3.90931941474513
30
0.000000000000000
11
-55.2698504027618
21
3.80958813138611
31
0.000000000000000
  0
LINE
  5
F1046E
330
F1046F
100
AcDbEntity
8
Geo
100
AcDbLine
10
-55.2698504027618
20
3.80958813138611
30
0.000000000000000
11
-55.1698504027619
21
3.70993503700886
31
0.000000000000000
  0
LINE
  5
F10470
330
F10471
100
AcDbEntity
8
Geo
100
AcDbLine
10
-55.1698504027619
20
3.70993503700886
30
0.000000000000000
11
-55.0698504027619
21
3.61037009683977
31
0.000000000000000
  0
LINE
  5
F10472
330
F10473
100
AcDbEntity
8
Geo
100
AcDbLine
10
-55.0698504027619
20
3.61037009683977
30
0.000000000000000
11
-54.9698504027618
21
3.51090326728990
31
0.000000000000000
  0
LINE
  5
F10474
330
F10475
100
AcDbEntity
8
Geo
100
AcDbLine
10
-54.9698504027618
20
3.51090326728990
30
0.000000000000000
11
-54.8698504027618
21
3.41154449495931
31
0.000000000000000
  0
LINE
  5
F10476
330
F10477
100
AcDbEntity
8
Geo
100
AcDbLine
10
-54.8698504027618
20
3.41154449495931
30
0.000000000000000
11
-54.7698504027618
21
3.31230371564244
31
0.000000000000000
  0
LINE
  5
F10478
330
F10479
100
AcDbEntity
8
Geo
100
AcDbLine
10
-54.7698504027618
20
3.31230371564244
30
0.000000000000000
11
-54.6698504027619
21
3.21319085333451
31
0.000000000000000
  0
LINE
  5
F1047A
330
F1047B
100
AcDbEntity
8
Geo
100
AcDbLine
10
-54.6698504027619
20
3.21319085333451
30
0.000000000000000
11
-54.5698504027619
21
3.11421581923916
31
0.000000000000000
  0
LINE
  5
F1047C
330
F1047D
100
AcDbEntity
8
Geo
100
AcDbLine
10
-54.5698504027619
20
3.11421581923916
30
0.000000000000000
11
-54.4698504027618
21
3.01538851077733
31
0.000000000000000
  0
LINE
  5
F1047E
330
F1047F
100
AcDbEntity
8
Geo
100
AcDbLine
10
-54.4698504027618
20
3.01538851077733
30
0.000000000000000
11
-54.3698504027619
21
2.91671881059750
31
0.000000000000000
  0
LINE
  5
F10480
330
F10481
100
AcDbEntity
8
Geo
100
AcDbLine
10
-54.3698504027619
20
2.91671881059750
30
0.000000000000000
11
-54.2698504027619
21
2.81821658558747
31
0.000000000000000
  0
LINE
  5
F10482
330
F10483
100
AcDbEntity
8
Geo
100
AcDbLine
10
-54.2698504027619
20
2.81821658558747
30
0.000000000000000
11
-54.1698504027619
21
2.71989168588765
31
0.000000000000000
  0
LINE
  5
F10484
330
F10485
100
AcDbEntity
8
Geo
100
AcDbLine
10
-54.1698504027619
20
2.71989168588765
30
0.000000000000000
11
-54.0698504027619
21
2.62175394390607
31
0.000000000000000
  0
LINE
  5
F10486
330
F10487
100
AcDbEntity
8
Geo
100
AcDbLine
10
-54.0698504027619
20
2.62175394390607
30
0.000000000000000
11
-53.9698504027618
21
2.52381317333516
31
0.000000000000000
  0
LINE
  5
F10488
330
F10489
100
AcDbEntity
8
Geo
100
AcDbLine
10
-53.9698504027618
20
2.52381317333516
30
0.000000000000000
11
-53.8698504027619
21
2.42607916817036
31
0.000000000000000
  0
LINE
  5
F1048A
330
F1048B
100
AcDbEntity
8
Geo
100
AcDbLine
10
-53.8698504027619
20
2.42607916817036
30
0.000000000000000
11
-53.7698504027619
21
2.32856170173072
31
0.000000000000000
  0
LINE
  5
F1048C
330
F1048D
100
AcDbEntity
8
Geo
100
AcDbLine
10
-53.7698504027619
20
2.32856170173072
30
0.000000000000000
11
-53.6698504027619
21
2.23127052568164
31
0.000000000000000
  0
LINE
  5
F1048E
330
F1048F
100
AcDbEntity
8
Geo
100
AcDbLine
10
-53.6698504027619
20
2.23127052568164
30
0.000000000000000
11
-53.5698504027619
21
2.13421536905965
31
0.000000000000000
  0
LINE
  5
F10490
330
F10491
100
AcDbEntity
8
Geo
100
AcDbLine
10
-53.5698504027619
20
2.13421536905965
30
0.000000000000000
11
-53.4698504027619
21
2.03740593729952
31
0.000000000000000
  0
LINE
  5
F10492
330
F10493
100
AcDbEntity
8
Geo
100
AcDbLine
10
-53.4698504027619
20
2.03740593729952
30
0.000000000000000
11
-53.3698504027619
21
1.94085191126376
31
0.000000000000000
  0
LINE
  5
F10494
330
F10495
100
AcDbEntity
8
Geo
100
AcDbLine
10
-53.3698504027619
20
1.94085191126376
30
0.000000000000000
11
-53.2698504027619
21
1.84456294627451
31
0.000000000000000
  0
LINE
  5
F10496
330
F10497
100
AcDbEntity
8
Geo
100
AcDbLine
10
-53.2698504027619
20
1.84456294627451
30
0.000000000000000
11
-53.1698504027619
21
1.74854867114803
31
0.000000000000000
  0
LINE
  5
F10498
330
F10499
100
AcDbEntity
8
Geo
100
AcDbLine
10
-53.1698504027619
20
1.74854867114803
30
0.000000000000000
11
-53.0698504027619
21
1.65281868723182
31
0.000000000000000
  0
LINE
  5
F1049A
330
F1049B
100
AcDbEntity
8
Geo
100
AcDbLine
10
-53.0698504027619
20
1.65281868723182
30
0.000000000000000
11
-52.9698504027619
21
1.55738256744450
31
0.000000000000000
  0
LINE
  5
F1049C
330
F1049D
100
AcDbEntity
8
Geo
100
AcDbLine
10
-52.9698504027619
20
1.55738256744450
30
0.000000000000000
11
-52.8698504027619
21
1.46224985531852
31
0.000000000000000
  0
LINE
  5
F1049E
330
F1049F
100
AcDbEntity
8
Geo
100
AcDbLine
10
-52.8698504027619
20
1.46224985531852
30
0.000000000000000
11
-52.7698504027619
21
1.36743006404580
31
0.000000000000000
  0
LINE
  5
F104A0
330
F104A1
100
AcDbEntity
8
Geo
100
AcDbLine
10
-52.7698504027619
20
1.36743006404580
30
0.000000000000000
11
-52.6698504027619
21
1.27293267552647
31
0.000000000000000
  0
LINE
  5
F104A2
330
F104A3
100
AcDbEntity
8
Geo
100
AcDbLine
10
-52.6698504027619
20
1.27293267552647
30
0.000000000000000
11
-52.5698504027619
21
1.17876713942062
31
0.000000000000000
  0
LINE
  5
F104A4
330
F104A5
100
AcDbEntity
8
Geo
100
AcDbLine
10
-52.5698504027619
20
1.17876713942062
30
0.000000000000000
11
-52.4698504027619
21
1.08494287220340
31
0.000000000000000
  0
LINE
  5
F104A6
330
F104A7
100
AcDbEntity
8
Geo
100
AcDbLine
10
-52.4698504027619
20
1.08494287220340
30
0.000000000000000
11
-52.3698504027619
21
0.991469256223346
31
0.000000000000000
  0
LINE
  5
F104A8
330
F104A9
100
AcDbEntity
8
Geo
100
AcDbLine
10
-52.3698504027619
20
0.991469256223346
30
0.000000000000000
11
-52.2698504027619
21
0.898355638764155
31
0.000000000000000
  0
LINE
  5
F104AA
330
F104AB
100
AcDbEntity
8
Geo
100
AcDbLine
10
-52.2698504027619
20
0.898355638764155
30
0.000000000000000
11
-52.1698504027619
21
0.805611331109979
31
0.000000000000000
  0
LINE
  5
F104AC
330
F104AD
100
AcDbEntity
8
Geo
100
AcDbLine
10
-52.1698504027619
20
0.805611331109979
30
0.000000000000000
11
-52.0698504027619
21
0.713245607614297
31
0.000000000000000
  0
LINE
  5
F104AE
330
F104AF
100
AcDbEntity
8
Geo
100
AcDbLine
10
-52.0698504027619
20
0.713245607614297
30
0.000000000000000
11
-51.9698504027619
21
0.621267704772490
31
0.000000000000000
  0
LINE
  5
F104B0
330
F104B1
100
AcDbEntity
8
Geo
100
AcDbLine
10
-51.9698504027619
20
0.621267704772490
30
0.000000000000000
11
-51.8698504027619
21
0.529686820298191
31
0.000000000000000
  0
LINE
  5
F104B2
330
F104B3
100
AcDbEntity
8
Geo
100
AcDbLine
10
-51.8698504027619
20
0.529686820298191
30
0.000000000000000
11
-51.7698504027619
21
0.438512112203534
31
0.000000000000000
  0
LINE
  5
F104B4
330
F104B5
100
AcDbEntity
8
Geo
100
AcDbLine
10
-51.7698504027619
20
0.438512112203534
30
0.000000000000000
11
-51.6698504027619
21
0.347752697883347
31
0.000000000000000
  0
LINE
  5
F104B6
330
F104B7
100
AcDbEntity
8
Geo
100
AcDbLine
10
-51.6698504027619
20
0.347752697883347
30
0.000000000000000
11
-51.5698504027619
21
0.257417653203432
31
0.000000000000000
  0
LINE
  5
F104B8
330
F104B9
100
AcDbEntity
8
Geo
100
AcDbLine
10
-51.5698504027619
20
0.257417653203432
30
0.000000000000000
11
-51.4698504027618
21
0.167516011592975
31
0.000000000000000
  0
LINE
  5
F104BA
330
F104BB
100
AcDbEntity
8
Geo
100
AcDbLine
10
-51.4698504027618
20
0.167516011592975
30
0.000000000000000
11
-51.3698504027618
21
0.0780567631412215
31
0.000000000000000
  0
LINE
  5
F104BC
330
F104BD
100
AcDbEntity
8
Geo
100
AcDbLine
10
-51.3698504027618
20
0.0780567631412215
30
0.000000000000000
11
-51.2698504027618
21
-0.0109511463015330
31
0.000000000000000
  0
LINE
  5
F104BE
330
F104BF
100
AcDbEntity
8
Geo
100
AcDbLine
10
-51.2698504027618
20
-0.0109511463015330
30
0.000000000000000
11
-51.1698504027618
21
-0.0994988160185173
31
0.000000000000000
  0
LINE
  5
F104C0
330
F104C1
100
AcDbEntity
8
Geo
100
AcDbLine
10
-51.1698504027618
20
-0.0994988160185173
30
0.000000000000000
11
-51.0698504027618
21
-0.187577391316549
31
0.000000000000000
  0
LINE
  5
F104C2
330
F104C3
100
AcDbEntity
8
Geo
100
AcDbLine
10
-51.0698504027618
20
-0.187577391316549
30
0.000000000000000
11
-50.9698504027618
21
-0.275178064411497
31
0.000000000000000
  0
LINE
  5
F104C4
330
F104C5
100
AcDbEntity
8
Geo
100
AcDbLine
10
-50.9698504027618
20
-0.275178064411497
30
0.000000000000000
11
-50.8698504027618
21
-0.362292075309052
31
0.000000000000000
  0
LINE
  5
F104C6
330
F104C7
100
AcDbEntity
8
Geo
100
AcDbLine
10
-50.8698504027618
20
-0.362292075309052
30
0.000000000000000
11
-50.7698504027618
21
-0.448910712680721
31
0.000000000000000
  0
LINE
  5
F104C8
330
F104C9
100
AcDbEntity
8
Geo
100
AcDbLine
10
-50.7698504027618
20
-0.448910712680721
30
0.000000000000000
11
-50.6698504027618
21
-0.535025314734946
31
0.000000000000000
  0
LINE
  5
F104CA
330
F104CB
100
AcDbEntity
8
Geo
100
AcDbLine
10
-50.6698504027618
20
-0.535025314734946
30
0.000000000000000
11
-50.5698504027618
21
-0.620627270083284
31
0.000000000000000
  0
LINE
  5
F104CC
330
F104CD
100
AcDbEntity
8
Geo
100
AcDbLine
10
-50.5698504027618
20
-0.620627270083284
30
0.000000000000000
11
-50.4698504027618
21
-0.705708018601536
31
0.000000000000000
  0
LINE
  5
F104CE
330
F104CF
100
AcDbEntity
8
Geo
100
AcDbLine
10
-50.4698504027618
20
-0.705708018601536
30
0.000000000000000
11
-50.3698504027618
21
-0.790259052285749
31
0.000000000000000
  0
LINE
  5
F104D0
330
F104D1
100
AcDbEntity
8
Geo
100
AcDbLine
10
-50.3698504027618
20
-0.790259052285749
30
0.000000000000000
11
-50.2698504027618
21
-0.874271916103016
31
0.000000000000000
  0
LINE
  5
F104D2
330
F104D3
100
AcDbEntity
8
Geo
100
AcDbLine
10
-50.2698504027618
20
-0.874271916103016
30
0.000000000000000
11
-50.1698504027618
21
-0.957738208836963
31
0.000000000000000
  0
LINE
  5
F104D4
330
F104D5
100
AcDbEntity
8
Geo
100
AcDbLine
10
-50.1698504027618
20
-0.957738208836963
30
0.000000000000000
11
-50.0698504027618
21
-1.04064958392787
31
0.000000000000000
  0
LINE
  5
F104D6
330
F104D7
100
AcDbEntity
8
Geo
100
AcDbLine
10
-50.0698504027618
20
-1.04064958392787
30
0.000000000000000
11
-49.9698504027618
21
-1.12299775030733
31
0.000000000000000
  0
LINE
  5
F104D8
330
F104D9
100
AcDbEntity
8
Geo
100
AcDbLine
10
-49.9698504027618
20
-1.12299775030733
30
0.000000000000000
11
-49.8698504027618
21
-1.20477447322732
31
0.000000000000000
  0
LINE
  5
F104DA
330
F104DB
100
AcDbEntity
8
Geo
100
AcDbLine
10
-49.8698504027618
20
-1.20477447322732
30
0.000000000000000
11
-49.7698504027618
21
-1.28597157508369
31
0.000000000000000
  0
LINE
  5
F104DC
330
F104DD
100
AcDbEntity
8
Geo
100
AcDbLine
10
-49.7698504027618
20
-1.28597157508369
30
0.000000000000000
11
-49.6698504027618
21
-1.36658093623393
31
0.000000000000000
  0
LINE
  5
F104DE
330
F104DF
100
AcDbEntity
8
Geo
100
AcDbLine
10
-49.6698504027618
20
-1.36658093623393
30
0.000000000000000
11
-49.5698504027618
21
-1.44659449580910
31
0.000000000000000
  0
LINE
  5
F104E0
330
F104E1
100
AcDbEntity
8
Geo
100
AcDbLine
10
-49.5698504027618
20
-1.44659449580910
30
0.000000000000000
11
-49.4698504027618
21
-1.52600425251991
31
0.000000000000000
  0
LINE
  5
F104E2
330
F104E3
100
AcDbEntity
8
Geo
100
AcDbLine
10
-49.4698504027618
20
-1.52600425251991
30
0.000000000000000
11
-49.3698504027618
21
-1.60480226545686
31
0.000000000000000
  0
LINE
  5
F104E4
330
F104E5
100
AcDbEntity
8
Geo
100
AcDbLine
10
-49.3698504027618
20
-1.60480226545686
30
0.000000000000000
11
-49.2698504027618
21
-1.68298065488434
31
0.000000000000000
  0
LINE
  5
F104E6
330
F104E7
100
AcDbEntity
8
Geo
100
AcDbLine
10
-49.2698504027618
20
-1.68298065488434
30
0.000000000000000
11
-49.1698504027618
21
-1.76053160302854
31
0.000000000000000
  0
LINE
  5
F104E8
330
F104E9
100
AcDbEntity
8
Geo
100
AcDbLine
10
-49.1698504027618
20
-1.76053160302854
30
0.000000000000000
11
-49.0698504027618
21
-1.83744735485928
31
0.000000000000000
  0
LINE
  5
F104EA
330
F104EB
100
AcDbEntity
8
Geo
100
AcDbLine
10
-49.0698504027618
20
-1.83744735485928
30
0.000000000000000
11
-48.9698504027618
21
-1.91372021886546
31
0.000000000000000
  0
LINE
  5
F104EC
330
F104ED
100
AcDbEntity
8
Geo
100
AcDbLine
10
-48.9698504027618
20
-1.91372021886546
30
0.000000000000000
11
-48.8698504027618
21
-1.98934256782426
31
0.000000000000000
  0
LINE
  5
F104EE
330
F104EF
100
AcDbEntity
8
Geo
100
AcDbLine
10
-48.8698504027618
20
-1.98934256782426
30
0.000000000000000
11
-48.7698504027618
21
-2.06430683956378
31
0.000000000000000
  0
LINE
  5
F104F0
330
F104F1
100
AcDbEntity
8
Geo
100
AcDbLine
10
-48.7698504027618
20
-2.06430683956378
30
0.000000000000000
11
-48.6698504027618
21
-2.13860553771934
31
0.000000000000000
  0
LINE
  5
F104F2
330
F104F3
100
AcDbEntity
8
Geo
100
AcDbLine
10
-48.6698504027618
20
-2.13860553771934
30
0.000000000000000
11
-48.5698504027618
21
-2.21223123248302
31
0.000000000000000
  0
LINE
  5
F104F4
330
F104F5
100
AcDbEntity
8
Geo
100
AcDbLine
10
-48.5698504027618
20
-2.21223123248302
30
0.000000000000000
11
-48.4698504027618
21
-2.28517656134671
31
0.000000000000000
  0
LINE
  5
F104F6
330
F104F7
100
AcDbEntity
8
Geo
100
AcDbLine
10
-48.4698504027618
20
-2.28517656134671
30
0.000000000000000
11
-48.3698504027618
21
-2.35743422983830
31
0.000000000000000
  0
LINE
  5
F104F8
330
F104F9
100
AcDbEntity
8
Geo
100
AcDbLine
10
-48.3698504027618
20
-2.35743422983830
30
0.000000000000000
11
-48.2698504027618
21
-2.42899701225117
31
0.000000000000000
  0
LINE
  5
F104FA
330
F104FB
100
AcDbEntity
8
Geo
100
AcDbLine
10
-48.2698504027618
20
-2.42899701225117
30
0.000000000000000
11
-48.1698504027618
21
-2.49985775236670
31
0.000000000000000
  0
LINE
  5
F104FC
330
F104FD
100
AcDbEntity
8
Geo
100
AcDbLine
10
-48.1698504027618
20
-2.49985775236670
30
0.000000000000000
11
-48.0698504027618
21
-2.57000936416994
31
0.000000000000000
  0
LINE
  5
F104FE
330
F104FF
100
AcDbEntity
8
Geo
100
AcDbLine
10
-48.0698504027618
20
-2.57000936416994
30
0.000000000000000
11
-47.9698504027618
21
-2.63944483255816
31
0.000000000000000
  0
LINE
  5
F10500
330
F10501
100
AcDbEntity
8
Geo
100
AcDbLine
10
-47.9698504027618
20
-2.63944483255816
30
0.000000000000000
11
-47.8698504027618
21
-2.70815721404239
31
0.000000000000000
  0
LINE
  5
F10502
330
F10503
100
AcDbEntity
8
Geo
100
AcDbLine
10
-47.8698504027618
20
-2.70815721404239
30
0.000000000000000
11
-47.7698504027618
21
-2.77613963744174
31
0.000000000000000
  0
LINE
  5
F10504
330
F10505
100
AcDbEntity
8
Geo
100
AcDbLine
10
-47.7698504027618
20
-2.77613963744174
30
0.000000000000000
11
-47.6698504027618
21
-2.84338530457052
31
0.000000000000000
  0
LINE
  5
F10506
330
F10507
100
AcDbEntity
8
Geo
100
AcDbLine
10
-47.6698504027618
20
-2.84338530457052
30
0.000000000000000
11
-47.5698504027618
21
-2.90988749091806
31
0.000000000000000
  0
LINE
  5
F10508
330
F10509
100
AcDbEntity
8
Geo
100
AcDbLine
10
-47.5698504027618
20
-2.90988749091806
30
0.000000000000000
11
-47.4698504027618
21
-2.97563954632114
31
0.000000000000000
  0
LINE
  5
F1050A
330
F1050B
100
AcDbEntity
8
Geo
100
AcDbLine
10
-47.4698504027618
20
-2.97563954632114
30
0.000000000000000
11
-47.3698504027618
21
-3.04063489562902
31
0.000000000000000
  0
LINE
  5
F1050C
330
F1050D
100
AcDbEntity
8
Geo
100
AcDbLine
10
-47.3698504027618
20
-3.04063489562902
30
0.000000000000000
11
-47.2698504027618
21
-3.10486703936092
31
0.000000000000000
  0
LINE
  5
F1050E
330
F1050F
100
AcDbEntity
8
Geo
100
AcDbLine
10
-47.2698504027618
20
-3.10486703936092
30
0.000000000000000
11
-47.1698504027618
21
-3.16832955435599
31
0.000000000000000
  0
LINE
  5
F10510
330
F10511
100
AcDbEntity
8
Geo
100
AcDbLine
10
-47.1698504027618
20
-3.16832955435599
30
0.000000000000000
11
-47.0698504027618
21
-3.23101609441563
31
0.000000000000000
  0
LINE
  5
F10512
330
F10513
100
AcDbEntity
8
Geo
100
AcDbLine
10
-47.0698504027618
20
-3.23101609441563
30
0.000000000000000
11
-46.9698504027618
21
-3.29292039093807
31
0.000000000000000
  0
LINE
  5
F10514
330
F10515
100
AcDbEntity
8
Geo
100
AcDbLine
10
-46.9698504027618
20
-3.29292039093807
30
0.000000000000000
11
-46.8698504027618
21
-3.35403625354524
31
0.000000000000000
  0
LINE
  5
F10516
330
F10517
100
AcDbEntity
8
Geo
100
AcDbLine
10
-46.8698504027618
20
-3.35403625354524
30
0.000000000000000
11
-46.7698504027618
21
-3.41435757070181
31
0.000000000000000
  0
LINE
  5
F10518
330
F10519
100
AcDbEntity
8
Geo
100
AcDbLine
10
-46.7698504027618
20
-3.41435757070181
30
0.000000000000000
11
-46.6698504027618
21
-3.47387831032633
31
0.000000000000000
  0
LINE
  5
F1051A
330
F1051B
100
AcDbEntity
8
Geo
100
AcDbLine
10
-46.6698504027618
20
-3.47387831032633
30
0.000000000000000
11
-46.5698504027618
21
-3.53259252039444
31
0.000000000000000
  0
LINE
  5
F1051C
330
F1051D
100
AcDbEntity
8
Geo
100
AcDbLine
10
-46.5698504027618
20
-3.53259252039444
30
0.000000000000000
11
-46.4698504027618
21
-3.59049432953407
31
0.000000000000000
  0
LINE
  5
F1051E
330
F1051F
100
AcDbEntity
8
Geo
100
AcDbLine
10
-46.4698504027618
20
-3.59049432953407
30
0.000000000000000
11
-46.3698504027618
21
-3.64757794761254
31
0.000000000000000
  0
LINE
  5
F10520
330
F10521
100
AcDbEntity
8
Geo
100
AcDbLine
10
-46.3698504027618
20
-3.64757794761254
30
0.000000000000000
11
-46.2698504027618
21
-3.70383766631563
31
0.000000000000000
  0
LINE
  5
F10522
330
F10523
100
AcDbEntity
8
Geo
100
AcDbLine
10
-46.2698504027618
20
-3.70383766631563
30
0.000000000000000
11
-46.1698504027618
21
-3.75926785971834
31
0.000000000000000
  0
LINE
  5
F10524
330
F10525
100
AcDbEntity
8
Geo
100
AcDbLine
10
-46.1698504027618
20
-3.75926785971834
30
0.000000000000000
11
-46.0698504027618
21
-3.81386298484752
31
0.000000000000000
  0
LINE
  5
F10526
330
F10527
100
AcDbEntity
8
Geo
100
AcDbLine
10
-46.0698504027618
20
-3.81386298484752
30
0.000000000000000
11
-45.9698504027618
21
-3.86761758223616
31
0.000000000000000
  0
LINE
  5
F10528
330
F10529
100
AcDbEntity
8
Geo
100
AcDbLine
10
-45.9698504027618
20
-3.86761758223616
30
0.000000000000000
11
-45.8698504027618
21
-3.92052627646931
31
0.000000000000000
  0
LINE
  5
F1052A
330
F1052B
100
AcDbEntity
8
Geo
100
AcDbLine
10
-45.8698504027618
20
-3.92052627646931
30
0.000000000000000
11
-45.7698504027618
21
-3.97258377672165
31
0.000000000000000
  0
LINE
  5
F1052C
330
F1052D
100
AcDbEntity
8
Geo
100
AcDbLine
10
-45.7698504027618
20
-3.97258377672165
30
0.000000000000000
11
-45.6698504027618
21
-4.02378487728653
31
0.000000000000000
  0
LINE
  5
F1052E
330
F1052F
100
AcDbEntity
8
Geo
100
AcDbLine
10
-45.6698504027618
20
-4.02378487728653
30
0.000000000000000
11
-45.5698504027618
21
-4.07412445809655
31
0.000000000000000
  0
LINE
  5
F10530
330
F10531
100
AcDbEntity
8
Geo
100
AcDbLine
10
-45.5698504027618
20
-4.07412445809655
30
0.000000000000000
11
-45.4698504027618
21
-4.12359748523559
31
0.000000000000000
  0
LINE
  5
F10532
330
F10533
100
AcDbEntity
8
Geo
100
AcDbLine
10
-45.4698504027618
20
-4.12359748523559
30
0.000000000000000
11
-45.3698504027618
21
-4.17219901144216
31
0.000000000000000
  0
LINE
  5
F10534
330
F10535
100
AcDbEntity
8
Geo
100
AcDbLine
10
-45.3698504027618
20
-4.17219901144216
30
0.000000000000000
11
-45.2698504027618
21
-4.21992417660414
31
0.000000000000000
  0
LINE
  5
F10536
330
F10537
100
AcDbEntity
8
Geo
100
AcDbLine
10
-45.2698504027618
20
-4.21992417660414
30
0.000000000000000
11
-45.1698504027618
21
-4.26676820824478
31
0.000000000000000
  0
LINE
  5
F10538
330
F10539
100
AcDbEntity
8
Geo
100
AcDbLine
10
-45.1698504027618
20
-4.26676820824478
30
0.000000000000000
11
-45.0698504027618
21
-4.31272642199997
31
0.000000000000000
  0
LINE
  5
F1053A
330
F1053B
100
AcDbEntity
8
Geo
100
AcDbLine
10
-45.0698504027618
20
-4.31272642199997
30
0.000000000000000
11
-44.9698504027618
21
-4.35779422208661
31
0.000000000000000
  0
LINE
  5
F1053C
330
F1053D
100
AcDbEntity
8
Geo
100
AcDbLine
10
-44.9698504027618
20
-4.35779422208661
30
0.000000000000000
11
-44.8698504027618
21
-4.40196710176226
31
0.000000000000000
  0
LINE
  5
F1053E
330
F1053F
100
AcDbEntity
8
Geo
100
AcDbLine
10
-44.8698504027618
20
-4.40196710176226
30
0.000000000000000
11
-44.7698504027618
21
-4.44524064377577
31
0.000000000000000
  0
LINE
  5
F10540
330
F10541
100
AcDbEntity
8
Geo
100
AcDbLine
10
-44.7698504027618
20
-4.44524064377577
30
0.000000000000000
11
-44.6698504027618
21
-4.48761052080898
31
0.000000000000000
  0
LINE
  5
F10542
330
F10543
100
AcDbEntity
8
Geo
100
AcDbLine
10
-44.6698504027618
20
-4.48761052080898
30
0.000000000000000
11
-44.5698504027618
21
-4.52907249590951
31
0.000000000000000
  0
LINE
  5
F10544
330
F10545
100
AcDbEntity
8
Geo
100
AcDbLine
10
-44.5698504027618
20
-4.52907249590951
30
0.000000000000000
11
-44.4698504027618
21
-4.56962242291440
31
0.000000000000000
  0
LINE
  5
F10546
330
F10547
100
AcDbEntity
8
Geo
100
AcDbLine
10
-44.4698504027618
20
-4.56962242291440
30
0.000000000000000
11
-44.3698504027617
21
-4.60925624686474
31
0.000000000000000
  0
LINE
  5
F10548
330
F10549
100
AcDbEntity
8
Geo
100
AcDbLine
10
-44.3698504027617
20
-4.60925624686474
30
0.000000000000000
11
-44.2698504027617
21
-4.64797000441116
31
0.000000000000000
  0
LINE
  5
F1054A
330
F1054B
100
AcDbEntity
8
Geo
100
AcDbLine
10
-44.2698504027617
20
-4.64797000441116
30
0.000000000000000
11
-44.1698504027617
21
-4.68575982421017
31
0.000000000000000
  0
LINE
  5
F1054C
330
F1054D
100
AcDbEntity
8
Geo
100
AcDbLine
10
-44.1698504027617
20
-4.68575982421017
30
0.000000000000000
11
-44.0698504027617
21
-4.72262192731128
31
0.000000000000000
  0
LINE
  5
F1054E
330
F1054F
100
AcDbEntity
8
Geo
100
AcDbLine
10
-44.0698504027617
20
-4.72262192731128
30
0.000000000000000
11
-43.9698504027617
21
-4.75855262753489
31
0.000000000000000
  0
LINE
  5
F10550
330
F10551
100
AcDbEntity
8
Geo
100
AcDbLine
10
-43.9698504027617
20
-4.75855262753489
30
0.000000000000000
11
-43.8698504027617
21
-4.79354833184093
31
0.000000000000000
  0
LINE
  5
F10552
330
F10553
100
AcDbEntity
8
Geo
100
AcDbLine
10
-43.8698504027617
20
-4.79354833184093
30
0.000000000000000
11
-43.7698504027617
21
-4.82760554068814
31
0.000000000000000
  0
LINE
  5
F10554
330
F10555
100
AcDbEntity
8
Geo
100
AcDbLine
10
-43.7698504027617
20
-4.82760554068814
30
0.000000000000000
11
-43.6698504027617
21
-4.86072084838400
31
0.000000000000000
  0
LINE
  5
F10556
330
F10557
100
AcDbEntity
8
Geo
100
AcDbLine
10
-43.6698504027617
20
-4.86072084838400
30
0.000000000000000
11
-43.5698504027617
21
-4.89289094342534
31
0.000000000000000
  0
LINE
  5
F10558
330
F10559
100
AcDbEntity
8
Geo
100
AcDbLine
10
-43.5698504027617
20
-4.89289094342534
30
0.000000000000000
11
-43.4698504027617
21
-4.92411260882947
31
0.000000000000000
  0
LINE
  5
F1055A
330
F1055B
100
AcDbEntity
8
Geo
100
AcDbLine
10
-43.4698504027617
20
-4.92411260882947
30
0.000000000000000
11
-43.3698504027617
21
-4.95438272245587
31
0.000000000000000
  0
LINE
  5
F1055C
330
F1055D
100
AcDbEntity
8
Geo
100
AcDbLine
10
-43.3698504027617
20
-4.95438272245587
30
0.000000000000000
11
-43.2698504027617
21
-4.98369825731839
31
0.000000000000000
  0
LINE
  5
F1055E
330
F1055F
100
AcDbEntity
8
Geo
100
AcDbLine
10
-43.2698504027617
20
-4.98369825731839
30
0.000000000000000
11
-43.1698504027617
21
-5.01205628188798
31
0.000000000000000
  0
LINE
  5
F10560
330
F10561
100
AcDbEntity
8
Geo
100
AcDbLine
10
-43.1698504027617
20
-5.01205628188798
30
0.000000000000000
11
-43.0698504027617
21
-5.03945396038582
31
0.000000000000000
  0
LINE
  5
F10562
330
F10563
100
AcDbEntity
8
Geo
100
AcDbLine
10
-43.0698504027617
20
-5.03945396038582
30
0.000000000000000
11
-42.9698504027617
21
-5.06588855306688
31
0.000000000000000
  0
LINE
  5
F10564
330
F10565
100
AcDbEntity
8
Geo
100
AcDbLine
10
-42.9698504027617
20
-5.06588855306688
30
0.000000000000000
11
-42.8698504027617
21
-5.09135741649393
31
0.000000000000000
  0
LINE
  5
F10566
330
F10567
100
AcDbEntity
8
Geo
100
AcDbLine
10
-42.8698504027617
20
-5.09135741649393
30
0.000000000000000
11
-42.7698504027617
21
-5.11585800380185
31
0.000000000000000
  0
LINE
  5
F10568
330
F10569
100
AcDbEntity
8
Geo
100
AcDbLine
10
-42.7698504027617
20
-5.11585800380185
30
0.000000000000000
11
-42.6698504027617
21
-5.13938786495232
31
0.000000000000000
  0
LINE
  5
F1056A
330
F1056B
100
AcDbEntity
8
Geo
100
AcDbLine
10
-42.6698504027617
20
-5.13938786495232
30
0.000000000000000
11
-42.5698504027617
21
-5.16194464697884
31
0.000000000000000
  0
LINE
  5
F1056C
330
F1056D
100
AcDbEntity
8
Geo
100
AcDbLine
10
-42.5698504027617
20
-5.16194464697884
30
0.000000000000000
11
-42.4698504027617
21
-5.18352609422200
31
0.000000000000000
  0
LINE
  5
F1056E
330
F1056F
100
AcDbEntity
8
Geo
100
AcDbLine
10
-42.4698504027617
20
-5.18352609422200
30
0.000000000000000
11
-42.3698504027617
21
-5.20413004855507
31
0.000000000000000
  0
LINE
  5
F10570
330
F10571
100
AcDbEntity
8
Geo
100
AcDbLine
10
-42.3698504027617
20
-5.20413004855507
30
0.000000000000000
11
-42.2698504027617
21
-5.22375444959978
31
0.000000000000000
  0
LINE
  5
F10572
330
F10573
100
AcDbEntity
8
Geo
100
AcDbLine
10
-42.2698504027617
20
-5.22375444959978
30
0.000000000000000
11
-42.1698504027617
21
-5.24239733493237
31
0.000000000000000
  0
LINE
  5
F10574
330
F10575
100
AcDbEntity
8
Geo
100
AcDbLine
10
-42.1698504027617
20
-5.24239733493237
30
0.000000000000000
11
-42.0698504027617
21
-5.26005684027985
31
0.000000000000000
  0
LINE
  5
F10576
330
F10577
100
AcDbEntity
8
Geo
100
AcDbLine
10
-42.0698504027617
20
-5.26005684027985
30
0.000000000000000
11
-41.9698504027617
21
-5.27673119970641
31
0.000000000000000
  0
LINE
  5
F10578
330
F10579
100
AcDbEntity
8
Geo
100
AcDbLine
10
-41.9698504027617
20
-5.27673119970641
30
0.000000000000000
11
-41.8698504027617
21
-5.29241874578999
31
0.000000000000000
  0
LINE
  5
F1057A
330
F1057B
100
AcDbEntity
8
Geo
100
AcDbLine
10
-41.8698504027617
20
-5.29241874578999
30
0.000000000000000
11
-41.7698504027617
21
-5.30711790978906
31
0.000000000000000
  0
LINE
  5
F1057C
330
F1057D
100
AcDbEntity
8
Geo
100
AcDbLine
10
-41.7698504027617
20
-5.30711790978906
30
0.000000000000000
11
-41.6698504027617
21
-5.32082722179947
31
0.000000000000000
  0
LINE
  5
F1057E
330
F1057F
100
AcDbEntity
8
Geo
100
AcDbLine
10
-41.6698504027617
20
-5.32082722179947
30
0.000000000000000
11
-41.5698504027617
21
-5.33354531090144
31
0.000000000000000
  0
LINE
  5
F10580
330
F10581
100
AcDbEntity
8
Geo
100
AcDbLine
10
-41.5698504027617
20
-5.33354531090144
30
0.000000000000000
11
-41.4698504027617
21
-5.34527090529666
31
0.000000000000000
  0
LINE
  5
F10582
330
F10583
100
AcDbEntity
8
Geo
100
AcDbLine
10
-41.4698504027617
20
-5.34527090529666
30
0.000000000000000
11
-41.3698504027617
21
-5.35600283243546
31
0.000000000000000
  0
LINE
  5
F10584
330
F10585
100
AcDbEntity
8
Geo
100
AcDbLine
10
-41.3698504027617
20
-5.35600283243546
30
0.000000000000000
11
-41.2698504027617
21
-5.36574001913408
31
0.000000000000000
  0
LINE
  5
F10586
330
F10587
100
AcDbEntity
8
Geo
100
AcDbLine
10
-41.2698504027617
20
-5.36574001913408
30
0.000000000000000
11
-41.1698504027617
21
-5.37448149168195
31
0.000000000000000
  0
LINE
  5
F10588
330
F10589
100
AcDbEntity
8
Geo
100
AcDbLine
10
-41.1698504027617
20
-5.37448149168195
30
0.000000000000000
11
-41.0698504027617
21
-5.38222637593910
31
0.000000000000000
  0
LINE
  5
F1058A
330
F1058B
100
AcDbEntity
8
Geo
100
AcDbLine
10
-41.0698504027617
20
-5.38222637593910
30
0.000000000000000
11
-40.9698504027617
21
-5.38897389742357
31
0.000000000000000
  0
LINE
  5
F1058C
330
F1058D
100
AcDbEntity
8
Geo
100
AcDbLine
10
-40.9698504027617
20
-5.38897389742357
30
0.000000000000000
11
-40.8698504027617
21
-5.39472338138883
31
0.000000000000000
  0
LINE
  5
F1058E
330
F1058F
100
AcDbEntity
8
Geo
100
AcDbLine
10
-40.8698504027617
20
-5.39472338138883
30
0.000000000000000
11
-40.7698504027617
21
-5.39947425289127
31
0.000000000000000
  0
LINE
  5
F10590
330
F10591
100
AcDbEntity
8
Geo
100
AcDbLine
10
-40.7698504027617
20
-5.39947425289127
30
0.000000000000000
11
-40.6698504027617
21
-5.40322603684770
31
0.000000000000000
  0
LINE
  5
F10592
330
F10593
100
AcDbEntity
8
Geo
100
AcDbLine
10
-40.6698504027617
20
-5.40322603684770
30
0.000000000000000
11
-40.5698504027617
21
-5.40597835808286
31
0.000000000000000
  0
LINE
  5
F10594
330
F10595
100
AcDbEntity
8
Geo
100
AcDbLine
10
-40.5698504027617
20
-5.40597835808286
30
0.000000000000000
11
-40.4698504027617
21
-5.40773094136690
31
0.000000000000000
  0
LINE
  5
F10596
330
F10597
100
AcDbEntity
8
Geo
100
AcDbLine
10
-40.4698504027617
20
-5.40773094136690
30
0.000000000000000
11
-40.3698504027617
21
-5.40848361144298
31
0.000000000000000
  0
LINE
  5
F10598
330
F10599
100
AcDbEntity
8
Geo
100
AcDbLine
10
-40.3698504027617
20
-5.40848361144298
30
0.000000000000000
11
-40.3445822151783
21
-5.40851553509782
31
0.000000000000000
  0
LINE
  5
F1059A
330
F1059B
100
AcDbEntity
8
Geo
100
AcDbLine
10
-28.3733723903269
20
-5.40851553509782
30
0.000000000000000
11
-28.3698504027615
21
-5.40832232861984
31
0.000000000000000
  0
LINE
  5
F1059C
330
F1059D
100
AcDbEntity
8
Geo
100
AcDbLine
10
-28.3698504027615
20
-5.40832232861984
30
0.000000000000000
11
-28.2698504027618
21
-5.14363131550290
31
0.000000000000000
  0
LINE
  5
F1059E
330
F1059F
100
AcDbEntity
8
Geo
100
AcDbLine
10
-28.2698504027618
20
-5.14363131550290
30
0.000000000000000
11
-28.2698504027618
21
-5.00082295749374
31
0.000000000000000
  0
LINE
  5
F105A0
330
F105A1
100
AcDbEntity
8
Geo
100
AcDbLine
10
-28.2698504027618
20
-5.00082295749374
30
0.000000000000000
11
-28.3698504027615
21
-4.25706538707787
31
0.000000000000000
  0
LINE
  5
F105A2
330
F105A3
100
AcDbEntity
8
Geo
100
AcDbLine
10
-28.3698504027615
20
-4.25706538707787
30
0.000000000000000
11
-28.4698504027615
21
-3.28104572639860
31
0.000000000000000
  0
LINE
  5
F105A4
330
F105A5
100
AcDbEntity
8
Geo
100
AcDbLine
10
-28.4698504027615
20
-3.28104572639860
30
0.000000000000000
11
-28.5698504027615
21
-2.17572723727024
31
0.000000000000000
  0
LINE
  5
F105A6
330
F105A7
100
AcDbEntity
8
Geo
100
AcDbLine
10
-28.5698504027615
20
-2.17572723727024
30
0.000000000000000
11
-28.6698504027615
21
-1.01941364695162
31
0.000000000000000
  0
LINE
  5
F105A8
330
F105A9
100
AcDbEntity
8
Geo
100
AcDbLine
10
-28.6698504027615
20
-1.01941364695162
30
0.000000000000000
11
-28.7698504027615
21
0.131637048753655
31
0.000000000000000
  0
LINE
  5
F105AA
330
F105AB
100
AcDbEntity
8
Geo
100
AcDbLine
10
-28.7698504027615
20
0.131637048753655
30
0.000000000000000
11
-28.8698504027615
21
1.23941593187831
31
0.000000000000000
  0
LINE
  5
F105AC
330
F105AD
100
AcDbEntity
8
Geo
100
AcDbLine
10
-28.8698504027615
20
1.23941593187831
30
0.000000000000000
11
-28.9698504027615
21
2.28019265111304
31
0.000000000000000
  0
LINE
  5
F105AE
330
F105AF
100
AcDbEntity
8
Geo
100
AcDbLine
10
-28.9698504027615
20
2.28019265111304
30
0.000000000000000
11
-29.0698504027615
21
3.24090167788133
31
0.000000000000000
  0
LINE
  5
F105B0
330
F105B1
100
AcDbEntity
8
Geo
100
AcDbLine
10
-29.0698504027615
20
3.24090167788133
30
0.000000000000000
11
-29.1698504027615
21
4.11610899880292
31
0.000000000000000
  0
LINE
  5
F105B2
330
F105B3
100
AcDbEntity
8
Geo
100
AcDbLine
10
-29.1698504027615
20
4.11610899880292
30
0.000000000000000
11
-29.2698504027615
21
4.90560362132585
31
0.000000000000000
  0
LINE
  5
F105B4
330
F105B5
100
AcDbEntity
8
Geo
100
AcDbLine
10
-29.2698504027615
20
4.90560362132585
30
0.000000000000000
11
-29.3698504027615
21
5.61256514639859
31
0.000000000000000
  0
LINE
  5
F105B6
330
F105B7
100
AcDbEntity
8
Geo
100
AcDbLine
10
-29.3698504027615
20
5.61256514639859
30
0.000000000000000
11
-29.4698504027615
21
6.24221911606389
31
0.000000000000000
  0
LINE
  5
F105B8
330
F105B9
100
AcDbEntity
8
Geo
100
AcDbLine
10
-29.4698504027615
20
6.24221911606389
30
0.000000000000000
11
-29.5698504027615
21
6.80088291698107
31
0.000000000000000
  0
LINE
  5
F105BA
330
F105BB
100
AcDbEntity
8
Geo
100
AcDbLine
10
-29.5698504027615
20
6.80088291698107
30
0.000000000000000
11
-29.6698504027615
21
7.29531178839585
31
0.000000000000000
  0
LINE
  5
F105BC
330
F105BD
100
AcDbEntity
8
Geo
100
AcDbLine
10
-29.6698504027615
20
7.29531178839585
30
0.000000000000000
11
-29.7698504027615
21
7.73226791146197
31
0.000000000000000
  0
LINE
  5
F105BE
330
F105BF
100
AcDbEntity
8
Geo
100
AcDbLine
10
-29.7698504027615
20
7.73226791146197
30
0.000000000000000
11
-29.8698504027615
21
8.11825058324040
31
0.000000000000000
  0
LINE
  5
F105C0
330
F105C1
100
AcDbEntity
8
Geo
100
AcDbLine
10
-29.8698504027615
20
8.11825058324040
30
0.000000000000000
11
-29.9698504027615
21
8.45933954251209
31
0.000000000000000
  0
LINE
  5
F105C2
330
F105C3
100
AcDbEntity
8
Geo
100
AcDbLine
10
-29.9698504027615
20
8.45933954251209
30
0.000000000000000
11
-30.0698504027615
21
8.76111553496593
31
0.000000000000000
  0
LINE
  5
F105C4
330
F105C5
100
AcDbEntity
8
Geo
100
AcDbLine
10
-30.0698504027615
20
8.76111553496593
30
0.000000000000000
11
-30.1698504027615
21
9.02863191649208
31
0.000000000000000
  0
LINE
  5
F105C6
330
F105C7
100
AcDbEntity
8
Geo
100
AcDbLine
10
-30.1698504027615
20
9.02863191649208
30
0.000000000000000
11
-30.2698504027615
21
9.26641863603962
31
0.000000000000000
  0
LINE
  5
F105C8
330
F105C9
100
AcDbEntity
8
Geo
100
AcDbLine
10
-30.2698504027615
20
9.26641863603962
30
0.000000000000000
11
-30.3698504027615
21
9.47850562468290
31
0.000000000000000
  0
LINE
  5
F105CA
330
F105CB
100
AcDbEntity
8
Geo
100
AcDbLine
10
-30.3698504027615
20
9.47850562468290
30
0.000000000000000
11
-30.4698504027616
21
9.66845679797282
31
0.000000000000000
  0
LINE
  5
F105CC
330
F105CD
100
AcDbEntity
8
Geo
100
AcDbLine
10
-30.4698504027616
20
9.66845679797282
30
0.000000000000000
11
-30.5698504027616
21
9.83940888589523
31
0.000000000000000
  0
LINE
  5
F105CE
330
F105CF
100
AcDbEntity
8
Geo
100
AcDbLine
10
-30.5698504027616
20
9.83940888589523
30
0.000000000000000
11
-30.6698504027616
21
9.99411142309883
31
0.000000000000000
  0
LINE
  5
F105D0
330
F105D1
100
AcDbEntity
8
Geo
100
AcDbLine
10
-30.6698504027616
20
9.99411142309883
30
0.000000000000000
11
-30.7698504027616
21
10.1349656921876
31
0.000000000000000
  0
LINE
  5
F105D2
330
F105D3
100
AcDbEntity
8
Geo
100
AcDbLine
10
-30.7698504027616
20
10.1349656921876
30
0.000000000000000
11
-30.8698504027616
21
10.2640613952017
31
0.000000000000000
  0
LINE
  5
F105D4
330
F105D5
100
AcDbEntity
8
Geo
100
AcDbLine
10
-30.8698504027616
20
10.2640613952017
30
0.000000000000000
11
-30.9698504027616
21
10.3832104702448
31
0.000000000000000
  0
LINE
  5
F105D6
330
F105D7
100
AcDbEntity
8
Geo
100
AcDbLine
10
-30.9698504027616
20
10.3832104702448
30
0.000000000000000
11
-31.0698504027616
21
10.4939778738646
31
0.000000000000000
  0
LINE
  5
F105D8
330
F105D9
100
AcDbEntity
8
Geo
100
AcDbLine
10
-31.0698504027616
20
10.4939778738646
30
0.000000000000000
11
-31.1698504027616
21
10.5977093901322
31
0.000000000000000
  0
LINE
  5
F105DA
330
F105DB
100
AcDbEntity
8
Geo
100
AcDbLine
10
-31.1698504027616
20
10.5977093901322
30
0.000000000000000
11
-31.2698504027616
21
10.6955566583268
31
0.000000000000000
  0
LINE
  5
F105DC
330
F105DD
100
AcDbEntity
8
Geo
100
AcDbLine
10
-31.2698504027616
20
10.6955566583268
30
0.000000000000000
11
-31.3698504027616
21
10.7884996709478
31
0.000000000000000
  0
LINE
  5
F105DE
330
F105DF
100
AcDbEntity
8
Geo
100
AcDbLine
10
-31.3698504027616
20
10.7884996709478
30
0.000000000000000
11
-31.4698504027616
21
10.8773670091163
31
0.000000000000000
  0
LINE
  5
F105E0
330
F105E1
100
AcDbEntity
8
Geo
100
AcDbLine
10
-31.4698504027616
20
10.8773670091163
30
0.000000000000000
11
-31.5698504027616
21
10.9628540715568
31
0.000000000000000
  0
LINE
  5
F105E2
330
F105E3
100
AcDbEntity
8
Geo
100
AcDbLine
10
-31.5698504027616
20
10.9628540715568
30
0.000000000000000
11
-31.6698504027616
21
11.0455395285061
31
0.000000000000000
  0
LINE
  5
F105E4
330
F105E5
100
AcDbEntity
8
Geo
100
AcDbLine
10
-31.6698504027616
20
11.0455395285061
30
0.000000000000000
11
-31.7698504027616
21
11.1259002010450
31
0.000000000000000
  0
LINE
  5
F105E6
330
F105E7
100
AcDbEntity
8
Geo
100
AcDbLine
10
-31.7698504027616
20
11.1259002010450
30
0.000000000000000
11
-31.8698504027616
21
11.2043245344934
31
0.000000000000000
  0
LINE
  5
F105E8
330
F105E9
100
AcDbEntity
8
Geo
100
AcDbLine
10
-31.8698504027616
20
11.2043245344934
30
0.000000000000000
11
-31.9698504027616
21
11.2811248045981
31
0.000000000000000
  0
LINE
  5
F105EA
330
F105EB
100
AcDbEntity
8
Geo
100
AcDbLine
10
-31.9698504027616
20
11.2811248045981
30
0.000000000000000
11
-32.0698504027616
21
11.3565481688545
31
0.000000000000000
  0
LINE
  5
F105EC
330
F105ED
100
AcDbEntity
8
Geo
100
AcDbLine
10
-32.0698504027616
20
11.3565481688545
30
0.000000000000000
11
-32.1698504027616
21
11.4307866531078
31
0.000000000000000
  0
LINE
  5
F105EE
330
F105EF
100
AcDbEntity
8
Geo
100
AcDbLine
10
-32.1698504027616
20
11.4307866531078
30
0.000000000000000
11
-32.2698504027616
21
11.5039861456842
31
0.000000000000000
  0
LINE
  5
F105F0
330
F105F1
100
AcDbEntity
8
Geo
100
AcDbLine
10
-32.2698504027616
20
11.5039861456842
30
0.000000000000000
11
-32.3698504027616
21
11.5762544574497
31
0.000000000000000
  0
LINE
  5
F105F2
330
F105F3
100
AcDbEntity
8
Geo
100
AcDbLine
10
-32.3698504027616
20
11.5762544574497
30
0.000000000000000
11
-32.4698504027616
21
11.6476684959418
31
0.000000000000000
  0
LINE
  5
F105F4
330
F105F5
100
AcDbEntity
8
Geo
100
AcDbLine
10
-32.4698504027616
20
11.6476684959418
30
0.000000000000000
11
-32.5698504027616
21
11.7182805945462
31
0.000000000000000
  0
LINE
  5
F105F6
330
F105F7
100
AcDbEntity
8
Geo
100
AcDbLine
10
-32.5698504027616
20
11.7182805945462
30
0.000000000000000
11
-32.6698504027616
21
11.7881240330251
31
0.000000000000000
  0
LINE
  5
F105F8
330
F105F9
100
AcDbEntity
8
Geo
100
AcDbLine
10
-32.6698504027616
20
11.7881240330251
30
0.000000000000000
11
-32.7698504027616
21
11.8572177830262
31
0.000000000000000
  0
LINE
  5
F105FA
330
F105FB
100
AcDbEntity
8
Geo
100
AcDbLine
10
-32.7698504027616
20
11.8572177830262
30
0.000000000000000
11
-32.8698504027616
21
11.9255705110229
31
0.000000000000000
  0
LINE
  5
F105FC
330
F105FD
100
AcDbEntity
8
Geo
100
AcDbLine
10
-32.8698504027616
20
11.9255705110229
30
0.000000000000000
11
-32.9698504027616
21
11.9931838710299
31
0.000000000000000
  0
LINE
  5
F105FE
330
F105FF
100
AcDbEntity
8
Geo
100
AcDbLine
10
-32.9698504027616
20
11.9931838710299
30
0.000000000000000
11
-33.0698504027616
21
12.0600551200691
31
0.000000000000000
  0
LINE
  5
F10600
330
F10601
100
AcDbEntity
8
Geo
100
AcDbLine
10
-33.0698504027616
20
12.0600551200691
30
0.000000000000000
11
-33.1698504027616
21
12.1261790904331
31
0.000000000000000
  0
LINE
  5
F10602
330
F10603
100
AcDbEntity
8
Geo
100
AcDbLine
10
-33.1698504027616
20
12.1261790904331
30
0.000000000000000
11
-33.3698504027616
21
12.2561600169445
31
0.000000000000000
  0
LINE
  5
F10604
330
F10605
100
AcDbEntity
8
Geo
100
AcDbLine
10
-33.3698504027616
20
13.9906608515014
30
0.000000000000000
11
-33.1698504027616
21
13.9205053752351
31
0.000000000000000
  0
LINE
  5
F10606
330
F10607
100
AcDbEntity
8
Geo
100
AcDbLine
10
-33.1698504027616
20
13.9205053752351
30
0.000000000000000
11
-33.0698504027616
21
13.8840265183433
31
0.000000000000000
  0
LINE
  5
F10608
330
F10609
100
AcDbEntity
8
Geo
100
AcDbLine
10
-33.0698504027616
20
13.8840265183433
30
0.000000000000000
11
-32.9698504027616
21
13.8466184149899
31
0.000000000000000
  0
LINE
  5
F1060A
330
F1060B
100
AcDbEntity
8
Geo
100
AcDbLine
10
-32.9698504027616
20
13.8466184149899
30
0.000000000000000
11
-32.8698504027616
21
13.8082848059543
31
0.000000000000000
  0
LINE
  5
F1060C
330
F1060D
100
AcDbEntity
8
Geo
100
AcDbLine
10
-32.8698504027616
20
13.8082848059543
30
0.000000000000000
11
-32.7698504027616
21
13.7690295245691
31
0.000000000000000
  0
LINE
  5
F1060E
330
F1060F
100
AcDbEntity
8
Geo
100
AcDbLine
10
-32.7698504027616
20
13.7690295245691
30
0.000000000000000
11
-32.6698504027616
21
13.7288564963569
31
0.000000000000000
  0
LINE
  5
F10610
330
F10611
100
AcDbEntity
8
Geo
100
AcDbLine
10
-32.6698504027616
20
13.7288564963569
30
0.000000000000000
11
-32.5698504027616
21
13.6877697387380
31
0.000000000000000
  0
LINE
  5
F10612
330
F10613
100
AcDbEntity
8
Geo
100
AcDbLine
10
-32.5698504027616
20
13.6877697387380
30
0.000000000000000
11
-32.4698504027616
21
13.6457733609996
31
0.000000000000000
  0
LINE
  5
F10614
330
F10615
100
AcDbEntity
8
Geo
100
AcDbLine
10
-32.4698504027616
20
13.6457733609996
30
0.000000000000000
11
-32.3698504027616
21
13.6028715650329
31
0.000000000000000
  0
LINE
  5
F10616
330
F10617
100
AcDbEntity
8
Geo
100
AcDbLine
10
-32.3698504027616
20
13.6028715650329
30
0.000000000000000
11
-32.2698504027616
21
13.5590686479838
31
0.000000000000000
  0
LINE
  5
F10618
330
F10619
100
AcDbEntity
8
Geo
100
AcDbLine
10
-32.2698504027616
20
13.5590686479838
30
0.000000000000000
11
-32.1698504027616
21
13.5143690091788
31
0.000000000000000
  0
LINE
  5
F1061A
330
F1061B
100
AcDbEntity
8
Geo
100
AcDbLine
10
-32.1698504027616
20
13.5143690091788
30
0.000000000000000
11
-32.0698504027616
21
13.4687771657944
31
0.000000000000000
  0
LINE
  5
F1061C
330
F1061D
100
AcDbEntity
8
Geo
100
AcDbLine
10
-32.0698504027616
20
13.4687771657944
30
0.000000000000000
11
-31.9698504027616
21
13.4222977852139
31
0.000000000000000
  0
LINE
  5
F1061E
330
F1061F
100
AcDbEntity
8
Geo
100
AcDbLine
10
-31.9698504027616
20
13.4222977852139
30
0.000000000000000
11
-31.8698504027616
21
13.3749357474478
31
0.000000000000000
  0
LINE
  5
F10620
330
F10621
100
AcDbEntity
8
Geo
100
AcDbLine
10
-31.8698504027616
20
13.3749357474478
30
0.000000000000000
11
-31.7698504027616
21
13.3266962591863
31
0.000000000000000
  0
LINE
  5
F10622
330
F10623
100
AcDbEntity
8
Geo
100
AcDbLine
10
-31.7698504027616
20
13.3266962591863
30
0.000000000000000
11
-31.6698504027616
21
13.2775850529806
31
0.000000000000000
  0
LINE
  5
F10624
330
F10625
100
AcDbEntity
8
Geo
100
AcDbLine
10
-31.6698504027616
20
13.2775850529806
30
0.000000000000000
11
-31.5698504027616
21
13.2276087219400
31
0.000000000000000
  0
LINE
  5
F10626
330
F10627
100
AcDbEntity
8
Geo
100
AcDbLine
10
-31.5698504027616
20
13.2276087219400
30
0.000000000000000
11
-31.4698504027616
21
13.1767752636800
31
0.000000000000000
  0
LINE
  5
F10628
330
F10629
100
AcDbEntity
8
Geo
100
AcDbLine
10
-31.4698504027616
20
13.1767752636800
30
0.000000000000000
11
-31.3698504027616
21
13.1250949388283
31
0.000000000000000
  0
LINE
  5
F1062A
330
F1062B
100
AcDbEntity
8
Geo
100
AcDbLine
10
-31.3698504027616
20
13.1250949388283
30
0.000000000000000
11
-31.2698504027616
21
13.0725815913063
31
0.000000000000000
  0
LINE
  5
F1062C
330
F1062D
100
AcDbEntity
8
Geo
100
AcDbLine
10
-31.2698504027616
20
13.0725815913063
30
0.000000000000000
11
-31.1698504027616
21
13.0192546322679
31
0.000000000000000
  0
LINE
  5
F1062E
330
F1062F
100
AcDbEntity
8
Geo
100
AcDbLine
10
-31.1698504027616
20
13.0192546322679
30
0.000000000000000
11
-31.0698504027616
21
12.9651419597842
31
0.000000000000000
  0
LINE
  5
F10630
330
F10631
100
AcDbEntity
8
Geo
100
AcDbLine
10
-31.0698504027616
20
12.9651419597842
30
0.000000000000000
11
-30.9698504027616
21
12.9102841751448
31
0.000000000000000
  0
LINE
  5
F10632
330
F10633
100
AcDbEntity
8
Geo
100
AcDbLine
10
-30.9698504027616
20
12.9102841751448
30
0.000000000000000
11
-30.8698504027616
21
12.8547405672942
31
0.000000000000000
  0
LINE
  5
F10634
330
F10635
100
AcDbEntity
8
Geo
100
AcDbLine
10
-30.8698504027616
20
12.8547405672942
30
0.000000000000000
11
-30.7698504027616
21
12.7985974726311
31
0.000000000000000
  0
LINE
  5
F10636
330
F10637
100
AcDbEntity
8
Geo
100
AcDbLine
10
-30.7698504027616
20
12.7985974726311
30
0.000000000000000
11
-30.6698504027616
21
12.7419797809871
31
0.000000000000000
  0
LINE
  5
F10638
330
F10639
100
AcDbEntity
8
Geo
100
AcDbLine
10
-30.6698504027616
20
12.7419797809871
30
0.000000000000000
11
-30.5698504027616
21
12.6850665516301
31
0.000000000000000
  0
LINE
  5
F1063A
330
F1063B
100
AcDbEntity
8
Geo
100
AcDbLine
10
-30.5698504027616
20
12.6850665516301
30
0.000000000000000
11
-30.4698504027616
21
12.6281119246823
31
0.000000000000000
  0
LINE
  5
F1063C
330
F1063D
100
AcDbEntity
8
Geo
100
AcDbLine
10
-30.4698504027616
20
12.6281119246823
30
0.000000000000000
11
-30.3698504027615
21
12.5714727577240
31
0.000000000000000
  0
LINE
  5
F1063E
330
F1063F
100
AcDbEntity
8
Geo
100
AcDbLine
10
-30.3698504027615
20
12.5714727577240
30
0.000000000000000
11
-30.2698504027615
21
12.5156446704925
31
0.000000000000000
  0
LINE
  5
F10640
330
F10641
100
AcDbEntity
8
Geo
100
AcDbLine
10
-30.2698504027615
20
12.5156446704925
30
0.000000000000000
11
-30.1698504027615
21
12.4613084140534
31
0.000000000000000
  0
LINE
  5
F10642
330
F10643
100
AcDbEntity
8
Geo
100
AcDbLine
10
-30.1698504027615
20
12.4613084140534
30
0.000000000000000
11
-30.0698504027615
21
12.4093886422455
31
0.000000000000000
  0
LINE
  5
F10644
330
F10645
100
AcDbEntity
8
Geo
100
AcDbLine
10
-30.0698504027615
20
12.4093886422455
30
0.000000000000000
11
-29.9698504027615
21
12.3611271608957
31
0.000000000000000
  0
LINE
  5
F10646
330
F10647
100
AcDbEntity
8
Geo
100
AcDbLine
10
-29.9698504027615
20
12.3611271608957
30
0.000000000000000
11
-29.8698504027615
21
12.3181724084176
31
0.000000000000000
  0
LINE
  5
F10648
330
F10649
100
AcDbEntity
8
Geo
100
AcDbLine
10
-29.8698504027615
20
12.3181724084176
30
0.000000000000000
11
-29.7698504027615
21
12.2826860195560
31
0.000000000000000
  0
LINE
  5
F1064A
330
F1064B
100
AcDbEntity
8
Geo
100
AcDbLine
10
-29.7698504027615
20
12.2826860195560
30
0.000000000000000
11
-29.6698504027615
21
12.2574654103378
31
0.000000000000000
  0
LINE
  5
F1064C
330
F1064D
100
AcDbEntity
8
Geo
100
AcDbLine
10
-29.6698504027615
20
12.2574654103378
30
0.000000000000000
11
-29.5698504027615
21
12.2460776808558
31
0.000000000000000
  0
LINE
  5
F1064E
330
F1064F
100
AcDbEntity
8
Geo
100
AcDbLine
10
-29.5698504027615
20
12.2460776808558
30
0.000000000000000
11
-29.4698504027615
21
12.2529935710945
31
0.000000000000000
  0
LINE
  5
F10650
330
F10651
100
AcDbEntity
8
Geo
100
AcDbLine
10
-29.4698504027615
20
12.2529935710945
30
0.000000000000000
11
-29.3698504027615
21
12.2836987236556
31
0.000000000000000
  0
LINE
  5
F10652
330
F10653
100
AcDbEntity
8
Geo
100
AcDbLine
10
-29.3698504027615
20
12.2836987236556
30
0.000000000000000
11
-29.2698504027615
21
12.3447397290182
31
0.000000000000000
  0
LINE
  5
F10654
330
F10655
100
AcDbEntity
8
Geo
100
AcDbLine
10
-29.2698504027615
20
12.3447397290182
30
0.000000000000000
11
-29.1698504027615
21
12.4436286405788
31
0.000000000000000
  0
LINE
  5
F10656
330
F10657
100
AcDbEntity
8
Geo
100
AcDbLine
10
-29.1698504027615
20
12.4436286405788
30
0.000000000000000
11
-29.0698504027615
21
12.5884722527613
31
0.000000000000000
  0
LINE
  5
F10658
330
F10659
100
AcDbEntity
8
Geo
100
AcDbLine
10
-29.0698504027615
20
12.5884722527613
30
0.000000000000000
11
-28.9698504027615
21
12.7870956896866
31
0.000000000000000
  0
LINE
  5
F1065A
330
F1065B
100
AcDbEntity
8
Geo
100
AcDbLine
10
-28.9698504027615
20
12.7870956896866
30
0.000000000000000
11
-28.8698504027615
21
13.0452691962509
31
0.000000000000000
  0
LINE
  5
F1065C
330
F1065D
100
AcDbEntity
8
Geo
100
AcDbLine
10
-28.8698504027615
20
13.0452691962509
30
0.000000000000000
11
-28.7698504027615
21
13.3633881040936
31
0.000000000000000
  0
LINE
  5
F1065E
330
F1065F
100
AcDbEntity
8
Geo
100
AcDbLine
10
-28.7698504027615
20
13.3633881040936
30
0.000000000000000
11
-28.6698504027615
21
13.7305626388458
31
0.000000000000000
  0
LINE
  5
F10660
330
F10661
100
AcDbEntity
8
Geo
100
AcDbLine
10
-28.6698504027615
20
13.7305626388458
30
0.000000000000000
11
-28.5698504027615
21
14.1145472365446
31
0.000000000000000
  0
LINE
  5
F10662
330
F10663
100
AcDbEntity
8
Geo
100
AcDbLine
10
-28.5698504027615
20
14.1145472365446
30
0.000000000000000
11
-28.4698504027615
21
14.4454412208207
31
0.000000000000000
  0
LINE
  5
F10664
330
F10665
100
AcDbEntity
8
Geo
100
AcDbLine
10
-28.4698504027615
20
14.4454412208207
30
0.000000000000000
11
-28.3733723903269
21
14.5914844649022
31
0.000000000000000
  0
LINE
  5
F10666
330
F10667
100
AcDbEntity
8
Geo
100
AcDbLine
10
-37.8527992615123
20
14.5914844649022
30
0.000000000000000
11
-37.7698504027617
21
14.4667224982280
31
0.000000000000000
  0
LINE
  5
F10668
330
F10669
100
AcDbEntity
8
Geo
100
AcDbLine
10
-37.7698504027617
20
14.4667224982280
30
0.000000000000000
11
-37.6698504027617
21
14.4654095940472
31
0.000000000000000
  0
LINE
  5
F1066A
330
F1066B
100
AcDbEntity
8
Geo
100
AcDbLine
10
-37.6698504027617
20
14.4654095940472
30
0.000000000000000
11
-37.5698504027617
21
14.4631093055817
31
0.000000000000000
  0
LINE
  5
F1066C
330
F1066D
100
AcDbEntity
8
Geo
100
AcDbLine
10
-37.5698504027617
20
14.4631093055817
30
0.000000000000000
11
-37.4698504027617
21
14.4598218628585
31
0.000000000000000
  0
LINE
  5
F1066E
330
F1066F
100
AcDbEntity
8
Geo
100
AcDbLine
10
-37.4698504027617
20
14.4598218628585
30
0.000000000000000
11
-37.3698504027616
21
14.4555475946191
31
0.000000000000000
  0
LINE
  5
F10670
330
F10671
100
AcDbEntity
8
Geo
100
AcDbLine
10
-37.3698504027616
20
14.4555475946191
30
0.000000000000000
11
-37.2698504027616
21
14.4502869282867
31
0.000000000000000
  0
LINE
  5
F10672
330
F10673
100
AcDbEntity
8
Geo
100
AcDbLine
10
-37.2698504027616
20
14.4502869282867
30
0.000000000000000
11
-37.1698504027616
21
14.4440403899236
31
0.000000000000000
  0
LINE
  5
F10674
330
F10675
100
AcDbEntity
8
Geo
100
AcDbLine
10
-37.1698504027616
20
14.4440403899236
30
0.000000000000000
11
-37.0698504027616
21
14.4368086041785
31
0.000000000000000
  0
LINE
  5
F10676
330
F10677
100
AcDbEntity
8
Geo
100
AcDbLine
10
-37.0698504027616
20
14.4368086041785
30
0.000000000000000
11
-36.9698504027616
21
14.4285922942238
31
0.000000000000000
  0
LINE
  5
F10678
330
F10679
100
AcDbEntity
8
Geo
100
AcDbLine
10
-36.9698504027616
20
14.4285922942238
30
0.000000000000000
11
-36.8698504027616
21
14.4193922816838
31
0.000000000000000
  0
LINE
  5
F1067A
330
F1067B
100
AcDbEntity
8
Geo
100
AcDbLine
10
-36.8698504027616
20
14.4193922816838
30
0.000000000000000
11
-36.7698504027616
21
14.4092094865520
31
0.000000000000000
  0
LINE
  5
F1067C
330
F1067D
100
AcDbEntity
8
Geo
100
AcDbLine
10
-36.7698504027616
20
14.4092094865520
30
0.000000000000000
11
-36.6698504027616
21
14.3980449270995
31
0.000000000000000
  0
LINE
  5
F1067E
330
F1067F
100
AcDbEntity
8
Geo
100
AcDbLine
10
-36.6698504027616
20
14.3980449270995
30
0.000000000000000
11
-36.5698504027616
21
14.3858997197728
31
0.000000000000000
  0
LINE
  5
F10680
330
F10681
100
AcDbEntity
8
Geo
100
AcDbLine
10
-36.5698504027616
20
14.3858997197728
30
0.000000000000000
11
-36.4698504027616
21
14.3727750790826
31
0.000000000000000
  0
LINE
  5
F10682
330
F10683
100
AcDbEntity
8
Geo
100
AcDbLine
10
-36.4698504027616
20
14.3727750790826
30
0.000000000000000
11
-36.3698504027616
21
14.3586723174821
31
0.000000000000000
  0
LINE
  5
F10684
330
F10685
100
AcDbEntity
8
Geo
100
AcDbLine
10
-36.3698504027616
20
14.3586723174821
30
0.000000000000000
11
-36.2698504027616
21
14.3435928452356
31
0.000000000000000
  0
LINE
  5
F10686
330
F10687
100
AcDbEntity
8
Geo
100
AcDbLine
10
-36.2698504027616
20
14.3435928452356
30
0.000000000000000
11
-36.1698504027616
21
14.3275381702777
31
0.000000000000000
  0
LINE
  5
F10688
330
F10689
100
AcDbEntity
8
Geo
100
AcDbLine
10
-36.1698504027616
20
14.3275381702777
30
0.000000000000000
11
-36.0698504027616
21
14.3105098980627
31
0.000000000000000
  0
LINE
  5
F1068A
330
F1068B
100
AcDbEntity
8
Geo
100
AcDbLine
10
-36.0698504027616
20
14.3105098980627
30
0.000000000000000
11
-35.9698504027616
21
14.2925097314036
31
0.000000000000000
  0
LINE
  5
F1068C
330
F1068D
100
AcDbEntity
8
Geo
100
AcDbLine
10
-35.9698504027616
20
14.2925097314036
30
0.000000000000000
11
-35.8698504027616
21
14.2735394703020
31
0.000000000000000
  0
LINE
  5
F1068E
330
F1068F
100
AcDbEntity
8
Geo
100
AcDbLine
10
-35.8698504027616
20
14.2735394703020
30
0.000000000000000
11
-35.7698504027616
21
14.2536010117681
31
0.000000000000000
  0
LINE
  5
F10690
330
F10691
100
AcDbEntity
8
Geo
100
AcDbLine
10
-35.7698504027616
20
14.2536010117681
30
0.000000000000000
11
-35.6698504027616
21
14.2326963496313
31
0.000000000000000
  0
LINE
  5
F10692
330
F10693
100
AcDbEntity
8
Geo
100
AcDbLine
10
-35.6698504027616
20
14.2326963496313
30
0.000000000000000
11
-35.5698504027616
21
14.2108275743404
31
0.000000000000000
  0
LINE
  5
F10694
330
F10695
100
AcDbEntity
8
Geo
100
AcDbLine
10
-35.5698504027616
20
14.2108275743404
30
0.000000000000000
11
-35.4698504027616
21
14.1879968727546
31
0.000000000000000
  0
LINE
  5
F10696
330
F10697
100
AcDbEntity
8
Geo
100
AcDbLine
10
-35.4698504027616
20
14.1879968727546
30
0.000000000000000
11
-35.3698504027616
21
14.1642065279251
31
0.000000000000000
  0
LINE
  5
F10698
330
F10699
100
AcDbEntity
8
Geo
100
AcDbLine
10
-35.3698504027616
20
14.1642065279251
30
0.000000000000000
11
-35.2698504027616
21
14.1394589188665
31
0.000000000000000
  0
LINE
  5
F1069A
330
F1069B
100
AcDbEntity
8
Geo
100
AcDbLine
10
-35.2698504027616
20
14.1394589188665
30
0.000000000000000
11
-35.1698504027616
21
14.1137565203192
31
0.000000000000000
  0
LINE
  5
F1069C
330
F1069D
100
AcDbEntity
8
Geo
100
AcDbLine
10
-35.1698504027616
20
14.1137565203192
30
0.000000000000000
11
-35.0698504027616
21
14.0871019025015
31
0.000000000000000
  0
LINE
  5
F1069E
330
F1069F
100
AcDbEntity
8
Geo
100
AcDbLine
10
-35.0698504027616
20
14.0871019025015
30
0.000000000000000
11
-34.9698504027616
21
14.0594977308531
31
0.000000000000000
  0
LINE
  5
F106A0
330
F106A1
100
AcDbEntity
8
Geo
100
AcDbLine
10
-34.9698504027616
20
14.0594977308531
30
0.000000000000000
11
-34.8698504027616
21
14.0309467657680
31
0.000000000000000
  0
LINE
  5
F106A2
330
F106A3
100
AcDbEntity
8
Geo
100
AcDbLine
10
-34.8698504027616
20
14.0309467657680
30
0.000000000000000
11
-34.7698504027616
21
14.0014518623190
31
0.000000000000000
  0
LINE
  5
F106A4
330
F106A5
100
AcDbEntity
8
Geo
100
AcDbLine
10
-34.7698504027616
20
14.0014518623190
30
0.000000000000000
11
-34.6698504027616
21
13.9710159699719
31
0.000000000000000
  0
LINE
  5
F106A6
330
F106A7
100
AcDbEntity
8
Geo
100
AcDbLine
10
-34.6698504027616
20
13.9710159699719
30
0.000000000000000
11
-34.5698504027616
21
13.9396421322906
31
0.000000000000000
  0
LINE
  5
F106A8
330
F106A9
100
AcDbEntity
8
Geo
100
AcDbLine
10
-34.5698504027616
20
13.9396421322906
30
0.000000000000000
11
-34.4698504027616
21
13.9073334866326
31
0.000000000000000
  0
LINE
  5
F106AA
330
F106AB
100
AcDbEntity
8
Geo
100
AcDbLine
10
-34.4698504027616
20
13.9073334866326
30
0.000000000000000
11
-34.3698504027616
21
13.8740932638356
31
0.000000000000000
  0
LINE
  5
F106AC
330
F106AD
100
AcDbEntity
8
Geo
100
AcDbLine
10
-34.3698504027616
20
13.8740932638356
30
0.000000000000000
11
-34.2698504027616
21
13.8399247878942
31
0.000000000000000
  0
LINE
  5
F106AE
330
F106AF
100
AcDbEntity
8
Geo
100
AcDbLine
10
-34.2698504027616
20
13.8399247878942
30
0.000000000000000
11
-34.1698504027616
21
13.8048314756276
31
0.000000000000000
  0
LINE
  5
F106B0
330
F106B1
100
AcDbEntity
8
Geo
100
AcDbLine
10
-34.1698504027616
20
13.8048314756276
30
0.000000000000000
11
-34.0698504027616
21
13.7688168363376
31
0.000000000000000
  0
LINE
  5
F106B2
330
F106B3
100
AcDbEntity
8
Geo
100
AcDbLine
10
-34.0698504027616
20
13.7688168363376
30
0.000000000000000
11
-33.9698504027616
21
13.7318844714582
31
0.000000000000000
  0
LINE
  5
F106B4
330
F106B5
100
AcDbEntity
8
Geo
100
AcDbLine
10
-33.9698504027616
20
13.7318844714582
30
0.000000000000000
11
-33.8698504027616
21
13.6940380741951
31
0.000000000000000
  0
LINE
  5
F106B6
330
F106B7
100
AcDbEntity
8
Geo
100
AcDbLine
10
-33.8698504027616
20
13.6940380741951
30
0.000000000000000
11
-33.7698504027616
21
13.6552814291566
31
0.000000000000000
  0
LINE
  5
F106B8
330
F106B9
100
AcDbEntity
8
Geo
100
AcDbLine
10
-33.7698504027616
20
13.6552814291566
30
0.000000000000000
11
-33.6698504027616
21
13.6156184119748
31
0.000000000000000
  0
LINE
  5
F106BA
330
F106BB
100
AcDbEntity
8
Geo
100
AcDbLine
10
-33.6698504027616
20
13.6156184119748
30
0.000000000000000
11
-33.5698504027616
21
13.5750529889183
31
0.000000000000000
  0
LINE
  5
F106BC
330
F106BD
100
AcDbEntity
8
Geo
100
AcDbLine
10
-33.5698504027616
20
13.5750529889183
30
0.000000000000000
11
-33.4698504027616
21
13.5335892164957
31
0.000000000000000
  0
LINE
  5
F106BE
330
F106BF
100
AcDbEntity
8
Geo
100
AcDbLine
10
-33.4698504027616
20
13.5335892164957
30
0.000000000000000
11
-33.3698504027616
21
13.4912312410497
31
0.000000000000000
  0
LINE
  5
F106C0
330
F106C1
100
AcDbEntity
8
Geo
100
AcDbLine
10
-66.8698504027618
20
9.50088228846175
30
0.000000000000000
11
-66.7698504027618
21
9.57917831392367
31
0.000000000000000
  0
LINE
  5
F106C2
330
F106C3
100
AcDbEntity
8
Geo
100
AcDbLine
10
-66.7698504027618
20
9.57917831392367
30
0.000000000000000
11
-66.6698504027618
21
9.66526115287658
31
0.000000000000000
  0
LINE
  5
F106C4
330
F106C5
100
AcDbEntity
8
Geo
100
AcDbLine
10
-66.6698504027618
20
9.66526115287658
30
0.000000000000000
11
-66.5698504027618
21
9.75319221401483
31
0.000000000000000
  0
LINE
  5
F106C6
330
F106C7
100
AcDbEntity
8
Geo
100
AcDbLine
10
-66.5698504027618
20
9.75319221401483
30
0.000000000000000
11
-66.4698504027618
21
9.84095072876667
31
0.000000000000000
  0
LINE
  5
F106C8
330
F106C9
100
AcDbEntity
8
Geo
100
AcDbLine
10
-66.4698504027618
20
9.84095072876667
30
0.000000000000000
11
-66.3698504027618
21
9.92788082189508
31
0.000000000000000
  0
LINE
  5
F106CA
330
F106CB
100
AcDbEntity
8
Geo
100
AcDbLine
10
-66.3698504027618
20
9.92788082189508
30
0.000000000000000
11
-66.2698504027618
21
10.0134263612131
31
0.000000000000000
  0
LINE
  5
F106CC
330
F106CD
100
AcDbEntity
8
Geo
100
AcDbLine
10
-66.2698504027618
20
10.0134263612131
30
0.000000000000000
11
-66.1698504027618
21
10.0975401782979
31
0.000000000000000
  0
LINE
  5
F106CE
330
F106CF
100
AcDbEntity
8
Geo
100
AcDbLine
10
-66.1698504027618
20
10.0975401782979
30
0.000000000000000
11
-66.0698504027618
21
10.1799539273929
31
0.000000000000000
  0
LINE
  5
F106D0
330
F106D1
100
AcDbEntity
8
Geo
100
AcDbLine
10
-66.0698504027618
20
10.1799539273929
30
0.000000000000000
11
-65.9698504027618
21
10.2606345584092
31
0.000000000000000
  0
LINE
  5
F106D2
330
F106D3
100
AcDbEntity
8
Geo
100
AcDbLine
10
-65.9698504027618
20
10.2606345584092
30
0.000000000000000
11
-65.8698504027618
21
10.3395577737532
31
0.000000000000000
  0
LINE
  5
F106D4
330
F106D5
100
AcDbEntity
8
Geo
100
AcDbLine
10
-65.8698504027618
20
10.3395577737532
30
0.000000000000000
11
-65.7698504027618
21
10.4167075708074
31
0.000000000000000
  0
LINE
  5
F106D6
330
F106D7
100
AcDbEntity
8
Geo
100
AcDbLine
10
-65.7698504027618
20
10.4167075708074
30
0.000000000000000
11
-65.6698504027618
21
10.4921993527275
31
0.000000000000000
  0
LINE
  5
F106D8
330
F106D9
100
AcDbEntity
8
Geo
100
AcDbLine
10
-65.6698504027618
20
10.4921993527275
30
0.000000000000000
11
-65.5698504027618
21
10.5660392845780
31
0.000000000000000
  0
LINE
  5
F106DA
330
F106DB
100
AcDbEntity
8
Geo
100
AcDbLine
10
-65.5698504027618
20
10.5660392845780
30
0.000000000000000
11
-65.4698504027618
21
10.6381459100720
31
0.000000000000000
  0
LINE
  5
F106DC
330
F106DD
100
AcDbEntity
8
Geo
100
AcDbLine
10
-65.4698504027618
20
10.6381459100720
30
0.000000000000000
11
-65.3698504027618
21
10.7086273214270
31
0.000000000000000
  0
LINE
  5
F106DE
330
F106DF
100
AcDbEntity
8
Geo
100
AcDbLine
10
-65.3698504027618
20
10.7086273214270
30
0.000000000000000
11
-65.2698504027618
21
10.7774305842802
31
0.000000000000000
  0
LINE
  5
F106E0
330
F106E1
100
AcDbEntity
8
Geo
100
AcDbLine
10
-65.2698504027618
20
10.7774305842802
30
0.000000000000000
11
-65.1698504027618
21
10.8429531250865
31
0.000000000000000
  0
LINE
  5
F106E2
330
F106E3
100
AcDbEntity
8
Geo
100
AcDbLine
10
-65.1698504027618
20
10.8429531250865
30
0.000000000000000
11
-65.0698504027618
21
10.9046797651496
31
0.000000000000000
  0
LINE
  5
F106E4
330
F106E5
100
AcDbEntity
8
Geo
100
AcDbLine
10
-65.0698504027618
20
10.9046797651496
30
0.000000000000000
11
-64.9698504027618
21
10.9627162277631
31
0.000000000000000
  0
LINE
  5
F106E6
330
F106E7
100
AcDbEntity
8
Geo
100
AcDbLine
10
-64.9698504027618
20
10.9627162277631
30
0.000000000000000
11
-64.8698504027618
21
11.0171599164088
31
0.000000000000000
  0
LINE
  5
F106E8
330
F106E9
100
AcDbEntity
8
Geo
100
AcDbLine
10
-64.8698504027618
20
11.0171599164088
30
0.000000000000000
11
-64.7698504027618
21
11.0681008761010
31
0.000000000000000
  0
LINE
  5
F106EA
330
F106EB
100
AcDbEntity
8
Geo
100
AcDbLine
10
-64.7698504027618
20
11.0681008761010
30
0.000000000000000
11
-64.6698504027618
21
11.1156226245264
31
0.000000000000000
  0
LINE
  5
F106EC
330
F106ED
100
AcDbEntity
8
Geo
100
AcDbLine
10
-64.6698504027618
20
11.1156226245264
30
0.000000000000000
11
-64.5698504027618
21
11.1598028737788
31
0.000000000000000
  0
LINE
  5
F106EE
330
F106EF
100
AcDbEntity
8
Geo
100
AcDbLine
10
-64.5698504027618
20
11.1598028737788
30
0.000000000000000
11
-64.4698504027618
21
11.2007141596785
31
0.000000000000000
  0
LINE
  5
F106F0
330
F106F1
100
AcDbEntity
8
Geo
100
AcDbLine
10
-64.4698504027618
20
11.2007141596785
30
0.000000000000000
11
-64.3698504027618
21
11.2384243926431
31
0.000000000000000
  0
LINE
  5
F106F2
330
F106F3
100
AcDbEntity
8
Geo
100
AcDbLine
10
-64.3698504027618
20
11.2384243926431
30
0.000000000000000
11
-64.2698504027618
21
11.2729973416537
31
0.000000000000000
  0
LINE
  5
F106F4
330
F106F5
100
AcDbEntity
8
Geo
100
AcDbLine
10
-64.2698504027618
20
11.2729973416537
30
0.000000000000000
11
-64.1698504027618
21
11.3044930609102
31
0.000000000000000
  0
LINE
  5
F106F6
330
F106F7
100
AcDbEntity
8
Geo
100
AcDbLine
10
-64.1698504027618
20
11.3044930609102
30
0.000000000000000
11
-64.0698504027618
21
11.3329682671886
31
0.000000000000000
  0
LINE
  5
F106F8
330
F106F9
100
AcDbEntity
8
Geo
100
AcDbLine
10
-64.0698504027618
20
11.3329682671886
30
0.000000000000000
11
-63.9698504027618
21
11.3584766746257
31
0.000000000000000
  0
LINE
  5
F106FA
330
F106FB
100
AcDbEntity
8
Geo
100
AcDbLine
10
-63.9698504027618
20
11.3584766746257
30
0.000000000000000
11
-63.8698504027618
21
11.3810692926004
31
0.000000000000000
  0
LINE
  5
F106FC
330
F106FD
100
AcDbEntity
8
Geo
100
AcDbLine
10
-63.8698504027618
20
11.3810692926004
30
0.000000000000000
11
-63.7698504027618
21
11.4007946915115
31
0.000000000000000
  0
LINE
  5
F106FE
330
F106FF
100
AcDbEntity
8
Geo
100
AcDbLine
10
-63.7698504027618
20
11.4007946915115
30
0.000000000000000
11
-63.6698504027618
21
11.4176992405351
31
0.000000000000000
  0
LINE
  5
F10700
330
F10701
100
AcDbEntity
8
Geo
100
AcDbLine
10
-63.6698504027618
20
11.4176992405351
30
0.000000000000000
11
-63.5698504027618
21
11.4318273208421
31
0.000000000000000
  0
LINE
  5
F10702
330
F10703
100
AcDbEntity
8
Geo
100
AcDbLine
10
-63.5698504027618
20
11.4318273208421
30
0.000000000000000
11
-63.4698504027618
21
11.4432215172629
31
0.000000000000000
  0
LINE
  5
F10704
330
F10705
100
AcDbEntity
8
Geo
100
AcDbLine
10
-63.4698504027618
20
11.4432215172629
30
0.000000000000000
11
-63.3698504027618
21
11.4519227909624
31
0.000000000000000
  0
LINE
  5
F10706
330
F10707
100
AcDbEntity
8
Geo
100
AcDbLine
10
-63.3698504027618
20
11.4519227909624
30
0.000000000000000
11
-63.2698504027618
21
11.4579706353397
31
0.000000000000000
  0
LINE
  5
F10708
330
F10709
100
AcDbEntity
8
Geo
100
AcDbLine
10
-63.2698504027618
20
11.4579706353397
30
0.000000000000000
11
-63.1698504027618
21
11.4614032170678
31
0.000000000000000
  0
LINE
  5
F1070A
330
F1070B
100
AcDbEntity
8
Geo
100
AcDbLine
10
-63.1698504027618
20
11.4614032170678
30
0.000000000000000
11
-63.0698504027618
21
11.4622575039345
31
0.000000000000000
  0
LINE
  5
F1070C
330
F1070D
100
AcDbEntity
8
Geo
100
AcDbLine
10
-63.0698504027618
20
11.4622575039345
30
0.000000000000000
11
-62.9698504027618
21
11.4605693809352
31
0.000000000000000
  0
LINE
  5
F1070E
330
F1070F
100
AcDbEntity
8
Geo
100
AcDbLine
10
-62.9698504027618
20
11.4605693809352
30
0.000000000000000
11
-62.8698504027618
21
11.4563737558779
31
0.000000000000000
  0
LINE
  5
F10710
330
F10711
100
AcDbEntity
8
Geo
100
AcDbLine
10
-62.8698504027618
20
11.4563737558779
30
0.000000000000000
11
-62.7698504027618
21
11.4497046556110
31
0.000000000000000
  0
LINE
  5
F10712
330
F10713
100
AcDbEntity
8
Geo
100
AcDbLine
10
-62.7698504027618
20
11.4497046556110
30
0.000000000000000
11
-62.6698504027618
21
11.4405953138432
31
0.000000000000000
  0
LINE
  5
F10714
330
F10715
100
AcDbEntity
8
Geo
100
AcDbLine
10
-62.6698504027618
20
11.4405953138432
30
0.000000000000000
11
-62.5698504027618
21
11.4290782514119
31
0.000000000000000
  0
LINE
  5
F10716
330
F10717
100
AcDbEntity
8
Geo
100
AcDbLine
10
-62.5698504027618
20
11.4290782514119
30
0.000000000000000
11
-62.4698504027618
21
11.4151853497540
31
0.000000000000000
  0
LINE
  5
F10718
330
F10719
100
AcDbEntity
8
Geo
100
AcDbLine
10
-62.4698504027618
20
11.4151853497540
30
0.000000000000000
11
-62.3698504027618
21
11.3989479182474
31
0.000000000000000
  0
LINE
  5
F1071A
330
F1071B
100
AcDbEntity
8
Geo
100
AcDbLine
10
-62.3698504027618
20
11.3989479182474
30
0.000000000000000
11
-62.2698504027618
21
11.3803967560138
31
0.000000000000000
  0
LINE
  5
F1071C
330
F1071D
100
AcDbEntity
8
Geo
100
AcDbLine
10
-62.2698504027618
20
11.3803967560138
30
0.000000000000000
11
-62.1698504027618
21
11.3595622087082
31
0.000000000000000
  0
LINE
  5
F1071E
330
F1071F
100
AcDbEntity
8
Geo
100
AcDbLine
10
-62.1698504027618
20
11.3595622087082
30
0.000000000000000
11
-62.0698504027618
21
11.3364742207647
31
0.000000000000000
  0
LINE
  5
F10720
330
F10721
100
AcDbEntity
8
Geo
100
AcDbLine
10
-62.0698504027618
20
11.3364742207647
30
0.000000000000000
11
-61.9698504027618
21
11.3111623835123
31
0.000000000000000
  0
LINE
  5
F10722
330
F10723
100
AcDbEntity
8
Geo
100
AcDbLine
10
-61.9698504027618
20
11.3111623835123
30
0.000000000000000
11
-61.8698504027618
21
11.2836559795384
31
0.000000000000000
  0
LINE
  5
F10724
330
F10725
100
AcDbEntity
8
Geo
100
AcDbLine
10
-61.8698504027618
20
11.2836559795384
30
0.000000000000000
11
-61.7698504027618
21
11.2539840236290
31
0.000000000000000
  0
LINE
  5
F10726
330
F10727
100
AcDbEntity
8
Geo
100
AcDbLine
10
-61.7698504027618
20
11.2539840236290
30
0.000000000000000
11
-61.6698504027618
21
11.2221753005899
31
0.000000000000000
  0
LINE
  5
F10728
330
F10729
100
AcDbEntity
8
Geo
100
AcDbLine
10
-61.6698504027618
20
11.2221753005899
30
0.000000000000000
11
-61.5698504027618
21
11.1882584002153
31
0.000000000000000
  0
LINE
  5
F1072A
330
F1072B
100
AcDbEntity
8
Geo
100
AcDbLine
10
-61.5698504027618
20
11.1882584002153
30
0.000000000000000
11
-61.4698504027618
21
11.1522617496474
31
0.000000000000000
  0
LINE
  5
F1072C
330
F1072D
100
AcDbEntity
8
Geo
100
AcDbLine
10
-61.4698504027618
20
11.1522617496474
30
0.000000000000000
11
-61.3698504027618
21
11.1142136433460
31
0.000000000000000
  0
LINE
  5
F1072E
330
F1072F
100
AcDbEntity
8
Geo
100
AcDbLine
10
-61.3698504027618
20
11.1142136433460
30
0.000000000000000
11
-61.2698504027618
21
11.0741422708665
31
0.000000000000000
  0
LINE
  5
F10730
330
F10731
100
AcDbEntity
8
Geo
100
AcDbLine
10
-61.2698504027618
20
11.0741422708665
30
0.000000000000000
11
-61.1698504027618
21
11.0320757426236
31
0.000000000000000
  0
LINE
  5
F10732
330
F10733
100
AcDbEntity
8
Geo
100
AcDbLine
10
-61.1698504027618
20
11.0320757426236
30
0.000000000000000
11
-61.0698504027618
21
10.9880421138046
31
0.000000000000000
  0
LINE
  5
F10734
330
F10735
100
AcDbEntity
8
Geo
100
AcDbLine
10
-61.0698504027618
20
10.9880421138046
30
0.000000000000000
11
-60.9698504027618
21
10.9420694065800
31
0.000000000000000
  0
LINE
  5
F10736
330
F10737
100
AcDbEntity
8
Geo
100
AcDbLine
10
-60.9698504027618
20
10.9420694065800
30
0.000000000000000
11
-60.8698504027618
21
10.8941856307432
31
0.000000000000000
  0
LINE
  5
F10738
330
F10739
100
AcDbEntity
8
Geo
100
AcDbLine
10
-60.8698504027618
20
10.8941856307432
30
0.000000000000000
11
-60.7698504027618
21
10.8444188029050
31
0.000000000000000
  0
LINE
  5
F1073A
330
F1073B
100
AcDbEntity
8
Geo
100
AcDbLine
10
-60.7698504027618
20
10.8444188029050
30
0.000000000000000
11
-60.6698504027618
21
10.7927969643510
31
0.000000000000000
  0
LINE
  5
F1073C
330
F1073D
100
AcDbEntity
8
Geo
100
AcDbLine
10
-60.6698504027618
20
10.7927969643510
30
0.000000000000000
11
-60.5698504027618
21
10.7393481976663
31
0.000000000000000
  0
LINE
  5
F1073E
330
F1073F
100
AcDbEntity
8
Geo
100
AcDbLine
10
-60.5698504027618
20
10.7393481976663
30
0.000000000000000
11
-60.4698504027618
21
10.6841006422194
31
0.000000000000000
  0
LINE
  5
F10740
330
F10741
100
AcDbEntity
8
Geo
100
AcDbLine
10
-60.4698504027618
20
10.6841006422194
30
0.000000000000000
11
-60.3698504027618
21
10.6270825085920
31
0.000000000000000
  0
LINE
  5
F10742
330
F10743
100
AcDbEntity
8
Geo
100
AcDbLine
10
-60.3698504027618
20
10.6270825085920
30
0.000000000000000
11
-60.2698504027618
21
10.5683220920319
31
0.000000000000000
  0
LINE
  5
F10744
330
F10745
100
AcDbEntity
8
Geo
100
AcDbLine
10
-60.2698504027618
20
10.5683220920319
30
0.000000000000000
11
-60.1698504027618
21
10.5078477850027
31
0.000000000000000
  0
LINE
  5
F10746
330
F10747
100
AcDbEntity
8
Geo
100
AcDbLine
10
-60.1698504027618
20
10.5078477850027
30
0.000000000000000
11
-60.0698504027618
21
10.4456880888963
31
0.000000000000000
  0
LINE
  5
F10748
330
F10749
100
AcDbEntity
8
Geo
100
AcDbLine
10
-60.0698504027618
20
10.4456880888963
30
0.000000000000000
11
-59.9698504027618
21
10.3818716249692
31
0.000000000000000
  0
LINE
  5
F1074A
330
F1074B
100
AcDbEntity
8
Geo
100
AcDbLine
10
-59.9698504027618
20
10.3818716249692
30
0.000000000000000
11
-59.8698504027618
21
10.3164271445609
31
0.000000000000000
  0
LINE
  5
F1074C
330
F1074D
100
AcDbEntity
8
Geo
100
AcDbLine
10
-59.8698504027618
20
10.3164271445609
30
0.000000000000000
11
-59.7698504027618
21
10.2493835386455
31
0.000000000000000
  0
LINE
  5
F1074E
330
F1074F
100
AcDbEntity
8
Geo
100
AcDbLine
10
-59.7698504027618
20
10.2493835386455
30
0.000000000000000
11
-59.6698504027618
21
10.1807698467666
31
0.000000000000000
  0
LINE
  5
F10750
330
F10751
100
AcDbEntity
8
Geo
100
AcDbLine
10
-59.6698504027618
20
10.1807698467666
30
0.000000000000000
11
-59.5698504027618
21
10.1106152654004
31
0.000000000000000
  0
LINE
  5
F10752
330
F10753
100
AcDbEntity
8
Geo
100
AcDbLine
10
-59.5698504027618
20
10.1106152654004
30
0.000000000000000
11
-59.4698504027618
21
10.0389491557891
31
0.000000000000000
  0
LINE
  5
F10754
330
F10755
100
AcDbEntity
8
Geo
100
AcDbLine
10
-59.4698504027618
20
10.0389491557891
30
0.000000000000000
11
-59.3698504027618
21
9.96580105128544
31
0.000000000000000
  0
LINE
  5
F10756
330
F10757
100
AcDbEntity
8
Geo
100
AcDbLine
10
-59.3698504027618
20
9.96580105128544
30
0.000000000000000
11
-59.2698504027618
21
9.89120066424410
31
0.000000000000000
  0
LINE
  5
F10758
330
F10759
100
AcDbEntity
8
Geo
100
AcDbLine
10
-59.2698504027618
20
9.89120066424410
30
0.000000000000000
11
-59.1698504027618
21
9.81517789249501
31
0.000000000000000
  0
LINE
  5
F1075A
330
F1075B
100
AcDbEntity
8
Geo
100
AcDbLine
10
-59.1698504027618
20
9.81517789249501
30
0.000000000000000
11
-59.0698504027618
21
9.73776282543188
31
0.000000000000000
  0
LINE
  5
F1075C
330
F1075D
100
AcDbEntity
8
Geo
100
AcDbLine
10
-59.0698504027618
20
9.73776282543188
30
0.000000000000000
11
-58.9698504027618
21
9.65898574974621
31
0.000000000000000
  0
LINE
  5
F1075E
330
F1075F
100
AcDbEntity
8
Geo
100
AcDbLine
10
-58.9698504027618
20
9.65898574974621
30
0.000000000000000
11
-58.8698504027618
21
9.57887715483604
31
0.000000000000000
  0
LINE
  5
F10760
330
F10761
100
AcDbEntity
8
Geo
100
AcDbLine
10
-58.8698504027618
20
9.57887715483604
30
0.000000000000000
11
-58.7698504027618
21
9.49746773791720
31
0.000000000000000
  0
LINE
  5
F10762
330
F10763
100
AcDbEntity
8
Geo
100
AcDbLine
10
-58.7698504027618
20
9.49746773791720
30
0.000000000000000
11
-58.6698504027618
21
9.41478840886322
31
0.000000000000000
  0
LINE
  5
F10764
330
F10765
100
AcDbEntity
8
Geo
100
AcDbLine
10
-58.6698504027618
20
9.41478840886322
30
0.000000000000000
11
-58.5698504027618
21
9.33087029479921
31
0.000000000000000
  0
LINE
  5
F10766
330
F10767
100
AcDbEntity
8
Geo
100
AcDbLine
10
-58.5698504027618
20
9.33087029479921
30
0.000000000000000
11
-58.4698504027618
21
9.24574474447354
31
0.000000000000000
  0
LINE
  5
F10768
330
F10769
100
AcDbEntity
8
Geo
100
AcDbLine
10
-58.4698504027618
20
9.24574474447354
30
0.000000000000000
11
-58.3698504027618
21
9.15944333243057
31
0.000000000000000
  0
LINE
  5
F1076A
330
F1076B
100
AcDbEntity
8
Geo
100
AcDbLine
10
-58.3698504027618
20
9.15944333243057
30
0.000000000000000
11
-58.2698504027618
21
9.07199786300670
31
0.000000000000000
  0
LINE
  5
F1076C
330
F1076D
100
AcDbEntity
8
Geo
100
AcDbLine
10
-58.2698504027618
20
9.07199786300670
30
0.000000000000000
11
-58.1698504027618
21
8.98376846752901
31
0.000000000000000
  0
LINE
  5
F1076E
330
F1076F
100
AcDbEntity
8
Geo
100
AcDbLine
10
-58.1698504027618
20
8.98376846752901
30
0.000000000000000
11
-58.0698504027618
21
8.89509984731128
31
0.000000000000000
  0
LINE
  5
F10770
330
F10771
100
AcDbEntity
8
Geo
100
AcDbLine
10
-58.0698504027618
20
8.89509984731128
30
0.000000000000000
11
-57.9698504027618
21
8.80600086914164
31
0.000000000000000
  0
LINE
  5
F10772
330
F10773
100
AcDbEntity
8
Geo
100
AcDbLine
10
-57.9698504027618
20
8.80600086914164
30
0.000000000000000
11
-57.8698504027618
21
8.71648044284367
31
0.000000000000000
  0
LINE
  5
F10774
330
F10775
100
AcDbEntity
8
Geo
100
AcDbLine
10
-57.8698504027618
20
8.71648044284367
30
0.000000000000000
11
-57.7698504027618
21
8.62654752038538
31
0.000000000000000
  0
LINE
  5
F10776
330
F10777
100
AcDbEntity
8
Geo
100
AcDbLine
10
-57.7698504027618
20
8.62654752038538
30
0.000000000000000
11
-57.6698504027618
21
8.53621109498409
31
0.000000000000000
  0
LINE
  5
F10778
330
F10779
100
AcDbEntity
8
Geo
100
AcDbLine
10
-57.6698504027618
20
8.53621109498409
30
0.000000000000000
11
-57.5698504027618
21
8.44548020020705
31
0.000000000000000
  0
LINE
  5
F1077A
330
F1077B
100
AcDbEntity
8
Geo
100
AcDbLine
10
-57.5698504027618
20
8.44548020020705
30
0.000000000000000
11
-57.4698504027618
21
8.35436390906813
31
0.000000000000000
  0
LINE
  5
F1077C
330
F1077D
100
AcDbEntity
8
Geo
100
AcDbLine
10
-57.4698504027618
20
8.35436390906813
30
0.000000000000000
11
-57.3698504027618
21
8.26287133312052
31
0.000000000000000
  0
LINE
  5
F1077E
330
F1077F
100
AcDbEntity
8
Geo
100
AcDbLine
10
-57.3698504027618
20
8.26287133312052
30
0.000000000000000
11
-57.2698504027618
21
8.17101162154557
31
0.000000000000000
  0
LINE
  5
F10780
330
F10781
100
AcDbEntity
8
Geo
100
AcDbLine
10
-57.2698504027618
20
8.17101162154557
30
0.000000000000000
11
-57.1698504027618
21
8.07879396023788
31
0.000000000000000
  0
LINE
  5
F10782
330
F10783
100
AcDbEntity
8
Geo
100
AcDbLine
10
-57.1698504027618
20
8.07879396023788
30
0.000000000000000
11
-57.0698504027618
21
7.98622757088674
31
0.000000000000000
  0
LINE
  5
F10784
330
F10785
100
AcDbEntity
8
Geo
100
AcDbLine
10
-57.0698504027618
20
7.98622757088674
30
0.000000000000000
11
-56.9698504027618
21
7.89332171005394
31
0.000000000000000
  0
LINE
  5
F10786
330
F10787
100
AcDbEntity
8
Geo
100
AcDbLine
10
-56.9698504027618
20
7.89332171005394
30
0.000000000000000
11
-56.8698504027618
21
7.80008566824815
31
0.000000000000000
  0
LINE
  5
F10788
330
F10789
100
AcDbEntity
8
Geo
100
AcDbLine
10
-56.8698504027618
20
7.80008566824815
30
0.000000000000000
11
-56.7698504027618
21
7.70652876899586
31
0.000000000000000
  0
LINE
  5
F1078A
330
F1078B
100
AcDbEntity
8
Geo
100
AcDbLine
10
-56.7698504027618
20
7.70652876899586
30
0.000000000000000
11
-56.6698504027618
21
7.61266036790901
31
0.000000000000000
  0
LINE
  5
F1078C
330
F1078D
100
AcDbEntity
8
Geo
100
AcDbLine
10
-56.6698504027618
20
7.61266036790901
30
0.000000000000000
11
-56.5698504027618
21
7.51848985174950
31
0.000000000000000
  0
LINE
  5
F1078E
330
F1078F
100
AcDbEntity
8
Geo
100
AcDbLine
10
-56.5698504027618
20
7.51848985174950
30
0.000000000000000
11
-56.4698504027618
21
7.42402663749047
31
0.000000000000000
  0
LINE
  5
F10790
330
F10791
100
AcDbEntity
8
Geo
100
AcDbLine
10
-56.4698504027618
20
7.42402663749047
30
0.000000000000000
11
-56.3698504027618
21
7.32928017137463
31
0.000000000000000
  0
LINE
  5
F10792
330
F10793
100
AcDbEntity
8
Geo
100
AcDbLine
10
-56.3698504027618
20
7.32928017137463
30
0.000000000000000
11
-56.2698504027618
21
7.23425992796962
31
0.000000000000000
  0
LINE
  5
F10794
330
F10795
100
AcDbEntity
8
Geo
100
AcDbLine
10
-56.2698504027618
20
7.23425992796962
30
0.000000000000000
11
-56.1698504027618
21
7.13897540922062
31
0.000000000000000
  0
LINE
  5
F10796
330
F10797
100
AcDbEntity
8
Geo
100
AcDbLine
10
-56.1698504027618
20
7.13897540922062
30
0.000000000000000
11
-56.0698504027618
21
7.04343614350008
31
0.000000000000000
  0
LINE
  5
F10798
330
F10799
100
AcDbEntity
8
Geo
100
AcDbLine
10
-56.0698504027618
20
7.04343614350008
30
0.000000000000000
11
-55.9698504027618
21
6.94765168465497
31
0.000000000000000
  0
LINE
  5
F1079A
330
F1079B
100
AcDbEntity
8
Geo
100
AcDbLine
10
-55.9698504027618
20
6.94765168465497
30
0.000000000000000
11
-55.8698504027618
21
6.85163161105136
31
0.000000000000000
  0
LINE
  5
F1079C
330
F1079D
100
AcDbEntity
8
Geo
100
AcDbLine
10
-55.8698504027618
20
6.85163161105136
30
0.000000000000000
11
-55.7698504027618
21
6.75538552461657
31
0.000000000000000
  0
LINE
  5
F1079E
330
F1079F
100
AcDbEntity
8
Geo
100
AcDbLine
10
-55.7698504027618
20
6.75538552461657
30
0.000000000000000
11
-55.6698504027618
21
6.65892304987907
31
0.000000000000000
  0
LINE
  5
F107A0
330
F107A1
100
AcDbEntity
8
Geo
100
AcDbLine
10
-55.6698504027618
20
6.65892304987907
30
0.000000000000000
11
-55.5698504027618
21
6.56225383300592
31
0.000000000000000
  0
LINE
  5
F107A2
330
F107A3
100
AcDbEntity
8
Geo
100
AcDbLine
10
-55.5698504027618
20
6.56225383300592
30
0.000000000000000
11
-55.4698504027618
21
6.46538754083826
31
0.000000000000000
  0
LINE
  5
F107A4
330
F107A5
100
AcDbEntity
8
Geo
100
AcDbLine
10
-55.4698504027618
20
6.46538754083826
30
0.000000000000000
11
-55.3698504027618
21
6.36833385992460
31
0.000000000000000
  0
LINE
  5
F107A6
330
F107A7
100
AcDbEntity
8
Geo
100
AcDbLine
10
-55.3698504027618
20
6.36833385992460
30
0.000000000000000
11
-55.2698504027618
21
6.27110249555213
31
0.000000000000000
  0
LINE
  5
F107A8
330
F107A9
100
AcDbEntity
8
Geo
100
AcDbLine
10
-55.2698504027618
20
6.27110249555213
30
0.000000000000000
11
-55.1698504027619
21
6.17370317077627
31
0.000000000000000
  0
LINE
  5
F107AA
330
F107AB
100
AcDbEntity
8
Geo
100
AcDbLine
10
-55.1698504027619
20
6.17370317077627
30
0.000000000000000
11
-55.0698504027619
21
6.07614562544834
31
0.000000000000000
  0
LINE
  5
F107AC
330
F107AD
100
AcDbEntity
8
Geo
100
AcDbLine
10
-55.0698504027619
20
6.07614562544834
30
0.000000000000000
11
-54.9698504027618
21
5.97843961524157
31
0.000000000000000
  0
LINE
  5
F107AE
330
F107AF
100
AcDbEntity
8
Geo
100
AcDbLine
10
-54.9698504027618
20
5.97843961524157
30
0.000000000000000
11
-54.8698504027618
21
5.88059491067555
31
0.000000000000000
  0
LINE
  5
F107B0
330
F107B1
100
AcDbEntity
8
Geo
100
AcDbLine
10
-54.8698504027618
20
5.88059491067555
30
0.000000000000000
11
-54.7698504027618
21
5.78262129613922
31
0.000000000000000
  0
LINE
  5
F107B2
330
F107B3
100
AcDbEntity
8
Geo
100
AcDbLine
10
-54.7698504027618
20
5.78262129613922
30
0.000000000000000
11
-54.6698504027619
21
5.68452856891237
31
0.000000000000000
  0
LINE
  5
F107B4
330
F107B5
100
AcDbEntity
8
Geo
100
AcDbLine
10
-54.6698504027619
20
5.68452856891237
30
0.000000000000000
11
-54.5698504027619
21
5.58632653818598
31
0.000000000000000
  0
LINE
  5
F107B6
330
F107B7
100
AcDbEntity
8
Geo
100
AcDbLine
10
-54.5698504027619
20
5.58632653818598
30
0.000000000000000
11
-54.4698504027618
21
5.48802502408130
31
0.000000000000000
  0
LINE
  5
F107B8
330
F107B9
100
AcDbEntity
8
Geo
100
AcDbLine
10
-54.4698504027618
20
5.48802502408130
30
0.000000000000000
11
-54.3698504027619
21
5.38963385666782
31
0.000000000000000
  0
LINE
  5
F107BA
330
F107BB
100
AcDbEntity
8
Geo
100
AcDbLine
10
-54.3698504027619
20
5.38963385666782
30
0.000000000000000
11
-54.2698504027619
21
5.29116287498028
31
0.000000000000000
  0
LINE
  5
F107BC
330
F107BD
100
AcDbEntity
8
Geo
100
AcDbLine
10
-54.2698504027619
20
5.29116287498028
30
0.000000000000000
11
-54.1698504027619
21
5.19262192603480
31
0.000000000000000
  0
LINE
  5
F107BE
330
F107BF
100
AcDbEntity
8
Geo
100
AcDbLine
10
-54.1698504027619
20
5.19262192603480
30
0.000000000000000
11
-54.0698504027619
21
5.09402086384415
31
0.000000000000000
  0
LINE
  5
F107C0
330
F107C1
100
AcDbEntity
8
Geo
100
AcDbLine
10
-54.0698504027619
20
5.09402086384415
30
0.000000000000000
11
-53.9698504027618
21
4.99536954843239
31
0.000000000000000
  0
LINE
  5
F107C2
330
F107C3
100
AcDbEntity
8
Geo
100
AcDbLine
10
-53.9698504027618
20
4.99536954843239
30
0.000000000000000
11
-53.8698504027619
21
4.89667784484884
31
0.000000000000000
  0
LINE
  5
F107C4
330
F107C5
100
AcDbEntity
8
Geo
100
AcDbLine
10
-53.8698504027619
20
4.89667784484884
30
0.000000000000000
11
-53.7698504027619
21
4.79795562218163
31
0.000000000000000
  0
LINE
  5
F107C6
330
F107C7
100
AcDbEntity
8
Geo
100
AcDbLine
10
-53.7698504027619
20
4.79795562218163
30
0.000000000000000
11
-53.6698504027619
21
4.69921275257074
31
0.000000000000000
  0
LINE
  5
F107C8
330
F107C9
100
AcDbEntity
8
Geo
100
AcDbLine
10
-53.6698504027619
20
4.69921275257074
30
0.000000000000000
11
-53.5698504027619
21
4.60045911022086
31
0.000000000000000
  0
LINE
  5
F107CA
330
F107CB
100
AcDbEntity
8
Geo
100
AcDbLine
10
-53.5698504027619
20
4.60045911022086
30
0.000000000000000
11
-53.4698504027619
21
4.50170457041393
31
0.000000000000000
  0
LINE
  5
F107CC
330
F107CD
100
AcDbEntity
8
Geo
100
AcDbLine
10
-53.4698504027619
20
4.50170457041393
30
0.000000000000000
11
-53.3698504027619
21
4.40295900852163
31
0.000000000000000
  0
LINE
  5
F107CE
330
F107CF
100
AcDbEntity
8
Geo
100
AcDbLine
10
-53.3698504027619
20
4.40295900852163
30
0.000000000000000
11
-53.2698504027619
21
4.30423229901787
31
0.000000000000000
  0
LINE
  5
F107D0
330
F107D1
100
AcDbEntity
8
Geo
100
AcDbLine
10
-53.2698504027619
20
4.30423229901787
30
0.000000000000000
11
-53.1698504027619
21
4.20553431449132
31
0.000000000000000
  0
LINE
  5
F107D2
330
F107D3
100
AcDbEntity
8
Geo
100
AcDbLine
10
-53.1698504027619
20
4.20553431449132
30
0.000000000000000
11
-53.0698504027619
21
4.10687492465818
31
0.000000000000000
  0
LINE
  5
F107D4
330
F107D5
100
AcDbEntity
8
Geo
100
AcDbLine
10
-53.0698504027619
20
4.10687492465818
30
0.000000000000000
11
-52.9698504027619
21
4.00826399537523
31
0.000000000000000
  0
LINE
  5
F107D6
330
F107D7
100
AcDbEntity
8
Geo
100
AcDbLine
10
-52.9698504027619
20
4.00826399537523
30
0.000000000000000
11
-52.8698504027619
21
3.90971138765322
31
0.000000000000000
  0
LINE
  5
F107D8
330
F107D9
100
AcDbEntity
8
Geo
100
AcDbLine
10
-52.8698504027619
20
3.90971138765322
30
0.000000000000000
11
-52.7698504027619
21
3.81122695667079
31
0.000000000000000
  0
LINE
  5
F107DA
330
F107DB
100
AcDbEntity
8
Geo
100
AcDbLine
10
-52.7698504027619
20
3.81122695667079
30
0.000000000000000
11
-52.6698504027619
21
3.71282055078897
31
0.000000000000000
  0
LINE
  5
F107DC
330
F107DD
100
AcDbEntity
8
Geo
100
AcDbLine
10
-52.6698504027619
20
3.71282055078897
30
0.000000000000000
11
-52.5698504027619
21
3.61450201056634
31
0.000000000000000
  0
LINE
  5
F107DE
330
F107DF
100
AcDbEntity
8
Geo
100
AcDbLine
10
-52.5698504027619
20
3.61450201056634
30
0.000000000000000
11
-52.4698504027619
21
3.51628116777500
31
0.000000000000000
  0
LINE
  5
F107E0
330
F107E1
100
AcDbEntity
8
Geo
100
AcDbLine
10
-52.4698504027619
20
3.51628116777500
30
0.000000000000000
11
-52.3698504027619
21
3.41816784441737
31
0.000000000000000
  0
LINE
  5
F107E2
330
F107E3
100
AcDbEntity
8
Geo
100
AcDbLine
10
-52.3698504027619
20
3.41816784441737
30
0.000000000000000
11
-52.2698504027619
21
3.32017185174403
31
0.000000000000000
  0
LINE
  5
F107E4
330
F107E5
100
AcDbEntity
8
Geo
100
AcDbLine
10
-52.2698504027619
20
3.32017185174403
30
0.000000000000000
11
-52.1698504027619
21
3.22230298927258
31
0.000000000000000
  0
LINE
  5
F107E6
330
F107E7
100
AcDbEntity
8
Geo
100
AcDbLine
10
-52.1698504027619
20
3.22230298927258
30
0.000000000000000
11
-52.0698504027619
21
3.12457104380771
31
0.000000000000000
  0
LINE
  5
F107E8
330
F107E9
100
AcDbEntity
8
Geo
100
AcDbLine
10
-52.0698504027619
20
3.12457104380771
30
0.000000000000000
11
-51.9698504027619
21
3.02698578846253
31
0.000000000000000
  0
LINE
  5
F107EA
330
F107EB
100
AcDbEntity
8
Geo
100
AcDbLine
10
-51.9698504027619
20
3.02698578846253
30
0.000000000000000
11
-51.8698504027619
21
2.92955698168125
31
0.000000000000000
  0
LINE
  5
F107EC
330
F107ED
100
AcDbEntity
8
Geo
100
AcDbLine
10
-51.8698504027619
20
2.92955698168125
30
0.000000000000000
11
-51.7698504027619
21
2.83229436626335
31
0.000000000000000
  0
LINE
  5
F107EE
330
F107EF
100
AcDbEntity
8
Geo
100
AcDbLine
10
-51.7698504027619
20
2.83229436626335
30
0.000000000000000
11
-51.6698504027619
21
2.73520766838933
31
0.000000000000000
  0
LINE
  5
F107F0
330
F107F1
100
AcDbEntity
8
Geo
100
AcDbLine
10
-51.6698504027619
20
2.73520766838933
30
0.000000000000000
11
-51.5698504027619
21
2.63830659664807
31
0.000000000000000
  0
LINE
  5
F107F2
330
F107F3
100
AcDbEntity
8
Geo
100
AcDbLine
10
-51.5698504027619
20
2.63830659664807
30
0.000000000000000
11
-51.4698504027618
21
2.54160084106599
31
0.000000000000000
  0
LINE
  5
F107F4
330
F107F5
100
AcDbEntity
8
Geo
100
AcDbLine
10
-51.4698504027618
20
2.54160084106599
30
0.000000000000000
11
-51.3698504027618
21
2.44510007213807
31
0.000000000000000
  0
LINE
  5
F107F6
330
F107F7
100
AcDbEntity
8
Geo
100
AcDbLine
10
-51.3698504027618
20
2.44510007213807
30
0.000000000000000
11
-51.2698504027618
21
2.34881393986077
31
0.000000000000000
  0
LINE
  5
F107F8
330
F107F9
100
AcDbEntity
8
Geo
100
AcDbLine
10
-51.2698504027618
20
2.34881393986077
30
0.000000000000000
11
-51.1698504027618
21
2.25275207276709
31
0.000000000000000
  0
LINE
  5
F107FA
330
F107FB
100
AcDbEntity
8
Geo
100
AcDbLine
10
-51.1698504027618
20
2.25275207276709
30
0.000000000000000
11
-51.0698504027618
21
2.15692407696369
31
0.000000000000000
  0
LINE
  5
F107FC
330
F107FD
100
AcDbEntity
8
Geo
100
AcDbLine
10
-51.0698504027618
20
2.15692407696369
30
0.000000000000000
11
-50.9698504027618
21
2.06133953517029
31
0.000000000000000
  0
LINE
  5
F107FE
330
F107FF
100
AcDbEntity
8
Geo
100
AcDbLine
10
-50.9698504027618
20
2.06133953517029
30
0.000000000000000
11
-50.8698504027618
21
1.96600800576141
31
0.000000000000000
  0
LINE
  5
F10800
330
F10801
100
AcDbEntity
8
Geo
100
AcDbLine
10
-50.8698504027618
20
1.96600800576141
30
0.000000000000000
11
-50.7698504027618
21
1.87093902181056
31
0.000000000000000
  0
LINE
  5
F10802
330
F10803
100
AcDbEntity
8
Geo
100
AcDbLine
10
-50.7698504027618
20
1.87093902181056
30
0.000000000000000
11
-50.6698504027618
21
1.77614209013691
31
0.000000000000000
  0
LINE
  5
F10804
330
F10805
100
AcDbEntity
8
Geo
100
AcDbLine
10
-50.6698504027618
20
1.77614209013691
30
0.000000000000000
11
-50.5698504027618
21
1.68162669035462
31
0.000000000000000
  0
LINE
  5
F10806
330
F10807
100
AcDbEntity
8
Geo
100
AcDbLine
10
-50.5698504027618
20
1.68162669035462
30
0.000000000000000
11
-50.4698504027618
21
1.58740227392491
31
0.000000000000000
  0
LINE
  5
F10808
330
F10809
100
AcDbEntity
8
Geo
100
AcDbLine
10
-50.4698504027618
20
1.58740227392491
30
0.000000000000000
11
-50.3698504027618
21
1.49347826321091
31
0.000000000000000
  0
LINE
  5
F1080A
330
F1080B
100
AcDbEntity
8
Geo
100
AcDbLine
10
-50.3698504027618
20
1.49347826321091
30
0.000000000000000
11
-50.2698504027618
21
1.39986405053541
31
0.000000000000000
  0
LINE
  5
F1080C
330
F1080D
100
AcDbEntity
8
Geo
100
AcDbLine
10
-50.2698504027618
20
1.39986405053541
30
0.000000000000000
11
-50.1698504027618
21
1.30656899724167
31
0.000000000000000
  0
LINE
  5
F1080E
330
F1080F
100
AcDbEntity
8
Geo
100
AcDbLine
10
-50.1698504027618
20
1.30656899724167
30
0.000000000000000
11
-50.0698504027618
21
1.21360243275728
31
0.000000000000000
  0
LINE
  5
F10810
330
F10811
100
AcDbEntity
8
Geo
100
AcDbLine
10
-50.0698504027618
20
1.21360243275728
30
0.000000000000000
11
-49.9698504027618
21
1.12097365366122
31
0.000000000000000
  0
LINE
  5
F10812
330
F10813
100
AcDbEntity
8
Geo
100
AcDbLine
10
-49.9698504027618
20
1.12097365366122
30
0.000000000000000
11
-49.8698504027618
21
1.02869192275419
31
0.000000000000000
  0
LINE
  5
F10814
330
F10815
100
AcDbEntity
8
Geo
100
AcDbLine
10
-49.8698504027618
20
1.02869192275419
30
0.000000000000000
11
-49.7698504027618
21
0.936766468132393
31
0.000000000000000
  0
LINE
  5
F10816
330
F10817
100
AcDbEntity
8
Geo
100
AcDbLine
10
-49.7698504027618
20
0.936766468132393
30
0.000000000000000
11
-49.6698504027618
21
0.845206482264686
31
0.000000000000000
  0
LINE
  5
F10818
330
F10819
100
AcDbEntity
8
Geo
100
AcDbLine
10
-49.6698504027618
20
0.845206482264686
30
0.000000000000000
11
-49.5698504027618
21
0.754021121073354
31
0.000000000000000
  0
LINE
  5
F1081A
330
F1081B
100
AcDbEntity
8
Geo
100
AcDbLine
10
-49.5698504027618
20
0.754021121073354
30
0.000000000000000
11
-49.4698504027618
21
0.663219503018531
31
0.000000000000000
  0
LINE
  5
F1081C
330
F1081D
100
AcDbEntity
8
Geo
100
AcDbLine
10
-49.4698504027618
20
0.663219503018531
30
0.000000000000000
11
-49.3698504027618
21
0.572810708186353
31
0.000000000000000
  0
LINE
  5
F1081E
330
F1081F
100
AcDbEntity
8
Geo
100
AcDbLine
10
-49.3698504027618
20
0.572810708186353
30
0.000000000000000
11
-49.2698504027618
21
0.482803777380961
31
0.000000000000000
  0
LINE
  5
F10820
330
F10821
100
AcDbEntity
8
Geo
100
AcDbLine
10
-49.2698504027618
20
0.482803777380961
30
0.000000000000000
11
-49.1698504027618
21
0.393207711220434
31
0.000000000000000
  0
LINE
  5
F10822
330
F10823
100
AcDbEntity
8
Geo
100
AcDbLine
10
-49.1698504027618
20
0.393207711220434
30
0.000000000000000
11
-49.0698504027618
21
0.304031469236723
31
0.000000000000000
  0
LINE
  5
F10824
330
F10825
100
AcDbEntity
8
Geo
100
AcDbLine
10
-49.0698504027618
20
0.304031469236723
30
0.000000000000000
11
-48.9698504027618
21
0.215283968979711
31
0.000000000000000
  0
LINE
  5
F10826
330
F10827
100
AcDbEntity
8
Geo
100
AcDbLine
10
-48.9698504027618
20
0.215283968979711
30
0.000000000000000
11
-48.8698504027618
21
0.126974085125472
31
0.000000000000000
  0
LINE
  5
F10828
330
F10829
100
AcDbEntity
8
Geo
100
AcDbLine
10
-48.8698504027618
20
0.126974085125472
30
0.000000000000000
11
-48.7698504027618
21
0.0391106485887960
31
0.000000000000000
  0
LINE
  5
F1082A
330
F1082B
100
AcDbEntity
8
Geo
100
AcDbLine
10
-48.7698504027618
20
0.0391106485887960
30
0.000000000000000
11
-48.6698504027618
21
-0.0482975543598805
31
0.000000000000000
  0
LINE
  5
F1082C
330
F1082D
100
AcDbEntity
8
Geo
100
AcDbLine
10
-48.6698504027618
20
-0.0482975543598805
30
0.000000000000000
11
-48.5698504027618
21
-0.135241782973103
31
0.000000000000000
  0
LINE
  5
F1082E
330
F1082F
100
AcDbEntity
8
Geo
100
AcDbLine
10
-48.5698504027618
20
-0.135241782973103
30
0.000000000000000
11
-48.4698504027618
21
-0.221713342900463
31
0.000000000000000
  0
LINE
  5
F10830
330
F10831
100
AcDbEntity
8
Geo
100
AcDbLine
10
-48.4698504027618
20
-0.221713342900463
30
0.000000000000000
11
-48.3698504027618
21
-0.307703587058027
31
0.000000000000000
  0
LINE
  5
F10832
330
F10833
100
AcDbEntity
8
Geo
100
AcDbLine
10
-48.3698504027618
20
-0.307703587058027
30
0.000000000000000
11
-48.2698504027618
21
-0.393203916493036
31
0.000000000000000
  0
LINE
  5
F10834
330
F10835
100
AcDbEntity
8
Geo
100
AcDbLine
10
-48.2698504027618
20
-0.393203916493036
30
0.000000000000000
11
-48.1698504027618
21
-0.478205781243801
31
0.000000000000000
  0
LINE
  5
F10836
330
F10837
100
AcDbEntity
8
Geo
100
AcDbLine
10
-48.1698504027618
20
-0.478205781243801
30
0.000000000000000
11
-48.0698504027618
21
-0.562700681194679
31
0.000000000000000
  0
LINE
  5
F10838
330
F10839
100
AcDbEntity
8
Geo
100
AcDbLine
10
-48.0698504027618
20
-0.562700681194679
30
0.000000000000000
11
-47.9698504027618
21
-0.646680166926089
31
0.000000000000000
  0
LINE
  5
F1083A
330
F1083B
100
AcDbEntity
8
Geo
100
AcDbLine
10
-47.9698504027618
20
-0.646680166926089
30
0.000000000000000
11
-47.8698504027618
21
-0.730135840559436
31
0.000000000000000
  0
LINE
  5
F1083C
330
F1083D
100
AcDbEntity
8
Geo
100
AcDbLine
10
-47.8698504027618
20
-0.730135840559436
30
0.000000000000000
11
-47.7698504027618
21
-0.813059356596908
31
0.000000000000000
  0
LINE
  5
F1083E
330
F1083F
100
AcDbEntity
8
Geo
100
AcDbLine
10
-47.7698504027618
20
-0.813059356596908
30
0.000000000000000
11
-47.6698504027618
21
-0.895442422755999
31
0.000000000000000
  0
LINE
  5
F10840
330
F10841
100
AcDbEntity
8
Geo
100
AcDbLine
10
-47.6698504027618
20
-0.895442422755999
30
0.000000000000000
11
-47.5698504027618
21
-0.977276800798750
31
0.000000000000000
  0
LINE
  5
F10842
330
F10843
100
AcDbEntity
8
Geo
100
AcDbLine
10
-47.5698504027618
20
-0.977276800798750
30
0.000000000000000
11
-47.4698504027618
21
-1.05855430735555
31
0.000000000000000
  0
LINE
  5
F10844
330
F10845
100
AcDbEntity
8
Geo
100
AcDbLine
10
-47.4698504027618
20
-1.05855430735555
30
0.000000000000000
11
-47.3698504027618
21
-1.13926681474347
31
0.000000000000000
  0
LINE
  5
F10846
330
F10847
100
AcDbEntity
8
Geo
100
AcDbLine
10
-47.3698504027618
20
-1.13926681474347
30
0.000000000000000
11
-47.2698504027618
21
-1.21940625177904
31
0.000000000000000
  0
LINE
  5
F10848
330
F10849
100
AcDbEntity
8
Geo
100
AcDbLine
10
-47.2698504027618
20
-1.21940625177904
30
0.000000000000000
11
-47.1698504027618
21
-1.29896460458534
31
0.000000000000000
  0
LINE
  5
F1084A
330
F1084B
100
AcDbEntity
8
Geo
100
AcDbLine
10
-47.1698504027618
20
-1.29896460458534
30
0.000000000000000
11
-47.0698504027618
21
-1.37793391739337
31
0.000000000000000
  0
LINE
  5
F1084C
330
F1084D
100
AcDbEntity
8
Geo
100
AcDbLine
10
-47.0698504027618
20
-1.37793391739337
30
0.000000000000000
11
-46.9698504027618
21
-1.45630629333768
31
0.000000000000000
  0
LINE
  5
F1084E
330
F1084F
100
AcDbEntity
8
Geo
100
AcDbLine
10
-46.9698504027618
20
-1.45630629333768
30
0.000000000000000
11
-46.8698504027618
21
-1.53407389524597
31
0.000000000000000
  0
LINE
  5
F10850
330
F10851
100
AcDbEntity
8
Geo
100
AcDbLine
10
-46.8698504027618
20
-1.53407389524597
30
0.000000000000000
11
-46.7698504027618
21
-1.61122894642286
31
0.000000000000000
  0
LINE
  5
F10852
330
F10853
100
AcDbEntity
8
Geo
100
AcDbLine
10
-46.7698504027618
20
-1.61122894642286
30
0.000000000000000
11
-46.6698504027618
21
-1.68776373142753
31
0.000000000000000
  0
LINE
  5
F10854
330
F10855
100
AcDbEntity
8
Geo
100
AcDbLine
10
-46.6698504027618
20
-1.68776373142753
30
0.000000000000000
11
-46.5698504027618
21
-1.76367059684525
31
0.000000000000000
  0
LINE
  5
F10856
330
F10857
100
AcDbEntity
8
Geo
100
AcDbLine
10
-46.5698504027618
20
-1.76367059684525
30
0.000000000000000
11
-46.4698504027618
21
-1.83894195205274
31
0.000000000000000
  0
LINE
  5
F10858
330
F10859
100
AcDbEntity
8
Geo
100
AcDbLine
10
-46.4698504027618
20
-1.83894195205274
30
0.000000000000000
11
-46.3698504027618
21
-1.91357026997722
31
0.000000000000000
  0
LINE
  5
F1085A
330
F1085B
100
AcDbEntity
8
Geo
100
AcDbLine
10
-46.3698504027618
20
-1.91357026997722
30
0.000000000000000
11
-46.2698504027618
21
-1.98754808784906
31
0.000000000000000
  0
LINE
  5
F1085C
330
F1085D
100
AcDbEntity
8
Geo
100
AcDbLine
10
-46.2698504027618
20
-1.98754808784906
30
0.000000000000000
11
-46.1698504027618
21
-2.06086800794813
31
0.000000000000000
  0
LINE
  5
F1085E
330
F1085F
100
AcDbEntity
8
Geo
100
AcDbLine
10
-46.1698504027618
20
-2.06086800794813
30
0.000000000000000
11
-46.0698504027618
21
-2.13352269834353
31
0.000000000000000
  0
LINE
  5
F10860
330
F10861
100
AcDbEntity
8
Geo
100
AcDbLine
10
-46.0698504027618
20
-2.13352269834353
30
0.000000000000000
11
-45.9698504027618
21
-2.20550489362676
31
0.000000000000000
  0
LINE
  5
F10862
330
F10863
100
AcDbEntity
8
Geo
100
AcDbLine
10
-45.9698504027618
20
-2.20550489362676
30
0.000000000000000
11
-45.8698504027618
21
-2.27680739563828
31
0.000000000000000
  0
LINE
  5
F10864
330
F10865
100
AcDbEntity
8
Geo
100
AcDbLine
10
-45.8698504027618
20
-2.27680739563828
30
0.000000000000000
11
-45.7698504027618
21
-2.34742307418730
31
0.000000000000000
  0
LINE
  5
F10866
330
F10867
100
AcDbEntity
8
Geo
100
AcDbLine
10
-45.7698504027618
20
-2.34742307418730
30
0.000000000000000
11
-45.6698504027618
21
-2.41734486776481
31
0.000000000000000
  0
LINE
  5
F10868
330
F10869
100
AcDbEntity
8
Geo
100
AcDbLine
10
-45.6698504027618
20
-2.41734486776481
30
0.000000000000000
11
-45.5698504027618
21
-2.48656578424973
31
0.000000000000000
  0
LINE
  5
F1086A
330
F1086B
100
AcDbEntity
8
Geo
100
AcDbLine
10
-45.5698504027618
20
-2.48656578424973
30
0.000000000000000
11
-45.4698504027618
21
-2.55507890160809
31
0.000000000000000
  0
LINE
  5
F1086C
330
F1086D
100
AcDbEntity
8
Geo
100
AcDbLine
10
-45.4698504027618
20
-2.55507890160809
30
0.000000000000000
11
-45.3698504027618
21
-2.62287736858525
31
0.000000000000000
  0
LINE
  5
F1086E
330
F1086F
100
AcDbEntity
8
Geo
100
AcDbLine
10
-45.3698504027618
20
-2.62287736858525
30
0.000000000000000
11
-45.2698504027618
21
-2.68995440539100
31
0.000000000000000
  0
LINE
  5
F10870
330
F10871
100
AcDbEntity
8
Geo
100
AcDbLine
10
-45.2698504027618
20
-2.68995440539100
30
0.000000000000000
11
-45.1698504027618
21
-2.75630330437757
31
0.000000000000000
  0
LINE
  5
F10872
330
F10873
100
AcDbEntity
8
Geo
100
AcDbLine
10
-45.1698504027618
20
-2.75630330437757
30
0.000000000000000
11
-45.0698504027618
21
-2.82191743071036
31
0.000000000000000
  0
LINE
  5
F10874
330
F10875
100
AcDbEntity
8
Geo
100
AcDbLine
10
-45.0698504027618
20
-2.82191743071036
30
0.000000000000000
11
-44.9698504027618
21
-2.88679022303139
31
0.000000000000000
  0
LINE
  5
F10876
330
F10877
100
AcDbEntity
8
Geo
100
AcDbLine
10
-44.9698504027618
20
-2.88679022303139
30
0.000000000000000
11
-44.8698504027618
21
-2.95091519411551
31
0.000000000000000
  0
LINE
  5
F10878
330
F10879
100
AcDbEntity
8
Geo
100
AcDbLine
10
-44.8698504027618
20
-2.95091519411551
30
0.000000000000000
11
-44.7698504027618
21
-3.01428593151903
31
0.000000000000000
  0
LINE
  5
F1087A
330
F1087B
100
AcDbEntity
8
Geo
100
AcDbLine
10
-44.7698504027618
20
-3.01428593151903
30
0.000000000000000
11
-44.6698504027618
21
-3.07689609822104
31
0.000000000000000
  0
LINE
  5
F1087C
330
F1087D
100
AcDbEntity
8
Geo
100
AcDbLine
10
-44.6698504027618
20
-3.07689609822104
30
0.000000000000000
11
-44.5698504027618
21
-3.13873943325703
31
0.000000000000000
  0
LINE
  5
F1087E
330
F1087F
100
AcDbEntity
8
Geo
100
AcDbLine
10
-44.5698504027618
20
-3.13873943325703
30
0.000000000000000
11
-44.4698504027618
21
-3.19980975234503
31
0.000000000000000
  0
LINE
  5
F10880
330
F10881
100
AcDbEntity
8
Geo
100
AcDbLine
10
-44.4698504027618
20
-3.19980975234503
30
0.000000000000000
11
-44.3698504027617
21
-3.26010094850403
31
0.000000000000000
  0
LINE
  5
F10882
330
F10883
100
AcDbEntity
8
Geo
100
AcDbLine
10
-44.3698504027617
20
-3.26010094850403
30
0.000000000000000
11
-44.2698504027617
21
-3.31960699266466
31
0.000000000000000
  0
LINE
  5
F10884
330
F10885
100
AcDbEntity
8
Geo
100
AcDbLine
10
-44.2698504027617
20
-3.31960699266466
30
0.000000000000000
11
-44.1698504027617
21
-3.37832193427208
31
0.000000000000000
  0
LINE
  5
F10886
330
F10887
100
AcDbEntity
8
Geo
100
AcDbLine
10
-44.1698504027617
20
-3.37832193427208
30
0.000000000000000
11
-44.0698504027617
21
-3.43623990188108
31
0.000000000000000
  0
LINE
  5
F10888
330
F10889
100
AcDbEntity
8
Geo
100
AcDbLine
10
-44.0698504027617
20
-3.43623990188108
30
0.000000000000000
11
-43.9698504027617
21
-3.49335510374314
31
0.000000000000000
  0
LINE
  5
F1088A
330
F1088B
100
AcDbEntity
8
Geo
100
AcDbLine
10
-43.9698504027617
20
-3.49335510374314
30
0.000000000000000
11
-43.8698504027617
21
-3.54966182838568
31
0.000000000000000
  0
LINE
  5
F1088C
330
F1088D
100
AcDbEntity
8
Geo
100
AcDbLine
10
-43.8698504027617
20
-3.54966182838568
30
0.000000000000000
11
-43.7698504027617
21
-3.60515444518315
31
0.000000000000000
  0
LINE
  5
F1088E
330
F1088F
100
AcDbEntity
8
Geo
100
AcDbLine
10
-43.7698504027617
20
-3.60515444518315
30
0.000000000000000
11
-43.6698504027617
21
-3.65982740492013
31
0.000000000000000
  0
LINE
  5
F10890
330
F10891
100
AcDbEntity
8
Geo
100
AcDbLine
10
-43.6698504027617
20
-3.65982740492013
30
0.000000000000000
11
-43.5698504027617
21
-3.71367524034620
31
0.000000000000000
  0
LINE
  5
F10892
330
F10893
100
AcDbEntity
8
Geo
100
AcDbLine
10
-43.5698504027617
20
-3.71367524034620
30
0.000000000000000
11
-43.4698504027617
21
-3.76669256672268
31
0.000000000000000
  0
LINE
  5
F10894
330
F10895
100
AcDbEntity
8
Geo
100
AcDbLine
10
-43.4698504027617
20
-3.76669256672268
30
0.000000000000000
11
-43.3698504027617
21
-3.81887408236113
31
0.000000000000000
  0
LINE
  5
F10896
330
F10897
100
AcDbEntity
8
Geo
100
AcDbLine
10
-43.3698504027617
20
-3.81887408236113
30
0.000000000000000
11
-43.2698504027617
21
-3.87021456915346
31
0.000000000000000
  0
LINE
  5
F10898
330
F10899
100
AcDbEntity
8
Geo
100
AcDbLine
10
-43.2698504027617
20
-3.87021456915346
30
0.000000000000000
11
-43.1698504027617
21
-3.92070889309377
31
0.000000000000000
  0
LINE
  5
F1089A
330
F1089B
100
AcDbEntity
8
Geo
100
AcDbLine
10
-43.1698504027617
20
-3.92070889309377
30
0.000000000000000
11
-43.0698504027617
21
-3.97035200479176
31
0.000000000000000
  0
LINE
  5
F1089C
330
F1089D
100
AcDbEntity
8
Geo
100
AcDbLine
10
-43.0698504027617
20
-3.97035200479176
30
0.000000000000000
11
-42.9698504027617
21
-4.01913893997762
31
0.000000000000000
  0
LINE
  5
F1089E
330
F1089F
100
AcDbEntity
8
Geo
100
AcDbLine
10
-42.9698504027617
20
-4.01913893997762
30
0.000000000000000
11
-42.8698504027617
21
-4.06706481999848
31
0.000000000000000
  0
LINE
  5
F108A0
330
F108A1
100
AcDbEntity
8
Geo
100
AcDbLine
10
-42.8698504027617
20
-4.06706481999848
30
0.000000000000000
11
-42.7698504027617
21
-4.11412485230629
31
0.000000000000000
  0
LINE
  5
F108A2
330
F108A3
100
AcDbEntity
8
Geo
100
AcDbLine
10
-42.7698504027617
20
-4.11412485230629
30
0.000000000000000
11
-42.6698504027617
21
-4.16031433093703
31
0.000000000000000
  0
LINE
  5
F108A4
330
F108A5
100
AcDbEntity
8
Geo
100
AcDbLine
10
-42.6698504027617
20
-4.16031433093703
30
0.000000000000000
11
-42.5698504027617
21
-4.20562863698133
31
0.000000000000000
  0
LINE
  5
F108A6
330
F108A7
100
AcDbEntity
8
Geo
100
AcDbLine
10
-42.5698504027617
20
-4.20562863698133
30
0.000000000000000
11
-42.4698504027617
21
-4.25006323904634
31
0.000000000000000
  0
LINE
  5
F108A8
330
F108A9
100
AcDbEntity
8
Geo
100
AcDbLine
10
-42.4698504027617
20
-4.25006323904634
30
0.000000000000000
11
-42.3698504027617
21
-4.29361369370888
31
0.000000000000000
  0
LINE
  5
F108AA
330
F108AB
100
AcDbEntity
8
Geo
100
AcDbLine
10
-42.3698504027617
20
-4.29361369370888
30
0.000000000000000
11
-42.2698504027617
21
-4.33627564595979
31
0.000000000000000
  0
LINE
  5
F108AC
330
F108AD
100
AcDbEntity
8
Geo
100
AcDbLine
10
-42.2698504027617
20
-4.33627564595979
30
0.000000000000000
11
-42.1698504027617
21
-4.37804482963939
31
0.000000000000000
  0
LINE
  5
F108AE
330
F108AF
100
AcDbEntity
8
Geo
100
AcDbLine
10
-42.1698504027617
20
-4.37804482963939
30
0.000000000000000
11
-42.0698504027617
21
-4.41891706786411
31
0.000000000000000
  0
LINE
  5
F108B0
330
F108B1
100
AcDbEntity
8
Geo
100
AcDbLine
10
-42.0698504027617
20
-4.41891706786411
30
0.000000000000000
11
-41.9698504027617
21
-4.45888827344421
31
0.000000000000000
  0
LINE
  5
F108B2
330
F108B3
100
AcDbEntity
8
Geo
100
AcDbLine
10
-41.9698504027617
20
-4.45888827344421
30
0.000000000000000
11
-41.8698504027617
21
-4.49795444929242
31
0.000000000000000
  0
LINE
  5
F108B4
330
F108B5
100
AcDbEntity
8
Geo
100
AcDbLine
10
-41.8698504027617
20
-4.49795444929242
30
0.000000000000000
11
-41.7698504027617
21
-4.53611168882372
31
0.000000000000000
  0
LINE
  5
F108B6
330
F108B7
100
AcDbEntity
8
Geo
100
AcDbLine
10
-41.7698504027617
20
-4.53611168882372
30
0.000000000000000
11
-41.6698504027617
21
-4.57335617634595
31
0.000000000000000
  0
LINE
  5
F108B8
330
F108B9
100
AcDbEntity
8
Geo
100
AcDbLine
10
-41.6698504027617
20
-4.57335617634595
30
0.000000000000000
11
-41.5698504027617
21
-4.60968418744140
31
0.000000000000000
  0
LINE
  5
F108BA
330
F108BB
100
AcDbEntity
8
Geo
100
AcDbLine
10
-41.5698504027617
20
-4.60968418744140
30
0.000000000000000
11
-41.4698504027617
21
-4.64509208933923
31
0.000000000000000
  0
LINE
  5
F108BC
330
F108BD
100
AcDbEntity
8
Geo
100
AcDbLine
10
-41.4698504027617
20
-4.64509208933923
30
0.000000000000000
11
-41.3698504027617
21
-4.67957634127875
31
0.000000000000000
  0
LINE
  5
F108BE
330
F108BF
100
AcDbEntity
8
Geo
100
AcDbLine
10
-41.3698504027617
20
-4.67957634127875
30
0.000000000000000
11
-41.2698504027617
21
-4.71313349486352
31
0.000000000000000
  0
LINE
  5
F108C0
330
F108C1
100
AcDbEntity
8
Geo
100
AcDbLine
10
-41.2698504027617
20
-4.71313349486352
30
0.000000000000000
11
-41.1698504027617
21
-4.74576019440613
31
0.000000000000000
  0
LINE
  5
F108C2
330
F108C3
100
AcDbEntity
8
Geo
100
AcDbLine
10
-41.1698504027617
20
-4.74576019440613
30
0.000000000000000
11
-41.0698504027617
21
-4.77745317726382
31
0.000000000000000
  0
LINE
  5
F108C4
330
F108C5
100
AcDbEntity
8
Geo
100
AcDbLine
10
-41.0698504027617
20
-4.77745317726382
30
0.000000000000000
11
-40.9698504027617
21
-4.80820927416472
31
0.000000000000000
  0
LINE
  5
F108C6
330
F108C7
100
AcDbEntity
8
Geo
100
AcDbLine
10
-40.9698504027617
20
-4.80820927416472
30
0.000000000000000
11
-40.8698504027617
21
-4.83802540952477
31
0.000000000000000
  0
LINE
  5
F108C8
330
F108C9
100
AcDbEntity
8
Geo
100
AcDbLine
10
-40.8698504027617
20
-4.83802540952477
30
0.000000000000000
11
-40.7698504027617
21
-4.86689860175526
31
0.000000000000000
  0
LINE
  5
F108CA
330
F108CB
100
AcDbEntity
8
Geo
100
AcDbLine
10
-40.7698504027617
20
-4.86689860175526
30
0.000000000000000
11
-40.6698504027617
21
-4.89482596356105
31
0.000000000000000
  0
LINE
  5
F108CC
330
F108CD
100
AcDbEntity
8
Geo
100
AcDbLine
10
-40.6698504027617
20
-4.89482596356105
30
0.000000000000000
11
-40.5698504027617
21
-4.92180470222923
31
0.000000000000000
  0
LINE
  5
F108CE
330
F108CF
100
AcDbEntity
8
Geo
100
AcDbLine
10
-40.5698504027617
20
-4.92180470222923
30
0.000000000000000
11
-40.4698504027617
21
-4.94783211990841
31
0.000000000000000
  0
LINE
  5
F108D0
330
F108D1
100
AcDbEntity
8
Geo
100
AcDbLine
10
-40.4698504027617
20
-4.94783211990841
30
0.000000000000000
11
-40.3698504027617
21
-4.97290561387852
31
0.000000000000000
  0
LINE
  5
F108D2
330
F108D3
100
AcDbEntity
8
Geo
100
AcDbLine
10
-40.3698504027617
20
-4.97290561387852
30
0.000000000000000
11
-40.2698504027617
21
-4.99702267681104
31
0.000000000000000
  0
LINE
  5
F108D4
330
F108D5
100
AcDbEntity
8
Geo
100
AcDbLine
10
-40.2698504027617
20
-4.99702267681104
30
0.000000000000000
11
-40.1698504027617
21
-5.02018089701978
31
0.000000000000000
  0
LINE
  5
F108D6
330
F108D7
100
AcDbEntity
8
Geo
100
AcDbLine
10
-40.1698504027617
20
-5.02018089701978
30
0.000000000000000
11
-40.0698504027617
21
-5.04237795870204
31
0.000000000000000
  0
LINE
  5
F108D8
330
F108D9
100
AcDbEntity
8
Geo
100
AcDbLine
10
-40.0698504027617
20
-5.04237795870204
30
0.000000000000000
11
-39.9698504027617
21
-5.06361164217012
31
0.000000000000000
  0
LINE
  5
F108DA
330
F108DB
100
AcDbEntity
8
Geo
100
AcDbLine
10
-39.9698504027617
20
-5.06361164217012
30
0.000000000000000
11
-39.8698504027617
21
-5.08387982407338
31
0.000000000000000
  0
LINE
  5
F108DC
330
F108DD
100
AcDbEntity
8
Geo
100
AcDbLine
10
-39.8698504027617
20
-5.08387982407338
30
0.000000000000000
11
-39.7698504027617
21
-5.10318047761051
31
0.000000000000000
  0
LINE
  5
F108DE
330
F108DF
100
AcDbEntity
8
Geo
100
AcDbLine
10
-39.7698504027617
20
-5.10318047761051
30
0.000000000000000
11
-39.6698504027617
21
-5.12151167273227
31
0.000000000000000
  0
LINE
  5
F108E0
330
F108E1
100
AcDbEntity
8
Geo
100
AcDbLine
10
-39.6698504027617
20
-5.12151167273227
30
0.000000000000000
11
-39.5698504027617
21
-5.13887157633439
31
0.000000000000000
  0
LINE
  5
F108E2
330
F108E3
100
AcDbEntity
8
Geo
100
AcDbLine
10
-39.5698504027617
20
-5.13887157633439
30
0.000000000000000
11
-39.4698504027617
21
-5.15525845244099
31
0.000000000000000
  0
LINE
  5
F108E4
330
F108E5
100
AcDbEntity
8
Geo
100
AcDbLine
10
-39.4698504027617
20
-5.15525845244099
30
0.000000000000000
11
-39.3698504027617
21
-5.17067066237811
31
0.000000000000000
  0
LINE
  5
F108E6
330
F108E7
100
AcDbEntity
8
Geo
100
AcDbLine
10
-39.3698504027617
20
-5.17067066237811
30
0.000000000000000
11
-39.2698504027617
21
-5.18510666493762
31
0.000000000000000
  0
LINE
  5
F108E8
330
F108E9
100
AcDbEntity
8
Geo
100
AcDbLine
10
-39.2698504027617
20
-5.18510666493762
30
0.000000000000000
11
-39.1698504027617
21
-5.19856501653126
31
0.000000000000000
  0
LINE
  5
F108EA
330
F108EB
100
AcDbEntity
8
Geo
100
AcDbLine
10
-39.1698504027617
20
-5.19856501653126
30
0.000000000000000
11
-39.0698504027617
21
-5.21104437133511
31
0.000000000000000
  0
LINE
  5
F108EC
330
F108ED
100
AcDbEntity
8
Geo
100
AcDbLine
10
-39.0698504027617
20
-5.21104437133511
30
0.000000000000000
11
-38.9698504027617
21
-5.22254348142409
31
0.000000000000000
  0
LINE
  5
F108EE
330
F108EF
100
AcDbEntity
8
Geo
100
AcDbLine
10
-38.9698504027617
20
-5.22254348142409
30
0.000000000000000
11
-38.8698504027617
21
-5.23306119689676
31
0.000000000000000
  0
LINE
  5
F108F0
330
F108F1
100
AcDbEntity
8
Geo
100
AcDbLine
10
-38.8698504027617
20
-5.23306119689676
30
0.000000000000000
11
-38.7698504027617
21
-5.24259646599034
31
0.000000000000000
  0
LINE
  5
F108F2
330
F108F3
100
AcDbEntity
8
Geo
100
AcDbLine
10
-38.7698504027617
20
-5.24259646599034
30
0.000000000000000
11
-38.6698504027617
21
-5.25114833518588
31
0.000000000000000
  0
LINE
  5
F108F4
330
F108F5
100
AcDbEntity
8
Geo
100
AcDbLine
10
-38.6698504027617
20
-5.25114833518588
30
0.000000000000000
11
-38.5698504027617
21
-5.25871594930357
31
0.000000000000000
  0
LINE
  5
F108F6
330
F108F7
100
AcDbEntity
8
Geo
100
AcDbLine
10
-38.5698504027617
20
-5.25871594930357
30
0.000000000000000
11
-38.4698504027617
21
-5.26529855158832
31
0.000000000000000
  0
LINE
  5
F108F8
330
F108F9
100
AcDbEntity
8
Geo
100
AcDbLine
10
-38.4698504027617
20
-5.26529855158832
30
0.000000000000000
11
-38.3698504027617
21
-5.27089548378538
31
0.000000000000000
  0
LINE
  5
F108FA
330
F108FB
100
AcDbEntity
8
Geo
100
AcDbLine
10
-38.3698504027617
20
-5.27089548378538
30
0.000000000000000
11
-38.2698504027617
21
-5.27550618620619
31
0.000000000000000
  0
LINE
  5
F108FC
330
F108FD
100
AcDbEntity
8
Geo
100
AcDbLine
10
-38.2698504027617
20
-5.27550618620619
30
0.000000000000000
11
-38.1698504027617
21
-5.27913019778435
31
0.000000000000000
  0
LINE
  5
F108FE
330
F108FF
100
AcDbEntity
8
Geo
100
AcDbLine
10
-38.1698504027617
20
-5.27913019778435
30
0.000000000000000
11
-38.0698504027617
21
-5.28176715612173
31
0.000000000000000
  0
LINE
  5
F10900
330
F10901
100
AcDbEntity
8
Geo
100
AcDbLine
10
-38.0698504027617
20
-5.28176715612173
30
0.000000000000000
11
-37.9698504027617
21
-5.28341679752469
31
0.000000000000000
  0
LINE
  5
F10902
330
F10903
100
AcDbEntity
8
Geo
100
AcDbLine
10
-37.9698504027617
20
-5.28341679752469
30
0.000000000000000
11
-37.8698504027617
21
-5.28407895703046
31
0.000000000000000
  0
LINE
  5
F10904
330
F10905
100
AcDbEntity
8
Geo
100
AcDbLine
10
-37.8698504027617
20
-5.28407895703046
30
0.000000000000000
11
-37.8527992615123
21
-5.40851553509782
31
0.000000000000000
  0
LINE
  5
F10906
330
F10907
100
AcDbEntity
8
Geo
100
AcDbLine
10
81.7301495972382
20
13.0914844649022
30
0.000000000000000
11
81.7301495972382
21
4.59148446490218
31
0.000000000000000
  0
ARC
  5
F10908
330
F10909
100
AcDbEntity
8
Geo
100
AcDbCircle
10
-58.2698504027618
20
4.59148446490218
30
0.000000000000000
 40
10.0000000000000
100
AcDbArc
 50
180.000000000000
 51
270.000000000000
  0
LINE
  5
F1090A
330
F1090B
100
AcDbEntity
8
Geo
100
AcDbLine
10
-58.2698504027618
20
-5.40851553509782
30
0.000000000000000
11
-28.2698504027618
21
-5.40851553509782
31
0.000000000000000
  0
LINE
  5
F1090C
330
F1090D
100
AcDbEntity
8
Geo
100
AcDbLine
10
-28.2698504027618
20
-5.40851553509782
30
0.000000000000000
11
80.2301495972382
21
-5.40851553509782
31
0.000000000000000
  0
LINE
  5
F1090E
330
F1090F
100
AcDbEntity
8
Geo
100
AcDbLine
10
80.2301495972382
20
-5.40851553509782
30
0.000000000000000
11
81.7301495972382
21
-3.90851553509782
31
0.000000000000000
  0
LINE
  5
F10910
330
F10911
100
AcDbEntity
8
Geo
100
AcDbLine
10
-58.2698504027618
20
14.5914844649022
30
0.000000000000000
11
-58.2698504027618
21
-5.40851553509782
31
0.000000000000000
  0
LINE
  5
F10912
330
F10913
100
AcDbEntity
8
Geo
100
AcDbLine
10
-28.2698504027618
20
14.5914844649022
30
0.000000000000000
11
-28.2698504027618
21
-5.40851553509782
31
0.000000000000000
  0
LINE
  5
F10914
330
F10915
100
AcDbEntity
8
Geo
100
AcDbLine
10
-28.2698504027618
20
14.5914844649022
30
0.000000000000000
11
-28.2698504027618
21
-5.40851553509782
31
0.000000000000000
  0
LINE
  5
F10916
330
F10917
100
AcDbEntity
8
Geo
100
AcDbLine
10
80.2301495972382
20
14.5914844649022
30
0.000000000000000
11
80.2301495972382
21
-5.40851553509782
31
0.000000000000000
  0
LINE
  5
F10918
330
F10919
100
AcDbEntity
8
Geo
100
AcDbLine
10
81.7301495972382
20
13.0914844649022
30
0.000000000000000
11
81.7301495972382
21
-3.90851553509782
31
0.000000000000000
  0
LINE
  5
F1091A
330
F1091B
100
AcDbEntity
8
Geo
 6
Dashdot
100
AcDbLine
10
-68.2698504027618
20
4.59148446490218
30
0.000000000000000
11
81.7301495972382
21
4.59148446490218
31
0.000000000000000
  0
LWPOLYLINE
  5
F1091C
330
F1091D
100
AcDbEntity
8
Rahmen
100
AcDbPolyline
90
   4
70
   1
43
   0.0
 10
-134.602991944764
 20
99.9252013808976
 10
143.302646720368
 20
99.9252013808976
 10
143.302646720368
 20
-100.166858457998
 10
-134.602991944764
 20
-100.166858457998
  0
TEXT
  5
F1091E
330
F1091F
 100
AcDbEntity
8
Text
100
AcDbText
10
-133.636363636364
20
-99.6668584579977
30
0.000000000000000
40
1.00000000000000
1
ISBESketcher - ©ISBE GmbH      lizensiert für: Schmid Werkzeuge
100
AcDbText
  0
LWPOLYLINE
  5
F10920
330
F10921
100
AcDbEntity
8
Rahmen
100
AcDbPolyline
90
   4
70
   1
43
   0.0
 10
103.429228998849
 20
-97.0253164556962
 10
143.302646720368
 20
-97.0253164556962
 10
143.302646720368
 20
-100.166858457998
 10
103.429228998849
 20
-100.166858457998
  0
TEXT
  5
F10922
330
F10923
 100
AcDbEntity
8
Text
100
AcDbText
10
104.500000000000
20
-99.4499424626007
30
0.000000000000000
40
1.50000000000000
1
Ers. durch:
100
AcDbText
  0
TEXT
  5
F10924
330
F10925
 100
AcDbEntity
8
Text
100
AcDbText
10
0.000000000000000
20
0.500000000000000
30
0.000000000000000
40
1.50000000000000
1

100
AcDbText
  0
LWPOLYLINE
  5
F10926
330
F10927
100
AcDbEntity
8
Rahmen
100
AcDbPolyline
90
   4
70
   1
43
   0.0
 10
63.3141542002302
 20
-97.0253164556962
 10
103.429228998849
 20
-97.0253164556962
 10
103.429228998849
 20
-100.166858457998
 10
63.3141542002302
 20
-100.166858457998
  0
TEXT
  5
F10928
330
F10929
 100
AcDbEntity
8
Text
100
AcDbText
10
64.5000000000000
20
-99.4499424626007
30
0.000000000000000
40
1.50000000000000
1
Ers. für:
100
AcDbText
  0
TEXT
  5
F1092A
330
F1092B
 100
AcDbEntity
8
Text
100
AcDbText
10
0.000000000000000
20
0.500000000000000
30
0.000000000000000
40
1.50000000000000
1

100
AcDbText
  0
LWPOLYLINE
  5
F1092C
330
F1092D
100
AcDbEntity
8
Rahmen
100
AcDbPolyline
90
   4
70
   1
43
   0.0
 10
130.011507479862
 20
-94.1254315304948
 10
143.302646720368
 20
-94.1254315304948
 10
143.302646720368
 20
-97.0253164556962
 10
130.011507479862
 20
-97.0253164556962
  0
TEXT
  5
F1092E
330
F1092F
 100
AcDbEntity
8
Text
100
AcDbText
10
131.166666666667
20
-96.4499424626007
30
0.000000000000000
40
1.50000000000000
1
Blätter
100
AcDbText
  0
TEXT
  5
F10930
330
F10931
 100
AcDbEntity
8
Text
100
AcDbText
10
0.000000000000000
20
0.500000000000000
30
0.000000000000000
40
1.50000000000000
1

100
AcDbText
  0
LWPOLYLINE
  5
F10932
330
F10933
100
AcDbEntity
8
Rahmen
100
AcDbPolyline
90
   4
70
   1
43
   0.0
 10
130.011507479862
 20
-91.2255466052934
 10
143.302646720368
 20
-91.2255466052934
 10
143.302646720368
 20
-94.1254315304948
 10
130.011507479862
 20
-94.1254315304948
  0
TEXT
  5
F10934
330
F10935
 100
AcDbEntity
8
Text
100
AcDbText
10
131.166666666667
20
-93.4499424626007
30
0.000000000000000
40
1.50000000000000
1
Blatt
100
AcDbText
  0
TEXT
  5
F10936
330
F10937
 100
AcDbEntity
8
Text
100
AcDbText
10
0.000000000000000
20
0.500000000000000
30
0.000000000000000
40
1.50000000000000
1

100
AcDbText
  0
LWPOLYLINE
  5
F10938
330
F10939
100
AcDbEntity
8
Rahmen
100
AcDbPolyline
90
   4
70
   1
43
   0.0
 10
63.3141542002302
 20
-91.2255466052934
 10
130.011507479862
 20
-91.2255466052934
 10
130.011507479862
 20
-97.0253164556962
 10
63.3141542002302
 20
-97.0253164556962
  0
TEXT
  5
F1093A
330
F1093B
 100
AcDbEntity
8
Text
100
AcDbText
10
64.5000000000000
20
-93.4499424626007
30
0.000000000000000
40
1.50000000000000
1
Datum:
100
AcDbText
  0
TEXT
  5
F1093C
330
F1093D
 100
AcDbEntity
8
Text
100
AcDbText
10
91.1543920214806
20
-96.4499424626007
30
0.000000000000000
40
1.50000000000000
1
16.05.2019
100
AcDbText
  0
LWPOLYLINE
  5
F1093E
330
F1093F
100
AcDbEntity
8
Rahmen
100
AcDbPolyline
90
   4
70
   1
43
   0.0
 10
63.3141542002302
 20
-85.1841196777906
 10
143.302646720368
 20
-85.1841196777906
 10
143.302646720368
 20
-91.2255466052934
 10
63.3141542002302
 20
-91.2255466052934
  0
TEXT
  5
F10940
330
F10941
 100
AcDbEntity
8
Text
100
AcDbText
10
0.000000000000000
20
0.500000000000000
30
0.000000000000000
40
1.50000000000000
1

100
AcDbText
  0
TEXT
  5
F10942
330
F10943
 100
AcDbEntity
8
Text
100
AcDbText
10
73.5345224395857
20
-89.7040659762179
30
0.000000000000000
40
2.50000000000000
1
VHM-Radiusfräser R0124-20-b
100
AcDbText
  0
LWPOLYLINE
  5
F10944
330
F10945
100
AcDbEntity
8
Rahmen
100
AcDbPolyline
90
   4
70
   1
43
   0.0
 10
103.429228998849
 20
-79.1426927502877
 10
143.302646720368
 20
-79.1426927502877
 10
143.302646720368
 20
-85.1841196777906
 10
103.429228998849
 20
-85.1841196777906
  0
TEXT
  5
F10946
330
F10947
 100
AcDbEntity
8
Text
100
AcDbText
10
104.500000000000
20
-81.4499424626007
30
0.000000000000000
40
1.50000000000000
1
Zu bearb. Material:
100
AcDbText
  0
TEXT
  5
F10948
330
F10949
 100
AcDbEntity
8
Text
100
AcDbText
10
0.000000000000000
20
0.500000000000000
30
0.000000000000000
40
1.50000000000000
1

100
AcDbText
  0
LWPOLYLINE
  5
F1094A
330
F1094B
100
AcDbEntity
8
Rahmen
100
AcDbPolyline
90
   4
70
   1
43
   0.0
 10
63.3141542002302
 20
-79.1426927502877
 10
103.429228998849
 20
-79.1426927502877
 10
103.429228998849
 20
-85.1841196777906
 10
63.3141542002302
 20
-85.1841196777906
  0
TEXT
  5
F1094C
330
F1094D
 100
AcDbEntity
8
Text
100
AcDbText
10
64.5000000000000
20
-81.4499424626007
30
0.000000000000000
40
1.50000000000000
1
Werkstoff:
100
AcDbText
  0
TEXT
  5
F1094E
330
F1094F
 100
AcDbEntity
8
Text
100
AcDbText
10
80.9626006904488
20
-84.4499424626007
30
0.000000000000000
40
1.50000000000000
1
VHM
100
AcDbText
  0
LWPOLYLINE
  5
F10950
330
F10951
100
AcDbEntity
8
Rahmen
100
AcDbPolyline
90
   4
70
   1
43
   0.0
 10
103.429228998849
 20
-76.0011507479862
 10
143.302646720368
 20
-76.0011507479862
 10
143.302646720368
 20
-79.1426927502877
 10
103.429228998849
 20
-79.1426927502877
  0
TEXT
  5
F10952
330
F10953
 100
AcDbEntity
8
Text
100
AcDbText
10
0.000000000000000
20
0.500000000000000
30
0.000000000000000
40
1.50000000000000
1

100
AcDbText
  0
TEXT
  5
F10954
330
F10955
 100
AcDbEntity
8
Text
100
AcDbText
10
0.000000000000000
20
0.500000000000000
30
0.000000000000000
40
1.50000000000000
1

100
AcDbText
  0
LWPOLYLINE
  5
F10956
330
F10957
100
AcDbEntity
8
Rahmen
100
AcDbPolyline
90
   4
70
   1
43
   0.0
 10
63.3141542002302
 20
-76.0011507479862
 10
103.429228998849
 20
-76.0011507479862
 10
103.429228998849
 20
-79.1426927502877
 10
63.3141542002302
 20
-79.1426927502877
  0
TEXT
  5
F10958
330
F10959
 100
AcDbEntity
8
Text
100
AcDbText
10
64.5000000000000
20
-78.4499424626007
30
0.000000000000000
40
1.50000000000000
1
Maßstab:
100
AcDbText
  0
TEXT
  5
F1095A
330
F1095B
 100
AcDbEntity
8
Text
100
AcDbText
10
89.0834292289989
20
-78.4499424626007
30
0.000000000000000
40
1.50000000000000
1
1 : 1
100
AcDbText
0
VIEWPORT
5
294
102
{ACAD_XDICTIONARY
360
58A
102
}
330
25D
100
AcDbEntity
67
1
8
0
60
1
100
AcDbViewport
10
0.0
20
0.0
30
0.0
40
10.0
41
10.0
68
-1
69
1
12
0.0
22
0.0
13
0.0
23
0.0
14
1.0
24
1.0
15
0.0
25
0.0
16
0.0
26
0.0
36
1.0
17
0.0
27
0.0
37
0.0
42
0.0
43
0.0
44
0.0
45
10.0
50
0.0
51
0.0000000000007958
72
100
90
32800
1

281
0
71
0
74
0
110
0.0
120
0.0
130
0.0
111
1.0
121
0.0
131
0.0
112
0.0
122
1.0
132
0.0
79
0
146
0.0
1001
VD_INVISIBLE_NOT_FOR_READ
1000
VD_INVISIBLE_NOT_FOR_READ
0
VIEWPORT
5
295
102
{ACAD_XDICTIONARY
360
58C
102
}
330
25D
100
AcDbEntity
67
1
8
0
60
1
100
AcDbViewport
10
0.0
20
0.0
30
0.0
40
10.0
41
10.0
68
0
69
2
12
0.0
22
0.0
13
0.0
23
0.0
14
1.0
24
1.0
15
0.0
25
0.0
16
0.0
26
0.0
36
1.0
17
0.0
27
0.0
37
0.0
42
0.0
43
0.0
44
0.0
45
10.0
50
0.0
51
0.0000000000007958
72
100
90
163872
1

281
0
71
0
74
0
110
0.0
120
0.0
130
0.0
111
1.0
121
0.0
131
0.0
112
0.0
122
1.0
132
0.0
79
0
146
0.0
1001
VD_INVISIBLE_NOT_FOR_READ
1000
VD_INVISIBLE_NOT_FOR_READ
0
ENDSEC
0
SECTION
2
OBJECTS
0
DICTIONARY
5
13
330
0
100
AcDbDictionary
281
1
3
ACAD_COLOR
350
FA7
3
ACAD_GROUP
350
14
3
ACAD_LAYOUT
350
FCF
3
ACAD_MATERIAL
350
F7A
3
ACAD_MLEADERSTYLE
350
FCD
3
ACAD_MLINESTYLE
350
16
3
ACAD_PLOTSETTINGS
350
17
3
ACAD_PLOTSTYLENAME
350
18
3
ACAD_SCALELIST
350
FAB
3
ACAD_TABLESTYLE
350
FA8
3
ACAD_VISUALSTYLE
350
F93
3
ACDB_RECOMPOSE_DATA
350
107E
3
AcDbVariableDictionary
350
FF0
3
DWGPROPS
350
107F
0
DICTIONARY
5
F10014
330
F10013
100
AcDbDictionary
280
1
281
1
3
ACAD_MTEXT_2008_RT
360
F10015
0
DICTIONARY
5
F10019
330
F10018
100
AcDbDictionary
280
1
281
1
3
ACAD_MTEXT_2008_RT
360
F1001A
0
DICTIONARY
5
F1000A
330
F10009
100
AcDbDictionary
280
1
281
1
3
ACAD_MTEXT_2008_RT
360
F1000B
0
DICTIONARY
5
F10005
330
F10004
100
AcDbDictionary
280
1
281
1
3
ACAD_MTEXT_2008_RT
360
F10006
0
DICTIONARY
5
F1000F
330
F1000E
100
AcDbDictionary
280
1
281
1
3
ACAD_MTEXT_2008_RT
360
F10010
0
DICTIONARY
5
FA7
102
{ACAD_REACTORS
330
13
102
}
330
13
100
AcDbDictionary
281
1
0
DICTIONARY
5
14
330
13
100
AcDbDictionary
281
1
0
DICTIONARY
5
FCF
102
{ACAD_REACTORS
330
13
102
}
330
13
100
AcDbDictionary
281
1
3
Layout1
350
FD1
3
Model
350
FD0
0
DICTIONARY
5
F7A
102
{ACAD_REACTORS
330
13
102
}
330
13
100
AcDbDictionary
281
1
3
ByBlock
350
F83
3
ByLayer
350
F7B
3
Global
350
F8B
0
DICTIONARY
5
FCD
102
{ACAD_REACTORS
330
13
102
}
330
13
100
AcDbDictionary
281
1
3
Standard
350
FCE
0
DICTIONARY
5
16
330
13
100
AcDbDictionary
281
1
3
Standard
350
FAA
0
DICTIONARY
5
17
102
{ACAD_REACTORS
330
13
102
}
330
13
100
AcDbDictionary
281
1
0
ACDBDICTIONARYWDFLT
5
18
102
{ACAD_REACTORS
330
13
102
}
330
13
100
AcDbDictionary
281
1
3
Normal
350
19
100
AcDbDictionaryWithDefault
340
19
0
DICTIONARY
5
FAB
102
{ACAD_REACTORS
330
13
102
}
330
13
100
AcDbDictionary
281
1
3
A0
350
FAC
3
A1
350
FAD
3
A2
350
FAE
3
A3
350
FAF
3
A4
350
FB0
3
A5
350
FB1
3
A6
350
FB2
3
A7
350
FB3
3
A8
350
FB4
3
A9
350
FB5
3
B0
350
FB6
3
B1
350
FB7
3
B2
350
FB8
3
B3
350
FB9
3
B4
350
FBA
3
B5
350
FBB
3
B6
350
FBC
3
B7
350
FBD
3
B8
350
FBE
3
B9
350
FBF
3
C0
350
FC0
3
C1
350
FC1
3
C2
350
FC2
3
C3
350
FC3
3
C4
350
FC4
3
C5
350
FC5
3
C6
350
FC6
3
C7
350
FC7
3
C8
350
FC8
3
C9
350
FC9
3
D0
350
FCA
3
D1
350
FCB
3
D2
350
FCC
0
DICTIONARY
5
FA8
102
{ACAD_REACTORS
330
13
102
}
330
13
100
AcDbDictionary
281
1
3
Standard
350
FA9
0
DICTIONARY
5
F93
102
{ACAD_REACTORS
330
13
102
}
330
13
100
AcDbDictionary
281
1
3
2dWireframe
350
F99
3
3D Hidden
350
F9B
3
3dWireframe
350
F9A
3
Basic
350
F98
3
Brighten
350
F9F
3
ColorChange
350
FA3
3
Conceptual
350
F9C
3
Dim
350
F9E
3
EdgeColorOff
350
FA6
3
Facepattern
350
FA2
3
Flat
350
F94
3
FlatWithEdges
350
F95
3
Gouraud
350
F96
3
GouraudWithEdges
350
F97
3
JitterOff
350
FA4
3
Linepattern
350
FA1
3
OverhangOff
350
FA5
3
Realistic
350
F9D
3
Thicken
350
FA0
0
XRECORD
5
107E
102
{ACAD_REACTORS
330
13
102
}
330
13
100
AcDbXrecord
280
1
90
1
330
FA9
330
F10013
330
F10018
330
F10009
330
F10004
330
F1000E
0
DICTIONARY
5
FF0
102
{ACAD_REACTORS
330
13
102
}
330
13
100
AcDbDictionary
281
1
3
CANNOSCALE
350
FF3
3
CMLEADERSTYLE
350
FF2
3
CTABLESTYLE
350
FF1
3
DIMASSOC
350
FF6
3
INDEXCTL
350
FF5
3
SORTENTS
350
FF4
3
XCLIPFRAME
350
1078
0
XRECORD
5
107F
102
{ACAD_REACTORS
330
13
102
}
330
13
100
AcDbXrecord
280
1
1
DWGPROPS COOKIE
2

3

4

6

7

8

9

300
=
301
=
302
=
303
=
304
=
305
=
306
=
307
=
308
=
309
=
40
0.0
41
0.0
42
0.0
1

90
0
0
XRECORD
5
F10015
102
{ACAD_REACTORS
330
F10014
102
}
330
F10014
100
AcDbXrecord
280
1
40
48458.0
1
40
0
XRECORD
5
F1001A
102
{ACAD_REACTORS
330
F10019
102
}
330
F10019
100
AcDbXrecord
280
1
40
48458.0
1
150
0
XRECORD
5
F1000B
102
{ACAD_REACTORS
330
F1000A
102
}
330
F1000A
100
AcDbXrecord
280
1
40
48458.0
1
R10
0
XRECORD
5
F10006
102
{ACAD_REACTORS
330
F10005
102
}
330
F10005
100
AcDbXrecord
280
1
40
48458.0
1
Ø20
0
LAYOUT
5
FD1
102
{ACAD_XDICTIONARY
360
10A9
102
}
102
{ACAD_REACTORS
330
FCF
102
}
330
FCF
100
AcDbPlotSettings
1

2
Microsoft XPS Document Writer
4

6

40
0.0
41
0.0
42
0.0
43
0.0
44
0.0
45
0.0
46
0.0
47
0.0
48
0.0
49
0.0
140
0.0
141
0.0
142
1.0
143
1.0
70
688
72
0
73
0
74
5
7

75
16
147
1.0
148
0.0
149
0.0
100
AcDbLayout
1
Layout1
70
1
71
1
10
0.0
20
0.0
11
12.0
21
9.0
12
0.0
22
0.0
32
0.0
14
1.000000000000000E+20
24
1.000000000000000E+20
34
1.000000000000000E+20
15
-1.000000000000000E+20
25
-1.000000000000000E+20
35
-1.000000000000000E+20
146
0.0
13
0.0
23
0.0
33
0.0
16
1.0
26
0.0
36
0.0
17
0.0
27
1.0
37
0.0
76
0
330
25D
0
LAYOUT
5
FD0
102
{ACAD_XDICTIONARY
360
10A7
102
}
102
{ACAD_REACTORS
330
FCF
102
}
330
FCF
100
AcDbPlotSettings
1

2
Microsoft XPS Document Writer
4

6

40
0.0
41
0.0
42
0.0
43
0.0
44
0.0
45
0.0
46
0.0
47
0.0
48
0.0
49
0.0
140
0.0
141
0.0
142
1.0
143
1.0
70
1712
72
0
73
0
74
0
7

75
0
147
1.0
148
0.0
149
0.0
100
AcDbLayout
1
Model
70
1
71
0
10
0.0
20
0.0
11
12.0
21
9.0
12
0.0
22
0.0
32
0.0
14
0.0
24
0.0
34
0.0
15
0.0
25
0.0
35
0.0
146
0.0
13
0.0
23
0.0
33
0.0
16
1.0
26
0.0
36
0.0
17
0.0
27
1.0
37
0.0
76
0
330
261
331
26B
0
MATERIAL
5
F83
102
{ACAD_XDICTIONARY
360
F84
102
}
102
{ACAD_REACTORS
330
F7A
102
}
330
F7A
100
AcDbMaterial
1
ByBlock
72
0
43
0.0208333333333333
43
0.0
43
0.0
43
0.0
43
0.0
43
0.0208333333333333
43
0.0
43
0.0
43
0.0
43
0.0
43
1.0
43
0.0
43
0.0
43
0.0
43
0.0
43
1.0
77
0
47
0.0208333333333333
47
0.0
47
0.0
47
0.0
47
0.0
47
0.0208333333333333
47
0.0
47
0.0
47
0.0
47
0.0
47
1.0
47
0.0
47
0.0
47
0.0
47
0.0
47
1.0
171
0
49
0.0208333333333333
49
0.0
49
0.0
49
0.0
49
0.0
49
0.0208333333333333
49
0.0
49
0.0
49
0.0
49
0.0
49
1.0
49
0.0
49
0.0
49
0.0
49
0.0
49
1.0
175
0
142
0.0208333333333333
142
0.0
142
0.0
142
0.0
142
0.0
142
0.0208333333333333
142
0.0
142
0.0
142
0.0
142
0.0
142
1.0
142
0.0
142
0.0
142
0.0
142
0.0
142
1.0
179
0
144
0.0208333333333333
144
0.0
144
0.0
144
0.0
144
0.0
144
0.0208333333333333
144
0.0
144
0.0
144
0.0
144
0.0
144
1.0
144
0.0
144
0.0
144
0.0
144
0.0
144
1.0
147
0.0208333333333333
147
0.0
147
0.0
147
0.0
147
0.0
147
0.0208333333333333
147
0.0
147
0.0
147
0.0
147
0.0
147
1.0
147
0.0
147
0.0
147
0.0
147
0.0
147
1.0
0
MATERIAL
5
F7B
102
{ACAD_XDICTIONARY
360
F7C
102
}
102
{ACAD_REACTORS
330
F7A
102
}
330
F7A
100
AcDbMaterial
1
ByLayer
72
0
43
0.0208333333333333
43
0.0
43
0.0
43
0.0
43
0.0
43
0.0208333333333333
43
0.0
43
0.0
43
0.0
43
0.0
43
1.0
43
0.0
43
0.0
43
0.0
43
0.0
43
1.0
77
0
47
0.0208333333333333
47
0.0
47
0.0
47
0.0
47
0.0
47
0.0208333333333333
47
0.0
47
0.0
47
0.0
47
0.0
47
1.0
47
0.0
47
0.0
47
0.0
47
0.0
47
1.0
171
0
49
0.0208333333333333
49
0.0
49
0.0
49
0.0
49
0.0
49
0.0208333333333333
49
0.0
49
0.0
49
0.0
49
0.0
49
1.0
49
0.0
49
0.0
49
0.0
49
0.0
49
1.0
175
0
142
0.0208333333333333
142
0.0
142
0.0
142
0.0
142
0.0
142
0.0208333333333333
142
0.0
142
0.0
142
0.0
142
0.0
142
1.0
142
0.0
142
0.0
142
0.0
142
0.0
142
1.0
179
0
144
0.0208333333333333
144
0.0
144
0.0
144
0.0
144
0.0
144
0.0208333333333333
144
0.0
144
0.0
144
0.0
144
0.0
144
1.0
144
0.0
144
0.0
144
0.0
144
0.0
144
1.0
147
0.0208333333333333
147
0.0
147
0.0
147
0.0
147
0.0
147
0.0208333333333333
147
0.0
147
0.0
147
0.0
147
0.0
147
1.0
147
0.0
147
0.0
147
0.0
147
0.0
147
1.0
0
MATERIAL
5
F8B
102
{ACAD_XDICTIONARY
360
F8C
102
}
102
{ACAD_REACTORS
330
F7A
102
}
330
F7A
100
AcDbMaterial
1
Global
72
0
43
0.0208333333333333
43
0.0
43
0.0
43
0.0
43
0.0
43
0.0208333333333333
43
0.0
43
0.0
43
0.0
43
0.0
43
1.0
43
0.0
43
0.0
43
0.0
43
0.0
43
1.0
77
0
47
0.0208333333333333
47
0.0
47
0.0
47
0.0
47
0.0
47
0.0208333333333333
47
0.0
47
0.0
47
0.0
47
0.0
47
1.0
47
0.0
47
0.0
47
0.0
47
0.0
47
1.0
171
0
49
0.0208333333333333
49
0.0
49
0.0
49
0.0
49
0.0
49
0.0208333333333333
49
0.0
49
0.0
49
0.0
49
0.0
49
1.0
49
0.0
49
0.0
49
0.0
49
0.0
49
1.0
175
0
142
0.0208333333333333
142
0.0
142
0.0
142
0.0
142
0.0
142
0.0208333333333333
142
0.0
142
0.0
142
0.0
142
0.0
142
1.0
142
0.0
142
0.0
142
0.0
142
0.0
142
1.0
179
0
144
0.0208333333333333
144
0.0
144
0.0
144
0.0
144
0.0
144
0.0208333333333333
144
0.0
144
0.0
144
0.0
144
0.0
144
1.0
144
0.0
144
0.0
144
0.0
144
0.0
144
1.0
147
0.0208333333333333
147
0.0
147
0.0
147
0.0
147
0.0
147
0.0208333333333333
147
0.0
147
0.0
147
0.0
147
0.0
147
1.0
147
0.0
147
0.0
147
0.0
147
0.0
147
1.0
0
MLEADERSTYLE
5
FCE
102
{ACAD_REACTORS
330
FCD
102
}
330
FCD
100
AcDbMLeaderStyle
170
2
171
1
172
0
90
2
40
0.0
41
0.0
173
1
91
-1056964608
340
256
92
-2
290
1
42
0.09
291
1
43
0.36
3
Standard
44
0.18
300

342
253
174
1
178
6
175
1
176
0
93
-1056964608
45
0.18
292
0
297
0
46
0.18
94
-1056964608
47
1.0
49
1.0
140
1.0
293
1
141
0.0
294
1
177
0
142
1.0
295
0
296
0
143
0.125
1001
ACAD_MLEADERVER
1070
2
0
MLINESTYLE
5
FAA
102
{ACAD_REACTORS
330
16
102
}
330
16
100
AcDbMlineStyle
2
STANDARD
70
0
3

62
256
51
90.0
52
90.0
71
2
49
0.5
62
256
6
BYLAYER
49
-0.5
62
256
6
BYLAYER
0
ACDBPLACEHOLDER
5
19
102
{ACAD_REACTORS
330
18
102
}
330
18
0
SCALE
5
FAC
102
{ACAD_REACTORS
330
FAB
102
}
330
FAB
100
AcDbScale
70
0
300
1:1
140
1.0
141
1.0
290
1
0
SCALE
5
FAD
102
{ACAD_REACTORS
330
FAB
102
}
330
FAB
100
AcDbScale
70
0
300
1:2
140
1.0
141
2.0
290
0
0
SCALE
5
FAE
102
{ACAD_REACTORS
330
FAB
102
}
330
FAB
100
AcDbScale
70
0
300
1:4
140
1.0
141
4.0
290
0
0
SCALE
5
FAF
102
{ACAD_REACTORS
330
FAB
102
}
330
FAB
100
AcDbScale
70
0
300
1:5
140
1.0
141
5.0
290
0
0
SCALE
5
FB0
102
{ACAD_REACTORS
330
FAB
102
}
330
FAB
100
AcDbScale
70
0
300
1:8
140
1.0
141
8.0
290
0
0
SCALE
5
FB1
102
{ACAD_REACTORS
330
FAB
102
}
330
FAB
100
AcDbScale
70
0
300
1:10
140
1.0
141
10.0
290
0
0
SCALE
5
FB2
102
{ACAD_REACTORS
330
FAB
102
}
330
FAB
100
AcDbScale
70
0
300
1:16
140
1.0
141
16.0
290
0
0
SCALE
5
FB3
102
{ACAD_REACTORS
330
FAB
102
}
330
FAB
100
AcDbScale
70
0
300
1:20
140
1.0
141
20.0
290
0
0
SCALE
5
FB4
102
{ACAD_REACTORS
330
FAB
102
}
330
FAB
100
AcDbScale
70
0
300
1:30
140
1.0
141
30.0
290
0
0
SCALE
5
FB5
102
{ACAD_REACTORS
330
FAB
102
}
330
FAB
100
AcDbScale
70
0
300
1:40
140
1.0
141
40.0
290
0
0
SCALE
5
FB6
102
{ACAD_REACTORS
330
FAB
102
}
330
FAB
100
AcDbScale
70
0
300
1:50
140
1.0
141
50.0
290
0
0
SCALE
5
FB7
102
{ACAD_REACTORS
330
FAB
102
}
330
FAB
100
AcDbScale
70
0
300
1:100
140
1.0
141
100.0
290
0
0
SCALE
5
FB8
102
{ACAD_REACTORS
330
FAB
102
}
330
FAB
100
AcDbScale
70
0
300
2:1
140
2.0
141
1.0
290
0
0
SCALE
5
FB9
102
{ACAD_REACTORS
330
FAB
102
}
330
FAB
100
AcDbScale
70
0
300
4:1
140
4.0
141
1.0
290
0
0
SCALE
5
FBA
102
{ACAD_REACTORS
330
FAB
102
}
330
FAB
100
AcDbScale
70
0
300
8:1
140
8.0
141
1.0
290
0
0
SCALE
5
FBB
102
{ACAD_REACTORS
330
FAB
102
}
330
FAB
100
AcDbScale
70
0
300
10:1
140
10.0
141
1.0
290
0
0
SCALE
5
FBC
102
{ACAD_REACTORS
330
FAB
102
}
330
FAB
100
AcDbScale
70
0
300
100:1
140
100.0
141
1.0
290
0
0
SCALE
5
FBD
102
{ACAD_REACTORS
330
FAB
102
}
330
FAB
100
AcDbScale
70
0
300
1/128" = 1'-0"
140
0.0078125
141
12.0
290
0
0
SCALE
5
FBE
102
{ACAD_REACTORS
330
FAB
102
}
330
FAB
100
AcDbScale
70
0
300
1/64" = 1'-0"
140
0.015625
141
12.0
290
0
0
SCALE
5
FBF
102
{ACAD_REACTORS
330
FAB
102
}
330
FAB
100
AcDbScale
70
0
300
1/32" = 1'-0"
140
0.03125
141
12.0
290
0
0
SCALE
5
FC0
102
{ACAD_REACTORS
330
FAB
102
}
330
FAB
100
AcDbScale
70
0
300
1/16" = 1'-0"
140
0.0625
141
12.0
290
0
0
SCALE
5
FC1
102
{ACAD_REACTORS
330
FAB
102
}
330
FAB
100
AcDbScale
70
0
300
3/32" = 1'-0"
140
0.09375
141
12.0
290
0
0
SCALE
5
FC2
102
{ACAD_REACTORS
330
FAB
102
}
330
FAB
100
AcDbScale
70
0
300
1/8" = 1'-0"
140
0.125
141
12.0
290
0
0
SCALE
5
FC3
102
{ACAD_REACTORS
330
FAB
102
}
330
FAB
100
AcDbScale
70
0
300
3/16" = 1'-0"
140
0.1875
141
12.0
290
0
0
SCALE
5
FC4
102
{ACAD_REACTORS
330
FAB
102
}
330
FAB
100
AcDbScale
70
0
300
1/4" = 1'-0"
140
0.25
141
12.0
290
0
0
SCALE
5
FC5
102
{ACAD_REACTORS
330
FAB
102
}
330
FAB
100
AcDbScale
70
0
300
3/8" = 1'-0"
140
0.375
141
12.0
290
0
0
SCALE
5
FC6
102
{ACAD_REACTORS
330
FAB
102
}
330
FAB
100
AcDbScale
70
0
300
1/2" = 1'-0"
140
0.5
141
12.0
290
0
0
SCALE
5
FC7
102
{ACAD_REACTORS
330
FAB
102
}
330
FAB
100
AcDbScale
70
0
300
3/4" = 1'-0"
140
0.75
141
12.0
290
0
0
SCALE
5
FC8
102
{ACAD_REACTORS
330
FAB
102
}
330
FAB
100
AcDbScale
70
0
300
1" = 1'-0"
140
1.0
141
12.0
290
0
0
SCALE
5
FC9
102
{ACAD_REACTORS
330
FAB
102
}
330
FAB
100
AcDbScale
70
0
300
1-1/2" = 1'-0"
140
1.5
141
12.0
290
0
0
SCALE
5
FCA
102
{ACAD_REACTORS
330
FAB
102
}
330
FAB
100
AcDbScale
70
0
300
3" = 1'-0"
140
3.0
141
12.0
290
0
0
SCALE
5
FCB
102
{ACAD_REACTORS
330
FAB
102
}
330
FAB
100
AcDbScale
70
0
300
6" = 1'-0"
140
6.0
141
12.0
290
0
0
SCALE
5
FCC
102
{ACAD_REACTORS
330
FAB
102
}
330
FAB
100
AcDbScale
70
0
300
1'-0" = 1'-0"
140
12.0
141
12.0
290
0
0
TABLESTYLE
5
FA9
102
{ACAD_XDICTIONARY
360
FF8
102
}
102
{ACAD_REACTORS
330
FA8
102
}
330
FA8
100
AcDbTableStyle
3
Standard
70
0
71
0
40
0.06
41
0.06
280
0
281
0
7
Standard
140
0.18
170
2
62
0
63
7
283
0
274
-2
284
1
64
0
275
-2
285
1
65
0
276
-2
286
1
66
0
277
-2
287
1
67
0
278
-2
288
1
68
0
279
-2
289
1
69
0
7
Standard
140
0.25
170
5
62
0
63
7
283
0
274
-2
284
1
64
0
275
-2
285
1
65
0
276
-2
286
1
66
0
277
-2
287
1
67
0
278
-2
288
1
68
0
279
-2
289
1
69
0
7
Standard
140
0.18
170
5
62
0
63
7
283
0
274
-2
284
1
64
0
275
-2
285
1
65
0
276
-2
286
1
66
0
277
-2
287
1
67
0
278
-2
288
1
68
0
279
-2
289
1
69
0
0
VISUALSTYLE
5
F99
102
{ACAD_XDICTIONARY
360
108A
102
}
102
{ACAD_REACTORS
330
F93
102
}
330
F93
100
AcDbVisualStyle
2

70
4
71
0
72
2
73
0
90
0
40
-0.6
41
-30.0
62
5
63
7
74
1
91
4
64
7
65
257
75
1
175
1
42
1.0
92
0
66
257
43
1.0
76
1
77
6
78
2
67
7
79
5
170
0
171
0
290
0
174
0
93
1
44
0.0
173
0
291
0
45
0.0
1001
ACAD
1000
AcDbSavedByObjectVersion
1070
0
0
VISUALSTYLE
5
F9B
102
{ACAD_XDICTIONARY
360
108E
102
}
102
{ACAD_REACTORS
330
F93
102
}
330
F93
100
AcDbVisualStyle
2

70
6
71
1
72
2
73
2
90
0
40
-0.6
41
-30.0
62
5
63
7
74
2
91
2
64
7
65
257
75
2
175
1
42
179.0
92
0
66
257
43
1.0
76
1
77
6
78
2
67
7
79
3
170
0
171
0
290
0
174
0
93
1
44
0.0
173
0
291
0
45
0.0
1001
ACAD
1000
AcDbSavedByObjectVersion
1070
0
0
VISUALSTYLE
5
F9A
102
{ACAD_XDICTIONARY
360
108C
102
}
102
{ACAD_REACTORS
330
F93
102
}
330
F93
100
AcDbVisualStyle
2

70
5
71
0
72
2
73
0
90
0
40
-0.6
41
-30.0
62
5
63
7
74
1
91
4
64
7
65
257
75
1
175
1
42
1.0
92
0
66
257
43
1.0
76
1
77
6
78
2
67
7
79
5
170
0
171
0
290
0
174
0
93
1
44
0.0
173
0
291
0
45
0.0
1001
ACAD
1000
AcDbSavedByObjectVersion
1070
0
0
VISUALSTYLE
5
F98
102
{ACAD_XDICTIONARY
360
1088
102
}
102
{ACAD_REACTORS
330
F93
102
}
330
F93
100
AcDbVisualStyle
2

70
7
71
1
72
0
73
1
90
0
40
-0.6
41
-30.0
62
5
63
7
74
0
91
4
64
7
65
257
75
1
175
1
42
1.0
92
8
66
7
43
1.0
76
1
77
6
78
2
67
7
79
5
170
0
171
0
290
0
174
0
93
1
44
0.0
173
0
291
1
45
0.0
1001
ACAD
1000
AcDbSavedByObjectVersion
1070
0
0
VISUALSTYLE
5
F9F
102
{ACAD_XDICTIONARY
360
1096
102
}
102
{ACAD_REACTORS
330
F93
102
}
330
F93
100
AcDbVisualStyle
2

70
12
71
2
72
2
73
0
90
0
40
-0.6
41
-30.0
62
5
63
7
74
1
91
4
64
7
65
257
75
1
175
1
42
1.0
92
8
66
7
43
1.0
76
1
77
6
78
2
67
7
79
5
170
0
171
0
290
0
174
0
93
1
44
50.0
173
0
291
1
45
0.0
1001
ACAD
1000
AcDbSavedByObjectVersion
1070
0
0
VISUALSTYLE
5
FA3
102
{ACAD_XDICTIONARY
360
109E
102
}
102
{ACAD_REACTORS
330
F93
102
}
330
F93
100
AcDbVisualStyle
2

70
16
71
2
72
2
73
3
90
0
40
-0.6
41
-30.0
62
5
63
8
74
1
91
4
64
7
65
257
75
1
175
1
42
1.0
92
8
66
8
43
1.0
76
1
77
6
78
2
67
7
79
5
170
0
171
0
290
0
174
0
93
1
44
0.0
173
0
291
1
45
0.0
1001
ACAD
1000
AcDbSavedByObjectVersion
1070
0
0
VISUALSTYLE
5
F9C
102
{ACAD_XDICTIONARY
360
1090
102
}
102
{ACAD_REACTORS
330
F93
102
}
330
F93
100
AcDbVisualStyle
2

70
9
71
3
72
2
73
0
90
0
40
-0.6
41
-30.0
62
5
63
7
74
2
91
2
64
7
65
257
75
1
175
1
42
179.0
92
8
66
7
43
1.0
76
1
77
6
78
2
67
7
79
3
170
0
171
0
290
0
174
0
93
1
44
0.0
173
0
291
0
45
0.0
1001
ACAD
1000
AcDbSavedByObjectVersion
1070
0
0
VISUALSTYLE
5
F9E
102
{ACAD_XDICTIONARY
360
1094
102
}
102
{ACAD_REACTORS
330
F93
102
}
330
F93
100
AcDbVisualStyle
2

70
11
71
2
72
2
73
0
90
0
40
-0.6
41
-30.0
62
5
63
7
74
1
91
4
64
7
65
257
75
1
175
1
42
1.0
92
8
66
7
43
1.0
76
1
77
6
78
2
67
7
79
5
170
0
171
0
290
0
174
0
93
1
44
-50.0
173
0
291
1
45
0.0
1001
ACAD
1000
AcDbSavedByObjectVersion
1070
0
0
VISUALSTYLE
5
FA6
102
{ACAD_XDICTIONARY
360
10A4
102
}
102
{ACAD_REACTORS
330
F93
102
}
330
F93
100
AcDbVisualStyle
2

70
22
71
2
72
2
73
0
90
0
40
-0.6
41
-30.0
62
5
63
7
74
1
91
4
64
7
65
257
75
1
175
1
42
1.0
92
8
66
7
43
1.0
76
1
77
6
78
2
67
7
79
5
170
0
171
0
290
0
174
0
93
1
44
0.0
173
0
291
1
45
0.0
1001
ACAD
1000
AcDbSavedByObjectVersion
1070
0
0
VISUALSTYLE
5
FA2
102
{ACAD_XDICTIONARY
360
109C
102
}
102
{ACAD_REACTORS
330
F93
102
}
330
F93
100
AcDbVisualStyle
2

70
15
71
2
72
2
73
0
90
0
40
-0.6
41
-30.0
62
5
63
7
74
1
91
4
64
7
65
257
75
1
175
1
42
1.0
92
8
66
7
43
1.0
76
1
77
6
78
2
67
7
79
5
170
0
171
0
290
0
174
0
93
1
44
0.0
173
0
291
1
45
0.0
1001
ACAD
1000
AcDbSavedByObjectVersion
1070
0
0
VISUALSTYLE
5
F94
102
{ACAD_XDICTIONARY
360
1080
102
}
102
{ACAD_REACTORS
330
F93
102
}
330
F93
100
AcDbVisualStyle
2

70
0
71
2
72
1
73
1
90
2
40
-0.6
41
30.0
62
5
63
7
74
0
91
4
64
7
65
257
75
1
175
1
42
1.0
92
8
66
7
43
1.0
76
1
77
6
78
2
67
7
79
5
170
0
171
0
290
0
174
0
93
13
44
0.0
173
0
291
1
45
0.0
1001
ACAD
1000
AcDbSavedByObjectVersion
1070
0
0
VISUALSTYLE
5
F95
102
{ACAD_XDICTIONARY
360
1082
102
}
102
{ACAD_REACTORS
330
F93
102
}
330
F93
100
AcDbVisualStyle
2

70
1
71
2
72
1
73
1
90
2
40
-0.6
41
30.0
62
5
63
7
74
1
91
4
64
7
65
257
75
1
175
1
42
1.0
92
0
66
257
43
1.0
76
1
77
6
78
2
67
7
79
5
170
0
171
0
290
0
174
0
93
13
44
0.0
173
0
291
1
45
0.0
1001
ACAD
1000
AcDbSavedByObjectVersion
1070
0
0
VISUALSTYLE
5
F96
102
{ACAD_XDICTIONARY
360
1084
102
}
102
{ACAD_REACTORS
330
F93
102
}
330
F93
100
AcDbVisualStyle
2

70
2
71
2
72
2
73
1
90
2
40
-0.6
41
30.0
62
5
63
7
74
0
91
4
64
7
65
257
75
1
175
1
42
1.0
92
0
66
7
43
1.0
76
1
77
6
78
2
67
7
79
5
170
0
171
0
290
0
174
0
93
13
44
0.0
173
0
291
1
45
0.0
1001
ACAD
1000
AcDbSavedByObjectVersion
1070
0
0
VISUALSTYLE
5
F97
102
{ACAD_XDICTIONARY
360
1086
102
}
102
{ACAD_REACTORS
330
F93
102
}
330
F93
100
AcDbVisualStyle
2

70
3
71
2
72
2
73
1
90
2
40
-0.6
41
30.0
62
5
63
7
74
1
91
4
64
7
65
257
75
1
175
1
42
1.0
92
0
66
257
43
1.0
76
1
77
6
78
2
67
7
79
5
170
0
171
0
290
0
174
0
93
13
44
0.0
173
0
291
1
45
0.0
1001
ACAD
1000
AcDbSavedByObjectVersion
1070
0
0
VISUALSTYLE
5
FA4
102
{ACAD_XDICTIONARY
360
10A0
102
}
102
{ACAD_REACTORS
330
F93
102
}
330
F93
100
AcDbVisualStyle
2

70
20
71
2
72
2
73
0
90
0
40
-0.6
41
-30.0
62
5
63
7
74
1
91
4
64
7
65
257
75
1
175
1
42
1.0
92
10
66
7
43
1.0
76
1
77
6
78
2
67
7
79
5
170
0
171
0
290
0
174
0
93
1
44
0.0
173
0
291
1
45
0.0
1001
ACAD
1000
AcDbSavedByObjectVersion
1070
0
0
VISUALSTYLE
5
FA1
102
{ACAD_XDICTIONARY
360
109A
102
}
102
{ACAD_REACTORS
330
F93
102
}
330
F93
100
AcDbVisualStyle
2

70
14
71
2
72
2
73
0
90
0
40
-0.6
41
-30.0
62
5
63
7
74
1
91
4
64
7
65
257
75
7
175
7
42
1.0
92
8
66
7
43
1.0
76
1
77
6
78
2
67
7
79
5
170
0
171
0
290
0
174
0
93
1
44
0.0
173
0
291
1
45
0.0
1001
ACAD
1000
AcDbSavedByObjectVersion
1070
0
0
VISUALSTYLE
5
FA5
102
{ACAD_XDICTIONARY
360
10A2
102
}
102
{ACAD_REACTORS
330
F93
102
}
330
F93
100
AcDbVisualStyle
2

70
21
71
2
72
2
73
0
90
0
40
-0.6
41
-30.0
62
5
63
7
74
1
91
4
64
7
65
257
75
1
175
1
42
1.0
92
9
66
7
43
1.0
76
1
77
6
78
2
67
7
79
5
170
0
171
0
290
0
174
0
93
1
44
0.0
173
0
291
1
45
0.0
1001
ACAD
1000
AcDbSavedByObjectVersion
1070
0
0
VISUALSTYLE
5
F9D
102
{ACAD_XDICTIONARY
360
1092
102
}
102
{ACAD_REACTORS
330
F93
102
}
330
F93
100
AcDbVisualStyle
2

70
8
71
2
72
2
73
0
90
0
40
-0.6
41
-30.0
62
5
63
7
74
1
91
0
64
7
65
257
75
1
175
1
42
1.0
92
8
66
8
43
1.0
76
1
77
6
78
2
67
7
79
5
170
0
171
0
290
0
174
0
93
13
44
0.0
173
0
291
0
45
0.0
1001
ACAD
1000
AcDbSavedByObjectVersion
1070
0
0
VISUALSTYLE
5
FA0
102
{ACAD_XDICTIONARY
360
1098
102
}
102
{ACAD_REACTORS
330
F93
102
}
330
F93
100
AcDbVisualStyle
2

70
13
71
2
72
2
73
0
90
0
40
-0.6
41
-30.0
62
5
63
7
74
1
91
4
64
7
65
257
75
1
175
1
42
1.0
92
12
66
7
43
1.0
76
1
77
6
78
2
67
7
79
5
170
0
171
0
290
0
174
0
93
1
44
0.0
173
0
291
1
45
0.0
1001
ACAD
1000
AcDbSavedByObjectVersion
1070
0
0
DICTIONARYVAR
5
FF3
102
{ACAD_REACTORS
330
FF0
102
}
330
FF0
100
DictionaryVariables
280
0
1
1:1
0
DICTIONARYVAR
5
FF2
102
{ACAD_REACTORS
330
FF0
102
}
330
FF0
100
DictionaryVariables
280
0
1
STANDARD
0
DICTIONARYVAR
5
FF1
102
{ACAD_REACTORS
330
FF0
102
}
330
FF0
100
DictionaryVariables
280
0
1
STANDARD
0
DICTIONARYVAR
5
FF6
102
{ACAD_REACTORS
330
FF0
102
}
330
FF0
100
DictionaryVariables
280
0
1
1
0
DICTIONARYVAR
5
FF5
102
{ACAD_REACTORS
330
FF0
102
}
330
FF0
100
DictionaryVariables
280
0
1
0
0
DICTIONARYVAR
5
FF4
102
{ACAD_REACTORS
330
FF0
102
}
330
FF0
100
DictionaryVariables
280
0
1
127
0
DICTIONARYVAR
5
1078
102
{ACAD_REACTORS
330
FF0
102
}
330
FF0
100
DictionaryVariables
280
0
1
2
0
DICTIONARY
5
10A9
330
FD1
100
AcDbDictionary
280
1
281
1
3
ACAD_XREC_ROUNDTRIP
360
10AA
0
DICTIONARY
5
10A7
330
FD0
100
AcDbDictionary
280
1
281
1
3
ACAD_XREC_ROUNDTRIP
360
10A8
0
DICTIONARY
5
F84
330
F83
100
AcDbDictionary
280
1
281
1
3
ACAD_XREC_ROUNDTRIP
360
FFF
3
BUMPTILE
360
F86
3
DIFFUSETILE
360
F85
3
OPACITYTILE
360
F89
3
REFLECTIONTILE
360
F88
3
REFRACTIONTILE
360
F8A
3
SPECULARTILE
360
F87
0
DICTIONARY
5
F7C
330
F7B
100
AcDbDictionary
280
1
281
1
3
ACAD_XREC_ROUNDTRIP
360
FFE
3
BUMPTILE
360
F7E
3
DIFFUSETILE
360
F7D
3
OPACITYTILE
360
F81
3
REFLECTIONTILE
360
F80
3
REFRACTIONTILE
360
F82
3
SPECULARTILE
360
F7F
0
DICTIONARY
5
F8C
330
F8B
100
AcDbDictionary
280
1
281
1
3
ACAD_XREC_ROUNDTRIP
360
1000
3
BUMPTILE
360
F8E
3
DIFFUSETILE
360
F8D
3
OPACITYTILE
360
F91
3
REFLECTIONTILE
360
F90
3
REFRACTIONTILE
360
F92
3
SPECULARTILE
360
F8F
0
DICTIONARY
5
FF8
330
FA9
100
AcDbDictionary
280
1
281
1
3
ACAD_ROUNDTRIP_2008_TABLESTYLE_CELLSTYLEMAP
360
1079
3
ACAD_XREC_ROUNDTRIP
360
10A6
0
DICTIONARY
5
108A
330
F99
100
AcDbDictionary
280
1
281
1
3
ACAD_XREC_ROUNDTRIP
360
108B
0
DICTIONARY
5
108E
330
F9B
100
AcDbDictionary
280
1
281
1
3
ACAD_XREC_ROUNDTRIP
360
108F
0
DICTIONARY
5
108C
330
F9A
100
AcDbDictionary
280
1
281
1
3
ACAD_XREC_ROUNDTRIP
360
108D
0
DICTIONARY
5
1088
330
F98
100
AcDbDictionary
280
1
281
1
3
ACAD_XREC_ROUNDTRIP
360
1089
0
DICTIONARY
5
1096
330
F9F
100
AcDbDictionary
280
1
281
1
3
ACAD_XREC_ROUNDTRIP
360
1097
0
DICTIONARY
5
109E
330
FA3
100
AcDbDictionary
280
1
281
1
3
ACAD_XREC_ROUNDTRIP
360
109F
0
DICTIONARY
5
1090
330
F9C
100
AcDbDictionary
280
1
281
1
3
ACAD_XREC_ROUNDTRIP
360
1091
0
DICTIONARY
5
1094
330
F9E
100
AcDbDictionary
280
1
281
1
3
ACAD_XREC_ROUNDTRIP
360
1095
0
DICTIONARY
5
10A4
330
FA6
100
AcDbDictionary
280
1
281
1
3
ACAD_XREC_ROUNDTRIP
360
10A5
0
DICTIONARY
5
109C
330
FA2
100
AcDbDictionary
280
1
281
1
3
ACAD_XREC_ROUNDTRIP
360
109D
0
DICTIONARY
5
1080
330
F94
100
AcDbDictionary
280
1
281
1
3
ACAD_XREC_ROUNDTRIP
360
1081
0
DICTIONARY
5
1082
330
F95
100
AcDbDictionary
280
1
281
1
3
ACAD_XREC_ROUNDTRIP
360
1083
0
DICTIONARY
5
1084
330
F96
100
AcDbDictionary
280
1
281
1
3
ACAD_XREC_ROUNDTRIP
360
1085
0
DICTIONARY
5
1086
330
F97
100
AcDbDictionary
280
1
281
1
3
ACAD_XREC_ROUNDTRIP
360
1087
0
DICTIONARY
5
10A0
330
FA4
100
AcDbDictionary
280
1
281
1
3
ACAD_XREC_ROUNDTRIP
360
10A1
0
DICTIONARY
5
109A
330
FA1
100
AcDbDictionary
280
1
281
1
3
ACAD_XREC_ROUNDTRIP
360
109B
0
DICTIONARY
5
10A2
330
FA5
100
AcDbDictionary
280
1
281
1
3
ACAD_XREC_ROUNDTRIP
360
10A3
0
DICTIONARY
5
1092
330
F9D
100
AcDbDictionary
280
1
281
1
3
ACAD_XREC_ROUNDTRIP
360
1093
0
DICTIONARY
5
1098
330
FA0
100
AcDbDictionary
280
1
281
1
3
ACAD_XREC_ROUNDTRIP
360
1099
0
XRECORD
5
10AA
102
{ACAD_REACTORS
330
10A9
102
}
330
10A9
100
AcDbXrecord
280
1
102
SHADEPLOT
70
0
102
SHADEPLOTRESLEVEL
70
2
102
SHADEPLOTCUSTOMDPI
70
300
0
XRECORD
5
10A8
102
{ACAD_REACTORS
330
10A7
102
}
330
10A7
100
AcDbXrecord
280
1
102
SHADEPLOT
70
0
102
SHADEPLOTRESLEVEL
70
2
102
SHADEPLOTCUSTOMDPI
70
300
0
XRECORD
5
FFF
102
{ACAD_REACTORS
330
F84
102
}
330
F84
100
AcDbXrecord
280
1
102
MATERIAL
148
0.0
149
0.0
149
0.0
93
0
94
127
282
0
72
0
77
0
171
0
175
0
179
0
273
0
0
XRECORD
5
F86
102
{ACAD_REACTORS
330
F84
102
}
330
F84
100
AcDbXrecord
280
1
270
1
271
1
0
XRECORD
5
F85
102
{ACAD_REACTORS
330
F84
102
}
330
F84
100
AcDbXrecord
280
1
270
1
271
1
0
XRECORD
5
F89
102
{ACAD_REACTORS
330
F84
102
}
330
F84
100
AcDbXrecord
280
1
270
1
271
1
0
XRECORD
5
F88
102
{ACAD_REACTORS
330
F84
102
}
330
F84
100
AcDbXrecord
280
1
270
1
271
1
0
XRECORD
5
F8A
102
{ACAD_REACTORS
330
F84
102
}
330
F84
100
AcDbXrecord
280
1
270
1
271
1
0
XRECORD
5
F87
102
{ACAD_REACTORS
330
F84
102
}
330
F84
100
AcDbXrecord
280
1
270
1
271
1
0
XRECORD
5
FFE
102
{ACAD_REACTORS
330
F7C
102
}
330
F7C
100
AcDbXrecord
280
1
102
MATERIAL
148
0.0
149
0.0
149
0.0
93
0
94
127
282
0
72
0
77
0
171
0
175
0
179
0
273
0
0
XRECORD
5
F7E
102
{ACAD_REACTORS
330
F7C
102
}
330
F7C
100
AcDbXrecord
280
1
270
1
271
1
0
XRECORD
5
F7D
102
{ACAD_REACTORS
330
F7C
102
}
330
F7C
100
AcDbXrecord
280
1
270
1
271
1
0
XRECORD
5
F81
102
{ACAD_REACTORS
330
F7C
102
}
330
F7C
100
AcDbXrecord
280
1
270
1
271
1
0
XRECORD
5
F80
102
{ACAD_REACTORS
330
F7C
102
}
330
F7C
100
AcDbXrecord
280
1
270
1
271
1
0
XRECORD
5
F82
102
{ACAD_REACTORS
330
F7C
102
}
330
F7C
100
AcDbXrecord
280
1
270
1
271
1
0
XRECORD
5
F7F
102
{ACAD_REACTORS
330
F7C
102
}
330
F7C
100
AcDbXrecord
280
1
270
1
271
1
0
XRECORD
5
1000
102
{ACAD_REACTORS
330
F8C
102
}
330
F8C
100
AcDbXrecord
280
1
102
MATERIAL
148
0.0
149
0.0
149
0.0
93
0
94
127
282
0
72
0
77
0
171
0
175
0
179
0
273
0
0
XRECORD
5
F8E
102
{ACAD_REACTORS
330
F8C
102
}
330
F8C
100
AcDbXrecord
280
1
270
1
271
1
0
XRECORD
5
F8D
102
{ACAD_REACTORS
330
F8C
102
}
330
F8C
100
AcDbXrecord
280
1
270
1
271
1
0
XRECORD
5
F91
102
{ACAD_REACTORS
330
F8C
102
}
330
F8C
100
AcDbXrecord
280
1
270
1
271
1
0
XRECORD
5
F90
102
{ACAD_REACTORS
330
F8C
102
}
330
F8C
100
AcDbXrecord
280
1
270
1
271
1
0
XRECORD
5
F92
102
{ACAD_REACTORS
330
F8C
102
}
330
F8C
100
AcDbXrecord
280
1
270
1
271
1
0
XRECORD
5
F8F
102
{ACAD_REACTORS
330
F8C
102
}
330
F8C
100
AcDbXrecord
280
1
270
1
271
1
0
CELLSTYLEMAP
5
1079
102
{ACAD_REACTORS
330
FF8
102
}
330
FF8
100
AcDbCellStyleMap
90
3
300
CELLSTYLE
1
TABLEFORMAT_BEGIN
90
5
170
1
91
0
92
32768
62
257
93
1
300
CONTENTFORMAT
1
CONTENTFORMAT_BEGIN
90
0
91
0
92
512
93
0
300

40
0.0
140
1.0
94
5
62
0
340
253
144
0.25
309
CONTENTFORMAT_END
171
1
301
MARGIN
1
CELLMARGIN_BEGIN
40
0.06
40
0.06
40
0.06
40
0.06
40
0.18
40
0.18
309
CELLMARGIN_END
94
6
95
1
302
GRIDFORMAT
1
GRIDFORMAT_BEGIN
90
0
91
1
62
0
92
-2
340
0
93
0
40
0.045
309
GRIDFORMAT_END
95
2
302
GRIDFORMAT
1
GRIDFORMAT_BEGIN
90
0
91
1
62
0
92
-2
340
0
93
0
40
0.045
309
GRIDFORMAT_END
95
4
302
GRIDFORMAT
1
GRIDFORMAT_BEGIN
90
0
91
1
62
0
92
-2
340
0
93
0
40
0.045
309
GRIDFORMAT_END
95
8
302
GRIDFORMAT
1
GRIDFORMAT_BEGIN
90
0
91
1
62
0
92
-2
340
0
93
0
40
0.045
309
GRIDFORMAT_END
95
16
302
GRIDFORMAT
1
GRIDFORMAT_BEGIN
90
0
91
1
62
0
92
-2
340
0
93
0
40
0.045
309
GRIDFORMAT_END
95
32
302
GRIDFORMAT
1
GRIDFORMAT_BEGIN
90
0
91
1
62
0
92
-2
340
0
93
0
40
0.045
309
GRIDFORMAT_END
309
TABLEFORMAT_END
1
CELLSTYLE_BEGIN
90
1
91
1
300
_TITLE
309
CELLSTYLE_END
300
CELLSTYLE
1
TABLEFORMAT_BEGIN
90
5
170
1
91
0
92
0
62
257
93
1
300
CONTENTFORMAT
1
CONTENTFORMAT_BEGIN
90
0
91
0
92
512
93
0
300

40
0.0
140
1.0
94
5
62
0
340
253
144
0.18
309
CONTENTFORMAT_END
171
1
301
MARGIN
1
CELLMARGIN_BEGIN
40
0.06
40
0.06
40
0.06
40
0.06
40
0.18
40
0.18
309
CELLMARGIN_END
94
6
95
1
302
GRIDFORMAT
1
GRIDFORMAT_BEGIN
90
0
91
1
62
0
92
-2
340
0
93
0
40
0.045
309
GRIDFORMAT_END
95
2
302
GRIDFORMAT
1
GRIDFORMAT_BEGIN
90
0
91
1
62
0
92
-2
340
0
93
0
40
0.045
309
GRIDFORMAT_END
95
4
302
GRIDFORMAT
1
GRIDFORMAT_BEGIN
90
0
91
1
62
0
92
-2
340
0
93
0
40
0.045
309
GRIDFORMAT_END
95
8
302
GRIDFORMAT
1
GRIDFORMAT_BEGIN
90
0
91
1
62
0
92
-2
340
0
93
0
40
0.045
309
GRIDFORMAT_END
95
16
302
GRIDFORMAT
1
GRIDFORMAT_BEGIN
90
0
91
1
62
0
92
-2
340
0
93
0
40
0.045
309
GRIDFORMAT_END
95
32
302
GRIDFORMAT
1
GRIDFORMAT_BEGIN
90
0
91
1
62
0
92
-2
340
0
93
0
40
0.045
309
GRIDFORMAT_END
309
TABLEFORMAT_END
1
CELLSTYLE_BEGIN
90
2
91
1
300
_HEADER
309
CELLSTYLE_END
300
CELLSTYLE
1
TABLEFORMAT_BEGIN
90
5
170
1
91
0
92
0
62
257
93
1
300
CONTENTFORMAT
1
CONTENTFORMAT_BEGIN
90
0
91
0
92
512
93
0
300

40
0.0
140
1.0
94
2
62
0
340
253
144
0.18
309
CONTENTFORMAT_END
171
1
301
MARGIN
1
CELLMARGIN_BEGIN
40
0.06
40
0.06
40
0.06
40
0.06
40
0.18
40
0.18
309
CELLMARGIN_END
94
6
95
1
302
GRIDFORMAT
1
GRIDFORMAT_BEGIN
90
0
91
1
62
0
92
-2
340
0
93
0
40
0.045
309
GRIDFORMAT_END
95
2
302
GRIDFORMAT
1
GRIDFORMAT_BEGIN
90
0
91
1
62
0
92
-2
340
0
93
0
40
0.045
309
GRIDFORMAT_END
95
4
302
GRIDFORMAT
1
GRIDFORMAT_BEGIN
90
0
91
1
62
0
92
-2
340
0
93
0
40
0.045
309
GRIDFORMAT_END
95
8
302
GRIDFORMAT
1
GRIDFORMAT_BEGIN
90
0
91
1
62
0
92
-2
340
0
93
0
40
0.045
309
GRIDFORMAT_END
95
16
302
GRIDFORMAT
1
GRIDFORMAT_BEGIN
90
0
91
1
62
0
92
-2
340
0
93
0
40
0.045
309
GRIDFORMAT_END
95
32
302
GRIDFORMAT
1
GRIDFORMAT_BEGIN
90
0
91
1
62
0
92
-2
340
0
93
0
40
0.045
309
GRIDFORMAT_END
309
TABLEFORMAT_END
1
CELLSTYLE_BEGIN
90
3
91
2
300
_DATA
309
CELLSTYLE_END
0
XRECORD
5
10A6
102
{ACAD_REACTORS
330
FF8
102
}
330
FF8
100
AcDbXrecord
280
1
102
ACAD_ROUNDTRIP_PRE2007_TABLESTYLE
90
512
91
0
1

92
512
93
0
2

94
512
95
0
3

0
XRECORD
5
108B
102
{ACAD_REACTORS
330
108A
102
}
330
108A
100
AcDbXrecord
280
1
102
RTVSPropertyOp0
70
1
102
RTVSPropertyOp1
70
1
102
RTVSPropertyOp2
70
1
102
RTVSPropertyOp3
70
1
102
RTVSPropertyOp4
70
1
102
RTVSPropertyOp5
70
1
102
RTVSPropertyOp6
70
1
102
RTVSPropertyOp7
70
1
102
RTVSPropertyOp8
70
1
102
RTVSPropertyOp9
70
1
102
RTVSPropertyOp10
70
1
102
RTVSPropertyOp11
70
1
102
RTVSPropertyOp12
70
1
102
RTVSPropertyOp13
70
1
102
RTVSPropertyOp14
70
1
102
RTVSPropertyOp15
70
1
102
RTVSPropertyOp16
70
1
102
RTVSPropertyOp17
70
1
102
RTVSPropertyOp18
70
1
102
RTVSPropertyOp19
70
1
102
RTVSPropertyOp20
70
1
102
RTVSPropertyOp21
70
1
102
RTVSPropertyOp22
70
1
102
RTVSPropertyOp23
70
1
102
RTVSPropertyOp24
70
1
102
RTVSPropertyOp25
70
1
102
RTVSPropertyOp26
70
1
102
RTVSPropertyOp27
70
1
0
XRECORD
5
108F
102
{ACAD_REACTORS
330
108E
102
}
330
108E
100
AcDbXrecord
280
1
102
RTVSPropertyOp0
70
1
102
RTVSPropertyOp1
70
1
102
RTVSPropertyOp2
70
1
102
RTVSPropertyOp3
70
1
102
RTVSPropertyOp4
70
1
102
RTVSPropertyOp5
70
1
102
RTVSPropertyOp6
70
1
102
RTVSPropertyOp7
70
1
102
RTVSPropertyOp8
70
1
102
RTVSPropertyOp9
70
1
102
RTVSPropertyOp10
70
1
102
RTVSPropertyOp11
70
1
102
RTVSPropertyOp12
70
1
102
RTVSPropertyOp13
70
1
102
RTVSPropertyOp14
70
1
102
RTVSPropertyOp15
70
1
102
RTVSPropertyOp16
70
1
102
RTVSPropertyOp17
70
1
102
RTVSPropertyOp18
70
1
102
RTVSPropertyOp19
70
1
102
RTVSPropertyOp20
70
1
102
RTVSPropertyOp21
70
1
102
RTVSPropertyOp22
70
1
102
RTVSPropertyOp23
70
1
102
RTVSPropertyOp24
70
1
102
RTVSPropertyOp25
70
1
102
RTVSPropertyOp26
70
1
102
RTVSPropertyOp27
70
1
0
XRECORD
5
108D
102
{ACAD_REACTORS
330
108C
102
}
330
108C
100
AcDbXrecord
280
1
102
RTVSPropertyOp0
70
1
102
RTVSPropertyOp1
70
1
102
RTVSPropertyOp2
70
1
102
RTVSPropertyOp3
70
1
102
RTVSPropertyOp4
70
1
102
RTVSPropertyOp5
70
1
102
RTVSPropertyOp6
70
1
102
RTVSPropertyOp7
70
1
102
RTVSPropertyOp8
70
1
102
RTVSPropertyOp9
70
1
102
RTVSPropertyOp10
70
1
102
RTVSPropertyOp11
70
1
102
RTVSPropertyOp12
70
1
102
RTVSPropertyOp13
70
1
102
RTVSPropertyOp14
70
1
102
RTVSPropertyOp15
70
1
102
RTVSPropertyOp16
70
1
102
RTVSPropertyOp17
70
1
102
RTVSPropertyOp18
70
1
102
RTVSPropertyOp19
70
1
102
RTVSPropertyOp20
70
1
102
RTVSPropertyOp21
70
1
102
RTVSPropertyOp22
70
1
102
RTVSPropertyOp23
70
1
102
RTVSPropertyOp24
70
1
102
RTVSPropertyOp25
70
1
102
RTVSPropertyOp26
70
1
102
RTVSPropertyOp27
70
1
0
XRECORD
5
1089
102
{ACAD_REACTORS
330
1088
102
}
330
1088
100
AcDbXrecord
280
1
102
RTVSPropertyOp0
70
1
102
RTVSPropertyOp1
70
1
102
RTVSPropertyOp2
70
1
102
RTVSPropertyOp3
70
1
102
RTVSPropertyOp4
70
1
102
RTVSPropertyOp5
70
1
102
RTVSPropertyOp6
70
1
102
RTVSPropertyOp7
70
1
102
RTVSPropertyOp8
70
1
102
RTVSPropertyOp9
70
1
102
RTVSPropertyOp10
70
1
102
RTVSPropertyOp11
70
1
102
RTVSPropertyOp12
70
1
102
RTVSPropertyOp13
70
1
102
RTVSPropertyOp14
70
1
102
RTVSPropertyOp15
70
1
102
RTVSPropertyOp16
70
1
102
RTVSPropertyOp17
70
1
102
RTVSPropertyOp18
70
1
102
RTVSPropertyOp19
70
1
102
RTVSPropertyOp20
70
1
102
RTVSPropertyOp21
70
1
102
RTVSPropertyOp22
70
1
102
RTVSPropertyOp23
70
1
102
RTVSPropertyOp24
70
1
102
RTVSPropertyOp25
70
1
102
RTVSPropertyOp26
70
1
102
RTVSPropertyOp27
70
1
0
XRECORD
5
1097
102
{ACAD_REACTORS
330
1096
102
}
330
1096
100
AcDbXrecord
280
1
102
RTVSPropertyOp0
70
1
102
RTVSPropertyOp1
70
1
102
RTVSPropertyOp2
70
1
102
RTVSPropertyOp3
70
1
102
RTVSPropertyOp4
70
1
102
RTVSPropertyOp5
70
1
102
RTVSPropertyOp6
70
1
102
RTVSPropertyOp7
70
1
102
RTVSPropertyOp8
70
1
102
RTVSPropertyOp9
70
1
102
RTVSPropertyOp10
70
1
102
RTVSPropertyOp11
70
1
102
RTVSPropertyOp12
70
1
102
RTVSPropertyOp13
70
1
102
RTVSPropertyOp14
70
1
102
RTVSPropertyOp15
70
1
102
RTVSPropertyOp16
70
1
102
RTVSPropertyOp17
70
1
102
RTVSPropertyOp18
70
1
102
RTVSPropertyOp19
70
1
102
RTVSPropertyOp20
70
1
102
RTVSPropertyOp21
70
1
102
RTVSPropertyOp22
70
1
102
RTVSPropertyOp23
70
1
102
RTVSPropertyOp24
70
1
102
RTVSPropertyOp25
70
1
102
RTVSPropertyOp26
70
1
102
RTVSPropertyOp27
70
1
0
XRECORD
5
109F
102
{ACAD_REACTORS
330
109E
102
}
330
109E
100
AcDbXrecord
280
1
102
RTVSPropertyOp0
70
1
102
RTVSPropertyOp1
70
1
102
RTVSPropertyOp2
70
1
102
RTVSPropertyOp3
70
1
102
RTVSPropertyOp4
70
1
102
RTVSPropertyOp5
70
1
102
RTVSPropertyOp6
70
1
102
RTVSPropertyOp7
70
1
102
RTVSPropertyOp8
70
1
102
RTVSPropertyOp9
70
1
102
RTVSPropertyOp10
70
1
102
RTVSPropertyOp11
70
1
102
RTVSPropertyOp12
70
1
102
RTVSPropertyOp13
70
1
102
RTVSPropertyOp14
70
1
102
RTVSPropertyOp15
70
1
102
RTVSPropertyOp16
70
1
102
RTVSPropertyOp17
70
1
102
RTVSPropertyOp18
70
1
102
RTVSPropertyOp19
70
1
102
RTVSPropertyOp20
70
1
102
RTVSPropertyOp21
70
1
102
RTVSPropertyOp22
70
1
102
RTVSPropertyOp23
70
1
102
RTVSPropertyOp24
70
1
102
RTVSPropertyOp25
70
1
102
RTVSPropertyOp26
70
1
102
RTVSPropertyOp27
70
1
0
XRECORD
5
1091
102
{ACAD_REACTORS
330
1090
102
}
330
1090
100
AcDbXrecord
280
1
102
RTVSPropertyOp0
70
1
102
RTVSPropertyOp1
70
1
102
RTVSPropertyOp2
70
1
102
RTVSPropertyOp3
70
1
102
RTVSPropertyOp4
70
1
102
RTVSPropertyOp5
70
1
102
RTVSPropertyOp6
70
1
102
RTVSPropertyOp7
70
1
102
RTVSPropertyOp8
70
1
102
RTVSPropertyOp9
70
1
102
RTVSPropertyOp10
70
1
102
RTVSPropertyOp11
70
1
102
RTVSPropertyOp12
70
1
102
RTVSPropertyOp13
70
1
102
RTVSPropertyOp14
70
1
102
RTVSPropertyOp15
70
1
102
RTVSPropertyOp16
70
1
102
RTVSPropertyOp17
70
1
102
RTVSPropertyOp18
70
1
102
RTVSPropertyOp19
70
1
102
RTVSPropertyOp20
70
1
102
RTVSPropertyOp21
70
1
102
RTVSPropertyOp22
70
1
102
RTVSPropertyOp23
70
1
102
RTVSPropertyOp24
70
1
102
RTVSPropertyOp25
70
1
102
RTVSPropertyOp26
70
1
102
RTVSPropertyOp27
70
1
0
XRECORD
5
1095
102
{ACAD_REACTORS
330
1094
102
}
330
1094
100
AcDbXrecord
280
1
102
RTVSPropertyOp0
70
1
102
RTVSPropertyOp1
70
1
102
RTVSPropertyOp2
70
1
102
RTVSPropertyOp3
70
1
102
RTVSPropertyOp4
70
1
102
RTVSPropertyOp5
70
1
102
RTVSPropertyOp6
70
1
102
RTVSPropertyOp7
70
1
102
RTVSPropertyOp8
70
1
102
RTVSPropertyOp9
70
1
102
RTVSPropertyOp10
70
1
102
RTVSPropertyOp11
70
1
102
RTVSPropertyOp12
70
1
102
RTVSPropertyOp13
70
1
102
RTVSPropertyOp14
70
1
102
RTVSPropertyOp15
70
1
102
RTVSPropertyOp16
70
1
102
RTVSPropertyOp17
70
1
102
RTVSPropertyOp18
70
1
102
RTVSPropertyOp19
70
1
102
RTVSPropertyOp20
70
1
102
RTVSPropertyOp21
70
1
102
RTVSPropertyOp22
70
1
102
RTVSPropertyOp23
70
1
102
RTVSPropertyOp24
70
1
102
RTVSPropertyOp25
70
1
102
RTVSPropertyOp26
70
1
102
RTVSPropertyOp27
70
1
0
XRECORD
5
10A5
102
{ACAD_REACTORS
330
10A4
102
}
330
10A4
100
AcDbXrecord
280
1
102
RTVSPropertyOp0
70
0
102
RTVSPropertyOp1
70
0
102
RTVSPropertyOp2
70
0
102
RTVSPropertyOp3
70
0
102
RTVSPropertyOp4
70
0
102
RTVSPropertyOp5
70
0
102
RTVSPropertyOp6
70
0
102
RTVSPropertyOp7
70
0
102
RTVSPropertyOp8
70
0
102
RTVSPropertyOp9
70
0
102
RTVSPropertyOp10
70
0
102
RTVSPropertyOp11
70
0
102
RTVSPropertyOp12
70
0
102
RTVSPropertyOp13
70
0
102
RTVSPropertyOp14
70
2
102
RTVSPropertyOp15
70
0
102
RTVSPropertyOp16
70
0
102
RTVSPropertyOp17
70
0
102
RTVSPropertyOp18
70
0
102
RTVSPropertyOp19
70
0
102
RTVSPropertyOp20
70
0
102
RTVSPropertyOp21
70
0
102
RTVSPropertyOp22
70
0
102
RTVSPropertyOp23
70
0
102
RTVSPropertyOp24
70
0
102
RTVSPropertyOp25
70
0
102
RTVSPropertyOp26
70
0
102
RTVSPropertyOp27
70
0
0
XRECORD
5
109D
102
{ACAD_REACTORS
330
109C
102
}
330
109C
100
AcDbXrecord
280
1
102
RTVSPropertyOp0
70
1
102
RTVSPropertyOp1
70
1
102
RTVSPropertyOp2
70
1
102
RTVSPropertyOp3
70
1
102
RTVSPropertyOp4
70
1
102
RTVSPropertyOp5
70
1
102
RTVSPropertyOp6
70
1
102
RTVSPropertyOp7
70
1
102
RTVSPropertyOp8
70
1
102
RTVSPropertyOp9
70
1
102
RTVSPropertyOp10
70
1
102
RTVSPropertyOp11
70
1
102
RTVSPropertyOp12
70
1
102
RTVSPropertyOp13
70
1
102
RTVSPropertyOp14
70
1
102
RTVSPropertyOp15
70
1
102
RTVSPropertyOp16
70
1
102
RTVSPropertyOp17
70
1
102
RTVSPropertyOp18
70
1
102
RTVSPropertyOp19
70
1
102
RTVSPropertyOp20
70
1
102
RTVSPropertyOp21
70
1
102
RTVSPropertyOp22
70
1
102
RTVSPropertyOp23
70
1
102
RTVSPropertyOp24
70
1
102
RTVSPropertyOp25
70
1
102
RTVSPropertyOp26
70
1
102
RTVSPropertyOp27
70
1
0
XRECORD
5
1081
102
{ACAD_REACTORS
330
1080
102
}
330
1080
100
AcDbXrecord
280
1
102
RTVSPropertyOp0
70
1
102
RTVSPropertyOp1
70
1
102
RTVSPropertyOp2
70
1
102
RTVSPropertyOp3
70
1
102
RTVSPropertyOp4
70
1
102
RTVSPropertyOp5
70
1
102
RTVSPropertyOp6
70
1
102
RTVSPropertyOp7
70
1
102
RTVSPropertyOp8
70
1
102
RTVSPropertyOp9
70
1
102
RTVSPropertyOp10
70
1
102
RTVSPropertyOp11
70
1
102
RTVSPropertyOp12
70
1
102
RTVSPropertyOp13
70
1
102
RTVSPropertyOp14
70
1
102
RTVSPropertyOp15
70
1
102
RTVSPropertyOp16
70
1
102
RTVSPropertyOp17
70
1
102
RTVSPropertyOp18
70
1
102
RTVSPropertyOp19
70
1
102
RTVSPropertyOp20
70
1
102
RTVSPropertyOp21
70
1
102
RTVSPropertyOp22
70
1
102
RTVSPropertyOp23
70
1
102
RTVSPropertyOp24
70
1
102
RTVSPropertyOp25
70
1
102
RTVSPropertyOp26
70
1
102
RTVSPropertyOp27
70
1
0
XRECORD
5
1083
102
{ACAD_REACTORS
330
1082
102
}
330
1082
100
AcDbXrecord
280
1
102
RTVSPropertyOp0
70
1
102
RTVSPropertyOp1
70
1
102
RTVSPropertyOp2
70
1
102
RTVSPropertyOp3
70
1
102
RTVSPropertyOp4
70
1
102
RTVSPropertyOp5
70
1
102
RTVSPropertyOp6
70
1
102
RTVSPropertyOp7
70
1
102
RTVSPropertyOp8
70
1
102
RTVSPropertyOp9
70
1
102
RTVSPropertyOp10
70
1
102
RTVSPropertyOp11
70
1
102
RTVSPropertyOp12
70
1
102
RTVSPropertyOp13
70
1
102
RTVSPropertyOp14
70
1
102
RTVSPropertyOp15
70
1
102
RTVSPropertyOp16
70
1
102
RTVSPropertyOp17
70
1
102
RTVSPropertyOp18
70
1
102
RTVSPropertyOp19
70
1
102
RTVSPropertyOp20
70
1
102
RTVSPropertyOp21
70
1
102
RTVSPropertyOp22
70
1
102
RTVSPropertyOp23
70
1
102
RTVSPropertyOp24
70
1
102
RTVSPropertyOp25
70
1
102
RTVSPropertyOp26
70
1
102
RTVSPropertyOp27
70
1
0
XRECORD
5
1085
102
{ACAD_REACTORS
330
1084
102
}
330
1084
100
AcDbXrecord
280
1
102
RTVSPropertyOp0
70
1
102
RTVSPropertyOp1
70
1
102
RTVSPropertyOp2
70
1
102
RTVSPropertyOp3
70
1
102
RTVSPropertyOp4
70
1
102
RTVSPropertyOp5
70
1
102
RTVSPropertyOp6
70
1
102
RTVSPropertyOp7
70
1
102
RTVSPropertyOp8
70
1
102
RTVSPropertyOp9
70
1
102
RTVSPropertyOp10
70
1
102
RTVSPropertyOp11
70
1
102
RTVSPropertyOp12
70
1
102
RTVSPropertyOp13
70
1
102
RTVSPropertyOp14
70
1
102
RTVSPropertyOp15
70
1
102
RTVSPropertyOp16
70
1
102
RTVSPropertyOp17
70
1
102
RTVSPropertyOp18
70
1
102
RTVSPropertyOp19
70
1
102
RTVSPropertyOp20
70
1
102
RTVSPropertyOp21
70
1
102
RTVSPropertyOp22
70
1
102
RTVSPropertyOp23
70
1
102
RTVSPropertyOp24
70
1
102
RTVSPropertyOp25
70
1
102
RTVSPropertyOp26
70
1
102
RTVSPropertyOp27
70
1
0
XRECORD
5
1087
102
{ACAD_REACTORS
330
1086
102
}
330
1086
100
AcDbXrecord
280
1
102
RTVSPropertyOp0
70
1
102
RTVSPropertyOp1
70
1
102
RTVSPropertyOp2
70
1
102
RTVSPropertyOp3
70
1
102
RTVSPropertyOp4
70
1
102
RTVSPropertyOp5
70
1
102
RTVSPropertyOp6
70
1
102
RTVSPropertyOp7
70
1
102
RTVSPropertyOp8
70
1
102
RTVSPropertyOp9
70
1
102
RTVSPropertyOp10
70
1
102
RTVSPropertyOp11
70
1
102
RTVSPropertyOp12
70
1
102
RTVSPropertyOp13
70
1
102
RTVSPropertyOp14
70
1
102
RTVSPropertyOp15
70
1
102
RTVSPropertyOp16
70
1
102
RTVSPropertyOp17
70
1
102
RTVSPropertyOp18
70
1
102
RTVSPropertyOp19
70
1
102
RTVSPropertyOp20
70
1
102
RTVSPropertyOp21
70
1
102
RTVSPropertyOp22
70
1
102
RTVSPropertyOp23
70
1
102
RTVSPropertyOp24
70
1
102
RTVSPropertyOp25
70
1
102
RTVSPropertyOp26
70
1
102
RTVSPropertyOp27
70
1
0
XRECORD
5
10A1
102
{ACAD_REACTORS
330
10A0
102
}
330
10A0
100
AcDbXrecord
280
1
102
RTVSPropertyOp0
70
0
102
RTVSPropertyOp1
70
0
102
RTVSPropertyOp2
70
0
102
RTVSPropertyOp3
70
0
102
RTVSPropertyOp4
70
0
102
RTVSPropertyOp5
70
0
102
RTVSPropertyOp6
70
0
102
RTVSPropertyOp7
70
0
102
RTVSPropertyOp8
70
0
102
RTVSPropertyOp9
70
0
102
RTVSPropertyOp10
70
0
102
RTVSPropertyOp11
70
0
102
RTVSPropertyOp12
70
0
102
RTVSPropertyOp13
70
0
102
RTVSPropertyOp14
70
2
102
RTVSPropertyOp15
70
0
102
RTVSPropertyOp16
70
0
102
RTVSPropertyOp17
70
0
102
RTVSPropertyOp18
70
0
102
RTVSPropertyOp19
70
0
102
RTVSPropertyOp20
70
0
102
RTVSPropertyOp21
70
0
102
RTVSPropertyOp22
70
0
102
RTVSPropertyOp23
70
0
102
RTVSPropertyOp24
70
0
102
RTVSPropertyOp25
70
0
102
RTVSPropertyOp26
70
0
102
RTVSPropertyOp27
70
0
0
XRECORD
5
109B
102
{ACAD_REACTORS
330
109A
102
}
330
109A
100
AcDbXrecord
280
1
102
RTVSPropertyOp0
70
1
102
RTVSPropertyOp1
70
1
102
RTVSPropertyOp2
70
1
102
RTVSPropertyOp3
70
1
102
RTVSPropertyOp4
70
1
102
RTVSPropertyOp5
70
1
102
RTVSPropertyOp6
70
1
102
RTVSPropertyOp7
70
1
102
RTVSPropertyOp8
70
1
102
RTVSPropertyOp9
70
1
102
RTVSPropertyOp10
70
1
102
RTVSPropertyOp11
70
1
102
RTVSPropertyOp12
70
1
102
RTVSPropertyOp13
70
1
102
RTVSPropertyOp14
70
1
102
RTVSPropertyOp15
70
1
102
RTVSPropertyOp16
70
1
102
RTVSPropertyOp17
70
1
102
RTVSPropertyOp18
70
1
102
RTVSPropertyOp19
70
1
102
RTVSPropertyOp20
70
1
102
RTVSPropertyOp21
70
1
102
RTVSPropertyOp22
70
1
102
RTVSPropertyOp23
70
1
102
RTVSPropertyOp24
70
1
102
RTVSPropertyOp25
70
1
102
RTVSPropertyOp26
70
1
102
RTVSPropertyOp27
70
1
0
XRECORD
5
10A3
102
{ACAD_REACTORS
330
10A2
102
}
330
10A2
100
AcDbXrecord
280
1
102
RTVSPropertyOp0
70
0
102
RTVSPropertyOp1
70
0
102
RTVSPropertyOp2
70
0
102
RTVSPropertyOp3
70
0
102
RTVSPropertyOp4
70
0
102
RTVSPropertyOp5
70
0
102
RTVSPropertyOp6
70
0
102
RTVSPropertyOp7
70
0
102
RTVSPropertyOp8
70
0
102
RTVSPropertyOp9
70
0
102
RTVSPropertyOp10
70
0
102
RTVSPropertyOp11
70
0
102
RTVSPropertyOp12
70
0
102
RTVSPropertyOp13
70
0
102
RTVSPropertyOp14
70
2
102
RTVSPropertyOp15
70
0
102
RTVSPropertyOp16
70
0
102
RTVSPropertyOp17
70
0
102
RTVSPropertyOp18
70
0
102
RTVSPropertyOp19
70
0
102
RTVSPropertyOp20
70
0
102
RTVSPropertyOp21
70
0
102
RTVSPropertyOp22
70
0
102
RTVSPropertyOp23
70
0
102
RTVSPropertyOp24
70
0
102
RTVSPropertyOp25
70
0
102
RTVSPropertyOp26
70
0
102
RTVSPropertyOp27
70
0
0
XRECORD
5
1093
102
{ACAD_REACTORS
330
1092
102
}
330
1092
100
AcDbXrecord
280
1
102
RTVSPropertyOp0
70
1
102
RTVSPropertyOp1
70
1
102
RTVSPropertyOp2
70
1
102
RTVSPropertyOp3
70
1
102
RTVSPropertyOp4
70
1
102
RTVSPropertyOp5
70
1
102
RTVSPropertyOp6
70
1
102
RTVSPropertyOp7
70
1
102
RTVSPropertyOp8
70
1
102
RTVSPropertyOp9
70
1
102
RTVSPropertyOp10
70
1
102
RTVSPropertyOp11
70
1
102
RTVSPropertyOp12
70
1
102
RTVSPropertyOp13
70
1
102
RTVSPropertyOp14
70
1
102
RTVSPropertyOp15
70
1
102
RTVSPropertyOp16
70
1
102
RTVSPropertyOp17
70
1
102
RTVSPropertyOp18
70
1
102
RTVSPropertyOp19
70
1
102
RTVSPropertyOp20
70
1
102
RTVSPropertyOp21
70
1
102
RTVSPropertyOp22
70
1
102
RTVSPropertyOp23
70
1
102
RTVSPropertyOp24
70
1
102
RTVSPropertyOp25
70
1
102
RTVSPropertyOp26
70
1
102
RTVSPropertyOp27
70
1
0
XRECORD
5
1099
102
{ACAD_REACTORS
330
1098
102
}
330
1098
100
AcDbXrecord
280
1
102
RTVSPropertyOp0
70
1
102
RTVSPropertyOp1
70
1
102
RTVSPropertyOp2
70
1
102
RTVSPropertyOp3
70
1
102
RTVSPropertyOp4
70
1
102
RTVSPropertyOp5
70
1
102
RTVSPropertyOp6
70
1
102
RTVSPropertyOp7
70
1
102
RTVSPropertyOp8
70
1
102
RTVSPropertyOp9
70
1
102
RTVSPropertyOp10
70
1
102
RTVSPropertyOp11
70
1
102
RTVSPropertyOp12
70
1
102
RTVSPropertyOp13
70
1
102
RTVSPropertyOp14
70
1
102
RTVSPropertyOp15
70
1
102
RTVSPropertyOp16
70
1
102
RTVSPropertyOp17
70
1
102
RTVSPropertyOp18
70
1
102
RTVSPropertyOp19
70
1
102
RTVSPropertyOp20
70
1
102
RTVSPropertyOp21
70
1
102
RTVSPropertyOp22
70
1
102
RTVSPropertyOp23
70
1
102
RTVSPropertyOp24
70
1
102
RTVSPropertyOp25
70
1
102
RTVSPropertyOp26
70
1
102
RTVSPropertyOp27
70
1
0
ENDSEC
0
EOF
