0
SECTION
2
HEADER
9
$ACADVER
1
AC1015
9
$ACADMAINTVER
70
20
9
$DWGCODEPAGE
3
ANSI_1252
9
$INSBASE
10
0.0
20
0.0
30
0.0
9
$EXTMIN
10
-150.000000000000
20
-105.000000000000
30
0.0
9
$EXTMAX
10
150.000000000000
20
105.000000000000
30
0.0
9
$LIMMIN
10
0.0
20
0.0
9
$LIMMAX
10
12.0
20
9.0
9
$ORTHOMODE
70
0
9
$REGENMODE
70
1
9
$FILLMODE
70
1
9
$QTEXTMODE
70
0
9
$MIRRTEXT
70
1
9
$LTSCALE
40
1.0
9
$ATTMODE
70
1
9
$TEXTSIZE
40
0.2
9
$TRACEWID
40
0.05
9
$TEXTSTYLE
7
Standard
9
$CLAYER
8
0
9
$CELTYPE
6
ByLayer
9
$CECOLOR
62
256
9
$CELTSCALE
40
1.0
9
$DISPSILH
70
0
9
$DIMSCALE
40
1.0
9
$DIMASZ
40
2.5
9
$DIMEXO
40
0.625
9
$DIMDLI
40
0.38
9
$DIMRND
40
0.0
9
$DIMDLE
40
0.0
9
$DIMEXE
40
1.25
9
$DIMTP
40
0.0
9
$DIMTM
40
0.000000001
9
$DIMTXT
40
2.5
9
$DIMCEN
40
0.09
9
$DIMTSZ
40
0.0
9
$DIMTOL
70
1
9
$DIMLIM
70
0
9
$DIMTIH
70
0
9
$DIMTOH
70
0
9
$DIMSE1
70
0
9
$DIMSE2
70
0
9
$DIMTAD
70
1
9
$DIMZIN
70
0
9
$DIMBLK
1
VDDIM_DEFAULT
9
$DIMASO
70
1
9
$DIMSHO
70
1
9
$DIMPOST
1

9
$DIMAPOST
1

9
$DIMALT
70
0
9
$DIMALTD
70
2
9
$DIMALTF
40
25.4
9
$DIMLFAC
40
1.00000000000000
9
$DIMTOFL
70
0
9
$DIMTVP
40
0.0
9
$DIMTIX
70
0
9
$DIMSOXD
70
0
9
$DIMSAH
70
0
9
$DIMBLK1
1

9
$DIMBLK2
1

9
$DIMSTYLE
2
BEM-ISBE
9
$DIMCLRD
70
0
9
$DIMCLRE
70
0
9
$DIMCLRT
70
0
9
$DIMTFAC
40
0.5
9
$DIMGAP
40
0.625
9
$DIMJUST
70
0
9
$DIMSD1
70
0
9
$DIMSD2
70
0
9
$DIMTOLJ
70
1
9
$DIMTZIN
70
0
9
$DIMALTZ
70
0
9
$DIMALTTZ
70
0
9
$DIMUPT
70
0
9
$DIMDEC
70
3
9
$DIMTDEC
70
3
9
$DIMALTU
70
2
9
$DIMALTTD
70
2
9
$DIMTXSTY
7
Standard
9
$DIMAUNIT
70
0
9
$DIMADEC
70
3
9
$DIMALTRND
40
0.0
9
$DIMAZIN
70
0
9
$DIMDSEP
70
46
9
$DIMATFIT
70
3
9
$DIMFRAC
70
0
9
$DIMLDRBLK
1

9
$DIMLUNIT
70
2
9
$DIMLWD
70
-2
9
$DIMLWE
70
-2
9
$DIMTMOVE
70
0
9
$LUNITS
70
2
9
$LUPREC
70
4
9
$SKETCHINC
40
0.1
9
$FILLETRAD
40
0.5
9
$AUNITS
70
0
9
$AUPREC
70
0
9
$MENU
1
.
9
$ELEVATION
40
0.0
9
$PELEVATION
40
0.0
9
$THICKNESS
40
0.0
9
$LIMCHECK
70
0
9
$CHAMFERA
40
0.5
9
$CHAMFERB
40
0.5
9
$CHAMFERC
40
1.0
9
$CHAMFERD
40
0.0
9
$SKPOLY
70
0
9
$TDCREATE
40
0.0
9
$TDUCREATE
40
0.0
9
$TDUPDATE
40
0.0
9
$TDUUPDATE
40
0.0
9
$TDINDWG
40
0.0
9
$TDUSRTIMER
40
0.0
9
$USRTIMER
70
1
9
$ANGBASE
50
0.0
9
$ANGDIR
70
0
9
$PDMODE
70
0
9
$PDSIZE
40
0.0
9
$PLINEWID
40
0.0
9
$SPLFRAME
70
0
9
$SPLINETYPE
70
6
9
$SPLINESEGS
70
8
9
$HANDSEED
5
10AB
9
$SURFTAB1
70
6
9
$SURFTAB2
70
6
9
$SURFTYPE
70
6
9
$SURFU
70
6
9
$SURFV
70
6
9
$UCSBASE
2

9
$UCSNAME
2

9
$UCSORG
10
0.0
20
0.0
30
0.0
9
$UCSXDIR
10
1.0
20
0.0
30
0.0
9
$UCSYDIR
10
0.0
20
1.0
30
0.0
9
$UCSORTHOREF
2

9
$UCSORTHOVIEW
70
0
9
$UCSORGTOP
10
0.0
20
0.0
30
0.0
9
$UCSORGBOTTOM
10
0.0
20
0.0
30
0.0
9
$UCSORGLEFT
10
0.0
20
0.0
30
0.0
9
$UCSORGRIGHT
10
0.0
20
0.0
30
0.0
9
$UCSORGFRONT
10
0.0
20
0.0
30
0.0
9
$UCSORGBACK
10
0.0
20
0.0
30
0.0
9
$PUCSBASE
2

9
$PUCSNAME
2

9
$PUCSORG
10
0.0
20
0.0
30
0.0
9
$PUCSXDIR
10
1.0
20
0.0
30
0.0
9
$PUCSYDIR
10
0.0
20
1.0
30
0.0
9
$PUCSORTHOREF
2

9
$PUCSORTHOVIEW
70
0
9
$PUCSORGTOP
10
0.0
20
0.0
30
0.0
9
$PUCSORGBOTTOM
10
0.0
20
0.0
30
0.0
9
$PUCSORGLEFT
10
0.0
20
0.0
30
0.0
9
$PUCSORGRIGHT
10
0.0
20
0.0
30
0.0
9
$PUCSORGFRONT
10
0.0
20
0.0
30
0.0
9
$PUCSORGBACK
10
0.0
20
0.0
30
0.0
9
$USERI1
70
0
9
$USERI2
70
0
9
$USERI3
70
0
9
$USERI4
70
0
9
$USERI5
70
0
9
$USERR1
40
0.0
9
$USERR2
40
0.0
9
$USERR3
40
0.0
9
$USERR4
40
0.0
9
$USERR5
40
0.0
9
$WORLDVIEW
70
1
9
$SHADEDGE
70
3
9
$SHADEDIF
70
70
9
$TILEMODE
70
1
9
$MAXACTVP
70
64
9
$PINSBASE
10
0.0
20
0.0
30
0.0
9
$PLIMCHECK
70
0
9
$PEXTMIN
10
1.000000000000000E+20
20
1.000000000000000E+20
30
1.000000000000000E+20
9
$PEXTMAX
10
-1.000000000000000E+20
20
-1.000000000000000E+20
30
-1.000000000000000E+20
9
$PLIMMIN
10
0.0
20
0.0
9
$PLIMMAX
10
12.0
20
9.0
9
$UNITMODE
70
0
9
$VISRETAIN
70
1
9
$PLINEGEN
70
0
9
$PSLTSCALE
70
1
9
$TREEDEPTH
70
3020
9
$CMLSTYLE
2
Standard
9
$CMLJUST
70
0
9
$CMLSCALE
40
1.0
9
$PROXYGRAPHICS
70
1
9
$MEASUREMENT
70
0
9
$CELWEIGHT
370
-1
9
$ENDCAPS
280
0
9
$JOINSTYLE
280
0
9
$LWDISPLAY
290
0
9
$INSUNITS
70
4
9
$HYPERLINKBASE
1

9
$STYLESHEET
1

9
$XEDIT
290
1
9
$CEPSNTYPE
380
0
9
$PSTYLEMODE
290
0
9
$FINGERPRINTGUID
2
{FAEB1C30-E019-11D5-929B-00C0DF256EC4}
9
$VERSIONGUID
2
{04C5C4E4-4947-4D90-8812-D401569E61F7}
9
$EXTNAMES
290
1
9
$PSVPSCALE
40
0.0
9
$OLESTARTUP
290
0
0
ENDSEC
0
SECTION
2
CLASSES
0
CLASS
1
ACDBDICTIONARYWDFLT
2
AcDbDictionaryWithDefault
3
ObjectDBX Classes
90
0
280
0
281
0
0
CLASS
1
ACDBPLACEHOLDER
2
AcDbPlaceHolder
3
ObjectDBX Classes
90
0
280
0
281
0
0
CLASS
1
LAYOUT
2
AcDbLayout
3
ObjectDBX Classes
90
0
280
0
281
0
0
CLASS
1
MATERIAL
2
AcDbMaterial
3
ObjectDBX Classes
90
1153
280
0
281
0
0
CLASS
1
VISUALSTYLE
2
AcDbVisualStyle
3
ObjectDBX Classes
90
4095
280
0
281
0
0
CLASS
1
TABLESTYLE
2
AcDbTableStyle
3
ObjectDBX Classes
90
4095
280
0
281
0
0
CLASS
1
SCALE
2
AcDbScale
3
ObjectDBX Classes
90
1153
280
0
281
0
0
CLASS
1
MLEADERSTYLE
2
AcDbMLeaderStyle
3
ACDB_MLEADERSTYLE_CLASS
90
4095
280
0
281
0
0
CLASS
1
DICTIONARYVAR
2
AcDbDictionaryVar
3
ObjectDBX Classes
90
0
280
0
281
0
0
CLASS
1
CELLSTYLEMAP
2
AcDbCellStyleMap
3
ObjectDBX Classes
90
1152
280
0
281
0
0
ENDSEC
0
SECTION
2
TABLES
0
TABLE
2
VPORT
5
24A
330
0
100
AcDbSymbolTable
70
1
0
VPORT
5
26B
330
24A
100
AcDbSymbolTableRecord
100
AcDbViewportTableRecord
2
*Active
70
0
10
0.0
20
0.0
11
1.0
21
1.0
12
0.000000000000000
22
0.000000000000000
13
0.0
23
0.0
14
10.0
24
10.0
15
10.0
25
10.0
16
0.0
26
0.0
36
1.0
17
0.0
27
0.0
37
0.0
40
210.000000000000
41
1.42857142857143
42
1.0
43
0.0
44
0.0
50
0.0
51
0.0000000000007958
71
0
72
100
73
1
74
3
75
0
76
0
77
0
78
1
281
0
65
1
110
0.0
120
0.0
130
0.0
111
1.0
121
0.0
131
0.0
112
0.0
122
1.0
132
0.0
79
0
146
0.0
0
ENDTAB
0
TABLE
2
LTYPE
5
247
330
0
100
AcDbSymbolTable
70
25
0
LTYPE
5
256
330
247
100
AcDbSymbolTableRecord
100
AcDbLinetypeTableRecord
2
ByBlock
70
0
3

72
65
73
0
40
0.0
0
LTYPE
5
257
330
247
100
AcDbSymbolTableRecord
100
AcDbLinetypeTableRecord
2
ByLayer
70
0
3

72
65
73
0
40
0.0
0
LTYPE
5
258
330
247
100
AcDbSymbolTableRecord
100
AcDbLinetypeTableRecord
2
Continuous
70
0
3
Solid line
72
65
73
0
40
0.0
0
LTYPE
5
273
330
247
100
AcDbSymbolTableRecord
100
AcDbLinetypeTableRecord
2
CENTER
70
0
3
Center ____ _ ____ _ ____ _ ____ _ ____ _ ____
72
65
73
4
40
2.0
49
1.25
74
0
49
-0.25
74
0
49
0.25
74
0
49
-0.25
74
0
0
LTYPE
5
274
330
247
100
AcDbSymbolTableRecord
100
AcDbLinetypeTableRecord
2
DASHDOT
70
0
3
Dashdot __ . __ . __ . __ . __ . __ . __ . __
72
65
73
4
40
1.0
49
0.5
74
0
49
-0.25
74
0
49
0.0
74
0
49
-0.25
74
0
0
LTYPE
5
275
330
247
100
AcDbSymbolTableRecord
100
AcDbLinetypeTableRecord
2
DASHED
70
0
3
Dashed __ __ __ __ __ __ __ __ __ __ __ __ __ _
72
65
73
2
40
0.75
49
0.5
74
0
49
-0.25
74
0
0
LTYPE
5
276
330
247
100
AcDbSymbolTableRecord
100
AcDbLinetypeTableRecord
2
HIDDEN
70
0
3
Hidden __ __ __ __ __ __ __ __ __ __ __ __ __ __
72
65
73
2
40
0.375
49
0.25
74
0
49
-0.125
74
0
0
LTYPE
5
277
330
247
100
AcDbSymbolTableRecord
100
AcDbLinetypeTableRecord
2
HIDDEN2
70
0
3
Hidden2 _ _ _ _ _ _ _ _ _ _ _ _ _ _ _ _ _
72
65
73
2
40
0.1875
49
0.125
74
0
49
-0.0625
74
0
0
LTYPE
5
278
330
247
100
AcDbSymbolTableRecord
100
AcDbLinetypeTableRecord
2
BORDER
70
0
3
Border __ __ . __ __ . __ __ . __ __ . __ __ .
72
65
73
6
40
1.75
49
0.5
74
0
49
-0.25
74
0
49
0.5
74
0
49
-0.25
74
0
49
0.0
74
0
49
-0.25
74
0
0
LTYPE
5
279
330
247
100
AcDbSymbolTableRecord
100
AcDbLinetypeTableRecord
2
BORDER2
70
0
3
Border2 __.__.__.__.__.__.__.__.__.__.__.
72
65
73
6
40
0.875
49
0.25
74
0
49
-0.125
74
0
49
0.25
74
0
49
-0.125
74
0
49
0.0
74
0
49
-0.125
74
0
0
LTYPE
5
27A
330
247
100
AcDbSymbolTableRecord
100
AcDbLinetypeTableRecord
2
BORDERX2
70
0
3
Borderx2  ____  ____  .  ____  ____  .  ___
72
65
73
6
40
3.5
49
1.0
74
0
49
-0.5
74
0
49
1.0
74
0
49
-0.5
74
0
49
0.0
74
0
49
-0.5
74
0
0
LTYPE
5
27B
330
247
100
AcDbSymbolTableRecord
100
AcDbLinetypeTableRecord
2
CENTER2
70
0
3
Center2  ___ _ ___ _ ___ _ ___ _ ___ _ ___
72
65
73
4
40
1.125
49
0.75
74
0
49
-0.125
74
0
49
0.125
74
0
49
-0.125
74
0
0
LTYPE
5
27C
330
247
100
AcDbSymbolTableRecord
100
AcDbLinetypeTableRecord
2
CENTERX2
70
0
3
Centerx2  ________  __  ________  __  _____
72
65
73
4
40
4.0
49
2.5
74
0
49
-0.5
74
0
49
0.5
74
0
49
-0.5
74
0
0
LTYPE
5
27D
330
247
100
AcDbSymbolTableRecord
100
AcDbLinetypeTableRecord
2
DASHDOT2
70
0
3
Dashdot2  _._._._._._._._._._._._._._._.
72
65
73
4
40
0.5
49
0.25
74
0
49
-0.125
74
0
49
0.0
74
0
49
-0.125
74
0
0
LTYPE
5
27E
330
247
100
AcDbSymbolTableRecord
100
AcDbLinetypeTableRecord
2
DASHDOTX2
70
0
3
Dashdotx2 ____  .  ____  .  ____  .  ___
72
65
73
4
40
2.0
49
1.0
74
0
49
-0.5
74
0
49
0.0
74
0
49
-0.5
74
0
0
LTYPE
5
27F
330
247
100
AcDbSymbolTableRecord
100
AcDbLinetypeTableRecord
2
DASHED2
70
0
3
Dashed2 _ _ _ _ _ _ _ _ _ _ _ _ _ _ _ _ _
72
65
73
2
40
0.375
49
0.25
74
0
49
-0.125
74
0
0
LTYPE
5
280
330
247
100
AcDbSymbolTableRecord
100
AcDbLinetypeTableRecord
2
DASHEDX2
70
0
3
Dashedx2 ____  ____  ____  ____  ____  ___
72
65
73
2
40
1.5
49
1.0
74
0
49
-0.5
74
0
0
LTYPE
5
281
330
247
100
AcDbSymbolTableRecord
100
AcDbLinetypeTableRecord
2
DIVIDE
70
0
3
Divide ____ . . ____ . . ____ . . ____ . . ____
72
65
73
6
40
1.25
49
0.5
74
0
49
-0.25
74
0
49
0.0
74
0
49
-0.25
74
0
49
0.0
74
0
49
-0.25
74
0
0
LTYPE
5
282
330
247
100
AcDbSymbolTableRecord
100
AcDbLinetypeTableRecord
2
DIVIDE2
70
0
3
Divide2 __..__..__..__..__..__..__..__.._
72
65
73
6
40
0.625
49
0.25
74
0
49
-0.125
74
0
49
0.0
74
0
49
-0.125
74
0
49
0.0
74
0
49
-0.125
74
0
0
LTYPE
5
283
330
247
100
AcDbSymbolTableRecord
100
AcDbLinetypeTableRecord
2
DIVIDEX2
70
0
3
Dividex2 ________  .  .  ________  .  .  _
72
65
73
6
40
2.5
49
1.0
74
0
49
-0.5
74
0
49
0.0
74
0
49
-0.5
74
0
49
0.0
74
0
49
-0.5
74
0
0
LTYPE
5
284
330
247
100
AcDbSymbolTableRecord
100
AcDbLinetypeTableRecord
2
DOT
70
0
3
Dot . . . . . . . . . . . . . . . . . . . . . . . .
72
65
73
2
40
0.25
49
0.0
74
0
49
-0.25
74
0
0
LTYPE
5
285
330
247
100
AcDbSymbolTableRecord
100
AcDbLinetypeTableRecord
2
DOT2
70
0
3
Dot2 ........................................
72
65
73
2
40
0.125
49
0.0
74
0
49
-0.125
74
0
0
LTYPE
5
286
330
247
100
AcDbSymbolTableRecord
100
AcDbLinetypeTableRecord
2
DOTX2
70
0
3
Dotx2 .  .  .  .  .  .  .  .  .  .  .  .  .  .
72
65
73
2
40
0.5
49
0.0
74
0
49
-0.5
74
0
0
LTYPE
5
287
330
247
100
AcDbSymbolTableRecord
100
AcDbLinetypeTableRecord
2
HIDDENX2
70
0
3
Hiddenx2 ____ ____ ____ ____ ____ ____ ____
72
65
73
2
40
0.75
49
0.5
74
0
49
-0.25
74
0
0
LTYPE
5
288
330
247
100
AcDbSymbolTableRecord
100
AcDbLinetypeTableRecord
2
PHANTOM
70
0
3
Phantom ______  __  __  ______  __  __  ______
72
65
73
6
40
2.5
49
1.25
74
0
49
-0.25
74
0
49
0.25
74
0
49
-0.25
74
0
49
0.25
74
0
49
-0.25
74
0
0
LTYPE
5
289
330
247
100
AcDbSymbolTableRecord
100
AcDbLinetypeTableRecord
2
PHANTOM2
70
0
3
Phantom2 ___ _ _ ___ _ _ ___ _ _ ___ _ _
72
65
73
6
40
1.25
49
0.625
74
0
49
-0.125
74
0
49
0.125
74
0
49
-0.125
74
0
49
0.125
74
0
49
-0.125
74
0
0
LTYPE
5
28A
330
247
100
AcDbSymbolTableRecord
100
AcDbLinetypeTableRecord
2
PHANTOMX2
70
0
3
Phantomx2 ____________    ____    ____   _
72
65
73
6
40
5.0
49
2.5
74
0
49
-0.5
74
0
49
0.5
74
0
49
-0.5
74
0
49
0.5
74
0
49
-0.5
74
0
0
ENDTAB
0
TABLE
2
LAYER
5
244
330
0
100
AcDbSymbolTable
70
6
0
LAYER
5
252
330
244
100
AcDbSymbolTableRecord
100
AcDbLayerTableRecord
2
0
70
0
62
7
6
Continuous
370
0
390
251
0
LAYER
5
23F
330
244
100
AcDbSymbolTableRecord
100
AcDbLayerTableRecord
2
Bemassung
70
0
 62
   7
6
Continuous
370
0
390
251
0
LAYER
5
240
330
244
100
AcDbSymbolTableRecord
100
AcDbLayerTableRecord
2
Rahmen
70
0
 62
   7
6
Continuous
370
0
390
251
0
LAYER
5
241
330
244
100
AcDbSymbolTableRecord
100
AcDbLayerTableRecord
2
Geo
70
0
 62
   7
6
Continuous
370
0
390
251
0
LAYER
5
33A
330
244
100
AcDbSymbolTableRecord
100
AcDbLayerTableRecord
2
Defpoints
70
0
62
7
6
Continuous
290
0
370
-3
390
251
0
LAYER
5
57E
330
244
100
AcDbSymbolTableRecord
100
AcDbLayerTableRecord
2
Text
70
0
 62
   7
6
Continuous
370
0
390
251
1001
AcAecLayerStandard
1000

1000

0
ENDTAB
0
TABLE
2
STYLE
5
245
330
0
100
AcDbSymbolTable
70
2
0
STYLE
5
253
330
245
100
AcDbSymbolTableRecord
100
AcDbTextStyleTableRecord
2
Standard
70
0
40
0.0
41
1.0
50
0.0
71
0
42
0.2
3
Arial
4

1001
ACAD
1000
Arial
1071
0
0
STYLE
5
132
330
245
100
AcDbSymbolTableRecord
100
AcDbTextStyleTableRecord
2
Beschriftung
70
0
40
0.0
41
1.0
50
0.0
71
0
42
0.2
3
Arial
4

1001
ACAD
1000
Arial
1071
0
1001
AcadAnnotative
1000
AnnotativeData
1070
1
1070
1
0
ENDTAB
0
TABLE
2
VIEW
5
248
330
0
100
AcDbSymbolTable
70
0
0
ENDTAB
0
TABLE
2
UCS
5
249
330
0
100
AcDbSymbolTable
70
0
0
ENDTAB
0
TABLE
2
APPID
5
24B
330
0
100
AcDbSymbolTable
70
13
0
APPID
5
254
330
24B
100
AcDbSymbolTableRecord
100
AcDbRegAppTableRecord
2
ACAD
70
0
0
APPID
5
26C
330
24B
100
AcDbSymbolTableRecord
100
AcDbRegAppTableRecord
2
VD_INVISIBLE_NOT_FOR_READ
70
0
0
APPID
5
26D
330
24B
100
AcDbSymbolTableRecord
100
AcDbRegAppTableRecord
2
VD_TEMPHATCH
70
0
0
APPID
5
26E
330
24B
100
AcDbSymbolTableRecord
100
AcDbRegAppTableRecord
2
VDEXTRAPARAM
70
0
0
APPID
5
26F
330
24B
100
AcDbSymbolTableRecord
100
AcDbRegAppTableRecord
2
PE_URL
70
0
0
APPID
5
270
330
24B
100
AcDbSymbolTableRecord
100
AcDbRegAppTableRecord
2
VD_UNKNOWN
70
0
0
APPID
5
28F
330
24B
100
AcDbSymbolTableRecord
100
AcDbRegAppTableRecord
2
AcadAnnotative
70
0
0
APPID
5
290
330
24B
100
AcDbSymbolTableRecord
100
AcDbRegAppTableRecord
2
ACAD_DSTYLE_DIMJAG
70
0
0
APPID
5
291
330
24B
100
AcDbSymbolTableRecord
100
AcDbRegAppTableRecord
2
ACAD_DSTYLE_DIMTALN
70
0
0
APPID
5
293
330
24B
100
AcDbSymbolTableRecord
100
AcDbRegAppTableRecord
2
ACAD_PSEXT
70
0
0
APPID
5
42A
330
24B
100
AcDbSymbolTableRecord
100
AcDbRegAppTableRecord
2
ACAD_MLEADERVER
70
0
0
APPID
5
532
330
24B
100
AcDbSymbolTableRecord
100
AcDbRegAppTableRecord
2
ACAD_EXEMPT_FROM_CAD_STANDARDS
70
0
0
APPID
5
57F
330
24B
100
AcDbSymbolTableRecord
100
AcDbRegAppTableRecord
2
AcAecLayerStandard
70
0
0
ENDTAB
0
TABLE
2
DIMSTYLE
5
24C
330
0
100
AcDbSymbolTable
70
3
100
AcDbDimStyleTable
71
2
340
27
340
269
0
DIMSTYLE
105
269
330
24C
100
AcDbSymbolTableRecord
100
AcDbDimStyleTableRecord
2
Standard
70
0
172
1
174
1
288
1
340
253
342
23C
0
DIMSTYLE
105
137
330
24C
100
AcDbSymbolTableRecord
100
AcDbDimStyleTableRecord
2
Beschriftung
70
0
41
2.5
42
0.625
44
1.25
73
0
74
0
77
1
140
2.5
147
0.625
172
1
174
1
271
2
288
1
340
253
342
23C
1001
AcadAnnotative
1000
AnnotativeData
1070
1
1070
1
1001
ACAD_DSTYLE_DIMJAG
1070
388
1040
1.5
1001
ACAD_DSTYLE_DIMTALN
1070
392
1070
0
0
DIMSTYLE
105
27
102
{ACAD_REACTORS
330
F10012
330
F10017
330
F10008
330
F10003
330
F1000D
102
}
330
24C
100
AcDbSymbolTableRecord
100
AcDbDimStyleTableRecord
2
BEM-ISBE
70
0
41
2.5
42
0.625
44
1.25
48
0.000000001
71
1
73
0
74
0
77
1
140
2.5
144
1.00000000000000
146
0.5
147
0.625
171
 3
172
 1
179
 3
271
 3
272
 3
274
 3
340
253
342
23C
1001
ACAD_DSTYLE_DIMJAG
1070
388
1040
1.5
1001
ACAD_DSTYLE_DIMTALN
1070
392
1070
1
0
ENDTAB
0
TABLE
2
BLOCK_RECORD
5
243
330
0
100
AcDbSymbolTable
70
5
0
BLOCK_RECORD
5
261
330
243
100
AcDbSymbolTableRecord
100
AcDbBlockTableRecord
2
*Model_Space
340
FD0
0
BLOCK_RECORD
5
25D
330
243
100
AcDbSymbolTableRecord
100
AcDbBlockTableRecord
2
*Paper_Space
340
FD1
0
BLOCK_RECORD
5
265
330
243
100
AcDbSymbolTableRecord
100
AcDbBlockTableRecord
2
*Paper_Space0
340
0
0
BLOCK_RECORD
5
23C
330
243
100
AcDbSymbolTableRecord
100
AcDbBlockTableRecord
2
VDDIM_DEFAULT
340
0
102
{BLKREFS
102
}
0
BLOCK_RECORD
5
23E
330
243
100
AcDbSymbolTableRecord
100
AcDbBlockTableRecord
2
VDDIM_NONE
340
0
0
BLOCK_RECORD
5
F10011
330
243
100
AcDbSymbolTableRecord
100
AcDbBlockTableRecord
2
*D6
340
0
0
BLOCK_RECORD
5
F10016
330
243
100
AcDbSymbolTableRecord
100
AcDbBlockTableRecord
2
*D7
340
0
0
BLOCK_RECORD
5
F10007
330
243
100
AcDbSymbolTableRecord
100
AcDbBlockTableRecord
2
*D4
340
0
0
BLOCK_RECORD
5
F10002
330
243
100
AcDbSymbolTableRecord
100
AcDbBlockTableRecord
2
*D3
340
0
0
BLOCK_RECORD
5
F1000C
330
243
100
AcDbSymbolTableRecord
100
AcDbBlockTableRecord
2
*D5
340
0
0
ENDTAB
0
ENDSEC
0
SECTION
2
BLOCKS
0
BLOCK
5
262
330
261
100
AcDbEntity
8
0
100
AcDbBlockBegin
2
*Model_Space
70
0
10
0.0
20
0.0
30
0.0
3
*Model_Space
1

0
ENDBLK
5
263
330
261
100
AcDbEntity
8
0
100
AcDbBlockEnd
0
BLOCK
5
25E
330
25D
100
AcDbEntity
67
1
8
0
100
AcDbBlockBegin
2
*Paper_Space
70
0
10
0.0
20
0.0
30
0.0
3
*Paper_Space
1

0
ENDBLK
5
25F
330
25D
100
AcDbEntity
67
1
8
0
100
AcDbBlockEnd
0
BLOCK
5
266
330
265
100
AcDbEntity
8
0
100
AcDbBlockBegin
2
*Paper_Space0
70
0
10
0.0
20
0.0
30
0.0
3
*Paper_Space0
1

0
VIEWPORT
5
296
102
{ACAD_XDICTIONARY
360
58E
102
}
330
265
100
AcDbEntity
8
0
60
1
100
AcDbViewport
10
0.0
20
0.0
30
0.0
40
10.0
41
10.0
69
0
12
0.0
22
0.0
13
0.0
23
0.0
14
1.0
24
1.0
15
0.0
25
0.0
16
0.0
26
0.0
36
1.0
17
0.0
27
0.0
37
0.0
42
0.0
43
0.0
44
0.0
45
10.0
50
0.0
51
0.0000000000007958
72
100
90
163872
1

281
0
71
0
74
0
110
0.0
120
0.0
130
0.0
111
1.0
121
0.0
131
0.0
112
0.0
122
1.0
132
0.0
79
0
146
0.0
1001
VD_INVISIBLE_NOT_FOR_READ
1000
VD_INVISIBLE_NOT_FOR_READ
0
VIEWPORT
5
297
102
{ACAD_XDICTIONARY
360
590
102
}
330
265
100
AcDbEntity
8
0
60
1
100
AcDbViewport
10
0.0
20
0.0
30
0.0
40
10.0
41
10.0
69
0
12
0.0
22
0.0
13
0.0
23
0.0
14
1.0
24
1.0
15
0.0
25
0.0
16
0.0
26
0.0
36
1.0
17
0.0
27
0.0
37
0.0
42
0.0
43
0.0
44
0.0
45
10.0
50
0.0
51
0.0000000000007958
72
100
90
163872
1

281
0
71
0
74
0
110
0.0
120
0.0
130
0.0
111
1.0
121
0.0
131
0.0
112
0.0
122
1.0
132
0.0
79
0
146
0.0
1001
VD_INVISIBLE_NOT_FOR_READ
1000
VD_INVISIBLE_NOT_FOR_READ
0
ENDBLK
5
267
330
265
100
AcDbEntity
8
0
100
AcDbBlockEnd
0
BLOCK
5
28B
330
23C
100
AcDbEntity
8
0
100
AcDbBlockBegin
2
VDDIM_DEFAULT
70
0
10
0.0
20
0.0
30
0.0
3
VDDIM_DEFAULT
1

0
LWPOLYLINE
5
23D
330
23C
100
AcDbEntity
8
0
6
Continuous
62
0
100
AcDbPolyline
90
4
70
0
43
0.0
10
0.0
20
0.0
10
-1.0
20
-0.1665
10
-1.0
20
0.1665
10
0.0
20
0.0
1001
VDEXTRAPARAM
1071
1
1071
0
1071
0
1040
1.0
1000

1000

1040
0.0
1040
0.0
0
HATCH
5
292
330
23C
100
AcDbEntity
8
0
6
Continuous
62
0
100
AcDbHatch
10
0.0
20
0.0
30
0.0
210
0.0
220
0.0
230
1.0
2
SOLID
70
1
71
0
91
1
92
2
72
0
73
1
93
3
10
0.0
20
0.0
10
-1.0
20
-0.1665
10
-1.0
20
0.1665
97
0
75
0
76
1
98
1
10
0.0
20
0.0
1001
VDEXTRAPARAM
1071
1
1071
0
1071
0
1040
1.0
1000

1000

1040
0.0
1040
0.0
1001
VD_TEMPHATCH
1000
VD_TEMPHATCH
0
ENDBLK
5
28C
330
23C
100
AcDbEntity
8
0
100
AcDbBlockEnd
0
BLOCK
5
28D
330
23E
100
AcDbEntity
8
0
100
AcDbBlockBegin
2
VDDIM_NONE
70
0
10
0.0
20
0.0
30
0.0
3
VDDIM_NONE
1

0
ENDBLK
5
28E
330
23E
100
AcDbEntity
8
0
100
AcDbBlockEnd
  0
BLOCK
  5
F1001B
330
F10011
100
AcDbEntity
  8
0
100
AcDbBlockBegin
  2
*D6
 70
     1
 10
0.0
 20
0.0
 30
0.0
  3
*D6
  1

  0
LINE
  5
F1001C
330
F10011
100
AcDbEntity
  8
Bemassung
 62
     0
370
    -2
100
AcDbLine
10
-13.8555941023417
20
0.0173460537727550
30
0.000000000000000
11
-13.8555941023417
21
-7.98265394622725
31
0.000000000000000
  0
LINE
  5
F1001D
330
F10011
100
AcDbEntity
  8
Bemassung
 62
     0
370
    -2
100
AcDbLine
10
-38.8555941023417
20
-7.98265394622725
30
0.000000000000000
11
-38.8555941023417
21
32.0173460537728
31
0.000000000000000
  0
LINE
  5
F1001E
330
F10011
100
AcDbEntity
  8
Bemassung
 62
     0
370
    -2
100
AcDbLine
10
-13.8555941023417
20
-5.98265394622725
30
0.000000000000000
11
-38.8555941023417
21
-5.98265394622725
31
0.000000000000000
  0
INSERT
  5
F1001F
330
F10011
100
AcDbEntity
  8
Bemassung
 62
     0
370
    -2
100
AcDbBlockReference
  2
VDDIM_DEFAULT
10
-13.8555941023417
20
-5.98265394622725
30
0.000000000000000
 41
2.50000000000000
 42
2.50000000000000
 43
2.50000000000000
  0
INSERT
  5
F10020
330
F10011
100
AcDbEntity
  8
Bemassung
 62
     0
370
    -2
100
AcDbBlockReference
  2
VDDIM_DEFAULT
10
-38.8555941023417
20
-5.98265394622725
30
0.000000000000000
 41
2.50000000000000
 42
2.50000000000000
 43
2.50000000000000
 50
180.000000000000
  0
MTEXT
  5
F10021
330
F10011
100
AcDbEntity
  8
Bemassung
 62
     0
100
AcDbMText
10
-26.5915004336517
20
-5.31598727956058
30
0.000000000000000
 40
2.50000000000000
 41
0.0
 71
     8
 72
     1
  1
25
 11
1.00000000000000
 21
0.000000000000000
 31
0.0
 73
     1
 44
1.0
1001
ACAD
1000
MTEXTBEGIN
1070
73
1070
1
1070
44
1040
1.0
1070
74
1070
0
1000
MTEXTEND
  0
POINT
  5
F10022
330
F10011
100
AcDbEntity
  8
Bemassung
 62
     0
100
AcDbPoint
10
-13.8555941023417
20
0.0173460537727550
30
0.000000000000000
  0
POINT
  5
F10023
330
F10011
100
AcDbEntity
  8
Bemassung
 62
     0
100
AcDbPoint
10
-38.8555941023417
20
-7.98265394622725
30
0.000000000000000
  0
ENDBLK
  5
F10024
330
F10011
100
AcDbEntity
  8
0
100
AcDbBlockEnd
  0
BLOCK
  5
F10025
330
F10016
100
AcDbEntity
  8
0
100
AcDbBlockBegin
  2
*D7
 70
     1
 10
0.0
 20
0.0
 30
0.0
  3
*D7
  1

  0
LINE
  5
F10026
330
F10016
100
AcDbEntity
  8
Bemassung
 62
     0
370
    -2
100
AcDbLine
10
54.1444058976583
20
19.5173460537728
30
0.000000000000000
11
54.1444058976583
21
32.0173460537728
31
0.000000000000000
  0
LINE
  5
F10027
330
F10016
100
AcDbEntity
  8
Bemassung
 62
     0
370
    -2
100
AcDbLine
10
-38.8555941023417
20
-7.98265394622725
30
0.000000000000000
11
-38.8555941023417
21
32.0173460537728
31
0.000000000000000
  0
LINE
  5
F10028
330
F10016
100
AcDbEntity
  8
Bemassung
 62
     0
370
    -2
100
AcDbLine
10
54.1444058976583
20
30.0173460537728
30
0.000000000000000
11
-38.8555941023417
21
30.0173460537728
31
0.000000000000000
  0
INSERT
  5
F10029
330
F10016
100
AcDbEntity
  8
Bemassung
 62
     0
370
    -2
100
AcDbBlockReference
  2
VDDIM_DEFAULT
10
54.1444058976583
20
30.0173460537728
30
0.000000000000000
 41
2.50000000000000
 42
2.50000000000000
 43
2.50000000000000
  0
INSERT
  5
F1002A
330
F10016
100
AcDbEntity
  8
Bemassung
 62
     0
370
    -2
100
AcDbBlockReference
  2
VDDIM_DEFAULT
10
-38.8555941023417
20
30.0173460537728
30
0.000000000000000
 41
2.50000000000000
 42
2.50000000000000
 43
2.50000000000000
 50
180.000000000000
  0
MTEXT
  5
F1002B
330
F10016
100
AcDbEntity
  8
Bemassung
 62
     0
100
AcDbMText
10
7.64440589765829
20
30.6840127204394
30
0.000000000000000
 40
2.50000000000000
 41
0.0
 71
     8
 72
     1
  1
93
 11
1.00000000000000
 21
0.000000000000000
 31
0.0
 73
     1
 44
1.0
1001
ACAD
1000
MTEXTBEGIN
1070
73
1070
1
1070
44
1040
1.0
1070
74
1070
0
1000
MTEXTEND
  0
POINT
  5
F1002C
330
F10016
100
AcDbEntity
  8
Bemassung
 62
     0
100
AcDbPoint
10
54.1444058976583
20
19.5173460537728
30
0.000000000000000
  0
POINT
  5
F1002D
330
F10016
100
AcDbEntity
  8
Bemassung
 62
     0
100
AcDbPoint
10
-38.8555941023417
20
-7.98265394622725
30
0.000000000000000
  0
ENDBLK
  5
F1002E
330
F10016
100
AcDbEntity
  8
0
100
AcDbBlockEnd
  0
BLOCK
  5
F1002F
330
F10007
100
AcDbEntity
  8
0
100
AcDbBlockBegin
  2
*D4
 70
     1
 10
0.0
 20
0.0
 30
0.0
  3
*D4
  1

  0
LINE
  5
F10030
330
F10007
100
AcDbEntity
  8
Bemassung
 62
     0
370
    -2
100
AcDbLine
10
-35.9266619142072
20
17.0884138656382
30
0.000000000000000
11
-45.5271032090200
21
26.6888551604510
31
0.000000000000000
  0
INSERT
  5
F10031
330
F10007
100
AcDbEntity
  8
Bemassung
 62
     0
370
    -2
100
AcDbBlockReference
  2
VDDIM_DEFAULT
10
-35.9266619142072
20
17.0884138656382
30
0.000000000000000
 41
2.50000000000000
 42
2.50000000000000
 43
2.50000000000000
 50
315.000000000000
  0
MTEXT
  5
F10032
330
F10007
100
AcDbEntity
  8
Bemassung
 62
     0
100
AcDbMText
10
-42.9977297260726
20
24.1594816775037
30
0.000000000000000
 40
2.50000000000000
 41
0.0
 71
     8
 72
     1
  1
R10
 11
0.707106781186547
 21
-0.707106781186548
 31
0.0
 73
     1
 44
1.0
1001
ACAD
1000
MTEXTBEGIN
1070
73
1070
1
1070
44
1040
1.0
1070
74
1070
0
1000
MTEXTEND
  0
POINT
  5
F10033
330
F10007
100
AcDbEntity
  8
Bemassung
 62
     0
100
AcDbPoint
10
-35.9266619142072
20
17.0884138656382
30
0.000000000000000
  0
POINT
  5
F10034
330
F10007
100
AcDbEntity
  8
Bemassung
 62
     0
100
AcDbPoint
10
-28.8555941023417
20
10.0173460537728
30
0.000000000000000
  0
ENDBLK
  5
F10035
330
F10007
100
AcDbEntity
  8
0
100
AcDbBlockEnd
  0
BLOCK
  5
F10036
330
F10002
100
AcDbEntity
  8
0
100
AcDbBlockBegin
  2
*D3
 70
     1
 10
0.0
 20
0.0
 30
0.0
  3
*D3
  1

  0
LINE
  5
F10037
330
F10002
100
AcDbEntity
  8
Bemassung
 62
     0
370
    -2
100
AcDbLine
10
-28.8555941023417
20
0.0173460537727550
30
0.000000000000000
11
-50.8555941023417
21
0.0173460537727550
31
0.000000000000000
  0
LINE
  5
F10038
330
F10002
100
AcDbEntity
  8
Bemassung
 62
     0
370
    -2
100
AcDbLine
10
-28.8555941023417
20
20.0173460537728
30
0.000000000000000
11
-50.8555941023417
21
20.0173460537728
31
0.000000000000000
  0
LINE
  5
F10039
330
F10002
100
AcDbEntity
  8
Bemassung
 62
     0
370
    -2
100
AcDbLine
10
-48.8555941023417
20
0.0173460537727550
30
0.000000000000000
11
-48.8555941023417
21
20.0173460537728
31
0.000000000000000
  0
INSERT
  5
F1003A
330
F10002
100
AcDbEntity
  8
Bemassung
 62
     0
370
    -2
100
AcDbBlockReference
  2
VDDIM_DEFAULT
10
-48.8555941023417
20
0.0173460537727550
30
0.000000000000000
 41
2.50000000000000
 42
2.50000000000000
 43
2.50000000000000
 50
270.000000000000
  0
INSERT
  5
F1003B
330
F10002
100
AcDbEntity
  8
Bemassung
 62
     0
370
    -2
100
AcDbBlockReference
  2
VDDIM_DEFAULT
10
-48.8555941023417
20
20.0173460537728
30
0.000000000000000
 41
2.50000000000000
 42
2.50000000000000
 43
2.50000000000000
 50
90.0000000000000
  0
MTEXT
  5
F1003C
330
F10002
100
AcDbEntity
  8
Bemassung
 62
     0
100
AcDbMText
10
-49.5222607690084
20
10.0173460537728
30
0.000000000000000
 40
2.50000000000000
 41
0.0
 71
     8
 72
     1
  1
Ø20
 11
6.12323399573677e-17
 21
1.00000000000000
 31
0.0
 73
     1
 44
1.0
1001
ACAD
1000
MTEXTBEGIN
1070
73
1070
1
1070
44
1040
1.0
1070
74
1070
0
1000
MTEXTEND
  0
POINT
  5
F1003D
330
F10002
100
AcDbEntity
  8
Bemassung
 62
     0
100
AcDbPoint
10
-28.8555941023417
20
0.0173460537727550
30
0.000000000000000
  0
POINT
  5
F1003E
330
F10002
100
AcDbEntity
  8
Bemassung
 62
     0
100
AcDbPoint
10
-28.8555941023417
20
20.0173460537728
30
0.000000000000000
  0
ENDBLK
  5
F1003F
330
F10002
100
AcDbEntity
  8
0
100
AcDbBlockEnd
  0
BLOCK
  5
F10040
330
F1000C
100
AcDbEntity
  8
0
100
AcDbBlockBegin
  2
*D5
 70
     1
 10
0.0
 20
0.0
 30
0.0
  3
*D5
  1

  0
LINE
  5
F10041
330
F1000C
100
AcDbEntity
  8
Bemassung
 62
     0
370
    -2
100
AcDbLine
10
53.6444058976583
20
0.0173460537727550
30
0.000000000000000
11
66.1444058976583
21
0.0173460537727550
31
0.000000000000000
  0
LINE
  5
F10042
330
F1000C
100
AcDbEntity
  8
Bemassung
 62
     0
370
    -2
100
AcDbLine
10
53.6444058976583
20
20.0173460537728
30
0.000000000000000
11
66.1444058976583
21
20.0173460537728
31
0.000000000000000
  0
LINE
  5
F10043
330
F1000C
100
AcDbEntity
  8
Bemassung
 62
     0
370
    -2
100
AcDbLine
10
64.1444058976583
20
0.0173460537727550
30
0.000000000000000
11
64.1444058976583
21
20.0173460537728
31
0.000000000000000
  0
INSERT
  5
F10044
330
F1000C
100
AcDbEntity
  8
Bemassung
 62
     0
370
    -2
100
AcDbBlockReference
  2
VDDIM_DEFAULT
10
64.1444058976583
20
0.0173460537727550
30
0.000000000000000
 41
2.50000000000000
 42
2.50000000000000
 43
2.50000000000000
 50
270.000000000000
  0
INSERT
  5
F10045
330
F1000C
100
AcDbEntity
  8
Bemassung
 62
     0
370
    -2
100
AcDbBlockReference
  2
VDDIM_DEFAULT
10
64.1444058976583
20
20.0173460537728
30
0.000000000000000
 41
2.50000000000000
 42
2.50000000000000
 43
2.50000000000000
 50
90.0000000000000
  0
MTEXT
  5
F10046
330
F1000C
100
AcDbEntity
  8
Bemassung
 62
     0
100
AcDbMText
10
63.4777392309916
20
10.0173460537728
30
0.000000000000000
 40
2.50000000000000
 41
0.0
 71
     8
 72
     1
  1
Ø20h6
 11
6.12323399573677e-17
 21
1.00000000000000
 31
0.0
 73
     1
 44
1.0
  0
POINT
  5
F10047
330
F1000C
100
AcDbEntity
  8
Bemassung
 62
     0
100
AcDbPoint
10
53.6444058976583
20
0.0173460537727550
30
0.000000000000000
  0
POINT
  5
F10048
330
F1000C
100
AcDbEntity
  8
Bemassung
 62
     0
100
AcDbPoint
10
53.6444058976583
20
20.0173460537728
30
0.000000000000000
  0
ENDBLK
  5
F10049
330
F1000C
100
AcDbEntity
  8
0
100
AcDbBlockEnd
0
ENDSEC
0
SECTION
2
ENTITIES
  0
DIMENSION
  5
F10012
330
261
100
AcDbEntity
  8
Bemassung
100
AcDbDimension
  2
*D6
10
-38.8555941023417
20
-5.98265394622725
30
0.000000000000000
11
-26.5915004336517
21
-5.31598727956058
31
0.000000000000000
 70
32
 1
25
 71
     8
  3
BEM-ISBE
100
AcDbAlignedDimension
13
-13.8555941023417
23
0.0173460537727550
33
0.000000000000000
14
-38.8555941023417
24
-7.98265394622725
34
0.000000000000000
100
AcDbRotatedDimension
1001
ACAD
1000
DSTYLE
1002
{
1070
284
1070
8
1070
78
1070
8
1070
144
1040
1.00000000000000
1070
147
1040
0.625
1070
 72
1070
 0
1070
 71
1070
 0
1002
}
  0
DIMENSION
  5
F10017
330
261
100
AcDbEntity
  8
Bemassung
100
AcDbDimension
  2
*D7
10
-38.8555941023417
20
30.0173460537728
30
0.000000000000000
11
7.64440589765829
21
30.6840127204394
31
0.000000000000000
 70
32
 1
93
 71
     8
  3
BEM-ISBE
100
AcDbAlignedDimension
13
54.1444058976583
23
19.5173460537728
33
0.000000000000000
14
-38.8555941023417
24
-7.98265394622725
34
0.000000000000000
100
AcDbRotatedDimension
1001
ACAD
1000
DSTYLE
1002
{
1070
284
1070
8
1070
78
1070
8
1070
144
1040
1.00000000000000
1070
147
1040
0.625
1070
 72
1070
 0
1070
 71
1070
 0
1002
}
  0
DIMENSION
  5
F10008
330
261
100
AcDbEntity
  8
Bemassung
100
AcDbDimension
  2
*D4
10
-28.8555941023417
20
10.0173460537728
30
0.000000000000000
11
-42.9977297260726
21
24.1594816775037
31
0.000000000000000
 70
164
 1
R10
 71
     8
  3
BEM-ISBE
100
AcDbRadialDimension
15
-35.9266619142072
25
17.0884138656382
35
0.000000000000000
40
0.0
1001
ACAD
1000
DSTYLE
1002
{
1070
284
1070
8
1070
78
1070
8
1070
144
1040
1.00000000000000
1070
147
1040
0.625
1070
 72
1070
 0
1070
 71
1070
 0
1002
}
  0
DIMENSION
  5
F10003
330
261
100
AcDbEntity
  8
Bemassung
100
AcDbDimension
  2
*D3
10
-48.8555941023417
20
20.0173460537728
30
0.000000000000000
11
-49.5222607690084
21
10.0173460537728
31
0.000000000000000
 70
32
 1
Ø20
 71
     8
  3
BEM-ISBE
100
AcDbAlignedDimension
13
-28.8555941023417
23
0.0173460537727550
33
0.000000000000000
14
-28.8555941023417
24
20.0173460537728
34
0.000000000000000
50
90.0000000000000
100
AcDbRotatedDimension
1001
ACAD
1000
DSTYLE
1002
{
1070
284
1070
8
1070
78
1070
8
1070
144
1040
1.00000000000000
1070
147
1040
0.625
1070
 72
1070
 0
1070
 71
1070
 0
1002
}
  0
DIMENSION
  5
F1000D
330
261
100
AcDbEntity
  8
Bemassung
100
AcDbDimension
  2
*D5
10
64.1444058976583
20
20.0173460537728
30
0.000000000000000
11
63.4777392309916
21
10.0173460537728
31
0.000000000000000
 70
32
 1
Ø20h6
 71
     8
  3
BEM-ISBE
100
AcDbAlignedDimension
13
53.6444058976583
23
0.0173460537727550
33
0.000000000000000
14
53.6444058976583
24
20.0173460537728
34
0.000000000000000
50
90.0000000000000
100
AcDbRotatedDimension
1001
ACAD
1000
DSTYLE
1002
{
1070
284
1070
8
1070
78
1070
8
1070
144
1040
1.00000000000000
1070
147
1040
0.625
1070
 72
1070
 0
1070
 71
1070
 0
1002
}
  0
ARC
  5
F1004A
330
F1004B
100
AcDbEntity
8
Geo
100
AcDbCircle
10
-28.8555941023417
20
10.0173460537728
30
0.000000000000000
 40
10.0000000000000
100
AcDbArc
 50
90.0000000000000
 51
180.000000000000
  0
LINE
  5
F1004C
330
F1004D
100
AcDbEntity
8
Geo
100
AcDbLine
10
-28.8555941023417
20
20.0173460537728
30
0.000000000000000
11
-13.8555941023417
21
20.0173460537728
31
0.000000000000000
  0
LINE
  5
F1004E
330
F1004F
100
AcDbEntity
8
Geo
100
AcDbLine
10
-13.8555941023417
20
20.0173460537728
30
0.000000000000000
11
53.6444058976583
21
20.0173460537728
31
0.000000000000000
  0
LINE
  5
F10050
330
F10051
100
AcDbEntity
8
Geo
100
AcDbLine
10
53.6444058976583
20
20.0173460537728
30
0.000000000000000
11
54.1444058976583
21
19.5173460537728
31
0.000000000000000
  0
LINE
  5
F10052
330
F10053
100
AcDbEntity
8
Geo
100
AcDbLine
10
-37.3946436291162
20
15.2216359360998
30
0.000000000000000
11
-37.3555941023417
21
15.2835585806078
31
0.000000000000000
  0
LINE
  5
F10054
330
F10055
100
AcDbEntity
8
Geo
100
AcDbLine
10
-37.3555941023417
20
15.2835585806078
30
0.000000000000000
11
-37.2555941023417
21
15.4313078105146
31
0.000000000000000
  0
LINE
  5
F10056
330
F10057
100
AcDbEntity
8
Geo
100
AcDbLine
10
-37.2555941023417
20
15.4313078105146
30
0.000000000000000
11
-37.1555941023417
21
15.5687808116741
31
0.000000000000000
  0
LINE
  5
F10058
330
F10059
100
AcDbEntity
8
Geo
100
AcDbLine
10
-37.1555941023417
20
15.5687808116741
30
0.000000000000000
11
-37.0555941023417
21
15.6990445087755
31
0.000000000000000
  0
LINE
  5
F1005A
330
F1005B
100
AcDbEntity
8
Geo
100
AcDbLine
10
-37.0555941023417
20
15.6990445087755
30
0.000000000000000
11
-36.9555941023417
21
15.8237063193654
31
0.000000000000000
  0
LINE
  5
F1005C
330
F1005D
100
AcDbEntity
8
Geo
100
AcDbLine
10
-36.9555941023417
20
15.8237063193654
30
0.000000000000000
11
-36.8555941023417
21
15.9436566976347
31
0.000000000000000
  0
LINE
  5
F1005E
330
F1005F
100
AcDbEntity
8
Geo
100
AcDbLine
10
-36.8555941023417
20
15.9436566976347
30
0.000000000000000
11
-36.7555941023417
21
16.0595959108765
31
0.000000000000000
  0
LINE
  5
F10060
330
F10061
100
AcDbEntity
8
Geo
100
AcDbLine
10
-36.7555941023417
20
16.0595959108765
30
0.000000000000000
11
-36.6555941023417
21
16.1719205164682
31
0.000000000000000
  0
LINE
  5
F10062
330
F10063
100
AcDbEntity
8
Geo
100
AcDbLine
10
-36.6555941023417
20
16.1719205164682
30
0.000000000000000
11
-36.5555941023417
21
16.2809860438621
31
0.000000000000000
  0
LINE
  5
F10064
330
F10065
100
AcDbEntity
8
Geo
100
AcDbLine
10
-36.5555941023417
20
16.2809860438621
30
0.000000000000000
11
-36.4555941023417
21
16.3870639057612
31
0.000000000000000
  0
LINE
  5
F10066
330
F10067
100
AcDbEntity
8
Geo
100
AcDbLine
10
-36.4555941023417
20
16.3870639057612
30
0.000000000000000
11
-36.3555941023417
21
16.4903673055754
31
0.000000000000000
  0
LINE
  5
F10068
330
F10069
100
AcDbEntity
8
Geo
100
AcDbLine
10
-36.3555941023417
20
16.4903673055754
30
0.000000000000000
11
-36.2555941023417
21
16.5911265629916
31
0.000000000000000
  0
LINE
  5
F1006A
330
F1006B
100
AcDbEntity
8
Geo
100
AcDbLine
10
-36.2555941023417
20
16.5911265629916
30
0.000000000000000
11
-36.1555941023417
21
16.6894889847805
31
0.000000000000000
  0
LINE
  5
F1006C
330
F1006D
100
AcDbEntity
8
Geo
100
AcDbLine
10
-36.1555941023417
20
16.6894889847805
30
0.000000000000000
11
-36.0555941023417
21
16.7855338786642
31
0.000000000000000
  0
LINE
  5
F1006E
330
F1006F
100
AcDbEntity
8
Geo
100
AcDbLine
10
-36.0555941023417
20
16.7855338786642
30
0.000000000000000
11
-35.9555941023417
21
16.8794112011300
31
0.000000000000000
  0
LINE
  5
F10070
330
F10071
100
AcDbEntity
8
Geo
100
AcDbLine
10
-35.9555941023417
20
16.8794112011300
30
0.000000000000000
11
-35.8555941023417
21
16.9711783384471
31
0.000000000000000
  0
LINE
  5
F10072
330
F10073
100
AcDbEntity
8
Geo
100
AcDbLine
10
-35.8555941023417
20
16.9711783384471
30
0.000000000000000
11
-35.7555941023417
21
17.0601267777897
31
0.000000000000000
  0
LINE
  5
F10074
330
F10075
100
AcDbEntity
8
Geo
100
AcDbLine
10
-35.7555941023417
20
17.0601267777897
30
0.000000000000000
11
-35.6555941023417
21
17.1460613446639
31
0.000000000000000
  0
LINE
  5
F10076
330
F10077
100
AcDbEntity
8
Geo
100
AcDbLine
10
-35.6555941023417
20
17.1460613446639
30
0.000000000000000
11
-35.5555941023417
21
17.2290825271367
31
0.000000000000000
  0
LINE
  5
F10078
330
F10079
100
AcDbEntity
8
Geo
100
AcDbLine
10
-35.5555941023417
20
17.2290825271367
30
0.000000000000000
11
-35.4555941023417
21
17.3092829182418
31
0.000000000000000
  0
LINE
  5
F1007A
330
F1007B
100
AcDbEntity
8
Geo
100
AcDbLine
10
-35.4555941023417
20
17.3092829182418
30
0.000000000000000
11
-35.3555941023417
21
17.3867480567469
31
0.000000000000000
  0
LINE
  5
F1007C
330
F1007D
100
AcDbEntity
8
Geo
100
AcDbLine
10
-35.3555941023417
20
17.3867480567469
30
0.000000000000000
11
-35.2555941023417
21
17.4615571575464
31
0.000000000000000
  0
LINE
  5
F1007E
330
F1007F
100
AcDbEntity
8
Geo
100
AcDbLine
10
-35.2555941023417
20
17.4615571575464
30
0.000000000000000
11
-35.1555941023417
21
17.5337837488764
31
0.000000000000000
  0
LINE
  5
F10080
330
F10081
100
AcDbEntity
8
Geo
100
AcDbLine
10
-35.1555941023417
20
17.5337837488764
30
0.000000000000000
11
-35.0555941023417
21
17.6034962304721
31
0.000000000000000
  0
LINE
  5
F10082
330
F10083
100
AcDbEntity
8
Geo
100
AcDbLine
10
-35.0555941023417
20
17.6034962304721
30
0.000000000000000
11
-34.9555941023417
21
17.6707583643234
31
0.000000000000000
  0
LINE
  5
F10084
330
F10085
100
AcDbEntity
8
Geo
100
AcDbLine
10
-34.9555941023417
20
17.6707583643234
30
0.000000000000000
11
-34.8555941023417
21
17.7356297077071
31
0.000000000000000
  0
LINE
  5
F10086
330
F10087
100
AcDbEntity
8
Geo
100
AcDbLine
10
-34.8555941023417
20
17.7356297077071
30
0.000000000000000
11
-34.7555941023417
21
17.7981659965751
31
0.000000000000000
  0
LINE
  5
F10088
330
F10089
100
AcDbEntity
8
Geo
100
AcDbLine
10
-34.7555941023417
20
17.7981659965751
30
0.000000000000000
11
-34.6555941023417
21
17.8584194860699
31
0.000000000000000
  0
LINE
  5
F1008A
330
F1008B
100
AcDbEntity
8
Geo
100
AcDbLine
10
-34.6555941023417
20
17.8584194860699
30
0.000000000000000
11
-34.5555941023417
21
17.9164392538790
31
0.000000000000000
  0
LINE
  5
F1008C
330
F1008D
100
AcDbEntity
8
Geo
100
AcDbLine
10
-34.5555941023417
20
17.9164392538790
30
0.000000000000000
11
-34.4555941023417
21
17.9722714712569
31
0.000000000000000
  0
LINE
  5
F1008E
330
F1008F
100
AcDbEntity
8
Geo
100
AcDbLine
10
-34.4555941023417
20
17.9722714712569
30
0.000000000000000
11
-34.3555941023417
21
18.0259596458215
31
0.000000000000000
  0
LINE
  5
F10090
330
F10091
100
AcDbEntity
8
Geo
100
AcDbLine
10
-34.3555941023417
20
18.0259596458215
30
0.000000000000000
11
-34.2555941023417
21
18.0775448396281
31
0.000000000000000
  0
LINE
  5
F10092
330
F10093
100
AcDbEntity
8
Geo
100
AcDbLine
10
-34.2555941023417
20
18.0775448396281
30
0.000000000000000
11
-34.1555941023417
21
18.1270658655218
31
0.000000000000000
  0
LINE
  5
F10094
330
F10095
100
AcDbEntity
8
Geo
100
AcDbLine
10
-34.1555941023417
20
18.1270658655218
30
0.000000000000000
11
-34.0555941023417
21
18.1745594643480
31
0.000000000000000
  0
LINE
  5
F10096
330
F10097
100
AcDbEntity
8
Geo
100
AcDbLine
10
-34.0555941023417
20
18.1745594643480
30
0.000000000000000
11
-33.9555941023417
21
18.2200604652447
31
0.000000000000000
  0
LINE
  5
F10098
330
F10099
100
AcDbEntity
8
Geo
100
AcDbLine
10
-33.9555941023417
20
18.2200604652447
30
0.000000000000000
11
-33.8555941023417
21
18.2636019309443
31
0.000000000000000
  0
LINE
  5
F1009A
330
F1009B
100
AcDbEntity
8
Geo
100
AcDbLine
10
-33.8555941023417
20
18.2636019309443
30
0.000000000000000
11
-33.7555941023417
21
18.3052152897544
31
0.000000000000000
  0
LINE
  5
F1009C
330
F1009D
100
AcDbEntity
8
Geo
100
AcDbLine
10
-33.7555941023417
20
18.3052152897544
30
0.000000000000000
11
-33.6555941023417
21
18.3449304556742
31
0.000000000000000
  0
LINE
  5
F1009E
330
F1009F
100
AcDbEntity
8
Geo
100
AcDbLine
10
-33.6555941023417
20
18.3449304556742
30
0.000000000000000
11
-33.5555941023417
21
18.3827759379184
31
0.000000000000000
  0
LINE
  5
F100A0
330
F100A1
100
AcDbEntity
8
Geo
100
AcDbLine
10
-33.5555941023417
20
18.3827759379184
30
0.000000000000000
11
-33.4555941023417
21
18.4187789409602
31
0.000000000000000
  0
LINE
  5
F100A2
330
F100A3
100
AcDbEntity
8
Geo
100
AcDbLine
10
-33.4555941023417
20
18.4187789409602
30
0.000000000000000
11
-33.3555941023417
21
18.4529654560712
31
0.000000000000000
  0
LINE
  5
F100A4
330
F100A5
100
AcDbEntity
8
Geo
100
AcDbLine
10
-33.3555941023417
20
18.4529654560712
30
0.000000000000000
11
-33.2555941023417
21
18.4853603452203
31
0.000000000000000
  0
LINE
  5
F100A6
330
F100A7
100
AcDbEntity
8
Geo
100
AcDbLine
10
-33.2555941023417
20
18.4853603452203
30
0.000000000000000
11
-33.1555941023417
21
18.5159874180873
31
0.000000000000000
  0
LINE
  5
F100A8
330
F100A9
100
AcDbEntity
8
Geo
100
AcDbLine
10
-33.1555941023417
20
18.5159874180873
30
0.000000000000000
11
-33.0555941023417
21
18.5448695028665
31
0.000000000000000
  0
LINE
  5
F100AA
330
F100AB
100
AcDbEntity
8
Geo
100
AcDbLine
10
-33.0555941023417
20
18.5448695028665
30
0.000000000000000
11
-32.9555941023417
21
18.5720285114524
31
0.000000000000000
  0
LINE
  5
F100AC
330
F100AD
100
AcDbEntity
8
Geo
100
AcDbLine
10
-32.9555941023417
20
18.5720285114524
30
0.000000000000000
11
-32.8555941023417
21
18.5974854995382
31
0.000000000000000
  0
LINE
  5
F100AE
330
F100AF
100
AcDbEntity
8
Geo
100
AcDbLine
10
-32.8555941023417
20
18.5974854995382
30
0.000000000000000
11
-32.7555941023417
21
18.6212607220974
31
0.000000000000000
  0
LINE
  5
F100B0
330
F100B1
100
AcDbEntity
8
Geo
100
AcDbLine
10
-32.7555941023417
20
18.6212607220974
30
0.000000000000000
11
-32.6555941023417
21
18.6433736846678
31
0.000000000000000
  0
LINE
  5
F100B2
330
F100B3
100
AcDbEntity
8
Geo
100
AcDbLine
10
-32.6555941023417
20
18.6433736846678
30
0.000000000000000
11
-32.5555941023417
21
18.6638431908146
31
0.000000000000000
  0
LINE
  5
F100B4
330
F100B5
100
AcDbEntity
8
Geo
100
AcDbLine
10
-32.5555941023417
20
18.6638431908146
30
0.000000000000000
11
-32.4555941023417
21
18.6826873861074
31
0.000000000000000
  0
LINE
  5
F100B6
330
F100B7
100
AcDbEntity
8
Geo
100
AcDbLine
10
-32.4555941023417
20
18.6826873861074
30
0.000000000000000
11
-32.3555941023417
21
18.6999237989133
31
0.000000000000000
  0
LINE
  5
F100B8
330
F100B9
100
AcDbEntity
8
Geo
100
AcDbLine
10
-32.3555941023417
20
18.6999237989133
30
0.000000000000000
11
-32.2555941023417
21
18.7155693782774
31
0.000000000000000
  0
LINE
  5
F100BA
330
F100BB
100
AcDbEntity
8
Geo
100
AcDbLine
10
-32.2555941023417
20
18.7155693782774
30
0.000000000000000
11
-32.1555941023417
21
18.7296405291337
31
0.000000000000000
  0
LINE
  5
F100BC
330
F100BD
100
AcDbEntity
8
Geo
100
AcDbLine
10
-32.1555941023417
20
18.7296405291337
30
0.000000000000000
11
-32.0555941023417
21
18.7421531450672
31
0.000000000000000
  0
LINE
  5
F100BE
330
F100BF
100
AcDbEntity
8
Geo
100
AcDbLine
10
-32.0555941023417
20
18.7421531450672
30
0.000000000000000
11
-31.9555941023417
21
18.7531226388250
31
0.000000000000000
  0
LINE
  5
F100C0
330
F100C1
100
AcDbEntity
8
Geo
100
AcDbLine
10
-31.9555941023417
20
18.7531226388250
30
0.000000000000000
11
-31.8555941023417
21
18.7625639707568
31
0.000000000000000
  0
LINE
  5
F100C2
330
F100C3
100
AcDbEntity
8
Geo
100
AcDbLine
10
-31.8555941023417
20
18.7625639707568
30
0.000000000000000
11
-31.7555941023417
21
18.7704916753470
31
0.000000000000000
  0
LINE
  5
F100C4
330
F100C5
100
AcDbEntity
8
Geo
100
AcDbLine
10
-31.7555941023417
20
18.7704916753470
30
0.000000000000000
11
-31.6555941023417
21
18.7769198859850
31
0.000000000000000
  0
LINE
  5
F100C6
330
F100C7
100
AcDbEntity
8
Geo
100
AcDbLine
10
-31.6555941023417
20
18.7769198859850
30
0.000000000000000
11
-31.5555941023417
21
18.7818623581102
31
0.000000000000000
  0
LINE
  5
F100C8
330
F100C9
100
AcDbEntity
8
Geo
100
AcDbLine
10
-31.5555941023417
20
18.7818623581102
30
0.000000000000000
11
-31.4555941023417
21
18.7853324908501
31
0.000000000000000
  0
LINE
  5
F100CA
330
F100CB
100
AcDbEntity
8
Geo
100
AcDbLine
10
-31.4555941023417
20
18.7853324908501
30
0.000000000000000
11
-31.3555941023417
21
18.7873433472648
31
0.000000000000000
  0
LINE
  5
F100CC
330
F100CD
100
AcDbEntity
8
Geo
100
AcDbLine
10
-31.3555941023417
20
18.7873433472648
30
0.000000000000000
11
-31.2555941023417
21
18.7879076732985
31
0.000000000000000
  0
LINE
  5
F100CE
330
F100CF
100
AcDbEntity
8
Geo
100
AcDbLine
10
-31.2555941023417
20
18.7879076732985
30
0.000000000000000
11
-31.1555941023417
21
18.7870379155291
31
0.000000000000000
  0
LINE
  5
F100D0
330
F100D1
100
AcDbEntity
8
Geo
100
AcDbLine
10
-31.1555941023417
20
18.7870379155291
30
0.000000000000000
11
-31.0555941023417
21
18.7847462378011
31
0.000000000000000
  0
LINE
  5
F100D2
330
F100D3
100
AcDbEntity
8
Geo
100
AcDbLine
10
-31.0555941023417
20
18.7847462378011
30
0.000000000000000
11
-30.9555941023417
21
18.7810445368187
31
0.000000000000000
  0
LINE
  5
F100D4
330
F100D5
100
AcDbEntity
8
Geo
100
AcDbLine
10
-30.9555941023417
20
18.7810445368187
30
0.000000000000000
11
-30.8555941023417
21
18.7759444567685
31
0.000000000000000
  0
LINE
  5
F100D6
330
F100D7
100
AcDbEntity
8
Geo
100
AcDbLine
10
-30.8555941023417
20
18.7759444567685
30
0.000000000000000
11
-30.7555941023417
21
18.7694574030377
31
0.000000000000000
  0
LINE
  5
F100D8
330
F100D9
100
AcDbEntity
8
Geo
100
AcDbLine
10
-30.7555941023417
20
18.7694574030377
30
0.000000000000000
11
-30.6555941023417
21
18.7615945550857
31
0.000000000000000
  0
LINE
  5
F100DA
330
F100DB
100
AcDbEntity
8
Geo
100
AcDbLine
10
-30.6555941023417
20
18.7615945550857
30
0.000000000000000
11
-30.5555941023417
21
18.7523668785241
31
0.000000000000000
  0
LINE
  5
F100DC
330
F100DD
100
AcDbEntity
8
Geo
100
AcDbLine
10
-30.5555941023417
20
18.7523668785241
30
0.000000000000000
11
-30.4555941023417
21
18.7417851364537
31
0.000000000000000
  0
LINE
  5
F100DE
330
F100DF
100
AcDbEntity
8
Geo
100
AcDbLine
10
-30.4555941023417
20
18.7417851364537
30
0.000000000000000
11
-30.3555941023417
21
18.7298599001056
31
0.000000000000000
  0
LINE
  5
F100E0
330
F100E1
100
AcDbEntity
8
Geo
100
AcDbLine
10
-30.3555941023417
20
18.7298599001056
30
0.000000000000000
11
-30.2555941023417
21
18.7166015588269
31
0.000000000000000
  0
LINE
  5
F100E2
330
F100E3
100
AcDbEntity
8
Geo
100
AcDbLine
10
-30.2555941023417
20
18.7166015588269
30
0.000000000000000
11
-30.1555941023417
21
18.7020203294506
31
0.000000000000000
  0
LINE
  5
F100E4
330
F100E5
100
AcDbEntity
8
Geo
100
AcDbLine
10
-30.1555941023417
20
18.7020203294506
30
0.000000000000000
11
-30.0555941023417
21
18.6861262650836
31
0.000000000000000
  0
LINE
  5
F100E6
330
F100E7
100
AcDbEntity
8
Geo
100
AcDbLine
10
-30.0555941023417
20
18.6861262650836
30
0.000000000000000
11
-29.9555941023417
21
18.6689292633467
31
0.000000000000000
  0
LINE
  5
F100E8
330
F100E9
100
AcDbEntity
8
Geo
100
AcDbLine
10
-29.9555941023417
20
18.6689292633467
30
0.000000000000000
11
-29.8555941023417
21
18.6504390740961
31
0.000000000000000
  0
LINE
  5
F100EA
330
F100EB
100
AcDbEntity
8
Geo
100
AcDbLine
10
-29.8555941023417
20
18.6504390740961
30
0.000000000000000
11
-29.7555941023417
21
18.6306653066524
31
0.000000000000000
  0
LINE
  5
F100EC
330
F100ED
100
AcDbEntity
8
Geo
100
AcDbLine
10
-29.7555941023417
20
18.6306653066524
30
0.000000000000000
11
-29.6555941023417
21
18.6096174365639
31
0.000000000000000
  0
LINE
  5
F100EE
330
F100EF
100
AcDbEntity
8
Geo
100
AcDbLine
10
-29.6555941023417
20
18.6096174365639
30
0.000000000000000
11
-29.5555941023417
21
18.5873048119264
31
0.000000000000000
  0
LINE
  5
F100F0
330
F100F1
100
AcDbEntity
8
Geo
100
AcDbLine
10
-29.5555941023417
20
18.5873048119264
30
0.000000000000000
11
-29.4555941023417
21
18.5637366592802
31
0.000000000000000
  0
LINE
  5
F100F2
330
F100F3
100
AcDbEntity
8
Geo
100
AcDbLine
10
-29.4555941023417
20
18.5637366592802
30
0.000000000000000
11
-29.3555941023417
21
18.5389220891038
31
0.000000000000000
  0
LINE
  5
F100F4
330
F100F5
100
AcDbEntity
8
Geo
100
AcDbLine
10
-29.3555941023417
20
18.5389220891038
30
0.000000000000000
11
-29.2555941023417
21
18.5128701009220
31
0.000000000000000
  0
LINE
  5
F100F6
330
F100F7
100
AcDbEntity
8
Geo
100
AcDbLine
10
-29.2555941023417
20
18.5128701009220
30
0.000000000000000
11
-29.1555941023417
21
18.4855895880436
31
0.000000000000000
  0
LINE
  5
F100F8
330
F100F9
100
AcDbEntity
8
Geo
100
AcDbLine
10
-29.1555941023417
20
18.4855895880436
30
0.000000000000000
11
-29.0555941023417
21
18.4570893419442
31
0.000000000000000
  0
LINE
  5
F100FA
330
F100FB
100
AcDbEntity
8
Geo
100
AcDbLine
10
-29.0555941023417
20
18.4570893419442
30
0.000000000000000
11
-28.9555941023417
21
18.4273780563052
31
0.000000000000000
  0
LINE
  5
F100FC
330
F100FD
100
AcDbEntity
8
Geo
100
AcDbLine
10
-28.9555941023417
20
18.4273780563052
30
0.000000000000000
11
-28.8555941023417
21
18.3964643307227
31
0.000000000000000
  0
LINE
  5
F100FE
330
F100FF
100
AcDbEntity
8
Geo
100
AcDbLine
10
-28.8555941023417
20
18.3964643307227
30
0.000000000000000
11
-28.7555941023417
21
18.3648127523506
31
0.000000000000000
  0
LINE
  5
F10100
330
F10101
100
AcDbEntity
8
Geo
100
AcDbLine
10
-28.7555941023417
20
18.3648127523506
30
0.000000000000000
11
-28.6555941023417
21
18.3328829258614
31
0.000000000000000
  0
LINE
  5
F10102
330
F10103
100
AcDbEntity
8
Geo
100
AcDbLine
10
-28.6555941023417
20
18.3328829258614
30
0.000000000000000
11
-28.5555941023417
21
18.3006759155799
31
0.000000000000000
  0
LINE
  5
F10104
330
F10105
100
AcDbEntity
8
Geo
100
AcDbLine
10
-28.5555941023417
20
18.3006759155799
30
0.000000000000000
11
-28.4555941023417
21
18.2681927950699
31
0.000000000000000
  0
LINE
  5
F10106
330
F10107
100
AcDbEntity
8
Geo
100
AcDbLine
10
-28.4555941023417
20
18.2681927950699
30
0.000000000000000
11
-28.3555941023417
21
18.2354346470991
31
0.000000000000000
  0
LINE
  5
F10108
330
F10109
100
AcDbEntity
8
Geo
100
AcDbLine
10
-28.3555941023417
20
18.2354346470991
30
0.000000000000000
11
-28.2555941023417
21
18.2024025636028
31
0.000000000000000
  0
LINE
  5
F1010A
330
F1010B
100
AcDbEntity
8
Geo
100
AcDbLine
10
-28.2555941023417
20
18.2024025636028
30
0.000000000000000
11
-28.1555941023417
21
18.1690976456475
31
0.000000000000000
  0
LINE
  5
F1010C
330
F1010D
100
AcDbEntity
8
Geo
100
AcDbLine
10
-28.1555941023417
20
18.1690976456475
30
0.000000000000000
11
-28.0555941023417
21
18.1355210033938
31
0.000000000000000
  0
LINE
  5
F1010E
330
F1010F
100
AcDbEntity
8
Geo
100
AcDbLine
10
-28.0555941023417
20
18.1355210033938
30
0.000000000000000
11
-27.9555941023417
21
18.1016737560602
31
0.000000000000000
  0
LINE
  5
F10110
330
F10111
100
AcDbEntity
8
Geo
100
AcDbLine
10
-27.9555941023417
20
18.1016737560602
30
0.000000000000000
11
-27.8555941023417
21
18.0675570318850
31
0.000000000000000
  0
LINE
  5
F10112
330
F10113
100
AcDbEntity
8
Geo
100
AcDbLine
10
-27.8555941023417
20
18.0675570318850
30
0.000000000000000
11
-27.7555941023417
21
18.0331719680893
31
0.000000000000000
  0
LINE
  5
F10114
330
F10115
100
AcDbEntity
8
Geo
100
AcDbLine
10
-27.7555941023417
20
18.0331719680893
30
0.000000000000000
11
-27.6555941023417
21
17.9985197108387
31
0.000000000000000
  0
LINE
  5
F10116
330
F10117
100
AcDbEntity
8
Geo
100
AcDbLine
10
-27.6555941023417
20
17.9985197108387
30
0.000000000000000
11
-27.5555941023417
21
17.9636014152052
31
0.000000000000000
  0
LINE
  5
F10118
330
F10119
100
AcDbEntity
8
Geo
100
AcDbLine
10
-27.5555941023417
20
17.9636014152052
30
0.000000000000000
11
-27.4555941023417
21
17.9284182451287
31
0.000000000000000
  0
LINE
  5
F1011A
330
F1011B
100
AcDbEntity
8
Geo
100
AcDbLine
10
-27.4555941023417
20
17.9284182451287
30
0.000000000000000
11
-27.3555941023417
21
17.8929713733783
31
0.000000000000000
  0
LINE
  5
F1011C
330
F1011D
100
AcDbEntity
8
Geo
100
AcDbLine
10
-27.3555941023417
20
17.8929713733783
30
0.000000000000000
11
-27.2555941023417
21
17.8572619815132
31
0.000000000000000
  0
LINE
  5
F1011E
330
F1011F
100
AcDbEntity
8
Geo
100
AcDbLine
10
-27.2555941023417
20
17.8572619815132
30
0.000000000000000
11
-27.1555941023417
21
17.8212912598430
31
0.000000000000000
  0
LINE
  5
F10120
330
F10121
100
AcDbEntity
8
Geo
100
AcDbLine
10
-27.1555941023417
20
17.8212912598430
30
0.000000000000000
11
-27.0555941023417
21
17.7850604073886
31
0.000000000000000
  0
LINE
  5
F10122
330
F10123
100
AcDbEntity
8
Geo
100
AcDbLine
10
-27.0555941023417
20
17.7850604073886
30
0.000000000000000
11
-26.9555941023417
21
17.7485706318416
31
0.000000000000000
  0
LINE
  5
F10124
330
F10125
100
AcDbEntity
8
Geo
100
AcDbLine
10
-26.9555941023417
20
17.7485706318416
30
0.000000000000000
11
-26.8555941023417
21
17.7118231495246
31
0.000000000000000
  0
LINE
  5
F10126
330
F10127
100
AcDbEntity
8
Geo
100
AcDbLine
10
-26.8555941023417
20
17.7118231495246
30
0.000000000000000
11
-26.7555941023417
21
17.6748191853501
31
0.000000000000000
  0
LINE
  5
F10128
330
F10129
100
AcDbEntity
8
Geo
100
AcDbLine
10
-26.7555941023417
20
17.6748191853501
30
0.000000000000000
11
-26.6555941023417
21
17.6375599727803
31
0.000000000000000
  0
LINE
  5
F1012A
330
F1012B
100
AcDbEntity
8
Geo
100
AcDbLine
10
-26.6555941023417
20
17.6375599727803
30
0.000000000000000
11
-26.5555941023417
21
17.6000467537854
31
0.000000000000000
  0
LINE
  5
F1012C
330
F1012D
100
AcDbEntity
8
Geo
100
AcDbLine
10
-26.5555941023417
20
17.6000467537854
30
0.000000000000000
11
-26.4555941023417
21
17.5622807788026
31
0.000000000000000
  0
LINE
  5
F1012E
330
F1012F
100
AcDbEntity
8
Geo
100
AcDbLine
10
-26.4555941023417
20
17.5622807788026
30
0.000000000000000
11
-26.3555941023417
21
17.5242633066943
31
0.000000000000000
  0
LINE
  5
F10130
330
F10131
100
AcDbEntity
8
Geo
100
AcDbLine
10
-26.3555941023417
20
17.5242633066943
30
0.000000000000000
11
-26.2555941023417
21
17.4859956047059
31
0.000000000000000
  0
LINE
  5
F10132
330
F10133
100
AcDbEntity
8
Geo
100
AcDbLine
10
-26.2555941023417
20
17.4859956047059
30
0.000000000000000
11
-26.1555941023417
21
17.4474789484240
31
0.000000000000000
  0
LINE
  5
F10134
330
F10135
100
AcDbEntity
8
Geo
100
AcDbLine
10
-26.1555941023417
20
17.4474789484240
30
0.000000000000000
11
-26.0555941023417
21
17.4087146217337
31
0.000000000000000
  0
LINE
  5
F10136
330
F10137
100
AcDbEntity
8
Geo
100
AcDbLine
10
-26.0555941023417
20
17.4087146217337
30
0.000000000000000
11
-25.9555941023417
21
17.3697039167754
31
0.000000000000000
  0
LINE
  5
F10138
330
F10139
100
AcDbEntity
8
Geo
100
AcDbLine
10
-25.9555941023417
20
17.3697039167754
30
0.000000000000000
11
-25.8555941023417
21
17.3304481339025
31
0.000000000000000
  0
LINE
  5
F1013A
330
F1013B
100
AcDbEntity
8
Geo
100
AcDbLine
10
-25.8555941023417
20
17.3304481339025
30
0.000000000000000
11
-25.7555941023417
21
17.2909485816374
31
0.000000000000000
  0
LINE
  5
F1013C
330
F1013D
100
AcDbEntity
8
Geo
100
AcDbLine
10
-25.7555941023417
20
17.2909485816374
30
0.000000000000000
11
-25.6555941023417
21
17.2512065766282
31
0.000000000000000
  0
LINE
  5
F1013E
330
F1013F
100
AcDbEntity
8
Geo
100
AcDbLine
10
-25.6555941023417
20
17.2512065766282
30
0.000000000000000
11
-25.5555941023417
21
17.2112234436047
31
0.000000000000000
  0
LINE
  5
F10140
330
F10141
100
AcDbEntity
8
Geo
100
AcDbLine
10
-25.5555941023417
20
17.2112234436047
30
0.000000000000000
11
-25.4555941023417
21
17.1710005153343
31
0.000000000000000
  0
LINE
  5
F10142
330
F10143
100
AcDbEntity
8
Geo
100
AcDbLine
10
-25.4555941023417
20
17.1710005153343
30
0.000000000000000
11
-25.3555941023417
21
17.1305391325775
31
0.000000000000000
  0
LINE
  5
F10144
330
F10145
100
AcDbEntity
8
Geo
100
AcDbLine
10
-25.3555941023417
20
17.1305391325775
30
0.000000000000000
11
-25.2555941023417
21
17.0898406440434
31
0.000000000000000
  0
LINE
  5
F10146
330
F10147
100
AcDbEntity
8
Geo
100
AcDbLine
10
-25.2555941023417
20
17.0898406440434
30
0.000000000000000
11
-25.1555941023417
21
17.0489064063445
31
0.000000000000000
  0
LINE
  5
F10148
330
F10149
100
AcDbEntity
8
Geo
100
AcDbLine
10
-25.1555941023417
20
17.0489064063445
30
0.000000000000000
11
-25.0555941023417
21
17.0077377839516
31
0.000000000000000
  0
LINE
  5
F1014A
330
F1014B
100
AcDbEntity
8
Geo
100
AcDbLine
10
-25.0555941023417
20
17.0077377839516
30
0.000000000000000
11
-24.9555941023417
21
16.9663361491483
31
0.000000000000000
  0
LINE
  5
F1014C
330
F1014D
100
AcDbEntity
8
Geo
100
AcDbLine
10
-24.9555941023417
20
16.9663361491483
30
0.000000000000000
11
-24.8555941023417
21
16.9247028819852
31
0.000000000000000
  0
LINE
  5
F1014E
330
F1014F
100
AcDbEntity
8
Geo
100
AcDbLine
10
-24.8555941023417
20
16.9247028819852
30
0.000000000000000
11
-24.7555941023417
21
16.8828393702341
31
0.000000000000000
  0
LINE
  5
F10150
330
F10151
100
AcDbEntity
8
Geo
100
AcDbLine
10
-24.7555941023417
20
16.8828393702341
30
0.000000000000000
11
-24.6555941023417
21
16.8407470093414
31
0.000000000000000
  0
LINE
  5
F10152
330
F10153
100
AcDbEntity
8
Geo
100
AcDbLine
10
-24.6555941023417
20
16.8407470093414
30
0.000000000000000
11
-24.5555941023417
21
16.7984272023820
31
0.000000000000000
  0
LINE
  5
F10154
330
F10155
100
AcDbEntity
8
Geo
100
AcDbLine
10
-24.5555941023417
20
16.7984272023820
30
0.000000000000000
11
-24.4555941023417
21
16.7558813600123
31
0.000000000000000
  0
LINE
  5
F10156
330
F10157
100
AcDbEntity
8
Geo
100
AcDbLine
10
-24.4555941023417
20
16.7558813600123
30
0.000000000000000
11
-24.3555941023417
21
16.7131109004229
31
0.000000000000000
  0
LINE
  5
F10158
330
F10159
100
AcDbEntity
8
Geo
100
AcDbLine
10
-24.3555941023417
20
16.7131109004229
30
0.000000000000000
11
-24.2555941023417
21
16.6701172492919
31
0.000000000000000
  0
LINE
  5
F1015A
330
F1015B
100
AcDbEntity
8
Geo
100
AcDbLine
10
-24.2555941023417
20
16.6701172492919
30
0.000000000000000
11
-24.1555941023417
21
16.6269018397371
31
0.000000000000000
  0
LINE
  5
F1015C
330
F1015D
100
AcDbEntity
8
Geo
100
AcDbLine
10
-24.1555941023417
20
16.6269018397371
30
0.000000000000000
11
-24.0555941023418
21
16.5834661122681
31
0.000000000000000
  0
LINE
  5
F1015E
330
F1015F
100
AcDbEntity
8
Geo
100
AcDbLine
10
-24.0555941023418
20
16.5834661122681
30
0.000000000000000
11
-23.9555941023417
21
16.5398115147384
31
0.000000000000000
  0
LINE
  5
F10160
330
F10161
100
AcDbEntity
8
Geo
100
AcDbLine
10
-23.9555941023417
20
16.5398115147384
30
0.000000000000000
11
-23.8555941023417
21
16.4959395022973
31
0.000000000000000
  0
LINE
  5
F10162
330
F10163
100
AcDbEntity
8
Geo
100
AcDbLine
10
-23.8555941023417
20
16.4959395022973
30
0.000000000000000
11
-23.7555941023417
21
16.4518515373412
31
0.000000000000000
  0
LINE
  5
F10164
330
F10165
100
AcDbEntity
8
Geo
100
AcDbLine
10
-23.7555941023417
20
16.4518515373412
30
0.000000000000000
11
-23.6555941023418
21
16.4075490894646
31
0.000000000000000
  0
LINE
  5
F10166
330
F10167
100
AcDbEntity
8
Geo
100
AcDbLine
10
-23.6555941023418
20
16.4075490894646
30
0.000000000000000
11
-23.5555941023418
21
16.3630336354120
31
0.000000000000000
  0
LINE
  5
F10168
330
F10169
100
AcDbEntity
8
Geo
100
AcDbLine
10
-23.5555941023418
20
16.3630336354120
30
0.000000000000000
11
-23.4555941023417
21
16.3183066590275
31
0.000000000000000
  0
LINE
  5
F1016A
330
F1016B
100
AcDbEntity
8
Geo
100
AcDbLine
10
-23.4555941023417
20
16.3183066590275
30
0.000000000000000
11
-23.3555941023418
21
16.2733696512062
31
0.000000000000000
  0
LINE
  5
F1016C
330
F1016D
100
AcDbEntity
8
Geo
100
AcDbLine
10
-23.3555941023418
20
16.2733696512062
30
0.000000000000000
11
-23.2555941023418
21
16.2282241098443
31
0.000000000000000
  0
LINE
  5
F1016E
330
F1016F
100
AcDbEntity
8
Geo
100
AcDbLine
10
-23.2555941023418
20
16.2282241098443
30
0.000000000000000
11
-23.1555941023418
21
16.1828715397889
31
0.000000000000000
  0
LINE
  5
F10170
330
F10171
100
AcDbEntity
8
Geo
100
AcDbLine
10
-23.1555941023418
20
16.1828715397889
30
0.000000000000000
11
-23.0555941023418
21
16.1373134527882
31
0.000000000000000
  0
LINE
  5
F10172
330
F10173
100
AcDbEntity
8
Geo
100
AcDbLine
10
-23.0555941023418
20
16.1373134527882
30
0.000000000000000
11
-22.9555941023418
21
16.0915513674409
31
0.000000000000000
  0
LINE
  5
F10174
330
F10175
100
AcDbEntity
8
Geo
100
AcDbLine
10
-22.9555941023418
20
16.0915513674409
30
0.000000000000000
11
-22.8555941023418
21
16.0455868091455
31
0.000000000000000
  0
LINE
  5
F10176
330
F10177
100
AcDbEntity
8
Geo
100
AcDbLine
10
-22.8555941023418
20
16.0455868091455
30
0.000000000000000
11
-22.7555941023418
21
15.9994213100498
31
0.000000000000000
  0
LINE
  5
F10178
330
F10179
100
AcDbEntity
8
Geo
100
AcDbLine
10
-22.7555941023418
20
15.9994213100498
30
0.000000000000000
11
-22.6555941023418
21
15.9530564089995
31
0.000000000000000
  0
LINE
  5
F1017A
330
F1017B
100
AcDbEntity
8
Geo
100
AcDbLine
10
-22.6555941023418
20
15.9530564089995
30
0.000000000000000
11
-22.5555941023418
21
15.9064936514869
31
0.000000000000000
  0
LINE
  5
F1017C
330
F1017D
100
AcDbEntity
8
Geo
100
AcDbLine
10
-22.5555941023418
20
15.9064936514869
30
0.000000000000000
11
-22.4555941023417
21
15.8597345895997
31
0.000000000000000
  0
LINE
  5
F1017E
330
F1017F
100
AcDbEntity
8
Geo
100
AcDbLine
10
-22.4555941023417
20
15.8597345895997
30
0.000000000000000
11
-22.3555941023417
21
15.8127807819689
31
0.000000000000000
  0
LINE
  5
F10180
330
F10181
100
AcDbEntity
8
Geo
100
AcDbLine
10
-22.3555941023417
20
15.8127807819689
30
0.000000000000000
11
-22.2555941023417
21
15.7656337937171
31
0.000000000000000
  0
LINE
  5
F10182
330
F10183
100
AcDbEntity
8
Geo
100
AcDbLine
10
-22.2555941023417
20
15.7656337937171
30
0.000000000000000
11
-22.1555941023417
21
15.7182951964063
31
0.000000000000000
  0
LINE
  5
F10184
330
F10185
100
AcDbEntity
8
Geo
100
AcDbLine
10
-22.1555941023417
20
15.7182951964063
30
0.000000000000000
11
-22.0555941023417
21
15.6707665679852
31
0.000000000000000
  0
LINE
  5
F10186
330
F10187
100
AcDbEntity
8
Geo
100
AcDbLine
10
-22.0555941023417
20
15.6707665679852
30
0.000000000000000
11
-21.9555941023417
21
15.6230494927371
31
0.000000000000000
  0
LINE
  5
F10188
330
F10189
100
AcDbEntity
8
Geo
100
AcDbLine
10
-21.9555941023417
20
15.6230494927371
30
0.000000000000000
11
-21.8555941023417
21
15.5751455612268
31
0.000000000000000
  0
LINE
  5
F1018A
330
F1018B
100
AcDbEntity
8
Geo
100
AcDbLine
10
-21.8555941023417
20
15.5751455612268
30
0.000000000000000
11
-21.7555941023417
21
15.5270563702474
31
0.000000000000000
  0
LINE
  5
F1018C
330
F1018D
100
AcDbEntity
8
Geo
100
AcDbLine
10
-21.7555941023417
20
15.5270563702474
30
0.000000000000000
11
-21.6555941023417
21
15.4787835227677
31
0.000000000000000
  0
LINE
  5
F1018E
330
F1018F
100
AcDbEntity
8
Geo
100
AcDbLine
10
-21.6555941023417
20
15.4787835227677
30
0.000000000000000
11
-21.5555941023417
21
15.4303286278781
31
0.000000000000000
  0
LINE
  5
F10190
330
F10191
100
AcDbEntity
8
Geo
100
AcDbLine
10
-21.5555941023417
20
15.4303286278781
30
0.000000000000000
11
-21.4555941023417
21
15.3816933007372
31
0.000000000000000
  0
LINE
  5
F10192
330
F10193
100
AcDbEntity
8
Geo
100
AcDbLine
10
-21.4555941023417
20
15.3816933007372
30
0.000000000000000
11
-21.3555941023417
21
15.3328791625180
31
0.000000000000000
  0
LINE
  5
F10194
330
F10195
100
AcDbEntity
8
Geo
100
AcDbLine
10
-21.3555941023417
20
15.3328791625180
30
0.000000000000000
11
-21.2555941023417
21
15.2838878403541
31
0.000000000000000
  0
LINE
  5
F10196
330
F10197
100
AcDbEntity
8
Geo
100
AcDbLine
10
-21.2555941023417
20
15.2838878403541
30
0.000000000000000
11
-21.1555941023417
21
15.2347209672850
31
0.000000000000000
  0
LINE
  5
F10198
330
F10199
100
AcDbEntity
8
Geo
100
AcDbLine
10
-21.1555941023417
20
15.2347209672850
30
0.000000000000000
11
-21.0555941023417
21
15.1853801822018
31
0.000000000000000
  0
LINE
  5
F1019A
330
F1019B
100
AcDbEntity
8
Geo
100
AcDbLine
10
-21.0555941023417
20
15.1853801822018
30
0.000000000000000
11
-20.9555941023417
21
15.1358671297929
31
0.000000000000000
  0
LINE
  5
F1019C
330
F1019D
100
AcDbEntity
8
Geo
100
AcDbLine
10
-20.9555941023417
20
15.1358671297929
30
0.000000000000000
11
-20.8555941023417
21
15.0861834604887
31
0.000000000000000
  0
LINE
  5
F1019E
330
F1019F
100
AcDbEntity
8
Geo
100
AcDbLine
10
-20.8555941023417
20
15.0861834604887
30
0.000000000000000
11
-20.7555941023417
21
15.0363308304069
31
0.000000000000000
  0
LINE
  5
F101A0
330
F101A1
100
AcDbEntity
8
Geo
100
AcDbLine
10
-20.7555941023417
20
15.0363308304069
30
0.000000000000000
11
-20.6555941023417
21
14.9863109012974
31
0.000000000000000
  0
LINE
  5
F101A2
330
F101A3
100
AcDbEntity
8
Geo
100
AcDbLine
10
-20.6555941023417
20
14.9863109012974
30
0.000000000000000
11
-20.5555941023417
21
14.9361253404863
31
0.000000000000000
  0
LINE
  5
F101A4
330
F101A5
100
AcDbEntity
8
Geo
100
AcDbLine
10
-20.5555941023417
20
14.9361253404863
30
0.000000000000000
11
-20.4555941023417
21
14.8857758208211
31
0.000000000000000
  0
LINE
  5
F101A6
330
F101A7
100
AcDbEntity
8
Geo
100
AcDbLine
10
-20.4555941023417
20
14.8857758208211
30
0.000000000000000
11
-20.3555941023417
21
14.8352640206144
31
0.000000000000000
  0
LINE
  5
F101A8
330
F101A9
100
AcDbEntity
8
Geo
100
AcDbLine
10
-20.3555941023417
20
14.8352640206144
30
0.000000000000000
11
-20.2555941023417
21
14.7845916235883
31
0.000000000000000
  0
LINE
  5
F101AA
330
F101AB
100
AcDbEntity
8
Geo
100
AcDbLine
10
-20.2555941023417
20
14.7845916235883
30
0.000000000000000
11
-20.1555941023417
21
14.7337603188180
31
0.000000000000000
  0
LINE
  5
F101AC
330
F101AD
100
AcDbEntity
8
Geo
100
AcDbLine
10
-20.1555941023417
20
14.7337603188180
30
0.000000000000000
11
-20.0555941023417
21
14.6827718006755
31
0.000000000000000
  0
LINE
  5
F101AE
330
F101AF
100
AcDbEntity
8
Geo
100
AcDbLine
10
-20.0555941023417
20
14.6827718006755
30
0.000000000000000
11
-19.9555941023417
21
14.6316277687734
31
0.000000000000000
  0
LINE
  5
F101B0
330
F101B1
100
AcDbEntity
8
Geo
100
AcDbLine
10
-19.9555941023417
20
14.6316277687734
30
0.000000000000000
11
-19.8555941023417
21
14.5803299279081
31
0.000000000000000
  0
LINE
  5
F101B2
330
F101B3
100
AcDbEntity
8
Geo
100
AcDbLine
10
-19.8555941023417
20
14.5803299279081
30
0.000000000000000
11
-19.7555941023417
21
14.5288799880028
31
0.000000000000000
  0
LINE
  5
F101B4
330
F101B5
100
AcDbEntity
8
Geo
100
AcDbLine
10
-19.7555941023417
20
14.5288799880028
30
0.000000000000000
11
-19.6555941023417
21
14.4772796640507
31
0.000000000000000
  0
LINE
  5
F101B6
330
F101B7
100
AcDbEntity
8
Geo
100
AcDbLine
10
-19.6555941023417
20
14.4772796640507
30
0.000000000000000
11
-19.5555941023417
21
14.4255306760580
31
0.000000000000000
  0
LINE
  5
F101B8
330
F101B9
100
AcDbEntity
8
Geo
100
AcDbLine
10
-19.5555941023417
20
14.4255306760580
30
0.000000000000000
11
-19.4555941023417
21
14.3736347489860
31
0.000000000000000
  0
LINE
  5
F101BA
330
F101BB
100
AcDbEntity
8
Geo
100
AcDbLine
10
-19.4555941023417
20
14.3736347489860
30
0.000000000000000
11
-19.3555941023417
21
14.3215936126942
31
0.000000000000000
  0
LINE
  5
F101BC
330
F101BD
100
AcDbEntity
8
Geo
100
AcDbLine
10
-19.3555941023417
20
14.3215936126942
30
0.000000000000000
11
-19.2555941023417
21
14.2694090018823
31
0.000000000000000
  0
LINE
  5
F101BE
330
F101BF
100
AcDbEntity
8
Geo
100
AcDbLine
10
-19.2555941023417
20
14.2694090018823
30
0.000000000000000
11
-19.1555941023417
21
14.2170826560325
31
0.000000000000000
  0
LINE
  5
F101C0
330
F101C1
100
AcDbEntity
8
Geo
100
AcDbLine
10
-19.1555941023417
20
14.2170826560325
30
0.000000000000000
11
-19.0555941023417
21
14.1646163193515
31
0.000000000000000
  0
LINE
  5
F101C2
330
F101C3
100
AcDbEntity
8
Geo
100
AcDbLine
10
-19.0555941023417
20
14.1646163193515
30
0.000000000000000
11
-18.9555941023417
21
14.1120117407123
31
0.000000000000000
  0
LINE
  5
F101C4
330
F101C5
100
AcDbEntity
8
Geo
100
AcDbLine
10
-37.4555941023417
20
11.6743771550342
30
0.000000000000000
11
-37.4555941023417
21
10.2208897093223
31
0.000000000000000
  0
LINE
  5
F101C6
330
F101C7
100
AcDbEntity
8
Geo
100
AcDbLine
10
-37.4555941023417
20
10.2208897093223
30
0.000000000000000
11
-37.3555941023417
21
9.88694044727708
31
0.000000000000000
  0
LINE
  5
F101C8
330
F101C9
100
AcDbEntity
8
Geo
100
AcDbLine
10
-37.3555941023417
20
9.88694044727708
30
0.000000000000000
11
-37.2555941023417
21
9.65815516227286
31
0.000000000000000
  0
LINE
  5
F101CA
330
F101CB
100
AcDbEntity
8
Geo
100
AcDbLine
10
-37.2555941023417
20
9.65815516227286
30
0.000000000000000
11
-37.1555941023417
21
9.47737186108882
31
0.000000000000000
  0
LINE
  5
F101CC
330
F101CD
100
AcDbEntity
8
Geo
100
AcDbLine
10
-37.1555941023417
20
9.47737186108882
30
0.000000000000000
11
-37.0555941023417
21
9.32575176054924
31
0.000000000000000
  0
LINE
  5
F101CE
330
F101CF
100
AcDbEntity
8
Geo
100
AcDbLine
10
-37.0555941023417
20
9.32575176054924
30
0.000000000000000
11
-36.9555941023417
21
9.19504412251731
31
0.000000000000000
  0
LINE
  5
F101D0
330
F101D1
100
AcDbEntity
8
Geo
100
AcDbLine
10
-36.9555941023417
20
9.19504412251731
30
0.000000000000000
11
-36.8555941023417
21
9.07988023975700
31
0.000000000000000
  0
LINE
  5
F101D2
330
F101D3
100
AcDbEntity
8
Geo
100
AcDbLine
10
-36.8555941023417
20
9.07988023975700
30
0.000000000000000
11
-36.7555941023417
21
8.97753036610052
31
0.000000000000000
  0
LINE
  5
F101D4
330
F101D5
100
AcDbEntity
8
Geo
100
AcDbLine
10
-36.7555941023417
20
8.97753036610052
30
0.000000000000000
11
-36.6555941023417
21
8.88543917459199
31
0.000000000000000
  0
LINE
  5
F101D6
330
F101D7
100
AcDbEntity
8
Geo
100
AcDbLine
10
-36.6555941023417
20
8.88543917459199
30
0.000000000000000
11
-36.5555941023417
21
8.80210366043998
31
0.000000000000000
  0
LINE
  5
F101D8
330
F101D9
100
AcDbEntity
8
Geo
100
AcDbLine
10
-36.5555941023417
20
8.80210366043998
30
0.000000000000000
11
-36.4555941023417
21
8.72634083067722
31
0.000000000000000
  0
LINE
  5
F101DA
330
F101DB
100
AcDbEntity
8
Geo
100
AcDbLine
10
-36.4555941023417
20
8.72634083067722
30
0.000000000000000
11
-36.3555941023417
21
8.65720051975390
31
0.000000000000000
  0
LINE
  5
F101DC
330
F101DD
100
AcDbEntity
8
Geo
100
AcDbLine
10
-36.3555941023417
20
8.65720051975390
30
0.000000000000000
11
-36.2555941023417
21
8.59417711910086
31
0.000000000000000
  0
LINE
  5
F101DE
330
F101DF
100
AcDbEntity
8
Geo
100
AcDbLine
10
-36.2555941023417
20
8.59417711910086
30
0.000000000000000
11
-36.1555941023417
21
8.53663382372841
31
0.000000000000000
  0
LINE
  5
F101E0
330
F101E1
100
AcDbEntity
8
Geo
100
AcDbLine
10
-36.1555941023417
20
8.53663382372841
30
0.000000000000000
11
-36.0555941023417
21
8.48384236385513
31
0.000000000000000
  0
LINE
  5
F101E2
330
F101E3
100
AcDbEntity
8
Geo
100
AcDbLine
10
-36.0555941023417
20
8.48384236385513
30
0.000000000000000
11
-35.9555941023417
21
8.43555532380078
31
0.000000000000000
  0
LINE
  5
F101E4
330
F101E5
100
AcDbEntity
8
Geo
100
AcDbLine
10
-35.9555941023417
20
8.43555532380078
30
0.000000000000000
11
-35.8555941023417
21
8.39124133493682
31
0.000000000000000
  0
LINE
  5
F101E6
330
F101E7
100
AcDbEntity
8
Geo
100
AcDbLine
10
-35.8555941023417
20
8.39124133493682
30
0.000000000000000
11
-35.7555941023417
21
8.34724435824161
31
0.000000000000000
  0
LINE
  5
F101E8
330
F101E9
100
AcDbEntity
8
Geo
100
AcDbLine
10
-35.7555941023417
20
8.34724435824161
30
0.000000000000000
11
-35.6555941023417
21
8.30228969860095
31
0.000000000000000
  0
LINE
  5
F101EA
330
F101EB
100
AcDbEntity
8
Geo
100
AcDbLine
10
-35.6555941023417
20
8.30228969860095
30
0.000000000000000
11
-35.5555941023417
21
8.25642100177533
31
0.000000000000000
  0
LINE
  5
F101EC
330
F101ED
100
AcDbEntity
8
Geo
100
AcDbLine
10
-35.5555941023417
20
8.25642100177533
30
0.000000000000000
11
-35.4555941023417
21
8.20967994395109
31
0.000000000000000
  0
LINE
  5
F101EE
330
F101EF
100
AcDbEntity
8
Geo
100
AcDbLine
10
-35.4555941023417
20
8.20967994395109
30
0.000000000000000
11
-35.3555941023417
21
8.16210641465318
31
0.000000000000000
  0
LINE
  5
F101F0
330
F101F1
100
AcDbEntity
8
Geo
100
AcDbLine
10
-35.3555941023417
20
8.16210641465318
30
0.000000000000000
11
-35.2555941023417
21
8.11373867764353
31
0.000000000000000
  0
LINE
  5
F101F2
330
F101F3
100
AcDbEntity
8
Geo
100
AcDbLine
10
-35.2555941023417
20
8.11373867764353
30
0.000000000000000
11
-35.1555941023417
21
8.06461351304293
31
0.000000000000000
  0
LINE
  5
F101F4
330
F101F5
100
AcDbEntity
8
Geo
100
AcDbLine
10
-35.1555941023417
20
8.06461351304293
30
0.000000000000000
11
-35.0555941023417
21
8.01476634335823
31
0.000000000000000
  0
LINE
  5
F101F6
330
F101F7
100
AcDbEntity
8
Geo
100
AcDbLine
10
-35.0555941023417
20
8.01476634335823
30
0.000000000000000
11
-34.9555941023417
21
7.96423134564943
31
0.000000000000000
  0
LINE
  5
F101F8
330
F101F9
100
AcDbEntity
8
Geo
100
AcDbLine
10
-34.9555941023417
20
7.96423134564943
30
0.000000000000000
11
-34.8555941023417
21
7.91304155170812
31
0.000000000000000
  0
LINE
  5
F101FA
330
F101FB
100
AcDbEntity
8
Geo
100
AcDbLine
10
-34.8555941023417
20
7.91304155170812
30
0.000000000000000
11
-34.7555941023417
21
7.86122893782338
31
0.000000000000000
  0
LINE
  5
F101FC
330
F101FD
100
AcDbEntity
8
Geo
100
AcDbLine
10
-34.7555941023417
20
7.86122893782338
30
0.000000000000000
11
-34.6555941023417
21
7.80882450546845
31
0.000000000000000
  0
LINE
  5
F101FE
330
F101FF
100
AcDbEntity
8
Geo
100
AcDbLine
10
-34.6555941023417
20
7.80882450546845
30
0.000000000000000
11
-34.5555941023417
21
7.75585835404159
31
0.000000000000000
  0
LINE
  5
F10200
330
F10201
100
AcDbEntity
8
Geo
100
AcDbLine
10
-34.5555941023417
20
7.75585835404159
30
0.000000000000000
11
-34.4555941023417
21
7.70235974662871
31
0.000000000000000
  0
LINE
  5
F10202
330
F10203
100
AcDbEntity
8
Geo
100
AcDbLine
10
-34.4555941023417
20
7.70235974662871
30
0.000000000000000
11
-34.3555941023417
21
7.64835716961728
31
0.000000000000000
  0
LINE
  5
F10204
330
F10205
100
AcDbEntity
8
Geo
100
AcDbLine
10
-34.3555941023417
20
7.64835716961728
30
0.000000000000000
11
-34.2555941023417
21
7.59387838687543
31
0.000000000000000
  0
LINE
  5
F10206
330
F10207
100
AcDbEntity
8
Geo
100
AcDbLine
10
-34.2555941023417
20
7.59387838687543
30
0.000000000000000
11
-34.1555941023417
21
7.53895048911303
31
0.000000000000000
  0
LINE
  5
F10208
330
F10209
100
AcDbEntity
8
Geo
100
AcDbLine
10
-34.1555941023417
20
7.53895048911303
30
0.000000000000000
11
-34.0555941023417
21
7.48359993895937
31
0.000000000000000
  0
LINE
  5
F1020A
330
F1020B
100
AcDbEntity
8
Geo
100
AcDbLine
10
-34.0555941023417
20
7.48359993895937
30
0.000000000000000
11
-33.9555941023417
21
7.42785261222280
31
0.000000000000000
  0
LINE
  5
F1020C
330
F1020D
100
AcDbEntity
8
Geo
100
AcDbLine
10
-33.9555941023417
20
7.42785261222280
30
0.000000000000000
11
-33.8555941023417
21
7.37173383573831
31
0.000000000000000
  0
LINE
  5
F1020E
330
F1020F
100
AcDbEntity
8
Geo
100
AcDbLine
10
-33.8555941023417
20
7.37173383573831
30
0.000000000000000
11
-33.7555941023417
21
7.31526842215858
31
0.000000000000000
  0
LINE
  5
F10210
330
F10211
100
AcDbEntity
8
Geo
100
AcDbLine
10
-33.7555941023417
20
7.31526842215858
30
0.000000000000000
11
-33.6555941023417
21
7.25848070200076
31
0.000000000000000
  0
LINE
  5
F10212
330
F10213
100
AcDbEntity
8
Geo
100
AcDbLine
10
-33.6555941023417
20
7.25848070200076
30
0.000000000000000
11
-33.5555941023417
21
7.20139455322406
31
0.000000000000000
  0
LINE
  5
F10214
330
F10215
100
AcDbEntity
8
Geo
100
AcDbLine
10
-33.5555941023417
20
7.20139455322406
30
0.000000000000000
11
-33.4555941023417
21
7.14403342858108
31
0.000000000000000
  0
LINE
  5
F10216
330
F10217
100
AcDbEntity
8
Geo
100
AcDbLine
10
-33.4555941023417
20
7.14403342858108
30
0.000000000000000
11
-33.3555941023417
21
7.08642038095786
31
0.000000000000000
  0
LINE
  5
F10218
330
F10219
100
AcDbEntity
8
Geo
100
AcDbLine
10
-33.3555941023417
20
7.08642038095786
30
0.000000000000000
11
-33.2555941023417
21
7.02857808689402
31
0.000000000000000
  0
LINE
  5
F1021A
330
F1021B
100
AcDbEntity
8
Geo
100
AcDbLine
10
-33.2555941023417
20
7.02857808689402
30
0.000000000000000
11
-33.1555941023417
21
6.97052886845270
31
0.000000000000000
  0
LINE
  5
F1021C
330
F1021D
100
AcDbEntity
8
Geo
100
AcDbLine
10
-33.1555941023417
20
6.97052886845270
30
0.000000000000000
11
-33.0555941023417
21
6.91229471359232
31
0.000000000000000
  0
LINE
  5
F1021E
330
F1021F
100
AcDbEntity
8
Geo
100
AcDbLine
10
-33.0555941023417
20
6.91229471359232
30
0.000000000000000
11
-32.9555941023417
21
6.85389729517580
31
0.000000000000000
  0
LINE
  5
F10220
330
F10221
100
AcDbEntity
8
Geo
100
AcDbLine
10
-32.9555941023417
20
6.85389729517580
30
0.000000000000000
11
-32.8555941023417
21
6.79535798873900
31
0.000000000000000
  0
LINE
  5
F10222
330
F10223
100
AcDbEntity
8
Geo
100
AcDbLine
10
-32.8555941023417
20
6.79535798873900
30
0.000000000000000
11
-32.7555941023417
21
6.73669788912775
31
0.000000000000000
  0
LINE
  5
F10224
330
F10225
100
AcDbEntity
8
Geo
100
AcDbLine
10
-32.7555941023417
20
6.73669788912775
30
0.000000000000000
11
-32.6555941023417
21
6.67793782610197
31
0.000000000000000
  0
LINE
  5
F10226
330
F10227
100
AcDbEntity
8
Geo
100
AcDbLine
10
-32.6555941023417
20
6.67793782610197
30
0.000000000000000
11
-32.5555941023417
21
6.61909837899580
31
0.000000000000000
  0
LINE
  5
F10228
330
F10229
100
AcDbEntity
8
Geo
100
AcDbLine
10
-32.5555941023417
20
6.61909837899580
30
0.000000000000000
11
-32.4555941023417
21
6.56019989051421
31
0.000000000000000
  0
LINE
  5
F1022A
330
F1022B
100
AcDbEntity
8
Geo
100
AcDbLine
10
-32.4555941023417
20
6.56019989051421
30
0.000000000000000
11
-32.3555941023417
21
6.50126247973893
31
0.000000000000000
  0
LINE
  5
F1022C
330
F1022D
100
AcDbEntity
8
Geo
100
AcDbLine
10
-32.3555941023417
20
6.50126247973893
30
0.000000000000000
11
-32.2555941023417
21
6.44230605440998
31
0.000000000000000
  0
LINE
  5
F1022E
330
F1022F
100
AcDbEntity
8
Geo
100
AcDbLine
10
-32.2555941023417
20
6.44230605440998
30
0.000000000000000
11
-32.1555941023417
21
6.38335032254309
31
0.000000000000000
  0
LINE
  5
F10230
330
F10231
100
AcDbEntity
8
Geo
100
AcDbLine
10
-32.1555941023417
20
6.38335032254309
30
0.000000000000000
11
-32.0555941023417
21
6.32441480343799
31
0.000000000000000
  0
LINE
  5
F10232
330
F10233
100
AcDbEntity
8
Geo
100
AcDbLine
10
-32.0555941023417
20
6.32441480343799
30
0.000000000000000
11
-31.9555941023417
21
6.26551883812784
31
0.000000000000000
  0
LINE
  5
F10234
330
F10235
100
AcDbEntity
8
Geo
100
AcDbLine
10
-31.9555941023417
20
6.26551883812784
30
0.000000000000000
11
-31.8555941023417
21
6.20668159931589
31
0.000000000000000
  0
LINE
  5
F10236
330
F10237
100
AcDbEntity
8
Geo
100
AcDbLine
10
-31.8555941023417
20
6.20668159931589
30
0.000000000000000
11
-31.7555941023417
21
6.14792210084170
31
0.000000000000000
  0
LINE
  5
F10238
330
F10239
100
AcDbEntity
8
Geo
100
AcDbLine
10
-31.7555941023417
20
6.14792210084170
30
0.000000000000000
11
-31.6555941023417
21
6.08925920671578
31
0.000000000000000
  0
LINE
  5
F1023A
330
F1023B
100
AcDbEntity
8
Geo
100
AcDbLine
10
-31.6555941023417
20
6.08925920671578
30
0.000000000000000
11
-31.5555941023417
21
6.03071163975853
31
0.000000000000000
  0
LINE
  5
F1023C
330
F1023D
100
AcDbEntity
8
Geo
100
AcDbLine
10
-31.5555941023417
20
6.03071163975853
30
0.000000000000000
11
-31.4555941023417
21
5.97229798987680
31
0.000000000000000
  0
LINE
  5
F1023E
330
F1023F
100
AcDbEntity
8
Geo
100
AcDbLine
10
-31.4555941023417
20
5.97229798987680
30
0.000000000000000
11
-31.3555941023417
21
5.91403672200859
31
0.000000000000000
  0
LINE
  5
F10240
330
F10241
100
AcDbEntity
8
Geo
100
AcDbLine
10
-31.3555941023417
20
5.91403672200859
30
0.000000000000000
11
-31.2555941023417
21
5.85594618376476
31
0.000000000000000
  0
LINE
  5
F10242
330
F10243
100
AcDbEntity
8
Geo
100
AcDbLine
10
-31.2555941023417
20
5.85594618376476
30
0.000000000000000
11
-31.1555941023417
21
5.79804461279403
31
0.000000000000000
  0
LINE
  5
F10244
330
F10245
100
AcDbEntity
8
Geo
100
AcDbLine
10
-31.1555941023417
20
5.79804461279403
30
0.000000000000000
11
-31.0555941023417
21
5.74035014389639
31
0.000000000000000
  0
LINE
  5
F10246
330
F10247
100
AcDbEntity
8
Geo
100
AcDbLine
10
-31.0555941023417
20
5.74035014389639
30
0.000000000000000
11
-30.9555941023417
21
5.68288081590803
31
0.000000000000000
  0
LINE
  5
F10248
330
F10249
100
AcDbEntity
8
Geo
100
AcDbLine
10
-30.9555941023417
20
5.68288081590803
30
0.000000000000000
11
-30.8555941023417
21
5.62565457837970
31
0.000000000000000
  0
LINE
  5
F1024A
330
F1024B
100
AcDbEntity
8
Geo
100
AcDbLine
10
-30.8555941023417
20
5.62565457837970
30
0.000000000000000
11
-30.7555941023417
21
5.56868929806911
31
0.000000000000000
  0
LINE
  5
F1024C
330
F1024D
100
AcDbEntity
8
Geo
100
AcDbLine
10
-30.7555941023417
20
5.56868929806911
30
0.000000000000000
11
-30.6555941023417
21
5.51200276526679
31
0.000000000000000
  0
LINE
  5
F1024E
330
F1024F
100
AcDbEntity
8
Geo
100
AcDbLine
10
-30.6555941023417
20
5.51200276526679
30
0.000000000000000
11
-30.5555941023417
21
5.45561269997393
31
0.000000000000000
  0
LINE
  5
F10250
330
F10251
100
AcDbEntity
8
Geo
100
AcDbLine
10
-30.5555941023417
20
5.45561269997393
30
0.000000000000000
11
-30.4555941023417
21
5.39953675794967
31
0.000000000000000
  0
LINE
  5
F10252
330
F10253
100
AcDbEntity
8
Geo
100
AcDbLine
10
-30.4555941023417
20
5.39953675794967
30
0.000000000000000
11
-30.3555941023417
21
5.34379253664476
31
0.000000000000000
  0
LINE
  5
F10254
330
F10255
100
AcDbEntity
8
Geo
100
AcDbLine
10
-30.3555941023417
20
5.34379253664476
30
0.000000000000000
11
-30.2555941023417
21
5.28839758103755
31
0.000000000000000
  0
LINE
  5
F10256
330
F10257
100
AcDbEntity
8
Geo
100
AcDbLine
10
-30.2555941023417
20
5.28839758103755
30
0.000000000000000
11
-30.1555941023417
21
5.23336938938788
31
0.000000000000000
  0
LINE
  5
F10258
330
F10259
100
AcDbEntity
8
Geo
100
AcDbLine
10
-30.1555941023417
20
5.23336938938788
30
0.000000000000000
11
-30.0555941023417
21
5.17872541892382
31
0.000000000000000
  0
LINE
  5
F1025A
330
F1025B
100
AcDbEntity
8
Geo
100
AcDbLine
10
-30.0555941023417
20
5.17872541892382
30
0.000000000000000
11
-29.9555941023417
21
5.12448309147575
31
0.000000000000000
  0
LINE
  5
F1025C
330
F1025D
100
AcDbEntity
8
Geo
100
AcDbLine
10
-29.9555941023417
20
5.12448309147575
30
0.000000000000000
11
-29.8555941023417
21
5.07065979907209
31
0.000000000000000
  0
LINE
  5
F1025E
330
F1025F
100
AcDbEntity
8
Geo
100
AcDbLine
10
-29.8555941023417
20
5.07065979907209
30
0.000000000000000
11
-29.7555941023417
21
5.01727290951038
31
0.000000000000000
  0
LINE
  5
F10260
330
F10261
100
AcDbEntity
8
Geo
100
AcDbLine
10
-29.7555941023417
20
5.01727290951038
30
0.000000000000000
11
-29.6555941023417
21
4.96433977191747
31
0.000000000000000
  0
LINE
  5
F10262
330
F10263
100
AcDbEntity
8
Geo
100
AcDbLine
10
-29.6555941023417
20
4.96433977191747
30
0.000000000000000
11
-29.5555941023417
21
4.91187772231230
31
0.000000000000000
  0
LINE
  5
F10264
330
F10265
100
AcDbEntity
8
Geo
100
AcDbLine
10
-29.5555941023417
20
4.91187772231230
30
0.000000000000000
11
-29.4555941023417
21
4.85990408918469
31
0.000000000000000
  0
LINE
  5
F10266
330
F10267
100
AcDbEntity
8
Geo
100
AcDbLine
10
-29.4555941023417
20
4.85990408918469
30
0.000000000000000
11
-29.3555941023417
21
4.80843619910340
31
0.000000000000000
  0
LINE
  5
F10268
330
F10269
100
AcDbEntity
8
Geo
100
AcDbLine
10
-29.3555941023417
20
4.80843619910340
30
0.000000000000000
11
-29.2555941023417
21
4.75749138236694
31
0.000000000000000
  0
LINE
  5
F1026A
330
F1026B
100
AcDbEntity
8
Geo
100
AcDbLine
10
-29.2555941023417
20
4.75749138236694
30
0.000000000000000
11
-29.1555941023417
21
4.70708697871062
31
0.000000000000000
  0
LINE
  5
F1026C
330
F1026D
100
AcDbEntity
8
Geo
100
AcDbLine
10
-29.1555941023417
20
4.70708697871062
30
0.000000000000000
11
-29.0555941023417
21
4.65724034308336
31
0.000000000000000
  0
LINE
  5
F1026E
330
F1026F
100
AcDbEntity
8
Geo
100
AcDbLine
10
-29.0555941023417
20
4.65724034308336
30
0.000000000000000
11
-28.9555941023417
21
4.60796885150816
31
0.000000000000000
  0
LINE
  5
F10270
330
F10271
100
AcDbEntity
8
Geo
100
AcDbLine
10
-28.9555941023417
20
4.60796885150816
30
0.000000000000000
11
-28.8555941023417
21
4.55928990704030
31
0.000000000000000
  0
LINE
  5
F10272
330
F10273
100
AcDbEntity
8
Geo
100
AcDbLine
10
-28.8555941023417
20
4.55928990704030
30
0.000000000000000
11
-28.7555941023417
21
4.51100428122227
31
0.000000000000000
  0
LINE
  5
F10274
330
F10275
100
AcDbEntity
8
Geo
100
AcDbLine
10
-28.7555941023417
20
4.51100428122227
30
0.000000000000000
11
-28.6555941023417
21
4.46290219962014
31
0.000000000000000
  0
LINE
  5
F10276
330
F10277
100
AcDbEntity
8
Geo
100
AcDbLine
10
-28.6555941023417
20
4.46290219962014
30
0.000000000000000
11
-28.5555941023417
21
4.41498526563219
31
0.000000000000000
  0
LINE
  5
F10278
330
F10279
100
AcDbEntity
8
Geo
100
AcDbLine
10
-28.5555941023417
20
4.41498526563219
30
0.000000000000000
11
-28.4555941023417
21
4.36725507648510
31
0.000000000000000
  0
LINE
  5
F1027A
330
F1027B
100
AcDbEntity
8
Geo
100
AcDbLine
10
-28.4555941023417
20
4.36725507648510
30
0.000000000000000
11
-28.3555941023417
21
4.31971322318077
31
0.000000000000000
  0
LINE
  5
F1027C
330
F1027D
100
AcDbEntity
8
Geo
100
AcDbLine
10
-28.3555941023417
20
4.31971322318077
30
0.000000000000000
11
-28.2555941023417
21
4.27236129044323
31
0.000000000000000
  0
LINE
  5
F1027E
330
F1027F
100
AcDbEntity
8
Geo
100
AcDbLine
10
-28.2555941023417
20
4.27236129044323
30
0.000000000000000
11
-28.1555941023417
21
4.22520085666586
31
0.000000000000000
  0
LINE
  5
F10280
330
F10281
100
AcDbEntity
8
Geo
100
AcDbLine
10
-28.1555941023417
20
4.22520085666586
30
0.000000000000000
11
-28.0555941023417
21
4.17823349385875
31
0.000000000000000
  0
LINE
  5
F10282
330
F10283
100
AcDbEntity
8
Geo
100
AcDbLine
10
-28.0555941023417
20
4.17823349385875
30
0.000000000000000
11
-27.9555941023417
21
4.13146076759631
31
0.000000000000000
  0
LINE
  5
F10284
330
F10285
100
AcDbEntity
8
Geo
100
AcDbLine
10
-27.9555941023417
20
4.13146076759631
30
0.000000000000000
11
-27.8555941023417
21
4.08488423696509
31
0.000000000000000
  0
LINE
  5
F10286
330
F10287
100
AcDbEntity
8
Geo
100
AcDbLine
10
-27.8555941023417
20
4.08488423696509
30
0.000000000000000
11
-27.7555941023417
21
4.03850545451180
31
0.000000000000000
  0
LINE
  5
F10288
330
F10289
100
AcDbEntity
8
Geo
100
AcDbLine
10
-27.7555941023417
20
4.03850545451180
30
0.000000000000000
11
-27.6555941023417
21
3.99232596619155
31
0.000000000000000
  0
LINE
  5
F1028A
330
F1028B
100
AcDbEntity
8
Geo
100
AcDbLine
10
-27.6555941023417
20
3.99232596619155
30
0.000000000000000
11
-27.5555941023417
21
3.94634731131635
31
0.000000000000000
  0
LINE
  5
F1028C
330
F1028D
100
AcDbEntity
8
Geo
100
AcDbLine
10
-27.5555941023417
20
3.94634731131635
30
0.000000000000000
11
-27.4555941023417
21
3.90057102250377
31
0.000000000000000
  0
LINE
  5
F1028E
330
F1028F
100
AcDbEntity
8
Geo
100
AcDbLine
10
-27.4555941023417
20
3.90057102250377
30
0.000000000000000
11
-27.3555941023417
21
3.85499862562586
31
0.000000000000000
  0
LINE
  5
F10290
330
F10291
100
AcDbEntity
8
Geo
100
AcDbLine
10
-27.3555941023417
20
3.85499862562586
30
0.000000000000000
11
-27.2555941023417
21
3.80963163975831
31
0.000000000000000
  0
LINE
  5
F10292
330
F10293
100
AcDbEntity
8
Geo
100
AcDbLine
10
-27.2555941023417
20
3.80963163975831
30
0.000000000000000
11
-27.1555941023417
21
3.76447157712977
31
0.000000000000000
  0
LINE
  5
F10294
330
F10295
100
AcDbEntity
8
Geo
100
AcDbLine
10
-27.1555941023417
20
3.76447157712977
30
0.000000000000000
11
-27.0555941023417
21
3.71951994307148
31
0.000000000000000
  0
LINE
  5
F10296
330
F10297
100
AcDbEntity
8
Geo
100
AcDbLine
10
-27.0555941023417
20
3.71951994307148
30
0.000000000000000
11
-26.9555941023417
21
3.67477823596708
31
0.000000000000000
  0
LINE
  5
F10298
330
F10299
100
AcDbEntity
8
Geo
100
AcDbLine
10
-26.9555941023417
20
3.67477823596708
30
0.000000000000000
11
-26.8555941023417
21
3.63024794720267
31
0.000000000000000
  0
LINE
  5
F1029A
330
F1029B
100
AcDbEntity
8
Geo
100
AcDbLine
10
-26.8555941023417
20
3.63024794720267
30
0.000000000000000
11
-26.7555941023417
21
3.58593056111708
31
0.000000000000000
  0
LINE
  5
F1029C
330
F1029D
100
AcDbEntity
8
Geo
100
AcDbLine
10
-26.7555941023417
20
3.58593056111708
30
0.000000000000000
11
-26.6555941023417
21
3.54182755495241
31
0.000000000000000
  0
LINE
  5
F1029E
330
F1029F
100
AcDbEntity
8
Geo
100
AcDbLine
10
-26.6555941023417
20
3.54182755495241
30
0.000000000000000
11
-26.5555941023417
21
3.49794039880479
31
0.000000000000000
  0
LINE
  5
F102A0
330
F102A1
100
AcDbEntity
8
Geo
100
AcDbLine
10
-26.5555941023417
20
3.49794039880479
30
0.000000000000000
11
-26.4555941023417
21
3.45427055557535
31
0.000000000000000
  0
LINE
  5
F102A2
330
F102A3
100
AcDbEntity
8
Geo
100
AcDbLine
10
-26.4555941023417
20
3.45427055557535
30
0.000000000000000
11
-26.3555941023417
21
3.41081948092149
31
0.000000000000000
  0
LINE
  5
F102A4
330
F102A5
100
AcDbEntity
8
Geo
100
AcDbLine
10
-26.3555941023417
20
3.41081948092149
30
0.000000000000000
11
-26.2555941023417
21
3.36758862320834
31
0.000000000000000
  0
LINE
  5
F102A6
330
F102A7
100
AcDbEntity
8
Geo
100
AcDbLine
10
-26.2555941023417
20
3.36758862320834
30
0.000000000000000
11
-26.1555941023417
21
3.32457942346050
31
0.000000000000000
  0
LINE
  5
F102A8
330
F102A9
100
AcDbEntity
8
Geo
100
AcDbLine
10
-26.1555941023417
20
3.32457942346050
30
0.000000000000000
11
-26.0555941023417
21
3.28179331531396
31
0.000000000000000
  0
LINE
  5
F102AA
330
F102AB
100
AcDbEntity
8
Geo
100
AcDbLine
10
-26.0555941023417
20
3.28179331531396
30
0.000000000000000
11
-25.9555941023417
21
3.23923172496838
31
0.000000000000000
  0
LINE
  5
F102AC
330
F102AD
100
AcDbEntity
8
Geo
100
AcDbLine
10
-25.9555941023417
20
3.23923172496838
30
0.000000000000000
11
-25.8555941023417
21
3.19689607113949
31
0.000000000000000
  0
LINE
  5
F102AE
330
F102AF
100
AcDbEntity
8
Geo
100
AcDbLine
10
-25.8555941023417
20
3.19689607113949
30
0.000000000000000
11
-25.7555941023417
21
3.15478776501183
31
0.000000000000000
  0
LINE
  5
F102B0
330
F102B1
100
AcDbEntity
8
Geo
100
AcDbLine
10
-25.7555941023417
20
3.15478776501183
30
0.000000000000000
11
-25.6555941023417
21
3.11290821019172
31
0.000000000000000
  0
LINE
  5
F102B2
330
F102B3
100
AcDbEntity
8
Geo
100
AcDbLine
10
-25.6555941023417
20
3.11290821019172
30
0.000000000000000
11
-25.5555941023417
21
3.07125880266041
31
0.000000000000000
  0
LINE
  5
F102B4
330
F102B5
100
AcDbEntity
8
Geo
100
AcDbLine
10
-25.5555941023417
20
3.07125880266041
30
0.000000000000000
11
-25.4555941023417
21
3.02984093072766
31
0.000000000000000
  0
LINE
  5
F102B6
330
F102B7
100
AcDbEntity
8
Geo
100
AcDbLine
10
-25.4555941023417
20
3.02984093072766
30
0.000000000000000
11
-25.3555941023417
21
2.98865597498536
31
0.000000000000000
  0
LINE
  5
F102B8
330
F102B9
100
AcDbEntity
8
Geo
100
AcDbLine
10
-25.3555941023417
20
2.98865597498536
30
0.000000000000000
11
-25.2555941023417
21
2.94770530826154
31
0.000000000000000
  0
LINE
  5
F102BA
330
F102BB
100
AcDbEntity
8
Geo
100
AcDbLine
10
-25.2555941023417
20
2.94770530826154
30
0.000000000000000
11
-25.1555941023417
21
2.90699029557464
31
0.000000000000000
  0
LINE
  5
F102BC
330
F102BD
100
AcDbEntity
8
Geo
100
AcDbLine
10
-25.1555941023417
20
2.90699029557464
30
0.000000000000000
11
-25.0555941023417
21
2.86651229408799
31
0.000000000000000
  0
LINE
  5
F102BE
330
F102BF
100
AcDbEntity
8
Geo
100
AcDbLine
10
-25.0555941023417
20
2.86651229408799
30
0.000000000000000
11
-24.9555941023417
21
2.82627265306454
31
0.000000000000000
  0
LINE
  5
F102C0
330
F102C1
100
AcDbEntity
8
Geo
100
AcDbLine
10
-24.9555941023417
20
2.82627265306454
30
0.000000000000000
11
-24.8555941023417
21
2.78627271382194
31
0.000000000000000
  0
LINE
  5
F102C2
330
F102C3
100
AcDbEntity
8
Geo
100
AcDbLine
10
-24.8555941023417
20
2.78627271382194
30
0.000000000000000
11
-24.7555941023417
21
2.74651380968780
31
0.000000000000000
  0
LINE
  5
F102C4
330
F102C5
100
AcDbEntity
8
Geo
100
AcDbLine
10
-24.7555941023417
20
2.74651380968780
30
0.000000000000000
11
-24.6555941023417
21
2.70699726595524
31
0.000000000000000
  0
LINE
  5
F102C6
330
F102C7
100
AcDbEntity
8
Geo
100
AcDbLine
10
-24.6555941023417
20
2.70699726595524
30
0.000000000000000
11
-24.5555941023417
21
2.66772439983872
31
0.000000000000000
  0
LINE
  5
F102C8
330
F102C9
100
AcDbEntity
8
Geo
100
AcDbLine
10
-24.5555941023417
20
2.66772439983872
30
0.000000000000000
11
-24.4555941023417
21
2.62869652043015
31
0.000000000000000
  0
LINE
  5
F102CA
330
F102CB
100
AcDbEntity
8
Geo
100
AcDbLine
10
-24.4555941023417
20
2.62869652043015
30
0.000000000000000
11
-24.3555941023417
21
2.58991492865522
31
0.000000000000000
  0
LINE
  5
F102CC
330
F102CD
100
AcDbEntity
8
Geo
100
AcDbLine
10
-24.3555941023417
20
2.58991492865522
30
0.000000000000000
11
-24.2555941023417
21
2.55138091723007
31
0.000000000000000
  0
LINE
  5
F102CE
330
F102CF
100
AcDbEntity
8
Geo
100
AcDbLine
10
-24.2555941023417
20
2.55138091723007
30
0.000000000000000
11
-24.1555941023417
21
2.51309577061818
31
0.000000000000000
  0
LINE
  5
F102D0
330
F102D1
100
AcDbEntity
8
Geo
100
AcDbLine
10
-24.1555941023417
20
2.51309577061818
30
0.000000000000000
11
-24.0555941023418
21
2.47506076498756
31
0.000000000000000
  0
LINE
  5
F102D2
330
F102D3
100
AcDbEntity
8
Geo
100
AcDbLine
10
-24.0555941023418
20
2.47506076498756
30
0.000000000000000
11
-23.9555941023417
21
2.43727716816820
31
0.000000000000000
  0
LINE
  5
F102D4
330
F102D5
100
AcDbEntity
8
Geo
100
AcDbLine
10
-23.9555941023417
20
2.43727716816820
30
0.000000000000000
11
-23.8555941023417
21
2.39974623960985
31
0.000000000000000
  0
LINE
  5
F102D6
330
F102D7
100
AcDbEntity
8
Geo
100
AcDbLine
10
-23.8555941023417
20
2.39974623960985
30
0.000000000000000
11
-23.7555941023417
21
2.36246923033996
31
0.000000000000000
  0
LINE
  5
F102D8
330
F102D9
100
AcDbEntity
8
Geo
100
AcDbLine
10
-23.7555941023417
20
2.36246923033996
30
0.000000000000000
11
-23.6555941023418
21
2.32544738292207
31
0.000000000000000
  0
LINE
  5
F102DA
330
F102DB
100
AcDbEntity
8
Geo
100
AcDbLine
10
-23.6555941023418
20
2.32544738292207
30
0.000000000000000
11
-23.5555941023418
21
2.28868193141433
31
0.000000000000000
  0
LINE
  5
F102DC
330
F102DD
100
AcDbEntity
8
Geo
100
AcDbLine
10
-23.5555941023418
20
2.28868193141433
30
0.000000000000000
11
-23.4555941023417
21
2.25217410132839
31
0.000000000000000
  0
LINE
  5
F102DE
330
F102DF
100
AcDbEntity
8
Geo
100
AcDbLine
10
-23.4555941023417
20
2.25217410132839
30
0.000000000000000
11
-23.3555941023418
21
2.21592510958853
31
0.000000000000000
  0
LINE
  5
F102E0
330
F102E1
100
AcDbEntity
8
Geo
100
AcDbLine
10
-23.3555941023418
20
2.21592510958853
30
0.000000000000000
11
-23.2555941023418
21
2.17993616449112
31
0.000000000000000
  0
LINE
  5
F102E2
330
F102E3
100
AcDbEntity
8
Geo
100
AcDbLine
10
-23.2555941023418
20
2.17993616449112
30
0.000000000000000
11
-23.1555941023418
21
2.14420846566434
31
0.000000000000000
  0
LINE
  5
F102E4
330
F102E5
100
AcDbEntity
8
Geo
100
AcDbLine
10
-23.1555941023418
20
2.14420846566434
30
0.000000000000000
11
-23.0555941023418
21
2.10874320402817
31
0.000000000000000
  0
LINE
  5
F102E6
330
F102E7
100
AcDbEntity
8
Geo
100
AcDbLine
10
-23.0555941023418
20
2.10874320402817
30
0.000000000000000
11
-22.9555941023418
21
2.07354156175471
31
0.000000000000000
  0
LINE
  5
F102E8
330
F102E9
100
AcDbEntity
8
Geo
100
AcDbLine
10
-22.9555941023418
20
2.07354156175471
30
0.000000000000000
11
-22.8555941023418
21
2.03860471222879
31
0.000000000000000
  0
LINE
  5
F102EA
330
F102EB
100
AcDbEntity
8
Geo
100
AcDbLine
10
-22.8555941023418
20
2.03860471222879
30
0.000000000000000
11
-22.7555941023418
21
2.00393382000881
31
0.000000000000000
  0
LINE
  5
F102EC
330
F102ED
100
AcDbEntity
8
Geo
100
AcDbLine
10
-22.7555941023418
20
2.00393382000881
30
0.000000000000000
11
-22.6555941023418
21
1.96953004078797
31
0.000000000000000
  0
LINE
  5
F102EE
330
F102EF
100
AcDbEntity
8
Geo
100
AcDbLine
10
-22.6555941023418
20
1.96953004078797
30
0.000000000000000
11
-22.5555941023418
21
1.93539452135573
31
0.000000000000000
  0
LINE
  5
F102F0
330
F102F1
100
AcDbEntity
8
Geo
100
AcDbLine
10
-22.5555941023418
20
1.93539452135573
30
0.000000000000000
11
-22.4555941023417
21
1.90152839955958
31
0.000000000000000
  0
LINE
  5
F102F2
330
F102F3
100
AcDbEntity
8
Geo
100
AcDbLine
10
-22.4555941023417
20
1.90152839955958
30
0.000000000000000
11
-22.3555941023417
21
1.86793280426710
31
0.000000000000000
  0
LINE
  5
F102F4
330
F102F5
100
AcDbEntity
8
Geo
100
AcDbLine
10
-22.3555941023417
20
1.86793280426710
30
0.000000000000000
11
-22.2555941023417
21
1.83460885532837
31
0.000000000000000
  0
LINE
  5
F102F6
330
F102F7
100
AcDbEntity
8
Geo
100
AcDbLine
10
-22.2555941023417
20
1.83460885532837
30
0.000000000000000
11
-22.1555941023417
21
1.80155766353859
31
0.000000000000000
  0
LINE
  5
F102F8
330
F102F9
100
AcDbEntity
8
Geo
100
AcDbLine
10
-22.1555941023417
20
1.80155766353859
30
0.000000000000000
11
-22.0555941023417
21
1.76878033060110
31
0.000000000000000
  0
LINE
  5
F102FA
330
F102FB
100
AcDbEntity
8
Geo
100
AcDbLine
10
-22.0555941023417
20
1.76878033060110
30
0.000000000000000
11
-21.9555941023417
21
1.73627794909063
31
0.000000000000000
  0
LINE
  5
F102FC
330
F102FD
100
AcDbEntity
8
Geo
100
AcDbLine
10
-21.9555941023417
20
1.73627794909063
30
0.000000000000000
11
-21.8555941023417
21
1.70405160241688
31
0.000000000000000
  0
LINE
  5
F102FE
330
F102FF
100
AcDbEntity
8
Geo
100
AcDbLine
10
-21.8555941023417
20
1.70405160241688
30
0.000000000000000
11
-21.7555941023417
21
1.67210236478843
31
0.000000000000000
  0
LINE
  5
F10300
330
F10301
100
AcDbEntity
8
Geo
100
AcDbLine
10
-21.7555941023417
20
1.67210236478843
30
0.000000000000000
11
-21.6555941023417
21
1.64043130117690
31
0.000000000000000
  0
LINE
  5
F10302
330
F10303
100
AcDbEntity
8
Geo
100
AcDbLine
10
-21.6555941023417
20
1.64043130117690
30
0.000000000000000
11
-21.5555941023417
21
1.60903946728149
31
0.000000000000000
  0
LINE
  5
F10304
330
F10305
100
AcDbEntity
8
Geo
100
AcDbLine
10
-21.5555941023417
20
1.60903946728149
30
0.000000000000000
11
-21.4555941023417
21
1.57792790949375
31
0.000000000000000
  0
LINE
  5
F10306
330
F10307
100
AcDbEntity
8
Geo
100
AcDbLine
10
-21.4555941023417
20
1.57792790949375
30
0.000000000000000
11
-21.3555941023417
21
1.54709766486272
31
0.000000000000000
  0
LINE
  5
F10308
330
F10309
100
AcDbEntity
8
Geo
100
AcDbLine
10
-21.3555941023417
20
1.54709766486272
30
0.000000000000000
11
-21.2555941023417
21
1.51654976106038
31
0.000000000000000
  0
LINE
  5
F1030A
330
F1030B
100
AcDbEntity
8
Geo
100
AcDbLine
10
-21.2555941023417
20
1.51654976106038
30
0.000000000000000
11
-21.1555941023417
21
1.48628521634735
31
0.000000000000000
  0
LINE
  5
F1030C
330
F1030D
100
AcDbEntity
8
Geo
100
AcDbLine
10
-21.1555941023417
20
1.48628521634735
30
0.000000000000000
11
-21.0555941023417
21
1.45630503953899
31
0.000000000000000
  0
LINE
  5
F1030E
330
F1030F
100
AcDbEntity
8
Geo
100
AcDbLine
10
-21.0555941023417
20
1.45630503953899
30
0.000000000000000
11
-20.9555941023417
21
1.42661022997174
31
0.000000000000000
  0
LINE
  5
F10310
330
F10311
100
AcDbEntity
8
Geo
100
AcDbLine
10
-20.9555941023417
20
1.42661022997174
30
0.000000000000000
11
-20.8555941023417
21
1.39720177746986
31
0.000000000000000
  0
LINE
  5
F10312
330
F10313
100
AcDbEntity
8
Geo
100
AcDbLine
10
-20.8555941023417
20
1.39720177746986
30
0.000000000000000
11
-20.7555941023417
21
1.36808066231235
31
0.000000000000000
  0
LINE
  5
F10314
330
F10315
100
AcDbEntity
8
Geo
100
AcDbLine
10
-20.7555941023417
20
1.36808066231235
30
0.000000000000000
11
-20.6555941023417
21
1.33924785520037
31
0.000000000000000
  0
LINE
  5
F10316
330
F10317
100
AcDbEntity
8
Geo
100
AcDbLine
10
-20.6555941023417
20
1.33924785520037
30
0.000000000000000
11
-20.5555941023417
21
1.31070431722482
31
0.000000000000000
  0
LINE
  5
F10318
330
F10319
100
AcDbEntity
8
Geo
100
AcDbLine
10
-20.5555941023417
20
1.31070431722482
30
0.000000000000000
11
-20.4555941023417
21
1.28245099983432
31
0.000000000000000
  0
LINE
  5
F1031A
330
F1031B
100
AcDbEntity
8
Geo
100
AcDbLine
10
-20.4555941023417
20
1.28245099983432
30
0.000000000000000
11
-20.3555941023417
21
1.25448884480349
31
0.000000000000000
  0
LINE
  5
F1031C
330
F1031D
100
AcDbEntity
8
Geo
100
AcDbLine
10
-20.3555941023417
20
1.25448884480349
30
0.000000000000000
11
-20.2555941023417
21
1.22681878420159
31
0.000000000000000
  0
LINE
  5
F1031E
330
F1031F
100
AcDbEntity
8
Geo
100
AcDbLine
10
-20.2555941023417
20
1.22681878420159
30
0.000000000000000
11
-20.1555941023417
21
1.19944174036141
31
0.000000000000000
  0
LINE
  5
F10320
330
F10321
100
AcDbEntity
8
Geo
100
AcDbLine
10
-20.1555941023417
20
1.19944174036141
30
0.000000000000000
11
-20.0555941023417
21
1.17235862584853
31
0.000000000000000
  0
LINE
  5
F10322
330
F10323
100
AcDbEntity
8
Geo
100
AcDbLine
10
-20.0555941023417
20
1.17235862584853
30
0.000000000000000
11
-19.9555941023417
21
1.14557034343094
31
0.000000000000000
  0
LINE
  5
F10324
330
F10325
100
AcDbEntity
8
Geo
100
AcDbLine
10
-19.9555941023417
20
1.14557034343094
30
0.000000000000000
11
-19.8555941023417
21
1.11907778604890
31
0.000000000000000
  0
LINE
  5
F10326
330
F10327
100
AcDbEntity
8
Geo
100
AcDbLine
10
-19.8555941023417
20
1.11907778604890
30
0.000000000000000
11
-19.7555941023417
21
1.09288183678520
31
0.000000000000000
  0
LINE
  5
F10328
330
F10329
100
AcDbEntity
8
Geo
100
AcDbLine
10
-19.7555941023417
20
1.09288183678520
30
0.000000000000000
11
-19.6555941023417
21
1.06698336883574
31
0.000000000000000
  0
LINE
  5
F1032A
330
F1032B
100
AcDbEntity
8
Geo
100
AcDbLine
10
-19.6555941023417
20
1.06698336883574
30
0.000000000000000
11
-19.5555941023417
21
1.04138324548036
31
0.000000000000000
  0
LINE
  5
F1032C
330
F1032D
100
AcDbEntity
8
Geo
100
AcDbLine
10
-19.5555941023417
20
1.04138324548036
30
0.000000000000000
11
-19.4555941023417
21
1.01608232005416
31
0.000000000000000
  0
LINE
  5
F1032E
330
F1032F
100
AcDbEntity
8
Geo
100
AcDbLine
10
-19.4555941023417
20
1.01608232005416
30
0.000000000000000
11
-19.3555941023417
21
0.991081435918968
31
0.000000000000000
  0
LINE
  5
F10330
330
F10331
100
AcDbEntity
8
Geo
100
AcDbLine
10
-19.3555941023417
20
0.991081435918968
30
0.000000000000000
11
-19.2555941023417
21
0.966381426435269
31
0.000000000000000
  0
LINE
  5
F10332
330
F10333
100
AcDbEntity
8
Geo
100
AcDbLine
10
-19.2555941023417
20
0.966381426435269
30
0.000000000000000
11
-19.1555941023417
21
0.941983114934432
31
0.000000000000000
  0
LINE
  5
F10334
330
F10335
100
AcDbEntity
8
Geo
100
AcDbLine
10
-19.1555941023417
20
0.941983114934432
30
0.000000000000000
11
-19.0555941023417
21
0.917887314691246
31
0.000000000000000
  0
LINE
  5
F10336
330
F10337
100
AcDbEntity
8
Geo
100
AcDbLine
10
-19.0555941023417
20
0.917887314691246
30
0.000000000000000
11
-18.9555941023417
21
0.894094828896819
31
0.000000000000000
  0
LINE
  5
F10338
330
F10339
100
AcDbEntity
8
Geo
100
AcDbLine
10
-37.4555941023417
20
5.19093455769699
30
0.000000000000000
11
-37.4555941023417
21
4.91846676707793
31
0.000000000000000
  0
LINE
  5
F1033A
330
F1033B
100
AcDbEntity
8
Geo
100
AcDbLine
10
-37.4555941023417
20
4.91846676707793
30
0.000000000000000
11
-37.3946436291162
21
4.81305617144568
31
0.000000000000000
  0
LINE
  5
F1033C
330
F1033D
100
AcDbEntity
8
Geo
100
AcDbLine
10
-37.4555941023417
20
10.2208897093223
30
0.000000000000000
11
-37.4555941023417
21
11.6743771550342
31
0.000000000000000
  0
LINE
  5
F1033E
330
F1033F
100
AcDbEntity
8
Geo
100
AcDbLine
10
-37.4555941023417
20
11.6743771550342
30
0.000000000000000
11
-37.3555941023417
21
12.2782356562074
31
0.000000000000000
  0
LINE
  5
F10340
330
F10341
100
AcDbEntity
8
Geo
100
AcDbLine
10
-37.3555941023417
20
12.2782356562074
30
0.000000000000000
11
-37.2555941023417
21
12.6958133104880
31
0.000000000000000
  0
LINE
  5
F10342
330
F10343
100
AcDbEntity
8
Geo
100
AcDbLine
10
-37.2555941023417
20
12.6958133104880
30
0.000000000000000
11
-37.1555941023417
21
13.0306204958709
31
0.000000000000000
  0
LINE
  5
F10344
330
F10345
100
AcDbEntity
8
Geo
100
AcDbLine
10
-37.1555941023417
20
13.0306204958709
30
0.000000000000000
11
-37.0555941023417
21
13.3153290542437
31
0.000000000000000
  0
LINE
  5
F10346
330
F10347
100
AcDbEntity
8
Geo
100
AcDbLine
10
-37.0555941023417
20
13.3153290542437
30
0.000000000000000
11
-36.9555941023417
21
13.5653473577536
31
0.000000000000000
  0
LINE
  5
F10348
330
F10349
100
AcDbEntity
8
Geo
100
AcDbLine
10
-36.9555941023417
20
13.5653473577536
30
0.000000000000000
11
-36.8555941023417
21
13.7894048244589
31
0.000000000000000
  0
LINE
  5
F1034A
330
F1034B
100
AcDbEntity
8
Geo
100
AcDbLine
10
-36.8555941023417
20
13.7894048244589
30
0.000000000000000
11
-36.7555941023417
21
13.9930166284075
31
0.000000000000000
  0
LINE
  5
F1034C
330
F1034D
100
AcDbEntity
8
Geo
100
AcDbLine
10
-36.7555941023417
20
13.9930166284075
30
0.000000000000000
11
-36.6555941023417
21
14.1799312986896
31
0.000000000000000
  0
LINE
  5
F1034E
330
F1034F
100
AcDbEntity
8
Geo
100
AcDbLine
10
-36.6555941023417
20
14.1799312986896
30
0.000000000000000
11
-36.5555941023417
21
14.3528342434138
31
0.000000000000000
  0
LINE
  5
F10350
330
F10351
100
AcDbEntity
8
Geo
100
AcDbLine
10
-36.5555941023417
20
14.3528342434138
30
0.000000000000000
11
-36.4555941023417
21
14.5137273352382
31
0.000000000000000
  0
LINE
  5
F10352
330
F10353
100
AcDbEntity
8
Geo
100
AcDbLine
10
-36.4555941023417
20
14.5137273352382
30
0.000000000000000
11
-36.3555941023417
21
14.6641501494066
31
0.000000000000000
  0
LINE
  5
F10354
330
F10355
100
AcDbEntity
8
Geo
100
AcDbLine
10
-36.3555941023417
20
14.6641501494066
30
0.000000000000000
11
-36.2555941023417
21
14.8053168237393
31
0.000000000000000
  0
LINE
  5
F10356
330
F10357
100
AcDbEntity
8
Geo
100
AcDbLine
10
-36.2555941023417
20
14.8053168237393
30
0.000000000000000
11
-36.1555941023417
21
14.9382048371772
31
0.000000000000000
  0
LINE
  5
F10358
330
F10359
100
AcDbEntity
8
Geo
100
AcDbLine
10
-36.1555941023417
20
14.9382048371772
30
0.000000000000000
11
-36.0555941023417
21
15.0636148757012
31
0.000000000000000
  0
LINE
  5
F1035A
330
F1035B
100
AcDbEntity
8
Geo
100
AcDbLine
10
-36.0555941023417
20
15.0636148757012
30
0.000000000000000
11
-35.9555941023417
21
15.1822125269783
31
0.000000000000000
  0
LINE
  5
F1035C
330
F1035D
100
AcDbEntity
8
Geo
100
AcDbLine
10
-35.9555941023417
20
15.1822125269783
30
0.000000000000000
11
-35.8555941023417
21
15.2945581243252
31
0.000000000000000
  0
LINE
  5
F1035E
330
F1035F
100
AcDbEntity
8
Geo
100
AcDbLine
10
-35.8555941023417
20
15.2945581243252
30
0.000000000000000
11
-35.7555941023417
21
15.4011286152647
31
0.000000000000000
  0
LINE
  5
F10360
330
F10361
100
AcDbEntity
8
Geo
100
AcDbLine
10
-35.7555941023417
20
15.4011286152647
30
0.000000000000000
11
-35.6555941023417
21
15.5023339154546
31
0.000000000000000
  0
LINE
  5
F10362
330
F10363
100
AcDbEntity
8
Geo
100
AcDbLine
10
-35.6555941023417
20
15.5023339154546
30
0.000000000000000
11
-35.5555941023417
21
15.5985293586098
31
0.000000000000000
  0
LINE
  5
F10364
330
F10365
100
AcDbEntity
8
Geo
100
AcDbLine
10
-35.5555941023417
20
15.5985293586098
30
0.000000000000000
11
-35.4555941023417
21
15.6900253248338
31
0.000000000000000
  0
LINE
  5
F10366
330
F10367
100
AcDbEntity
8
Geo
100
AcDbLine
10
-35.4555941023417
20
15.6900253248338
30
0.000000000000000
11
-35.3555941023417
21
15.7770947919342
31
0.000000000000000
  0
LINE
  5
F10368
330
F10369
100
AcDbEntity
8
Geo
100
AcDbLine
10
-35.3555941023417
20
15.7770947919342
30
0.000000000000000
11
-35.2555941023417
21
15.8599793326010
31
0.000000000000000
  0
LINE
  5
F1036A
330
F1036B
100
AcDbEntity
8
Geo
100
AcDbLine
10
-35.2555941023417
20
15.8599793326010
30
0.000000000000000
11
-35.1555941023417
21
15.9388939314905
31
0.000000000000000
  0
LINE
  5
F1036C
330
F1036D
100
AcDbEntity
8
Geo
100
AcDbLine
10
-35.1555941023417
20
15.9388939314905
30
0.000000000000000
11
-35.0555941023417
21
16.0140308942746
31
0.000000000000000
  0
LINE
  5
F1036E
330
F1036F
100
AcDbEntity
8
Geo
100
AcDbLine
10
-35.0555941023417
20
16.0140308942746
30
0.000000000000000
11
-34.9555941023417
21
16.0855630495366
31
0.000000000000000
  0
LINE
  5
F10370
330
F10371
100
AcDbEntity
8
Geo
100
AcDbLine
10
-34.9555941023417
20
16.0855630495366
30
0.000000000000000
11
-34.8555941023417
21
16.1536463938804
31
0.000000000000000
  0
LINE
  5
F10372
330
F10373
100
AcDbEntity
8
Geo
100
AcDbLine
10
-34.8555941023417
20
16.1536463938804
30
0.000000000000000
11
-34.7555941023417
21
16.2184222942202
31
0.000000000000000
  0
LINE
  5
F10374
330
F10375
100
AcDbEntity
8
Geo
100
AcDbLine
10
-34.7555941023417
20
16.2184222942202
30
0.000000000000000
11
-34.6555941023417
21
16.2800193346281
31
0.000000000000000
  0
LINE
  5
F10376
330
F10377
100
AcDbEntity
8
Geo
100
AcDbLine
10
-34.6555941023417
20
16.2800193346281
30
0.000000000000000
11
-34.5555941023417
21
16.3385548754338
31
0.000000000000000
  0
LINE
  5
F10378
330
F10379
100
AcDbEntity
8
Geo
100
AcDbLine
10
-34.5555941023417
20
16.3385548754338
30
0.000000000000000
11
-34.4555941023417
21
16.3941363775404
31
0.000000000000000
  0
LINE
  5
F1037A
330
F1037B
100
AcDbEntity
8
Geo
100
AcDbLine
10
-34.4555941023417
20
16.3941363775404
30
0.000000000000000
11
-34.3555941023417
21
16.4468625337642
31
0.000000000000000
  0
LINE
  5
F1037C
330
F1037D
100
AcDbEntity
8
Geo
100
AcDbLine
10
-34.3555941023417
20
16.4468625337642
30
0.000000000000000
11
-34.2555941023417
21
16.4968242404816
31
0.000000000000000
  0
LINE
  5
F1037E
330
F1037F
100
AcDbEntity
8
Geo
100
AcDbLine
10
-34.2555941023417
20
16.4968242404816
30
0.000000000000000
11
-34.1555941023417
21
16.5441054362858
31
0.000000000000000
  0
LINE
  5
F10380
330
F10381
100
AcDbEntity
8
Geo
100
AcDbLine
10
-34.1555941023417
20
16.5441054362858
30
0.000000000000000
11
-34.0555941023417
21
16.5887838292290
31
0.000000000000000
  0
LINE
  5
F10382
330
F10383
100
AcDbEntity
8
Geo
100
AcDbLine
10
-34.0555941023417
20
16.5887838292290
30
0.000000000000000
11
-33.9555941023417
21
16.6309315302115
31
0.000000000000000
  0
LINE
  5
F10384
330
F10385
100
AcDbEntity
8
Geo
100
AcDbLine
10
-33.9555941023417
20
16.6309315302115
30
0.000000000000000
11
-33.8555941023417
21
16.6706156068901
31
0.000000000000000
  0
LINE
  5
F10386
330
F10387
100
AcDbEntity
8
Geo
100
AcDbLine
10
-33.8555941023417
20
16.6706156068901
30
0.000000000000000
11
-33.7555941023417
21
16.7078985699529
31
0.000000000000000
  0
LINE
  5
F10388
330
F10389
100
AcDbEntity
8
Geo
100
AcDbLine
10
-33.7555941023417
20
16.7078985699529
30
0.000000000000000
11
-33.6555941023417
21
16.7428388015699
31
0.000000000000000
  0
LINE
  5
F1038A
330
F1038B
100
AcDbEntity
8
Geo
100
AcDbLine
10
-33.6555941023417
20
16.7428388015699
30
0.000000000000000
11
-33.5555941023417
21
16.7754909341912
31
0.000000000000000
  0
LINE
  5
F1038C
330
F1038D
100
AcDbEntity
8
Geo
100
AcDbLine
10
-33.5555941023417
20
16.7754909341912
30
0.000000000000000
11
-33.4555941023417
21
16.8059061865338
31
0.000000000000000
  0
LINE
  5
F1038E
330
F1038F
100
AcDbEntity
8
Geo
100
AcDbLine
10
-33.4555941023417
20
16.8059061865338
30
0.000000000000000
11
-33.3555941023417
21
16.8341326625095
31
0.000000000000000
  0
LINE
  5
F10390
330
F10391
100
AcDbEntity
8
Geo
100
AcDbLine
10
-33.3555941023417
20
16.8341326625095
30
0.000000000000000
11
-33.2555941023417
21
16.8602156179527
31
0.000000000000000
  0
LINE
  5
F10392
330
F10393
100
AcDbEntity
8
Geo
100
AcDbLine
10
-33.2555941023417
20
16.8602156179527
30
0.000000000000000
11
-33.1555941023417
21
16.8841976992749
31
0.000000000000000
  0
LINE
  5
F10394
330
F10395
100
AcDbEntity
8
Geo
100
AcDbLine
10
-33.1555941023417
20
16.8841976992749
30
0.000000000000000
11
-33.0555941023417
21
16.9061191575558
31
0.000000000000000
  0
LINE
  5
F10396
330
F10397
100
AcDbEntity
8
Geo
100
AcDbLine
10
-33.0555941023417
20
16.9061191575558
30
0.000000000000000
11
-32.9555941023417
21
16.9260180410776
31
0.000000000000000
  0
LINE
  5
F10398
330
F10399
100
AcDbEntity
8
Geo
100
AcDbLine
10
-32.9555941023417
20
16.9260180410776
30
0.000000000000000
11
-32.8555941023417
21
16.9439303688798
31
0.000000000000000
  0
LINE
  5
F1039A
330
F1039B
100
AcDbEntity
8
Geo
100
AcDbLine
10
-32.8555941023417
20
16.9439303688798
30
0.000000000000000
11
-32.7555941023417
21
16.9598902875573
31
0.000000000000000
  0
LINE
  5
F1039C
330
F1039D
100
AcDbEntity
8
Geo
100
AcDbLine
10
-32.7555941023417
20
16.9598902875573
30
0.000000000000000
11
-32.6555941023417
21
16.9739302132207
31
0.000000000000000
  0
LINE
  5
F1039E
330
F1039F
100
AcDbEntity
8
Geo
100
AcDbLine
10
-32.6555941023417
20
16.9739302132207
30
0.000000000000000
11
-32.5555941023417
21
16.9860809602830
31
0.000000000000000
  0
LINE
  5
F103A0
330
F103A1
100
AcDbEntity
8
Geo
100
AcDbLine
10
-32.5555941023417
20
16.9860809602830
30
0.000000000000000
11
-32.4555941023417
21
16.9963718585211
31
0.000000000000000
  0
LINE
  5
F103A2
330
F103A3
100
AcDbEntity
8
Geo
100
AcDbLine
10
-32.4555941023417
20
16.9963718585211
30
0.000000000000000
11
-32.3555941023417
21
17.0048308596739
31
0.000000000000000
  0
LINE
  5
F103A4
330
F103A5
100
AcDbEntity
8
Geo
100
AcDbLine
10
-32.3555941023417
20
17.0048308596739
30
0.000000000000000
11
-32.2555941023417
21
17.0114846346816
31
0.000000000000000
  0
LINE
  5
F103A6
330
F103A7
100
AcDbEntity
8
Geo
100
AcDbLine
10
-32.2555941023417
20
17.0114846346816
30
0.000000000000000
11
-32.1555941023417
21
17.0163586625343
31
0.000000000000000
  0
LINE
  5
F103A8
330
F103A9
100
AcDbEntity
8
Geo
100
AcDbLine
10
-32.1555941023417
20
17.0163586625343
30
0.000000000000000
11
-32.0555941023417
21
17.0194773115815
31
0.000000000000000
  0
LINE
  5
F103AA
330
F103AB
100
AcDbEntity
8
Geo
100
AcDbLine
10
-32.0555941023417
20
17.0194773115815
30
0.000000000000000
11
-31.9555941023417
21
17.0208639140523
31
0.000000000000000
  0
LINE
  5
F103AC
330
F103AD
100
AcDbEntity
8
Geo
100
AcDbLine
10
-31.9555941023417
20
17.0208639140523
30
0.000000000000000
11
-31.8555941023417
21
17.0205408344496
31
0.000000000000000
  0
LINE
  5
F103AE
330
F103AF
100
AcDbEntity
8
Geo
100
AcDbLine
10
-31.8555941023417
20
17.0205408344496
30
0.000000000000000
11
-31.7555941023417
21
17.0185295324057
31
0.000000000000000
  0
LINE
  5
F103B0
330
F103B1
100
AcDbEntity
8
Geo
100
AcDbLine
10
-31.7555941023417
20
17.0185295324057
30
0.000000000000000
11
-31.6555941023417
21
17.0148506205184
31
0.000000000000000
  0
LINE
  5
F103B2
330
F103B3
100
AcDbEntity
8
Geo
100
AcDbLine
10
-31.6555941023417
20
17.0148506205184
30
0.000000000000000
11
-31.5555941023417
21
17.0095239176318
31
0.000000000000000
  0
LINE
  5
F103B4
330
F103B5
100
AcDbEntity
8
Geo
100
AcDbLine
10
-31.5555941023417
20
17.0095239176318
30
0.000000000000000
11
-31.4555941023417
21
17.0025684979744
31
0.000000000000000
  0
LINE
  5
F103B6
330
F103B7
100
AcDbEntity
8
Geo
100
AcDbLine
10
-31.4555941023417
20
17.0025684979744
30
0.000000000000000
11
-31.3555941023417
21
16.9940027365209
31
0.000000000000000
  0
LINE
  5
F103B8
330
F103B9
100
AcDbEntity
8
Geo
100
AcDbLine
10
-31.3555941023417
20
16.9940027365209
30
0.000000000000000
11
-31.2555941023417
21
16.9838443509088
31
0.000000000000000
  0
LINE
  5
F103BA
330
F103BB
100
AcDbEntity
8
Geo
100
AcDbLine
10
-31.2555941023417
20
16.9838443509088
30
0.000000000000000
11
-31.1555941023417
21
16.9721104402028
31
0.000000000000000
  0
LINE
  5
F103BC
330
F103BD
100
AcDbEntity
8
Geo
100
AcDbLine
10
-31.1555941023417
20
16.9721104402028
30
0.000000000000000
11
-31.0555941023417
21
16.9588175207722
31
0.000000000000000
  0
LINE
  5
F103BE
330
F103BF
100
AcDbEntity
8
Geo
100
AcDbLine
10
-31.0555941023417
20
16.9588175207722
30
0.000000000000000
11
-30.9555941023417
21
16.9439815595179
31
0.000000000000000
  0
LINE
  5
F103C0
330
F103C1
100
AcDbEntity
8
Geo
100
AcDbLine
10
-30.9555941023417
20
16.9439815595179
30
0.000000000000000
11
-30.8555941023417
21
16.9276180046635
31
0.000000000000000
  0
LINE
  5
F103C2
330
F103C3
100
AcDbEntity
8
Geo
100
AcDbLine
10
-30.8555941023417
20
16.9276180046635
30
0.000000000000000
11
-30.7555941023417
21
16.9097418143019
31
0.000000000000000
  0
LINE
  5
F103C4
330
F103C5
100
AcDbEntity
8
Geo
100
AcDbLine
10
-30.7555941023417
20
16.9097418143019
30
0.000000000000000
11
-30.6555941023417
21
16.8903674828709
31
0.000000000000000
  0
LINE
  5
F103C6
330
F103C7
100
AcDbEntity
8
Geo
100
AcDbLine
10
-30.6555941023417
20
16.8903674828709
30
0.000000000000000
11
-30.5555941023417
21
16.8695090657148
31
0.000000000000000
  0
LINE
  5
F103C8
330
F103C9
100
AcDbEntity
8
Geo
100
AcDbLine
10
-30.5555941023417
20
16.8695090657148
30
0.000000000000000
11
-30.4555941023417
21
16.8471802018722
31
0.000000000000000
  0
LINE
  5
F103CA
330
F103CB
100
AcDbEntity
8
Geo
100
AcDbLine
10
-30.4555941023417
20
16.8471802018722
30
0.000000000000000
11
-30.3555941023417
21
16.8233941352196
31
0.000000000000000
  0
LINE
  5
F103CC
330
F103CD
100
AcDbEntity
8
Geo
100
AcDbLine
10
-30.3555941023417
20
16.8233941352196
30
0.000000000000000
11
-30.2555941023417
21
16.7981637340841
31
0.000000000000000
  0
LINE
  5
F103CE
330
F103CF
100
AcDbEntity
8
Geo
100
AcDbLine
10
-30.2555941023417
20
16.7981637340841
30
0.000000000000000
11
-30.1555941023417
21
16.7715015094315
31
0.000000000000000
  0
LINE
  5
F103D0
330
F103D1
100
AcDbEntity
8
Geo
100
AcDbLine
10
-30.1555941023417
20
16.7715015094315
30
0.000000000000000
11
-30.0555941023417
21
16.7434196317236
31
0.000000000000000
  0
LINE
  5
F103D2
330
F103D3
100
AcDbEntity
8
Geo
100
AcDbLine
10
-30.0555941023417
20
16.7434196317236
30
0.000000000000000
11
-29.9555941023417
21
16.7139299465307
31
0.000000000000000
  0
LINE
  5
F103D4
330
F103D5
100
AcDbEntity
8
Geo
100
AcDbLine
10
-29.9555941023417
20
16.7139299465307
30
0.000000000000000
11
-29.8555941023417
21
16.6830439889764
31
0.000000000000000
  0
LINE
  5
F103D6
330
F103D7
100
AcDbEntity
8
Geo
100
AcDbLine
10
-29.8555941023417
20
16.6830439889764
30
0.000000000000000
11
-29.7555941023417
21
16.6507729970853
31
0.000000000000000
  0
LINE
  5
F103D8
330
F103D9
100
AcDbEntity
8
Geo
100
AcDbLine
10
-29.7555941023417
20
16.6507729970853
30
0.000000000000000
11
-29.6555941023417
21
16.6171279240956
31
0.000000000000000
  0
LINE
  5
F103DA
330
F103DB
100
AcDbEntity
8
Geo
100
AcDbLine
10
-29.6555941023417
20
16.6171279240956
30
0.000000000000000
11
-29.5555941023417
21
16.5821194497955
31
0.000000000000000
  0
LINE
  5
F103DC
330
F103DD
100
AcDbEntity
8
Geo
100
AcDbLine
10
-29.5555941023417
20
16.5821194497955
30
0.000000000000000
11
-29.4555941023417
21
16.5457579909327
31
0.000000000000000
  0
LINE
  5
F103DE
330
F103DF
100
AcDbEntity
8
Geo
100
AcDbLine
10
-29.4555941023417
20
16.5457579909327
30
0.000000000000000
11
-29.3555941023417
21
16.5080537107445
31
0.000000000000000
  0
LINE
  5
F103E0
330
F103E1
100
AcDbEntity
8
Geo
100
AcDbLine
10
-29.3555941023417
20
16.5080537107445
30
0.000000000000000
11
-29.2555941023417
21
16.4690165276488
31
0.000000000000000
  0
LINE
  5
F103E2
330
F103E3
100
AcDbEntity
8
Geo
100
AcDbLine
10
-29.2555941023417
20
16.4690165276488
30
0.000000000000000
11
-29.1555941023417
21
16.4286561231322
31
0.000000000000000
  0
LINE
  5
F103E4
330
F103E5
100
AcDbEntity
8
Geo
100
AcDbLine
10
-29.1555941023417
20
16.4286561231322
30
0.000000000000000
11
-29.0555941023417
21
16.3869819488692
31
0.000000000000000
  0
LINE
  5
F103E6
330
F103E7
100
AcDbEntity
8
Geo
100
AcDbLine
10
-29.0555941023417
20
16.3869819488692
30
0.000000000000000
11
-28.9555941023417
21
16.3440032330982
31
0.000000000000000
  0
LINE
  5
F103E8
330
F103E9
100
AcDbEntity
8
Geo
100
AcDbLine
10
-28.9555941023417
20
16.3440032330982
30
0.000000000000000
11
-28.8555941023417
21
16.2997289862808
31
0.000000000000000
  0
LINE
  5
F103EA
330
F103EB
100
AcDbEntity
8
Geo
100
AcDbLine
10
-28.8555941023417
20
16.2997289862808
30
0.000000000000000
11
-28.7555941023417
21
16.2547054674572
31
0.000000000000000
  0
LINE
  5
F103EC
330
F103ED
100
AcDbEntity
8
Geo
100
AcDbLine
10
-28.7555941023417
20
16.2547054674572
30
0.000000000000000
11
-28.6555941023417
21
16.2094740372307
31
0.000000000000000
  0
LINE
  5
F103EE
330
F103EF
100
AcDbEntity
8
Geo
100
AcDbLine
10
-28.6555941023417
20
16.2094740372307
30
0.000000000000000
11
-28.5555941023417
21
16.1640362033114
31
0.000000000000000
  0
LINE
  5
F103F0
330
F103F1
100
AcDbEntity
8
Geo
100
AcDbLine
10
-28.5555941023417
20
16.1640362033114
30
0.000000000000000
11
-28.4555941023417
21
16.1183934802895
31
0.000000000000000
  0
LINE
  5
F103F2
330
F103F3
100
AcDbEntity
8
Geo
100
AcDbLine
10
-28.4555941023417
20
16.1183934802895
30
0.000000000000000
11
-28.3555941023417
21
16.0725473895851
31
0.000000000000000
  0
LINE
  5
F103F4
330
F103F5
100
AcDbEntity
8
Geo
100
AcDbLine
10
-28.3555941023417
20
16.0725473895851
30
0.000000000000000
11
-28.2555941023417
21
16.0264994593967
31
0.000000000000000
  0
LINE
  5
F103F6
330
F103F7
100
AcDbEntity
8
Geo
100
AcDbLine
10
-28.2555941023417
20
16.0264994593967
30
0.000000000000000
11
-28.1555941023417
21
15.9802512246513
31
0.000000000000000
  0
LINE
  5
F103F8
330
F103F9
100
AcDbEntity
8
Geo
100
AcDbLine
10
-28.1555941023417
20
15.9802512246513
30
0.000000000000000
11
-28.0555941023417
21
15.9338042269523
31
0.000000000000000
  0
LINE
  5
F103FA
330
F103FB
100
AcDbEntity
8
Geo
100
AcDbLine
10
-28.0555941023417
20
15.9338042269523
30
0.000000000000000
11
-27.9555941023417
21
15.8871600145287
31
0.000000000000000
  0
LINE
  5
F103FC
330
F103FD
100
AcDbEntity
8
Geo
100
AcDbLine
10
-27.9555941023417
20
15.8871600145287
30
0.000000000000000
11
-27.8555941023417
21
15.8403201421832
31
0.000000000000000
  0
LINE
  5
F103FE
330
F103FF
100
AcDbEntity
8
Geo
100
AcDbLine
10
-27.8555941023417
20
15.8403201421832
30
0.000000000000000
11
-27.7555941023417
21
15.7932861712405
31
0.000000000000000
  0
LINE
  5
F10400
330
F10401
100
AcDbEntity
8
Geo
100
AcDbLine
10
-27.7555941023417
20
15.7932861712405
30
0.000000000000000
11
-27.6555941023417
21
15.7460596694955
31
0.000000000000000
  0
LINE
  5
F10402
330
F10403
100
AcDbEntity
8
Geo
100
AcDbLine
10
-27.6555941023417
20
15.7460596694955
30
0.000000000000000
11
-27.5555941023417
21
15.6986422111604
31
0.000000000000000
  0
LINE
  5
F10404
330
F10405
100
AcDbEntity
8
Geo
100
AcDbLine
10
-27.5555941023417
20
15.6986422111604
30
0.000000000000000
11
-27.4555941023417
21
15.6510353768127
31
0.000000000000000
  0
LINE
  5
F10406
330
F10407
100
AcDbEntity
8
Geo
100
AcDbLine
10
-27.4555941023417
20
15.6510353768127
30
0.000000000000000
11
-27.3555941023417
21
15.6032407533425
31
0.000000000000000
  0
LINE
  5
F10408
330
F10409
100
AcDbEntity
8
Geo
100
AcDbLine
10
-27.3555941023417
20
15.6032407533425
30
0.000000000000000
11
-27.2555941023417
21
15.5552599338996
31
0.000000000000000
  0
LINE
  5
F1040A
330
F1040B
100
AcDbEntity
8
Geo
100
AcDbLine
10
-27.2555941023417
20
15.5552599338996
30
0.000000000000000
11
-27.1555941023417
21
15.5070945178401
31
0.000000000000000
  0
LINE
  5
F1040C
330
F1040D
100
AcDbEntity
8
Geo
100
AcDbLine
10
-27.1555941023417
20
15.5070945178401
30
0.000000000000000
11
-27.0555941023417
21
15.4587461106735
31
0.000000000000000
  0
LINE
  5
F1040E
330
F1040F
100
AcDbEntity
8
Geo
100
AcDbLine
10
-27.0555941023417
20
15.4587461106735
30
0.000000000000000
11
-26.9555941023417
21
15.4102163240088
31
0.000000000000000
  0
LINE
  5
F10410
330
F10411
100
AcDbEntity
8
Geo
100
AcDbLine
10
-26.9555941023417
20
15.4102163240088
30
0.000000000000000
11
-26.8555941023417
21
15.3615067755011
31
0.000000000000000
  0
LINE
  5
F10412
330
F10413
100
AcDbEntity
8
Geo
100
AcDbLine
10
-26.8555941023417
20
15.3615067755011
30
0.000000000000000
11
-26.7555941023417
21
15.3126190887975
31
0.000000000000000
  0
LINE
  5
F10414
330
F10415
100
AcDbEntity
8
Geo
100
AcDbLine
10
-26.7555941023417
20
15.3126190887975
30
0.000000000000000
11
-26.6555941023417
21
15.2635548934830
31
0.000000000000000
  0
LINE
  5
F10416
330
F10417
100
AcDbEntity
8
Geo
100
AcDbLine
10
-26.6555941023417
20
15.2635548934830
30
0.000000000000000
11
-26.5555941023417
21
15.2143158250263
31
0.000000000000000
  0
LINE
  5
F10418
330
F10419
100
AcDbEntity
8
Geo
100
AcDbLine
10
-26.5555941023417
20
15.2143158250263
30
0.000000000000000
11
-26.4555941023417
21
15.1649035247251
31
0.000000000000000
  0
LINE
  5
F1041A
330
F1041B
100
AcDbEntity
8
Geo
100
AcDbLine
10
-26.4555941023417
20
15.1649035247251
30
0.000000000000000
11
-26.3555941023417
21
15.1153196396515
31
0.000000000000000
  0
LINE
  5
F1041C
330
F1041D
100
AcDbEntity
8
Geo
100
AcDbLine
10
-26.3555941023417
20
15.1153196396515
30
0.000000000000000
11
-26.2555941023417
21
15.0655658225971
31
0.000000000000000
  0
LINE
  5
F1041E
330
F1041F
100
AcDbEntity
8
Geo
100
AcDbLine
10
-26.2555941023417
20
15.0655658225971
30
0.000000000000000
11
-26.1555941023417
21
15.0156437320178
31
0.000000000000000
  0
LINE
  5
F10420
330
F10421
100
AcDbEntity
8
Geo
100
AcDbLine
10
-26.1555941023417
20
15.0156437320178
30
0.000000000000000
11
-26.0555941023417
21
14.9655550319787
31
0.000000000000000
  0
LINE
  5
F10422
330
F10423
100
AcDbEntity
8
Geo
100
AcDbLine
10
-26.0555941023417
20
14.9655550319787
30
0.000000000000000
11
-25.9555941023417
21
14.9153013920984
31
0.000000000000000
  0
LINE
  5
F10424
330
F10425
100
AcDbEntity
8
Geo
100
AcDbLine
10
-25.9555941023417
20
14.9153013920984
30
0.000000000000000
11
-25.8555941023417
21
14.8648844874938
31
0.000000000000000
  0
LINE
  5
F10426
330
F10427
100
AcDbEntity
8
Geo
100
AcDbLine
10
-25.8555941023417
20
14.8648844874938
30
0.000000000000000
11
-25.7555941023417
21
14.8143059987235
31
0.000000000000000
  0
LINE
  5
F10428
330
F10429
100
AcDbEntity
8
Geo
100
AcDbLine
10
-25.7555941023417
20
14.8143059987235
30
0.000000000000000
11
-25.6555941023417
21
14.7635676117326
31
0.000000000000000
  0
LINE
  5
F1042A
330
F1042B
100
AcDbEntity
8
Geo
100
AcDbLine
10
-25.6555941023417
20
14.7635676117326
30
0.000000000000000
11
-25.5555941023417
21
14.7126710177959
31
0.000000000000000
  0
LINE
  5
F1042C
330
F1042D
100
AcDbEntity
8
Geo
100
AcDbLine
10
-25.5555941023417
20
14.7126710177959
30
0.000000000000000
11
-25.4555941023417
21
14.6616179134618
31
0.000000000000000
  0
LINE
  5
F1042E
330
F1042F
100
AcDbEntity
8
Geo
100
AcDbLine
10
-25.4555941023417
20
14.6616179134618
30
0.000000000000000
11
-25.3555941023417
21
14.6104100004957
31
0.000000000000000
  0
LINE
  5
F10430
330
F10431
100
AcDbEntity
8
Geo
100
AcDbLine
10
-25.3555941023417
20
14.6104100004957
30
0.000000000000000
11
-25.2555941023417
21
14.5590489858233
31
0.000000000000000
  0
LINE
  5
F10432
330
F10433
100
AcDbEntity
8
Geo
100
AcDbLine
10
-25.2555941023417
20
14.5590489858233
30
0.000000000000000
11
-25.1555941023417
21
14.5075365814738
31
0.000000000000000
  0
LINE
  5
F10434
330
F10435
100
AcDbEntity
8
Geo
100
AcDbLine
10
-25.1555941023417
20
14.5075365814738
30
0.000000000000000
11
-25.0555941023417
21
14.4558745045224
31
0.000000000000000
  0
LINE
  5
F10436
330
F10437
100
AcDbEntity
8
Geo
100
AcDbLine
10
-25.0555941023417
20
14.4558745045224
30
0.000000000000000
11
-24.9555941023417
21
14.4040644770336
31
0.000000000000000
  0
LINE
  5
F10438
330
F10439
100
AcDbEntity
8
Geo
100
AcDbLine
10
-24.9555941023417
20
14.4040644770336
30
0.000000000000000
11
-24.8555941023417
21
14.3521082260036
31
0.000000000000000
  0
LINE
  5
F1043A
330
F1043B
100
AcDbEntity
8
Geo
100
AcDbLine
10
-24.8555941023417
20
14.3521082260036
30
0.000000000000000
11
-24.7555941023417
21
14.3000074833025
31
0.000000000000000
  0
LINE
  5
F1043C
330
F1043D
100
AcDbEntity
8
Geo
100
AcDbLine
10
-24.7555941023417
20
14.3000074833025
30
0.000000000000000
11
-24.6555941023417
21
14.2477639856170
31
0.000000000000000
  0
LINE
  5
F1043E
330
F1043F
100
AcDbEntity
8
Geo
100
AcDbLine
10
-24.6555941023417
20
14.2477639856170
30
0.000000000000000
11
-24.5555941023417
21
14.1953794743921
31
0.000000000000000
  0
LINE
  5
F10440
330
F10441
100
AcDbEntity
8
Geo
100
AcDbLine
10
-24.5555941023417
20
14.1953794743921
30
0.000000000000000
11
-24.4555941023417
21
14.1428556957734
31
0.000000000000000
  0
LINE
  5
F10442
330
F10443
100
AcDbEntity
8
Geo
100
AcDbLine
10
-24.4555941023417
20
14.1428556957734
30
0.000000000000000
11
-24.3555941023417
21
14.0901944005486
31
0.000000000000000
  0
LINE
  5
F10444
330
F10445
100
AcDbEntity
8
Geo
100
AcDbLine
10
-24.3555941023417
20
14.0901944005486
30
0.000000000000000
11
-24.2555941023417
21
14.0373973440894
31
0.000000000000000
  0
LINE
  5
F10446
330
F10447
100
AcDbEntity
8
Geo
100
AcDbLine
10
-24.2555941023417
20
14.0373973440894
30
0.000000000000000
11
-24.1555941023417
21
13.9844662862927
31
0.000000000000000
  0
LINE
  5
F10448
330
F10449
100
AcDbEntity
8
Geo
100
AcDbLine
10
-24.1555941023417
20
13.9844662862927
30
0.000000000000000
11
-24.0555941023418
21
13.9314029915222
31
0.000000000000000
  0
LINE
  5
F1044A
330
F1044B
100
AcDbEntity
8
Geo
100
AcDbLine
10
-24.0555941023418
20
13.9314029915222
30
0.000000000000000
11
-23.9555941023417
21
13.8782092285496
31
0.000000000000000
  0
LINE
  5
F1044C
330
F1044D
100
AcDbEntity
8
Geo
100
AcDbLine
10
-23.9555941023417
20
13.8782092285496
30
0.000000000000000
11
-23.8555941023417
21
13.8248867704953
31
0.000000000000000
  0
LINE
  5
F1044E
330
F1044F
100
AcDbEntity
8
Geo
100
AcDbLine
10
-23.8555941023417
20
13.8248867704953
30
0.000000000000000
11
-23.7555941023417
21
13.7714373947697
31
0.000000000000000
  0
LINE
  5
F10450
330
F10451
100
AcDbEntity
8
Geo
100
AcDbLine
10
-23.7555941023417
20
13.7714373947697
30
0.000000000000000
11
-23.6555941023418
21
13.7178628830136
31
0.000000000000000
  0
LINE
  5
F10452
330
F10453
100
AcDbEntity
8
Geo
100
AcDbLine
10
-23.6555941023418
20
13.7178628830136
30
0.000000000000000
11
-23.5555941023418
21
13.6641650210392
31
0.000000000000000
  0
LINE
  5
F10454
330
F10455
100
AcDbEntity
8
Geo
100
AcDbLine
10
-23.5555941023418
20
13.6641650210392
30
0.000000000000000
11
-23.4555941023417
21
13.6103455987703
31
0.000000000000000
  0
LINE
  5
F10456
330
F10457
100
AcDbEntity
8
Geo
100
AcDbLine
10
-23.4555941023417
20
13.6103455987703
30
0.000000000000000
11
-23.3555941023418
21
13.5564064101825
31
0.000000000000000
  0
LINE
  5
F10458
330
F10459
100
AcDbEntity
8
Geo
100
AcDbLine
10
-23.3555941023418
20
13.5564064101825
30
0.000000000000000
11
-23.2555941023418
21
13.5023492532438
31
0.000000000000000
  0
LINE
  5
F1045A
330
F1045B
100
AcDbEntity
8
Geo
100
AcDbLine
10
-23.2555941023418
20
13.5023492532438
30
0.000000000000000
11
-23.1555941023418
21
13.4481759298546
31
0.000000000000000
  0
LINE
  5
F1045C
330
F1045D
100
AcDbEntity
8
Geo
100
AcDbLine
10
-23.1555941023418
20
13.4481759298546
30
0.000000000000000
11
-23.0555941023418
21
13.3938882457871
31
0.000000000000000
  0
LINE
  5
F1045E
330
F1045F
100
AcDbEntity
8
Geo
100
AcDbLine
10
-23.0555941023418
20
13.3938882457871
30
0.000000000000000
11
-22.9555941023418
21
13.3394880106258
31
0.000000000000000
  0
LINE
  5
F10460
330
F10461
100
AcDbEntity
8
Geo
100
AcDbLine
10
-22.9555941023418
20
13.3394880106258
30
0.000000000000000
11
-22.8555941023418
21
13.2849770377070
31
0.000000000000000
  0
LINE
  5
F10462
330
F10463
100
AcDbEntity
8
Geo
100
AcDbLine
10
-22.8555941023418
20
13.2849770377070
30
0.000000000000000
11
-22.7555941023418
21
13.2303571440579
31
0.000000000000000
  0
LINE
  5
F10464
330
F10465
100
AcDbEntity
8
Geo
100
AcDbLine
10
-22.7555941023418
20
13.2303571440579
30
0.000000000000000
11
-22.6555941023418
21
13.1756301503366
31
0.000000000000000
  0
LINE
  5
F10466
330
F10467
100
AcDbEntity
8
Geo
100
AcDbLine
10
-22.6555941023418
20
13.1756301503366
30
0.000000000000000
11
-22.5555941023418
21
13.1207978807712
31
0.000000000000000
  0
LINE
  5
F10468
330
F10469
100
AcDbEntity
8
Geo
100
AcDbLine
10
-22.5555941023418
20
13.1207978807712
30
0.000000000000000
11
-22.4555941023417
21
13.0658621630990
31
0.000000000000000
  0
LINE
  5
F1046A
330
F1046B
100
AcDbEntity
8
Geo
100
AcDbLine
10
-22.4555941023417
20
13.0658621630990
30
0.000000000000000
11
-22.3555941023417
21
13.0108248285053
31
0.000000000000000
  0
LINE
  5
F1046C
330
F1046D
100
AcDbEntity
8
Geo
100
AcDbLine
10
-22.3555941023417
20
13.0108248285053
30
0.000000000000000
11
-22.2555941023417
21
12.9556877115630
31
0.000000000000000
  0
LINE
  5
F1046E
330
F1046F
100
AcDbEntity
8
Geo
100
AcDbLine
10
-22.2555941023417
20
12.9556877115630
30
0.000000000000000
11
-22.1555941023417
21
12.9004526501709
31
0.000000000000000
  0
LINE
  5
F10470
330
F10471
100
AcDbEntity
8
Geo
100
AcDbLine
10
-22.1555941023417
20
12.9004526501709
30
0.000000000000000
11
-22.0555941023417
21
12.8451214854924
31
0.000000000000000
  0
LINE
  5
F10472
330
F10473
100
AcDbEntity
8
Geo
100
AcDbLine
10
-22.0555941023417
20
12.8451214854924
30
0.000000000000000
11
-21.9555941023417
21
12.7896960618948
31
0.000000000000000
  0
LINE
  5
F10474
330
F10475
100
AcDbEntity
8
Geo
100
AcDbLine
10
-21.9555941023417
20
12.7896960618948
30
0.000000000000000
11
-21.8555941023417
21
12.7341782268869
31
0.000000000000000
  0
LINE
  5
F10476
330
F10477
100
AcDbEntity
8
Geo
100
AcDbLine
10
-21.8555941023417
20
12.7341782268869
30
0.000000000000000
11
-21.7555941023417
21
12.6785698310582
31
0.000000000000000
  0
LINE
  5
F10478
330
F10479
100
AcDbEntity
8
Geo
100
AcDbLine
10
-21.7555941023417
20
12.6785698310582
30
0.000000000000000
11
-21.6555941023417
21
12.6228727280166
31
0.000000000000000
  0
LINE
  5
F1047A
330
F1047B
100
AcDbEntity
8
Geo
100
AcDbLine
10
-21.6555941023417
20
12.6228727280166
30
0.000000000000000
11
-21.5555941023417
21
12.5670887743271
31
0.000000000000000
  0
LINE
  5
F1047C
330
F1047D
100
AcDbEntity
8
Geo
100
AcDbLine
10
-21.5555941023417
20
12.5670887743271
30
0.000000000000000
11
-21.4555941023417
21
12.5112198294497
31
0.000000000000000
  0
LINE
  5
F1047E
330
F1047F
100
AcDbEntity
8
Geo
100
AcDbLine
10
-21.4555941023417
20
12.5112198294497
30
0.000000000000000
11
-21.3555941023417
21
12.4552677556773
31
0.000000000000000
  0
LINE
  5
F10480
330
F10481
100
AcDbEntity
8
Geo
100
AcDbLine
10
-21.3555941023417
20
12.4552677556773
30
0.000000000000000
11
-21.2555941023417
21
12.3992344180740
31
0.000000000000000
  0
LINE
  5
F10482
330
F10483
100
AcDbEntity
8
Geo
100
AcDbLine
10
-21.2555941023417
20
12.3992344180740
30
0.000000000000000
11
-21.1555941023417
21
12.3431216844124
31
0.000000000000000
  0
LINE
  5
F10484
330
F10485
100
AcDbEntity
8
Geo
100
AcDbLine
10
-21.1555941023417
20
12.3431216844124
30
0.000000000000000
11
-21.0555941023417
21
12.2869314251118
31
0.000000000000000
  0
LINE
  5
F10486
330
F10487
100
AcDbEntity
8
Geo
100
AcDbLine
10
-21.0555941023417
20
12.2869314251118
30
0.000000000000000
11
-20.9555941023417
21
12.2306655131756
31
0.000000000000000
  0
LINE
  5
F10488
330
F10489
100
AcDbEntity
8
Geo
100
AcDbLine
10
-20.9555941023417
20
12.2306655131756
30
0.000000000000000
11
-20.8555941023417
21
12.1743258241290
31
0.000000000000000
  0
LINE
  5
F1048A
330
F1048B
100
AcDbEntity
8
Geo
100
AcDbLine
10
-20.8555941023417
20
12.1743258241290
30
0.000000000000000
11
-20.7555941023417
21
12.1179142359565
31
0.000000000000000
  0
LINE
  5
F1048C
330
F1048D
100
AcDbEntity
8
Geo
100
AcDbLine
10
-20.7555941023417
20
12.1179142359565
30
0.000000000000000
11
-20.6555941023417
21
12.0614326290391
31
0.000000000000000
  0
LINE
  5
F1048E
330
F1048F
100
AcDbEntity
8
Geo
100
AcDbLine
10
-20.6555941023417
20
12.0614326290391
30
0.000000000000000
11
-20.5555941023417
21
12.0048828860917
31
0.000000000000000
  0
LINE
  5
F10490
330
F10491
100
AcDbEntity
8
Geo
100
AcDbLine
10
-20.5555941023417
20
12.0048828860917
30
0.000000000000000
11
-20.4555941023417
21
11.9482668921007
31
0.000000000000000
  0
LINE
  5
F10492
330
F10493
100
AcDbEntity
8
Geo
100
AcDbLine
10
-20.4555941023417
20
11.9482668921007
30
0.000000000000000
11
-20.3555941023417
21
11.8915865342605
31
0.000000000000000
  0
LINE
  5
F10494
330
F10495
100
AcDbEntity
8
Geo
100
AcDbLine
10
-20.3555941023417
20
11.8915865342605
30
0.000000000000000
11
-20.2555941023417
21
11.8348437019111
31
0.000000000000000
  0
LINE
  5
F10496
330
F10497
100
AcDbEntity
8
Geo
100
AcDbLine
10
-20.2555941023417
20
11.8348437019111
30
0.000000000000000
11
-20.1555941023417
21
11.7780402864751
31
0.000000000000000
  0
LINE
  5
F10498
330
F10499
100
AcDbEntity
8
Geo
100
AcDbLine
10
-20.1555941023417
20
11.7780402864751
30
0.000000000000000
11
-20.0555941023417
21
11.7211781813944
31
0.000000000000000
  0
LINE
  5
F1049A
330
F1049B
100
AcDbEntity
8
Geo
100
AcDbLine
10
-20.0555941023417
20
11.7211781813944
30
0.000000000000000
11
-19.9555941023417
21
11.6642592820672
31
0.000000000000000
  0
LINE
  5
F1049C
330
F1049D
100
AcDbEntity
8
Geo
100
AcDbLine
10
-19.9555941023417
20
11.6642592820672
30
0.000000000000000
11
-19.8555941023417
21
11.6072854857848
31
0.000000000000000
  0
LINE
  5
F1049E
330
F1049F
100
AcDbEntity
8
Geo
100
AcDbLine
10
-19.8555941023417
20
11.6072854857848
30
0.000000000000000
11
-19.7555941023417
21
11.5502586916686
31
0.000000000000000
  0
LINE
  5
F104A0
330
F104A1
100
AcDbEntity
8
Geo
100
AcDbLine
10
-19.7555941023417
20
11.5502586916686
30
0.000000000000000
11
-19.6555941023417
21
11.4931808006065
31
0.000000000000000
  0
LINE
  5
F104A2
330
F104A3
100
AcDbEntity
8
Geo
100
AcDbLine
10
-19.6555941023417
20
11.4931808006065
30
0.000000000000000
11
-19.5555941023417
21
11.4360537151894
31
0.000000000000000
  0
LINE
  5
F104A4
330
F104A5
100
AcDbEntity
8
Geo
100
AcDbLine
10
-19.5555941023417
20
11.4360537151894
30
0.000000000000000
11
-19.4555941023417
21
11.3788793396483
31
0.000000000000000
  0
LINE
  5
F104A6
330
F104A7
100
AcDbEntity
8
Geo
100
AcDbLine
10
-19.4555941023417
20
11.3788793396483
30
0.000000000000000
11
-19.3555941023417
21
11.3216595797903
31
0.000000000000000
  0
LINE
  5
F104A8
330
F104A9
100
AcDbEntity
8
Geo
100
AcDbLine
10
-19.3555941023417
20
11.3216595797903
30
0.000000000000000
11
-19.2555941023417
21
11.2643963429357
31
0.000000000000000
  0
LINE
  5
F104AA
330
F104AB
100
AcDbEntity
8
Geo
100
AcDbLine
10
-19.2555941023417
20
11.2643963429357
30
0.000000000000000
11
-19.1555941023417
21
11.2070915378535
31
0.000000000000000
  0
LINE
  5
F104AC
330
F104AD
100
AcDbEntity
8
Geo
100
AcDbLine
10
-19.1555941023417
20
11.2070915378535
30
0.000000000000000
11
-19.0555941023417
21
11.1497470746987
31
0.000000000000000
  0
LINE
  5
F104AE
330
F104AF
100
AcDbEntity
8
Geo
100
AcDbLine
10
-19.0555941023417
20
11.1497470746987
30
0.000000000000000
11
-18.9555941023417
21
11.0923648649480
31
0.000000000000000
  0
LINE
  5
F104B0
330
F104B1
100
AcDbEntity
8
Geo
100
AcDbLine
10
-37.4555941023417
20
4.91846676707793
30
0.000000000000000
11
-37.4555941023417
21
5.19093455769699
31
0.000000000000000
  0
LINE
  5
F104B2
330
F104B3
100
AcDbEntity
8
Geo
100
AcDbLine
10
-37.4555941023417
20
5.19093455769699
30
0.000000000000000
11
-37.3555941023417
21
5.25936557823457
31
0.000000000000000
  0
LINE
  5
F104B4
330
F104B5
100
AcDbEntity
8
Geo
100
AcDbLine
10
-37.3555941023417
20
5.25936557823457
30
0.000000000000000
11
-37.2555941023417
21
5.29867959441113
31
0.000000000000000
  0
LINE
  5
F104B6
330
F104B7
100
AcDbEntity
8
Geo
100
AcDbLine
10
-37.2555941023417
20
5.29867959441113
30
0.000000000000000
11
-37.1555941023417
21
5.32371450276689
31
0.000000000000000
  0
LINE
  5
F104B8
330
F104B9
100
AcDbEntity
8
Geo
100
AcDbLine
10
-37.1555941023417
20
5.32371450276689
30
0.000000000000000
11
-37.0555941023417
21
5.33938622831416
31
0.000000000000000
  0
LINE
  5
F104BA
330
F104BB
100
AcDbEntity
8
Geo
100
AcDbLine
10
-37.0555941023417
20
5.33938622831416
30
0.000000000000000
11
-36.9555941023417
21
5.34811841454268
31
0.000000000000000
  0
LINE
  5
F104BC
330
F104BD
100
AcDbEntity
8
Geo
100
AcDbLine
10
-36.9555941023417
20
5.34811841454268
30
0.000000000000000
11
-36.8555941023417
21
5.35134427168034
31
0.000000000000000
  0
LINE
  5
F104BE
330
F104BF
100
AcDbEntity
8
Geo
100
AcDbLine
10
-36.8555941023417
20
5.35134427168034
30
0.000000000000000
11
-36.7555941023417
21
5.35000810993548
31
0.000000000000000
  0
LINE
  5
F104C0
330
F104C1
100
AcDbEntity
8
Geo
100
AcDbLine
10
-36.7555941023417
20
5.35000810993548
30
0.000000000000000
11
-36.6555941023417
21
5.34477887086350
31
0.000000000000000
  0
LINE
  5
F104C2
330
F104C3
100
AcDbEntity
8
Geo
100
AcDbLine
10
-36.6555941023417
20
5.34477887086350
30
0.000000000000000
11
-36.5555941023417
21
5.33615580368859
31
0.000000000000000
  0
LINE
  5
F104C4
330
F104C5
100
AcDbEntity
8
Geo
100
AcDbLine
10
-36.5555941023417
20
5.33615580368859
30
0.000000000000000
11
-36.4555941023417
21
5.32452649920995
31
0.000000000000000
  0
LINE
  5
F104C6
330
F104C7
100
AcDbEntity
8
Geo
100
AcDbLine
10
-36.4555941023417
20
5.32452649920995
30
0.000000000000000
11
-36.3555941023417
21
5.31020130384208
31
0.000000000000000
  0
LINE
  5
F104C8
330
F104C9
100
AcDbEntity
8
Geo
100
AcDbLine
10
-36.3555941023417
20
5.31020130384208
30
0.000000000000000
11
-36.2555941023417
21
5.29343497226986
31
0.000000000000000
  0
LINE
  5
F104CA
330
F104CB
100
AcDbEntity
8
Geo
100
AcDbLine
10
-36.2555941023417
20
5.29343497226986
30
0.000000000000000
11
-36.1555941023417
21
5.27444094890391
31
0.000000000000000
  0
LINE
  5
F104CC
330
F104CD
100
AcDbEntity
8
Geo
100
AcDbLine
10
-36.1555941023417
20
5.27444094890391
30
0.000000000000000
11
-36.0555941023417
21
5.25340115727862
31
0.000000000000000
  0
LINE
  5
F104CE
330
F104CF
100
AcDbEntity
8
Geo
100
AcDbLine
10
-36.0555941023417
20
5.25340115727862
30
0.000000000000000
11
-35.9555941023417
21
5.23047292886576
31
0.000000000000000
  0
LINE
  5
F104D0
330
F104D1
100
AcDbEntity
8
Geo
100
AcDbLine
10
-35.9555941023417
20
5.23047292886576
30
0.000000000000000
11
-35.8555941023417
21
5.20579404195625
31
0.000000000000000
  0
LINE
  5
F104D2
330
F104D3
100
AcDbEntity
8
Geo
100
AcDbLine
10
-35.8555941023417
20
5.20579404195625
30
0.000000000000000
11
-35.7555941023417
21
5.17948647224549
31
0.000000000000000
  0
LINE
  5
F104D4
330
F104D5
100
AcDbEntity
8
Geo
100
AcDbLine
10
-35.7555941023417
20
5.17948647224549
30
0.000000000000000
11
-35.6555941023417
21
5.15165924128653
31
0.000000000000000
  0
LINE
  5
F104D6
330
F104D7
100
AcDbEntity
8
Geo
100
AcDbLine
10
-35.6555941023417
20
5.15165924128653
30
0.000000000000000
11
-35.5555941023417
21
5.12241061826314
31
0.000000000000000
  0
LINE
  5
F104D8
330
F104D9
100
AcDbEntity
8
Geo
100
AcDbLine
10
-35.5555941023417
20
5.12241061826314
30
0.000000000000000
11
-35.4555941023417
21
5.09182984857416
31
0.000000000000000
  0
LINE
  5
F104DA
330
F104DB
100
AcDbEntity
8
Geo
100
AcDbLine
10
-35.4555941023417
20
5.09182984857416
30
0.000000000000000
11
-35.3555941023417
21
5.05999852981933
31
0.000000000000000
  0
LINE
  5
F104DC
330
F104DD
100
AcDbEntity
8
Geo
100
AcDbLine
10
-35.3555941023417
20
5.05999852981933
30
0.000000000000000
11
-35.2555941023417
21
5.02699172074911
31
0.000000000000000
  0
LINE
  5
F104DE
330
F104DF
100
AcDbEntity
8
Geo
100
AcDbLine
10
-35.2555941023417
20
5.02699172074911
30
0.000000000000000
11
-35.1555941023417
21
4.99287884501363
31
0.000000000000000
  0
LINE
  5
F104E0
330
F104E1
100
AcDbEntity
8
Geo
100
AcDbLine
10
-35.1555941023417
20
4.99287884501363
30
0.000000000000000
11
-35.0555941023417
21
4.95772443514404
31
0.000000000000000
  0
LINE
  5
F104E2
330
F104E3
100
AcDbEntity
8
Geo
100
AcDbLine
10
-35.0555941023417
20
4.95772443514404
30
0.000000000000000
11
-34.9555941023417
21
4.92158875065069
31
0.000000000000000
  0
LINE
  5
F104E4
330
F104E5
100
AcDbEntity
8
Geo
100
AcDbLine
10
-34.9555941023417
20
4.92158875065069
30
0.000000000000000
11
-34.8555941023417
21
4.88452829585516
31
0.000000000000000
  0
LINE
  5
F104E6
330
F104E7
100
AcDbEntity
8
Geo
100
AcDbLine
10
-34.8555941023417
20
4.88452829585516
30
0.000000000000000
11
-34.7555941023417
21
4.84659625706462
31
0.000000000000000
  0
LINE
  5
F104E8
330
F104E9
100
AcDbEntity
8
Geo
100
AcDbLine
10
-34.7555941023417
20
4.84659625706462
30
0.000000000000000
11
-34.6555941023417
21
4.80784287426897
31
0.000000000000000
  0
LINE
  5
F104EA
330
F104EB
100
AcDbEntity
8
Geo
100
AcDbLine
10
-34.6555941023417
20
4.80784287426897
30
0.000000000000000
11
-34.5555941023417
21
4.76831575923702
31
0.000000000000000
  0
LINE
  5
F104EC
330
F104ED
100
AcDbEntity
8
Geo
100
AcDbLine
10
-34.5555941023417
20
4.76831575923702
30
0.000000000000000
11
-34.4555941023417
21
4.72806016939265
31
0.000000000000000
  0
LINE
  5
F104EE
330
F104EF
100
AcDbEntity
8
Geo
100
AcDbLine
10
-34.4555941023417
20
4.72806016939265
30
0.000000000000000
11
-34.3555941023417
21
4.68711924494759
31
0.000000000000000
  0
LINE
  5
F104F0
330
F104F1
100
AcDbEntity
8
Geo
100
AcDbLine
10
-34.3555941023417
20
4.68711924494759
30
0.000000000000000
11
-34.2555941023417
21
4.64553421529932
31
0.000000000000000
  0
LINE
  5
F104F2
330
F104F3
100
AcDbEntity
8
Geo
100
AcDbLine
10
-34.2555941023417
20
4.64553421529932
30
0.000000000000000
11
-34.1555941023417
21
4.60334457955999
31
0.000000000000000
  0
LINE
  5
F104F4
330
F104F5
100
AcDbEntity
8
Geo
100
AcDbLine
10
-34.1555941023417
20
4.60334457955999
30
0.000000000000000
11
-34.0555941023417
21
4.56058826518568
31
0.000000000000000
  0
LINE
  5
F104F6
330
F104F7
100
AcDbEntity
8
Geo
100
AcDbLine
10
-34.0555941023417
20
4.56058826518568
30
0.000000000000000
11
-33.9555941023417
21
4.51730176796577
31
0.000000000000000
  0
LINE
  5
F104F8
330
F104F9
100
AcDbEntity
8
Geo
100
AcDbLine
10
-33.9555941023417
20
4.51730176796577
30
0.000000000000000
11
-33.8555941023417
21
4.47352027606641
31
0.000000000000000
  0
LINE
  5
F104FA
330
F104FB
100
AcDbEntity
8
Geo
100
AcDbLine
10
-33.8555941023417
20
4.47352027606641
30
0.000000000000000
11
-33.7555941023417
21
4.42927778036783
31
0.000000000000000
  0
LINE
  5
F104FC
330
F104FD
100
AcDbEntity
8
Geo
100
AcDbLine
10
-33.7555941023417
20
4.42927778036783
30
0.000000000000000
11
-33.6555941023417
21
4.38460717296818
31
0.000000000000000
  0
LINE
  5
F104FE
330
F104FF
100
AcDbEntity
8
Geo
100
AcDbLine
10
-33.6555941023417
20
4.38460717296818
30
0.000000000000000
11
-33.5555941023417
21
4.33954033542752
31
0.000000000000000
  0
LINE
  5
F10500
330
F10501
100
AcDbEntity
8
Geo
100
AcDbLine
10
-33.5555941023417
20
4.33954033542752
30
0.000000000000000
11
-33.4555941023417
21
4.29410821808165
31
0.000000000000000
  0
LINE
  5
F10502
330
F10503
100
AcDbEntity
8
Geo
100
AcDbLine
10
-33.4555941023417
20
4.29410821808165
30
0.000000000000000
11
-33.3555941023417
21
4.24834091155391
31
0.000000000000000
  0
LINE
  5
F10504
330
F10505
100
AcDbEntity
8
Geo
100
AcDbLine
10
-33.3555941023417
20
4.24834091155391
30
0.000000000000000
11
-33.2555941023417
21
4.20226771142691
31
0.000000000000000
  0
LINE
  5
F10506
330
F10507
100
AcDbEntity
8
Geo
100
AcDbLine
10
-33.2555941023417
20
4.20226771142691
30
0.000000000000000
11
-33.1555941023417
21
4.15591717689775
31
0.000000000000000
  0
LINE
  5
F10508
330
F10509
100
AcDbEntity
8
Geo
100
AcDbLine
10
-33.1555941023417
20
4.15591717689775
30
0.000000000000000
11
-33.0555941023417
21
4.10931718412475
31
0.000000000000000
  0
LINE
  5
F1050A
330
F1050B
100
AcDbEntity
8
Geo
100
AcDbLine
10
-33.0555941023417
20
4.10931718412475
30
0.000000000000000
11
-32.9555941023417
21
4.06249497487676
31
0.000000000000000
  0
LINE
  5
F1050C
330
F1050D
100
AcDbEntity
8
Geo
100
AcDbLine
10
-32.9555941023417
20
4.06249497487676
30
0.000000000000000
11
-32.8555941023417
21
4.01547720101422
31
0.000000000000000
  0
LINE
  5
F1050E
330
F1050F
100
AcDbEntity
8
Geo
100
AcDbLine
10
-32.8555941023417
20
4.01547720101422
30
0.000000000000000
11
-32.7555941023417
21
3.96828996526239
31
0.000000000000000
  0
LINE
  5
F10510
330
F10511
100
AcDbEntity
8
Geo
100
AcDbLine
10
-32.7555941023417
20
3.96828996526239
30
0.000000000000000
11
-32.6555941023417
21
3.92095885867785
31
0.000000000000000
  0
LINE
  5
F10512
330
F10513
100
AcDbEntity
8
Geo
100
AcDbLine
10
-32.6555941023417
20
3.92095885867785
30
0.000000000000000
11
-32.5555941023417
21
3.87350899515989
31
0.000000000000000
  0
LINE
  5
F10514
330
F10515
100
AcDbEntity
8
Geo
100
AcDbLine
10
-32.5555941023417
20
3.87350899515989
30
0.000000000000000
11
-32.4555941023417
21
3.82596504331506
31
0.000000000000000
  0
LINE
  5
F10516
330
F10517
100
AcDbEntity
8
Geo
100
AcDbLine
10
-32.4555941023417
20
3.82596504331506
30
0.000000000000000
11
-32.3555941023417
21
3.77835125594672
31
0.000000000000000
  0
LINE
  5
F10518
330
F10519
100
AcDbEntity
8
Geo
100
AcDbLine
10
-32.3555941023417
20
3.77835125594672
30
0.000000000000000
11
-32.2555941023417
21
3.73069149740957
31
0.000000000000000
  0
LINE
  5
F1051A
330
F1051B
100
AcDbEntity
8
Geo
100
AcDbLine
10
-32.2555941023417
20
3.73069149740957
30
0.000000000000000
11
-32.1555941023417
21
3.68300926904180
31
0.000000000000000
  0
LINE
  5
F1051C
330
F1051D
100
AcDbEntity
8
Geo
100
AcDbLine
10
-32.1555941023417
20
3.68300926904180
30
0.000000000000000
11
-32.0555941023417
21
3.63532773286388
31
0.000000000000000
  0
LINE
  5
F1051E
330
F1051F
100
AcDbEntity
8
Geo
100
AcDbLine
10
-32.0555941023417
20
3.63532773286388
30
0.000000000000000
11
-31.9555941023417
21
3.58766973371236
31
0.000000000000000
  0
LINE
  5
F10520
330
F10521
100
AcDbEntity
8
Geo
100
AcDbLine
10
-31.9555941023417
20
3.58766973371236
30
0.000000000000000
11
-31.8555941023417
21
3.54005781995916
31
0.000000000000000
  0
LINE
  5
F10522
330
F10523
100
AcDbEntity
8
Geo
100
AcDbLine
10
-31.8555941023417
20
3.54005781995916
30
0.000000000000000
11
-31.7555941023417
21
3.49251426295114
31
0.000000000000000
  0
LINE
  5
F10524
330
F10525
100
AcDbEntity
8
Geo
100
AcDbLine
10
-31.7555941023417
20
3.49251426295114
30
0.000000000000000
11
-31.6555941023417
21
3.44506107529125
31
0.000000000000000
  0
LINE
  5
F10526
330
F10527
100
AcDbEntity
8
Geo
100
AcDbLine
10
-31.6555941023417
20
3.44506107529125
30
0.000000000000000
11
-31.5555941023417
21
3.39772002807020
31
0.000000000000000
  0
LINE
  5
F10528
330
F10529
100
AcDbEntity
8
Geo
100
AcDbLine
10
-31.5555941023417
20
3.39772002807020
30
0.000000000000000
11
-31.4555941023417
21
3.35051266714751
31
0.000000000000000
  0
LINE
  5
F1052A
330
F1052B
100
AcDbEntity
8
Geo
100
AcDbLine
10
-31.4555941023417
20
3.35051266714751
30
0.000000000000000
11
-31.3555941023417
21
3.30346032857121
31
0.000000000000000
  0
LINE
  5
F1052C
330
F1052D
100
AcDbEntity
8
Geo
100
AcDbLine
10
-31.3555941023417
20
3.30346032857121
30
0.000000000000000
11
-31.2555941023417
21
3.25658415321748
31
0.000000000000000
  0
LINE
  5
F1052E
330
F1052F
100
AcDbEntity
8
Geo
100
AcDbLine
10
-31.2555941023417
20
3.25658415321748
30
0.000000000000000
11
-31.1555941023417
21
3.20990510072416
31
0.000000000000000
  0
LINE
  5
F10530
330
F10531
100
AcDbEntity
8
Geo
100
AcDbLine
10
-31.1555941023417
20
3.20990510072416
30
0.000000000000000
11
-31.0555941023417
21
3.16344396278604
31
0.000000000000000
  0
LINE
  5
F10532
330
F10533
100
AcDbEntity
8
Geo
100
AcDbLine
10
-31.0555941023417
20
3.16344396278604
30
0.000000000000000
11
-30.9555941023417
21
3.11722137587378
31
0.000000000000000
  0
LINE
  5
F10534
330
F10535
100
AcDbEntity
8
Geo
100
AcDbLine
10
-30.9555941023417
20
3.11722137587378
30
0.000000000000000
11
-30.8555941023417
21
3.07125783343376
31
0.000000000000000
  0
LINE
  5
F10536
330
F10537
100
AcDbEntity
8
Geo
100
AcDbLine
10
-30.8555941023417
20
3.07125783343376
30
0.000000000000000
11
-30.7555941023417
21
3.02557369762161
31
0.000000000000000
  0
LINE
  5
F10538
330
F10539
100
AcDbEntity
8
Geo
100
AcDbLine
10
-30.7555941023417
20
3.02557369762161
30
0.000000000000000
11
-30.6555941023417
21
2.98018921061821
31
0.000000000000000
  0
LINE
  5
F1053A
330
F1053B
100
AcDbEntity
8
Geo
100
AcDbLine
10
-30.6555941023417
20
2.98018921061821
30
0.000000000000000
11
-30.5555941023417
21
2.93512450557382
31
0.000000000000000
  0
LINE
  5
F1053C
330
F1053D
100
AcDbEntity
8
Geo
100
AcDbLine
10
-30.5555941023417
20
2.93512450557382
30
0.000000000000000
11
-30.4555941023417
21
2.89039961722267
31
0.000000000000000
  0
LINE
  5
F1053E
330
F1053F
100
AcDbEntity
8
Geo
100
AcDbLine
10
-30.4555941023417
20
2.89039961722267
30
0.000000000000000
11
-30.3555941023417
21
2.84603449220798
31
0.000000000000000
  0
LINE
  5
F10540
330
F10541
100
AcDbEntity
8
Geo
100
AcDbLine
10
-30.3555941023417
20
2.84603449220798
30
0.000000000000000
11
-30.2555941023417
21
2.80204899915498
31
0.000000000000000
  0
LINE
  5
F10542
330
F10543
100
AcDbEntity
8
Geo
100
AcDbLine
10
-30.2555941023417
20
2.80204899915498
30
0.000000000000000
11
-30.1555941023417
21
2.75846293852736
31
0.000000000000000
  0
LINE
  5
F10544
330
F10545
100
AcDbEntity
8
Geo
100
AcDbLine
10
-30.1555941023417
20
2.75846293852736
30
0.000000000000000
11
-30.0555941023417
21
2.71529605230116
31
0.000000000000000
  0
LINE
  5
F10546
330
F10547
100
AcDbEntity
8
Geo
100
AcDbLine
10
-30.0555941023417
20
2.71529605230116
30
0.000000000000000
11
-29.9555941023417
21
2.67256803348822
31
0.000000000000000
  0
LINE
  5
F10548
330
F10549
100
AcDbEntity
8
Geo
100
AcDbLine
10
-29.9555941023417
20
2.67256803348822
30
0.000000000000000
11
-29.8555941023417
21
2.63029853554053
31
0.000000000000000
  0
LINE
  5
F1054A
330
F1054B
100
AcDbEntity
8
Geo
100
AcDbLine
10
-29.8555941023417
20
2.63029853554053
30
0.000000000000000
11
-29.7555941023417
21
2.58850718166532
31
0.000000000000000
  0
LINE
  5
F1054C
330
F1054D
100
AcDbEntity
8
Geo
100
AcDbLine
10
-29.7555941023417
20
2.58850718166532
30
0.000000000000000
11
-29.6555941023417
21
2.54721357408026
31
0.000000000000000
  0
LINE
  5
F1054E
330
F1054F
100
AcDbEntity
8
Geo
100
AcDbLine
10
-29.6555941023417
20
2.54721357408026
30
0.000000000000000
11
-29.5555941023417
21
2.50643730323723
31
0.000000000000000
  0
LINE
  5
F10550
330
F10551
100
AcDbEntity
8
Geo
100
AcDbLine
10
-29.5555941023417
20
2.50643730323723
30
0.000000000000000
11
-29.4555941023417
21
2.46619795704292
31
0.000000000000000
  0
LINE
  5
F10552
330
F10553
100
AcDbEntity
8
Geo
100
AcDbLine
10
-29.4555941023417
20
2.46619795704292
30
0.000000000000000
11
-29.3555941023417
21
2.42651513010392
31
0.000000000000000
  0
LINE
  5
F10554
330
F10555
100
AcDbEntity
8
Geo
100
AcDbLine
10
-29.3555941023417
20
2.42651513010392
30
0.000000000000000
11
-29.2555941023417
21
2.38740843302409
31
0.000000000000000
  0
LINE
  5
F10556
330
F10557
100
AcDbEntity
8
Geo
100
AcDbLine
10
-29.2555941023417
20
2.38740843302409
30
0.000000000000000
11
-29.1555941023417
21
2.34889750178198
31
0.000000000000000
  0
LINE
  5
F10558
330
F10559
100
AcDbEntity
8
Geo
100
AcDbLine
10
-29.1555941023417
20
2.34889750178198
30
0.000000000000000
11
-29.0555941023417
21
2.31100200721617
31
0.000000000000000
  0
LINE
  5
F1055A
330
F1055B
100
AcDbEntity
8
Geo
100
AcDbLine
10
-29.0555941023417
20
2.31100200721617
30
0.000000000000000
11
-28.9555941023417
21
2.27374166464689
31
0.000000000000000
  0
LINE
  5
F1055C
330
F1055D
100
AcDbEntity
8
Geo
100
AcDbLine
10
-28.9555941023417
20
2.27374166464689
30
0.000000000000000
11
-28.8555941023417
21
2.23713624366283
31
0.000000000000000
  0
LINE
  5
F1055E
330
F1055F
100
AcDbEntity
8
Geo
100
AcDbLine
10
-28.8555941023417
20
2.23713624366283
30
0.000000000000000
11
-28.7555941023417
21
2.20099476020097
31
0.000000000000000
  0
LINE
  5
F10560
330
F10561
100
AcDbEntity
8
Geo
100
AcDbLine
10
-28.7555941023417
20
2.20099476020097
30
0.000000000000000
11
-28.6555941023417
21
2.16511382105849
31
0.000000000000000
  0
LINE
  5
F10562
330
F10563
100
AcDbEntity
8
Geo
100
AcDbLine
10
-28.6555941023417
20
2.16511382105849
30
0.000000000000000
11
-28.5555941023417
21
2.12949462226338
31
0.000000000000000
  0
LINE
  5
F10564
330
F10565
100
AcDbEntity
8
Geo
100
AcDbLine
10
-28.5555941023417
20
2.12949462226338
30
0.000000000000000
11
-28.4555941023417
21
2.09413835111897
31
0.000000000000000
  0
LINE
  5
F10566
330
F10567
100
AcDbEntity
8
Geo
100
AcDbLine
10
-28.4555941023417
20
2.09413835111897
30
0.000000000000000
11
-28.3555941023417
21
2.05904618616434
31
0.000000000000000
  0
LINE
  5
F10568
330
F10569
100
AcDbEntity
8
Geo
100
AcDbLine
10
-28.3555941023417
20
2.05904618616434
30
0.000000000000000
11
-28.2555941023417
21
2.02421929713509
31
0.000000000000000
  0
LINE
  5
F1056A
330
F1056B
100
AcDbEntity
8
Geo
100
AcDbLine
10
-28.2555941023417
20
2.02421929713509
30
0.000000000000000
11
-28.1555941023417
21
1.98965884492429
31
0.000000000000000
  0
LINE
  5
F1056C
330
F1056D
100
AcDbEntity
8
Geo
100
AcDbLine
10
-28.1555941023417
20
1.98965884492429
30
0.000000000000000
11
-28.0555941023417
21
1.95536598154382
31
0.000000000000000
  0
LINE
  5
F1056E
330
F1056F
100
AcDbEntity
8
Geo
100
AcDbLine
10
-28.0555941023417
20
1.95536598154382
30
0.000000000000000
11
-27.9555941023417
21
1.92134185008594
31
0.000000000000000
  0
LINE
  5
F10570
330
F10571
100
AcDbEntity
8
Geo
100
AcDbLine
10
-27.9555941023417
20
1.92134185008594
30
0.000000000000000
11
-27.8555941023417
21
1.88758758468522
31
0.000000000000000
  0
LINE
  5
F10572
330
F10573
100
AcDbEntity
8
Geo
100
AcDbLine
10
-27.8555941023417
20
1.88758758468522
30
0.000000000000000
11
-27.7555941023417
21
1.85410431048072
31
0.000000000000000
  0
LINE
  5
F10574
330
F10575
100
AcDbEntity
8
Geo
100
AcDbLine
10
-27.7555941023417
20
1.85410431048072
30
0.000000000000000
11
-27.6555941023417
21
1.82089314357847
31
0.000000000000000
  0
LINE
  5
F10576
330
F10577
100
AcDbEntity
8
Geo
100
AcDbLine
10
-27.6555941023417
20
1.82089314357847
30
0.000000000000000
11
-27.5555941023417
21
1.78795519101430
31
0.000000000000000
  0
LINE
  5
F10578
330
F10579
100
AcDbEntity
8
Geo
100
AcDbLine
10
-27.5555941023417
20
1.78795519101430
30
0.000000000000000
11
-27.4555941023417
21
1.75529155071691
31
0.000000000000000
  0
LINE
  5
F1057A
330
F1057B
100
AcDbEntity
8
Geo
100
AcDbLine
10
-27.4555941023417
20
1.75529155071691
30
0.000000000000000
11
-27.3555941023417
21
1.72290331147128
31
0.000000000000000
  0
LINE
  5
F1057C
330
F1057D
100
AcDbEntity
8
Geo
100
AcDbLine
10
-27.3555941023417
20
1.72290331147128
30
0.000000000000000
11
-27.2555941023417
21
1.69079155288239
31
0.000000000000000
  0
LINE
  5
F1057E
330
F1057F
100
AcDbEntity
8
Geo
100
AcDbLine
10
-27.2555941023417
20
1.69079155288239
30
0.000000000000000
11
-27.1555941023417
21
1.65895734533922
31
0.000000000000000
  0
LINE
  5
F10580
330
F10581
100
AcDbEntity
8
Geo
100
AcDbLine
10
-27.1555941023417
20
1.65895734533922
30
0.000000000000000
11
-27.0555941023417
21
1.62740174997908
31
0.000000000000000
  0
LINE
  5
F10582
330
F10583
100
AcDbEntity
8
Geo
100
AcDbLine
10
-27.0555941023417
20
1.62740174997908
30
0.000000000000000
11
-26.9555941023417
21
1.59612581865222
31
0.000000000000000
  0
LINE
  5
F10584
330
F10585
100
AcDbEntity
8
Geo
100
AcDbLine
10
-26.9555941023417
20
1.59612581865222
30
0.000000000000000
11
-26.8555941023417
21
1.56513059388678
31
0.000000000000000
  0
LINE
  5
F10586
330
F10587
100
AcDbEntity
8
Geo
100
AcDbLine
10
-26.8555941023417
20
1.56513059388678
30
0.000000000000000
11
-26.7555941023417
21
1.53441710885407
31
0.000000000000000
  0
LINE
  5
F10588
330
F10589
100
AcDbEntity
8
Geo
100
AcDbLine
10
-26.7555941023417
20
1.53441710885407
30
0.000000000000000
11
-26.6555941023417
21
1.50398638733406
31
0.000000000000000
  0
LINE
  5
F1058A
330
F1058B
100
AcDbEntity
8
Geo
100
AcDbLine
10
-26.6555941023417
20
1.50398638733406
30
0.000000000000000
11
-26.5555941023417
21
1.47383944368132
31
0.000000000000000
  0
LINE
  5
F1058C
330
F1058D
100
AcDbEntity
8
Geo
100
AcDbLine
10
-26.5555941023417
20
1.47383944368132
30
0.000000000000000
11
-26.4555941023417
21
1.44397728279120
31
0.000000000000000
  0
LINE
  5
F1058E
330
F1058F
100
AcDbEntity
8
Geo
100
AcDbLine
10
-26.4555941023417
20
1.44397728279120
30
0.000000000000000
11
-26.3555941023417
21
1.41440090006627
31
0.000000000000000
  0
LINE
  5
F10590
330
F10591
100
AcDbEntity
8
Geo
100
AcDbLine
10
-26.3555941023417
20
1.41440090006627
30
0.000000000000000
11
-26.2555941023417
21
1.38511128138323
31
0.000000000000000
  0
LINE
  5
F10592
330
F10593
100
AcDbEntity
8
Geo
100
AcDbLine
10
-26.2555941023417
20
1.38511128138323
30
0.000000000000000
11
-26.1555941023417
21
1.35610940306000
31
0.000000000000000
  0
LINE
  5
F10594
330
F10595
100
AcDbEntity
8
Geo
100
AcDbLine
10
-26.1555941023417
20
1.35610940306000
30
0.000000000000000
11
-26.0555941023417
21
1.32739623182315
31
0.000000000000000
  0
LINE
  5
F10596
330
F10597
100
AcDbEntity
8
Geo
100
AcDbLine
10
-26.0555941023417
20
1.32739623182315
30
0.000000000000000
11
-25.9555941023417
21
1.29897272477575
31
0.000000000000000
  0
LINE
  5
F10598
330
F10599
100
AcDbEntity
8
Geo
100
AcDbLine
10
-25.9555941023417
20
1.29897272477575
30
0.000000000000000
11
-25.8555941023417
21
1.27083982936539
31
0.000000000000000
  0
LINE
  5
F1059A
330
F1059B
100
AcDbEntity
8
Geo
100
AcDbLine
10
-25.8555941023417
20
1.27083982936539
30
0.000000000000000
11
-25.7555941023417
21
1.24299848335265
31
0.000000000000000
  0
LINE
  5
F1059C
330
F1059D
100
AcDbEntity
8
Geo
100
AcDbLine
10
-25.7555941023417
20
1.24299848335265
30
0.000000000000000
11
-25.6555941023417
21
1.21544961477982
31
0.000000000000000
  0
LINE
  5
F1059E
330
F1059F
100
AcDbEntity
8
Geo
100
AcDbLine
10
-25.6555941023417
20
1.21544961477982
30
0.000000000000000
11
-25.5555941023417
21
1.18819414193996
31
0.000000000000000
  0
LINE
  5
F105A0
330
F105A1
100
AcDbEntity
8
Geo
100
AcDbLine
10
-25.5555941023417
20
1.18819414193996
30
0.000000000000000
11
-25.4555941023417
21
1.16123297334632
31
0.000000000000000
  0
LINE
  5
F105A2
330
F105A3
100
AcDbEntity
8
Geo
100
AcDbLine
10
-25.4555941023417
20
1.16123297334632
30
0.000000000000000
11
-25.3555941023417
21
1.13456700770202
31
0.000000000000000
  0
LINE
  5
F105A4
330
F105A5
100
AcDbEntity
8
Geo
100
AcDbLine
10
-25.3555941023417
20
1.13456700770202
30
0.000000000000000
11
-25.2555941023417
21
1.10819713387010
31
0.000000000000000
  0
LINE
  5
F105A6
330
F105A7
100
AcDbEntity
8
Geo
100
AcDbLine
10
-25.2555941023417
20
1.10819713387010
30
0.000000000000000
11
-25.1555941023417
21
1.08212423084393
31
0.000000000000000
  0
LINE
  5
F105A8
330
F105A9
100
AcDbEntity
8
Geo
100
AcDbLine
10
-25.1555941023417
20
1.08212423084393
30
0.000000000000000
11
-25.0555941023417
21
1.05634916771786
31
0.000000000000000
  0
LINE
  5
F105AA
330
F105AB
100
AcDbEntity
8
Geo
100
AcDbLine
10
-25.0555941023417
20
1.05634916771786
30
0.000000000000000
11
-24.9555941023417
21
1.03087280365827
31
0.000000000000000
  0
LINE
  5
F105AC
330
F105AD
100
AcDbEntity
8
Geo
100
AcDbLine
10
-24.9555941023417
20
1.03087280365827
30
0.000000000000000
11
-24.8555941023417
21
1.00569598787493
31
0.000000000000000
  0
LINE
  5
F105AE
330
F105AF
100
AcDbEntity
8
Geo
100
AcDbLine
10
-24.8555941023417
20
1.00569598787493
30
0.000000000000000
11
-24.7555941023417
21
0.980819559592719
31
0.000000000000000
  0
LINE
  5
F105B0
330
F105B1
100
AcDbEntity
8
Geo
100
AcDbLine
10
-24.7555941023417
20
0.980819559592719
30
0.000000000000000
11
-24.6555941023417
21
0.956244348023594
31
0.000000000000000
  0
LINE
  5
F105B2
330
F105B3
100
AcDbEntity
8
Geo
100
AcDbLine
10
-24.6555941023417
20
0.956244348023594
30
0.000000000000000
11
-24.5555941023417
21
0.931971172339004
31
0.000000000000000
  0
LINE
  5
F105B4
330
F105B5
100
AcDbEntity
8
Geo
100
AcDbLine
10
-24.5555941023417
20
0.931971172339004
30
0.000000000000000
11
-24.4555941023417
21
0.908000841642560
31
0.000000000000000
  0
LINE
  5
F105B6
330
F105B7
100
AcDbEntity
8
Geo
100
AcDbLine
10
-24.4555941023417
20
0.908000841642560
30
0.000000000000000
11
-24.3555941023417
21
0.884334154943060
31
0.000000000000000
  0
LINE
  5
F105B8
330
F105B9
100
AcDbEntity
8
Geo
100
AcDbLine
10
-24.3555941023417
20
0.884334154943060
30
0.000000000000000
11
-24.2555941023417
21
0.860971901127874
31
0.000000000000000
  0
LINE
  5
F105BA
330
F105BB
100
AcDbEntity
8
Geo
100
AcDbLine
10
-24.2555941023417
20
0.860971901127874
30
0.000000000000000
11
-24.1555941023417
21
0.837914858936632
31
0.000000000000000
  0
LINE
  5
F105BC
330
F105BD
100
AcDbEntity
8
Geo
100
AcDbLine
10
-24.1555941023417
20
0.837914858936632
30
0.000000000000000
11
-24.0555941023418
21
0.815163796935272
31
0.000000000000000
  0
LINE
  5
F105BE
330
F105BF
100
AcDbEntity
8
Geo
100
AcDbLine
10
-24.0555941023418
20
0.815163796935272
30
0.000000000000000
11
-23.9555941023417
21
0.792719473490420
31
0.000000000000000
  0
LINE
  5
F105C0
330
F105C1
100
AcDbEntity
8
Geo
100
AcDbLine
10
-23.9555941023417
20
0.792719473490420
30
0.000000000000000
11
-23.8555941023417
21
0.770582636744111
31
0.000000000000000
  0
LINE
  5
F105C2
330
F105C3
100
AcDbEntity
8
Geo
100
AcDbLine
10
-23.8555941023417
20
0.770582636744111
30
0.000000000000000
11
-23.7555941023417
21
0.748754024588859
31
0.000000000000000
  0
LINE
  5
F105C4
330
F105C5
100
AcDbEntity
8
Geo
100
AcDbLine
10
-23.7555941023417
20
0.748754024588859
30
0.000000000000000
11
-23.6555941023418
21
0.727234364643040
31
0.000000000000000
  0
LINE
  5
F105C6
330
F105C7
100
AcDbEntity
8
Geo
100
AcDbLine
10
-23.6555941023418
20
0.727234364643040
30
0.000000000000000
11
-23.5555941023418
21
0.706024374226667
31
0.000000000000000
  0
LINE
  5
F105C8
330
F105C9
100
AcDbEntity
8
Geo
100
AcDbLine
10
-23.5555941023418
20
0.706024374226667
30
0.000000000000000
11
-23.4555941023417
21
0.685124760337454
31
0.000000000000000
  0
LINE
  5
F105CA
330
F105CB
100
AcDbEntity
8
Geo
100
AcDbLine
10
-23.4555941023417
20
0.685124760337454
30
0.000000000000000
11
-23.3555941023418
21
0.664536219627259
31
0.000000000000000
  0
LINE
  5
F105CC
330
F105CD
100
AcDbEntity
8
Geo
100
AcDbLine
10
-23.3555941023418
20
0.664536219627259
30
0.000000000000000
11
-23.2555941023418
21
0.644259438378873
31
0.000000000000000
  0
LINE
  5
F105CE
330
F105CF
100
AcDbEntity
8
Geo
100
AcDbLine
10
-23.2555941023418
20
0.644259438378873
30
0.000000000000000
11
-23.1555941023418
21
0.624295092483120
31
0.000000000000000
  0
LINE
  5
F105D0
330
F105D1
100
AcDbEntity
8
Geo
100
AcDbLine
10
-23.1555941023418
20
0.624295092483120
30
0.000000000000000
11
-23.0555941023418
21
0.604643847416352
31
0.000000000000000
  0
LINE
  5
F105D2
330
F105D3
100
AcDbEntity
8
Geo
100
AcDbLine
10
-23.0555941023418
20
0.604643847416352
30
0.000000000000000
11
-22.9555941023418
21
0.585306358218249
31
0.000000000000000
  0
LINE
  5
F105D4
330
F105D5
100
AcDbEntity
8
Geo
100
AcDbLine
10
-22.9555941023418
20
0.585306358218249
30
0.000000000000000
11
-22.8555941023418
21
0.566283269469997
31
0.000000000000000
  0
LINE
  5
F105D6
330
F105D7
100
AcDbEntity
8
Geo
100
AcDbLine
10
-22.8555941023418
20
0.566283269469997
30
0.000000000000000
11
-22.7555941023418
21
0.547575215272790
31
0.000000000000000
  0
LINE
  5
F105D8
330
F105D9
100
AcDbEntity
8
Geo
100
AcDbLine
10
-22.7555941023418
20
0.547575215272790
30
0.000000000000000
11
-22.6555941023418
21
0.529182819226701
31
0.000000000000000
  0
LINE
  5
F105DA
330
F105DB
100
AcDbEntity
8
Geo
100
AcDbLine
10
-22.6555941023418
20
0.529182819226701
30
0.000000000000000
11
-22.5555941023418
21
0.511106694409900
31
0.000000000000000
  0
LINE
  5
F105DC
330
F105DD
100
AcDbEntity
8
Geo
100
AcDbLine
10
-22.5555941023418
20
0.511106694409900
30
0.000000000000000
11
-22.4555941023417
21
0.493347443358205
31
0.000000000000000
  0
LINE
  5
F105DE
330
F105DF
100
AcDbEntity
8
Geo
100
AcDbLine
10
-22.4555941023417
20
0.493347443358205
30
0.000000000000000
11
-22.3555941023417
21
0.475905658045004
31
0.000000000000000
  0
LINE
  5
F105E0
330
F105E1
100
AcDbEntity
8
Geo
100
AcDbLine
10
-22.3555941023417
20
0.475905658045004
30
0.000000000000000
11
-22.2555941023417
21
0.458781919861529
31
0.000000000000000
  0
LINE
  5
F105E2
330
F105E3
100
AcDbEntity
8
Geo
100
AcDbLine
10
-22.2555941023417
20
0.458781919861529
30
0.000000000000000
11
-22.1555941023417
21
0.441976799597468
31
0.000000000000000
  0
LINE
  5
F105E4
330
F105E5
100
AcDbEntity
8
Geo
100
AcDbLine
10
-22.1555941023417
20
0.441976799597468
30
0.000000000000000
11
-22.0555941023417
21
0.425490857421938
31
0.000000000000000
  0
LINE
  5
F105E6
330
F105E7
100
AcDbEntity
8
Geo
100
AcDbLine
10
-22.0555941023417
20
0.425490857421938
30
0.000000000000000
11
-21.9555941023417
21
0.409324642864819
31
0.000000000000000
  0
LINE
  5
F105E8
330
F105E9
100
AcDbEntity
8
Geo
100
AcDbLine
10
-21.9555941023417
20
0.409324642864819
30
0.000000000000000
11
-21.8555941023417
21
0.393478694798434
31
0.000000000000000
  0
LINE
  5
F105EA
330
F105EB
100
AcDbEntity
8
Geo
100
AcDbLine
10
-21.8555941023417
20
0.393478694798434
30
0.000000000000000
11
-21.7555941023417
21
0.377953541419583
31
0.000000000000000
  0
LINE
  5
F105EC
330
F105ED
100
AcDbEntity
8
Geo
100
AcDbLine
10
-21.7555941023417
20
0.377953541419583
30
0.000000000000000
11
-21.6555941023417
21
0.362749700231941
31
0.000000000000000
  0
LINE
  5
F105EE
330
F105EF
100
AcDbEntity
8
Geo
100
AcDbLine
10
-21.6555941023417
20
0.362749700231941
30
0.000000000000000
11
-21.5555941023417
21
0.347867678028809
31
0.000000000000000
  0
LINE
  5
F105F0
330
F105F1
100
AcDbEntity
8
Geo
100
AcDbLine
10
-21.5555941023417
20
0.347867678028809
30
0.000000000000000
11
-21.4555941023417
21
0.333307970876215
31
0.000000000000000
  0
LINE
  5
F105F2
330
F105F3
100
AcDbEntity
8
Geo
100
AcDbLine
10
-21.4555941023417
20
0.333307970876215
30
0.000000000000000
11
-21.3555941023417
21
0.319071064096377
31
0.000000000000000
  0
LINE
  5
F105F4
330
F105F5
100
AcDbEntity
8
Geo
100
AcDbLine
10
-21.3555941023417
20
0.319071064096377
30
0.000000000000000
11
-21.2555941023417
21
0.305157432251544
31
0.000000000000000
  0
LINE
  5
F105F6
330
F105F7
100
AcDbEntity
8
Geo
100
AcDbLine
10
-21.2555941023417
20
0.305157432251544
30
0.000000000000000
11
-21.1555941023417
21
0.291567539128151
31
0.000000000000000
  0
LINE
  5
F105F8
330
F105F9
100
AcDbEntity
8
Geo
100
AcDbLine
10
-21.1555941023417
20
0.291567539128151
30
0.000000000000000
11
-21.0555941023417
21
0.278301837721381
31
0.000000000000000
  0
LINE
  5
F105FA
330
F105FB
100
AcDbEntity
8
Geo
100
AcDbLine
10
-21.0555941023417
20
0.278301837721381
30
0.000000000000000
11
-20.9555941023417
21
0.265360770220049
31
0.000000000000000
  0
LINE
  5
F105FC
330
F105FD
100
AcDbEntity
8
Geo
100
AcDbLine
10
-20.9555941023417
20
0.265360770220049
30
0.000000000000000
11
-20.8555941023417
21
0.252744767991878
31
0.000000000000000
  0
LINE
  5
F105FE
330
F105FF
100
AcDbEntity
8
Geo
100
AcDbLine
10
-20.8555941023417
20
0.252744767991878
30
0.000000000000000
11
-20.7555941023417
21
0.240454251569099
31
0.000000000000000
  0
LINE
  5
F10600
330
F10601
100
AcDbEntity
8
Geo
100
AcDbLine
10
-20.7555941023417
20
0.240454251569099
30
0.000000000000000
11
-20.6555941023417
21
0.228489630634463
31
0.000000000000000
  0
LINE
  5
F10602
330
F10603
100
AcDbEntity
8
Geo
100
AcDbLine
10
-20.6555941023417
20
0.228489630634463
30
0.000000000000000
11
-20.5555941023417
21
0.216851304007557
31
0.000000000000000
  0
LINE
  5
F10604
330
F10605
100
AcDbEntity
8
Geo
100
AcDbLine
10
-20.5555941023417
20
0.216851304007557
30
0.000000000000000
11
-20.4555941023417
21
0.205539659631524
31
0.000000000000000
  0
LINE
  5
F10606
330
F10607
100
AcDbEntity
8
Geo
100
AcDbLine
10
-20.4555941023417
20
0.205539659631524
30
0.000000000000000
11
-20.3555941023417
21
0.194555074560128
31
0.000000000000000
  0
LINE
  5
F10608
330
F10609
100
AcDbEntity
8
Geo
100
AcDbLine
10
-20.3555941023417
20
0.194555074560128
30
0.000000000000000
11
-20.2555941023417
21
0.183897914945192
31
0.000000000000000
  0
LINE
  5
F1060A
330
F1060B
100
AcDbEntity
8
Geo
100
AcDbLine
10
-20.2555941023417
20
0.183897914945192
30
0.000000000000000
11
-20.1555941023417
21
0.173568536024378
31
0.000000000000000
  0
LINE
  5
F1060C
330
F1060D
100
AcDbEntity
8
Geo
100
AcDbLine
10
-20.1555941023417
20
0.173568536024378
30
0.000000000000000
11
-20.0555941023417
21
0.163567282109362
31
0.000000000000000
  0
LINE
  5
F1060E
330
F1060F
100
AcDbEntity
8
Geo
100
AcDbLine
10
-20.0555941023417
20
0.163567282109362
30
0.000000000000000
11
-19.9555941023417
21
0.153894486574352
31
0.000000000000000
  0
LINE
  5
F10610
330
F10611
100
AcDbEntity
8
Geo
100
AcDbLine
10
-19.9555941023417
20
0.153894486574352
30
0.000000000000000
11
-19.8555941023417
21
0.144550471844964
31
0.000000000000000
  0
LINE
  5
F10612
330
F10613
100
AcDbEntity
8
Geo
100
AcDbLine
10
-19.8555941023417
20
0.144550471844964
30
0.000000000000000
11
-19.7555941023417
21
0.135535549387495
31
0.000000000000000
  0
LINE
  5
F10614
330
F10615
100
AcDbEntity
8
Geo
100
AcDbLine
10
-19.7555941023417
20
0.135535549387495
30
0.000000000000000
11
-19.6555941023417
21
0.126850019698523
31
0.000000000000000
  0
LINE
  5
F10616
330
F10617
100
AcDbEntity
8
Geo
100
AcDbLine
10
-19.6555941023417
20
0.126850019698523
30
0.000000000000000
11
-19.5555941023417
21
0.118494172294904
31
0.000000000000000
  0
LINE
  5
F10618
330
F10619
100
AcDbEntity
8
Geo
100
AcDbLine
10
-19.5555941023417
20
0.118494172294904
30
0.000000000000000
11
-19.4555941023417
21
0.110468285704103
31
0.000000000000000
  0
LINE
  5
F1061A
330
F1061B
100
AcDbEntity
8
Geo
100
AcDbLine
10
-19.4555941023417
20
0.110468285704103
30
0.000000000000000
11
-19.3555941023417
21
0.102772627454938
31
0.000000000000000
  0
LINE
  5
F1061C
330
F1061D
100
AcDbEntity
8
Geo
100
AcDbLine
10
-19.3555941023417
20
0.102772627454938
30
0.000000000000000
11
-19.2555941023417
21
0.0954074540686367
31
0.000000000000000
  0
LINE
  5
F1061E
330
F1061F
100
AcDbEntity
8
Geo
100
AcDbLine
10
-19.2555941023417
20
0.0954074540686367
30
0.000000000000000
11
-19.1555941023417
21
0.0883730110502938
31
0.000000000000000
  0
LINE
  5
F10620
330
F10621
100
AcDbEntity
8
Geo
100
AcDbLine
10
-19.1555941023417
20
0.0883730110502938
30
0.000000000000000
11
-19.0555941023417
21
0.0816695328806940
31
0.000000000000000
  0
LINE
  5
F10622
330
F10623
100
AcDbEntity
8
Geo
100
AcDbLine
10
-19.0555941023417
20
0.0816695328806940
30
0.000000000000000
11
-18.9555941023417
21
0.0752972430084871
31
0.000000000000000
  0
LINE
  5
F10624
330
F10625
100
AcDbEntity
8
Geo
100
AcDbLine
10
-18.9555941023417
20
14.1120117407123
30
0.000000000000000
11
-18.7555941023417
21
14.0063948760333
31
0.000000000000000
  0
LINE
  5
F10626
330
F10627
100
AcDbEntity
8
Geo
100
AcDbLine
10
-18.7555941023417
20
14.0063948760333
30
0.000000000000000
11
-18.6555941023417
21
13.9533861105459
31
0.000000000000000
  0
LINE
  5
F10628
330
F10629
100
AcDbEntity
8
Geo
100
AcDbLine
10
-18.6555941023417
20
13.9533861105459
30
0.000000000000000
11
-18.5555941023417
21
13.9002461440877
31
0.000000000000000
  0
LINE
  5
F1062A
330
F1062B
100
AcDbEntity
8
Geo
100
AcDbLine
10
-18.5555941023417
20
13.9002461440877
30
0.000000000000000
11
-18.4555941023417
21
13.8469767479863
31
0.000000000000000
  0
LINE
  5
F1062C
330
F1062D
100
AcDbEntity
8
Geo
100
AcDbLine
10
-18.4555941023417
20
13.8469767479863
30
0.000000000000000
11
-18.3555941023417
21
13.7935796978870
31
0.000000000000000
  0
LINE
  5
F1062E
330
F1062F
100
AcDbEntity
8
Geo
100
AcDbLine
10
-18.3555941023417
20
13.7935796978870
30
0.000000000000000
11
-18.2555941023417
21
13.7400567737143
31
0.000000000000000
  0
LINE
  5
F10630
330
F10631
100
AcDbEntity
8
Geo
100
AcDbLine
10
-18.2555941023417
20
13.7400567737143
30
0.000000000000000
11
-18.1555941023417
21
13.6864097597109
31
0.000000000000000
  0
LINE
  5
F10632
330
F10633
100
AcDbEntity
8
Geo
100
AcDbLine
10
-18.1555941023417
20
13.6864097597109
30
0.000000000000000
11
-18.0555941023417
21
13.6326404447335
31
0.000000000000000
  0
LINE
  5
F10634
330
F10635
100
AcDbEntity
8
Geo
100
AcDbLine
10
-18.0555941023417
20
13.6326404447335
30
0.000000000000000
11
-17.9555941023417
21
13.5787506232617
31
0.000000000000000
  0
LINE
  5
F10636
330
F10637
100
AcDbEntity
8
Geo
100
AcDbLine
10
-17.9555941023417
20
13.5787506232617
30
0.000000000000000
11
-17.8555941023417
21
13.5247420981236
31
0.000000000000000
  0
LINE
  5
F10638
330
F10639
100
AcDbEntity
8
Geo
100
AcDbLine
10
-17.8555941023417
20
13.5247420981236
30
0.000000000000000
11
-17.7555941023417
21
13.4706166869349
31
0.000000000000000
  0
LINE
  5
F1063A
330
F1063B
100
AcDbEntity
8
Geo
100
AcDbLine
10
-17.7555941023417
20
13.4706166869349
30
0.000000000000000
11
-17.6555941023417
21
13.4163762359206
31
0.000000000000000
  0
LINE
  5
F1063C
330
F1063D
100
AcDbEntity
8
Geo
100
AcDbLine
10
-17.6555941023417
20
13.4163762359206
30
0.000000000000000
11
-17.5555941023417
21
13.3620226474457
31
0.000000000000000
  0
LINE
  5
F1063E
330
F1063F
100
AcDbEntity
8
Geo
100
AcDbLine
10
-17.5555941023417
20
13.3620226474457
30
0.000000000000000
11
-17.4555941023417
21
13.3075579316089
31
0.000000000000000
  0
LINE
  5
F10640
330
F10641
100
AcDbEntity
8
Geo
100
AcDbLine
10
-17.4555941023417
20
13.3075579316089
30
0.000000000000000
11
-17.3555941023417
21
13.2529842981384
31
0.000000000000000
  0
LINE
  5
F10642
330
F10643
100
AcDbEntity
8
Geo
100
AcDbLine
10
-17.3555941023417
20
13.2529842981384
30
0.000000000000000
11
-17.2555941023417
21
13.1983043131528
31
0.000000000000000
  0
LINE
  5
F10644
330
F10645
100
AcDbEntity
8
Geo
100
AcDbLine
10
-17.2555941023417
20
13.1983043131528
30
0.000000000000000
11
-17.1555941023417
21
13.1435211568056
31
0.000000000000000
  0
LINE
  5
F10646
330
F10647
100
AcDbEntity
8
Geo
100
AcDbLine
10
-17.1555941023417
20
13.1435211568056
30
0.000000000000000
11
-17.0555941023417
21
13.0886390332522
31
0.000000000000000
  0
LINE
  5
F10648
330
F10649
100
AcDbEntity
8
Geo
100
AcDbLine
10
-17.0555941023417
20
13.0886390332522
30
0.000000000000000
11
-16.9555941023417
21
13.0336638047074
31
0.000000000000000
  0
LINE
  5
F1064A
330
F1064B
100
AcDbEntity
8
Geo
100
AcDbLine
10
-16.9555941023417
20
13.0336638047074
30
0.000000000000000
11
-16.8555941023417
21
12.9786039476984
31
0.000000000000000
  0
LINE
  5
F1064C
330
F1064D
100
AcDbEntity
8
Geo
100
AcDbLine
10
-16.8555941023417
20
12.9786039476984
30
0.000000000000000
11
-16.7555941023417
21
12.9234719632256
31
0.000000000000000
  0
LINE
  5
F1064E
330
F1064F
100
AcDbEntity
8
Geo
100
AcDbLine
10
-16.7555941023417
20
12.9234719632256
30
0.000000000000000
11
-16.6555941023417
21
12.8682864148093
31
0.000000000000000
  0
LINE
  5
F10650
330
F10651
100
AcDbEntity
8
Geo
100
AcDbLine
10
-16.6555941023417
20
12.8682864148093
30
0.000000000000000
11
-16.5555941023417
21
12.8130748209231
31
0.000000000000000
  0
LINE
  5
F10652
330
F10653
100
AcDbEntity
8
Geo
100
AcDbLine
10
-16.5555941023417
20
12.8130748209231
30
0.000000000000000
11
-16.4555941023417
21
12.7578776928200
31
0.000000000000000
  0
LINE
  5
F10654
330
F10655
100
AcDbEntity
8
Geo
100
AcDbLine
10
-16.4555941023417
20
12.7578776928200
30
0.000000000000000
11
-16.3555941023417
21
12.7027540871560
31
0.000000000000000
  0
LINE
  5
F10656
330
F10657
100
AcDbEntity
8
Geo
100
AcDbLine
10
-16.3555941023417
20
12.7027540871560
30
0.000000000000000
11
-16.2555941023417
21
12.6477891371645
31
0.000000000000000
  0
LINE
  5
F10658
330
F10659
100
AcDbEntity
8
Geo
100
AcDbLine
10
-16.2555941023417
20
12.6477891371645
30
0.000000000000000
11
-16.1555941023417
21
12.5931041385969
31
0.000000000000000
  0
LINE
  5
F1065A
330
F1065B
100
AcDbEntity
8
Geo
100
AcDbLine
10
-16.1555941023417
20
12.5931041385969
30
0.000000000000000
11
-16.0555941023417
21
12.5388698994510
31
0.000000000000000
  0
LINE
  5
F1065C
330
F1065D
100
AcDbEntity
8
Geo
100
AcDbLine
10
-16.0555941023417
20
12.5388698994510
30
0.000000000000000
11
-15.9555941023417
21
12.4853242178537
31
0.000000000000000
  0
LINE
  5
F1065E
330
F1065F
100
AcDbEntity
8
Geo
100
AcDbLine
10
-15.9555941023417
20
12.4853242178537
30
0.000000000000000
11
-15.8555941023417
21
12.4327945323304
31
0.000000000000000
  0
LINE
  5
F10660
330
F10661
100
AcDbEntity
8
Geo
100
AcDbLine
10
-15.8555941023417
20
12.4327945323304
30
0.000000000000000
11
-15.7555941023417
21
12.3817269946060
31
0.000000000000000
  0
LINE
  5
F10662
330
F10663
100
AcDbEntity
8
Geo
100
AcDbLine
10
-15.7555941023417
20
12.3817269946060
30
0.000000000000000
11
-15.6555941023417
21
12.3327234476600
31
0.000000000000000
  0
LINE
  5
F10664
330
F10665
100
AcDbEntity
8
Geo
100
AcDbLine
10
-15.6555941023417
20
12.3327234476600
30
0.000000000000000
11
-15.5555941023417
21
12.2865880499879
31
0.000000000000000
  0
LINE
  5
F10666
330
F10667
100
AcDbEntity
8
Geo
100
AcDbLine
10
-15.5555941023417
20
12.2865880499879
30
0.000000000000000
11
-15.4555941023416
21
12.2443855669972
31
0.000000000000000
  0
LINE
  5
F10668
330
F10669
100
AcDbEntity
8
Geo
100
AcDbLine
10
-15.4555941023416
20
12.2443855669972
30
0.000000000000000
11
-15.3555941023416
21
12.2075136431376
31
0.000000000000000
  0
LINE
  5
F1066A
330
F1066B
100
AcDbEntity
8
Geo
100
AcDbLine
10
-15.3555941023416
20
12.2075136431376
30
0.000000000000000
11
-15.2555941023416
21
12.1777916553218
31
0.000000000000000
  0
LINE
  5
F1066C
330
F1066D
100
AcDbEntity
8
Geo
100
AcDbLine
10
-15.2555941023416
20
12.1777916553218
30
0.000000000000000
11
-15.1555941023416
21
12.1575689936739
31
0.000000000000000
  0
LINE
  5
F1066E
330
F1066F
100
AcDbEntity
8
Geo
100
AcDbLine
10
-15.1555941023416
20
12.1575689936739
30
0.000000000000000
11
-15.0555941023416
21
12.1498557509422
31
0.000000000000000
  0
LINE
  5
F10670
330
F10671
100
AcDbEntity
8
Geo
100
AcDbLine
10
-15.0555941023416
20
12.1498557509422
30
0.000000000000000
11
-14.9555941023416
21
12.1584786950407
31
0.000000000000000
  0
LINE
  5
F10672
330
F10673
100
AcDbEntity
8
Geo
100
AcDbLine
10
-14.9555941023416
20
12.1584786950407
30
0.000000000000000
11
-14.8555941023416
21
12.1882647957005
31
0.000000000000000
  0
LINE
  5
F10674
330
F10675
100
AcDbEntity
8
Geo
100
AcDbLine
10
-14.8555941023416
20
12.1882647957005
30
0.000000000000000
11
-14.7555941023416
21
12.2452529851612
31
0.000000000000000
  0
LINE
  5
F10676
330
F10677
100
AcDbEntity
8
Geo
100
AcDbLine
10
-14.7555941023416
20
12.2452529851612
30
0.000000000000000
11
-14.6555941023416
21
12.3369313096941
31
0.000000000000000
  0
LINE
  5
F10678
330
F10679
100
AcDbEntity
8
Geo
100
AcDbLine
10
-14.6555941023416
20
12.3369313096941
30
0.000000000000000
11
-14.5555941023416
21
12.4724893699029
31
0.000000000000000
  0
LINE
  5
F1067A
330
F1067B
100
AcDbEntity
8
Geo
100
AcDbLine
10
-14.5555941023416
20
12.4724893699029
30
0.000000000000000
11
-14.4555941023416
21
12.6630615496064
31
0.000000000000000
  0
LINE
  5
F1067C
330
F1067D
100
AcDbEntity
8
Geo
100
AcDbLine
10
-14.4555941023416
20
12.6630615496064
30
0.000000000000000
11
-14.3555941023416
21
12.9219086779020
31
0.000000000000000
  0
LINE
  5
F1067E
330
F1067F
100
AcDbEntity
8
Geo
100
AcDbLine
10
-14.3555941023416
20
12.9219086779020
30
0.000000000000000
11
-14.2555941023416
21
13.2644329869790
31
0.000000000000000
  0
LINE
  5
F10680
330
F10681
100
AcDbEntity
8
Geo
100
AcDbLine
10
-14.2555941023416
20
13.2644329869790
30
0.000000000000000
11
-14.1555941023416
21
13.7078233253841
31
0.000000000000000
  0
LINE
  5
F10682
330
F10683
100
AcDbEntity
8
Geo
100
AcDbLine
10
-14.1555941023416
20
13.7078233253841
30
0.000000000000000
11
-14.0555941023416
21
14.2699505833332
31
0.000000000000000
  0
LINE
  5
F10684
330
F10685
100
AcDbEntity
8
Geo
100
AcDbLine
10
-14.0555941023416
20
14.2699505833332
30
0.000000000000000
11
-13.9555941023416
21
14.9668241078900
31
0.000000000000000
  0
LINE
  5
F10686
330
F10687
100
AcDbEntity
8
Geo
100
AcDbLine
10
-13.9555941023416
20
14.9668241078900
30
0.000000000000000
11
-13.8555941023417
21
15.8074068196774
31
0.000000000000000
  0
LINE
  5
F10688
330
F10689
100
AcDbEntity
8
Geo
100
AcDbLine
10
-13.8555941023417
20
15.8074068196774
30
0.000000000000000
11
-13.8555941023417
21
16.0104697613668
31
0.000000000000000
  0
LINE
  5
F1068A
330
F1068B
100
AcDbEntity
8
Geo
100
AcDbLine
10
-13.8555941023417
20
16.0104697613668
30
0.000000000000000
11
-13.9555941023416
21
16.7087660848502
31
0.000000000000000
  0
LINE
  5
F1068C
330
F1068D
100
AcDbEntity
8
Geo
100
AcDbLine
10
-13.9555941023416
20
16.7087660848502
30
0.000000000000000
11
-14.0555941023416
21
17.2963554022937
31
0.000000000000000
  0
LINE
  5
F1068E
330
F1068F
100
AcDbEntity
8
Geo
100
AcDbLine
10
-14.0555941023416
20
17.2963554022937
30
0.000000000000000
11
-14.1555941023416
21
17.7874203679389
31
0.000000000000000
  0
LINE
  5
F10690
330
F10691
100
AcDbEntity
8
Geo
100
AcDbLine
10
-14.1555941023416
20
17.7874203679389
30
0.000000000000000
11
-14.2555941023416
21
18.1954190491101
31
0.000000000000000
  0
LINE
  5
F10692
330
F10693
100
AcDbEntity
8
Geo
100
AcDbLine
10
-14.2555941023416
20
18.1954190491101
30
0.000000000000000
11
-14.3555941023416
21
18.5326978551939
31
0.000000000000000
  0
LINE
  5
F10694
330
F10695
100
AcDbEntity
8
Geo
100
AcDbLine
10
-14.3555941023416
20
18.5326978551939
30
0.000000000000000
11
-14.4555941023416
21
18.8103066778629
31
0.000000000000000
  0
LINE
  5
F10696
330
F10697
100
AcDbEntity
8
Geo
100
AcDbLine
10
-14.4555941023416
20
18.8103066778629
30
0.000000000000000
11
-14.5555941023416
21
19.0379498709176
31
0.000000000000000
  0
LINE
  5
F10698
330
F10699
100
AcDbEntity
8
Geo
100
AcDbLine
10
-14.5555941023416
20
19.0379498709176
30
0.000000000000000
11
-14.6555941023416
21
19.2240239312173
31
0.000000000000000
  0
LINE
  5
F1069A
330
F1069B
100
AcDbEntity
8
Geo
100
AcDbLine
10
-14.6555941023416
20
19.2240239312173
30
0.000000000000000
11
-14.7555941023416
21
19.3757066299829
31
0.000000000000000
  0
LINE
  5
F1069C
330
F1069D
100
AcDbEntity
8
Geo
100
AcDbLine
10
-14.7555941023416
20
19.3757066299829
30
0.000000000000000
11
-14.8555941023416
21
19.4990730874930
31
0.000000000000000
  0
LINE
  5
F1069E
330
F1069F
100
AcDbEntity
8
Geo
100
AcDbLine
10
-14.8555941023416
20
19.4990730874930
30
0.000000000000000
11
-14.9555941023416
21
19.5992223301552
31
0.000000000000000
  0
LINE
  5
F106A0
330
F106A1
100
AcDbEntity
8
Geo
100
AcDbLine
10
-14.9555941023416
20
19.5992223301552
30
0.000000000000000
11
-15.0555941023416
21
19.6804037288844
31
0.000000000000000
  0
LINE
  5
F106A2
330
F106A3
100
AcDbEntity
8
Geo
100
AcDbLine
10
-15.0555941023416
20
19.6804037288844
30
0.000000000000000
11
-15.1555941023416
21
19.7461368765945
31
0.000000000000000
  0
LINE
  5
F106A4
330
F106A5
100
AcDbEntity
8
Geo
100
AcDbLine
10
-15.1555941023416
20
19.7461368765945
30
0.000000000000000
11
-15.2555941023416
21
19.7993213382903
31
0.000000000000000
  0
LINE
  5
F106A6
330
F106A7
100
AcDbEntity
8
Geo
100
AcDbLine
10
-15.2555941023416
20
19.7993213382903
30
0.000000000000000
11
-15.3555941023416
21
19.8423346394337
31
0.000000000000000
  0
LINE
  5
F106A8
330
F106A9
100
AcDbEntity
8
Geo
100
AcDbLine
10
-15.3555941023416
20
19.8423346394337
30
0.000000000000000
11
-15.4555941023416
21
19.8771181121823
31
0.000000000000000
  0
LINE
  5
F106AA
330
F106AB
100
AcDbEntity
8
Geo
100
AcDbLine
10
-15.4555941023416
20
19.8771181121823
30
0.000000000000000
11
-15.5555941023417
21
19.9052509956736
31
0.000000000000000
  0
LINE
  5
F106AC
330
F106AD
100
AcDbEntity
8
Geo
100
AcDbLine
10
-15.5555941023417
20
19.9052509956736
30
0.000000000000000
11
-15.6555941023417
21
19.9280136343009
31
0.000000000000000
  0
LINE
  5
F106AE
330
F106AF
100
AcDbEntity
8
Geo
100
AcDbLine
10
-15.6555941023417
20
19.9280136343009
30
0.000000000000000
11
-15.7555941023417
21
19.9464408445054
31
0.000000000000000
  0
LINE
  5
F106B0
330
F106B1
100
AcDbEntity
8
Geo
100
AcDbLine
10
-15.7555941023417
20
19.9464408445054
30
0.000000000000000
11
-15.8555941023417
21
19.9613666025367
31
0.000000000000000
  0
LINE
  5
F106B2
330
F106B3
100
AcDbEntity
8
Geo
100
AcDbLine
10
-15.8555941023417
20
19.9613666025367
30
0.000000000000000
11
-15.9555941023417
21
19.9734611963983
31
0.000000000000000
  0
LINE
  5
F106B4
330
F106B5
100
AcDbEntity
8
Geo
100
AcDbLine
10
-15.9555941023417
20
19.9734611963983
30
0.000000000000000
11
-16.0555941023417
21
19.9832619215574
31
0.000000000000000
  0
LINE
  5
F106B6
330
F106B7
100
AcDbEntity
8
Geo
100
AcDbLine
10
-16.0555941023417
20
19.9832619215574
30
0.000000000000000
11
-16.1555941023417
21
19.9911983067170
31
0.000000000000000
  0
LINE
  5
F106B8
330
F106B9
100
AcDbEntity
8
Geo
100
AcDbLine
10
-16.1555941023417
20
19.9911983067170
30
0.000000000000000
11
-16.2555941023417
21
19.9976127493579
31
0.000000000000000
  0
LINE
  5
F106BA
330
F106BB
100
AcDbEntity
8
Geo
100
AcDbLine
10
-16.2555941023417
20
19.9976127493579
30
0.000000000000000
11
-16.3555941023417
21
20.0027773313203
31
0.000000000000000
  0
LINE
  5
F106BC
330
F106BD
100
AcDbEntity
8
Geo
100
AcDbLine
10
-16.3555941023417
20
20.0027773313203
30
0.000000000000000
11
-16.4555941023417
21
20.0069074788559
31
0.000000000000000
  0
LINE
  5
F106BE
330
F106BF
100
AcDbEntity
8
Geo
100
AcDbLine
10
-16.4555941023417
20
20.0069074788559
30
0.000000000000000
11
-16.5555941023417
21
20.0101730330802
31
0.000000000000000
  0
LINE
  5
F106C0
330
F106C1
100
AcDbEntity
8
Geo
100
AcDbLine
10
-16.5555941023417
20
20.0101730330802
30
0.000000000000000
11
-16.6555941023417
21
20.0127072075287
31
0.000000000000000
  0
LINE
  5
F106C2
330
F106C3
100
AcDbEntity
8
Geo
100
AcDbLine
10
-16.6555941023417
20
20.0127072075287
30
0.000000000000000
11
-16.7555941023417
21
20.0146138303267
31
0.000000000000000
  0
LINE
  5
F106C4
330
F106C5
100
AcDbEntity
8
Geo
100
AcDbLine
10
-16.7555941023417
20
20.0146138303267
30
0.000000000000000
11
-16.8555941023417
21
20.0159731993483
31
0.000000000000000
  0
LINE
  5
F106C6
330
F106C7
100
AcDbEntity
8
Geo
100
AcDbLine
10
-16.8555941023417
20
20.0159731993483
30
0.000000000000000
11
-16.9555941023417
21
20.0168468192270
31
0.000000000000000
  0
LINE
  5
F106C8
330
F106C9
100
AcDbEntity
8
Geo
100
AcDbLine
10
-16.9555941023417
20
20.0168468192270
30
0.000000000000000
11
-17.0555941023417
21
20.0172812384929
31
0.000000000000000
  0
LINE
  5
F106CA
330
F106CB
100
AcDbEntity
8
Geo
100
AcDbLine
10
-17.0555941023417
20
20.0172812384929
30
0.000000000000000
11
-17.1132741659139
21
20.0173460537728
31
0.000000000000000
  0
LINE
  5
F106CC
330
F106CD
100
AcDbEntity
8
Geo
100
AcDbLine
10
-18.9555941023417
20
0.894094828896819
30
0.000000000000000
11
-18.7555941023417
21
0.847422962839989
31
0.000000000000000
  0
LINE
  5
F106CE
330
F106CF
100
AcDbEntity
8
Geo
100
AcDbLine
10
-18.7555941023417
20
0.847422962839989
30
0.000000000000000
11
-18.6555941023417
21
0.824545138302131
31
0.000000000000000
  0
LINE
  5
F106D0
330
F106D1
100
AcDbEntity
8
Geo
100
AcDbLine
10
-18.6555941023417
20
0.824545138302131
30
0.000000000000000
11
-18.5555941023417
21
0.801973739610276
31
0.000000000000000
  0
LINE
  5
F106D2
330
F106D3
100
AcDbEntity
8
Geo
100
AcDbLine
10
-18.5555941023417
20
0.801973739610276
30
0.000000000000000
11
-18.4555941023417
21
0.779709519142408
31
0.000000000000000
  0
LINE
  5
F106D4
330
F106D5
100
AcDbEntity
8
Geo
100
AcDbLine
10
-18.4555941023417
20
0.779709519142408
30
0.000000000000000
11
-18.3555941023417
21
0.757753219038619
31
0.000000000000000
  0
LINE
  5
F106D6
330
F106D7
100
AcDbEntity
8
Geo
100
AcDbLine
10
-18.3555941023417
20
0.757753219038619
30
0.000000000000000
11
-18.2555941023417
21
0.736105571184650
31
0.000000000000000
  0
LINE
  5
F106D8
330
F106D9
100
AcDbEntity
8
Geo
100
AcDbLine
10
-18.2555941023417
20
0.736105571184650
30
0.000000000000000
11
-18.1555941023417
21
0.714767297225320
31
0.000000000000000
  0
LINE
  5
F106DA
330
F106DB
100
AcDbEntity
8
Geo
100
AcDbLine
10
-18.1555941023417
20
0.714767297225320
30
0.000000000000000
11
-18.0555941023417
21
0.693739108674297
31
0.000000000000000
  0
LINE
  5
F106DC
330
F106DD
100
AcDbEntity
8
Geo
100
AcDbLine
10
-18.0555941023417
20
0.693739108674297
30
0.000000000000000
11
-17.9555941023417
21
0.673021707281801
31
0.000000000000000
  0
LINE
  5
F106DE
330
F106DF
100
AcDbEntity
8
Geo
100
AcDbLine
10
-17.9555941023417
20
0.673021707281801
30
0.000000000000000
11
-17.8555941023417
21
0.652615786003580
31
0.000000000000000
  0
LINE
  5
F106E0
330
F106E1
100
AcDbEntity
8
Geo
100
AcDbLine
10
-17.8555941023417
20
0.652615786003580
30
0.000000000000000
11
-17.7555941023417
21
0.632522031227618
31
0.000000000000000
  0
LINE
  5
F106E2
330
F106E3
100
AcDbEntity
8
Geo
100
AcDbLine
10
-17.7555941023417
20
0.632522031227618
30
0.000000000000000
11
-17.6555941023417
21
0.612741127416291
31
0.000000000000000
  0
LINE
  5
F106E4
330
F106E5
100
AcDbEntity
8
Geo
100
AcDbLine
10
-17.6555941023417
20
0.612741127416291
30
0.000000000000000
11
-17.5555941023417
21
0.593273766075871
31
0.000000000000000
  0
LINE
  5
F106E6
330
F106E7
100
AcDbEntity
8
Geo
100
AcDbLine
10
-17.5555941023417
20
0.593273766075871
30
0.000000000000000
11
-17.4555941023417
21
0.574120662046351
31
0.000000000000000
  0
LINE
  5
F106E8
330
F106E9
100
AcDbEntity
8
Geo
100
AcDbLine
10
-17.4555941023417
20
0.574120662046351
30
0.000000000000000
11
-17.3555941023417
21
0.555282581590884
31
0.000000000000000
  0
LINE
  5
F106EA
330
F106EB
100
AcDbEntity
8
Geo
100
AcDbLine
10
-17.3555941023417
20
0.555282581590884
30
0.000000000000000
11
-17.2555941023417
21
0.536760388736981
31
0.000000000000000
  0
LINE
  5
F106EC
330
F106ED
100
AcDbEntity
8
Geo
100
AcDbLine
10
-17.2555941023417
20
0.536760388736981
30
0.000000000000000
11
-17.1555941023417
21
0.518555118860144
31
0.000000000000000
  0
LINE
  5
F106EE
330
F106EF
100
AcDbEntity
8
Geo
100
AcDbLine
10
-17.1555941023417
20
0.518555118860144
30
0.000000000000000
11
-17.0555941023417
21
0.500668091679033
31
0.000000000000000
  0
LINE
  5
F106F0
330
F106F1
100
AcDbEntity
8
Geo
100
AcDbLine
10
-17.0555941023417
20
0.500668091679033
30
0.000000000000000
11
-16.9555941023417
21
0.483101079712306
31
0.000000000000000
  0
LINE
  5
F106F2
330
F106F3
100
AcDbEntity
8
Geo
100
AcDbLine
10
-16.9555941023417
20
0.483101079712306
30
0.000000000000000
11
-16.8555941023417
21
0.465856552880073
31
0.000000000000000
  0
LINE
  5
F106F4
330
F106F5
100
AcDbEntity
8
Geo
100
AcDbLine
10
-16.8555941023417
20
0.465856552880073
30
0.000000000000000
11
-16.7555941023417
21
0.448938025348859
31
0.000000000000000
  0
LINE
  5
F106F6
330
F106F7
100
AcDbEntity
8
Geo
100
AcDbLine
10
-16.7555941023417
20
0.448938025348859
30
0.000000000000000
11
-16.6555941023417
21
0.432350536934308
31
0.000000000000000
  0
LINE
  5
F106F8
330
F106F9
100
AcDbEntity
8
Geo
100
AcDbLine
10
-16.6555941023417
20
0.432350536934308
30
0.000000000000000
11
-16.5555941023417
21
0.416101308401030
31
0.000000000000000
  0
LINE
  5
F106FA
330
F106FB
100
AcDbEntity
8
Geo
100
AcDbLine
10
-16.5555941023417
20
0.416101308401030
30
0.000000000000000
11
-16.4555941023417
21
0.400200617866052
31
0.000000000000000
  0
LINE
  5
F106FC
330
F106FD
100
AcDbEntity
8
Geo
100
AcDbLine
10
-16.4555941023417
20
0.400200617866052
30
0.000000000000000
11
-16.3555941023417
21
0.384662954332544
31
0.000000000000000
  0
LINE
  5
F106FE
330
F106FF
100
AcDbEntity
8
Geo
100
AcDbLine
10
-16.3555941023417
20
0.384662954332544
30
0.000000000000000
11
-16.2555941023417
21
0.369508514456667
31
0.000000000000000
  0
LINE
  5
F10700
330
F10701
100
AcDbEntity
8
Geo
100
AcDbLine
10
-16.2555941023417
20
0.369508514456667
30
0.000000000000000
11
-16.1555941023417
21
0.354765120685405
31
0.000000000000000
  0
LINE
  5
F10702
330
F10703
100
AcDbEntity
8
Geo
100
AcDbLine
10
-16.1555941023417
20
0.354765120685405
30
0.000000000000000
11
-16.0555941023417
21
0.340470654364312
31
0.000000000000000
  0
LINE
  5
F10704
330
F10705
100
AcDbEntity
8
Geo
100
AcDbLine
10
-16.0555941023417
20
0.340470654364312
30
0.000000000000000
11
-15.9555941023417
21
0.326676119159357
31
0.000000000000000
  0
LINE
  5
F10706
330
F10707
100
AcDbEntity
8
Geo
100
AcDbLine
10
-15.9555941023417
20
0.326676119159357
30
0.000000000000000
11
-15.8555941023417
21
0.313449483454527
31
0.000000000000000
  0
LINE
  5
F10708
330
F10709
100
AcDbEntity
8
Geo
100
AcDbLine
10
-15.8555941023417
20
0.313449483454527
30
0.000000000000000
11
-15.7555941023417
21
0.300880504684196
31
0.000000000000000
  0
LINE
  5
F1070A
330
F1070B
100
AcDbEntity
8
Geo
100
AcDbLine
10
-15.7555941023417
20
0.300880504684196
30
0.000000000000000
11
-15.6555941023417
21
0.289086830053630
31
0.000000000000000
  0
LINE
  5
F1070C
330
F1070D
100
AcDbEntity
8
Geo
100
AcDbLine
10
-15.6555941023417
20
0.289086830053630
30
0.000000000000000
11
-15.5555941023417
21
0.278221824017093
31
0.000000000000000
  0
LINE
  5
F1070E
330
F1070F
100
AcDbEntity
8
Geo
100
AcDbLine
10
-15.5555941023417
20
0.278221824017093
30
0.000000000000000
11
-15.4555941023416
21
0.268484837890306
31
0.000000000000000
  0
LINE
  5
F10710
330
F10711
100
AcDbEntity
8
Geo
100
AcDbLine
10
-15.4555941023416
20
0.268484837890306
30
0.000000000000000
11
-15.3555941023416
21
0.260135082880728
31
0.000000000000000
  0
LINE
  5
F10712
330
F10713
100
AcDbEntity
8
Geo
100
AcDbLine
10
-15.3555941023416
20
0.260135082880728
30
0.000000000000000
11
-15.2555941023416
21
0.253511007913598
31
0.000000000000000
  0
LINE
  5
F10714
330
F10715
100
AcDbEntity
8
Geo
100
AcDbLine
10
-15.2555941023416
20
0.253511007913598
30
0.000000000000000
11
-15.1555941023416
21
0.249058293498639
31
0.000000000000000
  0
LINE
  5
F10716
330
F10717
100
AcDbEntity
8
Geo
100
AcDbLine
10
-15.1555941023416
20
0.249058293498639
30
0.000000000000000
11
-15.0555941023416
21
0.247371519953408
31
0.000000000000000
  0
LINE
  5
F10718
330
F10719
100
AcDbEntity
8
Geo
100
AcDbLine
10
-15.0555941023416
20
0.247371519953408
30
0.000000000000000
11
-14.9555941023416
21
0.249257652632171
31
0.000000000000000
  0
LINE
  5
F1071A
330
F1071B
100
AcDbEntity
8
Geo
100
AcDbLine
10
-14.9555941023416
20
0.249257652632171
30
0.000000000000000
11
-14.8555941023416
21
0.255834295036465
31
0.000000000000000
  0
LINE
  5
F1071C
330
F1071D
100
AcDbEntity
8
Geo
100
AcDbLine
10
-14.8555941023416
20
0.255834295036465
30
0.000000000000000
11
-14.7555941023416
21
0.268683032359430
31
0.000000000000000
  0
LINE
  5
F1071E
330
F1071F
100
AcDbEntity
8
Geo
100
AcDbLine
10
-14.7555941023416
20
0.268683032359430
30
0.000000000000000
11
-14.6555941023416
21
0.290089285263322
31
0.000000000000000
  0
LINE
  5
F10720
330
F10721
100
AcDbEntity
8
Geo
100
AcDbLine
10
-14.6555941023416
20
0.290089285263322
30
0.000000000000000
11
-14.5555941023416
21
0.323416443069888
31
0.000000000000000
  0
LINE
  5
F10722
330
F10723
100
AcDbEntity
8
Geo
100
AcDbLine
10
-14.5555941023416
20
0.323416443069888
30
0.000000000000000
11
-14.4555941023416
21
0.373685466884284
31
0.000000000000000
  0
LINE
  5
F10724
330
F10725
100
AcDbEntity
8
Geo
100
AcDbLine
10
-14.4555941023416
20
0.373685466884284
30
0.000000000000000
11
-14.3555941023416
21
0.448463362334246
31
0.000000000000000
  0
LINE
  5
F10726
330
F10727
100
AcDbEntity
8
Geo
100
AcDbLine
10
-14.3555941023416
20
0.448463362334246
30
0.000000000000000
11
-14.2555941023416
21
0.559205303699216
31
0.000000000000000
  0
LINE
  5
F10728
330
F10729
100
AcDbEntity
8
Geo
100
AcDbLine
10
-14.2555941023416
20
0.559205303699216
30
0.000000000000000
11
-14.1555941023416
21
0.723241604837384
31
0.000000000000000
  0
LINE
  5
F1072A
330
F1072B
100
AcDbEntity
8
Geo
100
AcDbLine
10
-14.1555941023416
20
0.723241604837384
30
0.000000000000000
11
-14.0555941023416
21
0.966635876379936
31
0.000000000000000
  0
LINE
  5
F1072C
330
F1072D
100
AcDbEntity
8
Geo
100
AcDbLine
10
-14.0555941023416
20
0.966635876379936
30
0.000000000000000
11
-13.9555941023416
21
1.32811898850326
31
0.000000000000000
  0
LINE
  5
F1072E
330
F1072F
100
AcDbEntity
8
Geo
100
AcDbLine
10
-13.9555941023416
20
1.32811898850326
30
0.000000000000000
11
-13.8555941023417
21
1.86411379121993
31
0.000000000000000
  0
LINE
  5
F10730
330
F10731
100
AcDbEntity
8
Geo
100
AcDbLine
10
-13.8555941023417
20
1.86411379121993
30
0.000000000000000
11
-13.8555941023417
21
2.01219344901409
31
0.000000000000000
  0
LINE
  5
F10732
330
F10733
100
AcDbEntity
8
Geo
100
AcDbLine
10
-13.8555941023417
20
2.01219344901409
30
0.000000000000000
11
-13.9555941023416
21
2.58600041736907
31
0.000000000000000
  0
LINE
  5
F10734
330
F10735
100
AcDbEntity
8
Geo
100
AcDbLine
10
-13.9555941023416
20
2.58600041736907
30
0.000000000000000
11
-14.0555941023416
21
3.16052296256316
31
0.000000000000000
  0
LINE
  5
F10736
330
F10737
100
AcDbEntity
8
Geo
100
AcDbLine
10
-14.0555941023416
20
3.16052296256316
30
0.000000000000000
11
-14.1555941023416
21
3.72243182462422
31
0.000000000000000
  0
LINE
  5
F10738
330
F10739
100
AcDbEntity
8
Geo
100
AcDbLine
10
-14.1555941023416
20
3.72243182462422
30
0.000000000000000
11
-14.2555941023416
21
4.26242450062060
31
0.000000000000000
  0
LINE
  5
F1073A
330
F1073B
100
AcDbEntity
8
Geo
100
AcDbLine
10
-14.2555941023416
20
4.26242450062060
30
0.000000000000000
11
-14.3555941023416
21
4.77437135442175
31
0.000000000000000
  0
LINE
  5
F1073C
330
F1073D
100
AcDbEntity
8
Geo
100
AcDbLine
10
-14.3555941023416
20
4.77437135442175
30
0.000000000000000
11
-14.4555941023416
21
5.25459018524446
31
0.000000000000000
  0
LINE
  5
F1073E
330
F1073F
100
AcDbEntity
8
Geo
100
AcDbLine
10
-14.4555941023416
20
5.25459018524446
30
0.000000000000000
11
-14.5555941023416
21
5.70124749441241
31
0.000000000000000
  0
LINE
  5
F10740
330
F10741
100
AcDbEntity
8
Geo
100
AcDbLine
10
-14.5555941023416
20
5.70124749441241
30
0.000000000000000
11
-14.6555941023416
21
6.11387548760035
31
0.000000000000000
  0
LINE
  5
F10742
330
F10743
100
AcDbEntity
8
Geo
100
AcDbLine
10
-14.6555941023416
20
6.11387548760035
30
0.000000000000000
11
-14.7555941023416
21
6.49298975429950
31
0.000000000000000
  0
LINE
  5
F10744
330
F10745
100
AcDbEntity
8
Geo
100
AcDbLine
10
-14.7555941023416
20
6.49298975429950
30
0.000000000000000
11
-14.8555941023416
21
6.83979157618791
31
0.000000000000000
  0
LINE
  5
F10746
330
F10747
100
AcDbEntity
8
Geo
100
AcDbLine
10
-14.8555941023416
20
6.83979157618791
30
0.000000000000000
11
-14.9555941023416
21
7.15593957721268
31
0.000000000000000
  0
LINE
  5
F10748
330
F10749
100
AcDbEntity
8
Geo
100
AcDbLine
10
-14.9555941023416
20
7.15593957721268
30
0.000000000000000
11
-15.0555941023416
21
7.44337706261010
31
0.000000000000000
  0
LINE
  5
F1074A
330
F1074B
100
AcDbEntity
8
Geo
100
AcDbLine
10
-15.0555941023416
20
7.44337706261010
30
0.000000000000000
11
-15.1555941023416
21
7.70420335912973
31
0.000000000000000
  0
LINE
  5
F1074C
330
F1074D
100
AcDbEntity
8
Geo
100
AcDbLine
10
-15.1555941023416
20
7.70420335912973
30
0.000000000000000
11
-15.2555941023416
21
7.94057944842499
31
0.000000000000000
  0
LINE
  5
F1074E
330
F1074F
100
AcDbEntity
8
Geo
100
AcDbLine
10
-15.2555941023416
20
7.94057944842499
30
0.000000000000000
11
-15.3555941023416
21
8.15466001161972
31
0.000000000000000
  0
LINE
  5
F10750
330
F10751
100
AcDbEntity
8
Geo
100
AcDbLine
10
-15.3555941023416
20
8.15466001161972
30
0.000000000000000
11
-15.4555941023416
21
8.34854559949207
31
0.000000000000000
  0
LINE
  5
F10752
330
F10753
100
AcDbEntity
8
Geo
100
AcDbLine
10
-15.4555941023416
20
8.34854559949207
30
0.000000000000000
11
-15.5555941023417
21
8.52424998856684
31
0.000000000000000
  0
LINE
  5
F10754
330
F10755
100
AcDbEntity
8
Geo
100
AcDbLine
10
-15.5555941023417
20
8.52424998856684
30
0.000000000000000
11
-15.6555941023417
21
8.68367888829661
31
0.000000000000000
  0
LINE
  5
F10756
330
F10757
100
AcDbEntity
8
Geo
100
AcDbLine
10
-15.6555941023417
20
8.68367888829661
30
0.000000000000000
11
-15.7555941023417
21
8.82861705326583
31
0.000000000000000
  0
LINE
  5
F10758
330
F10759
100
AcDbEntity
8
Geo
100
AcDbLine
10
-15.7555941023417
20
8.82861705326583
30
0.000000000000000
11
-15.8555941023417
21
8.96072155767156
31
0.000000000000000
  0
LINE
  5
F1075A
330
F1075B
100
AcDbEntity
8
Geo
100
AcDbLine
10
-15.8555941023417
20
8.96072155767156
30
0.000000000000000
11
-15.9555941023417
21
9.08151953844912
31
0.000000000000000
  0
LINE
  5
F1075C
330
F1075D
100
AcDbEntity
8
Geo
100
AcDbLine
10
-15.9555941023417
20
9.08151953844912
30
0.000000000000000
11
-16.0555941023417
21
9.19240913725246
31
0.000000000000000
  0
LINE
  5
F1075E
330
F1075F
100
AcDbEntity
8
Geo
100
AcDbLine
10
-16.0555941023417
20
9.19240913725246
30
0.000000000000000
11
-16.1555941023417
21
9.29466269542048
31
0.000000000000000
  0
LINE
  5
F10760
330
F10761
100
AcDbEntity
8
Geo
100
AcDbLine
10
-16.1555941023417
20
9.29466269542048
30
0.000000000000000
11
-16.2555941023417
21
9.38943150146911
31
0.000000000000000
  0
LINE
  5
F10762
330
F10763
100
AcDbEntity
8
Geo
100
AcDbLine
10
-16.2555941023417
20
9.38943150146911
30
0.000000000000000
11
-16.3555941023417
21
9.47775157513629
31
0.000000000000000
  0
LINE
  5
F10764
330
F10765
100
AcDbEntity
8
Geo
100
AcDbLine
10
-16.3555941023417
20
9.47775157513629
30
0.000000000000000
11
-16.4555941023417
21
9.56055010973321
31
0.000000000000000
  0
LINE
  5
F10766
330
F10767
100
AcDbEntity
8
Geo
100
AcDbLine
10
-16.4555941023417
20
9.56055010973321
30
0.000000000000000
11
-16.5555941023417
21
9.63865229672689
31
0.000000000000000
  0
LINE
  5
F10768
330
F10769
100
AcDbEntity
8
Geo
100
AcDbLine
10
-16.5555941023417
20
9.63865229672689
30
0.000000000000000
11
-16.6555941023417
21
9.71278833184394
31
0.000000000000000
  0
LINE
  5
F1076A
330
F1076B
100
AcDbEntity
8
Geo
100
AcDbLine
10
-16.6555941023417
20
9.71278833184394
30
0.000000000000000
11
-16.7555941023417
21
9.78360045728789
31
0.000000000000000
  0
LINE
  5
F1076C
330
F1076D
100
AcDbEntity
8
Geo
100
AcDbLine
10
-16.7555941023417
20
9.78360045728789
30
0.000000000000000
11
-16.8555941023417
21
9.85164993504999
31
0.000000000000000
  0
LINE
  5
F1076E
330
F1076F
100
AcDbEntity
8
Geo
100
AcDbLine
10
-16.8555941023417
20
9.85164993504999
30
0.000000000000000
11
-16.9555941023417
21
9.91742387565876
31
0.000000000000000
  0
LINE
  5
F10770
330
F10771
100
AcDbEntity
8
Geo
100
AcDbLine
10
-16.9555941023417
20
9.91742387565876
30
0.000000000000000
11
-17.0555941023417
21
9.98134186797281
31
0.000000000000000
  0
LINE
  5
F10772
330
F10773
100
AcDbEntity
8
Geo
100
AcDbLine
10
-17.0555941023417
20
9.98134186797281
30
0.000000000000000
11
-17.1555941023417
21
10.0437623709510
31
0.000000000000000
  0
LINE
  5
F10774
330
F10775
100
AcDbEntity
8
Geo
100
AcDbLine
10
-17.1555941023417
20
10.0437623709510
30
0.000000000000000
11
-17.2555941023417
21
10.1049888393401
31
0.000000000000000
  0
LINE
  5
F10776
330
F10777
100
AcDbEntity
8
Geo
100
AcDbLine
10
-17.2555941023417
20
10.1049888393401
30
0.000000000000000
11
-17.3555941023417
21
10.1652755630884
31
0.000000000000000
  0
LINE
  5
F10778
330
F10779
100
AcDbEntity
8
Geo
100
AcDbLine
10
-17.3555941023417
20
10.1652755630884
30
0.000000000000000
11
-17.4555941023417
21
10.2248332058965
31
0.000000000000000
  0
LINE
  5
F1077A
330
F1077B
100
AcDbEntity
8
Geo
100
AcDbLine
10
-17.4555941023417
20
10.2248332058965
30
0.000000000000000
11
-17.5555941023417
21
10.2838340322849
31
0.000000000000000
  0
LINE
  5
F1077C
330
F1077D
100
AcDbEntity
8
Geo
100
AcDbLine
10
-17.5555941023417
20
10.2838340322849
30
0.000000000000000
11
-17.6555941023417
21
10.3424168153650
31
0.000000000000000
  0
LINE
  5
F1077E
330
F1077F
100
AcDbEntity
8
Geo
100
AcDbLine
10
-17.6555941023417
20
10.3424168153650
30
0.000000000000000
11
-17.7555941023417
21
10.4006914194768
31
0.000000000000000
  0
LINE
  5
F10780
330
F10781
100
AcDbEntity
8
Geo
100
AcDbLine
10
-17.7555941023417
20
10.4006914194768
30
0.000000000000000
11
-17.8555941023417
21
10.4587430532593
31
0.000000000000000
  0
LINE
  5
F10782
330
F10783
100
AcDbEntity
8
Geo
100
AcDbLine
10
-17.8555941023417
20
10.4587430532593
30
0.000000000000000
11
-17.9555941023417
21
10.5166361897192
31
0.000000000000000
  0
LINE
  5
F10784
330
F10785
100
AcDbEntity
8
Geo
100
AcDbLine
10
-17.9555941023417
20
10.5166361897192
30
0.000000000000000
11
-18.0555941023417
21
10.5744181505956
31
0.000000000000000
  0
LINE
  5
F10786
330
F10787
100
AcDbEntity
8
Geo
100
AcDbLine
10
-18.0555941023417
20
10.5744181505956
30
0.000000000000000
11
-18.1555941023417
21
10.6321223528759
31
0.000000000000000
  0
LINE
  5
F10788
330
F10789
100
AcDbEntity
8
Geo
100
AcDbLine
10
-18.1555941023417
20
10.6321223528759
30
0.000000000000000
11
-18.2555941023417
21
10.6897712157605
31
0.000000000000000
  0
LINE
  5
F1078A
330
F1078B
100
AcDbEntity
8
Geo
100
AcDbLine
10
-18.2555941023417
20
10.6897712157605
30
0.000000000000000
11
-18.3555941023417
21
10.7473787267551
31
0.000000000000000
  0
LINE
  5
F1078C
330
F1078D
100
AcDbEntity
8
Geo
100
AcDbLine
10
-18.3555941023417
20
10.7473787267551
30
0.000000000000000
11
-18.4555941023417
21
10.8049526659089
31
0.000000000000000
  0
LINE
  5
F1078E
330
F1078F
100
AcDbEntity
8
Geo
100
AcDbLine
10
-18.4555941023417
20
10.8049526659089
30
0.000000000000000
11
-18.5555941023417
21
10.8624964875438
31
0.000000000000000
  0
LINE
  5
F10790
330
F10791
100
AcDbEntity
8
Geo
100
AcDbLine
10
-18.5555941023417
20
10.8624964875438
30
0.000000000000000
11
-18.6555941023417
21
10.9200108591352
31
0.000000000000000
  0
LINE
  5
F10792
330
F10793
100
AcDbEntity
8
Geo
100
AcDbLine
10
-18.6555941023417
20
10.9200108591352
30
0.000000000000000
11
-18.7555941023417
21
10.9774948573213
31
0.000000000000000
  0
LINE
  5
F10794
330
F10795
100
AcDbEntity
8
Geo
100
AcDbLine
10
-18.7555941023417
20
10.9774948573213
30
0.000000000000000
11
-18.9555941023417
21
11.0923648649480
31
0.000000000000000
  0
LINE
  5
F10796
330
F10797
100
AcDbEntity
8
Geo
100
AcDbLine
10
-17.1132741659138
20
0.0173460537727550
30
0.000000000000000
11
-17.1555941023417
21
0.0173809449242874
31
0.000000000000000
  0
LINE
  5
F10798
330
F10799
100
AcDbEntity
8
Geo
100
AcDbLine
10
-17.1555941023417
20
0.0173809449242874
30
0.000000000000000
11
-17.2555941023417
21
0.0177301240413534
31
0.000000000000000
  0
LINE
  5
F1079A
330
F1079B
100
AcDbEntity
8
Geo
100
AcDbLine
10
-17.2555941023417
20
0.0177301240413534
30
0.000000000000000
11
-17.3555941023417
21
0.0184402706245983
31
0.000000000000000
  0
LINE
  5
F1079C
330
F1079D
100
AcDbEntity
8
Geo
100
AcDbLine
10
-17.3555941023417
20
0.0184402706245983
30
0.000000000000000
11
-17.4555941023417
21
0.0194988314101536
31
0.000000000000000
  0
LINE
  5
F1079E
330
F1079F
100
AcDbEntity
8
Geo
100
AcDbLine
10
-17.4555941023417
20
0.0194988314101536
30
0.000000000000000
11
-17.5555941023417
21
0.0208974765375132
31
0.000000000000000
  0
LINE
  5
F107A0
330
F107A1
100
AcDbEntity
8
Geo
100
AcDbLine
10
-17.5555941023417
20
0.0208974765375132
30
0.000000000000000
11
-17.6555941023417
21
0.0226310003078609
31
0.000000000000000
  0
LINE
  5
F107A2
330
F107A3
100
AcDbEntity
8
Geo
100
AcDbLine
10
-17.6555941023417
20
0.0226310003078609
30
0.000000000000000
11
-17.7555941023417
21
0.0246964386509863
31
0.000000000000000
  0
LINE
  5
F107A4
330
F107A5
100
AcDbEntity
8
Geo
100
AcDbLine
10
-17.7555941023417
20
0.0246964386509863
30
0.000000000000000
11
-17.8555941023417
21
0.0270923688634337
31
0.000000000000000
  0
LINE
  5
F107A6
330
F107A7
100
AcDbEntity
8
Geo
100
AcDbLine
10
-17.8555941023417
20
0.0270923688634337
30
0.000000000000000
11
-17.9555941023417
21
0.0298183636911613
31
0.000000000000000
  0
LINE
  5
F107A8
330
F107A9
100
AcDbEntity
8
Geo
100
AcDbLine
10
-17.9555941023417
20
0.0298183636911613
30
0.000000000000000
11
-18.0555941023417
21
0.0328745765767113
31
0.000000000000000
  0
LINE
  5
F107AA
330
F107AB
100
AcDbEntity
8
Geo
100
AcDbLine
10
-18.0555941023417
20
0.0328745765767113
30
0.000000000000000
11
-18.1555941023417
21
0.0362614382582169
31
0.000000000000000
  0
LINE
  5
F107AC
330
F107AD
100
AcDbEntity
8
Geo
100
AcDbLine
10
-18.1555941023417
20
0.0362614382582169
30
0.000000000000000
11
-18.2555941023417
21
0.0399794472214214
31
0.000000000000000
  0
LINE
  5
F107AE
330
F107AF
100
AcDbEntity
8
Geo
100
AcDbLine
10
-18.2555941023417
20
0.0399794472214214
30
0.000000000000000
11
-18.3555941023417
21
0.0440290380363049
31
0.000000000000000
  0
LINE
  5
F107B0
330
F107B1
100
AcDbEntity
8
Geo
100
AcDbLine
10
-18.3555941023417
20
0.0440290380363049
30
0.000000000000000
11
-18.4555941023417
21
0.0484105125768277
31
0.000000000000000
  0
LINE
  5
F107B2
330
F107B3
100
AcDbEntity
8
Geo
100
AcDbLine
10
-18.4555941023417
20
0.0484105125768277
30
0.000000000000000
11
-18.5555941023417
21
0.0531240197002294
31
0.000000000000000
  0
LINE
  5
F107B4
330
F107B5
100
AcDbEntity
8
Geo
100
AcDbLine
10
-18.5555941023417
20
0.0531240197002294
30
0.000000000000000
11
-18.6555941023417
21
0.0581695692856989
31
0.000000000000000
  0
LINE
  5
F107B6
330
F107B7
100
AcDbEntity
8
Geo
100
AcDbLine
10
-18.6555941023417
20
0.0581695692856989
30
0.000000000000000
11
-18.7555941023417
21
0.0635470667003286
31
0.000000000000000
  0
LINE
  5
F107B8
330
F107B9
100
AcDbEntity
8
Geo
100
AcDbLine
10
-18.7555941023417
20
0.0635470667003286
30
0.000000000000000
11
-18.9555941023417
21
0.0752972430084871
31
0.000000000000000
  0
LINE
  5
F107BA
330
F107BB
100
AcDbEntity
8
Geo
100
AcDbLine
10
-37.4555941023417
20
10.6865490467735
30
0.000000000000000
11
-37.4555941023417
21
9.22993929403637
31
0.000000000000000
  0
LINE
  5
F107BC
330
F107BD
100
AcDbEntity
8
Geo
100
AcDbLine
10
-37.4555941023417
20
9.22993929403637
30
0.000000000000000
11
-37.3555941023417
21
8.90673317193577
31
0.000000000000000
  0
LINE
  5
F107BE
330
F107BF
100
AcDbEntity
8
Geo
100
AcDbLine
10
-37.3555941023417
20
8.90673317193577
30
0.000000000000000
11
-37.2555941023417
21
8.68700316105835
31
0.000000000000000
  0
LINE
  5
F107C0
330
F107C1
100
AcDbEntity
8
Geo
100
AcDbLine
10
-37.2555941023417
20
8.68700316105835
30
0.000000000000000
11
-37.1555941023417
21
8.51400091473163
31
0.000000000000000
  0
LINE
  5
F107C2
330
F107C3
100
AcDbEntity
8
Geo
100
AcDbLine
10
-37.1555941023417
20
8.51400091473163
30
0.000000000000000
11
-37.0555941023417
21
8.36914177395745
31
0.000000000000000
  0
LINE
  5
F107C4
330
F107C5
100
AcDbEntity
8
Geo
100
AcDbLine
10
-37.0555941023417
20
8.36914177395745
30
0.000000000000000
11
-36.9555941023417
21
8.24431538267570
31
0.000000000000000
  0
LINE
  5
F107C6
330
F107C7
100
AcDbEntity
8
Geo
100
AcDbLine
10
-36.9555941023417
20
8.24431538267570
30
0.000000000000000
11
-36.8555941023417
21
8.13429899998947
31
0.000000000000000
  0
LINE
  5
F107C8
330
F107C9
100
AcDbEntity
8
Geo
100
AcDbLine
10
-36.8555941023417
20
8.13429899998947
30
0.000000000000000
11
-36.7555941023417
21
8.03643951404445
31
0.000000000000000
  0
LINE
  5
F107CA
330
F107CB
100
AcDbEntity
8
Geo
100
AcDbLine
10
-36.7555941023417
20
8.03643951404445
30
0.000000000000000
11
-36.6555941023417
21
7.94828496126968
31
0.000000000000000
  0
LINE
  5
F107CC
330
F107CD
100
AcDbEntity
8
Geo
100
AcDbLine
10
-36.6555941023417
20
7.94828496126968
30
0.000000000000000
11
-36.5555941023417
21
7.86839726008247
31
0.000000000000000
  0
LINE
  5
F107CE
330
F107CF
100
AcDbEntity
8
Geo
100
AcDbLine
10
-36.5555941023417
20
7.86839726008247
30
0.000000000000000
11
-36.4555941023417
21
7.79565117248061
31
0.000000000000000
  0
LINE
  5
F107D0
330
F107D1
100
AcDbEntity
8
Geo
100
AcDbLine
10
-36.4555941023417
20
7.79565117248061
30
0.000000000000000
11
-36.3555941023417
21
7.72914735086044
31
0.000000000000000
  0
LINE
  5
F107D2
330
F107D3
100
AcDbEntity
8
Geo
100
AcDbLine
10
-36.3555941023417
20
7.72914735086044
30
0.000000000000000
11
-36.2555941023417
21
7.66840909492440
31
0.000000000000000
  0
LINE
  5
F107D4
330
F107D5
100
AcDbEntity
8
Geo
100
AcDbLine
10
-36.2555941023417
20
7.66840909492440
30
0.000000000000000
11
-36.1555941023417
21
7.61283815737528
31
0.000000000000000
  0
LINE
  5
F107D6
330
F107D7
100
AcDbEntity
8
Geo
100
AcDbLine
10
-36.1555941023417
20
7.61283815737528
30
0.000000000000000
11
-36.0555941023417
21
7.56175116988327
31
0.000000000000000
  0
LINE
  5
F107D8
330
F107D9
100
AcDbEntity
8
Geo
100
AcDbLine
10
-36.0555941023417
20
7.56175116988327
30
0.000000000000000
11
-35.9555941023417
21
7.51491850835706
31
0.000000000000000
  0
LINE
  5
F107DA
330
F107DB
100
AcDbEntity
8
Geo
100
AcDbLine
10
-35.9555941023417
20
7.51491850835706
30
0.000000000000000
11
-35.8555941023417
21
7.47184294123029
31
0.000000000000000
  0
LINE
  5
F107DC
330
F107DD
100
AcDbEntity
8
Geo
100
AcDbLine
10
-35.8555941023417
20
7.47184294123029
30
0.000000000000000
11
-35.7555941023417
21
7.42907788440434
31
0.000000000000000
  0
LINE
  5
F107DE
330
F107DF
100
AcDbEntity
8
Geo
100
AcDbLine
10
-35.7555941023417
20
7.42907788440434
30
0.000000000000000
11
-35.6555941023417
21
7.38542027238854
31
0.000000000000000
  0
LINE
  5
F107E0
330
F107E1
100
AcDbEntity
8
Geo
100
AcDbLine
10
-35.6555941023417
20
7.38542027238854
30
0.000000000000000
11
-35.5555941023417
21
7.34091066824818
31
0.000000000000000
  0
LINE
  5
F107E2
330
F107E3
100
AcDbEntity
8
Geo
100
AcDbLine
10
-35.5555941023417
20
7.34091066824818
30
0.000000000000000
11
-35.4555941023417
21
7.29558803778504
31
0.000000000000000
  0
LINE
  5
F107E4
330
F107E5
100
AcDbEntity
8
Geo
100
AcDbLine
10
-35.4555941023417
20
7.29558803778504
30
0.000000000000000
11
-35.3555941023417
21
7.24948987824141
31
0.000000000000000
  0
LINE
  5
F107E6
330
F107E7
100
AcDbEntity
8
Geo
100
AcDbLine
10
-35.3555941023417
20
7.24948987824141
30
0.000000000000000
11
-35.2555941023417
21
7.20265233413742
31
0.000000000000000
  0
LINE
  5
F107E8
330
F107E9
100
AcDbEntity
8
Geo
100
AcDbLine
10
-35.2555941023417
20
7.20265233413742
30
0.000000000000000
11
-35.1555941023417
21
7.15511030173297
31
0.000000000000000
  0
LINE
  5
F107EA
330
F107EB
100
AcDbEntity
8
Geo
100
AcDbLine
10
-35.1555941023417
20
7.15511030173297
30
0.000000000000000
11
-35.0555941023417
21
7.10689752342024
31
0.000000000000000
  0
LINE
  5
F107EC
330
F107ED
100
AcDbEntity
8
Geo
100
AcDbLine
10
-35.0555941023417
20
7.10689752342024
30
0.000000000000000
11
-34.9555941023417
21
7.05804667318981
31
0.000000000000000
  0
LINE
  5
F107EE
330
F107EF
100
AcDbEntity
8
Geo
100
AcDbLine
10
-34.9555941023417
20
7.05804667318981
30
0.000000000000000
11
-34.8555941023417
21
7.00858943417036
31
0.000000000000000
  0
LINE
  5
F107F0
330
F107F1
100
AcDbEntity
8
Geo
100
AcDbLine
10
-34.8555941023417
20
7.00858943417036
30
0.000000000000000
11
-34.7555941023417
21
6.95855656911785
31
0.000000000000000
  0
LINE
  5
F107F2
330
F107F3
100
AcDbEntity
8
Geo
100
AcDbLine
10
-34.7555941023417
20
6.95855656911785
30
0.000000000000000
11
-34.6555941023417
21
6.90797798462192
31
0.000000000000000
  0
LINE
  5
F107F4
330
F107F5
100
AcDbEntity
8
Geo
100
AcDbLine
10
-34.6555941023417
20
6.90797798462192
30
0.000000000000000
11
-34.5555941023417
21
6.85688278970312
31
0.000000000000000
  0
LINE
  5
F107F6
330
F107F7
100
AcDbEntity
8
Geo
100
AcDbLine
10
-34.5555941023417
20
6.85688278970312
30
0.000000000000000
11
-34.4555941023417
21
6.80529934939326
31
0.000000000000000
  0
LINE
  5
F107F8
330
F107F9
100
AcDbEntity
8
Geo
100
AcDbLine
10
-34.4555941023417
20
6.80529934939326
30
0.000000000000000
11
-34.3555941023417
21
6.75325533382024
31
0.000000000000000
  0
LINE
  5
F107FA
330
F107FB
100
AcDbEntity
8
Geo
100
AcDbLine
10
-34.3555941023417
20
6.75325533382024
30
0.000000000000000
11
-34.2555941023417
21
6.70077776325718
31
0.000000000000000
  0
LINE
  5
F107FC
330
F107FD
100
AcDbEntity
8
Geo
100
AcDbLine
10
-34.2555941023417
20
6.70077776325718
30
0.000000000000000
11
-34.1555941023417
21
6.64789304954215
31
0.000000000000000
  0
LINE
  5
F107FE
330
F107FF
100
AcDbEntity
8
Geo
100
AcDbLine
10
-34.1555941023417
20
6.64789304954215
30
0.000000000000000
11
-34.0555941023417
21
6.59462703422803
31
0.000000000000000
  0
LINE
  5
F10800
330
F10801
100
AcDbEntity
8
Geo
100
AcDbLine
10
-34.0555941023417
20
6.59462703422803
30
0.000000000000000
11
-33.9555941023417
21
6.54100502378166
31
0.000000000000000
  0
LINE
  5
F10802
330
F10803
100
AcDbEntity
8
Geo
100
AcDbLine
10
-33.9555941023417
20
6.54100502378166
30
0.000000000000000
11
-33.8555941023417
21
6.48705182211541
31
0.000000000000000
  0
LINE
  5
F10804
330
F10805
100
AcDbEntity
8
Geo
100
AcDbLine
10
-33.8555941023417
20
6.48705182211541
30
0.000000000000000
11
-33.7555941023417
21
6.43279176070378
31
0.000000000000000
  0
LINE
  5
F10806
330
F10807
100
AcDbEntity
8
Geo
100
AcDbLine
10
-33.7555941023417
20
6.43279176070378
30
0.000000000000000
11
-33.6555941023417
21
6.37824872650980
31
0.000000000000000
  0
LINE
  5
F10808
330
F10809
100
AcDbEntity
8
Geo
100
AcDbLine
10
-33.6555941023417
20
6.37824872650980
30
0.000000000000000
11
-33.5555941023417
21
6.32344618792253
31
0.000000000000000
  0
LINE
  5
F1080A
330
F1080B
100
AcDbEntity
8
Geo
100
AcDbLine
10
-33.5555941023417
20
6.32344618792253
30
0.000000000000000
11
-33.4555941023417
21
6.26840721888573
31
0.000000000000000
  0
LINE
  5
F1080C
330
F1080D
100
AcDbEntity
8
Geo
100
AcDbLine
10
-33.4555941023417
20
6.26840721888573
30
0.000000000000000
11
-33.3555941023417
21
6.21315452137915
31
0.000000000000000
  0
LINE
  5
F1080E
330
F1080F
100
AcDbEntity
8
Geo
100
AcDbLine
10
-33.3555941023417
20
6.21315452137915
30
0.000000000000000
11
-33.2555941023417
21
6.15771044639761
31
0.000000000000000
  0
LINE
  5
F10810
330
F10811
100
AcDbEntity
8
Geo
100
AcDbLine
10
-33.2555941023417
20
6.15771044639761
30
0.000000000000000
11
-33.1555941023417
21
6.10209701355875
31
0.000000000000000
  0
LINE
  5
F10812
330
F10813
100
AcDbEntity
8
Geo
100
AcDbLine
10
-33.1555941023417
20
6.10209701355875
30
0.000000000000000
11
-33.0555941023417
21
6.04633592945712
31
0.000000000000000
  0
LINE
  5
F10814
330
F10815
100
AcDbEntity
8
Geo
100
AcDbLine
10
-33.0555941023417
20
6.04633592945712
30
0.000000000000000
11
-32.9555941023417
21
5.99044860487127
31
0.000000000000000
  0
LINE
  5
F10816
330
F10817
100
AcDbEntity
8
Geo
100
AcDbLine
10
-32.9555941023417
20
5.99044860487127
30
0.000000000000000
11
-32.8555941023417
21
5.93445617092036
31
0.000000000000000
  0
LINE
  5
F10818
330
F10819
100
AcDbEntity
8
Geo
100
AcDbLine
10
-32.8555941023417
20
5.93445617092036
30
0.000000000000000
11
-32.7555941023417
21
5.87837949425760
31
0.000000000000000
  0
LINE
  5
F1081A
330
F1081B
100
AcDbEntity
8
Geo
100
AcDbLine
10
-32.7555941023417
20
5.87837949425760
30
0.000000000000000
11
-32.6555941023417
21
5.82223919138010
31
0.000000000000000
  0
LINE
  5
F1081C
330
F1081D
100
AcDbEntity
8
Geo
100
AcDbLine
10
-32.6555941023417
20
5.82223919138010
30
0.000000000000000
11
-32.5555941023417
21
5.76605564212755
31
0.000000000000000
  0
LINE
  5
F1081E
330
F1081F
100
AcDbEntity
8
Geo
100
AcDbLine
10
-32.5555941023417
20
5.76605564212755
30
0.000000000000000
11
-32.4555941023417
21
5.70984900243543
31
0.000000000000000
  0
LINE
  5
F10820
330
F10821
100
AcDbEntity
8
Geo
100
AcDbLine
10
-32.4555941023417
20
5.70984900243543
30
0.000000000000000
11
-32.3555941023417
21
5.65363921640333
31
0.000000000000000
  0
LINE
  5
F10822
330
F10823
100
AcDbEntity
8
Geo
100
AcDbLine
10
-32.3555941023417
20
5.65363921640333
30
0.000000000000000
11
-32.2555941023417
21
5.59744602773332
31
0.000000000000000
  0
LINE
  5
F10824
330
F10825
100
AcDbEntity
8
Geo
100
AcDbLine
10
-32.2555941023417
20
5.59744602773332
30
0.000000000000000
11
-32.1555941023417
21
5.54128899058894
31
0.000000000000000
  0
LINE
  5
F10826
330
F10827
100
AcDbEntity
8
Geo
100
AcDbLine
10
-32.1555941023417
20
5.54128899058894
30
0.000000000000000
11
-32.0555941023417
21
5.48518747992138
31
0.000000000000000
  0
LINE
  5
F10828
330
F10829
100
AcDbEntity
8
Geo
100
AcDbLine
10
-32.0555941023417
20
5.48518747992138
30
0.000000000000000
11
-31.9555941023417
21
5.42916070130549
31
0.000000000000000
  0
LINE
  5
F1082A
330
F1082B
100
AcDbEntity
8
Geo
100
AcDbLine
10
-31.9555941023417
20
5.42916070130549
30
0.000000000000000
11
-31.8555941023417
21
5.37322770032515
31
0.000000000000000
  0
LINE
  5
F1082C
330
F1082D
100
AcDbEntity
8
Geo
100
AcDbLine
10
-31.8555941023417
20
5.37322770032515
30
0.000000000000000
11
-31.7555941023417
21
5.31740737154427
31
0.000000000000000
  0
LINE
  5
F1082E
330
F1082F
100
AcDbEntity
8
Geo
100
AcDbLine
10
-31.7555941023417
20
5.31740737154427
30
0.000000000000000
11
-31.6555941023417
21
5.26171846709738
31
0.000000000000000
  0
LINE
  5
F10830
330
F10831
100
AcDbEntity
8
Geo
100
AcDbLine
10
-31.6555941023417
20
5.26171846709738
30
0.000000000000000
11
-31.5555941023417
21
5.20617960493098
31
0.000000000000000
  0
LINE
  5
F10832
330
F10833
100
AcDbEntity
8
Geo
100
AcDbLine
10
-31.5555941023417
20
5.20617960493098
30
0.000000000000000
11
-31.4555941023417
21
5.15080927672478
31
0.000000000000000
  0
LINE
  5
F10834
330
F10835
100
AcDbEntity
8
Geo
100
AcDbLine
10
-31.4555941023417
20
5.15080927672478
30
0.000000000000000
11
-31.3555941023417
21
5.09562585552013
31
0.000000000000000
  0
LINE
  5
F10836
330
F10837
100
AcDbEntity
8
Geo
100
AcDbLine
10
-31.3555941023417
20
5.09562585552013
30
0.000000000000000
11
-31.2555941023417
21
5.04064760308082
31
0.000000000000000
  0
LINE
  5
F10838
330
F10839
100
AcDbEntity
8
Geo
100
AcDbLine
10
-31.2555941023417
20
5.04064760308082
30
0.000000000000000
11
-31.1555941023417
21
4.98589267701020
31
0.000000000000000
  0
LINE
  5
F1083A
330
F1083B
100
AcDbEntity
8
Geo
100
AcDbLine
10
-31.1555941023417
20
4.98589267701020
30
0.000000000000000
11
-31.0555941023417
21
4.93137913764691
31
0.000000000000000
  0
LINE
  5
F1083C
330
F1083D
100
AcDbEntity
8
Geo
100
AcDbLine
10
-31.0555941023417
20
4.93137913764691
30
0.000000000000000
11
-30.9555941023417
21
4.87712495476037
31
0.000000000000000
  0
LINE
  5
F1083E
330
F1083F
100
AcDbEntity
8
Geo
100
AcDbLine
10
-30.9555941023417
20
4.87712495476037
30
0.000000000000000
11
-30.8555941023417
21
4.82314801406571
31
0.000000000000000
  0
LINE
  5
F10840
330
F10841
100
AcDbEntity
8
Geo
100
AcDbLine
10
-30.8555941023417
20
4.82314801406571
30
0.000000000000000
11
-30.7555941023417
21
4.76946612357731
31
0.000000000000000
  0
LINE
  5
F10842
330
F10843
100
AcDbEntity
8
Geo
100
AcDbLine
10
-30.7555941023417
20
4.76946612357731
30
0.000000000000000
11
-30.6555941023417
21
4.71609701981875
31
0.000000000000000
  0
LINE
  5
F10844
330
F10845
100
AcDbEntity
8
Geo
100
AcDbLine
10
-30.6555941023417
20
4.71609701981875
30
0.000000000000000
11
-30.5555941023417
21
4.66305837390620
31
0.000000000000000
  0
LINE
  5
F10846
330
F10847
100
AcDbEntity
8
Geo
100
AcDbLine
10
-30.5555941023417
20
4.66305837390620
30
0.000000000000000
11
-30.4555941023417
21
4.61036779752198
31
0.000000000000000
  0
LINE
  5
F10848
330
F10849
100
AcDbEntity
8
Geo
100
AcDbLine
10
-30.4555941023417
20
4.61036779752198
30
0.000000000000000
11
-30.3555941023417
21
4.55804284879370
31
0.000000000000000
  0
LINE
  5
F1084A
330
F1084B
100
AcDbEntity
8
Geo
100
AcDbLine
10
-30.3555941023417
20
4.55804284879370
30
0.000000000000000
11
-30.2555941023417
21
4.50610103809449
31
0.000000000000000
  0
LINE
  5
F1084C
330
F1084D
100
AcDbEntity
8
Geo
100
AcDbLine
10
-30.2555941023417
20
4.50610103809449
30
0.000000000000000
11
-30.1555941023417
21
4.45455983377899
31
0.000000000000000
  0
LINE
  5
F1084E
330
F1084F
100
AcDbEntity
8
Geo
100
AcDbLine
10
-30.1555941023417
20
4.45455983377899
30
0.000000000000000
11
-30.0555941023417
21
4.40343666786939
31
0.000000000000000
  0
LINE
  5
F10850
330
F10851
100
AcDbEntity
8
Geo
100
AcDbLine
10
-30.0555941023417
20
4.40343666786939
30
0.000000000000000
11
-29.9555941023417
21
4.35274894170574
31
0.000000000000000
  0
LINE
  5
F10852
330
F10853
100
AcDbEntity
8
Geo
100
AcDbLine
10
-29.9555941023417
20
4.35274894170574
30
0.000000000000000
11
-29.8555941023417
21
4.30251403157411
31
0.000000000000000
  0
LINE
  5
F10854
330
F10855
100
AcDbEntity
8
Geo
100
AcDbLine
10
-29.8555941023417
20
4.30251403157411
30
0.000000000000000
11
-29.7555941023417
21
4.25274929432633
31
0.000000000000000
  0
LINE
  5
F10856
330
F10857
100
AcDbEntity
8
Geo
100
AcDbLine
10
-29.7555941023417
20
4.25274929432633
30
0.000000000000000
11
-29.6555941023417
21
4.20347207300479
31
0.000000000000000
  0
LINE
  5
F10858
330
F10859
100
AcDbEntity
8
Geo
100
AcDbLine
10
-29.6555941023417
20
4.20347207300479
30
0.000000000000000
11
-29.5555941023417
21
4.15469970248548
31
0.000000000000000
  0
LINE
  5
F1085A
330
F1085B
100
AcDbEntity
8
Geo
100
AcDbLine
10
-29.5555941023417
20
4.15469970248548
30
0.000000000000000
11
-29.4555941023417
21
4.10644951515292
31
0.000000000000000
  0
LINE
  5
F1085C
330
F1085D
100
AcDbEntity
8
Geo
100
AcDbLine
10
-29.4555941023417
20
4.10644951515292
30
0.000000000000000
11
-29.3555941023417
21
4.05873884662022
31
0.000000000000000
  0
LINE
  5
F1085E
330
F1085F
100
AcDbEntity
8
Geo
100
AcDbLine
10
-29.3555941023417
20
4.05873884662022
30
0.000000000000000
11
-29.2555941023417
21
4.01158504150791
31
0.000000000000000
  0
LINE
  5
F10860
330
F10861
100
AcDbEntity
8
Geo
100
AcDbLine
10
-29.2555941023417
20
4.01158504150791
30
0.000000000000000
11
-29.1555941023417
21
3.96500545929514
31
0.000000000000000
  0
LINE
  5
F10862
330
F10863
100
AcDbEntity
8
Geo
100
AcDbLine
10
-29.1555941023417
20
3.96500545929514
30
0.000000000000000
11
-29.0555941023417
21
3.91901748025732
31
0.000000000000000
  0
LINE
  5
F10864
330
F10865
100
AcDbEntity
8
Geo
100
AcDbLine
10
-29.0555941023417
20
3.91901748025732
30
0.000000000000000
11
-28.9555941023417
21
3.87363851150435
31
0.000000000000000
  0
LINE
  5
F10866
330
F10867
100
AcDbEntity
8
Geo
100
AcDbLine
10
-28.9555941023417
20
3.87363851150435
30
0.000000000000000
11
-28.8555941023417
21
3.82888599313404
31
0.000000000000000
  0
LINE
  5
F10868
330
F10869
100
AcDbEntity
8
Geo
100
AcDbLine
10
-28.8555941023417
20
3.82888599313404
30
0.000000000000000
11
-28.7555941023417
21
3.78455591038667
31
0.000000000000000
  0
LINE
  5
F1086A
330
F1086B
100
AcDbEntity
8
Geo
100
AcDbLine
10
-28.7555941023417
20
3.78455591038667
30
0.000000000000000
11
-28.6555941023417
21
3.74043358673365
31
0.000000000000000
  0
LINE
  5
F1086C
330
F1086D
100
AcDbEntity
8
Geo
100
AcDbLine
10
-28.6555941023417
20
3.74043358673365
30
0.000000000000000
11
-28.5555941023417
21
3.69652049291500
31
0.000000000000000
  0
LINE
  5
F1086E
330
F1086F
100
AcDbEntity
8
Geo
100
AcDbLine
10
-28.5555941023417
20
3.69652049291500
30
0.000000000000000
11
-28.4555941023417
21
3.65281809269645
31
0.000000000000000
  0
LINE
  5
F10870
330
F10871
100
AcDbEntity
8
Geo
100
AcDbLine
10
-28.4555941023417
20
3.65281809269645
30
0.000000000000000
11
-28.3555941023417
21
3.60932784282063
31
0.000000000000000
  0
LINE
  5
F10872
330
F10873
100
AcDbEntity
8
Geo
100
AcDbLine
10
-28.3555941023417
20
3.60932784282063
30
0.000000000000000
11
-28.2555941023417
21
3.56605119295850
31
0.000000000000000
  0
LINE
  5
F10874
330
F10875
100
AcDbEntity
8
Geo
100
AcDbLine
10
-28.2555941023417
20
3.56605119295850
30
0.000000000000000
11
-28.1555941023417
21
3.52298958566106
31
0.000000000000000
  0
LINE
  5
F10876
330
F10877
100
AcDbEntity
8
Geo
100
AcDbLine
10
-28.1555941023417
20
3.52298958566106
30
0.000000000000000
11
-28.0555941023417
21
3.48014445631124
31
0.000000000000000
  0
LINE
  5
F10878
330
F10879
100
AcDbEntity
8
Geo
100
AcDbLine
10
-28.0555941023417
20
3.48014445631124
30
0.000000000000000
11
-27.9555941023417
21
3.43751723307602
31
0.000000000000000
  0
LINE
  5
F1087A
330
F1087B
100
AcDbEntity
8
Geo
100
AcDbLine
10
-27.9555941023417
20
3.43751723307602
30
0.000000000000000
11
-27.8555941023417
21
3.39510933685893
31
0.000000000000000
  0
LINE
  5
F1087C
330
F1087D
100
AcDbEntity
8
Geo
100
AcDbLine
10
-27.8555941023417
20
3.39510933685893
30
0.000000000000000
11
-27.7555941023417
21
3.35292218125256
31
0.000000000000000
  0
LINE
  5
F1087E
330
F1087F
100
AcDbEntity
8
Geo
100
AcDbLine
10
-27.7555941023417
20
3.35292218125256
30
0.000000000000000
11
-27.6555941023417
21
3.31095717249153
31
0.000000000000000
  0
LINE
  5
F10880
330
F10881
100
AcDbEntity
8
Geo
100
AcDbLine
10
-27.6555941023417
20
3.31095717249153
30
0.000000000000000
11
-27.5555941023417
21
3.26921570940559
31
0.000000000000000
  0
LINE
  5
F10882
330
F10883
100
AcDbEntity
8
Geo
100
AcDbLine
10
-27.5555941023417
20
3.26921570940559
30
0.000000000000000
11
-27.4555941023417
21
3.22769918337296
31
0.000000000000000
  0
LINE
  5
F10884
330
F10885
100
AcDbEntity
8
Geo
100
AcDbLine
10
-27.4555941023417
20
3.22769918337296
30
0.000000000000000
11
-27.3555941023417
21
3.18640897827401
31
0.000000000000000
  0
LINE
  5
F10886
330
F10887
100
AcDbEntity
8
Geo
100
AcDbLine
10
-27.3555941023417
20
3.18640897827401
30
0.000000000000000
11
-27.2555941023417
21
3.14534647044508
31
0.000000000000000
  0
LINE
  5
F10888
330
F10889
100
AcDbEntity
8
Geo
100
AcDbLine
10
-27.2555941023417
20
3.14534647044508
30
0.000000000000000
11
-27.1555941023417
21
3.10451302863264
31
0.000000000000000
  0
LINE
  5
F1088A
330
F1088B
100
AcDbEntity
8
Geo
100
AcDbLine
10
-27.1555941023417
20
3.10451302863264
30
0.000000000000000
11
-27.0555941023417
21
3.06391001394762
31
0.000000000000000
  0
LINE
  5
F1088C
330
F1088D
100
AcDbEntity
8
Geo
100
AcDbLine
10
-27.0555941023417
20
3.06391001394762
30
0.000000000000000
11
-26.9555941023417
21
3.02353877982010
31
0.000000000000000
  0
LINE
  5
F1088E
330
F1088F
100
AcDbEntity
8
Geo
100
AcDbLine
10
-26.9555941023417
20
3.02353877982010
30
0.000000000000000
11
-26.8555941023417
21
2.98340067195413
31
0.000000000000000
  0
LINE
  5
F10890
330
F10891
100
AcDbEntity
8
Geo
100
AcDbLine
10
-26.8555941023417
20
2.98340067195413
30
0.000000000000000
11
-26.7555941023417
21
2.94349702828293
31
0.000000000000000
  0
LINE
  5
F10892
330
F10893
100
AcDbEntity
8
Geo
100
AcDbLine
10
-26.7555941023417
20
2.94349702828293
30
0.000000000000000
11
-26.6555941023417
21
2.90382917892427
31
0.000000000000000
  0
LINE
  5
F10894
330
F10895
100
AcDbEntity
8
Geo
100
AcDbLine
10
-26.6555941023417
20
2.90382917892427
30
0.000000000000000
11
-26.5555941023417
21
2.86439844613610
31
0.000000000000000
  0
LINE
  5
F10896
330
F10897
100
AcDbEntity
8
Geo
100
AcDbLine
10
-26.5555941023417
20
2.86439844613610
30
0.000000000000000
11
-26.4555941023417
21
2.82520614427255
31
0.000000000000000
  0
LINE
  5
F10898
330
F10899
100
AcDbEntity
8
Geo
100
AcDbLine
10
-26.4555941023417
20
2.82520614427255
30
0.000000000000000
11
-26.3555941023417
21
2.78625357974005
31
0.000000000000000
  0
LINE
  5
F1089A
330
F1089B
100
AcDbEntity
8
Geo
100
AcDbLine
10
-26.3555941023417
20
2.78625357974005
30
0.000000000000000
11
-26.2555941023417
21
2.74754205095380
31
0.000000000000000
  0
LINE
  5
F1089C
330
F1089D
100
AcDbEntity
8
Geo
100
AcDbLine
10
-26.2555941023417
20
2.74754205095380
30
0.000000000000000
11
-26.1555941023417
21
2.70907284829451
31
0.000000000000000
  0
LINE
  5
F1089E
330
F1089F
100
AcDbEntity
8
Geo
100
AcDbLine
10
-26.1555941023417
20
2.70907284829451
30
0.000000000000000
11
-26.0555941023417
21
2.67084725406539
31
0.000000000000000
  0
LINE
  5
F108A0
330
F108A1
100
AcDbEntity
8
Geo
100
AcDbLine
10
-26.0555941023417
20
2.67084725406539
30
0.000000000000000
11
-25.9555941023417
21
2.63286654244935
31
0.000000000000000
  0
LINE
  5
F108A2
330
F108A3
100
AcDbEntity
8
Geo
100
AcDbLine
10
-25.9555941023417
20
2.63286654244935
30
0.000000000000000
11
-25.8555941023417
21
2.59513197946662
31
0.000000000000000
  0
LINE
  5
F108A4
330
F108A5
100
AcDbEntity
8
Geo
100
AcDbLine
10
-25.8555941023417
20
2.59513197946662
30
0.000000000000000
11
-25.7555941023417
21
2.55764482293245
31
0.000000000000000
  0
LINE
  5
F108A6
330
F108A7
100
AcDbEntity
8
Geo
100
AcDbLine
10
-25.7555941023417
20
2.55764482293245
30
0.000000000000000
11
-25.6555941023417
21
2.52040632241526
31
0.000000000000000
  0
LINE
  5
F108A8
330
F108A9
100
AcDbEntity
8
Geo
100
AcDbLine
10
-25.6555941023417
20
2.52040632241526
30
0.000000000000000
11
-25.5555941023417
21
2.48341771919496
31
0.000000000000000
  0
LINE
  5
F108AA
330
F108AB
100
AcDbEntity
8
Geo
100
AcDbLine
10
-25.5555941023417
20
2.48341771919496
30
0.000000000000000
11
-25.4555941023417
21
2.44668024622156
31
0.000000000000000
  0
LINE
  5
F108AC
330
F108AD
100
AcDbEntity
8
Geo
100
AcDbLine
10
-25.4555941023417
20
2.44668024622156
30
0.000000000000000
11
-25.3555941023417
21
2.41019512807409
31
0.000000000000000
  0
LINE
  5
F108AE
330
F108AF
100
AcDbEntity
8
Geo
100
AcDbLine
10
-25.3555941023417
20
2.41019512807409
30
0.000000000000000
11
-25.2555941023417
21
2.37396358091978
31
0.000000000000000
  0
LINE
  5
F108B0
330
F108B1
100
AcDbEntity
8
Geo
100
AcDbLine
10
-25.2555941023417
20
2.37396358091978
30
0.000000000000000
11
-25.1555941023417
21
2.33798681247352
31
0.000000000000000
  0
LINE
  5
F108B2
330
F108B3
100
AcDbEntity
8
Geo
100
AcDbLine
10
-25.1555941023417
20
2.33798681247352
30
0.000000000000000
11
-25.0555941023417
21
2.30226602195757
31
0.000000000000000
  0
LINE
  5
F108B4
330
F108B5
100
AcDbEntity
8
Geo
100
AcDbLine
10
-25.0555941023417
20
2.30226602195757
30
0.000000000000000
11
-24.9555941023417
21
2.26680240006167
31
0.000000000000000
  0
LINE
  5
F108B6
330
F108B7
100
AcDbEntity
8
Geo
100
AcDbLine
10
-24.9555941023417
20
2.26680240006167
30
0.000000000000000
11
-24.8555941023417
21
2.23159712890324
31
0.000000000000000
  0
LINE
  5
F108B8
330
F108B9
100
AcDbEntity
8
Geo
100
AcDbLine
10
-24.8555941023417
20
2.23159712890324
30
0.000000000000000
11
-24.7555941023417
21
2.19665138198808
31
0.000000000000000
  0
LINE
  5
F108BA
330
F108BB
100
AcDbEntity
8
Geo
100
AcDbLine
10
-24.7555941023417
20
2.19665138198808
30
0.000000000000000
11
-24.6555941023417
21
2.16196632417117
31
0.000000000000000
  0
LINE
  5
F108BC
330
F108BD
100
AcDbEntity
8
Geo
100
AcDbLine
10
-24.6555941023417
20
2.16196632417117
30
0.000000000000000
11
-24.5555941023417
21
2.12754311161789
31
0.000000000000000
  0
LINE
  5
F108BE
330
F108BF
100
AcDbEntity
8
Geo
100
AcDbLine
10
-24.5555941023417
20
2.12754311161789
30
0.000000000000000
11
-24.4555941023417
21
2.09338289176549
31
0.000000000000000
  0
LINE
  5
F108C0
330
F108C1
100
AcDbEntity
8
Geo
100
AcDbLine
10
-24.4555941023417
20
2.09338289176549
30
0.000000000000000
11
-24.3555941023417
21
2.05948680328479
31
0.000000000000000
  0
LINE
  5
F108C2
330
F108C3
100
AcDbEntity
8
Geo
100
AcDbLine
10
-24.3555941023417
20
2.05948680328479
30
0.000000000000000
11
-24.2555941023417
21
2.02585597604226
31
0.000000000000000
  0
LINE
  5
F108C4
330
F108C5
100
AcDbEntity
8
Geo
100
AcDbLine
10
-24.2555941023417
20
2.02585597604226
30
0.000000000000000
11
-24.1555941023417
21
1.99249153106238
31
0.000000000000000
  0
LINE
  5
F108C6
330
F108C7
100
AcDbEntity
8
Geo
100
AcDbLine
10
-24.1555941023417
20
1.99249153106238
30
0.000000000000000
11
-24.0555941023418
21
1.95939458049021
31
0.000000000000000
  0
LINE
  5
F108C8
330
F108C9
100
AcDbEntity
8
Geo
100
AcDbLine
10
-24.0555941023418
20
1.95939458049021
30
0.000000000000000
11
-23.9555941023417
21
1.92656622755437
31
0.000000000000000
  0
LINE
  5
F108CA
330
F108CB
100
AcDbEntity
8
Geo
100
AcDbLine
10
-23.9555941023417
20
1.92656622755437
30
0.000000000000000
11
-23.8555941023417
21
1.89400756653027
31
0.000000000000000
  0
LINE
  5
F108CC
330
F108CD
100
AcDbEntity
8
Geo
100
AcDbLine
10
-23.8555941023417
20
1.89400756653027
30
0.000000000000000
11
-23.7555941023417
21
1.86171968270358
31
0.000000000000000
  0
LINE
  5
F108CE
330
F108CF
100
AcDbEntity
8
Geo
100
AcDbLine
10
-23.7555941023417
20
1.86171968270358
30
0.000000000000000
11
-23.6555941023418
21
1.82970365233411
31
0.000000000000000
  0
LINE
  5
F108D0
330
F108D1
100
AcDbEntity
8
Geo
100
AcDbLine
10
-23.6555941023418
20
1.82970365233411
30
0.000000000000000
11
-23.5555941023418
21
1.79796054261991
31
0.000000000000000
  0
LINE
  5
F108D2
330
F108D3
100
AcDbEntity
8
Geo
100
AcDbLine
10
-23.5555941023418
20
1.79796054261991
30
0.000000000000000
11
-23.4555941023417
21
1.76649141166169
31
0.000000000000000
  0
LINE
  5
F108D4
330
F108D5
100
AcDbEntity
8
Geo
100
AcDbLine
10
-23.4555941023417
20
1.76649141166169
30
0.000000000000000
11
-23.3555941023418
21
1.73529730842757
31
0.000000000000000
  0
LINE
  5
F108D6
330
F108D7
100
AcDbEntity
8
Geo
100
AcDbLine
10
-23.3555941023418
20
1.73529730842757
30
0.000000000000000
11
-23.2555941023418
21
1.70437927271812
31
0.000000000000000
  0
LINE
  5
F108D8
330
F108D9
100
AcDbEntity
8
Geo
100
AcDbLine
10
-23.2555941023418
20
1.70437927271812
30
0.000000000000000
11
-23.1555941023418
21
1.67373833513164
31
0.000000000000000
  0
LINE
  5
F108DA
330
F108DB
100
AcDbEntity
8
Geo
100
AcDbLine
10
-23.1555941023418
20
1.67373833513164
30
0.000000000000000
11
-23.0555941023418
21
1.64337551702990
31
0.000000000000000
  0
LINE
  5
F108DC
330
F108DD
100
AcDbEntity
8
Geo
100
AcDbLine
10
-23.0555941023418
20
1.64337551702990
30
0.000000000000000
11
-22.9555941023418
21
1.61329183050401
31
0.000000000000000
  0
LINE
  5
F108DE
330
F108DF
100
AcDbEntity
8
Geo
100
AcDbLine
10
-22.9555941023418
20
1.61329183050401
30
0.000000000000000
11
-22.8555941023418
21
1.58348827834075
31
0.000000000000000
  0
LINE
  5
F108E0
330
F108E1
100
AcDbEntity
8
Geo
100
AcDbLine
10
-22.8555941023418
20
1.58348827834075
30
0.000000000000000
11
-22.7555941023418
21
1.55396585398909
31
0.000000000000000
  0
LINE
  5
F108E2
330
F108E3
100
AcDbEntity
8
Geo
100
AcDbLine
10
-22.7555941023418
20
1.55396585398909
30
0.000000000000000
11
-22.6555941023418
21
1.52472554152711
31
0.000000000000000
  0
LINE
  5
F108E4
330
F108E5
100
AcDbEntity
8
Geo
100
AcDbLine
10
-22.6555941023418
20
1.52472554152711
30
0.000000000000000
11
-22.5555941023418
21
1.49576831562919
31
0.000000000000000
  0
LINE
  5
F108E6
330
F108E7
100
AcDbEntity
8
Geo
100
AcDbLine
10
-22.5555941023418
20
1.49576831562919
30
0.000000000000000
11
-22.4555941023417
21
1.46709514153350
31
0.000000000000000
  0
LINE
  5
F108E8
330
F108E9
100
AcDbEntity
8
Geo
100
AcDbLine
10
-22.4555941023417
20
1.46709514153350
30
0.000000000000000
11
-22.3555941023417
21
1.43870697500987
31
0.000000000000000
  0
LINE
  5
F108EA
330
F108EB
100
AcDbEntity
8
Geo
100
AcDbLine
10
-22.3555941023417
20
1.43870697500987
30
0.000000000000000
11
-22.2555941023417
21
1.41060476232787
31
0.000000000000000
  0
LINE
  5
F108EC
330
F108ED
100
AcDbEntity
8
Geo
100
AcDbLine
10
-22.2555941023417
20
1.41060476232787
30
0.000000000000000
11
-22.1555941023417
21
1.38278944022534
31
0.000000000000000
  0
LINE
  5
F108EE
330
F108EF
100
AcDbEntity
8
Geo
100
AcDbLine
10
-22.1555941023417
20
1.38278944022534
30
0.000000000000000
11
-22.0555941023417
21
1.35526193587710
31
0.000000000000000
  0
LINE
  5
F108F0
330
F108F1
100
AcDbEntity
8
Geo
100
AcDbLine
10
-22.0555941023417
20
1.35526193587710
30
0.000000000000000
11
-21.9555941023417
21
1.32802316686408
31
0.000000000000000
  0
LINE
  5
F108F2
330
F108F3
100
AcDbEntity
8
Geo
100
AcDbLine
10
-21.9555941023417
20
1.32802316686408
30
0.000000000000000
11
-21.8555941023417
21
1.30107404114273
31
0.000000000000000
  0
LINE
  5
F108F4
330
F108F5
100
AcDbEntity
8
Geo
100
AcDbLine
10
-21.8555941023417
20
1.30107404114273
30
0.000000000000000
11
-21.7555941023417
21
1.27441545701473
31
0.000000000000000
  0
LINE
  5
F108F6
330
F108F7
100
AcDbEntity
8
Geo
100
AcDbLine
10
-21.7555941023417
20
1.27441545701473
30
0.000000000000000
11
-21.6555941023417
21
1.24804830309709
31
0.000000000000000
  0
LINE
  5
F108F8
330
F108F9
100
AcDbEntity
8
Geo
100
AcDbLine
10
-21.6555941023417
20
1.24804830309709
30
0.000000000000000
11
-21.5555941023417
21
1.22197345829250
31
0.000000000000000
  0
LINE
  5
F108FA
330
F108FB
100
AcDbEntity
8
Geo
100
AcDbLine
10
-21.5555941023417
20
1.22197345829250
30
0.000000000000000
11
-21.4555941023417
21
1.19619179176005
31
0.000000000000000
  0
LINE
  5
F108FC
330
F108FD
100
AcDbEntity
8
Geo
100
AcDbLine
10
-21.4555941023417
20
1.19619179176005
30
0.000000000000000
11
-21.3555941023417
21
1.17070416288623
31
0.000000000000000
  0
LINE
  5
F108FE
330
F108FF
100
AcDbEntity
8
Geo
100
AcDbLine
10
-21.3555941023417
20
1.17070416288623
30
0.000000000000000
11
-21.2555941023417
21
1.14551142125630
31
0.000000000000000
  0
LINE
  5
F10900
330
F10901
100
AcDbEntity
8
Geo
100
AcDbLine
10
-21.2555941023417
20
1.14551142125630
30
0.000000000000000
11
-21.1555941023417
21
1.12061440662599
31
0.000000000000000
  0
LINE
  5
F10902
330
F10903
100
AcDbEntity
8
Geo
100
AcDbLine
10
-21.1555941023417
20
1.12061440662599
30
0.000000000000000
11
-21.0555941023417
21
1.09601394889348
31
0.000000000000000
  0
LINE
  5
F10904
330
F10905
100
AcDbEntity
8
Geo
100
AcDbLine
10
-21.0555941023417
20
1.09601394889348
30
0.000000000000000
11
-20.9555941023417
21
1.07171086807175
31
0.000000000000000
  0
LINE
  5
F10906
330
F10907
100
AcDbEntity
8
Geo
100
AcDbLine
10
-20.9555941023417
20
1.07171086807175
30
0.000000000000000
11
-20.8555941023417
21
1.04770597426125
31
0.000000000000000
  0
LINE
  5
F10908
330
F10909
100
AcDbEntity
8
Geo
100
AcDbLine
10
-20.8555941023417
20
1.04770597426125
30
0.000000000000000
11
-20.7555941023417
21
1.02400006762287
31
0.000000000000000
  0
LINE
  5
F1090A
330
F1090B
100
AcDbEntity
8
Geo
100
AcDbLine
10
-20.7555941023417
20
1.02400006762287
30
0.000000000000000
11
-20.6555941023417
21
1.00059393835132
31
0.000000000000000
  0
LINE
  5
F1090C
330
F1090D
100
AcDbEntity
8
Geo
100
AcDbLine
10
-20.6555941023417
20
1.00059393835132
30
0.000000000000000
11
-20.5555941023417
21
0.977488366648732
31
0.000000000000000
  0
LINE
  5
F1090E
330
F1090F
100
AcDbEntity
8
Geo
100
AcDbLine
10
-20.5555941023417
20
0.977488366648732
30
0.000000000000000
11
-20.4555941023417
21
0.954684122698691
31
0.000000000000000
  0
LINE
  5
F10910
330
F10911
100
AcDbEntity
8
Geo
100
AcDbLine
10
-20.4555941023417
20
0.954684122698691
30
0.000000000000000
11
-20.3555941023417
21
0.932181966640552
31
0.000000000000000
  0
LINE
  5
F10912
330
F10913
100
AcDbEntity
8
Geo
100
AcDbLine
10
-20.3555941023417
20
0.932181966640552
30
0.000000000000000
11
-20.2555941023417
21
0.909982648544098
31
0.000000000000000
  0
LINE
  5
F10914
330
F10915
100
AcDbEntity
8
Geo
100
AcDbLine
10
-20.2555941023417
20
0.909982648544098
30
0.000000000000000
11
-20.1555941023417
21
0.888086908384548
31
0.000000000000000
  0
LINE
  5
F10916
330
F10917
100
AcDbEntity
8
Geo
100
AcDbLine
10
-20.1555941023417
20
0.888086908384548
30
0.000000000000000
11
-20.0555941023417
21
0.866495476017876
31
0.000000000000000
  0
LINE
  5
F10918
330
F10919
100
AcDbEntity
8
Geo
100
AcDbLine
10
-20.0555941023417
20
0.866495476017876
30
0.000000000000000
11
-19.9555941023417
21
0.845209071156491
31
0.000000000000000
  0
LINE
  5
F1091A
330
F1091B
100
AcDbEntity
8
Geo
100
AcDbLine
10
-19.9555941023417
20
0.845209071156491
30
0.000000000000000
11
-19.8555941023417
21
0.824228403345261
31
0.000000000000000
  0
LINE
  5
F1091C
330
F1091D
100
AcDbEntity
8
Geo
100
AcDbLine
10
-19.8555941023417
20
0.824228403345261
30
0.000000000000000
11
-19.7555941023417
21
0.803554171937828
31
0.000000000000000
  0
LINE
  5
F1091E
330
F1091F
100
AcDbEntity
8
Geo
100
AcDbLine
10
-19.7555941023417
20
0.803554171937828
30
0.000000000000000
11
-19.6555941023417
21
0.783187066073332
31
0.000000000000000
  0
LINE
  5
F10920
330
F10921
100
AcDbEntity
8
Geo
100
AcDbLine
10
-19.6555941023417
20
0.783187066073332
30
0.000000000000000
11
-19.5555941023417
21
0.763127764653408
31
0.000000000000000
  0
LINE
  5
F10922
330
F10923
100
AcDbEntity
8
Geo
100
AcDbLine
10
-19.5555941023417
20
0.763127764653408
30
0.000000000000000
11
-19.4555941023417
21
0.743376936319587
31
0.000000000000000
  0
LINE
  5
F10924
330
F10925
100
AcDbEntity
8
Geo
100
AcDbLine
10
-19.4555941023417
20
0.743376936319587
30
0.000000000000000
11
-19.3555941023417
21
0.723935239430981
31
0.000000000000000
  0
LINE
  5
F10926
330
F10927
100
AcDbEntity
8
Geo
100
AcDbLine
10
-19.3555941023417
20
0.723935239430981
30
0.000000000000000
11
-19.2555941023417
21
0.704803322042352
31
0.000000000000000
  0
LINE
  5
F10928
330
F10929
100
AcDbEntity
8
Geo
100
AcDbLine
10
-19.2555941023417
20
0.704803322042352
30
0.000000000000000
11
-19.1555941023417
21
0.685981821882512
31
0.000000000000000
  0
LINE
  5
F1092A
330
F1092B
100
AcDbEntity
8
Geo
100
AcDbLine
10
-19.1555941023417
20
0.685981821882512
30
0.000000000000000
11
-19.0555941023417
21
0.667471366333050
31
0.000000000000000
  0
LINE
  5
F1092C
330
F1092D
100
AcDbEntity
8
Geo
100
AcDbLine
10
-19.0555941023417
20
0.667471366333050
30
0.000000000000000
11
-18.9555941023417
21
0.649272572407439
31
0.000000000000000
  0
LINE
  5
F1092E
330
F1092F
100
AcDbEntity
8
Geo
100
AcDbLine
10
-37.4555941023417
20
5.03538511690699
30
0.000000000000000
11
-37.4555941023417
21
4.91440572490353
31
0.000000000000000
  0
LINE
  5
F10930
330
F10931
100
AcDbEntity
8
Geo
100
AcDbLine
10
-37.4555941023417
20
15.1202863826420
30
0.000000000000000
11
-37.4555941023417
21
14.9819968992018
31
0.000000000000000
  0
LINE
  5
F10932
330
F10933
100
AcDbEntity
8
Geo
100
AcDbLine
10
-37.4555941023417
20
14.9819968992018
30
0.000000000000000
11
-37.3555941023417
21
15.0855845990649
31
0.000000000000000
  0
LINE
  5
F10934
330
F10935
100
AcDbEntity
8
Geo
100
AcDbLine
10
-37.3555941023417
20
15.0855845990649
30
0.000000000000000
11
-37.2555941023417
21
15.1928465127386
31
0.000000000000000
  0
LINE
  5
F10936
330
F10937
100
AcDbEntity
8
Geo
100
AcDbLine
10
-37.2555941023417
20
15.1928465127386
30
0.000000000000000
11
-37.1555941023417
21
15.3006084422643
31
0.000000000000000
  0
LINE
  5
F10938
330
F10939
100
AcDbEntity
8
Geo
100
AcDbLine
10
-37.1555941023417
20
15.3006084422643
30
0.000000000000000
11
-37.0555941023417
21
15.4076730387362
31
0.000000000000000
  0
LINE
  5
F1093A
330
F1093B
100
AcDbEntity
8
Geo
100
AcDbLine
10
-37.0555941023417
20
15.4076730387362
30
0.000000000000000
11
-36.9555941023417
21
15.5136823473259
31
0.000000000000000
  0
LINE
  5
F1093C
330
F1093D
100
AcDbEntity
8
Geo
100
AcDbLine
10
-36.9555941023417
20
15.5136823473259
30
0.000000000000000
11
-36.8555941023417
21
15.6182705900645
31
0.000000000000000
  0
LINE
  5
F1093E
330
F1093F
100
AcDbEntity
8
Geo
100
AcDbLine
10
-36.8555941023417
20
15.6182705900645
30
0.000000000000000
11
-36.7555941023417
21
15.7214420876298
31
0.000000000000000
  0
LINE
  5
F10940
330
F10941
100
AcDbEntity
8
Geo
100
AcDbLine
10
-36.7555941023417
20
15.7214420876298
30
0.000000000000000
11
-36.6555941023417
21
15.8230050819397
31
0.000000000000000
  0
LINE
  5
F10942
330
F10943
100
AcDbEntity
8
Geo
100
AcDbLine
10
-36.6555941023417
20
15.8230050819397
30
0.000000000000000
11
-36.5555941023417
21
15.9229464400033
31
0.000000000000000
  0
LINE
  5
F10944
330
F10945
100
AcDbEntity
8
Geo
100
AcDbLine
10
-36.5555941023417
20
15.9229464400033
30
0.000000000000000
11
-36.4555941023417
21
16.0212541736246
31
0.000000000000000
  0
LINE
  5
F10946
330
F10947
100
AcDbEntity
8
Geo
100
AcDbLine
10
-36.4555941023417
20
16.0212541736246
30
0.000000000000000
11
-36.3555941023417
21
16.1179195700382
31
0.000000000000000
  0
LINE
  5
F10948
330
F10949
100
AcDbEntity
8
Geo
100
AcDbLine
10
-36.3555941023417
20
16.1179195700382
30
0.000000000000000
11
-36.2555941023417
21
16.2130345564476
31
0.000000000000000
  0
LINE
  5
F1094A
330
F1094B
100
AcDbEntity
8
Geo
100
AcDbLine
10
-36.2555941023417
20
16.2130345564476
30
0.000000000000000
11
-36.1555941023417
21
16.3066031443174
31
0.000000000000000
  0
LINE
  5
F1094C
330
F1094D
100
AcDbEntity
8
Geo
100
AcDbLine
10
-36.1555941023417
20
16.3066031443174
30
0.000000000000000
11
-36.0555941023417
21
16.3985612310526
31
0.000000000000000
  0
LINE
  5
F1094E
330
F1094F
100
AcDbEntity
8
Geo
100
AcDbLine
10
-36.0555941023417
20
16.3985612310526
30
0.000000000000000
11
-35.9555941023417
21
16.4889911016863
31
0.000000000000000
  0
LINE
  5
F10950
330
F10951
100
AcDbEntity
8
Geo
100
AcDbLine
10
-35.9555941023417
20
16.4889911016863
30
0.000000000000000
11
-35.8555941023417
21
16.5778507476912
31
0.000000000000000
  0
LINE
  5
F10952
330
F10953
100
AcDbEntity
8
Geo
100
AcDbLine
10
-35.8555941023417
20
16.5778507476912
30
0.000000000000000
11
-35.7555941023417
21
16.6639319692406
31
0.000000000000000
  0
LINE
  5
F10954
330
F10955
100
AcDbEntity
8
Geo
100
AcDbLine
10
-35.7555941023417
20
16.6639319692406
30
0.000000000000000
11
-35.6555941023417
21
16.7468741012844
31
0.000000000000000
  0
LINE
  5
F10956
330
F10957
100
AcDbEntity
8
Geo
100
AcDbLine
10
-35.6555941023417
20
16.7468741012844
30
0.000000000000000
11
-35.5555941023417
21
16.8267880712900
31
0.000000000000000
  0
LINE
  5
F10958
330
F10959
100
AcDbEntity
8
Geo
100
AcDbLine
10
-35.5555941023417
20
16.8267880712900
30
0.000000000000000
11
-35.4555941023417
21
16.9037758442200
31
0.000000000000000
  0
LINE
  5
F1095A
330
F1095B
100
AcDbEntity
8
Geo
100
AcDbLine
10
-35.4555941023417
20
16.9037758442200
30
0.000000000000000
11
-35.3555941023417
21
16.9779314016706
31
0.000000000000000
  0
LINE
  5
F1095C
330
F1095D
100
AcDbEntity
8
Geo
100
AcDbLine
10
-35.3555941023417
20
16.9779314016706
30
0.000000000000000
11
-35.2555941023417
21
17.0493415893340
31
0.000000000000000
  0
LINE
  5
F1095E
330
F1095F
100
AcDbEntity
8
Geo
100
AcDbLine
10
-35.2555941023417
20
17.0493415893340
30
0.000000000000000
11
-35.1555941023417
21
17.1180868537510
31
0.000000000000000
  0
LINE
  5
F10960
330
F10961
100
AcDbEntity
8
Geo
100
AcDbLine
10
-35.1555941023417
20
17.1180868537510
30
0.000000000000000
11
-35.0555941023417
21
17.1842418854924
31
0.000000000000000
  0
LINE
  5
F10962
330
F10963
100
AcDbEntity
8
Geo
100
AcDbLine
10
-35.0555941023417
20
17.1842418854924
30
0.000000000000000
11
-34.9555941023417
21
17.2478761828600
31
0.000000000000000
  0
LINE
  5
F10964
330
F10965
100
AcDbEntity
8
Geo
100
AcDbLine
10
-34.9555941023417
20
17.2478761828600
30
0.000000000000000
11
-34.8555941023417
21
17.3090545477629
31
0.000000000000000
  0
LINE
  5
F10966
330
F10967
100
AcDbEntity
8
Geo
100
AcDbLine
10
-34.8555941023417
20
17.3090545477629
30
0.000000000000000
11
-34.7555941023417
21
17.3678375234577
31
0.000000000000000
  0
LINE
  5
F10968
330
F10969
100
AcDbEntity
8
Geo
100
AcDbLine
10
-34.7555941023417
20
17.3678375234577
30
0.000000000000000
11
-34.6555941023417
21
17.4242817822492
31
0.000000000000000
  0
LINE
  5
F1096A
330
F1096B
100
AcDbEntity
8
Geo
100
AcDbLine
10
-34.6555941023417
20
17.4242817822492
30
0.000000000000000
11
-34.5555941023417
21
17.4784404699511
31
0.000000000000000
  0
LINE
  5
F1096C
330
F1096D
100
AcDbEntity
8
Geo
100
AcDbLine
10
-34.5555941023417
20
17.4784404699511
30
0.000000000000000
11
-34.4555941023417
21
17.5303635128405
31
0.000000000000000
  0
LINE
  5
F1096E
330
F1096F
100
AcDbEntity
8
Geo
100
AcDbLine
10
-34.4555941023417
20
17.5303635128405
30
0.000000000000000
11
-34.3555941023417
21
17.5800978919641
31
0.000000000000000
  0
LINE
  5
F10970
330
F10971
100
AcDbEntity
8
Geo
100
AcDbLine
10
-34.3555941023417
20
17.5800978919641
30
0.000000000000000
11
-34.2555941023417
21
17.6276878889285
31
0.000000000000000
  0
LINE
  5
F10972
330
F10973
100
AcDbEntity
8
Geo
100
AcDbLine
10
-34.2555941023417
20
17.6276878889285
30
0.000000000000000
11
-34.1555941023417
21
17.6731753067024
31
0.000000000000000
  0
LINE
  5
F10974
330
F10975
100
AcDbEntity
8
Geo
100
AcDbLine
10
-34.1555941023417
20
17.6731753067024
30
0.000000000000000
11
-34.0555941023417
21
17.7165996684559
31
0.000000000000000
  0
LINE
  5
F10976
330
F10977
100
AcDbEntity
8
Geo
100
AcDbLine
10
-34.0555941023417
20
17.7165996684559
30
0.000000000000000
11
-33.9555941023417
21
17.7579983970373
31
0.000000000000000
  0
LINE
  5
F10978
330
F10979
100
AcDbEntity
8
Geo
100
AcDbLine
10
-33.9555941023417
20
17.7579983970373
30
0.000000000000000
11
-33.8555941023417
21
17.7974069773336
31
0.000000000000000
  0
LINE
  5
F1097A
330
F1097B
100
AcDbEntity
8
Geo
100
AcDbLine
10
-33.8555941023417
20
17.7974069773336
30
0.000000000000000
11
-33.7555941023417
21
17.8348591034576
31
0.000000000000000
  0
LINE
  5
F1097C
330
F1097D
100
AcDbEntity
8
Geo
100
AcDbLine
10
-33.7555941023417
20
17.8348591034576
30
0.000000000000000
11
-33.6555941023417
21
17.8703868124513
31
0.000000000000000
  0
LINE
  5
F1097E
330
F1097F
100
AcDbEntity
8
Geo
100
AcDbLine
10
-33.6555941023417
20
17.8703868124513
30
0.000000000000000
11
-33.5555941023417
21
17.9040206059749
31
0.000000000000000
  0
LINE
  5
F10980
330
F10981
100
AcDbEntity
8
Geo
100
AcDbLine
10
-33.5555941023417
20
17.9040206059749
30
0.000000000000000
11
-33.4555941023417
21
17.9357895612689
31
0.000000000000000
  0
LINE
  5
F10982
330
F10983
100
AcDbEntity
8
Geo
100
AcDbLine
10
-33.4555941023417
20
17.9357895612689
30
0.000000000000000
11
-33.3555941023417
21
17.9657214325120
31
0.000000000000000
  0
LINE
  5
F10984
330
F10985
100
AcDbEntity
8
Geo
100
AcDbLine
10
-33.3555941023417
20
17.9657214325120
30
0.000000000000000
11
-33.2555941023417
21
17.9938427435658
31
0.000000000000000
  0
LINE
  5
F10986
330
F10987
100
AcDbEntity
8
Geo
100
AcDbLine
10
-33.2555941023417
20
17.9938427435658
30
0.000000000000000
11
-33.1555941023417
21
18.0201788729759
31
0.000000000000000
  0
LINE
  5
F10988
330
F10989
100
AcDbEntity
8
Geo
100
AcDbLine
10
-33.1555941023417
20
18.0201788729759
30
0.000000000000000
11
-33.0555941023417
21
18.0447541319979
31
0.000000000000000
  0
LINE
  5
F1098A
330
F1098B
100
AcDbEntity
8
Geo
100
AcDbLine
10
-33.0555941023417
20
18.0447541319979
30
0.000000000000000
11
-32.9555941023417
21
18.0675918363271
31
0.000000000000000
  0
LINE
  5
F1098C
330
F1098D
100
AcDbEntity
8
Geo
100
AcDbLine
10
-32.9555941023417
20
18.0675918363271
30
0.000000000000000
11
-32.8555941023417
21
18.0887143721375
31
0.000000000000000
  0
LINE
  5
F1098E
330
F1098F
100
AcDbEntity
8
Geo
100
AcDbLine
10
-32.8555941023417
20
18.0887143721375
30
0.000000000000000
11
-32.7555941023417
21
18.1081432569615
31
0.000000000000000
  0
LINE
  5
F10990
330
F10991
100
AcDbEntity
8
Geo
100
AcDbLine
10
-32.7555941023417
20
18.1081432569615
30
0.000000000000000
11
-32.6555941023417
21
18.1258991958907
31
0.000000000000000
  0
LINE
  5
F10992
330
F10993
100
AcDbEntity
8
Geo
100
AcDbLine
10
-32.6555941023417
20
18.1258991958907
30
0.000000000000000
11
-32.5555941023417
21
18.1420021335220
31
0.000000000000000
  0
LINE
  5
F10994
330
F10995
100
AcDbEntity
8
Geo
100
AcDbLine
10
-32.5555941023417
20
18.1420021335220
30
0.000000000000000
11
-32.4555941023417
21
18.1564713020282
31
0.000000000000000
  0
LINE
  5
F10996
330
F10997
100
AcDbEntity
8
Geo
100
AcDbLine
10
-32.4555941023417
20
18.1564713020282
30
0.000000000000000
11
-32.3555941023417
21
18.1693252656960
31
0.000000000000000
  0
LINE
  5
F10998
330
F10999
100
AcDbEntity
8
Geo
100
AcDbLine
10
-32.3555941023417
20
18.1693252656960
30
0.000000000000000
11
-32.2555941023417
21
18.1805819622348
31
0.000000000000000
  0
LINE
  5
F1099A
330
F1099B
100
AcDbEntity
8
Geo
100
AcDbLine
10
-32.2555941023417
20
18.1805819622348
30
0.000000000000000
11
-32.1555941023417
21
18.1902587411323
31
0.000000000000000
  0
LINE
  5
F1099C
330
F1099D
100
AcDbEntity
8
Geo
100
AcDbLine
10
-32.1555941023417
20
18.1902587411323
30
0.000000000000000
11
-32.0555941023417
21
18.1983723993036
31
0.000000000000000
  0
LINE
  5
F1099E
330
F1099F
100
AcDbEntity
8
Geo
100
AcDbLine
10
-32.0555941023417
20
18.1983723993036
30
0.000000000000000
11
-31.9555941023417
21
18.2049392142570
31
0.000000000000000
  0
LINE
  5
F109A0
330
F109A1
100
AcDbEntity
8
Geo
100
AcDbLine
10
-31.9555941023417
20
18.2049392142570
30
0.000000000000000
11
-31.8555941023417
21
18.2099749749768
31
0.000000000000000
  0
LINE
  5
F109A2
330
F109A3
100
AcDbEntity
8
Geo
100
AcDbLine
10
-31.8555941023417
20
18.2099749749768
30
0.000000000000000
11
-31.7555941023417
21
18.2134950107070
31
0.000000000000000
  0
LINE
  5
F109A4
330
F109A5
100
AcDbEntity
8
Geo
100
AcDbLine
10
-31.7555941023417
20
18.2134950107070
30
0.000000000000000
11
-31.6555941023417
21
18.2155142177986
31
0.000000000000000
  0
LINE
  5
F109A6
330
F109A7
100
AcDbEntity
8
Geo
100
AcDbLine
10
-31.6555941023417
20
18.2155142177986
30
0.000000000000000
11
-31.5555941023417
21
18.2160470847717
31
0.000000000000000
  0
LINE
  5
F109A8
330
F109A9
100
AcDbEntity
8
Geo
100
AcDbLine
10
-31.5555941023417
20
18.2160470847717
30
0.000000000000000
11
-31.4555941023417
21
18.2151077157273
31
0.000000000000000
  0
LINE
  5
F109AA
330
F109AB
100
AcDbEntity
8
Geo
100
AcDbLine
10
-31.4555941023417
20
18.2151077157273
30
0.000000000000000
11
-31.3555941023417
21
18.2127098522320
31
0.000000000000000
  0
LINE
  5
F109AC
330
F109AD
100
AcDbEntity
8
Geo
100
AcDbLine
10
-31.3555941023417
20
18.2127098522320
30
0.000000000000000
11
-31.2555941023417
21
18.2088668937892
31
0.000000000000000
  0
LINE
  5
F109AE
330
F109AF
100
AcDbEntity
8
Geo
100
AcDbLine
10
-31.2555941023417
20
18.2088668937892
30
0.000000000000000
11
-31.1555941023417
21
18.2035919169975
31
0.000000000000000
  0
LINE
  5
F109B0
330
F109B1
100
AcDbEntity
8
Geo
100
AcDbLine
10
-31.1555941023417
20
18.2035919169975
30
0.000000000000000
11
-31.0555941023417
21
18.1968976934909
31
0.000000000000000
  0
LINE
  5
F109B2
330
F109B3
100
AcDbEntity
8
Geo
100
AcDbLine
10
-31.0555941023417
20
18.1968976934909
30
0.000000000000000
11
-30.9555941023417
21
18.1887967067457
31
0.000000000000000
  0
LINE
  5
F109B4
330
F109B5
100
AcDbEntity
8
Geo
100
AcDbLine
10
-30.9555941023417
20
18.1887967067457
30
0.000000000000000
11
-30.8555941023417
21
18.1793011678320
31
0.000000000000000
  0
LINE
  5
F109B6
330
F109B7
100
AcDbEntity
8
Geo
100
AcDbLine
10
-30.8555941023417
20
18.1793011678320
30
0.000000000000000
11
-30.7555941023417
21
18.1684230301810
31
0.000000000000000
  0
LINE
  5
F109B8
330
F109B9
100
AcDbEntity
8
Geo
100
AcDbLine
10
-30.7555941023417
20
18.1684230301810
30
0.000000000000000
11
-30.6555941023417
21
18.1561740034336
31
0.000000000000000
  0
LINE
  5
F109BA
330
F109BB
100
AcDbEntity
8
Geo
100
AcDbLine
10
-30.6555941023417
20
18.1561740034336
30
0.000000000000000
11
-30.5555941023417
21
18.1425655664303
31
0.000000000000000
  0
LINE
  5
F109BC
330
F109BD
100
AcDbEntity
8
Geo
100
AcDbLine
10
-30.5555941023417
20
18.1425655664303
30
0.000000000000000
11
-30.4555941023417
21
18.1276089793965
31
0.000000000000000
  0
LINE
  5
F109BE
330
F109BF
100
AcDbEntity
8
Geo
100
AcDbLine
10
-30.4555941023417
20
18.1276089793965
30
0.000000000000000
11
-30.3555941023417
21
18.1113152953745
31
0.000000000000000
  0
LINE
  5
F109C0
330
F109C1
100
AcDbEntity
8
Geo
100
AcDbLine
10
-30.3555941023417
20
18.1113152953745
30
0.000000000000000
11
-30.2555941023417
21
18.0936953709468
31
0.000000000000000
  0
LINE
  5
F109C2
330
F109C3
100
AcDbEntity
8
Geo
100
AcDbLine
10
-30.2555941023417
20
18.0936953709468
30
0.000000000000000
11
-30.1555941023417
21
18.0747598762956
31
0.000000000000000
  0
LINE
  5
F109C4
330
F109C5
100
AcDbEntity
8
Geo
100
AcDbLine
10
-30.1555941023417
20
18.0747598762956
30
0.000000000000000
11
-30.0555941023417
21
18.0545193046339
31
0.000000000000000
  0
LINE
  5
F109C6
330
F109C7
100
AcDbEntity
8
Geo
100
AcDbLine
10
-30.0555941023417
20
18.0545193046339
30
0.000000000000000
11
-29.9555941023417
21
18.0329839810474
31
0.000000000000000
  0
LINE
  5
F109C8
330
F109C9
100
AcDbEntity
8
Geo
100
AcDbLine
10
-29.9555941023417
20
18.0329839810474
30
0.000000000000000
11
-29.8555941023417
21
18.0101640707773
31
0.000000000000000
  0
LINE
  5
F109CA
330
F109CB
100
AcDbEntity
8
Geo
100
AcDbLine
10
-29.8555941023417
20
18.0101640707773
30
0.000000000000000
11
-29.7555941023417
21
17.9860695869754
31
0.000000000000000
  0
LINE
  5
F109CC
330
F109CD
100
AcDbEntity
8
Geo
100
AcDbLine
10
-29.7555941023417
20
17.9860695869754
30
0.000000000000000
11
-29.6555941023417
21
17.9607103979587
31
0.000000000000000
  0
LINE
  5
F109CE
330
F109CF
100
AcDbEntity
8
Geo
100
AcDbLine
10
-29.6555941023417
20
17.9607103979587
30
0.000000000000000
11
-29.5555941023417
21
17.9340962339889
31
0.000000000000000
  0
LINE
  5
F109D0
330
F109D1
100
AcDbEntity
8
Geo
100
AcDbLine
10
-29.5555941023417
20
17.9340962339889
30
0.000000000000000
11
-29.4555941023417
21
17.9062366935992
31
0.000000000000000
  0
LINE
  5
F109D2
330
F109D3
100
AcDbEntity
8
Geo
100
AcDbLine
10
-29.4555941023417
20
17.9062366935992
30
0.000000000000000
11
-29.3555941023417
21
17.8771412494902
31
0.000000000000000
  0
LINE
  5
F109D4
330
F109D5
100
AcDbEntity
8
Geo
100
AcDbLine
10
-29.3555941023417
20
17.8771412494902
30
0.000000000000000
11
-29.2555941023417
21
17.8468192540144
31
0.000000000000000
  0
LINE
  5
F109D6
330
F109D7
100
AcDbEntity
8
Geo
100
AcDbLine
10
-29.2555941023417
20
17.8468192540144
30
0.000000000000000
11
-29.1555941023417
21
17.8152799442655
31
0.000000000000000
  0
LINE
  5
F109D8
330
F109D9
100
AcDbEntity
8
Geo
100
AcDbLine
10
-29.1555941023417
20
17.8152799442655
30
0.000000000000000
11
-29.0555941023417
21
17.7825324467894
31
0.000000000000000
  0
LINE
  5
F109DA
330
F109DB
100
AcDbEntity
8
Geo
100
AcDbLine
10
-29.0555941023417
20
17.7825324467894
30
0.000000000000000
11
-28.9555941023417
21
17.7485857819312
31
0.000000000000000
  0
LINE
  5
F109DC
330
F109DD
100
AcDbEntity
8
Geo
100
AcDbLine
10
-28.9555941023417
20
17.7485857819312
30
0.000000000000000
11
-28.8555941023417
21
17.7134488678301
31
0.000000000000000
  0
LINE
  5
F109DE
330
F109DF
100
AcDbEntity
8
Geo
100
AcDbLine
10
-28.8555941023417
20
17.7134488678301
30
0.000000000000000
11
-28.7555941023417
21
17.6775917074820
31
0.000000000000000
  0
LINE
  5
F109E0
330
F109E1
100
AcDbEntity
8
Geo
100
AcDbLine
10
-28.7555941023417
20
17.6775917074820
30
0.000000000000000
11
-28.6555941023417
21
17.6414792063214
31
0.000000000000000
  0
LINE
  5
F109E2
330
F109E3
100
AcDbEntity
8
Geo
100
AcDbLine
10
-28.6555941023417
20
17.6414792063214
30
0.000000000000000
11
-28.5555941023417
21
17.6051125680949
31
0.000000000000000
  0
LINE
  5
F109E4
330
F109E5
100
AcDbEntity
8
Geo
100
AcDbLine
10
-28.5555941023417
20
17.6051125680949
30
0.000000000000000
11
-28.4555941023417
21
17.5684930050206
31
0.000000000000000
  0
LINE
  5
F109E6
330
F109E7
100
AcDbEntity
8
Geo
100
AcDbLine
10
-28.4555941023417
20
17.5684930050206
30
0.000000000000000
11
-28.3555941023417
21
17.5316217377471
31
0.000000000000000
  0
LINE
  5
F109E8
330
F109E9
100
AcDbEntity
8
Geo
100
AcDbLine
10
-28.3555941023417
20
17.5316217377471
30
0.000000000000000
11
-28.2555941023417
21
17.4944999953132
31
0.000000000000000
  0
LINE
  5
F109EA
330
F109EB
100
AcDbEntity
8
Geo
100
AcDbLine
10
-28.2555941023417
20
17.4944999953132
30
0.000000000000000
11
-28.1555941023417
21
17.4571290151069
31
0.000000000000000
  0
LINE
  5
F109EC
330
F109ED
100
AcDbEntity
8
Geo
100
AcDbLine
10
-28.1555941023417
20
17.4571290151069
30
0.000000000000000
11
-28.0555941023417
21
17.4195100428241
31
0.000000000000000
  0
LINE
  5
F109EE
330
F109EF
100
AcDbEntity
8
Geo
100
AcDbLine
10
-28.0555941023417
20
17.4195100428241
30
0.000000000000000
11
-27.9555941023417
21
17.3816443324270
31
0.000000000000000
  0
LINE
  5
F109F0
330
F109F1
100
AcDbEntity
8
Geo
100
AcDbLine
10
-27.9555941023417
20
17.3816443324270
30
0.000000000000000
11
-27.8555941023417
21
17.3435331461026
31
0.000000000000000
  0
LINE
  5
F109F2
330
F109F3
100
AcDbEntity
8
Geo
100
AcDbLine
10
-27.8555941023417
20
17.3435331461026
30
0.000000000000000
11
-27.7555941023417
21
17.3051777542201
31
0.000000000000000
  0
LINE
  5
F109F4
330
F109F5
100
AcDbEntity
8
Geo
100
AcDbLine
10
-27.7555941023417
20
17.3051777542201
30
0.000000000000000
11
-27.6555941023417
21
17.2665794352890
31
0.000000000000000
  0
LINE
  5
F109F6
330
F109F7
100
AcDbEntity
8
Geo
100
AcDbLine
10
-27.6555941023417
20
17.2665794352890
30
0.000000000000000
11
-27.5555941023417
21
17.2277394759164
31
0.000000000000000
  0
LINE
  5
F109F8
330
F109F9
100
AcDbEntity
8
Geo
100
AcDbLine
10
-27.5555941023417
20
17.2277394759164
30
0.000000000000000
11
-27.4555941023417
21
17.1886591707641
31
0.000000000000000
  0
LINE
  5
F109FA
330
F109FB
100
AcDbEntity
8
Geo
100
AcDbLine
10
-27.4555941023417
20
17.1886591707641
30
0.000000000000000
11
-27.3555941023417
21
17.1493398225052
31
0.000000000000000
  0
LINE
  5
F109FC
330
F109FD
100
AcDbEntity
8
Geo
100
AcDbLine
10
-27.3555941023417
20
17.1493398225052
30
0.000000000000000
11
-27.2555941023417
21
17.1097827417810
31
0.000000000000000
  0
LINE
  5
F109FE
330
F109FF
100
AcDbEntity
8
Geo
100
AcDbLine
10
-27.2555941023417
20
17.1097827417810
30
0.000000000000000
11
-27.1555941023417
21
17.0699892471573
31
0.000000000000000
  0
LINE
  5
F10A00
330
F10A01
100
AcDbEntity
8
Geo
100
AcDbLine
10
-27.1555941023417
20
17.0699892471573
30
0.000000000000000
11
-27.0555941023417
21
17.0299606650802
31
0.000000000000000
  0
LINE
  5
F10A02
330
F10A03
100
AcDbEntity
8
Geo
100
AcDbLine
10
-27.0555941023417
20
17.0299606650802
30
0.000000000000000
11
-26.9555941023417
21
16.9896983298320
31
0.000000000000000
  0
LINE
  5
F10A04
330
F10A05
100
AcDbEntity
8
Geo
100
AcDbLine
10
-26.9555941023417
20
16.9896983298320
30
0.000000000000000
11
-26.8555941023417
21
16.9492035834869
31
0.000000000000000
  0
LINE
  5
F10A06
330
F10A07
100
AcDbEntity
8
Geo
100
AcDbLine
10
-26.8555941023417
20
16.9492035834869
30
0.000000000000000
11
-26.7555941023417
21
16.9084777758659
31
0.000000000000000
  0
LINE
  5
F10A08
330
F10A09
100
AcDbEntity
8
Geo
100
AcDbLine
10
-26.7555941023417
20
16.9084777758659
30
0.000000000000000
11
-26.6555941023417
21
16.8675222644923
31
0.000000000000000
  0
LINE
  5
F10A0A
330
F10A0B
100
AcDbEntity
8
Geo
100
AcDbLine
10
-26.6555941023417
20
16.8675222644923
30
0.000000000000000
11
-26.5555941023417
21
16.8263384145459
31
0.000000000000000
  0
LINE
  5
F10A0C
330
F10A0D
100
AcDbEntity
8
Geo
100
AcDbLine
10
-26.5555941023417
20
16.8263384145459
30
0.000000000000000
11
-26.4555941023417
21
16.7849275988179
31
0.000000000000000
  0
LINE
  5
F10A0E
330
F10A0F
100
AcDbEntity
8
Geo
100
AcDbLine
10
-26.4555941023417
20
16.7849275988179
30
0.000000000000000
11
-26.3555941023417
21
16.7432911976651
31
0.000000000000000
  0
LINE
  5
F10A10
330
F10A11
100
AcDbEntity
8
Geo
100
AcDbLine
10
-26.3555941023417
20
16.7432911976651
30
0.000000000000000
11
-26.2555941023417
21
16.7014305989636
31
0.000000000000000
  0
LINE
  5
F10A12
330
F10A13
100
AcDbEntity
8
Geo
100
AcDbLine
10
-26.2555941023417
20
16.7014305989636
30
0.000000000000000
11
-26.1555941023417
21
16.6593471980628
31
0.000000000000000
  0
LINE
  5
F10A14
330
F10A15
100
AcDbEntity
8
Geo
100
AcDbLine
10
-26.1555941023417
20
16.6593471980628
30
0.000000000000000
11
-26.0555941023417
21
16.6170423977389
31
0.000000000000000
  0
LINE
  5
F10A16
330
F10A17
100
AcDbEntity
8
Geo
100
AcDbLine
10
-26.0555941023417
20
16.6170423977389
30
0.000000000000000
11
-25.9555941023417
21
16.5745176081479
31
0.000000000000000
  0
LINE
  5
F10A18
330
F10A19
100
AcDbEntity
8
Geo
100
AcDbLine
10
-25.9555941023417
20
16.5745176081479
30
0.000000000000000
11
-25.8555941023417
21
16.5317742467789
31
0.000000000000000
  0
LINE
  5
F10A1A
330
F10A1B
100
AcDbEntity
8
Geo
100
AcDbLine
10
-25.8555941023417
20
16.5317742467789
30
0.000000000000000
11
-25.7555941023417
21
16.4888137384067
31
0.000000000000000
  0
LINE
  5
F10A1C
330
F10A1D
100
AcDbEntity
8
Geo
100
AcDbLine
10
-25.7555941023417
20
16.4888137384067
30
0.000000000000000
11
-25.6555941023417
21
16.4456375150442
31
0.000000000000000
  0
LINE
  5
F10A1E
330
F10A1F
100
AcDbEntity
8
Geo
100
AcDbLine
10
-25.6555941023417
20
16.4456375150442
30
0.000000000000000
11
-25.5555941023417
21
16.4022470158948
31
0.000000000000000
  0
LINE
  5
F10A20
330
F10A21
100
AcDbEntity
8
Geo
100
AcDbLine
10
-25.5555941023417
20
16.4022470158948
30
0.000000000000000
11
-25.4555941023417
21
16.3586436873046
31
0.000000000000000
  0
LINE
  5
F10A22
330
F10A23
100
AcDbEntity
8
Geo
100
AcDbLine
10
-25.4555941023417
20
16.3586436873046
30
0.000000000000000
11
-25.3555941023417
21
16.3148289827138
31
0.000000000000000
  0
LINE
  5
F10A24
330
F10A25
100
AcDbEntity
8
Geo
100
AcDbLine
10
-25.3555941023417
20
16.3148289827138
30
0.000000000000000
11
-25.2555941023417
21
16.2708043626084
31
0.000000000000000
  0
LINE
  5
F10A26
330
F10A27
100
AcDbEntity
8
Geo
100
AcDbLine
10
-25.2555941023417
20
16.2708043626084
30
0.000000000000000
11
-25.1555941023417
21
16.2265712944718
31
0.000000000000000
  0
LINE
  5
F10A28
330
F10A29
100
AcDbEntity
8
Geo
100
AcDbLine
10
-25.1555941023417
20
16.2265712944718
30
0.000000000000000
11
-25.0555941023417
21
16.1821312527354
31
0.000000000000000
  0
LINE
  5
F10A2A
330
F10A2B
100
AcDbEntity
8
Geo
100
AcDbLine
10
-25.0555941023417
20
16.1821312527354
30
0.000000000000000
11
-24.9555941023417
21
16.1374857187298
31
0.000000000000000
  0
LINE
  5
F10A2C
330
F10A2D
100
AcDbEntity
8
Geo
100
AcDbLine
10
-24.9555941023417
20
16.1374857187298
30
0.000000000000000
11
-24.8555941023417
21
16.0926361806354
31
0.000000000000000
  0
LINE
  5
F10A2E
330
F10A2F
100
AcDbEntity
8
Geo
100
AcDbLine
10
-24.8555941023417
20
16.0926361806354
30
0.000000000000000
11
-24.7555941023417
21
16.0475841334327
31
0.000000000000000
  0
LINE
  5
F10A30
330
F10A31
100
AcDbEntity
8
Geo
100
AcDbLine
10
-24.7555941023417
20
16.0475841334327
30
0.000000000000000
11
-24.6555941023417
21
16.0023310788523
31
0.000000000000000
  0
LINE
  5
F10A32
330
F10A33
100
AcDbEntity
8
Geo
100
AcDbLine
10
-24.6555941023417
20
16.0023310788523
30
0.000000000000000
11
-24.5555941023417
21
15.9568785253252
31
0.000000000000000
  0
LINE
  5
F10A34
330
F10A35
100
AcDbEntity
8
Geo
100
AcDbLine
10
-24.5555941023417
20
15.9568785253252
30
0.000000000000000
11
-24.4555941023417
21
15.9112279879324
31
0.000000000000000
  0
LINE
  5
F10A36
330
F10A37
100
AcDbEntity
8
Geo
100
AcDbLine
10
-24.4555941023417
20
15.9112279879324
30
0.000000000000000
11
-24.3555941023417
21
15.8653809883542
31
0.000000000000000
  0
LINE
  5
F10A38
330
F10A39
100
AcDbEntity
8
Geo
100
AcDbLine
10
-24.3555941023417
20
15.8653809883542
30
0.000000000000000
11
-24.2555941023417
21
15.8193390548196
31
0.000000000000000
  0
LINE
  5
F10A3A
330
F10A3B
100
AcDbEntity
8
Geo
100
AcDbLine
10
-24.2555941023417
20
15.8193390548196
30
0.000000000000000
11
-24.1555941023417
21
15.7731037220556
31
0.000000000000000
  0
LINE
  5
F10A3C
330
F10A3D
100
AcDbEntity
8
Geo
100
AcDbLine
10
-24.1555941023417
20
15.7731037220556
30
0.000000000000000
11
-24.0555941023418
21
15.7266765312355
31
0.000000000000000
  0
LINE
  5
F10A3E
330
F10A3F
100
AcDbEntity
8
Geo
100
AcDbLine
10
-24.0555941023418
20
15.7266765312355
30
0.000000000000000
11
-23.9555941023417
21
15.6800590299282
31
0.000000000000000
  0
LINE
  5
F10A40
330
F10A41
100
AcDbEntity
8
Geo
100
AcDbLine
10
-23.9555941023417
20
15.6800590299282
30
0.000000000000000
11
-23.8555941023417
21
15.6332527720460
31
0.000000000000000
  0
LINE
  5
F10A42
330
F10A43
100
AcDbEntity
8
Geo
100
AcDbLine
10
-23.8555941023417
20
15.6332527720460
30
0.000000000000000
11
-23.7555941023417
21
15.5862593177932
31
0.000000000000000
  0
LINE
  5
F10A44
330
F10A45
100
AcDbEntity
8
Geo
100
AcDbLine
10
-23.7555941023417
20
15.5862593177932
30
0.000000000000000
11
-23.6555941023418
21
15.5390802336139
31
0.000000000000000
  0
LINE
  5
F10A46
330
F10A47
100
AcDbEntity
8
Geo
100
AcDbLine
10
-23.6555941023418
20
15.5390802336139
30
0.000000000000000
11
-23.5555941023418
21
15.4917170921398
31
0.000000000000000
  0
LINE
  5
F10A48
330
F10A49
100
AcDbEntity
8
Geo
100
AcDbLine
10
-23.5555941023418
20
15.4917170921398
30
0.000000000000000
11
-23.4555941023417
21
15.4441714721381
31
0.000000000000000
  0
LINE
  5
F10A4A
330
F10A4B
100
AcDbEntity
8
Geo
100
AcDbLine
10
-23.4555941023417
20
15.4441714721381
30
0.000000000000000
11
-23.3555941023418
21
15.3964449584582
31
0.000000000000000
  0
LINE
  5
F10A4C
330
F10A4D
100
AcDbEntity
8
Geo
100
AcDbLine
10
-23.3555941023418
20
15.3964449584582
30
0.000000000000000
11
-23.2555941023418
21
15.3485391419795
31
0.000000000000000
  0
LINE
  5
F10A4E
330
F10A4F
100
AcDbEntity
8
Geo
100
AcDbLine
10
-23.2555941023418
20
15.3485391419795
30
0.000000000000000
11
-23.1555941023418
21
15.3004556195582
31
0.000000000000000
  0
LINE
  5
F10A50
330
F10A51
100
AcDbEntity
8
Geo
100
AcDbLine
10
-23.1555941023418
20
15.3004556195582
30
0.000000000000000
11
-23.0555941023418
21
15.2521959939739
31
0.000000000000000
  0
LINE
  5
F10A52
330
F10A53
100
AcDbEntity
8
Geo
100
AcDbLine
10
-23.0555941023418
20
15.2521959939739
30
0.000000000000000
11
-22.9555941023418
21
15.2037618738763
31
0.000000000000000
  0
LINE
  5
F10A54
330
F10A55
100
AcDbEntity
8
Geo
100
AcDbLine
10
-22.9555941023418
20
15.2037618738763
30
0.000000000000000
11
-22.8555941023418
21
15.1551548737316
31
0.000000000000000
  0
LINE
  5
F10A56
330
F10A57
100
AcDbEntity
8
Geo
100
AcDbLine
10
-22.8555941023418
20
15.1551548737316
30
0.000000000000000
11
-22.7555941023418
21
15.1063766137686
31
0.000000000000000
  0
LINE
  5
F10A58
330
F10A59
100
AcDbEntity
8
Geo
100
AcDbLine
10
-22.7555941023418
20
15.1063766137686
30
0.000000000000000
11
-22.6555941023418
21
15.0574287199248
31
0.000000000000000
  0
LINE
  5
F10A5A
330
F10A5B
100
AcDbEntity
8
Geo
100
AcDbLine
10
-22.6555941023418
20
15.0574287199248
30
0.000000000000000
11
-22.5555941023418
21
15.0083128237921
31
0.000000000000000
  0
LINE
  5
F10A5C
330
F10A5D
100
AcDbEntity
8
Geo
100
AcDbLine
10
-22.5555941023418
20
15.0083128237921
30
0.000000000000000
11
-22.4555941023417
21
14.9590305625626
31
0.000000000000000
  0
LINE
  5
F10A5E
330
F10A5F
100
AcDbEntity
8
Geo
100
AcDbLine
10
-22.4555941023417
20
14.9590305625626
30
0.000000000000000
11
-22.3555941023417
21
14.9095835789737
31
0.000000000000000
  0
LINE
  5
F10A60
330
F10A61
100
AcDbEntity
8
Geo
100
AcDbLine
10
-22.3555941023417
20
14.9095835789737
30
0.000000000000000
11
-22.2555941023417
21
14.8599735212535
31
0.000000000000000
  0
LINE
  5
F10A62
330
F10A63
100
AcDbEntity
8
Geo
100
AcDbLine
10
-22.2555941023417
20
14.8599735212535
30
0.000000000000000
11
-22.1555941023417
21
14.8102020430662
31
0.000000000000000
  0
LINE
  5
F10A64
330
F10A65
100
AcDbEntity
8
Geo
100
AcDbLine
10
-22.1555941023417
20
14.8102020430662
30
0.000000000000000
11
-22.0555941023417
21
14.7602708034564
31
0.000000000000000
  0
LINE
  5
F10A66
330
F10A67
100
AcDbEntity
8
Geo
100
AcDbLine
10
-22.0555941023417
20
14.7602708034564
30
0.000000000000000
11
-21.9555941023417
21
14.7101814667941
31
0.000000000000000
  0
LINE
  5
F10A68
330
F10A69
100
AcDbEntity
8
Geo
100
AcDbLine
10
-21.9555941023417
20
14.7101814667941
30
0.000000000000000
11
-21.8555941023417
21
14.6599357027191
31
0.000000000000000
  0
LINE
  5
F10A6A
330
F10A6B
100
AcDbEntity
8
Geo
100
AcDbLine
10
-21.8555941023417
20
14.6599357027191
30
0.000000000000000
11
-21.7555941023417
21
14.6095351860858
31
0.000000000000000
  0
LINE
  5
F10A6C
330
F10A6D
100
AcDbEntity
8
Geo
100
AcDbLine
10
-21.7555941023417
20
14.6095351860858
30
0.000000000000000
11
-21.6555941023417
21
14.5589815969066
31
0.000000000000000
  0
LINE
  5
F10A6E
330
F10A6F
100
AcDbEntity
8
Geo
100
AcDbLine
10
-21.6555941023417
20
14.5589815969066
30
0.000000000000000
11
-21.5555941023417
21
14.5082766202964
31
0.000000000000000
  0
LINE
  5
F10A70
330
F10A71
100
AcDbEntity
8
Geo
100
AcDbLine
10
-21.5555941023417
20
14.5082766202964
30
0.000000000000000
11
-21.4555941023417
21
14.4574219464166
31
0.000000000000000
  0
LINE
  5
F10A72
330
F10A73
100
AcDbEntity
8
Geo
100
AcDbLine
10
-21.4555941023417
20
14.4574219464166
30
0.000000000000000
11
-21.3555941023417
21
14.4064192704181
31
0.000000000000000
  0
LINE
  5
F10A74
330
F10A75
100
AcDbEntity
8
Geo
100
AcDbLine
10
-21.3555941023417
20
14.4064192704181
30
0.000000000000000
11
-21.2555941023417
21
14.3552702923854
31
0.000000000000000
  0
LINE
  5
F10A76
330
F10A77
100
AcDbEntity
8
Geo
100
AcDbLine
10
-21.2555941023417
20
14.3552702923854
30
0.000000000000000
11
-21.1555941023417
21
14.3039767172798
31
0.000000000000000
  0
LINE
  5
F10A78
330
F10A79
100
AcDbEntity
8
Geo
100
AcDbLine
10
-21.1555941023417
20
14.3039767172798
30
0.000000000000000
11
-21.0555941023417
21
14.2525402548823
31
0.000000000000000
  0
LINE
  5
F10A7A
330
F10A7B
100
AcDbEntity
8
Geo
100
AcDbLine
10
-21.0555941023417
20
14.2525402548823
30
0.000000000000000
11
-20.9555941023417
21
14.2009626197369
31
0.000000000000000
  0
LINE
  5
F10A7C
330
F10A7D
100
AcDbEntity
8
Geo
100
AcDbLine
10
-20.9555941023417
20
14.2009626197369
30
0.000000000000000
11
-20.8555941023417
21
14.1492455310934
31
0.000000000000000
  0
LINE
  5
F10A7E
330
F10A7F
100
AcDbEntity
8
Geo
100
AcDbLine
10
-20.8555941023417
20
14.1492455310934
30
0.000000000000000
11
-20.7555941023417
21
14.0973907128498
31
0.000000000000000
  0
LINE
  5
F10A80
330
F10A81
100
AcDbEntity
8
Geo
100
AcDbLine
10
-20.7555941023417
20
14.0973907128498
30
0.000000000000000
11
-20.6555941023417
21
14.0453998934954
31
0.000000000000000
  0
LINE
  5
F10A82
330
F10A83
100
AcDbEntity
8
Geo
100
AcDbLine
10
-20.6555941023417
20
14.0453998934954
30
0.000000000000000
11
-20.5555941023417
21
13.9932748060527
31
0.000000000000000
  0
LINE
  5
F10A84
330
F10A85
100
AcDbEntity
8
Geo
100
AcDbLine
10
-20.5555941023417
20
13.9932748060527
30
0.000000000000000
11
-20.4555941023417
21
13.9410171880197
31
0.000000000000000
  0
LINE
  5
F10A86
330
F10A87
100
AcDbEntity
8
Geo
100
AcDbLine
10
-20.4555941023417
20
13.9410171880197
30
0.000000000000000
11
-20.3555941023417
21
13.8886287813122
31
0.000000000000000
  0
LINE
  5
F10A88
330
F10A89
100
AcDbEntity
8
Geo
100
AcDbLine
10
-20.3555941023417
20
13.8886287813122
30
0.000000000000000
11
-20.2555941023417
21
13.8361113322055
31
0.000000000000000
  0
LINE
  5
F10A8A
330
F10A8B
100
AcDbEntity
8
Geo
100
AcDbLine
10
-20.2555941023417
20
13.8361113322055
30
0.000000000000000
11
-20.1555941023417
21
13.7834665912765
31
0.000000000000000
  0
LINE
  5
F10A8C
330
F10A8D
100
AcDbEntity
8
Geo
100
AcDbLine
10
-20.1555941023417
20
13.7834665912765
30
0.000000000000000
11
-20.0555941023417
21
13.7306963133449
31
0.000000000000000
  0
LINE
  5
F10A8E
330
F10A8F
100
AcDbEntity
8
Geo
100
AcDbLine
10
-20.0555941023417
20
13.7306963133449
30
0.000000000000000
11
-19.9555941023417
21
13.6778022574152
31
0.000000000000000
  0
LINE
  5
F10A90
330
F10A91
100
AcDbEntity
8
Geo
100
AcDbLine
10
-19.9555941023417
20
13.6778022574152
30
0.000000000000000
11
-19.8555941023417
21
13.6247861866177
31
0.000000000000000
  0
LINE
  5
F10A92
330
F10A93
100
AcDbEntity
8
Geo
100
AcDbLine
10
-19.8555941023417
20
13.6247861866177
30
0.000000000000000
11
-19.7555941023417
21
13.5716498681497
31
0.000000000000000
  0
LINE
  5
F10A94
330
F10A95
100
AcDbEntity
8
Geo
100
AcDbLine
10
-19.7555941023417
20
13.5716498681497
30
0.000000000000000
11
-19.6555941023417
21
13.5183950732170
31
0.000000000000000
  0
LINE
  5
F10A96
330
F10A97
100
AcDbEntity
8
Geo
100
AcDbLine
10
-19.6555941023417
20
13.5183950732170
30
0.000000000000000
11
-19.5555941023417
21
13.4650235769745
31
0.000000000000000
  0
LINE
  5
F10A98
330
F10A99
100
AcDbEntity
8
Geo
100
AcDbLine
10
-19.5555941023417
20
13.4650235769745
30
0.000000000000000
11
-19.4555941023417
21
13.4115371584671
31
0.000000000000000
  0
LINE
  5
F10A9A
330
F10A9B
100
AcDbEntity
8
Geo
100
AcDbLine
10
-19.4555941023417
20
13.4115371584671
30
0.000000000000000
11
-19.3555941023417
21
13.3579376005706
31
0.000000000000000
  0
LINE
  5
F10A9C
330
F10A9D
100
AcDbEntity
8
Geo
100
AcDbLine
10
-19.3555941023417
20
13.3579376005706
30
0.000000000000000
11
-19.2555941023417
21
13.3042266899317
31
0.000000000000000
  0
LINE
  5
F10A9E
330
F10A9F
100
AcDbEntity
8
Geo
100
AcDbLine
10
-19.2555941023417
20
13.3042266899317
30
0.000000000000000
11
-19.1555941023417
21
13.2504062169094
31
0.000000000000000
  0
LINE
  5
F10AA0
330
F10AA1
100
AcDbEntity
8
Geo
100
AcDbLine
10
-19.1555941023417
20
13.2504062169094
30
0.000000000000000
11
-19.0555941023417
21
13.1964779755143
31
0.000000000000000
  0
LINE
  5
F10AA2
330
F10AA3
100
AcDbEntity
8
Geo
100
AcDbLine
10
-19.0555941023417
20
13.1964779755143
30
0.000000000000000
11
-18.9555941023417
21
13.1424437633495
31
0.000000000000000
  0
LINE
  5
F10AA4
330
F10AA5
100
AcDbEntity
8
Geo
100
AcDbLine
10
54.1444058976583
20
19.5173460537728
30
0.000000000000000
11
54.1444058976583
21
10.0173460537728
31
0.000000000000000
  0
ARC
  5
F10AA6
330
F10AA7
100
AcDbEntity
8
Geo
100
AcDbCircle
10
-28.8555941023417
20
10.0173460537728
30
0.000000000000000
 40
10.0000000000000
100
AcDbArc
 50
180.000000000000
 51
270.000000000000
  0
LINE
  5
F10AA8
330
F10AA9
100
AcDbEntity
8
Geo
100
AcDbLine
10
-28.8555941023417
20
0.0173460537727550
30
0.000000000000000
11
-13.8555941023417
21
0.0173460537727550
31
0.000000000000000
  0
LINE
  5
F10AAA
330
F10AAB
100
AcDbEntity
8
Geo
100
AcDbLine
10
-13.8555941023417
20
0.0173460537727550
30
0.000000000000000
11
53.6444058976583
21
0.0173460537727550
31
0.000000000000000
  0
LINE
  5
F10AAC
330
F10AAD
100
AcDbEntity
8
Geo
100
AcDbLine
10
53.6444058976583
20
0.0173460537727550
30
0.000000000000000
11
54.1444058976583
21
0.517346053772755
31
0.000000000000000
  0
LINE
  5
F10AAE
330
F10AAF
100
AcDbEntity
8
Geo
100
AcDbLine
10
-28.8555941023417
20
20.0173460537728
30
0.000000000000000
11
-28.8555941023417
21
0.0173460537727550
31
0.000000000000000
  0
LINE
  5
F10AB0
330
F10AB1
100
AcDbEntity
8
Geo
100
AcDbLine
10
-13.8555941023417
20
20.0173460537728
30
0.000000000000000
11
-13.8555941023417
21
0.0173460537727550
31
0.000000000000000
  0
LINE
  5
F10AB2
330
F10AB3
100
AcDbEntity
8
Geo
100
AcDbLine
10
-13.8555941023417
20
20.0173460537728
30
0.000000000000000
11
-13.8555941023417
21
0.0173460537727550
31
0.000000000000000
  0
LINE
  5
F10AB4
330
F10AB5
100
AcDbEntity
8
Geo
100
AcDbLine
10
53.6444058976583
20
20.0173460537728
30
0.000000000000000
11
53.6444058976583
21
0.0173460537727550
31
0.000000000000000
  0
LINE
  5
F10AB6
330
F10AB7
100
AcDbEntity
8
Geo
100
AcDbLine
10
54.1444058976583
20
19.5173460537728
30
0.000000000000000
11
54.1444058976583
21
0.517346053772755
31
0.000000000000000
  0
LINE
  5
F10AB8
330
F10AB9
100
AcDbEntity
8
Geo
 6
Dashdot
100
AcDbLine
10
-38.8555941023417
20
10.0173460537728
30
0.000000000000000
11
54.1444058976583
21
10.0173460537728
31
0.000000000000000
  0
LWPOLYLINE
  5
F10ABA
330
F10ABB
100
AcDbEntity
8
Rahmen
100
AcDbPolyline
90
   4
70
   1
43
   0.0
 10
-134.596704249783
 20
99.9002601908066
 10
143.339115351258
 20
99.9002601908066
 10
143.339115351258
 20
-100.082393755421
 10
-134.596704249783
 20
-100.082393755421
  0
TEXT
  5
F10ABC
330
F10ABD
 100
AcDbEntity
8
Text
100
AcDbText
10
-133.503902862099
20
-99.5823937554206
30
0.000000000000000
40
1.00000000000000
1
ISBESketcher - ©ISBE GmbH      lizensiert für: Schmid Werkzeuge
100
AcDbText
  0
LWPOLYLINE
  5
F10ABE
330
F10ABF
100
AcDbEntity
8
Rahmen
100
AcDbPolyline
90
   4
70
   1
43
   0.0
 10
103.451864700781
 20
-97.1682567215958
 10
143.339115351258
 20
-97.1682567215958
 10
143.339115351258
 20
-100.082393755421
 10
103.451864700781
 20
-100.082393755421
  0
TEXT
  5
F10AC0
330
F10AC1
 100
AcDbEntity
8
Text
100
AcDbText
10
104.500000000000
20
-99.4570685169124
30
0.000000000000000
40
1.50000000000000
1
Ers. durch:
100
AcDbText
  0
TEXT
  5
F10AC2
330
F10AC3
 100
AcDbEntity
8
Text
100
AcDbText
10
0.000000000000000
20
0.500000000000000
30
0.000000000000000
40
1.50000000000000
1

100
AcDbText
  0
LWPOLYLINE
  5
F10AC4
330
F10AC5
100
AcDbEntity
8
Rahmen
100
AcDbPolyline
90
   4
70
   1
43
   0.0
 10
63.3824804856895
 20
-97.1682567215958
 10
103.451864700781
 20
-97.1682567215958
 10
103.451864700781
 20
-100.082393755421
 10
63.3824804856895
 20
-100.082393755421
  0
TEXT
  5
F10AC6
330
F10AC7
 100
AcDbEntity
8
Text
100
AcDbText
10
64.5000000000000
20
-99.4570685169124
30
0.000000000000000
40
1.50000000000000
1
Ers. für:
100
AcDbText
  0
TEXT
  5
F10AC8
330
F10AC9
 100
AcDbEntity
8
Text
100
AcDbText
10
0.000000000000000
20
0.500000000000000
30
0.000000000000000
40
1.50000000000000
1

100
AcDbText
  0
LWPOLYLINE
  5
F10ACA
330
F10ACB
100
AcDbEntity
8
Rahmen
100
AcDbPolyline
90
   4
70
   1
43
   0.0
 10
130.043365134432
 20
-94.0719861231570
 10
143.339115351258
 20
-94.0719861231570
 10
143.339115351258
 20
-97.1682567215958
 10
130.043365134432
 20
-97.1682567215958
  0
TEXT
  5
F10ACC
330
F10ACD
 100
AcDbEntity
8
Text
100
AcDbText
10
131.166666666667
20
-96.4570685169124
30
0.000000000000000
40
1.50000000000000
1
Blätter
100
AcDbText
  0
TEXT
  5
F10ACE
330
F10ACF
 100
AcDbEntity
8
Text
100
AcDbText
10
0.000000000000000
20
0.500000000000000
30
0.000000000000000
40
1.50000000000000
1

100
AcDbText
  0
LWPOLYLINE
  5
F10AD0
330
F10AD1
100
AcDbEntity
8
Rahmen
100
AcDbPolyline
90
   4
70
   1
43
   0.0
 10
130.043365134432
 20
-91.1578490893322
 10
143.339115351258
 20
-91.1578490893322
 10
143.339115351258
 20
-94.0719861231570
 10
130.043365134432
 20
-94.0719861231570
  0
TEXT
  5
F10AD2
330
F10AD3
 100
AcDbEntity
8
Text
100
AcDbText
10
131.166666666667
20
-93.4570685169124
30
0.000000000000000
40
1.50000000000000
1
Blatt
100
AcDbText
  0
TEXT
  5
F10AD4
330
F10AD5
 100
AcDbEntity
8
Text
100
AcDbText
10
0.000000000000000
20
0.500000000000000
30
0.000000000000000
40
1.50000000000000
1

100
AcDbText
  0
LWPOLYLINE
  5
F10AD6
330
F10AD7
100
AcDbEntity
8
Rahmen
100
AcDbPolyline
90
   4
70
   1
43
   0.0
 10
63.3824804856895
 20
-91.1578490893322
 10
130.043365134432
 20
-91.1578490893322
 10
130.043365134432
 20
-97.1682567215958
 10
63.3824804856895
 20
-97.1682567215958
  0
TEXT
  5
F10AD8
330
F10AD9
 100
AcDbEntity
8
Text
100
AcDbText
10
64.5000000000000
20
-93.4570685169124
30
0.000000000000000
40
1.50000000000000
1
Datum:
100
AcDbText
  0
TEXT
  5
F10ADA
330
F10ADB
 100
AcDbEntity
8
Text
100
AcDbText
10
90.9139924833767
20
-96.4570685169124
30
0.000000000000000
40
1.50000000000000
1
30.09.2021
100
AcDbText
  0
LWPOLYLINE
  5
F10ADC
330
F10ADD
100
AcDbEntity
8
Rahmen
100
AcDbPolyline
90
   4
70
   1
43
   0.0
 10
63.3824804856895
 20
-85.1474414570685
 10
143.339115351258
 20
-85.1474414570685
 10
143.339115351258
 20
-91.1578490893322
 10
63.3824804856895
 20
-91.1578490893322
  0
TEXT
  5
F10ADE
330
F10ADF
 100
AcDbEntity
8
Text
100
AcDbText
10
0.000000000000000
20
0.500000000000000
30
0.000000000000000
40
1.50000000000000
1

100
AcDbText
  0
TEXT
  5
F10AE0
330
F10AE1
 100
AcDbEntity
8
Text
100
AcDbText
10
73.6300954032958
20
-89.6254697889564
30
0.000000000000000
40
2.50000000000000
1
VHM-Radiusfräser R0140-20-b
100
AcDbText
  0
LWPOLYLINE
  5
F10AE2
330
F10AE3
100
AcDbEntity
8
Rahmen
100
AcDbPolyline
90
   4
70
   1
43
   0.0
 10
103.451864700781
 20
-79.1370338248049
 10
143.339115351258
 20
-79.1370338248049
 10
143.339115351258
 20
-85.1474414570685
 10
103.451864700781
 20
-85.1474414570685
  0
TEXT
  5
F10AE4
330
F10AE5
 100
AcDbEntity
8
Text
100
AcDbText
10
104.500000000000
20
-81.4570685169124
30
0.000000000000000
40
1.50000000000000
1
Zu bearb. Material:
100
AcDbText
  0
TEXT
  5
F10AE6
330
F10AE7
 100
AcDbEntity
8
Text
100
AcDbText
10
0.000000000000000
20
0.500000000000000
30
0.000000000000000
40
1.50000000000000
1

100
AcDbText
  0
LWPOLYLINE
  5
F10AE8
330
F10AE9
100
AcDbEntity
8
Rahmen
100
AcDbPolyline
90
   4
70
   1
43
   0.0
 10
63.3824804856895
 20
-79.1370338248049
 10
103.451864700781
 20
-79.1370338248049
 10
103.451864700781
 20
-85.1474414570685
 10
63.3824804856895
 20
-85.1474414570685
  0
TEXT
  5
F10AEA
330
F10AEB
 100
AcDbEntity
8
Text
100
AcDbText
10
64.5000000000000
20
-81.4570685169124
30
0.000000000000000
40
1.50000000000000
1
Werkstoff:
100
AcDbText
  0
TEXT
  5
F10AEC
330
F10AED
 100
AcDbEntity
8
Text
100
AcDbText
10
80.7679965307892
20
-84.4570685169124
30
0.000000000000000
40
1.50000000000000
1
VHM
100
AcDbText
  0
LWPOLYLINE
  5
F10AEE
330
F10AEF
100
AcDbEntity
8
Rahmen
100
AcDbPolyline
90
   4
70
   1
43
   0.0
 10
103.451864700781
 20
-76.0407632263660
 10
143.339115351258
 20
-76.0407632263660
 10
143.339115351258
 20
-79.1370338248049
 10
103.451864700781
 20
-79.1370338248049
  0
TEXT
  5
F10AF0
330
F10AF1
 100
AcDbEntity
8
Text
100
AcDbText
10
0.000000000000000
20
0.500000000000000
30
0.000000000000000
40
1.50000000000000
1

100
AcDbText
  0
TEXT
  5
F10AF2
330
F10AF3
 100
AcDbEntity
8
Text
100
AcDbText
10
0.000000000000000
20
0.500000000000000
30
0.000000000000000
40
1.50000000000000
1

100
AcDbText
  0
LWPOLYLINE
  5
F10AF4
330
F10AF5
100
AcDbEntity
8
Rahmen
100
AcDbPolyline
90
   4
70
   1
43
   0.0
 10
63.3824804856895
 20
-76.0407632263660
 10
103.451864700781
 20
-76.0407632263660
 10
103.451864700781
 20
-79.1370338248049
 10
63.3824804856895
 20
-79.1370338248049
  0
TEXT
  5
F10AF6
330
F10AF7
 100
AcDbEntity
8
Text
100
AcDbText
10
64.5000000000000
20
-78.4570685169124
30
0.000000000000000
40
1.50000000000000
1
Maßstab:
100
AcDbText
  0
TEXT
  5
F10AF8
330
F10AF9
 100
AcDbEntity
8
Text
100
AcDbText
10
89.0411968777103
20
-78.4570685169124
30
0.000000000000000
40
1.50000000000000
1
1 : 1
100
AcDbText
0
VIEWPORT
5
294
102
{ACAD_XDICTIONARY
360
58A
102
}
330
25D
100
AcDbEntity
67
1
8
0
60
1
100
AcDbViewport
10
0.0
20
0.0
30
0.0
40
10.0
41
10.0
68
-1
69
1
12
0.0
22
0.0
13
0.0
23
0.0
14
1.0
24
1.0
15
0.0
25
0.0
16
0.0
26
0.0
36
1.0
17
0.0
27
0.0
37
0.0
42
0.0
43
0.0
44
0.0
45
10.0
50
0.0
51
0.0000000000007958
72
100
90
32800
1

281
0
71
0
74
0
110
0.0
120
0.0
130
0.0
111
1.0
121
0.0
131
0.0
112
0.0
122
1.0
132
0.0
79
0
146
0.0
1001
VD_INVISIBLE_NOT_FOR_READ
1000
VD_INVISIBLE_NOT_FOR_READ
0
VIEWPORT
5
295
102
{ACAD_XDICTIONARY
360
58C
102
}
330
25D
100
AcDbEntity
67
1
8
0
60
1
100
AcDbViewport
10
0.0
20
0.0
30
0.0
40
10.0
41
10.0
68
0
69
2
12
0.0
22
0.0
13
0.0
23
0.0
14
1.0
24
1.0
15
0.0
25
0.0
16
0.0
26
0.0
36
1.0
17
0.0
27
0.0
37
0.0
42
0.0
43
0.0
44
0.0
45
10.0
50
0.0
51
0.0000000000007958
72
100
90
163872
1

281
0
71
0
74
0
110
0.0
120
0.0
130
0.0
111
1.0
121
0.0
131
0.0
112
0.0
122
1.0
132
0.0
79
0
146
0.0
1001
VD_INVISIBLE_NOT_FOR_READ
1000
VD_INVISIBLE_NOT_FOR_READ
0
ENDSEC
0
SECTION
2
OBJECTS
0
DICTIONARY
5
13
330
0
100
AcDbDictionary
281
1
3
ACAD_COLOR
350
FA7
3
ACAD_GROUP
350
14
3
ACAD_LAYOUT
350
FCF
3
ACAD_MATERIAL
350
F7A
3
ACAD_MLEADERSTYLE
350
FCD
3
ACAD_MLINESTYLE
350
16
3
ACAD_PLOTSETTINGS
350
17
3
ACAD_PLOTSTYLENAME
350
18
3
ACAD_SCALELIST
350
FAB
3
ACAD_TABLESTYLE
350
FA8
3
ACAD_VISUALSTYLE
350
F93
3
ACDB_RECOMPOSE_DATA
350
107E
3
AcDbVariableDictionary
350
FF0
3
DWGPROPS
350
107F
0
DICTIONARY
5
F10014
330
F10013
100
AcDbDictionary
280
1
281
1
3
ACAD_MTEXT_2008_RT
360
F10015
0
DICTIONARY
5
F10019
330
F10018
100
AcDbDictionary
280
1
281
1
3
ACAD_MTEXT_2008_RT
360
F1001A
0
DICTIONARY
5
F1000A
330
F10009
100
AcDbDictionary
280
1
281
1
3
ACAD_MTEXT_2008_RT
360
F1000B
0
DICTIONARY
5
F10005
330
F10004
100
AcDbDictionary
280
1
281
1
3
ACAD_MTEXT_2008_RT
360
F10006
0
DICTIONARY
5
F1000F
330
F1000E
100
AcDbDictionary
280
1
281
1
3
ACAD_MTEXT_2008_RT
360
F10010
0
DICTIONARY
5
FA7
102
{ACAD_REACTORS
330
13
102
}
330
13
100
AcDbDictionary
281
1
0
DICTIONARY
5
14
330
13
100
AcDbDictionary
281
1
0
DICTIONARY
5
FCF
102
{ACAD_REACTORS
330
13
102
}
330
13
100
AcDbDictionary
281
1
3
Layout1
350
FD1
3
Model
350
FD0
0
DICTIONARY
5
F7A
102
{ACAD_REACTORS
330
13
102
}
330
13
100
AcDbDictionary
281
1
3
ByBlock
350
F83
3
ByLayer
350
F7B
3
Global
350
F8B
0
DICTIONARY
5
FCD
102
{ACAD_REACTORS
330
13
102
}
330
13
100
AcDbDictionary
281
1
3
Standard
350
FCE
0
DICTIONARY
5
16
330
13
100
AcDbDictionary
281
1
3
Standard
350
FAA
0
DICTIONARY
5
17
102
{ACAD_REACTORS
330
13
102
}
330
13
100
AcDbDictionary
281
1
0
ACDBDICTIONARYWDFLT
5
18
102
{ACAD_REACTORS
330
13
102
}
330
13
100
AcDbDictionary
281
1
3
Normal
350
19
100
AcDbDictionaryWithDefault
340
19
0
DICTIONARY
5
FAB
102
{ACAD_REACTORS
330
13
102
}
330
13
100
AcDbDictionary
281
1
3
A0
350
FAC
3
A1
350
FAD
3
A2
350
FAE
3
A3
350
FAF
3
A4
350
FB0
3
A5
350
FB1
3
A6
350
FB2
3
A7
350
FB3
3
A8
350
FB4
3
A9
350
FB5
3
B0
350
FB6
3
B1
350
FB7
3
B2
350
FB8
3
B3
350
FB9
3
B4
350
FBA
3
B5
350
FBB
3
B6
350
FBC
3
B7
350
FBD
3
B8
350
FBE
3
B9
350
FBF
3
C0
350
FC0
3
C1
350
FC1
3
C2
350
FC2
3
C3
350
FC3
3
C4
350
FC4
3
C5
350
FC5
3
C6
350
FC6
3
C7
350
FC7
3
C8
350
FC8
3
C9
350
FC9
3
D0
350
FCA
3
D1
350
FCB
3
D2
350
FCC
0
DICTIONARY
5
FA8
102
{ACAD_REACTORS
330
13
102
}
330
13
100
AcDbDictionary
281
1
3
Standard
350
FA9
0
DICTIONARY
5
F93
102
{ACAD_REACTORS
330
13
102
}
330
13
100
AcDbDictionary
281
1
3
2dWireframe
350
F99
3
3D Hidden
350
F9B
3
3dWireframe
350
F9A
3
Basic
350
F98
3
Brighten
350
F9F
3
ColorChange
350
FA3
3
Conceptual
350
F9C
3
Dim
350
F9E
3
EdgeColorOff
350
FA6
3
Facepattern
350
FA2
3
Flat
350
F94
3
FlatWithEdges
350
F95
3
Gouraud
350
F96
3
GouraudWithEdges
350
F97
3
JitterOff
350
FA4
3
Linepattern
350
FA1
3
OverhangOff
350
FA5
3
Realistic
350
F9D
3
Thicken
350
FA0
0
XRECORD
5
107E
102
{ACAD_REACTORS
330
13
102
}
330
13
100
AcDbXrecord
280
1
90
1
330
FA9
330
F10013
330
F10018
330
F10009
330
F10004
330
F1000E
0
DICTIONARY
5
FF0
102
{ACAD_REACTORS
330
13
102
}
330
13
100
AcDbDictionary
281
1
3
CANNOSCALE
350
FF3
3
CMLEADERSTYLE
350
FF2
3
CTABLESTYLE
350
FF1
3
DIMASSOC
350
FF6
3
INDEXCTL
350
FF5
3
SORTENTS
350
FF4
3
XCLIPFRAME
350
1078
0
XRECORD
5
107F
102
{ACAD_REACTORS
330
13
102
}
330
13
100
AcDbXrecord
280
1
1
DWGPROPS COOKIE
2

3

4

6

7

8

9

300
=
301
=
302
=
303
=
304
=
305
=
306
=
307
=
308
=
309
=
40
0.0
41
0.0
42
0.0
1

90
0
0
XRECORD
5
F10015
102
{ACAD_REACTORS
330
F10014
102
}
330
F10014
100
AcDbXrecord
280
1
40
48458.0
1
25
0
XRECORD
5
F1001A
102
{ACAD_REACTORS
330
F10019
102
}
330
F10019
100
AcDbXrecord
280
1
40
48458.0
1
93
0
XRECORD
5
F1000B
102
{ACAD_REACTORS
330
F1000A
102
}
330
F1000A
100
AcDbXrecord
280
1
40
48458.0
1
R10
0
XRECORD
5
F10006
102
{ACAD_REACTORS
330
F10005
102
}
330
F10005
100
AcDbXrecord
280
1
40
48458.0
1
Ø20
0
LAYOUT
5
FD1
102
{ACAD_XDICTIONARY
360
10A9
102
}
102
{ACAD_REACTORS
330
FCF
102
}
330
FCF
100
AcDbPlotSettings
1

2
Microsoft XPS Document Writer
4

6

40
0.0
41
0.0
42
0.0
43
0.0
44
0.0
45
0.0
46
0.0
47
0.0
48
0.0
49
0.0
140
0.0
141
0.0
142
1.0
143
1.0
70
688
72
0
73
0
74
5
7

75
16
147
1.0
148
0.0
149
0.0
100
AcDbLayout
1
Layout1
70
1
71
1
10
0.0
20
0.0
11
12.0
21
9.0
12
0.0
22
0.0
32
0.0
14
1.000000000000000E+20
24
1.000000000000000E+20
34
1.000000000000000E+20
15
-1.000000000000000E+20
25
-1.000000000000000E+20
35
-1.000000000000000E+20
146
0.0
13
0.0
23
0.0
33
0.0
16
1.0
26
0.0
36
0.0
17
0.0
27
1.0
37
0.0
76
0
330
25D
0
LAYOUT
5
FD0
102
{ACAD_XDICTIONARY
360
10A7
102
}
102
{ACAD_REACTORS
330
FCF
102
}
330
FCF
100
AcDbPlotSettings
1

2
Microsoft XPS Document Writer
4

6

40
0.0
41
0.0
42
0.0
43
0.0
44
0.0
45
0.0
46
0.0
47
0.0
48
0.0
49
0.0
140
0.0
141
0.0
142
1.0
143
1.0
70
1712
72
0
73
0
74
0
7

75
0
147
1.0
148
0.0
149
0.0
100
AcDbLayout
1
Model
70
1
71
0
10
0.0
20
0.0
11
12.0
21
9.0
12
0.0
22
0.0
32
0.0
14
0.0
24
0.0
34
0.0
15
0.0
25
0.0
35
0.0
146
0.0
13
0.0
23
0.0
33
0.0
16
1.0
26
0.0
36
0.0
17
0.0
27
1.0
37
0.0
76
0
330
261
331
26B
0
MATERIAL
5
F83
102
{ACAD_XDICTIONARY
360
F84
102
}
102
{ACAD_REACTORS
330
F7A
102
}
330
F7A
100
AcDbMaterial
1
ByBlock
72
0
43
0.0208333333333333
43
0.0
43
0.0
43
0.0
43
0.0
43
0.0208333333333333
43
0.0
43
0.0
43
0.0
43
0.0
43
1.0
43
0.0
43
0.0
43
0.0
43
0.0
43
1.0
77
0
47
0.0208333333333333
47
0.0
47
0.0
47
0.0
47
0.0
47
0.0208333333333333
47
0.0
47
0.0
47
0.0
47
0.0
47
1.0
47
0.0
47
0.0
47
0.0
47
0.0
47
1.0
171
0
49
0.0208333333333333
49
0.0
49
0.0
49
0.0
49
0.0
49
0.0208333333333333
49
0.0
49
0.0
49
0.0
49
0.0
49
1.0
49
0.0
49
0.0
49
0.0
49
0.0
49
1.0
175
0
142
0.0208333333333333
142
0.0
142
0.0
142
0.0
142
0.0
142
0.0208333333333333
142
0.0
142
0.0
142
0.0
142
0.0
142
1.0
142
0.0
142
0.0
142
0.0
142
0.0
142
1.0
179
0
144
0.0208333333333333
144
0.0
144
0.0
144
0.0
144
0.0
144
0.0208333333333333
144
0.0
144
0.0
144
0.0
144
0.0
144
1.0
144
0.0
144
0.0
144
0.0
144
0.0
144
1.0
147
0.0208333333333333
147
0.0
147
0.0
147
0.0
147
0.0
147
0.0208333333333333
147
0.0
147
0.0
147
0.0
147
0.0
147
1.0
147
0.0
147
0.0
147
0.0
147
0.0
147
1.0
0
MATERIAL
5
F7B
102
{ACAD_XDICTIONARY
360
F7C
102
}
102
{ACAD_REACTORS
330
F7A
102
}
330
F7A
100
AcDbMaterial
1
ByLayer
72
0
43
0.0208333333333333
43
0.0
43
0.0
43
0.0
43
0.0
43
0.0208333333333333
43
0.0
43
0.0
43
0.0
43
0.0
43
1.0
43
0.0
43
0.0
43
0.0
43
0.0
43
1.0
77
0
47
0.0208333333333333
47
0.0
47
0.0
47
0.0
47
0.0
47
0.0208333333333333
47
0.0
47
0.0
47
0.0
47
0.0
47
1.0
47
0.0
47
0.0
47
0.0
47
0.0
47
1.0
171
0
49
0.0208333333333333
49
0.0
49
0.0
49
0.0
49
0.0
49
0.0208333333333333
49
0.0
49
0.0
49
0.0
49
0.0
49
1.0
49
0.0
49
0.0
49
0.0
49
0.0
49
1.0
175
0
142
0.0208333333333333
142
0.0
142
0.0
142
0.0
142
0.0
142
0.0208333333333333
142
0.0
142
0.0
142
0.0
142
0.0
142
1.0
142
0.0
142
0.0
142
0.0
142
0.0
142
1.0
179
0
144
0.0208333333333333
144
0.0
144
0.0
144
0.0
144
0.0
144
0.0208333333333333
144
0.0
144
0.0
144
0.0
144
0.0
144
1.0
144
0.0
144
0.0
144
0.0
144
0.0
144
1.0
147
0.0208333333333333
147
0.0
147
0.0
147
0.0
147
0.0
147
0.0208333333333333
147
0.0
147
0.0
147
0.0
147
0.0
147
1.0
147
0.0
147
0.0
147
0.0
147
0.0
147
1.0
0
MATERIAL
5
F8B
102
{ACAD_XDICTIONARY
360
F8C
102
}
102
{ACAD_REACTORS
330
F7A
102
}
330
F7A
100
AcDbMaterial
1
Global
72
0
43
0.0208333333333333
43
0.0
43
0.0
43
0.0
43
0.0
43
0.0208333333333333
43
0.0
43
0.0
43
0.0
43
0.0
43
1.0
43
0.0
43
0.0
43
0.0
43
0.0
43
1.0
77
0
47
0.0208333333333333
47
0.0
47
0.0
47
0.0
47
0.0
47
0.0208333333333333
47
0.0
47
0.0
47
0.0
47
0.0
47
1.0
47
0.0
47
0.0
47
0.0
47
0.0
47
1.0
171
0
49
0.0208333333333333
49
0.0
49
0.0
49
0.0
49
0.0
49
0.0208333333333333
49
0.0
49
0.0
49
0.0
49
0.0
49
1.0
49
0.0
49
0.0
49
0.0
49
0.0
49
1.0
175
0
142
0.0208333333333333
142
0.0
142
0.0
142
0.0
142
0.0
142
0.0208333333333333
142
0.0
142
0.0
142
0.0
142
0.0
142
1.0
142
0.0
142
0.0
142
0.0
142
0.0
142
1.0
179
0
144
0.0208333333333333
144
0.0
144
0.0
144
0.0
144
0.0
144
0.0208333333333333
144
0.0
144
0.0
144
0.0
144
0.0
144
1.0
144
0.0
144
0.0
144
0.0
144
0.0
144
1.0
147
0.0208333333333333
147
0.0
147
0.0
147
0.0
147
0.0
147
0.0208333333333333
147
0.0
147
0.0
147
0.0
147
0.0
147
1.0
147
0.0
147
0.0
147
0.0
147
0.0
147
1.0
0
MLEADERSTYLE
5
FCE
102
{ACAD_REACTORS
330
FCD
102
}
330
FCD
100
AcDbMLeaderStyle
170
2
171
1
172
0
90
2
40
0.0
41
0.0
173
1
91
-1056964608
340
256
92
-2
290
1
42
0.09
291
1
43
0.36
3
Standard
44
0.18
300

342
253
174
1
178
6
175
1
176
0
93
-1056964608
45
0.18
292
0
297
0
46
0.18
94
-1056964608
47
1.0
49
1.0
140
1.0
293
1
141
0.0
294
1
177
0
142
1.0
295
0
296
0
143
0.125
1001
ACAD_MLEADERVER
1070
2
0
MLINESTYLE
5
FAA
102
{ACAD_REACTORS
330
16
102
}
330
16
100
AcDbMlineStyle
2
STANDARD
70
0
3

62
256
51
90.0
52
90.0
71
2
49
0.5
62
256
6
BYLAYER
49
-0.5
62
256
6
BYLAYER
0
ACDBPLACEHOLDER
5
19
102
{ACAD_REACTORS
330
18
102
}
330
18
0
SCALE
5
FAC
102
{ACAD_REACTORS
330
FAB
102
}
330
FAB
100
AcDbScale
70
0
300
1:1
140
1.0
141
1.0
290
1
0
SCALE
5
FAD
102
{ACAD_REACTORS
330
FAB
102
}
330
FAB
100
AcDbScale
70
0
300
1:2
140
1.0
141
2.0
290
0
0
SCALE
5
FAE
102
{ACAD_REACTORS
330
FAB
102
}
330
FAB
100
AcDbScale
70
0
300
1:4
140
1.0
141
4.0
290
0
0
SCALE
5
FAF
102
{ACAD_REACTORS
330
FAB
102
}
330
FAB
100
AcDbScale
70
0
300
1:5
140
1.0
141
5.0
290
0
0
SCALE
5
FB0
102
{ACAD_REACTORS
330
FAB
102
}
330
FAB
100
AcDbScale
70
0
300
1:8
140
1.0
141
8.0
290
0
0
SCALE
5
FB1
102
{ACAD_REACTORS
330
FAB
102
}
330
FAB
100
AcDbScale
70
0
300
1:10
140
1.0
141
10.0
290
0
0
SCALE
5
FB2
102
{ACAD_REACTORS
330
FAB
102
}
330
FAB
100
AcDbScale
70
0
300
1:16
140
1.0
141
16.0
290
0
0
SCALE
5
FB3
102
{ACAD_REACTORS
330
FAB
102
}
330
FAB
100
AcDbScale
70
0
300
1:20
140
1.0
141
20.0
290
0
0
SCALE
5
FB4
102
{ACAD_REACTORS
330
FAB
102
}
330
FAB
100
AcDbScale
70
0
300
1:30
140
1.0
141
30.0
290
0
0
SCALE
5
FB5
102
{ACAD_REACTORS
330
FAB
102
}
330
FAB
100
AcDbScale
70
0
300
1:40
140
1.0
141
40.0
290
0
0
SCALE
5
FB6
102
{ACAD_REACTORS
330
FAB
102
}
330
FAB
100
AcDbScale
70
0
300
1:50
140
1.0
141
50.0
290
0
0
SCALE
5
FB7
102
{ACAD_REACTORS
330
FAB
102
}
330
FAB
100
AcDbScale
70
0
300
1:100
140
1.0
141
100.0
290
0
0
SCALE
5
FB8
102
{ACAD_REACTORS
330
FAB
102
}
330
FAB
100
AcDbScale
70
0
300
2:1
140
2.0
141
1.0
290
0
0
SCALE
5
FB9
102
{ACAD_REACTORS
330
FAB
102
}
330
FAB
100
AcDbScale
70
0
300
4:1
140
4.0
141
1.0
290
0
0
SCALE
5
FBA
102
{ACAD_REACTORS
330
FAB
102
}
330
FAB
100
AcDbScale
70
0
300
8:1
140
8.0
141
1.0
290
0
0
SCALE
5
FBB
102
{ACAD_REACTORS
330
FAB
102
}
330
FAB
100
AcDbScale
70
0
300
10:1
140
10.0
141
1.0
290
0
0
SCALE
5
FBC
102
{ACAD_REACTORS
330
FAB
102
}
330
FAB
100
AcDbScale
70
0
300
100:1
140
100.0
141
1.0
290
0
0
SCALE
5
FBD
102
{ACAD_REACTORS
330
FAB
102
}
330
FAB
100
AcDbScale
70
0
300
1/128" = 1'-0"
140
0.0078125
141
12.0
290
0
0
SCALE
5
FBE
102
{ACAD_REACTORS
330
FAB
102
}
330
FAB
100
AcDbScale
70
0
300
1/64" = 1'-0"
140
0.015625
141
12.0
290
0
0
SCALE
5
FBF
102
{ACAD_REACTORS
330
FAB
102
}
330
FAB
100
AcDbScale
70
0
300
1/32" = 1'-0"
140
0.03125
141
12.0
290
0
0
SCALE
5
FC0
102
{ACAD_REACTORS
330
FAB
102
}
330
FAB
100
AcDbScale
70
0
300
1/16" = 1'-0"
140
0.0625
141
12.0
290
0
0
SCALE
5
FC1
102
{ACAD_REACTORS
330
FAB
102
}
330
FAB
100
AcDbScale
70
0
300
3/32" = 1'-0"
140
0.09375
141
12.0
290
0
0
SCALE
5
FC2
102
{ACAD_REACTORS
330
FAB
102
}
330
FAB
100
AcDbScale
70
0
300
1/8" = 1'-0"
140
0.125
141
12.0
290
0
0
SCALE
5
FC3
102
{ACAD_REACTORS
330
FAB
102
}
330
FAB
100
AcDbScale
70
0
300
3/16" = 1'-0"
140
0.1875
141
12.0
290
0
0
SCALE
5
FC4
102
{ACAD_REACTORS
330
FAB
102
}
330
FAB
100
AcDbScale
70
0
300
1/4" = 1'-0"
140
0.25
141
12.0
290
0
0
SCALE
5
FC5
102
{ACAD_REACTORS
330
FAB
102
}
330
FAB
100
AcDbScale
70
0
300
3/8" = 1'-0"
140
0.375
141
12.0
290
0
0
SCALE
5
FC6
102
{ACAD_REACTORS
330
FAB
102
}
330
FAB
100
AcDbScale
70
0
300
1/2" = 1'-0"
140
0.5
141
12.0
290
0
0
SCALE
5
FC7
102
{ACAD_REACTORS
330
FAB
102
}
330
FAB
100
AcDbScale
70
0
300
3/4" = 1'-0"
140
0.75
141
12.0
290
0
0
SCALE
5
FC8
102
{ACAD_REACTORS
330
FAB
102
}
330
FAB
100
AcDbScale
70
0
300
1" = 1'-0"
140
1.0
141
12.0
290
0
0
SCALE
5
FC9
102
{ACAD_REACTORS
330
FAB
102
}
330
FAB
100
AcDbScale
70
0
300
1-1/2" = 1'-0"
140
1.5
141
12.0
290
0
0
SCALE
5
FCA
102
{ACAD_REACTORS
330
FAB
102
}
330
FAB
100
AcDbScale
70
0
300
3" = 1'-0"
140
3.0
141
12.0
290
0
0
SCALE
5
FCB
102
{ACAD_REACTORS
330
FAB
102
}
330
FAB
100
AcDbScale
70
0
300
6" = 1'-0"
140
6.0
141
12.0
290
0
0
SCALE
5
FCC
102
{ACAD_REACTORS
330
FAB
102
}
330
FAB
100
AcDbScale
70
0
300
1'-0" = 1'-0"
140
12.0
141
12.0
290
0
0
TABLESTYLE
5
FA9
102
{ACAD_XDICTIONARY
360
FF8
102
}
102
{ACAD_REACTORS
330
FA8
102
}
330
FA8
100
AcDbTableStyle
3
Standard
70
0
71
0
40
0.06
41
0.06
280
0
281
0
7
Standard
140
0.18
170
2
62
0
63
7
283
0
274
-2
284
1
64
0
275
-2
285
1
65
0
276
-2
286
1
66
0
277
-2
287
1
67
0
278
-2
288
1
68
0
279
-2
289
1
69
0
7
Standard
140
0.25
170
5
62
0
63
7
283
0
274
-2
284
1
64
0
275
-2
285
1
65
0
276
-2
286
1
66
0
277
-2
287
1
67
0
278
-2
288
1
68
0
279
-2
289
1
69
0
7
Standard
140
0.18
170
5
62
0
63
7
283
0
274
-2
284
1
64
0
275
-2
285
1
65
0
276
-2
286
1
66
0
277
-2
287
1
67
0
278
-2
288
1
68
0
279
-2
289
1
69
0
0
VISUALSTYLE
5
F99
102
{ACAD_XDICTIONARY
360
108A
102
}
102
{ACAD_REACTORS
330
F93
102
}
330
F93
100
AcDbVisualStyle
2

70
4
71
0
72
2
73
0
90
0
40
-0.6
41
-30.0
62
5
63
7
74
1
91
4
64
7
65
257
75
1
175
1
42
1.0
92
0
66
257
43
1.0
76
1
77
6
78
2
67
7
79
5
170
0
171
0
290
0
174
0
93
1
44
0.0
173
0
291
0
45
0.0
1001
ACAD
1000
AcDbSavedByObjectVersion
1070
0
0
VISUALSTYLE
5
F9B
102
{ACAD_XDICTIONARY
360
108E
102
}
102
{ACAD_REACTORS
330
F93
102
}
330
F93
100
AcDbVisualStyle
2

70
6
71
1
72
2
73
2
90
0
40
-0.6
41
-30.0
62
5
63
7
74
2
91
2
64
7
65
257
75
2
175
1
42
179.0
92
0
66
257
43
1.0
76
1
77
6
78
2
67
7
79
3
170
0
171
0
290
0
174
0
93
1
44
0.0
173
0
291
0
45
0.0
1001
ACAD
1000
AcDbSavedByObjectVersion
1070
0
0
VISUALSTYLE
5
F9A
102
{ACAD_XDICTIONARY
360
108C
102
}
102
{ACAD_REACTORS
330
F93
102
}
330
F93
100
AcDbVisualStyle
2

70
5
71
0
72
2
73
0
90
0
40
-0.6
41
-30.0
62
5
63
7
74
1
91
4
64
7
65
257
75
1
175
1
42
1.0
92
0
66
257
43
1.0
76
1
77
6
78
2
67
7
79
5
170
0
171
0
290
0
174
0
93
1
44
0.0
173
0
291
0
45
0.0
1001
ACAD
1000
AcDbSavedByObjectVersion
1070
0
0
VISUALSTYLE
5
F98
102
{ACAD_XDICTIONARY
360
1088
102
}
102
{ACAD_REACTORS
330
F93
102
}
330
F93
100
AcDbVisualStyle
2

70
7
71
1
72
0
73
1
90
0
40
-0.6
41
-30.0
62
5
63
7
74
0
91
4
64
7
65
257
75
1
175
1
42
1.0
92
8
66
7
43
1.0
76
1
77
6
78
2
67
7
79
5
170
0
171
0
290
0
174
0
93
1
44
0.0
173
0
291
1
45
0.0
1001
ACAD
1000
AcDbSavedByObjectVersion
1070
0
0
VISUALSTYLE
5
F9F
102
{ACAD_XDICTIONARY
360
1096
102
}
102
{ACAD_REACTORS
330
F93
102
}
330
F93
100
AcDbVisualStyle
2

70
12
71
2
72
2
73
0
90
0
40
-0.6
41
-30.0
62
5
63
7
74
1
91
4
64
7
65
257
75
1
175
1
42
1.0
92
8
66
7
43
1.0
76
1
77
6
78
2
67
7
79
5
170
0
171
0
290
0
174
0
93
1
44
50.0
173
0
291
1
45
0.0
1001
ACAD
1000
AcDbSavedByObjectVersion
1070
0
0
VISUALSTYLE
5
FA3
102
{ACAD_XDICTIONARY
360
109E
102
}
102
{ACAD_REACTORS
330
F93
102
}
330
F93
100
AcDbVisualStyle
2

70
16
71
2
72
2
73
3
90
0
40
-0.6
41
-30.0
62
5
63
8
74
1
91
4
64
7
65
257
75
1
175
1
42
1.0
92
8
66
8
43
1.0
76
1
77
6
78
2
67
7
79
5
170
0
171
0
290
0
174
0
93
1
44
0.0
173
0
291
1
45
0.0
1001
ACAD
1000
AcDbSavedByObjectVersion
1070
0
0
VISUALSTYLE
5
F9C
102
{ACAD_XDICTIONARY
360
1090
102
}
102
{ACAD_REACTORS
330
F93
102
}
330
F93
100
AcDbVisualStyle
2

70
9
71
3
72
2
73
0
90
0
40
-0.6
41
-30.0
62
5
63
7
74
2
91
2
64
7
65
257
75
1
175
1
42
179.0
92
8
66
7
43
1.0
76
1
77
6
78
2
67
7
79
3
170
0
171
0
290
0
174
0
93
1
44
0.0
173
0
291
0
45
0.0
1001
ACAD
1000
AcDbSavedByObjectVersion
1070
0
0
VISUALSTYLE
5
F9E
102
{ACAD_XDICTIONARY
360
1094
102
}
102
{ACAD_REACTORS
330
F93
102
}
330
F93
100
AcDbVisualStyle
2

70
11
71
2
72
2
73
0
90
0
40
-0.6
41
-30.0
62
5
63
7
74
1
91
4
64
7
65
257
75
1
175
1
42
1.0
92
8
66
7
43
1.0
76
1
77
6
78
2
67
7
79
5
170
0
171
0
290
0
174
0
93
1
44
-50.0
173
0
291
1
45
0.0
1001
ACAD
1000
AcDbSavedByObjectVersion
1070
0
0
VISUALSTYLE
5
FA6
102
{ACAD_XDICTIONARY
360
10A4
102
}
102
{ACAD_REACTORS
330
F93
102
}
330
F93
100
AcDbVisualStyle
2

70
22
71
2
72
2
73
0
90
0
40
-0.6
41
-30.0
62
5
63
7
74
1
91
4
64
7
65
257
75
1
175
1
42
1.0
92
8
66
7
43
1.0
76
1
77
6
78
2
67
7
79
5
170
0
171
0
290
0
174
0
93
1
44
0.0
173
0
291
1
45
0.0
1001
ACAD
1000
AcDbSavedByObjectVersion
1070
0
0
VISUALSTYLE
5
FA2
102
{ACAD_XDICTIONARY
360
109C
102
}
102
{ACAD_REACTORS
330
F93
102
}
330
F93
100
AcDbVisualStyle
2

70
15
71
2
72
2
73
0
90
0
40
-0.6
41
-30.0
62
5
63
7
74
1
91
4
64
7
65
257
75
1
175
1
42
1.0
92
8
66
7
43
1.0
76
1
77
6
78
2
67
7
79
5
170
0
171
0
290
0
174
0
93
1
44
0.0
173
0
291
1
45
0.0
1001
ACAD
1000
AcDbSavedByObjectVersion
1070
0
0
VISUALSTYLE
5
F94
102
{ACAD_XDICTIONARY
360
1080
102
}
102
{ACAD_REACTORS
330
F93
102
}
330
F93
100
AcDbVisualStyle
2

70
0
71
2
72
1
73
1
90
2
40
-0.6
41
30.0
62
5
63
7
74
0
91
4
64
7
65
257
75
1
175
1
42
1.0
92
8
66
7
43
1.0
76
1
77
6
78
2
67
7
79
5
170
0
171
0
290
0
174
0
93
13
44
0.0
173
0
291
1
45
0.0
1001
ACAD
1000
AcDbSavedByObjectVersion
1070
0
0
VISUALSTYLE
5
F95
102
{ACAD_XDICTIONARY
360
1082
102
}
102
{ACAD_REACTORS
330
F93
102
}
330
F93
100
AcDbVisualStyle
2

70
1
71
2
72
1
73
1
90
2
40
-0.6
41
30.0
62
5
63
7
74
1
91
4
64
7
65
257
75
1
175
1
42
1.0
92
0
66
257
43
1.0
76
1
77
6
78
2
67
7
79
5
170
0
171
0
290
0
174
0
93
13
44
0.0
173
0
291
1
45
0.0
1001
ACAD
1000
AcDbSavedByObjectVersion
1070
0
0
VISUALSTYLE
5
F96
102
{ACAD_XDICTIONARY
360
1084
102
}
102
{ACAD_REACTORS
330
F93
102
}
330
F93
100
AcDbVisualStyle
2

70
2
71
2
72
2
73
1
90
2
40
-0.6
41
30.0
62
5
63
7
74
0
91
4
64
7
65
257
75
1
175
1
42
1.0
92
0
66
7
43
1.0
76
1
77
6
78
2
67
7
79
5
170
0
171
0
290
0
174
0
93
13
44
0.0
173
0
291
1
45
0.0
1001
ACAD
1000
AcDbSavedByObjectVersion
1070
0
0
VISUALSTYLE
5
F97
102
{ACAD_XDICTIONARY
360
1086
102
}
102
{ACAD_REACTORS
330
F93
102
}
330
F93
100
AcDbVisualStyle
2

70
3
71
2
72
2
73
1
90
2
40
-0.6
41
30.0
62
5
63
7
74
1
91
4
64
7
65
257
75
1
175
1
42
1.0
92
0
66
257
43
1.0
76
1
77
6
78
2
67
7
79
5
170
0
171
0
290
0
174
0
93
13
44
0.0
173
0
291
1
45
0.0
1001
ACAD
1000
AcDbSavedByObjectVersion
1070
0
0
VISUALSTYLE
5
FA4
102
{ACAD_XDICTIONARY
360
10A0
102
}
102
{ACAD_REACTORS
330
F93
102
}
330
F93
100
AcDbVisualStyle
2

70
20
71
2
72
2
73
0
90
0
40
-0.6
41
-30.0
62
5
63
7
74
1
91
4
64
7
65
257
75
1
175
1
42
1.0
92
10
66
7
43
1.0
76
1
77
6
78
2
67
7
79
5
170
0
171
0
290
0
174
0
93
1
44
0.0
173
0
291
1
45
0.0
1001
ACAD
1000
AcDbSavedByObjectVersion
1070
0
0
VISUALSTYLE
5
FA1
102
{ACAD_XDICTIONARY
360
109A
102
}
102
{ACAD_REACTORS
330
F93
102
}
330
F93
100
AcDbVisualStyle
2

70
14
71
2
72
2
73
0
90
0
40
-0.6
41
-30.0
62
5
63
7
74
1
91
4
64
7
65
257
75
7
175
7
42
1.0
92
8
66
7
43
1.0
76
1
77
6
78
2
67
7
79
5
170
0
171
0
290
0
174
0
93
1
44
0.0
173
0
291
1
45
0.0
1001
ACAD
1000
AcDbSavedByObjectVersion
1070
0
0
VISUALSTYLE
5
FA5
102
{ACAD_XDICTIONARY
360
10A2
102
}
102
{ACAD_REACTORS
330
F93
102
}
330
F93
100
AcDbVisualStyle
2

70
21
71
2
72
2
73
0
90
0
40
-0.6
41
-30.0
62
5
63
7
74
1
91
4
64
7
65
257
75
1
175
1
42
1.0
92
9
66
7
43
1.0
76
1
77
6
78
2
67
7
79
5
170
0
171
0
290
0
174
0
93
1
44
0.0
173
0
291
1
45
0.0
1001
ACAD
1000
AcDbSavedByObjectVersion
1070
0
0
VISUALSTYLE
5
F9D
102
{ACAD_XDICTIONARY
360
1092
102
}
102
{ACAD_REACTORS
330
F93
102
}
330
F93
100
AcDbVisualStyle
2

70
8
71
2
72
2
73
0
90
0
40
-0.6
41
-30.0
62
5
63
7
74
1
91
0
64
7
65
257
75
1
175
1
42
1.0
92
8
66
8
43
1.0
76
1
77
6
78
2
67
7
79
5
170
0
171
0
290
0
174
0
93
13
44
0.0
173
0
291
0
45
0.0
1001
ACAD
1000
AcDbSavedByObjectVersion
1070
0
0
VISUALSTYLE
5
FA0
102
{ACAD_XDICTIONARY
360
1098
102
}
102
{ACAD_REACTORS
330
F93
102
}
330
F93
100
AcDbVisualStyle
2

70
13
71
2
72
2
73
0
90
0
40
-0.6
41
-30.0
62
5
63
7
74
1
91
4
64
7
65
257
75
1
175
1
42
1.0
92
12
66
7
43
1.0
76
1
77
6
78
2
67
7
79
5
170
0
171
0
290
0
174
0
93
1
44
0.0
173
0
291
1
45
0.0
1001
ACAD
1000
AcDbSavedByObjectVersion
1070
0
0
DICTIONARYVAR
5
FF3
102
{ACAD_REACTORS
330
FF0
102
}
330
FF0
100
DictionaryVariables
280
0
1
1:1
0
DICTIONARYVAR
5
FF2
102
{ACAD_REACTORS
330
FF0
102
}
330
FF0
100
DictionaryVariables
280
0
1
STANDARD
0
DICTIONARYVAR
5
FF1
102
{ACAD_REACTORS
330
FF0
102
}
330
FF0
100
DictionaryVariables
280
0
1
STANDARD
0
DICTIONARYVAR
5
FF6
102
{ACAD_REACTORS
330
FF0
102
}
330
FF0
100
DictionaryVariables
280
0
1
1
0
DICTIONARYVAR
5
FF5
102
{ACAD_REACTORS
330
FF0
102
}
330
FF0
100
DictionaryVariables
280
0
1
0
0
DICTIONARYVAR
5
FF4
102
{ACAD_REACTORS
330
FF0
102
}
330
FF0
100
DictionaryVariables
280
0
1
127
0
DICTIONARYVAR
5
1078
102
{ACAD_REACTORS
330
FF0
102
}
330
FF0
100
DictionaryVariables
280
0
1
2
0
DICTIONARY
5
10A9
330
FD1
100
AcDbDictionary
280
1
281
1
3
ACAD_XREC_ROUNDTRIP
360
10AA
0
DICTIONARY
5
10A7
330
FD0
100
AcDbDictionary
280
1
281
1
3
ACAD_XREC_ROUNDTRIP
360
10A8
0
DICTIONARY
5
F84
330
F83
100
AcDbDictionary
280
1
281
1
3
ACAD_XREC_ROUNDTRIP
360
FFF
3
BUMPTILE
360
F86
3
DIFFUSETILE
360
F85
3
OPACITYTILE
360
F89
3
REFLECTIONTILE
360
F88
3
REFRACTIONTILE
360
F8A
3
SPECULARTILE
360
F87
0
DICTIONARY
5
F7C
330
F7B
100
AcDbDictionary
280
1
281
1
3
ACAD_XREC_ROUNDTRIP
360
FFE
3
BUMPTILE
360
F7E
3
DIFFUSETILE
360
F7D
3
OPACITYTILE
360
F81
3
REFLECTIONTILE
360
F80
3
REFRACTIONTILE
360
F82
3
SPECULARTILE
360
F7F
0
DICTIONARY
5
F8C
330
F8B
100
AcDbDictionary
280
1
281
1
3
ACAD_XREC_ROUNDTRIP
360
1000
3
BUMPTILE
360
F8E
3
DIFFUSETILE
360
F8D
3
OPACITYTILE
360
F91
3
REFLECTIONTILE
360
F90
3
REFRACTIONTILE
360
F92
3
SPECULARTILE
360
F8F
0
DICTIONARY
5
FF8
330
FA9
100
AcDbDictionary
280
1
281
1
3
ACAD_ROUNDTRIP_2008_TABLESTYLE_CELLSTYLEMAP
360
1079
3
ACAD_XREC_ROUNDTRIP
360
10A6
0
DICTIONARY
5
108A
330
F99
100
AcDbDictionary
280
1
281
1
3
ACAD_XREC_ROUNDTRIP
360
108B
0
DICTIONARY
5
108E
330
F9B
100
AcDbDictionary
280
1
281
1
3
ACAD_XREC_ROUNDTRIP
360
108F
0
DICTIONARY
5
108C
330
F9A
100
AcDbDictionary
280
1
281
1
3
ACAD_XREC_ROUNDTRIP
360
108D
0
DICTIONARY
5
1088
330
F98
100
AcDbDictionary
280
1
281
1
3
ACAD_XREC_ROUNDTRIP
360
1089
0
DICTIONARY
5
1096
330
F9F
100
AcDbDictionary
280
1
281
1
3
ACAD_XREC_ROUNDTRIP
360
1097
0
DICTIONARY
5
109E
330
FA3
100
AcDbDictionary
280
1
281
1
3
ACAD_XREC_ROUNDTRIP
360
109F
0
DICTIONARY
5
1090
330
F9C
100
AcDbDictionary
280
1
281
1
3
ACAD_XREC_ROUNDTRIP
360
1091
0
DICTIONARY
5
1094
330
F9E
100
AcDbDictionary
280
1
281
1
3
ACAD_XREC_ROUNDTRIP
360
1095
0
DICTIONARY
5
10A4
330
FA6
100
AcDbDictionary
280
1
281
1
3
ACAD_XREC_ROUNDTRIP
360
10A5
0
DICTIONARY
5
109C
330
FA2
100
AcDbDictionary
280
1
281
1
3
ACAD_XREC_ROUNDTRIP
360
109D
0
DICTIONARY
5
1080
330
F94
100
AcDbDictionary
280
1
281
1
3
ACAD_XREC_ROUNDTRIP
360
1081
0
DICTIONARY
5
1082
330
F95
100
AcDbDictionary
280
1
281
1
3
ACAD_XREC_ROUNDTRIP
360
1083
0
DICTIONARY
5
1084
330
F96
100
AcDbDictionary
280
1
281
1
3
ACAD_XREC_ROUNDTRIP
360
1085
0
DICTIONARY
5
1086
330
F97
100
AcDbDictionary
280
1
281
1
3
ACAD_XREC_ROUNDTRIP
360
1087
0
DICTIONARY
5
10A0
330
FA4
100
AcDbDictionary
280
1
281
1
3
ACAD_XREC_ROUNDTRIP
360
10A1
0
DICTIONARY
5
109A
330
FA1
100
AcDbDictionary
280
1
281
1
3
ACAD_XREC_ROUNDTRIP
360
109B
0
DICTIONARY
5
10A2
330
FA5
100
AcDbDictionary
280
1
281
1
3
ACAD_XREC_ROUNDTRIP
360
10A3
0
DICTIONARY
5
1092
330
F9D
100
AcDbDictionary
280
1
281
1
3
ACAD_XREC_ROUNDTRIP
360
1093
0
DICTIONARY
5
1098
330
FA0
100
AcDbDictionary
280
1
281
1
3
ACAD_XREC_ROUNDTRIP
360
1099
0
XRECORD
5
10AA
102
{ACAD_REACTORS
330
10A9
102
}
330
10A9
100
AcDbXrecord
280
1
102
SHADEPLOT
70
0
102
SHADEPLOTRESLEVEL
70
2
102
SHADEPLOTCUSTOMDPI
70
300
0
XRECORD
5
10A8
102
{ACAD_REACTORS
330
10A7
102
}
330
10A7
100
AcDbXrecord
280
1
102
SHADEPLOT
70
0
102
SHADEPLOTRESLEVEL
70
2
102
SHADEPLOTCUSTOMDPI
70
300
0
XRECORD
5
FFF
102
{ACAD_REACTORS
330
F84
102
}
330
F84
100
AcDbXrecord
280
1
102
MATERIAL
148
0.0
149
0.0
149
0.0
93
0
94
127
282
0
72
0
77
0
171
0
175
0
179
0
273
0
0
XRECORD
5
F86
102
{ACAD_REACTORS
330
F84
102
}
330
F84
100
AcDbXrecord
280
1
270
1
271
1
0
XRECORD
5
F85
102
{ACAD_REACTORS
330
F84
102
}
330
F84
100
AcDbXrecord
280
1
270
1
271
1
0
XRECORD
5
F89
102
{ACAD_REACTORS
330
F84
102
}
330
F84
100
AcDbXrecord
280
1
270
1
271
1
0
XRECORD
5
F88
102
{ACAD_REACTORS
330
F84
102
}
330
F84
100
AcDbXrecord
280
1
270
1
271
1
0
XRECORD
5
F8A
102
{ACAD_REACTORS
330
F84
102
}
330
F84
100
AcDbXrecord
280
1
270
1
271
1
0
XRECORD
5
F87
102
{ACAD_REACTORS
330
F84
102
}
330
F84
100
AcDbXrecord
280
1
270
1
271
1
0
XRECORD
5
FFE
102
{ACAD_REACTORS
330
F7C
102
}
330
F7C
100
AcDbXrecord
280
1
102
MATERIAL
148
0.0
149
0.0
149
0.0
93
0
94
127
282
0
72
0
77
0
171
0
175
0
179
0
273
0
0
XRECORD
5
F7E
102
{ACAD_REACTORS
330
F7C
102
}
330
F7C
100
AcDbXrecord
280
1
270
1
271
1
0
XRECORD
5
F7D
102
{ACAD_REACTORS
330
F7C
102
}
330
F7C
100
AcDbXrecord
280
1
270
1
271
1
0
XRECORD
5
F81
102
{ACAD_REACTORS
330
F7C
102
}
330
F7C
100
AcDbXrecord
280
1
270
1
271
1
0
XRECORD
5
F80
102
{ACAD_REACTORS
330
F7C
102
}
330
F7C
100
AcDbXrecord
280
1
270
1
271
1
0
XRECORD
5
F82
102
{ACAD_REACTORS
330
F7C
102
}
330
F7C
100
AcDbXrecord
280
1
270
1
271
1
0
XRECORD
5
F7F
102
{ACAD_REACTORS
330
F7C
102
}
330
F7C
100
AcDbXrecord
280
1
270
1
271
1
0
XRECORD
5
1000
102
{ACAD_REACTORS
330
F8C
102
}
330
F8C
100
AcDbXrecord
280
1
102
MATERIAL
148
0.0
149
0.0
149
0.0
93
0
94
127
282
0
72
0
77
0
171
0
175
0
179
0
273
0
0
XRECORD
5
F8E
102
{ACAD_REACTORS
330
F8C
102
}
330
F8C
100
AcDbXrecord
280
1
270
1
271
1
0
XRECORD
5
F8D
102
{ACAD_REACTORS
330
F8C
102
}
330
F8C
100
AcDbXrecord
280
1
270
1
271
1
0
XRECORD
5
F91
102
{ACAD_REACTORS
330
F8C
102
}
330
F8C
100
AcDbXrecord
280
1
270
1
271
1
0
XRECORD
5
F90
102
{ACAD_REACTORS
330
F8C
102
}
330
F8C
100
AcDbXrecord
280
1
270
1
271
1
0
XRECORD
5
F92
102
{ACAD_REACTORS
330
F8C
102
}
330
F8C
100
AcDbXrecord
280
1
270
1
271
1
0
XRECORD
5
F8F
102
{ACAD_REACTORS
330
F8C
102
}
330
F8C
100
AcDbXrecord
280
1
270
1
271
1
0
CELLSTYLEMAP
5
1079
102
{ACAD_REACTORS
330
FF8
102
}
330
FF8
100
AcDbCellStyleMap
90
3
300
CELLSTYLE
1
TABLEFORMAT_BEGIN
90
5
170
1
91
0
92
32768
62
257
93
1
300
CONTENTFORMAT
1
CONTENTFORMAT_BEGIN
90
0
91
0
92
512
93
0
300

40
0.0
140
1.0
94
5
62
0
340
253
144
0.25
309
CONTENTFORMAT_END
171
1
301
MARGIN
1
CELLMARGIN_BEGIN
40
0.06
40
0.06
40
0.06
40
0.06
40
0.18
40
0.18
309
CELLMARGIN_END
94
6
95
1
302
GRIDFORMAT
1
GRIDFORMAT_BEGIN
90
0
91
1
62
0
92
-2
340
0
93
0
40
0.045
309
GRIDFORMAT_END
95
2
302
GRIDFORMAT
1
GRIDFORMAT_BEGIN
90
0
91
1
62
0
92
-2
340
0
93
0
40
0.045
309
GRIDFORMAT_END
95
4
302
GRIDFORMAT
1
GRIDFORMAT_BEGIN
90
0
91
1
62
0
92
-2
340
0
93
0
40
0.045
309
GRIDFORMAT_END
95
8
302
GRIDFORMAT
1
GRIDFORMAT_BEGIN
90
0
91
1
62
0
92
-2
340
0
93
0
40
0.045
309
GRIDFORMAT_END
95
16
302
GRIDFORMAT
1
GRIDFORMAT_BEGIN
90
0
91
1
62
0
92
-2
340
0
93
0
40
0.045
309
GRIDFORMAT_END
95
32
302
GRIDFORMAT
1
GRIDFORMAT_BEGIN
90
0
91
1
62
0
92
-2
340
0
93
0
40
0.045
309
GRIDFORMAT_END
309
TABLEFORMAT_END
1
CELLSTYLE_BEGIN
90
1
91
1
300
_TITLE
309
CELLSTYLE_END
300
CELLSTYLE
1
TABLEFORMAT_BEGIN
90
5
170
1
91
0
92
0
62
257
93
1
300
CONTENTFORMAT
1
CONTENTFORMAT_BEGIN
90
0
91
0
92
512
93
0
300

40
0.0
140
1.0
94
5
62
0
340
253
144
0.18
309
CONTENTFORMAT_END
171
1
301
MARGIN
1
CELLMARGIN_BEGIN
40
0.06
40
0.06
40
0.06
40
0.06
40
0.18
40
0.18
309
CELLMARGIN_END
94
6
95
1
302
GRIDFORMAT
1
GRIDFORMAT_BEGIN
90
0
91
1
62
0
92
-2
340
0
93
0
40
0.045
309
GRIDFORMAT_END
95
2
302
GRIDFORMAT
1
GRIDFORMAT_BEGIN
90
0
91
1
62
0
92
-2
340
0
93
0
40
0.045
309
GRIDFORMAT_END
95
4
302
GRIDFORMAT
1
GRIDFORMAT_BEGIN
90
0
91
1
62
0
92
-2
340
0
93
0
40
0.045
309
GRIDFORMAT_END
95
8
302
GRIDFORMAT
1
GRIDFORMAT_BEGIN
90
0
91
1
62
0
92
-2
340
0
93
0
40
0.045
309
GRIDFORMAT_END
95
16
302
GRIDFORMAT
1
GRIDFORMAT_BEGIN
90
0
91
1
62
0
92
-2
340
0
93
0
40
0.045
309
GRIDFORMAT_END
95
32
302
GRIDFORMAT
1
GRIDFORMAT_BEGIN
90
0
91
1
62
0
92
-2
340
0
93
0
40
0.045
309
GRIDFORMAT_END
309
TABLEFORMAT_END
1
CELLSTYLE_BEGIN
90
2
91
1
300
_HEADER
309
CELLSTYLE_END
300
CELLSTYLE
1
TABLEFORMAT_BEGIN
90
5
170
1
91
0
92
0
62
257
93
1
300
CONTENTFORMAT
1
CONTENTFORMAT_BEGIN
90
0
91
0
92
512
93
0
300

40
0.0
140
1.0
94
2
62
0
340
253
144
0.18
309
CONTENTFORMAT_END
171
1
301
MARGIN
1
CELLMARGIN_BEGIN
40
0.06
40
0.06
40
0.06
40
0.06
40
0.18
40
0.18
309
CELLMARGIN_END
94
6
95
1
302
GRIDFORMAT
1
GRIDFORMAT_BEGIN
90
0
91
1
62
0
92
-2
340
0
93
0
40
0.045
309
GRIDFORMAT_END
95
2
302
GRIDFORMAT
1
GRIDFORMAT_BEGIN
90
0
91
1
62
0
92
-2
340
0
93
0
40
0.045
309
GRIDFORMAT_END
95
4
302
GRIDFORMAT
1
GRIDFORMAT_BEGIN
90
0
91
1
62
0
92
-2
340
0
93
0
40
0.045
309
GRIDFORMAT_END
95
8
302
GRIDFORMAT
1
GRIDFORMAT_BEGIN
90
0
91
1
62
0
92
-2
340
0
93
0
40
0.045
309
GRIDFORMAT_END
95
16
302
GRIDFORMAT
1
GRIDFORMAT_BEGIN
90
0
91
1
62
0
92
-2
340
0
93
0
40
0.045
309
GRIDFORMAT_END
95
32
302
GRIDFORMAT
1
GRIDFORMAT_BEGIN
90
0
91
1
62
0
92
-2
340
0
93
0
40
0.045
309
GRIDFORMAT_END
309
TABLEFORMAT_END
1
CELLSTYLE_BEGIN
90
3
91
2
300
_DATA
309
CELLSTYLE_END
0
XRECORD
5
10A6
102
{ACAD_REACTORS
330
FF8
102
}
330
FF8
100
AcDbXrecord
280
1
102
ACAD_ROUNDTRIP_PRE2007_TABLESTYLE
90
512
91
0
1

92
512
93
0
2

94
512
95
0
3

0
XRECORD
5
108B
102
{ACAD_REACTORS
330
108A
102
}
330
108A
100
AcDbXrecord
280
1
102
RTVSPropertyOp0
70
1
102
RTVSPropertyOp1
70
1
102
RTVSPropertyOp2
70
1
102
RTVSPropertyOp3
70
1
102
RTVSPropertyOp4
70
1
102
RTVSPropertyOp5
70
1
102
RTVSPropertyOp6
70
1
102
RTVSPropertyOp7
70
1
102
RTVSPropertyOp8
70
1
102
RTVSPropertyOp9
70
1
102
RTVSPropertyOp10
70
1
102
RTVSPropertyOp11
70
1
102
RTVSPropertyOp12
70
1
102
RTVSPropertyOp13
70
1
102
RTVSPropertyOp14
70
1
102
RTVSPropertyOp15
70
1
102
RTVSPropertyOp16
70
1
102
RTVSPropertyOp17
70
1
102
RTVSPropertyOp18
70
1
102
RTVSPropertyOp19
70
1
102
RTVSPropertyOp20
70
1
102
RTVSPropertyOp21
70
1
102
RTVSPropertyOp22
70
1
102
RTVSPropertyOp23
70
1
102
RTVSPropertyOp24
70
1
102
RTVSPropertyOp25
70
1
102
RTVSPropertyOp26
70
1
102
RTVSPropertyOp27
70
1
0
XRECORD
5
108F
102
{ACAD_REACTORS
330
108E
102
}
330
108E
100
AcDbXrecord
280
1
102
RTVSPropertyOp0
70
1
102
RTVSPropertyOp1
70
1
102
RTVSPropertyOp2
70
1
102
RTVSPropertyOp3
70
1
102
RTVSPropertyOp4
70
1
102
RTVSPropertyOp5
70
1
102
RTVSPropertyOp6
70
1
102
RTVSPropertyOp7
70
1
102
RTVSPropertyOp8
70
1
102
RTVSPropertyOp9
70
1
102
RTVSPropertyOp10
70
1
102
RTVSPropertyOp11
70
1
102
RTVSPropertyOp12
70
1
102
RTVSPropertyOp13
70
1
102
RTVSPropertyOp14
70
1
102
RTVSPropertyOp15
70
1
102
RTVSPropertyOp16
70
1
102
RTVSPropertyOp17
70
1
102
RTVSPropertyOp18
70
1
102
RTVSPropertyOp19
70
1
102
RTVSPropertyOp20
70
1
102
RTVSPropertyOp21
70
1
102
RTVSPropertyOp22
70
1
102
RTVSPropertyOp23
70
1
102
RTVSPropertyOp24
70
1
102
RTVSPropertyOp25
70
1
102
RTVSPropertyOp26
70
1
102
RTVSPropertyOp27
70
1
0
XRECORD
5
108D
102
{ACAD_REACTORS
330
108C
102
}
330
108C
100
AcDbXrecord
280
1
102
RTVSPropertyOp0
70
1
102
RTVSPropertyOp1
70
1
102
RTVSPropertyOp2
70
1
102
RTVSPropertyOp3
70
1
102
RTVSPropertyOp4
70
1
102
RTVSPropertyOp5
70
1
102
RTVSPropertyOp6
70
1
102
RTVSPropertyOp7
70
1
102
RTVSPropertyOp8
70
1
102
RTVSPropertyOp9
70
1
102
RTVSPropertyOp10
70
1
102
RTVSPropertyOp11
70
1
102
RTVSPropertyOp12
70
1
102
RTVSPropertyOp13
70
1
102
RTVSPropertyOp14
70
1
102
RTVSPropertyOp15
70
1
102
RTVSPropertyOp16
70
1
102
RTVSPropertyOp17
70
1
102
RTVSPropertyOp18
70
1
102
RTVSPropertyOp19
70
1
102
RTVSPropertyOp20
70
1
102
RTVSPropertyOp21
70
1
102
RTVSPropertyOp22
70
1
102
RTVSPropertyOp23
70
1
102
RTVSPropertyOp24
70
1
102
RTVSPropertyOp25
70
1
102
RTVSPropertyOp26
70
1
102
RTVSPropertyOp27
70
1
0
XRECORD
5
1089
102
{ACAD_REACTORS
330
1088
102
}
330
1088
100
AcDbXrecord
280
1
102
RTVSPropertyOp0
70
1
102
RTVSPropertyOp1
70
1
102
RTVSPropertyOp2
70
1
102
RTVSPropertyOp3
70
1
102
RTVSPropertyOp4
70
1
102
RTVSPropertyOp5
70
1
102
RTVSPropertyOp6
70
1
102
RTVSPropertyOp7
70
1
102
RTVSPropertyOp8
70
1
102
RTVSPropertyOp9
70
1
102
RTVSPropertyOp10
70
1
102
RTVSPropertyOp11
70
1
102
RTVSPropertyOp12
70
1
102
RTVSPropertyOp13
70
1
102
RTVSPropertyOp14
70
1
102
RTVSPropertyOp15
70
1
102
RTVSPropertyOp16
70
1
102
RTVSPropertyOp17
70
1
102
RTVSPropertyOp18
70
1
102
RTVSPropertyOp19
70
1
102
RTVSPropertyOp20
70
1
102
RTVSPropertyOp21
70
1
102
RTVSPropertyOp22
70
1
102
RTVSPropertyOp23
70
1
102
RTVSPropertyOp24
70
1
102
RTVSPropertyOp25
70
1
102
RTVSPropertyOp26
70
1
102
RTVSPropertyOp27
70
1
0
XRECORD
5
1097
102
{ACAD_REACTORS
330
1096
102
}
330
1096
100
AcDbXrecord
280
1
102
RTVSPropertyOp0
70
1
102
RTVSPropertyOp1
70
1
102
RTVSPropertyOp2
70
1
102
RTVSPropertyOp3
70
1
102
RTVSPropertyOp4
70
1
102
RTVSPropertyOp5
70
1
102
RTVSPropertyOp6
70
1
102
RTVSPropertyOp7
70
1
102
RTVSPropertyOp8
70
1
102
RTVSPropertyOp9
70
1
102
RTVSPropertyOp10
70
1
102
RTVSPropertyOp11
70
1
102
RTVSPropertyOp12
70
1
102
RTVSPropertyOp13
70
1
102
RTVSPropertyOp14
70
1
102
RTVSPropertyOp15
70
1
102
RTVSPropertyOp16
70
1
102
RTVSPropertyOp17
70
1
102
RTVSPropertyOp18
70
1
102
RTVSPropertyOp19
70
1
102
RTVSPropertyOp20
70
1
102
RTVSPropertyOp21
70
1
102
RTVSPropertyOp22
70
1
102
RTVSPropertyOp23
70
1
102
RTVSPropertyOp24
70
1
102
RTVSPropertyOp25
70
1
102
RTVSPropertyOp26
70
1
102
RTVSPropertyOp27
70
1
0
XRECORD
5
109F
102
{ACAD_REACTORS
330
109E
102
}
330
109E
100
AcDbXrecord
280
1
102
RTVSPropertyOp0
70
1
102
RTVSPropertyOp1
70
1
102
RTVSPropertyOp2
70
1
102
RTVSPropertyOp3
70
1
102
RTVSPropertyOp4
70
1
102
RTVSPropertyOp5
70
1
102
RTVSPropertyOp6
70
1
102
RTVSPropertyOp7
70
1
102
RTVSPropertyOp8
70
1
102
RTVSPropertyOp9
70
1
102
RTVSPropertyOp10
70
1
102
RTVSPropertyOp11
70
1
102
RTVSPropertyOp12
70
1
102
RTVSPropertyOp13
70
1
102
RTVSPropertyOp14
70
1
102
RTVSPropertyOp15
70
1
102
RTVSPropertyOp16
70
1
102
RTVSPropertyOp17
70
1
102
RTVSPropertyOp18
70
1
102
RTVSPropertyOp19
70
1
102
RTVSPropertyOp20
70
1
102
RTVSPropertyOp21
70
1
102
RTVSPropertyOp22
70
1
102
RTVSPropertyOp23
70
1
102
RTVSPropertyOp24
70
1
102
RTVSPropertyOp25
70
1
102
RTVSPropertyOp26
70
1
102
RTVSPropertyOp27
70
1
0
XRECORD
5
1091
102
{ACAD_REACTORS
330
1090
102
}
330
1090
100
AcDbXrecord
280
1
102
RTVSPropertyOp0
70
1
102
RTVSPropertyOp1
70
1
102
RTVSPropertyOp2
70
1
102
RTVSPropertyOp3
70
1
102
RTVSPropertyOp4
70
1
102
RTVSPropertyOp5
70
1
102
RTVSPropertyOp6
70
1
102
RTVSPropertyOp7
70
1
102
RTVSPropertyOp8
70
1
102
RTVSPropertyOp9
70
1
102
RTVSPropertyOp10
70
1
102
RTVSPropertyOp11
70
1
102
RTVSPropertyOp12
70
1
102
RTVSPropertyOp13
70
1
102
RTVSPropertyOp14
70
1
102
RTVSPropertyOp15
70
1
102
RTVSPropertyOp16
70
1
102
RTVSPropertyOp17
70
1
102
RTVSPropertyOp18
70
1
102
RTVSPropertyOp19
70
1
102
RTVSPropertyOp20
70
1
102
RTVSPropertyOp21
70
1
102
RTVSPropertyOp22
70
1
102
RTVSPropertyOp23
70
1
102
RTVSPropertyOp24
70
1
102
RTVSPropertyOp25
70
1
102
RTVSPropertyOp26
70
1
102
RTVSPropertyOp27
70
1
0
XRECORD
5
1095
102
{ACAD_REACTORS
330
1094
102
}
330
1094
100
AcDbXrecord
280
1
102
RTVSPropertyOp0
70
1
102
RTVSPropertyOp1
70
1
102
RTVSPropertyOp2
70
1
102
RTVSPropertyOp3
70
1
102
RTVSPropertyOp4
70
1
102
RTVSPropertyOp5
70
1
102
RTVSPropertyOp6
70
1
102
RTVSPropertyOp7
70
1
102
RTVSPropertyOp8
70
1
102
RTVSPropertyOp9
70
1
102
RTVSPropertyOp10
70
1
102
RTVSPropertyOp11
70
1
102
RTVSPropertyOp12
70
1
102
RTVSPropertyOp13
70
1
102
RTVSPropertyOp14
70
1
102
RTVSPropertyOp15
70
1
102
RTVSPropertyOp16
70
1
102
RTVSPropertyOp17
70
1
102
RTVSPropertyOp18
70
1
102
RTVSPropertyOp19
70
1
102
RTVSPropertyOp20
70
1
102
RTVSPropertyOp21
70
1
102
RTVSPropertyOp22
70
1
102
RTVSPropertyOp23
70
1
102
RTVSPropertyOp24
70
1
102
RTVSPropertyOp25
70
1
102
RTVSPropertyOp26
70
1
102
RTVSPropertyOp27
70
1
0
XRECORD
5
10A5
102
{ACAD_REACTORS
330
10A4
102
}
330
10A4
100
AcDbXrecord
280
1
102
RTVSPropertyOp0
70
0
102
RTVSPropertyOp1
70
0
102
RTVSPropertyOp2
70
0
102
RTVSPropertyOp3
70
0
102
RTVSPropertyOp4
70
0
102
RTVSPropertyOp5
70
0
102
RTVSPropertyOp6
70
0
102
RTVSPropertyOp7
70
0
102
RTVSPropertyOp8
70
0
102
RTVSPropertyOp9
70
0
102
RTVSPropertyOp10
70
0
102
RTVSPropertyOp11
70
0
102
RTVSPropertyOp12
70
0
102
RTVSPropertyOp13
70
0
102
RTVSPropertyOp14
70
2
102
RTVSPropertyOp15
70
0
102
RTVSPropertyOp16
70
0
102
RTVSPropertyOp17
70
0
102
RTVSPropertyOp18
70
0
102
RTVSPropertyOp19
70
0
102
RTVSPropertyOp20
70
0
102
RTVSPropertyOp21
70
0
102
RTVSPropertyOp22
70
0
102
RTVSPropertyOp23
70
0
102
RTVSPropertyOp24
70
0
102
RTVSPropertyOp25
70
0
102
RTVSPropertyOp26
70
0
102
RTVSPropertyOp27
70
0
0
XRECORD
5
109D
102
{ACAD_REACTORS
330
109C
102
}
330
109C
100
AcDbXrecord
280
1
102
RTVSPropertyOp0
70
1
102
RTVSPropertyOp1
70
1
102
RTVSPropertyOp2
70
1
102
RTVSPropertyOp3
70
1
102
RTVSPropertyOp4
70
1
102
RTVSPropertyOp5
70
1
102
RTVSPropertyOp6
70
1
102
RTVSPropertyOp7
70
1
102
RTVSPropertyOp8
70
1
102
RTVSPropertyOp9
70
1
102
RTVSPropertyOp10
70
1
102
RTVSPropertyOp11
70
1
102
RTVSPropertyOp12
70
1
102
RTVSPropertyOp13
70
1
102
RTVSPropertyOp14
70
1
102
RTVSPropertyOp15
70
1
102
RTVSPropertyOp16
70
1
102
RTVSPropertyOp17
70
1
102
RTVSPropertyOp18
70
1
102
RTVSPropertyOp19
70
1
102
RTVSPropertyOp20
70
1
102
RTVSPropertyOp21
70
1
102
RTVSPropertyOp22
70
1
102
RTVSPropertyOp23
70
1
102
RTVSPropertyOp24
70
1
102
RTVSPropertyOp25
70
1
102
RTVSPropertyOp26
70
1
102
RTVSPropertyOp27
70
1
0
XRECORD
5
1081
102
{ACAD_REACTORS
330
1080
102
}
330
1080
100
AcDbXrecord
280
1
102
RTVSPropertyOp0
70
1
102
RTVSPropertyOp1
70
1
102
RTVSPropertyOp2
70
1
102
RTVSPropertyOp3
70
1
102
RTVSPropertyOp4
70
1
102
RTVSPropertyOp5
70
1
102
RTVSPropertyOp6
70
1
102
RTVSPropertyOp7
70
1
102
RTVSPropertyOp8
70
1
102
RTVSPropertyOp9
70
1
102
RTVSPropertyOp10
70
1
102
RTVSPropertyOp11
70
1
102
RTVSPropertyOp12
70
1
102
RTVSPropertyOp13
70
1
102
RTVSPropertyOp14
70
1
102
RTVSPropertyOp15
70
1
102
RTVSPropertyOp16
70
1
102
RTVSPropertyOp17
70
1
102
RTVSPropertyOp18
70
1
102
RTVSPropertyOp19
70
1
102
RTVSPropertyOp20
70
1
102
RTVSPropertyOp21
70
1
102
RTVSPropertyOp22
70
1
102
RTVSPropertyOp23
70
1
102
RTVSPropertyOp24
70
1
102
RTVSPropertyOp25
70
1
102
RTVSPropertyOp26
70
1
102
RTVSPropertyOp27
70
1
0
XRECORD
5
1083
102
{ACAD_REACTORS
330
1082
102
}
330
1082
100
AcDbXrecord
280
1
102
RTVSPropertyOp0
70
1
102
RTVSPropertyOp1
70
1
102
RTVSPropertyOp2
70
1
102
RTVSPropertyOp3
70
1
102
RTVSPropertyOp4
70
1
102
RTVSPropertyOp5
70
1
102
RTVSPropertyOp6
70
1
102
RTVSPropertyOp7
70
1
102
RTVSPropertyOp8
70
1
102
RTVSPropertyOp9
70
1
102
RTVSPropertyOp10
70
1
102
RTVSPropertyOp11
70
1
102
RTVSPropertyOp12
70
1
102
RTVSPropertyOp13
70
1
102
RTVSPropertyOp14
70
1
102
RTVSPropertyOp15
70
1
102
RTVSPropertyOp16
70
1
102
RTVSPropertyOp17
70
1
102
RTVSPropertyOp18
70
1
102
RTVSPropertyOp19
70
1
102
RTVSPropertyOp20
70
1
102
RTVSPropertyOp21
70
1
102
RTVSPropertyOp22
70
1
102
RTVSPropertyOp23
70
1
102
RTVSPropertyOp24
70
1
102
RTVSPropertyOp25
70
1
102
RTVSPropertyOp26
70
1
102
RTVSPropertyOp27
70
1
0
XRECORD
5
1085
102
{ACAD_REACTORS
330
1084
102
}
330
1084
100
AcDbXrecord
280
1
102
RTVSPropertyOp0
70
1
102
RTVSPropertyOp1
70
1
102
RTVSPropertyOp2
70
1
102
RTVSPropertyOp3
70
1
102
RTVSPropertyOp4
70
1
102
RTVSPropertyOp5
70
1
102
RTVSPropertyOp6
70
1
102
RTVSPropertyOp7
70
1
102
RTVSPropertyOp8
70
1
102
RTVSPropertyOp9
70
1
102
RTVSPropertyOp10
70
1
102
RTVSPropertyOp11
70
1
102
RTVSPropertyOp12
70
1
102
RTVSPropertyOp13
70
1
102
RTVSPropertyOp14
70
1
102
RTVSPropertyOp15
70
1
102
RTVSPropertyOp16
70
1
102
RTVSPropertyOp17
70
1
102
RTVSPropertyOp18
70
1
102
RTVSPropertyOp19
70
1
102
RTVSPropertyOp20
70
1
102
RTVSPropertyOp21
70
1
102
RTVSPropertyOp22
70
1
102
RTVSPropertyOp23
70
1
102
RTVSPropertyOp24
70
1
102
RTVSPropertyOp25
70
1
102
RTVSPropertyOp26
70
1
102
RTVSPropertyOp27
70
1
0
XRECORD
5
1087
102
{ACAD_REACTORS
330
1086
102
}
330
1086
100
AcDbXrecord
280
1
102
RTVSPropertyOp0
70
1
102
RTVSPropertyOp1
70
1
102
RTVSPropertyOp2
70
1
102
RTVSPropertyOp3
70
1
102
RTVSPropertyOp4
70
1
102
RTVSPropertyOp5
70
1
102
RTVSPropertyOp6
70
1
102
RTVSPropertyOp7
70
1
102
RTVSPropertyOp8
70
1
102
RTVSPropertyOp9
70
1
102
RTVSPropertyOp10
70
1
102
RTVSPropertyOp11
70
1
102
RTVSPropertyOp12
70
1
102
RTVSPropertyOp13
70
1
102
RTVSPropertyOp14
70
1
102
RTVSPropertyOp15
70
1
102
RTVSPropertyOp16
70
1
102
RTVSPropertyOp17
70
1
102
RTVSPropertyOp18
70
1
102
RTVSPropertyOp19
70
1
102
RTVSPropertyOp20
70
1
102
RTVSPropertyOp21
70
1
102
RTVSPropertyOp22
70
1
102
RTVSPropertyOp23
70
1
102
RTVSPropertyOp24
70
1
102
RTVSPropertyOp25
70
1
102
RTVSPropertyOp26
70
1
102
RTVSPropertyOp27
70
1
0
XRECORD
5
10A1
102
{ACAD_REACTORS
330
10A0
102
}
330
10A0
100
AcDbXrecord
280
1
102
RTVSPropertyOp0
70
0
102
RTVSPropertyOp1
70
0
102
RTVSPropertyOp2
70
0
102
RTVSPropertyOp3
70
0
102
RTVSPropertyOp4
70
0
102
RTVSPropertyOp5
70
0
102
RTVSPropertyOp6
70
0
102
RTVSPropertyOp7
70
0
102
RTVSPropertyOp8
70
0
102
RTVSPropertyOp9
70
0
102
RTVSPropertyOp10
70
0
102
RTVSPropertyOp11
70
0
102
RTVSPropertyOp12
70
0
102
RTVSPropertyOp13
70
0
102
RTVSPropertyOp14
70
2
102
RTVSPropertyOp15
70
0
102
RTVSPropertyOp16
70
0
102
RTVSPropertyOp17
70
0
102
RTVSPropertyOp18
70
0
102
RTVSPropertyOp19
70
0
102
RTVSPropertyOp20
70
0
102
RTVSPropertyOp21
70
0
102
RTVSPropertyOp22
70
0
102
RTVSPropertyOp23
70
0
102
RTVSPropertyOp24
70
0
102
RTVSPropertyOp25
70
0
102
RTVSPropertyOp26
70
0
102
RTVSPropertyOp27
70
0
0
XRECORD
5
109B
102
{ACAD_REACTORS
330
109A
102
}
330
109A
100
AcDbXrecord
280
1
102
RTVSPropertyOp0
70
1
102
RTVSPropertyOp1
70
1
102
RTVSPropertyOp2
70
1
102
RTVSPropertyOp3
70
1
102
RTVSPropertyOp4
70
1
102
RTVSPropertyOp5
70
1
102
RTVSPropertyOp6
70
1
102
RTVSPropertyOp7
70
1
102
RTVSPropertyOp8
70
1
102
RTVSPropertyOp9
70
1
102
RTVSPropertyOp10
70
1
102
RTVSPropertyOp11
70
1
102
RTVSPropertyOp12
70
1
102
RTVSPropertyOp13
70
1
102
RTVSPropertyOp14
70
1
102
RTVSPropertyOp15
70
1
102
RTVSPropertyOp16
70
1
102
RTVSPropertyOp17
70
1
102
RTVSPropertyOp18
70
1
102
RTVSPropertyOp19
70
1
102
RTVSPropertyOp20
70
1
102
RTVSPropertyOp21
70
1
102
RTVSPropertyOp22
70
1
102
RTVSPropertyOp23
70
1
102
RTVSPropertyOp24
70
1
102
RTVSPropertyOp25
70
1
102
RTVSPropertyOp26
70
1
102
RTVSPropertyOp27
70
1
0
XRECORD
5
10A3
102
{ACAD_REACTORS
330
10A2
102
}
330
10A2
100
AcDbXrecord
280
1
102
RTVSPropertyOp0
70
0
102
RTVSPropertyOp1
70
0
102
RTVSPropertyOp2
70
0
102
RTVSPropertyOp3
70
0
102
RTVSPropertyOp4
70
0
102
RTVSPropertyOp5
70
0
102
RTVSPropertyOp6
70
0
102
RTVSPropertyOp7
70
0
102
RTVSPropertyOp8
70
0
102
RTVSPropertyOp9
70
0
102
RTVSPropertyOp10
70
0
102
RTVSPropertyOp11
70
0
102
RTVSPropertyOp12
70
0
102
RTVSPropertyOp13
70
0
102
RTVSPropertyOp14
70
2
102
RTVSPropertyOp15
70
0
102
RTVSPropertyOp16
70
0
102
RTVSPropertyOp17
70
0
102
RTVSPropertyOp18
70
0
102
RTVSPropertyOp19
70
0
102
RTVSPropertyOp20
70
0
102
RTVSPropertyOp21
70
0
102
RTVSPropertyOp22
70
0
102
RTVSPropertyOp23
70
0
102
RTVSPropertyOp24
70
0
102
RTVSPropertyOp25
70
0
102
RTVSPropertyOp26
70
0
102
RTVSPropertyOp27
70
0
0
XRECORD
5
1093
102
{ACAD_REACTORS
330
1092
102
}
330
1092
100
AcDbXrecord
280
1
102
RTVSPropertyOp0
70
1
102
RTVSPropertyOp1
70
1
102
RTVSPropertyOp2
70
1
102
RTVSPropertyOp3
70
1
102
RTVSPropertyOp4
70
1
102
RTVSPropertyOp5
70
1
102
RTVSPropertyOp6
70
1
102
RTVSPropertyOp7
70
1
102
RTVSPropertyOp8
70
1
102
RTVSPropertyOp9
70
1
102
RTVSPropertyOp10
70
1
102
RTVSPropertyOp11
70
1
102
RTVSPropertyOp12
70
1
102
RTVSPropertyOp13
70
1
102
RTVSPropertyOp14
70
1
102
RTVSPropertyOp15
70
1
102
RTVSPropertyOp16
70
1
102
RTVSPropertyOp17
70
1
102
RTVSPropertyOp18
70
1
102
RTVSPropertyOp19
70
1
102
RTVSPropertyOp20
70
1
102
RTVSPropertyOp21
70
1
102
RTVSPropertyOp22
70
1
102
RTVSPropertyOp23
70
1
102
RTVSPropertyOp24
70
1
102
RTVSPropertyOp25
70
1
102
RTVSPropertyOp26
70
1
102
RTVSPropertyOp27
70
1
0
XRECORD
5
1099
102
{ACAD_REACTORS
330
1098
102
}
330
1098
100
AcDbXrecord
280
1
102
RTVSPropertyOp0
70
1
102
RTVSPropertyOp1
70
1
102
RTVSPropertyOp2
70
1
102
RTVSPropertyOp3
70
1
102
RTVSPropertyOp4
70
1
102
RTVSPropertyOp5
70
1
102
RTVSPropertyOp6
70
1
102
RTVSPropertyOp7
70
1
102
RTVSPropertyOp8
70
1
102
RTVSPropertyOp9
70
1
102
RTVSPropertyOp10
70
1
102
RTVSPropertyOp11
70
1
102
RTVSPropertyOp12
70
1
102
RTVSPropertyOp13
70
1
102
RTVSPropertyOp14
70
1
102
RTVSPropertyOp15
70
1
102
RTVSPropertyOp16
70
1
102
RTVSPropertyOp17
70
1
102
RTVSPropertyOp18
70
1
102
RTVSPropertyOp19
70
1
102
RTVSPropertyOp20
70
1
102
RTVSPropertyOp21
70
1
102
RTVSPropertyOp22
70
1
102
RTVSPropertyOp23
70
1
102
RTVSPropertyOp24
70
1
102
RTVSPropertyOp25
70
1
102
RTVSPropertyOp26
70
1
102
RTVSPropertyOp27
70
1
0
ENDSEC
0
EOF
