0
SECTION
2
HEADER
9
$ACADVER
1
AC1015
9
$ACADMAINTVER
70
20
9
$DWGCODEPAGE
3
ANSI_1252
9
$INSBASE
10
0.0
20
0.0
30
0.0
9
$EXTMIN
10
-150.000000000000
20
-105.000000000000
30
0.0
9
$EXTMAX
10
150.000000000000
20
105.000000000000
30
0.0
9
$LIMMIN
10
0.0
20
0.0
9
$LIMMAX
10
12.0
20
9.0
9
$ORTHOMODE
70
0
9
$REGENMODE
70
1
9
$FILLMODE
70
1
9
$QTEXTMODE
70
0
9
$MIRRTEXT
70
1
9
$LTSCALE
40
1.0
9
$ATTMODE
70
1
9
$TEXTSIZE
40
0.2
9
$TRACEWID
40
0.05
9
$TEXTSTYLE
7
Standard
9
$CLAYER
8
0
9
$CELTYPE
6
ByLayer
9
$CECOLOR
62
256
9
$CELTSCALE
40
1.0
9
$DISPSILH
70
0
9
$DIMSCALE
40
1.0
9
$DIMASZ
40
2.5
9
$DIMEXO
40
0.625
9
$DIMDLI
40
0.38
9
$DIMRND
40
0.0
9
$DIMDLE
40
0.0
9
$DIMEXE
40
1.25
9
$DIMTP
40
0.0
9
$DIMTM
40
0.000000001
9
$DIMTXT
40
2.5
9
$DIMCEN
40
0.09
9
$DIMTSZ
40
0.0
9
$DIMTOL
70
1
9
$DIMLIM
70
0
9
$DIMTIH
70
0
9
$DIMTOH
70
0
9
$DIMSE1
70
0
9
$DIMSE2
70
0
9
$DIMTAD
70
1
9
$DIMZIN
70
0
9
$DIMBLK
1
VDDIM_DEFAULT
9
$DIMASO
70
1
9
$DIMSHO
70
1
9
$DIMPOST
1

9
$DIMAPOST
1

9
$DIMALT
70
0
9
$DIMALTD
70
2
9
$DIMALTF
40
25.4
9
$DIMLFAC
40
1.00000000000000
9
$DIMTOFL
70
0
9
$DIMTVP
40
0.0
9
$DIMTIX
70
0
9
$DIMSOXD
70
0
9
$DIMSAH
70
0
9
$DIMBLK1
1

9
$DIMBLK2
1

9
$DIMSTYLE
2
BEM-ISBE
9
$DIMCLRD
70
0
9
$DIMCLRE
70
0
9
$DIMCLRT
70
0
9
$DIMTFAC
40
0.5
9
$DIMGAP
40
0.625
9
$DIMJUST
70
0
9
$DIMSD1
70
0
9
$DIMSD2
70
0
9
$DIMTOLJ
70
1
9
$DIMTZIN
70
0
9
$DIMALTZ
70
0
9
$DIMALTTZ
70
0
9
$DIMUPT
70
0
9
$DIMDEC
70
3
9
$DIMTDEC
70
3
9
$DIMALTU
70
2
9
$DIMALTTD
70
2
9
$DIMTXSTY
7
Standard
9
$DIMAUNIT
70
0
9
$DIMADEC
70
3
9
$DIMALTRND
40
0.0
9
$DIMAZIN
70
0
9
$DIMDSEP
70
46
9
$DIMATFIT
70
3
9
$DIMFRAC
70
0
9
$DIMLDRBLK
1

9
$DIMLUNIT
70
2
9
$DIMLWD
70
-2
9
$DIMLWE
70
-2
9
$DIMTMOVE
70
0
9
$LUNITS
70
2
9
$LUPREC
70
4
9
$SKETCHINC
40
0.1
9
$FILLETRAD
40
0.5
9
$AUNITS
70
0
9
$AUPREC
70
0
9
$MENU
1
.
9
$ELEVATION
40
0.0
9
$PELEVATION
40
0.0
9
$THICKNESS
40
0.0
9
$LIMCHECK
70
0
9
$CHAMFERA
40
0.5
9
$CHAMFERB
40
0.5
9
$CHAMFERC
40
1.0
9
$CHAMFERD
40
0.0
9
$SKPOLY
70
0
9
$TDCREATE
40
0.0
9
$TDUCREATE
40
0.0
9
$TDUPDATE
40
0.0
9
$TDUUPDATE
40
0.0
9
$TDINDWG
40
0.0
9
$TDUSRTIMER
40
0.0
9
$USRTIMER
70
1
9
$ANGBASE
50
0.0
9
$ANGDIR
70
0
9
$PDMODE
70
0
9
$PDSIZE
40
0.0
9
$PLINEWID
40
0.0
9
$SPLFRAME
70
0
9
$SPLINETYPE
70
6
9
$SPLINESEGS
70
8
9
$HANDSEED
5
10AB
9
$SURFTAB1
70
6
9
$SURFTAB2
70
6
9
$SURFTYPE
70
6
9
$SURFU
70
6
9
$SURFV
70
6
9
$UCSBASE
2

9
$UCSNAME
2

9
$UCSORG
10
0.0
20
0.0
30
0.0
9
$UCSXDIR
10
1.0
20
0.0
30
0.0
9
$UCSYDIR
10
0.0
20
1.0
30
0.0
9
$UCSORTHOREF
2

9
$UCSORTHOVIEW
70
0
9
$UCSORGTOP
10
0.0
20
0.0
30
0.0
9
$UCSORGBOTTOM
10
0.0
20
0.0
30
0.0
9
$UCSORGLEFT
10
0.0
20
0.0
30
0.0
9
$UCSORGRIGHT
10
0.0
20
0.0
30
0.0
9
$UCSORGFRONT
10
0.0
20
0.0
30
0.0
9
$UCSORGBACK
10
0.0
20
0.0
30
0.0
9
$PUCSBASE
2

9
$PUCSNAME
2

9
$PUCSORG
10
0.0
20
0.0
30
0.0
9
$PUCSXDIR
10
1.0
20
0.0
30
0.0
9
$PUCSYDIR
10
0.0
20
1.0
30
0.0
9
$PUCSORTHOREF
2

9
$PUCSORTHOVIEW
70
0
9
$PUCSORGTOP
10
0.0
20
0.0
30
0.0
9
$PUCSORGBOTTOM
10
0.0
20
0.0
30
0.0
9
$PUCSORGLEFT
10
0.0
20
0.0
30
0.0
9
$PUCSORGRIGHT
10
0.0
20
0.0
30
0.0
9
$PUCSORGFRONT
10
0.0
20
0.0
30
0.0
9
$PUCSORGBACK
10
0.0
20
0.0
30
0.0
9
$USERI1
70
0
9
$USERI2
70
0
9
$USERI3
70
0
9
$USERI4
70
0
9
$USERI5
70
0
9
$USERR1
40
0.0
9
$USERR2
40
0.0
9
$USERR3
40
0.0
9
$USERR4
40
0.0
9
$USERR5
40
0.0
9
$WORLDVIEW
70
1
9
$SHADEDGE
70
3
9
$SHADEDIF
70
70
9
$TILEMODE
70
1
9
$MAXACTVP
70
64
9
$PINSBASE
10
0.0
20
0.0
30
0.0
9
$PLIMCHECK
70
0
9
$PEXTMIN
10
1.000000000000000E+20
20
1.000000000000000E+20
30
1.000000000000000E+20
9
$PEXTMAX
10
-1.000000000000000E+20
20
-1.000000000000000E+20
30
-1.000000000000000E+20
9
$PLIMMIN
10
0.0
20
0.0
9
$PLIMMAX
10
12.0
20
9.0
9
$UNITMODE
70
0
9
$VISRETAIN
70
1
9
$PLINEGEN
70
0
9
$PSLTSCALE
70
1
9
$TREEDEPTH
70
3020
9
$CMLSTYLE
2
Standard
9
$CMLJUST
70
0
9
$CMLSCALE
40
1.0
9
$PROXYGRAPHICS
70
1
9
$MEASUREMENT
70
0
9
$CELWEIGHT
370
-1
9
$ENDCAPS
280
0
9
$JOINSTYLE
280
0
9
$LWDISPLAY
290
0
9
$INSUNITS
70
4
9
$HYPERLINKBASE
1

9
$STYLESHEET
1

9
$XEDIT
290
1
9
$CEPSNTYPE
380
0
9
$PSTYLEMODE
290
0
9
$FINGERPRINTGUID
2
{FAEB1C30-E019-11D5-929B-00C0DF256EC4}
9
$VERSIONGUID
2
{04C5C4E4-4947-4D90-8812-D401569E61F7}
9
$EXTNAMES
290
1
9
$PSVPSCALE
40
0.0
9
$OLESTARTUP
290
0
0
ENDSEC
0
SECTION
2
CLASSES
0
CLASS
1
ACDBDICTIONARYWDFLT
2
AcDbDictionaryWithDefault
3
ObjectDBX Classes
90
0
280
0
281
0
0
CLASS
1
ACDBPLACEHOLDER
2
AcDbPlaceHolder
3
ObjectDBX Classes
90
0
280
0
281
0
0
CLASS
1
LAYOUT
2
AcDbLayout
3
ObjectDBX Classes
90
0
280
0
281
0
0
CLASS
1
MATERIAL
2
AcDbMaterial
3
ObjectDBX Classes
90
1153
280
0
281
0
0
CLASS
1
VISUALSTYLE
2
AcDbVisualStyle
3
ObjectDBX Classes
90
4095
280
0
281
0
0
CLASS
1
TABLESTYLE
2
AcDbTableStyle
3
ObjectDBX Classes
90
4095
280
0
281
0
0
CLASS
1
SCALE
2
AcDbScale
3
ObjectDBX Classes
90
1153
280
0
281
0
0
CLASS
1
MLEADERSTYLE
2
AcDbMLeaderStyle
3
ACDB_MLEADERSTYLE_CLASS
90
4095
280
0
281
0
0
CLASS
1
DICTIONARYVAR
2
AcDbDictionaryVar
3
ObjectDBX Classes
90
0
280
0
281
0
0
CLASS
1
CELLSTYLEMAP
2
AcDbCellStyleMap
3
ObjectDBX Classes
90
1152
280
0
281
0
0
ENDSEC
0
SECTION
2
TABLES
0
TABLE
2
VPORT
5
24A
330
0
100
AcDbSymbolTable
70
1
0
VPORT
5
26B
330
24A
100
AcDbSymbolTableRecord
100
AcDbViewportTableRecord
2
*Active
70
0
10
0.0
20
0.0
11
1.0
21
1.0
12
0.000000000000000
22
0.000000000000000
13
0.0
23
0.0
14
10.0
24
10.0
15
10.0
25
10.0
16
0.0
26
0.0
36
1.0
17
0.0
27
0.0
37
0.0
40
210.000000000000
41
1.42857142857143
42
1.0
43
0.0
44
0.0
50
0.0
51
0.0000000000007958
71
0
72
100
73
1
74
3
75
0
76
0
77
0
78
1
281
0
65
1
110
0.0
120
0.0
130
0.0
111
1.0
121
0.0
131
0.0
112
0.0
122
1.0
132
0.0
79
0
146
0.0
0
ENDTAB
0
TABLE
2
LTYPE
5
247
330
0
100
AcDbSymbolTable
70
25
0
LTYPE
5
256
330
247
100
AcDbSymbolTableRecord
100
AcDbLinetypeTableRecord
2
ByBlock
70
0
3

72
65
73
0
40
0.0
0
LTYPE
5
257
330
247
100
AcDbSymbolTableRecord
100
AcDbLinetypeTableRecord
2
ByLayer
70
0
3

72
65
73
0
40
0.0
0
LTYPE
5
258
330
247
100
AcDbSymbolTableRecord
100
AcDbLinetypeTableRecord
2
Continuous
70
0
3
Solid line
72
65
73
0
40
0.0
0
LTYPE
5
273
330
247
100
AcDbSymbolTableRecord
100
AcDbLinetypeTableRecord
2
CENTER
70
0
3
Center ____ _ ____ _ ____ _ ____ _ ____ _ ____
72
65
73
4
40
2.0
49
1.25
74
0
49
-0.25
74
0
49
0.25
74
0
49
-0.25
74
0
0
LTYPE
5
274
330
247
100
AcDbSymbolTableRecord
100
AcDbLinetypeTableRecord
2
DASHDOT
70
0
3
Dashdot __ . __ . __ . __ . __ . __ . __ . __
72
65
73
4
40
1.0
49
0.5
74
0
49
-0.25
74
0
49
0.0
74
0
49
-0.25
74
0
0
LTYPE
5
275
330
247
100
AcDbSymbolTableRecord
100
AcDbLinetypeTableRecord
2
DASHED
70
0
3
Dashed __ __ __ __ __ __ __ __ __ __ __ __ __ _
72
65
73
2
40
0.75
49
0.5
74
0
49
-0.25
74
0
0
LTYPE
5
276
330
247
100
AcDbSymbolTableRecord
100
AcDbLinetypeTableRecord
2
HIDDEN
70
0
3
Hidden __ __ __ __ __ __ __ __ __ __ __ __ __ __
72
65
73
2
40
0.375
49
0.25
74
0
49
-0.125
74
0
0
LTYPE
5
277
330
247
100
AcDbSymbolTableRecord
100
AcDbLinetypeTableRecord
2
HIDDEN2
70
0
3
Hidden2 _ _ _ _ _ _ _ _ _ _ _ _ _ _ _ _ _
72
65
73
2
40
0.1875
49
0.125
74
0
49
-0.0625
74
0
0
LTYPE
5
278
330
247
100
AcDbSymbolTableRecord
100
AcDbLinetypeTableRecord
2
BORDER
70
0
3
Border __ __ . __ __ . __ __ . __ __ . __ __ .
72
65
73
6
40
1.75
49
0.5
74
0
49
-0.25
74
0
49
0.5
74
0
49
-0.25
74
0
49
0.0
74
0
49
-0.25
74
0
0
LTYPE
5
279
330
247
100
AcDbSymbolTableRecord
100
AcDbLinetypeTableRecord
2
BORDER2
70
0
3
Border2 __.__.__.__.__.__.__.__.__.__.__.
72
65
73
6
40
0.875
49
0.25
74
0
49
-0.125
74
0
49
0.25
74
0
49
-0.125
74
0
49
0.0
74
0
49
-0.125
74
0
0
LTYPE
5
27A
330
247
100
AcDbSymbolTableRecord
100
AcDbLinetypeTableRecord
2
BORDERX2
70
0
3
Borderx2  ____  ____  .  ____  ____  .  ___
72
65
73
6
40
3.5
49
1.0
74
0
49
-0.5
74
0
49
1.0
74
0
49
-0.5
74
0
49
0.0
74
0
49
-0.5
74
0
0
LTYPE
5
27B
330
247
100
AcDbSymbolTableRecord
100
AcDbLinetypeTableRecord
2
CENTER2
70
0
3
Center2  ___ _ ___ _ ___ _ ___ _ ___ _ ___
72
65
73
4
40
1.125
49
0.75
74
0
49
-0.125
74
0
49
0.125
74
0
49
-0.125
74
0
0
LTYPE
5
27C
330
247
100
AcDbSymbolTableRecord
100
AcDbLinetypeTableRecord
2
CENTERX2
70
0
3
Centerx2  ________  __  ________  __  _____
72
65
73
4
40
4.0
49
2.5
74
0
49
-0.5
74
0
49
0.5
74
0
49
-0.5
74
0
0
LTYPE
5
27D
330
247
100
AcDbSymbolTableRecord
100
AcDbLinetypeTableRecord
2
DASHDOT2
70
0
3
Dashdot2  _._._._._._._._._._._._._._._.
72
65
73
4
40
0.5
49
0.25
74
0
49
-0.125
74
0
49
0.0
74
0
49
-0.125
74
0
0
LTYPE
5
27E
330
247
100
AcDbSymbolTableRecord
100
AcDbLinetypeTableRecord
2
DASHDOTX2
70
0
3
Dashdotx2 ____  .  ____  .  ____  .  ___
72
65
73
4
40
2.0
49
1.0
74
0
49
-0.5
74
0
49
0.0
74
0
49
-0.5
74
0
0
LTYPE
5
27F
330
247
100
AcDbSymbolTableRecord
100
AcDbLinetypeTableRecord
2
DASHED2
70
0
3
Dashed2 _ _ _ _ _ _ _ _ _ _ _ _ _ _ _ _ _
72
65
73
2
40
0.375
49
0.25
74
0
49
-0.125
74
0
0
LTYPE
5
280
330
247
100
AcDbSymbolTableRecord
100
AcDbLinetypeTableRecord
2
DASHEDX2
70
0
3
Dashedx2 ____  ____  ____  ____  ____  ___
72
65
73
2
40
1.5
49
1.0
74
0
49
-0.5
74
0
0
LTYPE
5
281
330
247
100
AcDbSymbolTableRecord
100
AcDbLinetypeTableRecord
2
DIVIDE
70
0
3
Divide ____ . . ____ . . ____ . . ____ . . ____
72
65
73
6
40
1.25
49
0.5
74
0
49
-0.25
74
0
49
0.0
74
0
49
-0.25
74
0
49
0.0
74
0
49
-0.25
74
0
0
LTYPE
5
282
330
247
100
AcDbSymbolTableRecord
100
AcDbLinetypeTableRecord
2
DIVIDE2
70
0
3
Divide2 __..__..__..__..__..__..__..__.._
72
65
73
6
40
0.625
49
0.25
74
0
49
-0.125
74
0
49
0.0
74
0
49
-0.125
74
0
49
0.0
74
0
49
-0.125
74
0
0
LTYPE
5
283
330
247
100
AcDbSymbolTableRecord
100
AcDbLinetypeTableRecord
2
DIVIDEX2
70
0
3
Dividex2 ________  .  .  ________  .  .  _
72
65
73
6
40
2.5
49
1.0
74
0
49
-0.5
74
0
49
0.0
74
0
49
-0.5
74
0
49
0.0
74
0
49
-0.5
74
0
0
LTYPE
5
284
330
247
100
AcDbSymbolTableRecord
100
AcDbLinetypeTableRecord
2
DOT
70
0
3
Dot . . . . . . . . . . . . . . . . . . . . . . . .
72
65
73
2
40
0.25
49
0.0
74
0
49
-0.25
74
0
0
LTYPE
5
285
330
247
100
AcDbSymbolTableRecord
100
AcDbLinetypeTableRecord
2
DOT2
70
0
3
Dot2 ........................................
72
65
73
2
40
0.125
49
0.0
74
0
49
-0.125
74
0
0
LTYPE
5
286
330
247
100
AcDbSymbolTableRecord
100
AcDbLinetypeTableRecord
2
DOTX2
70
0
3
Dotx2 .  .  .  .  .  .  .  .  .  .  .  .  .  .
72
65
73
2
40
0.5
49
0.0
74
0
49
-0.5
74
0
0
LTYPE
5
287
330
247
100
AcDbSymbolTableRecord
100
AcDbLinetypeTableRecord
2
HIDDENX2
70
0
3
Hiddenx2 ____ ____ ____ ____ ____ ____ ____
72
65
73
2
40
0.75
49
0.5
74
0
49
-0.25
74
0
0
LTYPE
5
288
330
247
100
AcDbSymbolTableRecord
100
AcDbLinetypeTableRecord
2
PHANTOM
70
0
3
Phantom ______  __  __  ______  __  __  ______
72
65
73
6
40
2.5
49
1.25
74
0
49
-0.25
74
0
49
0.25
74
0
49
-0.25
74
0
49
0.25
74
0
49
-0.25
74
0
0
LTYPE
5
289
330
247
100
AcDbSymbolTableRecord
100
AcDbLinetypeTableRecord
2
PHANTOM2
70
0
3
Phantom2 ___ _ _ ___ _ _ ___ _ _ ___ _ _
72
65
73
6
40
1.25
49
0.625
74
0
49
-0.125
74
0
49
0.125
74
0
49
-0.125
74
0
49
0.125
74
0
49
-0.125
74
0
0
LTYPE
5
28A
330
247
100
AcDbSymbolTableRecord
100
AcDbLinetypeTableRecord
2
PHANTOMX2
70
0
3
Phantomx2 ____________    ____    ____   _
72
65
73
6
40
5.0
49
2.5
74
0
49
-0.5
74
0
49
0.5
74
0
49
-0.5
74
0
49
0.5
74
0
49
-0.5
74
0
0
ENDTAB
0
TABLE
2
LAYER
5
244
330
0
100
AcDbSymbolTable
70
6
0
LAYER
5
252
330
244
100
AcDbSymbolTableRecord
100
AcDbLayerTableRecord
2
0
70
0
62
7
6
Continuous
370
0
390
251
0
LAYER
5
23F
330
244
100
AcDbSymbolTableRecord
100
AcDbLayerTableRecord
2
Bemassung
70
0
 62
   7
6
Continuous
370
0
390
251
0
LAYER
5
240
330
244
100
AcDbSymbolTableRecord
100
AcDbLayerTableRecord
2
Rahmen
70
0
 62
   7
6
Continuous
370
0
390
251
0
LAYER
5
241
330
244
100
AcDbSymbolTableRecord
100
AcDbLayerTableRecord
2
Geo
70
0
 62
   7
6
Continuous
370
0
390
251
0
LAYER
5
33A
330
244
100
AcDbSymbolTableRecord
100
AcDbLayerTableRecord
2
Defpoints
70
0
62
7
6
Continuous
290
0
370
-3
390
251
0
LAYER
5
57E
330
244
100
AcDbSymbolTableRecord
100
AcDbLayerTableRecord
2
Text
70
0
 62
   7
6
Continuous
370
0
390
251
1001
AcAecLayerStandard
1000

1000

0
ENDTAB
0
TABLE
2
STYLE
5
245
330
0
100
AcDbSymbolTable
70
2
0
STYLE
5
253
330
245
100
AcDbSymbolTableRecord
100
AcDbTextStyleTableRecord
2
Standard
70
0
40
0.0
41
1.0
50
0.0
71
0
42
0.2
3
Arial
4

1001
ACAD
1000
Arial
1071
0
0
STYLE
5
132
330
245
100
AcDbSymbolTableRecord
100
AcDbTextStyleTableRecord
2
Beschriftung
70
0
40
0.0
41
1.0
50
0.0
71
0
42
0.2
3
Arial
4

1001
ACAD
1000
Arial
1071
0
1001
AcadAnnotative
1000
AnnotativeData
1070
1
1070
1
0
ENDTAB
0
TABLE
2
VIEW
5
248
330
0
100
AcDbSymbolTable
70
0
0
ENDTAB
0
TABLE
2
UCS
5
249
330
0
100
AcDbSymbolTable
70
0
0
ENDTAB
0
TABLE
2
APPID
5
24B
330
0
100
AcDbSymbolTable
70
13
0
APPID
5
254
330
24B
100
AcDbSymbolTableRecord
100
AcDbRegAppTableRecord
2
ACAD
70
0
0
APPID
5
26C
330
24B
100
AcDbSymbolTableRecord
100
AcDbRegAppTableRecord
2
VD_INVISIBLE_NOT_FOR_READ
70
0
0
APPID
5
26D
330
24B
100
AcDbSymbolTableRecord
100
AcDbRegAppTableRecord
2
VD_TEMPHATCH
70
0
0
APPID
5
26E
330
24B
100
AcDbSymbolTableRecord
100
AcDbRegAppTableRecord
2
VDEXTRAPARAM
70
0
0
APPID
5
26F
330
24B
100
AcDbSymbolTableRecord
100
AcDbRegAppTableRecord
2
PE_URL
70
0
0
APPID
5
270
330
24B
100
AcDbSymbolTableRecord
100
AcDbRegAppTableRecord
2
VD_UNKNOWN
70
0
0
APPID
5
28F
330
24B
100
AcDbSymbolTableRecord
100
AcDbRegAppTableRecord
2
AcadAnnotative
70
0
0
APPID
5
290
330
24B
100
AcDbSymbolTableRecord
100
AcDbRegAppTableRecord
2
ACAD_DSTYLE_DIMJAG
70
0
0
APPID
5
291
330
24B
100
AcDbSymbolTableRecord
100
AcDbRegAppTableRecord
2
ACAD_DSTYLE_DIMTALN
70
0
0
APPID
5
293
330
24B
100
AcDbSymbolTableRecord
100
AcDbRegAppTableRecord
2
ACAD_PSEXT
70
0
0
APPID
5
42A
330
24B
100
AcDbSymbolTableRecord
100
AcDbRegAppTableRecord
2
ACAD_MLEADERVER
70
0
0
APPID
5
532
330
24B
100
AcDbSymbolTableRecord
100
AcDbRegAppTableRecord
2
ACAD_EXEMPT_FROM_CAD_STANDARDS
70
0
0
APPID
5
57F
330
24B
100
AcDbSymbolTableRecord
100
AcDbRegAppTableRecord
2
AcAecLayerStandard
70
0
0
ENDTAB
0
TABLE
2
DIMSTYLE
5
24C
330
0
100
AcDbSymbolTable
70
3
100
AcDbDimStyleTable
71
2
340
27
340
269
0
DIMSTYLE
105
269
330
24C
100
AcDbSymbolTableRecord
100
AcDbDimStyleTableRecord
2
Standard
70
0
172
1
174
1
288
1
340
253
342
23C
0
DIMSTYLE
105
137
330
24C
100
AcDbSymbolTableRecord
100
AcDbDimStyleTableRecord
2
Beschriftung
70
0
41
2.5
42
0.625
44
1.25
73
0
74
0
77
1
140
2.5
147
0.625
172
1
174
1
271
2
288
1
340
253
342
23C
1001
AcadAnnotative
1000
AnnotativeData
1070
1
1070
1
1001
ACAD_DSTYLE_DIMJAG
1070
388
1040
1.5
1001
ACAD_DSTYLE_DIMTALN
1070
392
1070
0
0
DIMSTYLE
105
27
102
{ACAD_REACTORS
330
F10008
330
F1000D
330
F10003
102
}
330
24C
100
AcDbSymbolTableRecord
100
AcDbDimStyleTableRecord
2
BEM-ISBE
70
0
41
2.5
42
0.625
44
1.25
48
0.000000001
71
1
73
0
74
0
77
1
140
2.5
144
1.00000000000000
146
0.5
147
0.625
171
 3
172
 1
179
 3
271
 3
272
 3
274
 3
340
253
342
23C
1001
ACAD_DSTYLE_DIMJAG
1070
388
1040
1.5
1001
ACAD_DSTYLE_DIMTALN
1070
392
1070
1
0
ENDTAB
0
TABLE
2
BLOCK_RECORD
5
243
330
0
100
AcDbSymbolTable
70
5
0
BLOCK_RECORD
5
261
330
243
100
AcDbSymbolTableRecord
100
AcDbBlockTableRecord
2
*Model_Space
340
FD0
0
BLOCK_RECORD
5
25D
330
243
100
AcDbSymbolTableRecord
100
AcDbBlockTableRecord
2
*Paper_Space
340
FD1
0
BLOCK_RECORD
5
265
330
243
100
AcDbSymbolTableRecord
100
AcDbBlockTableRecord
2
*Paper_Space0
340
0
0
BLOCK_RECORD
5
23C
330
243
100
AcDbSymbolTableRecord
100
AcDbBlockTableRecord
2
VDDIM_DEFAULT
340
0
102
{BLKREFS
102
}
0
BLOCK_RECORD
5
23E
330
243
100
AcDbSymbolTableRecord
100
AcDbBlockTableRecord
2
VDDIM_NONE
340
0
0
BLOCK_RECORD
5
F10007
330
243
100
AcDbSymbolTableRecord
100
AcDbBlockTableRecord
2
*D4
340
0
0
BLOCK_RECORD
5
F1000C
330
243
100
AcDbSymbolTableRecord
100
AcDbBlockTableRecord
2
*D5
340
0
0
BLOCK_RECORD
5
F10002
330
243
100
AcDbSymbolTableRecord
100
AcDbBlockTableRecord
2
*D3
340
0
0
ENDTAB
0
ENDSEC
0
SECTION
2
BLOCKS
0
BLOCK
5
262
330
261
100
AcDbEntity
8
0
100
AcDbBlockBegin
2
*Model_Space
70
0
10
0.0
20
0.0
30
0.0
3
*Model_Space
1

0
ENDBLK
5
263
330
261
100
AcDbEntity
8
0
100
AcDbBlockEnd
0
BLOCK
5
25E
330
25D
100
AcDbEntity
67
1
8
0
100
AcDbBlockBegin
2
*Paper_Space
70
0
10
0.0
20
0.0
30
0.0
3
*Paper_Space
1

0
ENDBLK
5
25F
330
25D
100
AcDbEntity
67
1
8
0
100
AcDbBlockEnd
0
BLOCK
5
266
330
265
100
AcDbEntity
8
0
100
AcDbBlockBegin
2
*Paper_Space0
70
0
10
0.0
20
0.0
30
0.0
3
*Paper_Space0
1

0
VIEWPORT
5
296
102
{ACAD_XDICTIONARY
360
58E
102
}
330
265
100
AcDbEntity
8
0
60
1
100
AcDbViewport
10
0.0
20
0.0
30
0.0
40
10.0
41
10.0
69
0
12
0.0
22
0.0
13
0.0
23
0.0
14
1.0
24
1.0
15
0.0
25
0.0
16
0.0
26
0.0
36
1.0
17
0.0
27
0.0
37
0.0
42
0.0
43
0.0
44
0.0
45
10.0
50
0.0
51
0.0000000000007958
72
100
90
163872
1

281
0
71
0
74
0
110
0.0
120
0.0
130
0.0
111
1.0
121
0.0
131
0.0
112
0.0
122
1.0
132
0.0
79
0
146
0.0
1001
VD_INVISIBLE_NOT_FOR_READ
1000
VD_INVISIBLE_NOT_FOR_READ
0
VIEWPORT
5
297
102
{ACAD_XDICTIONARY
360
590
102
}
330
265
100
AcDbEntity
8
0
60
1
100
AcDbViewport
10
0.0
20
0.0
30
0.0
40
10.0
41
10.0
69
0
12
0.0
22
0.0
13
0.0
23
0.0
14
1.0
24
1.0
15
0.0
25
0.0
16
0.0
26
0.0
36
1.0
17
0.0
27
0.0
37
0.0
42
0.0
43
0.0
44
0.0
45
10.0
50
0.0
51
0.0000000000007958
72
100
90
163872
1

281
0
71
0
74
0
110
0.0
120
0.0
130
0.0
111
1.0
121
0.0
131
0.0
112
0.0
122
1.0
132
0.0
79
0
146
0.0
1001
VD_INVISIBLE_NOT_FOR_READ
1000
VD_INVISIBLE_NOT_FOR_READ
0
ENDBLK
5
267
330
265
100
AcDbEntity
8
0
100
AcDbBlockEnd
0
BLOCK
5
28B
330
23C
100
AcDbEntity
8
0
100
AcDbBlockBegin
2
VDDIM_DEFAULT
70
0
10
0.0
20
0.0
30
0.0
3
VDDIM_DEFAULT
1

0
LWPOLYLINE
5
23D
330
23C
100
AcDbEntity
8
0
6
Continuous
62
0
100
AcDbPolyline
90
4
70
0
43
0.0
10
0.0
20
0.0
10
-1.0
20
-0.1665
10
-1.0
20
0.1665
10
0.0
20
0.0
1001
VDEXTRAPARAM
1071
1
1071
0
1071
0
1040
1.0
1000

1000

1040
0.0
1040
0.0
0
HATCH
5
292
330
23C
100
AcDbEntity
8
0
6
Continuous
62
0
100
AcDbHatch
10
0.0
20
0.0
30
0.0
210
0.0
220
0.0
230
1.0
2
SOLID
70
1
71
0
91
1
92
2
72
0
73
1
93
3
10
0.0
20
0.0
10
-1.0
20
-0.1665
10
-1.0
20
0.1665
97
0
75
0
76
1
98
1
10
0.0
20
0.0
1001
VDEXTRAPARAM
1071
1
1071
0
1071
0
1040
1.0
1000

1000

1040
0.0
1040
0.0
1001
VD_TEMPHATCH
1000
VD_TEMPHATCH
0
ENDBLK
5
28C
330
23C
100
AcDbEntity
8
0
100
AcDbBlockEnd
0
BLOCK
5
28D
330
23E
100
AcDbEntity
8
0
100
AcDbBlockBegin
2
VDDIM_NONE
70
0
10
0.0
20
0.0
30
0.0
3
VDDIM_NONE
1

0
ENDBLK
5
28E
330
23E
100
AcDbEntity
8
0
100
AcDbBlockEnd
  0
BLOCK
  5
F10011
330
F10007
100
AcDbEntity
  8
0
100
AcDbBlockBegin
  2
*D4
 70
     1
 10
0.0
 20
0.0
 30
0.0
  3
*D4
  1

  0
LINE
  5
F10012
330
F10007
100
AcDbEntity
  8
Bemassung
 62
     0
370
    -2
100
AcDbLine
10
-16.1294591484465
20
-6.79171461449944
30
0.000000000000000
11
-16.1294591484465
21
-13.7917146144994
31
0.000000000000000
  0
LINE
  5
F10013
330
F10007
100
AcDbEntity
  8
Bemassung
 62
     0
370
    -2
100
AcDbLine
10
-36.1294591484465
20
-13.7917146144994
30
0.000000000000000
11
-36.1294591484465
21
21.2082853855006
31
0.000000000000000
  0
LINE
  5
F10014
330
F10007
100
AcDbEntity
  8
Bemassung
 62
     0
370
    -2
100
AcDbLine
10
-16.1294591484465
20
-11.7917146144994
30
0.000000000000000
11
-36.1294591484465
21
-11.7917146144994
31
0.000000000000000
  0
INSERT
  5
F10015
330
F10007
100
AcDbEntity
  8
Bemassung
 62
     0
370
    -2
100
AcDbBlockReference
  2
VDDIM_DEFAULT
10
-16.1294591484465
20
-11.7917146144994
30
0.000000000000000
 41
2.50000000000000
 42
2.50000000000000
 43
2.50000000000000
  0
INSERT
  5
F10016
330
F10007
100
AcDbEntity
  8
Bemassung
 62
     0
370
    -2
100
AcDbBlockReference
  2
VDDIM_DEFAULT
10
-36.1294591484465
20
-11.7917146144994
30
0.000000000000000
 41
2.50000000000000
 42
2.50000000000000
 43
2.50000000000000
 50
180.000000000000
  0
MTEXT
  5
F10017
330
F10007
100
AcDbEntity
  8
Bemassung
 62
     0
100
AcDbMText
10
-26.1294591484465
20
-11.1250479478328
30
0.000000000000000
 40
2.50000000000000
 41
0.0
 71
     8
 72
     1
  1
20
 11
1.00000000000000
 21
0.000000000000000
 31
0.0
 73
     1
 44
1.0
1001
ACAD
1000
MTEXTBEGIN
1070
73
1070
1
1070
44
1040
1.0
1070
74
1070
0
1000
MTEXTEND
  0
POINT
  5
F10018
330
F10007
100
AcDbEntity
  8
Bemassung
 62
     0
100
AcDbPoint
10
-16.1294591484465
20
-6.79171461449944
30
0.000000000000000
  0
POINT
  5
F10019
330
F10007
100
AcDbEntity
  8
Bemassung
 62
     0
100
AcDbPoint
10
-36.1294591484465
20
-13.7917146144994
30
0.000000000000000
  0
ENDBLK
  5
F1001A
330
F10007
100
AcDbEntity
  8
0
100
AcDbBlockEnd
  0
BLOCK
  5
F1001B
330
F1000C
100
AcDbEntity
  8
0
100
AcDbBlockBegin
  2
*D5
 70
     1
 10
0.0
 20
0.0
 30
0.0
  3
*D5
  1

  0
LINE
  5
F1001C
330
F1000C
100
AcDbEntity
  8
Bemassung
 62
     0
370
    -2
100
AcDbLine
10
46.8705408515535
20
8.50828538550056
30
0.000000000000000
11
46.8705408515535
21
21.2082853855006
31
0.000000000000000
  0
LINE
  5
F1001D
330
F1000C
100
AcDbEntity
  8
Bemassung
 62
     0
370
    -2
100
AcDbLine
10
-36.1294591484465
20
-13.7917146144994
30
0.000000000000000
11
-36.1294591484465
21
21.2082853855006
31
0.000000000000000
  0
LINE
  5
F1001E
330
F1000C
100
AcDbEntity
  8
Bemassung
 62
     0
370
    -2
100
AcDbLine
10
46.8705408515535
20
19.2082853855006
30
0.000000000000000
11
-36.1294591484465
21
19.2082853855006
31
0.000000000000000
  0
INSERT
  5
F1001F
330
F1000C
100
AcDbEntity
  8
Bemassung
 62
     0
370
    -2
100
AcDbBlockReference
  2
VDDIM_DEFAULT
10
46.8705408515535
20
19.2082853855006
30
0.000000000000000
 41
2.50000000000000
 42
2.50000000000000
 43
2.50000000000000
  0
INSERT
  5
F10020
330
F1000C
100
AcDbEntity
  8
Bemassung
 62
     0
370
    -2
100
AcDbBlockReference
  2
VDDIM_DEFAULT
10
-36.1294591484465
20
19.2082853855006
30
0.000000000000000
 41
2.50000000000000
 42
2.50000000000000
 43
2.50000000000000
 50
180.000000000000
  0
MTEXT
  5
F10021
330
F1000C
100
AcDbEntity
  8
Bemassung
 62
     0
100
AcDbMText
10
5.37054085155353
20
19.8749520521672
30
0.000000000000000
 40
2.50000000000000
 41
0.0
 71
     8
 72
     1
  1
83
 11
1.00000000000000
 21
0.000000000000000
 31
0.0
 73
     1
 44
1.0
1001
ACAD
1000
MTEXTBEGIN
1070
73
1070
1
1070
44
1040
1.0
1070
74
1070
0
1000
MTEXTEND
  0
POINT
  5
F10022
330
F1000C
100
AcDbEntity
  8
Bemassung
 62
     0
100
AcDbPoint
10
46.8705408515535
20
8.50828538550056
30
0.000000000000000
  0
POINT
  5
F10023
330
F1000C
100
AcDbEntity
  8
Bemassung
 62
     0
100
AcDbPoint
10
-36.1294591484465
20
-13.7917146144994
30
0.000000000000000
  0
ENDBLK
  5
F10024
330
F1000C
100
AcDbEntity
  8
0
100
AcDbBlockEnd
  0
BLOCK
  5
F10025
330
F10002
100
AcDbEntity
  8
0
100
AcDbBlockBegin
  2
*D3
 70
     1
 10
0.0
 20
0.0
 30
0.0
  3
*D3
  1

  0
LINE
  5
F10026
330
F10002
100
AcDbEntity
  8
Bemassung
 62
     0
370
    -2
100
AcDbLine
10
-36.1294591484465
20
-6.79171461449944
30
0.000000000000000
11
-48.1294591484465
21
-6.79171461449944
31
0.000000000000000
  0
LINE
  5
F10027
330
F10002
100
AcDbEntity
  8
Bemassung
 62
     0
370
    -2
100
AcDbLine
10
-36.1294591484465
20
9.20828538550056
30
0.000000000000000
11
-48.1294591484465
21
9.20828538550056
31
0.000000000000000
  0
LINE
  5
F10028
330
F10002
100
AcDbEntity
  8
Bemassung
 62
     0
370
    -2
100
AcDbLine
10
-46.1294591484465
20
-6.79171461449944
30
0.000000000000000
11
-46.1294591484465
21
9.20828538550056
31
0.000000000000000
  0
INSERT
  5
F10029
330
F10002
100
AcDbEntity
  8
Bemassung
 62
     0
370
    -2
100
AcDbBlockReference
  2
VDDIM_DEFAULT
10
-46.1294591484465
20
-6.79171461449944
30
0.000000000000000
 41
2.50000000000000
 42
2.50000000000000
 43
2.50000000000000
 50
270.000000000000
  0
INSERT
  5
F1002A
330
F10002
100
AcDbEntity
  8
Bemassung
 62
     0
370
    -2
100
AcDbBlockReference
  2
VDDIM_DEFAULT
10
-46.1294591484465
20
9.20828538550056
30
0.000000000000000
 41
2.50000000000000
 42
2.50000000000000
 43
2.50000000000000
 50
90.0000000000000
  0
MTEXT
  5
F1002B
330
F10002
100
AcDbEntity
  8
Bemassung
 62
     0
100
AcDbMText
10
-46.7961258151131
20
1.20828538550056
30
0.000000000000000
 40
2.50000000000000
 41
0.0
 71
     8
 72
     1
  1
Ø16
 11
6.12323399573677e-17
 21
1.00000000000000
 31
0.0
 73
     1
 44
1.0
1001
ACAD
1000
MTEXTBEGIN
1070
73
1070
1
1070
44
1040
1.0
1070
74
1070
0
1000
MTEXTEND
  0
POINT
  5
F1002C
330
F10002
100
AcDbEntity
  8
Bemassung
 62
     0
100
AcDbPoint
10
-36.1294591484465
20
-6.79171461449944
30
0.000000000000000
  0
POINT
  5
F1002D
330
F10002
100
AcDbEntity
  8
Bemassung
 62
     0
100
AcDbPoint
10
-36.1294591484465
20
9.20828538550056
30
0.000000000000000
  0
ENDBLK
  5
F1002E
330
F10002
100
AcDbEntity
  8
0
100
AcDbBlockEnd
0
ENDSEC
0
SECTION
2
ENTITIES
  0
DIMENSION
  5
F10008
330
261
100
AcDbEntity
  8
Bemassung
100
AcDbDimension
  2
*D4
10
-36.1294591484465
20
-11.7917146144994
30
0.000000000000000
11
-26.1294591484465
21
-11.1250479478328
31
0.000000000000000
 70
32
 1
20
 71
     8
  3
BEM-ISBE
100
AcDbAlignedDimension
13
-16.1294591484465
23
-6.79171461449944
33
0.000000000000000
14
-36.1294591484465
24
-13.7917146144994
34
0.000000000000000
100
AcDbRotatedDimension
1001
ACAD
1000
DSTYLE
1002
{
1070
284
1070
8
1070
78
1070
8
1070
144
1040
1.00000000000000
1070
147
1040
0.625
1070
 72
1070
 0
1070
 71
1070
 0
1002
}
  0
DIMENSION
  5
F1000D
330
261
100
AcDbEntity
  8
Bemassung
100
AcDbDimension
  2
*D5
10
-36.1294591484465
20
19.2082853855006
30
0.000000000000000
11
5.37054085155353
21
19.8749520521672
31
0.000000000000000
 70
32
 1
83
 71
     8
  3
BEM-ISBE
100
AcDbAlignedDimension
13
46.8705408515535
23
8.50828538550056
33
0.000000000000000
14
-36.1294591484465
24
-13.7917146144994
34
0.000000000000000
100
AcDbRotatedDimension
1001
ACAD
1000
DSTYLE
1002
{
1070
284
1070
8
1070
78
1070
8
1070
144
1040
1.00000000000000
1070
147
1040
0.625
1070
 72
1070
 0
1070
 71
1070
 0
1002
}
  0
DIMENSION
  5
F10003
330
261
100
AcDbEntity
  8
Bemassung
100
AcDbDimension
  2
*D3
10
-46.1294591484465
20
9.20828538550056
30
0.000000000000000
11
-46.7961258151131
21
1.20828538550056
31
0.000000000000000
 70
32
 1
Ø16
 71
     8
  3
BEM-ISBE
100
AcDbAlignedDimension
13
-36.1294591484465
23
-6.79171461449944
33
0.000000000000000
14
-36.1294591484465
24
9.20828538550056
34
0.000000000000000
50
90.0000000000000
100
AcDbRotatedDimension
1001
ACAD
1000
DSTYLE
1002
{
1070
284
1070
8
1070
78
1070
8
1070
144
1040
1.00000000000000
1070
147
1040
0.625
1070
 72
1070
 0
1070
 71
1070
 0
1002
}
  0
LINE
  5
F1002F
330
F10030
100
AcDbEntity
8
Geo
100
AcDbLine
10
-36.1294591484465
20
1.20828538550056
30
0.000000000000000
11
-36.1294591484465
21
9.20828538550056
31
0.000000000000000
  0
LINE
  5
F10031
330
F10032
100
AcDbEntity
8
Geo
100
AcDbLine
10
-36.1294591484465
20
9.20828538550056
30
0.000000000000000
11
-16.1294591484465
21
9.20828538550056
31
0.000000000000000
  0
LINE
  5
F10033
330
F10034
100
AcDbEntity
8
Geo
100
AcDbLine
10
-16.1294591484465
20
9.20828538550056
30
0.000000000000000
11
46.1705408515535
21
9.20828538550056
31
0.000000000000000
  0
LINE
  5
F10035
330
F10036
100
AcDbEntity
8
Geo
100
AcDbLine
10
46.1705408515535
20
9.20828538550056
30
0.000000000000000
11
46.8705408515535
21
8.50828538550056
31
0.000000000000000
  0
LINE
  5
F10037
330
F10038
100
AcDbEntity
8
Geo
100
AcDbLine
10
-36.1294591484465
20
9.20828538550056
30
0.000000000000000
11
-36.0294591484465
21
9.20807705307145
31
0.000000000000000
  0
LINE
  5
F10039
330
F1003A
100
AcDbEntity
8
Geo
100
AcDbLine
10
-36.0294591484465
20
9.20807705307145
30
0.000000000000000
11
-35.9294591484465
21
9.20745206663472
31
0.000000000000000
  0
LINE
  5
F1003B
330
F1003C
100
AcDbEntity
8
Geo
100
AcDbLine
10
-35.9294591484465
20
9.20745206663472
30
0.000000000000000
11
-35.8294591484465
21
9.20641045874160
31
0.000000000000000
  0
LINE
  5
F1003D
330
F1003E
100
AcDbEntity
8
Geo
100
AcDbLine
10
-35.8294591484465
20
9.20641045874160
30
0.000000000000000
11
-35.7294591484465
21
9.20495228364228
31
0.000000000000000
  0
LINE
  5
F1003F
330
F10040
100
AcDbEntity
8
Geo
100
AcDbLine
10
-35.7294591484465
20
9.20495228364228
30
0.000000000000000
11
-35.6294591484465
21
9.20307761728303
31
0.000000000000000
  0
LINE
  5
F10041
330
F10042
100
AcDbEntity
8
Geo
100
AcDbLine
10
-35.6294591484465
20
9.20307761728303
30
0.000000000000000
11
-35.5294591484465
21
9.20078655730232
31
0.000000000000000
  0
LINE
  5
F10043
330
F10044
100
AcDbEntity
8
Geo
100
AcDbLine
10
-35.5294591484465
20
9.20078655730232
30
0.000000000000000
11
-35.4294591484465
21
9.19807922302566
31
0.000000000000000
  0
LINE
  5
F10045
330
F10046
100
AcDbEntity
8
Geo
100
AcDbLine
10
-35.4294591484465
20
9.19807922302566
30
0.000000000000000
11
-35.3294591484465
21
9.19495575545943
31
0.000000000000000
  0
LINE
  5
F10047
330
F10048
100
AcDbEntity
8
Geo
100
AcDbLine
10
-35.3294591484465
20
9.19495575545943
30
0.000000000000000
11
-35.2294591484465
21
9.19141631728354
31
0.000000000000000
  0
LINE
  5
F10049
330
F1004A
100
AcDbEntity
8
Geo
100
AcDbLine
10
-35.2294591484465
20
9.19141631728354
30
0.000000000000000
11
-35.1294591484465
21
9.18746109284291
31
0.000000000000000
  0
LINE
  5
F1004B
330
F1004C
100
AcDbEntity
8
Geo
100
AcDbLine
10
-35.1294591484465
20
9.18746109284291
30
0.000000000000000
11
-35.0294591484465
21
9.18309028813793
31
0.000000000000000
  0
LINE
  5
F1004D
330
F1004E
100
AcDbEntity
8
Geo
100
AcDbLine
10
-35.0294591484465
20
9.18309028813793
30
0.000000000000000
11
-34.9294591484465
21
9.17830413081369
31
0.000000000000000
  0
LINE
  5
F1004F
330
F10050
100
AcDbEntity
8
Geo
100
AcDbLine
10
-34.9294591484465
20
9.17830413081369
30
0.000000000000000
11
-34.8294591484465
21
9.17310287014813
31
0.000000000000000
  0
LINE
  5
F10051
330
F10052
100
AcDbEntity
8
Geo
100
AcDbLine
10
-34.8294591484465
20
9.17310287014813
30
0.000000000000000
11
-34.7294591484465
21
9.16748677703907
31
0.000000000000000
  0
LINE
  5
F10053
330
F10054
100
AcDbEntity
8
Geo
100
AcDbLine
10
-34.7294591484465
20
9.16748677703907
30
0.000000000000000
11
-34.6294591484465
21
9.16145614399009
31
0.000000000000000
  0
LINE
  5
F10055
330
F10056
100
AcDbEntity
8
Geo
100
AcDbLine
10
-34.6294591484465
20
9.16145614399009
30
0.000000000000000
11
-34.5294591484465
21
9.15501128509531
31
0.000000000000000
  0
LINE
  5
F10057
330
F10058
100
AcDbEntity
8
Geo
100
AcDbLine
10
-34.5294591484465
20
9.15501128509531
30
0.000000000000000
11
-34.4294591484465
21
9.14815253602298
31
0.000000000000000
  0
LINE
  5
F10059
330
F1005A
100
AcDbEntity
8
Geo
100
AcDbLine
10
-34.4294591484465
20
9.14815253602298
30
0.000000000000000
11
-34.3294591484465
21
9.14088025399809
31
0.000000000000000
  0
LINE
  5
F1005B
330
F1005C
100
AcDbEntity
8
Geo
100
AcDbLine
10
-34.3294591484465
20
9.14088025399809
30
0.000000000000000
11
-34.2294591484465
21
9.13319481778367
31
0.000000000000000
  0
LINE
  5
F1005D
330
F1005E
100
AcDbEntity
8
Geo
100
AcDbLine
10
-34.2294591484465
20
9.13319481778367
30
0.000000000000000
11
-34.1294591484465
21
9.12509662766113
31
0.000000000000000
  0
LINE
  5
F1005F
330
F10060
100
AcDbEntity
8
Geo
100
AcDbLine
10
-34.1294591484465
20
9.12509662766113
30
0.000000000000000
11
-34.0294591484465
21
9.11658610540936
31
0.000000000000000
  0
LINE
  5
F10061
330
F10062
100
AcDbEntity
8
Geo
100
AcDbLine
10
-34.0294591484465
20
9.11658610540936
30
0.000000000000000
11
-33.9294591484465
21
9.10766369428281
31
0.000000000000000
  0
LINE
  5
F10063
330
F10064
100
AcDbEntity
8
Geo
100
AcDbLine
10
-33.9294591484465
20
9.10766369428281
30
0.000000000000000
11
-33.8294591484465
21
9.09832985898839
31
0.000000000000000
  0
LINE
  5
F10065
330
F10066
100
AcDbEntity
8
Geo
100
AcDbLine
10
-33.8294591484465
20
9.09832985898839
30
0.000000000000000
11
-33.7294591484465
21
9.08858508566122
31
0.000000000000000
  0
LINE
  5
F10067
330
F10068
100
AcDbEntity
8
Geo
100
AcDbLine
10
-33.7294591484465
20
9.08858508566122
30
0.000000000000000
11
-33.6294591484465
21
9.07842988183939
31
0.000000000000000
  0
LINE
  5
F10069
330
F1006A
100
AcDbEntity
8
Geo
100
AcDbLine
10
-33.6294591484465
20
9.07842988183939
30
0.000000000000000
11
-33.5294591484465
21
9.06786477643747
31
0.000000000000000
  0
LINE
  5
F1006B
330
F1006C
100
AcDbEntity
8
Geo
100
AcDbLine
10
-33.5294591484465
20
9.06786477643747
30
0.000000000000000
11
-33.4294591484465
21
9.05689031971897
31
0.000000000000000
  0
LINE
  5
F1006D
330
F1006E
100
AcDbEntity
8
Geo
100
AcDbLine
10
-33.4294591484465
20
9.05689031971897
30
0.000000000000000
11
-33.3294591484465
21
9.04550708326771
31
0.000000000000000
  0
LINE
  5
F1006F
330
F10070
100
AcDbEntity
8
Geo
100
AcDbLine
10
-33.3294591484465
20
9.04550708326771
30
0.000000000000000
11
-33.2294591484465
21
9.03371565995800
31
0.000000000000000
  0
LINE
  5
F10071
330
F10072
100
AcDbEntity
8
Geo
100
AcDbLine
10
-33.2294591484465
20
9.03371565995800
30
0.000000000000000
11
-33.1294591484465
21
9.02151666392381
31
0.000000000000000
  0
LINE
  5
F10073
330
F10074
100
AcDbEntity
8
Geo
100
AcDbLine
10
-33.1294591484465
20
9.02151666392381
30
0.000000000000000
11
-33.0294591484465
21
9.00891073052677
31
0.000000000000000
  0
LINE
  5
F10075
330
F10076
100
AcDbEntity
8
Geo
100
AcDbLine
10
-33.0294591484465
20
9.00891073052677
30
0.000000000000000
11
-32.9294591484465
21
8.99589851632305
31
0.000000000000000
  0
LINE
  5
F10077
330
F10078
100
AcDbEntity
8
Geo
100
AcDbLine
10
-32.9294591484465
20
8.99589851632305
30
0.000000000000000
11
-32.8294591484465
21
8.98248069902919
31
0.000000000000000
  0
LINE
  5
F10079
330
F1007A
100
AcDbEntity
8
Geo
100
AcDbLine
10
-32.8294591484465
20
8.98248069902919
30
0.000000000000000
11
-32.7294591484465
21
8.96865797748683
31
0.000000000000000
  0
LINE
  5
F1007B
330
F1007C
100
AcDbEntity
8
Geo
100
AcDbLine
10
-32.7294591484465
20
8.96865797748683
30
0.000000000000000
11
-32.6294591484465
21
8.95443107162625
31
0.000000000000000
  0
LINE
  5
F1007D
330
F1007E
100
AcDbEntity
8
Geo
100
AcDbLine
10
-32.6294591484465
20
8.95443107162625
30
0.000000000000000
11
-32.5294591484465
21
8.93980072242890
31
0.000000000000000
  0
LINE
  5
F1007F
330
F10080
100
AcDbEntity
8
Geo
100
AcDbLine
10
-32.5294591484465
20
8.93980072242890
30
0.000000000000000
11
-32.4294591484465
21
8.92476769188885
31
0.000000000000000
  0
LINE
  5
F10081
330
F10082
100
AcDbEntity
8
Geo
100
AcDbLine
10
-32.4294591484465
20
8.92476769188885
30
0.000000000000000
11
-32.3294591484465
21
8.90933276297302
31
0.000000000000000
  0
LINE
  5
F10083
330
F10084
100
AcDbEntity
8
Geo
100
AcDbLine
10
-32.3294591484465
20
8.90933276297302
30
0.000000000000000
11
-32.2294591484465
21
8.89349673958049
31
0.000000000000000
  0
LINE
  5
F10085
330
F10086
100
AcDbEntity
8
Geo
100
AcDbLine
10
-32.2294591484465
20
8.89349673958049
30
0.000000000000000
11
-32.1294591484465
21
8.87726044650055
31
0.000000000000000
  0
LINE
  5
F10087
330
F10088
100
AcDbEntity
8
Geo
100
AcDbLine
10
-32.1294591484465
20
8.87726044650055
30
0.000000000000000
11
-32.0294591484465
21
8.86062472936980
31
0.000000000000000
  0
LINE
  5
F10089
330
F1008A
100
AcDbEntity
8
Geo
100
AcDbLine
10
-32.0294591484465
20
8.86062472936980
30
0.000000000000000
11
-31.9294591484465
21
8.84359045462807
31
0.000000000000000
  0
LINE
  5
F1008B
330
F1008C
100
AcDbEntity
8
Geo
100
AcDbLine
10
-31.9294591484465
20
8.84359045462807
30
0.000000000000000
11
-31.8294591484465
21
8.82615850947334
31
0.000000000000000
  0
LINE
  5
F1008D
330
F1008E
100
AcDbEntity
8
Geo
100
AcDbLine
10
-31.8294591484465
20
8.82615850947334
30
0.000000000000000
11
-31.7294591484465
21
8.80832980181546
31
0.000000000000000
  0
LINE
  5
F1008F
330
F10090
100
AcDbEntity
8
Geo
100
AcDbLine
10
-31.7294591484465
20
8.80832980181546
30
0.000000000000000
11
-31.6294591484465
21
8.79010526022893
31
0.000000000000000
  0
LINE
  5
F10091
330
F10092
100
AcDbEntity
8
Geo
100
AcDbLine
10
-31.6294591484465
20
8.79010526022893
30
0.000000000000000
11
-31.5294591484465
21
8.77148583390451
31
0.000000000000000
  0
LINE
  5
F10093
330
F10094
100
AcDbEntity
8
Geo
100
AcDbLine
10
-31.5294591484465
20
8.77148583390451
30
0.000000000000000
11
-31.4294591484465
21
8.75247249259977
31
0.000000000000000
  0
LINE
  5
F10095
330
F10096
100
AcDbEntity
8
Geo
100
AcDbLine
10
-31.4294591484465
20
8.75247249259977
30
0.000000000000000
11
-31.3294591484465
21
8.73306622658861
31
0.000000000000000
  0
LINE
  5
F10097
330
F10098
100
AcDbEntity
8
Geo
100
AcDbLine
10
-31.3294591484465
20
8.73306622658861
30
0.000000000000000
11
-31.2294591484465
21
8.71326804660966
31
0.000000000000000
  0
LINE
  5
F10099
330
F1009A
100
AcDbEntity
8
Geo
100
AcDbLine
10
-31.2294591484465
20
8.71326804660966
30
0.000000000000000
11
-31.1294591484465
21
8.69307898381366
31
0.000000000000000
  0
LINE
  5
F1009B
330
F1009C
100
AcDbEntity
8
Geo
100
AcDbLine
10
-31.1294591484465
20
8.69307898381366
30
0.000000000000000
11
-31.0294591484465
21
8.67250008970973
31
0.000000000000000
  0
LINE
  5
F1009D
330
F1009E
100
AcDbEntity
8
Geo
100
AcDbLine
10
-31.0294591484465
20
8.67250008970973
30
0.000000000000000
11
-30.9294591484465
21
8.65153243611061
31
0.000000000000000
  0
LINE
  5
F1009F
330
F100A0
100
AcDbEntity
8
Geo
100
AcDbLine
10
-30.9294591484465
20
8.65153243611061
30
0.000000000000000
11
-30.8294591484465
21
8.63017711507687
31
0.000000000000000
  0
LINE
  5
F100A1
330
F100A2
100
AcDbEntity
8
Geo
100
AcDbLine
10
-30.8294591484465
20
8.63017711507687
30
0.000000000000000
11
-30.7294591484465
21
8.60843523885996
31
0.000000000000000
  0
LINE
  5
F100A3
330
F100A4
100
AcDbEntity
8
Geo
100
AcDbLine
10
-30.7294591484465
20
8.60843523885996
30
0.000000000000000
11
-30.6294591484465
21
8.58630793984438
31
0.000000000000000
  0
LINE
  5
F100A5
330
F100A6
100
AcDbEntity
8
Geo
100
AcDbLine
10
-30.6294591484465
20
8.58630793984438
30
0.000000000000000
11
-30.5294591484465
21
8.56379637048860
31
0.000000000000000
  0
LINE
  5
F100A7
330
F100A8
100
AcDbEntity
8
Geo
100
AcDbLine
10
-30.5294591484465
20
8.56379637048860
30
0.000000000000000
11
-30.4294591484465
21
8.54090170326511
31
0.000000000000000
  0
LINE
  5
F100A9
330
F100AA
100
AcDbEntity
8
Geo
100
AcDbLine
10
-30.4294591484465
20
8.54090170326511
30
0.000000000000000
11
-30.3294591484465
21
8.51762513059932
31
0.000000000000000
  0
LINE
  5
F100AB
330
F100AC
100
AcDbEntity
8
Geo
100
AcDbLine
10
-30.3294591484465
20
8.51762513059932
30
0.000000000000000
11
-30.2294591484465
21
8.49396786480745
31
0.000000000000000
  0
LINE
  5
F100AD
330
F100AE
100
AcDbEntity
8
Geo
100
AcDbLine
10
-30.2294591484465
20
8.49396786480745
30
0.000000000000000
11
-30.1294591484465
21
8.46993113803343
31
0.000000000000000
  0
LINE
  5
F100AF
330
F100B0
100
AcDbEntity
8
Geo
100
AcDbLine
10
-30.1294591484465
20
8.46993113803343
30
0.000000000000000
11
-30.0294591484465
21
8.44551620218466
31
0.000000000000000
  0
LINE
  5
F100B1
330
F100B2
100
AcDbEntity
8
Geo
100
AcDbLine
10
-30.0294591484465
20
8.44551620218466
30
0.000000000000000
11
-29.9294591484465
21
8.42072432886687
31
0.000000000000000
  0
LINE
  5
F100B3
330
F100B4
100
AcDbEntity
8
Geo
100
AcDbLine
10
-29.9294591484465
20
8.42072432886687
30
0.000000000000000
11
-29.8294591484465
21
8.39555680931787
31
0.000000000000000
  0
LINE
  5
F100B5
330
F100B6
100
AcDbEntity
8
Geo
100
AcDbLine
10
-29.8294591484465
20
8.39555680931787
30
0.000000000000000
11
-29.7294591484465
21
8.37001495434026
31
0.000000000000000
  0
LINE
  5
F100B7
330
F100B8
100
AcDbEntity
8
Geo
100
AcDbLine
10
-29.7294591484465
20
8.37001495434026
30
0.000000000000000
11
-29.6294591484465
21
8.34410009423323
31
0.000000000000000
  0
LINE
  5
F100B9
330
F100BA
100
AcDbEntity
8
Geo
100
AcDbLine
10
-29.6294591484465
20
8.34410009423323
30
0.000000000000000
11
-29.5294591484465
21
8.31781357872321
31
0.000000000000000
  0
LINE
  5
F100BB
330
F100BC
100
AcDbEntity
8
Geo
100
AcDbLine
10
-29.5294591484465
20
8.31781357872321
30
0.000000000000000
11
-29.4294591484465
21
8.29115677689361
31
0.000000000000000
  0
LINE
  5
F100BD
330
F100BE
100
AcDbEntity
8
Geo
100
AcDbLine
10
-29.4294591484465
20
8.29115677689361
30
0.000000000000000
11
-29.3294591484465
21
8.26413107711350
31
0.000000000000000
  0
LINE
  5
F100BF
330
F100C0
100
AcDbEntity
8
Geo
100
AcDbLine
10
-29.3294591484465
20
8.26413107711350
30
0.000000000000000
11
-29.2294591484465
21
8.23673788696529
31
0.000000000000000
  0
LINE
  5
F100C1
330
F100C2
100
AcDbEntity
8
Geo
100
AcDbLine
10
-29.2294591484465
20
8.23673788696529
30
0.000000000000000
11
-29.1294591484465
21
8.20897863317146
31
0.000000000000000
  0
LINE
  5
F100C3
330
F100C4
100
AcDbEntity
8
Geo
100
AcDbLine
10
-29.1294591484465
20
8.20897863317146
30
0.000000000000000
11
-29.0294591484465
21
8.18085476152019
31
0.000000000000000
  0
LINE
  5
F100C5
330
F100C6
100
AcDbEntity
8
Geo
100
AcDbLine
10
-29.0294591484465
20
8.18085476152019
30
0.000000000000000
11
-28.9294591484465
21
8.15236773679011
31
0.000000000000000
  0
LINE
  5
F100C7
330
F100C8
100
AcDbEntity
8
Geo
100
AcDbLine
10
-28.9294591484465
20
8.15236773679011
30
0.000000000000000
11
-28.8294591484465
21
8.12351904267399
31
0.000000000000000
  0
LINE
  5
F100C9
330
F100CA
100
AcDbEntity
8
Geo
100
AcDbLine
10
-28.8294591484465
20
8.12351904267399
30
0.000000000000000
11
-28.7294591484465
21
8.09431018170145
31
0.000000000000000
  0
LINE
  5
F100CB
330
F100CC
100
AcDbEntity
8
Geo
100
AcDbLine
10
-28.7294591484465
20
8.09431018170145
30
0.000000000000000
11
-28.6294591484465
21
8.06474267516073
31
0.000000000000000
  0
LINE
  5
F100CD
330
F100CE
100
AcDbEntity
8
Geo
100
AcDbLine
10
-28.6294591484465
20
8.06474267516073
30
0.000000000000000
11
-28.5294591484465
21
8.03481806301944
31
0.000000000000000
  0
LINE
  5
F100CF
330
F100D0
100
AcDbEntity
8
Geo
100
AcDbLine
10
-28.5294591484465
20
8.03481806301944
30
0.000000000000000
11
-28.4294591484465
21
8.00453790384439
31
0.000000000000000
  0
LINE
  5
F100D1
330
F100D2
100
AcDbEntity
8
Geo
100
AcDbLine
10
-28.4294591484465
20
8.00453790384439
30
0.000000000000000
11
-28.3294591484465
21
7.97390377472033
31
0.000000000000000
  0
LINE
  5
F100D3
330
F100D4
100
AcDbEntity
8
Geo
100
AcDbLine
10
-28.3294591484465
20
7.97390377472033
30
0.000000000000000
11
-28.2294591484465
21
7.94291727116791
31
0.000000000000000
  0
LINE
  5
F100D5
330
F100D6
100
AcDbEntity
8
Geo
100
AcDbLine
10
-28.2294591484465
20
7.94291727116791
30
0.000000000000000
11
-28.1294591484465
21
7.91158000706051
31
0.000000000000000
  0
LINE
  5
F100D7
330
F100D8
100
AcDbEntity
8
Geo
100
AcDbLine
10
-28.1294591484465
20
7.91158000706051
30
0.000000000000000
11
-28.0294591484465
21
7.87989361454022
31
0.000000000000000
  0
LINE
  5
F100D9
330
F100DA
100
AcDbEntity
8
Geo
100
AcDbLine
10
-28.0294591484465
20
7.87989361454022
30
0.000000000000000
11
-27.9294591484465
21
7.84785974393283
31
0.000000000000000
  0
LINE
  5
F100DB
330
F100DC
100
AcDbEntity
8
Geo
100
AcDbLine
10
-27.9294591484465
20
7.84785974393283
30
0.000000000000000
11
-27.8294591484465
21
7.81548006366185
31
0.000000000000000
  0
LINE
  5
F100DD
330
F100DE
100
AcDbEntity
8
Geo
100
AcDbLine
10
-27.8294591484465
20
7.81548006366185
30
0.000000000000000
11
-27.7294591484465
21
7.78275626016164
31
0.000000000000000
  0
LINE
  5
F100DF
330
F100E0
100
AcDbEntity
8
Geo
100
AcDbLine
10
-27.7294591484465
20
7.78275626016164
30
0.000000000000000
11
-27.6294591484465
21
7.74969003778958
31
0.000000000000000
  0
LINE
  5
F100E1
330
F100E2
100
AcDbEntity
8
Geo
100
AcDbLine
10
-27.6294591484465
20
7.74969003778958
30
0.000000000000000
11
-27.5294591484465
21
7.71628311873726
31
0.000000000000000
  0
LINE
  5
F100E3
330
F100E4
100
AcDbEntity
8
Geo
100
AcDbLine
10
-27.5294591484465
20
7.71628311873726
30
0.000000000000000
11
-27.4294591484465
21
7.68253724294084
31
0.000000000000000
  0
LINE
  5
F100E5
330
F100E6
100
AcDbEntity
8
Geo
100
AcDbLine
10
-27.4294591484465
20
7.68253724294084
30
0.000000000000000
11
-27.3294591484465
21
7.64845416799039
31
0.000000000000000
  0
LINE
  5
F100E7
330
F100E8
100
AcDbEntity
8
Geo
100
AcDbLine
10
-27.3294591484465
20
7.64845416799039
30
0.000000000000000
11
-27.2294591484465
21
7.61403566903835
31
0.000000000000000
  0
LINE
  5
F100E9
330
F100EA
100
AcDbEntity
8
Geo
100
AcDbLine
10
-27.2294591484465
20
7.61403566903835
30
0.000000000000000
11
-27.1294591484465
21
7.57928353870710
31
0.000000000000000
  0
LINE
  5
F100EB
330
F100EC
100
AcDbEntity
8
Geo
100
AcDbLine
10
-27.1294591484465
20
7.57928353870710
30
0.000000000000000
11
-27.0294591484465
21
7.54419958699558
31
0.000000000000000
  0
LINE
  5
F100ED
330
F100EE
100
AcDbEntity
8
Geo
100
AcDbLine
10
-27.0294591484465
20
7.54419958699558
30
0.000000000000000
11
-26.9294591484465
21
7.50878564118499
31
0.000000000000000
  0
LINE
  5
F100EF
330
F100F0
100
AcDbEntity
8
Geo
100
AcDbLine
10
-26.9294591484465
20
7.50878564118499
30
0.000000000000000
11
-26.8294591484465
21
7.47304354574369
31
0.000000000000000
  0
LINE
  5
F100F1
330
F100F2
100
AcDbEntity
8
Geo
100
AcDbLine
10
-26.8294591484465
20
7.47304354574369
30
0.000000000000000
11
-26.7294591484465
21
7.43697516223106
31
0.000000000000000
  0
LINE
  5
F100F3
330
F100F4
100
AcDbEntity
8
Geo
100
AcDbLine
10
-26.7294591484465
20
7.43697516223106
30
0.000000000000000
11
-26.6294591484465
21
7.40058236920058
31
0.000000000000000
  0
LINE
  5
F100F5
330
F100F6
100
AcDbEntity
8
Geo
100
AcDbLine
10
-26.6294591484465
20
7.40058236920058
30
0.000000000000000
11
-26.5294591484465
21
7.36386706210201
31
0.000000000000000
  0
LINE
  5
F100F7
330
F100F8
100
AcDbEntity
8
Geo
100
AcDbLine
10
-26.5294591484465
20
7.36386706210201
30
0.000000000000000
11
-26.4294591484465
21
7.32683115318263
31
0.000000000000000
  0
LINE
  5
F100F9
330
F100FA
100
AcDbEntity
8
Geo
100
AcDbLine
10
-26.4294591484465
20
7.32683115318263
30
0.000000000000000
11
-26.3294591484465
21
7.28947657138764
31
0.000000000000000
  0
LINE
  5
F100FB
330
F100FC
100
AcDbEntity
8
Geo
100
AcDbLine
10
-26.3294591484465
20
7.28947657138764
30
0.000000000000000
11
-26.2294591484465
21
7.25180526225974
31
0.000000000000000
  0
LINE
  5
F100FD
330
F100FE
100
AcDbEntity
8
Geo
100
AcDbLine
10
-26.2294591484465
20
7.25180526225974
30
0.000000000000000
11
-26.1294591484465
21
7.21381918783776
31
0.000000000000000
  0
LINE
  5
F100FF
330
F10100
100
AcDbEntity
8
Geo
100
AcDbLine
10
-26.1294591484465
20
7.21381918783776
30
0.000000000000000
11
-26.0294591484465
21
7.17552032655450
31
0.000000000000000
  0
LINE
  5
F10101
330
F10102
100
AcDbEntity
8
Geo
100
AcDbLine
10
-26.0294591484465
20
7.17552032655450
30
0.000000000000000
11
-25.9294591484465
21
7.13691067313366
31
0.000000000000000
  0
LINE
  5
F10103
330
F10104
100
AcDbEntity
8
Geo
100
AcDbLine
10
-25.9294591484465
20
7.13691067313366
30
0.000000000000000
11
-25.8294591484465
21
7.09799223848595
31
0.000000000000000
  0
LINE
  5
F10105
330
F10106
100
AcDbEntity
8
Geo
100
AcDbLine
10
-25.8294591484465
20
7.09799223848595
30
0.000000000000000
11
-25.7294591484465
21
7.05876704960438
31
0.000000000000000
  0
LINE
  5
F10107
330
F10108
100
AcDbEntity
8
Geo
100
AcDbLine
10
-25.7294591484465
20
7.05876704960438
30
0.000000000000000
11
-25.6294591484465
21
7.01923714945867
31
0.000000000000000
  0
LINE
  5
F10109
330
F1010A
100
AcDbEntity
8
Geo
100
AcDbLine
10
-25.6294591484465
20
7.01923714945867
30
0.000000000000000
11
-25.5294591484465
21
6.97940459688886
31
0.000000000000000
  0
LINE
  5
F1010B
330
F1010C
100
AcDbEntity
8
Geo
100
AcDbLine
10
-25.5294591484465
20
6.97940459688886
30
0.000000000000000
11
-25.4294591484465
21
6.93927146649805
31
0.000000000000000
  0
LINE
  5
F1010D
330
F1010E
100
AcDbEntity
8
Geo
100
AcDbLine
10
-25.4294591484465
20
6.93927146649805
30
0.000000000000000
11
-25.3294591484465
21
6.89883984854438
31
0.000000000000000
  0
LINE
  5
F1010F
330
F10110
100
AcDbEntity
8
Geo
100
AcDbLine
10
-25.3294591484465
20
6.89883984854438
30
0.000000000000000
11
-25.2294591484465
21
6.85811184883214
31
0.000000000000000
  0
LINE
  5
F10111
330
F10112
100
AcDbEntity
8
Geo
100
AcDbLine
10
-25.2294591484465
20
6.85811184883214
30
0.000000000000000
11
-25.1294591484465
21
6.81708958860210
31
0.000000000000000
  0
LINE
  5
F10113
330
F10114
100
AcDbEntity
8
Geo
100
AcDbLine
10
-25.1294591484465
20
6.81708958860210
30
0.000000000000000
11
-25.0294591484465
21
6.77577520442106
31
0.000000000000000
  0
LINE
  5
F10115
330
F10116
100
AcDbEntity
8
Geo
100
AcDbLine
10
-25.0294591484465
20
6.77577520442106
30
0.000000000000000
11
-24.9294591484465
21
6.73417084807052
31
0.000000000000000
  0
LINE
  5
F10117
330
F10118
100
AcDbEntity
8
Geo
100
AcDbLine
10
-24.9294591484465
20
6.73417084807052
30
0.000000000000000
11
-24.8294591484465
21
6.69227868643462
31
0.000000000000000
  0
LINE
  5
F10119
330
F1011A
100
AcDbEntity
8
Geo
100
AcDbLine
10
-24.8294591484465
20
6.69227868643462
30
0.000000000000000
11
-24.7294591484465
21
6.65010090138732
31
0.000000000000000
  0
LINE
  5
F1011B
330
F1011C
100
AcDbEntity
8
Geo
100
AcDbLine
10
-24.7294591484465
20
6.65010090138732
30
0.000000000000000
11
-24.6294591484465
21
6.60763968967873
31
0.000000000000000
  0
LINE
  5
F1011D
330
F1011E
100
AcDbEntity
8
Geo
100
AcDbLine
10
-24.6294591484465
20
6.60763968967873
30
0.000000000000000
11
-24.5294591484465
21
6.56489726282067
31
0.000000000000000
  0
LINE
  5
F1011F
330
F10120
100
AcDbEntity
8
Geo
100
AcDbLine
10
-24.5294591484465
20
6.56489726282067
30
0.000000000000000
11
-24.4294591484465
21
6.52187584697157
31
0.000000000000000
  0
LINE
  5
F10121
330
F10122
100
AcDbEntity
8
Geo
100
AcDbLine
10
-24.4294591484465
20
6.52187584697157
30
0.000000000000000
11
-24.3294591484465
21
6.47857768282043
31
0.000000000000000
  0
LINE
  5
F10123
330
F10124
100
AcDbEntity
8
Geo
100
AcDbLine
10
-24.3294591484465
20
6.47857768282043
30
0.000000000000000
11
-24.2294591484465
21
6.43500502547019
31
0.000000000000000
  0
LINE
  5
F10125
330
F10126
100
AcDbEntity
8
Geo
100
AcDbLine
10
-24.2294591484465
20
6.43500502547019
30
0.000000000000000
11
-24.1294591484465
21
6.39116014432023
31
0.000000000000000
  0
LINE
  5
F10127
330
F10128
100
AcDbEntity
8
Geo
100
AcDbLine
10
-24.1294591484465
20
6.39116014432023
30
0.000000000000000
11
-24.0294591484465
21
6.34704532294820
31
0.000000000000000
  0
LINE
  5
F10129
330
F1012A
100
AcDbEntity
8
Geo
100
AcDbLine
10
-24.0294591484465
20
6.34704532294820
30
0.000000000000000
11
-23.9294591484465
21
6.30266285899108
31
0.000000000000000
  0
LINE
  5
F1012B
330
F1012C
100
AcDbEntity
8
Geo
100
AcDbLine
10
-23.9294591484465
20
6.30266285899108
30
0.000000000000000
11
-23.8294591484465
21
6.25801506402548
31
0.000000000000000
  0
LINE
  5
F1012D
330
F1012E
100
AcDbEntity
8
Geo
100
AcDbLine
10
-23.8294591484465
20
6.25801506402548
30
0.000000000000000
11
-23.7294591484465
21
6.21310426344732
31
0.000000000000000
  0
LINE
  5
F1012F
330
F10130
100
AcDbEntity
8
Geo
100
AcDbLine
10
-23.7294591484465
20
6.21310426344732
30
0.000000000000000
11
-23.6294591484465
21
6.16793279635064
31
0.000000000000000
  0
LINE
  5
F10131
330
F10132
100
AcDbEntity
8
Geo
100
AcDbLine
10
-23.6294591484465
20
6.16793279635064
30
0.000000000000000
11
-23.5294591484465
21
6.12250301540580
31
0.000000000000000
  0
LINE
  5
F10133
330
F10134
100
AcDbEntity
8
Geo
100
AcDbLine
10
-23.5294591484465
20
6.12250301540580
30
0.000000000000000
11
-23.4294591484465
21
6.07681728673695
31
0.000000000000000
  0
LINE
  5
F10135
330
F10136
100
AcDbEntity
8
Geo
100
AcDbLine
10
-23.4294591484465
20
6.07681728673695
30
0.000000000000000
11
-23.3294591484465
21
6.03087798979880
31
0.000000000000000
  0
LINE
  5
F10137
330
F10138
100
AcDbEntity
8
Geo
100
AcDbLine
10
-23.3294591484465
20
6.03087798979880
30
0.000000000000000
11
-23.2294591484465
21
5.98468751725269
31
0.000000000000000
  0
LINE
  5
F10139
330
F1013A
100
AcDbEntity
8
Geo
100
AcDbLine
10
-23.2294591484465
20
5.98468751725269
30
0.000000000000000
11
-23.1294591484465
21
5.93824827484196
31
0.000000000000000
  0
LINE
  5
F1013B
330
F1013C
100
AcDbEntity
8
Geo
100
AcDbLine
10
-23.1294591484465
20
5.93824827484196
30
0.000000000000000
11
-23.0294591484465
21
5.89156268126663
31
0.000000000000000
  0
LINE
  5
F1013D
330
F1013E
100
AcDbEntity
8
Geo
100
AcDbLine
10
-23.0294591484465
20
5.89156268126663
30
0.000000000000000
11
-22.9294591484465
21
5.84463316805750
31
0.000000000000000
  0
LINE
  5
F1013F
330
F10140
100
AcDbEntity
8
Geo
100
AcDbLine
10
-22.9294591484465
20
5.84463316805750
30
0.000000000000000
11
-22.8294591484465
21
5.79746217944944
31
0.000000000000000
  0
LINE
  5
F10141
330
F10142
100
AcDbEntity
8
Geo
100
AcDbLine
10
-22.8294591484465
20
5.79746217944944
30
0.000000000000000
11
-22.7294591484465
21
5.75005217225410
31
0.000000000000000
  0
LINE
  5
F10143
330
F10144
100
AcDbEntity
8
Geo
100
AcDbLine
10
-22.7294591484465
20
5.75005217225410
30
0.000000000000000
11
-22.6294591484465
21
5.70240561573198
31
0.000000000000000
  0
LINE
  5
F10145
330
F10146
100
AcDbEntity
8
Geo
100
AcDbLine
10
-22.6294591484465
20
5.70240561573198
30
0.000000000000000
11
-22.5294591484465
21
5.65452499146378
31
0.000000000000000
  0
LINE
  5
F10147
330
F10148
100
AcDbEntity
8
Geo
100
AcDbLine
10
-22.5294591484465
20
5.65452499146378
30
0.000000000000000
11
-22.4294591484465
21
5.60641279322121
31
0.000000000000000
  0
LINE
  5
F10149
330
F1014A
100
AcDbEntity
8
Geo
100
AcDbLine
10
-22.4294591484465
20
5.60641279322121
30
0.000000000000000
11
-22.3294591484465
21
5.55807152683704
31
0.000000000000000
  0
LINE
  5
F1014B
330
F1014C
100
AcDbEntity
8
Geo
100
AcDbLine
10
-22.3294591484465
20
5.55807152683704
30
0.000000000000000
11
-22.2294591484465
21
5.50950371007464
31
0.000000000000000
  0
LINE
  5
F1014D
330
F1014E
100
AcDbEntity
8
Geo
100
AcDbLine
10
-22.2294591484465
20
5.50950371007464
30
0.000000000000000
11
-22.1294591484465
21
5.46071187249681
31
0.000000000000000
  0
LINE
  5
F1014F
330
F10150
100
AcDbEntity
8
Geo
100
AcDbLine
10
-22.1294591484465
20
5.46071187249681
30
0.000000000000000
11
-22.0294591484465
21
5.41169855533407
31
0.000000000000000
  0
LINE
  5
F10151
330
F10152
100
AcDbEntity
8
Geo
100
AcDbLine
10
-22.0294591484465
20
5.41169855533407
30
0.000000000000000
11
-21.9294591484465
21
5.36246631135228
31
0.000000000000000
  0
LINE
  5
F10153
330
F10154
100
AcDbEntity
8
Geo
100
AcDbLine
10
-21.9294591484465
20
5.36246631135228
30
0.000000000000000
11
-21.8294591484465
21
5.31301770471967
31
0.000000000000000
  0
LINE
  5
F10155
330
F10156
100
AcDbEntity
8
Geo
100
AcDbLine
10
-21.8294591484465
20
5.31301770471967
30
0.000000000000000
11
-21.7294591484465
21
5.26335531087334
31
0.000000000000000
  0
LINE
  5
F10157
330
F10158
100
AcDbEntity
8
Geo
100
AcDbLine
10
-21.7294591484465
20
5.26335531087334
30
0.000000000000000
11
-21.6294591484465
21
5.21348171638506
31
0.000000000000000
  0
LINE
  5
F10159
330
F1015A
100
AcDbEntity
8
Geo
100
AcDbLine
10
-21.6294591484465
20
5.21348171638506
30
0.000000000000000
11
-21.5294591484465
21
5.16339951882662
31
0.000000000000000
  0
LINE
  5
F1015B
330
F1015C
100
AcDbEntity
8
Geo
100
AcDbLine
10
-21.5294591484465
20
5.16339951882662
30
0.000000000000000
11
-21.4294591484465
21
5.11311132663447
31
0.000000000000000
  0
LINE
  5
F1015D
330
F1015E
100
AcDbEntity
8
Geo
100
AcDbLine
10
-21.4294591484465
20
5.11311132663447
30
0.000000000000000
11
-21.3294591484465
21
5.06261975897393
31
0.000000000000000
  0
LINE
  5
F1015F
330
F10160
100
AcDbEntity
8
Geo
100
AcDbLine
10
-21.3294591484465
20
5.06261975897393
30
0.000000000000000
11
-21.2294591484465
21
5.01192744560274
31
0.000000000000000
  0
LINE
  5
F10161
330
F10162
100
AcDbEntity
8
Geo
100
AcDbLine
10
-21.2294591484465
20
5.01192744560274
30
0.000000000000000
11
-21.1294591484465
21
4.96103702673408
31
0.000000000000000
  0
LINE
  5
F10163
330
F10164
100
AcDbEntity
8
Geo
100
AcDbLine
10
-36.1294591484465
20
1.20828538550056
30
0.000000000000000
11
-36.0294591484465
21
1.15055085975237
31
0.000000000000000
  0
LINE
  5
F10165
330
F10166
100
AcDbEntity
8
Geo
100
AcDbLine
10
-36.0294591484465
20
1.15055085975237
30
0.000000000000000
11
-35.9294591484465
21
1.09281934099771
31
0.000000000000000
  0
LINE
  5
F10167
330
F10168
100
AcDbEntity
8
Geo
100
AcDbLine
10
-35.9294591484465
20
1.09281934099771
30
0.000000000000000
11
-35.8294591484465
21
1.03509383607343
31
0.000000000000000
  0
LINE
  5
F10169
330
F1016A
100
AcDbEntity
8
Geo
100
AcDbLine
10
-35.8294591484465
20
1.03509383607343
30
0.000000000000000
11
-35.7294591484465
21
0.977377351503204
31
0.000000000000000
  0
LINE
  5
F1016B
330
F1016C
100
AcDbEntity
8
Geo
100
AcDbLine
10
-35.7294591484465
20
0.977377351503204
30
0.000000000000000
11
-35.6294591484465
21
0.919672893340880
31
0.000000000000000
  0
LINE
  5
F1016D
330
F1016E
100
AcDbEntity
8
Geo
100
AcDbLine
10
-35.6294591484465
20
0.919672893340880
30
0.000000000000000
11
-35.5294591484465
21
0.861983467013947
31
0.000000000000000
  0
LINE
  5
F1016F
330
F10170
100
AcDbEntity
8
Geo
100
AcDbLine
10
-35.5294591484465
20
0.861983467013947
30
0.000000000000000
11
-35.4294591484465
21
0.804312077166985
31
0.000000000000000
  0
LINE
  5
F10171
330
F10172
100
AcDbEntity
8
Geo
100
AcDbLine
10
-35.4294591484465
20
0.804312077166985
30
0.000000000000000
11
-35.3294591484465
21
0.746661727505178
31
0.000000000000000
  0
LINE
  5
F10173
330
F10174
100
AcDbEntity
8
Geo
100
AcDbLine
10
-35.3294591484465
20
0.746661727505178
30
0.000000000000000
11
-35.2294591484465
21
0.689035420637873
31
0.000000000000000
  0
LINE
  5
F10175
330
F10176
100
AcDbEntity
8
Geo
100
AcDbLine
10
-35.2294591484465
20
0.689035420637873
30
0.000000000000000
11
-35.1294591484465
21
0.631436157922191
31
0.000000000000000
  0
LINE
  5
F10177
330
F10178
100
AcDbEntity
8
Geo
100
AcDbLine
10
-35.1294591484465
20
0.631436157922191
30
0.000000000000000
11
-35.0294591484465
21
0.573866939306712
31
0.000000000000000
  0
LINE
  5
F10179
330
F1017A
100
AcDbEntity
8
Geo
100
AcDbLine
10
-35.0294591484465
20
0.573866939306712
30
0.000000000000000
11
-34.9294591484465
21
0.516330763175225
31
0.000000000000000
  0
LINE
  5
F1017B
330
F1017C
100
AcDbEntity
8
Geo
100
AcDbLine
10
-34.9294591484465
20
0.516330763175225
30
0.000000000000000
11
-34.8294591484465
21
0.458830626190564
31
0.000000000000000
  0
LINE
  5
F1017D
330
F1017E
100
AcDbEntity
8
Geo
100
AcDbLine
10
-34.8294591484465
20
0.458830626190564
30
0.000000000000000
11
-34.7294591484465
21
0.401369523138532
31
0.000000000000000
  0
LINE
  5
F1017F
330
F10180
100
AcDbEntity
8
Geo
100
AcDbLine
10
-34.7294591484465
20
0.401369523138532
30
0.000000000000000
11
-34.6294591484465
21
0.343950446771924
31
0.000000000000000
  0
LINE
  5
F10181
330
F10182
100
AcDbEntity
8
Geo
100
AcDbLine
10
-34.6294591484465
20
0.343950446771924
30
0.000000000000000
11
-34.5294591484465
21
0.286576387654652
31
0.000000000000000
  0
LINE
  5
F10183
330
F10184
100
AcDbEntity
8
Geo
100
AcDbLine
10
-34.5294591484465
20
0.286576387654652
30
0.000000000000000
11
-34.4294591484465
21
0.229250334005995
31
0.000000000000000
  0
LINE
  5
F10185
330
F10186
100
AcDbEntity
8
Geo
100
AcDbLine
10
-34.4294591484465
20
0.229250334005995
30
0.000000000000000
11
-34.3294591484465
21
0.171975271544953
31
0.000000000000000
  0
LINE
  5
F10187
330
F10188
100
AcDbEntity
8
Geo
100
AcDbLine
10
-34.3294591484465
20
0.171975271544953
30
0.000000000000000
11
-34.2294591484465
21
0.114754183334748
31
0.000000000000000
  0
LINE
  5
F10189
330
F1018A
100
AcDbEntity
8
Geo
100
AcDbLine
10
-34.2294591484465
20
0.114754183334748
30
0.000000000000000
11
-34.1294591484465
21
0.0575900496274582
31
0.000000000000000
  0
LINE
  5
F1018B
330
F1018C
100
AcDbEntity
8
Geo
100
AcDbLine
10
-34.1294591484465
20
0.0575900496274582
30
0.000000000000000
11
-34.0294591484465
21
0.000485847708789899
31
0.000000000000000
  0
LINE
  5
F1018D
330
F1018E
100
AcDbEntity
8
Geo
100
AcDbLine
10
-34.0294591484465
20
0.000485847708789899
30
0.000000000000000
11
-33.9294591484465
21
-0.0565554482569819
31
0.000000000000000
  0
LINE
  5
F1018F
330
F10190
100
AcDbEntity
8
Geo
100
AcDbLine
10
-33.9294591484465
20
-0.0565554482569819
30
0.000000000000000
11
-33.8294591484465
21
-0.113530867381920
31
0.000000000000000
  0
LINE
  5
F10191
330
F10192
100
AcDbEntity
8
Geo
100
AcDbLine
10
-33.8294591484465
20
-0.113530867381920
30
0.000000000000000
11
-33.7294591484465
21
-0.170437442209158
31
0.000000000000000
  0
LINE
  5
F10193
330
F10194
100
AcDbEntity
8
Geo
100
AcDbLine
10
-33.7294591484465
20
-0.170437442209158
30
0.000000000000000
11
-33.6294591484465
21
-0.227272208867454
31
0.000000000000000
  0
LINE
  5
F10195
330
F10196
100
AcDbEntity
8
Geo
100
AcDbLine
10
-33.6294591484465
20
-0.227272208867454
30
0.000000000000000
11
-33.5294591484465
21
-0.284032207225560
31
0.000000000000000
  0
LINE
  5
F10197
330
F10198
100
AcDbEntity
8
Geo
100
AcDbLine
10
-33.5294591484465
20
-0.284032207225560
30
0.000000000000000
11
-33.4294591484465
21
-0.340714481046391
31
0.000000000000000
  0
LINE
  5
F10199
330
F1019A
100
AcDbEntity
8
Geo
100
AcDbLine
10
-33.4294591484465
20
-0.340714481046391
30
0.000000000000000
11
-33.3294591484465
21
-0.397316078141000
31
0.000000000000000
  0
LINE
  5
F1019B
330
F1019C
100
AcDbEntity
8
Geo
100
AcDbLine
10
-33.3294591484465
20
-0.397316078141000
30
0.000000000000000
11
-33.2294591484465
21
-0.453834050522333
31
0.000000000000000
  0
LINE
  5
F1019D
330
F1019E
100
AcDbEntity
8
Geo
100
AcDbLine
10
-33.2294591484465
20
-0.453834050522333
30
0.000000000000000
11
-33.1294591484465
21
-0.510265454558772
31
0.000000000000000
  0
LINE
  5
F1019F
330
F101A0
100
AcDbEntity
8
Geo
100
AcDbLine
10
-33.1294591484465
20
-0.510265454558772
30
0.000000000000000
11
-33.0294591484465
21
-0.566607351127446
31
0.000000000000000
  0
LINE
  5
F101A1
330
F101A2
100
AcDbEntity
8
Geo
100
AcDbLine
10
-33.0294591484465
20
-0.566607351127446
30
0.000000000000000
11
-32.9294591484465
21
-0.622856805767311
31
0.000000000000000
  0
LINE
  5
F101A3
330
F101A4
100
AcDbEntity
8
Geo
100
AcDbLine
10
-32.9294591484465
20
-0.622856805767311
30
0.000000000000000
11
-32.8294591484465
21
-0.679010888831989
31
0.000000000000000
  0
LINE
  5
F101A5
330
F101A6
100
AcDbEntity
8
Geo
100
AcDbLine
10
-32.8294591484465
20
-0.679010888831989
30
0.000000000000000
11
-32.7294591484465
21
-0.735066675642346
31
0.000000000000000
  0
LINE
  5
F101A7
330
F101A8
100
AcDbEntity
8
Geo
100
AcDbLine
10
-32.7294591484465
20
-0.735066675642346
30
0.000000000000000
11
-32.6294591484465
21
-0.791021246638824
31
0.000000000000000
  0
LINE
  5
F101A9
330
F101AA
100
AcDbEntity
8
Geo
100
AcDbLine
10
-32.6294591484465
20
-0.791021246638824
30
0.000000000000000
11
-32.5294591484465
21
-0.846871687533500
31
0.000000000000000
  0
LINE
  5
F101AB
330
F101AC
100
AcDbEntity
8
Geo
100
AcDbLine
10
-32.5294591484465
20
-0.846871687533500
30
0.000000000000000
11
-32.4294591484465
21
-0.902615089461868
31
0.000000000000000
  0
LINE
  5
F101AD
330
F101AE
100
AcDbEntity
8
Geo
100
AcDbLine
10
-32.4294591484465
20
-0.902615089461868
30
0.000000000000000
11
-32.3294591484465
21
-0.958248549134347
31
0.000000000000000
  0
LINE
  5
F101AF
330
F101B0
100
AcDbEntity
8
Geo
100
AcDbLine
10
-32.3294591484465
20
-0.958248549134347
30
0.000000000000000
11
-32.2294591484465
21
-1.01376916898749
31
0.000000000000000
  0
LINE
  5
F101B1
330
F101B2
100
AcDbEntity
8
Geo
100
AcDbLine
10
-32.2294591484465
20
-1.01376916898749
30
0.000000000000000
11
-32.1294591484465
21
-1.06917405733489
31
0.000000000000000
  0
LINE
  5
F101B3
330
F101B4
100
AcDbEntity
8
Geo
100
AcDbLine
10
-32.1294591484465
20
-1.06917405733489
30
0.000000000000000
11
-32.0294591484465
21
-1.12446032851781
31
0.000000000000000
  0
LINE
  5
F101B5
330
F101B6
100
AcDbEntity
8
Geo
100
AcDbLine
10
-32.0294591484465
20
-1.12446032851781
30
0.000000000000000
11
-31.9294591484465
21
-1.17962510305546
31
0.000000000000000
  0
LINE
  5
F101B7
330
F101B8
100
AcDbEntity
8
Geo
100
AcDbLine
10
-31.9294591484465
20
-1.17962510305546
30
0.000000000000000
11
-31.8294591484465
21
-1.23466550779496
31
0.000000000000000
  0
LINE
  5
F101B9
330
F101BA
100
AcDbEntity
8
Geo
100
AcDbLine
10
-31.8294591484465
20
-1.23466550779496
30
0.000000000000000
11
-31.7294591484465
21
-1.28957867606101
31
0.000000000000000
  0
LINE
  5
F101BB
330
F101BC
100
AcDbEntity
8
Geo
100
AcDbLine
10
-31.7294591484465
20
-1.28957867606101
30
0.000000000000000
11
-31.6294591484465
21
-1.34436174780518
31
0.000000000000000
  0
LINE
  5
F101BD
330
F101BE
100
AcDbEntity
8
Geo
100
AcDbLine
10
-31.6294591484465
20
-1.34436174780518
30
0.000000000000000
11
-31.5294591484465
21
-1.39901186975486
31
0.000000000000000
  0
LINE
  5
F101BF
330
F101C0
100
AcDbEntity
8
Geo
100
AcDbLine
10
-31.5294591484465
20
-1.39901186975486
30
0.000000000000000
11
-31.4294591484465
21
-1.45352619556189
31
0.000000000000000
  0
LINE
  5
F101C1
330
F101C2
100
AcDbEntity
8
Geo
100
AcDbLine
10
-31.4294591484465
20
-1.45352619556189
30
0.000000000000000
11
-31.3294591484465
21
-1.50790188595080
31
0.000000000000000
  0
LINE
  5
F101C3
330
F101C4
100
AcDbEntity
8
Geo
100
AcDbLine
10
-31.3294591484465
20
-1.50790188595080
30
0.000000000000000
11
-31.2294591484465
21
-1.56213610886666
31
0.000000000000000
  0
LINE
  5
F101C5
330
F101C6
100
AcDbEntity
8
Geo
100
AcDbLine
10
-31.2294591484465
20
-1.56213610886666
30
0.000000000000000
11
-31.1294591484465
21
-1.61622603962262
31
0.000000000000000
  0
LINE
  5
F101C7
330
F101C8
100
AcDbEntity
8
Geo
100
AcDbLine
10
-31.1294591484465
20
-1.61622603962262
30
0.000000000000000
11
-31.0294591484465
21
-1.67016886104702
31
0.000000000000000
  0
LINE
  5
F101C9
330
F101CA
100
AcDbEntity
8
Geo
100
AcDbLine
10
-31.0294591484465
20
-1.67016886104702
30
0.000000000000000
11
-30.9294591484465
21
-1.72396176363011
31
0.000000000000000
  0
LINE
  5
F101CB
330
F101CC
100
AcDbEntity
8
Geo
100
AcDbLine
10
-30.9294591484465
20
-1.72396176363011
30
0.000000000000000
11
-30.8294591484465
21
-1.77760194567036
31
0.000000000000000
  0
LINE
  5
F101CD
330
F101CE
100
AcDbEntity
8
Geo
100
AcDbLine
10
-30.8294591484465
20
-1.77760194567036
30
0.000000000000000
11
-30.7294591484465
21
-1.83108661342042
31
0.000000000000000
  0
LINE
  5
F101CF
330
F101D0
100
AcDbEntity
8
Geo
100
AcDbLine
10
-30.7294591484465
20
-1.83108661342042
30
0.000000000000000
11
-30.6294591484465
21
-1.88441298123261
31
0.000000000000000
  0
LINE
  5
F101D1
330
F101D2
100
AcDbEntity
8
Geo
100
AcDbLine
10
-30.6294591484465
20
-1.88441298123261
30
0.000000000000000
11
-30.5294591484465
21
-1.93757827170399
31
0.000000000000000
  0
LINE
  5
F101D3
330
F101D4
100
AcDbEntity
8
Geo
100
AcDbLine
10
-30.5294591484465
20
-1.93757827170399
30
0.000000000000000
11
-30.4294591484465
21
-1.99057971582103
31
0.000000000000000
  0
LINE
  5
F101D5
330
F101D6
100
AcDbEntity
8
Geo
100
AcDbLine
10
-30.4294591484465
20
-1.99057971582103
30
0.000000000000000
11
-30.3294591484465
21
-2.04341455310382
31
0.000000000000000
  0
LINE
  5
F101D7
330
F101D8
100
AcDbEntity
8
Geo
100
AcDbLine
10
-30.3294591484465
20
-2.04341455310382
30
0.000000000000000
11
-30.2294591484465
21
-2.09608003174989
31
0.000000000000000
  0
LINE
  5
F101D9
330
F101DA
100
AcDbEntity
8
Geo
100
AcDbLine
10
-30.2294591484465
20
-2.09608003174989
30
0.000000000000000
11
-30.1294591484465
21
-2.14857340877744
31
0.000000000000000
  0
LINE
  5
F101DB
330
F101DC
100
AcDbEntity
8
Geo
100
AcDbLine
10
-30.1294591484465
20
-2.14857340877744
30
0.000000000000000
11
-30.0294591484465
21
-2.20089195016829
31
0.000000000000000
  0
LINE
  5
F101DD
330
F101DE
100
AcDbEntity
8
Geo
100
AcDbLine
10
-30.0294591484465
20
-2.20089195016829
30
0.000000000000000
11
-29.9294591484465
21
-2.25303293101024
31
0.000000000000000
  0
LINE
  5
F101DF
330
F101E0
100
AcDbEntity
8
Geo
100
AcDbLine
10
-29.9294591484465
20
-2.25303293101024
30
0.000000000000000
11
-29.8294591484465
21
-2.30499363563899
31
0.000000000000000
  0
LINE
  5
F101E1
330
F101E2
100
AcDbEntity
8
Geo
100
AcDbLine
10
-29.8294591484465
20
-2.30499363563899
30
0.000000000000000
11
-29.7294591484465
21
-2.35677135777959
31
0.000000000000000
  0
LINE
  5
F101E3
330
F101E4
100
AcDbEntity
8
Geo
100
AcDbLine
10
-29.7294591484465
20
-2.35677135777959
30
0.000000000000000
11
-29.6294591484465
21
-2.40836340068737
31
0.000000000000000
  0
LINE
  5
F101E5
330
F101E6
100
AcDbEntity
8
Geo
100
AcDbLine
10
-29.6294591484465
20
-2.40836340068737
30
0.000000000000000
11
-29.5294591484465
21
-2.45976707728844
31
0.000000000000000
  0
LINE
  5
F101E7
330
F101E8
100
AcDbEntity
8
Geo
100
AcDbLine
10
-29.5294591484465
20
-2.45976707728844
30
0.000000000000000
11
-29.4294591484465
21
-2.51097971031959
31
0.000000000000000
  0
LINE
  5
F101E9
330
F101EA
100
AcDbEntity
8
Geo
100
AcDbLine
10
-29.4294591484465
20
-2.51097971031959
30
0.000000000000000
11
-29.3294591484465
21
-2.56199863246776
31
0.000000000000000
  0
LINE
  5
F101EB
330
F101EC
100
AcDbEntity
8
Geo
100
AcDbLine
10
-29.3294591484465
20
-2.56199863246776
30
0.000000000000000
11
-29.2294591484465
21
-2.61282118650896
31
0.000000000000000
  0
LINE
  5
F101ED
330
F101EE
100
AcDbEntity
8
Geo
100
AcDbLine
10
-29.2294591484465
20
-2.61282118650896
30
0.000000000000000
11
-29.1294591484465
21
-2.66344472544664
31
0.000000000000000
  0
LINE
  5
F101EF
330
F101F0
100
AcDbEntity
8
Geo
100
AcDbLine
10
-29.1294591484465
20
-2.66344472544664
30
0.000000000000000
11
-29.0294591484465
21
-2.71386661264961
31
0.000000000000000
  0
LINE
  5
F101F1
330
F101F2
100
AcDbEntity
8
Geo
100
AcDbLine
10
-29.0294591484465
20
-2.71386661264961
30
0.000000000000000
11
-28.9294591484465
21
-2.76408422198930
31
0.000000000000000
  0
LINE
  5
F101F3
330
F101F4
100
AcDbEntity
8
Geo
100
AcDbLine
10
-28.9294591484465
20
-2.76408422198930
30
0.000000000000000
11
-28.8294591484465
21
-2.81409493797657
31
0.000000000000000
  0
LINE
  5
F101F5
330
F101F6
100
AcDbEntity
8
Geo
100
AcDbLine
10
-28.8294591484465
20
-2.81409493797657
30
0.000000000000000
11
-28.7294591484465
21
-2.86389615589795
31
0.000000000000000
  0
LINE
  5
F101F7
330
F101F8
100
AcDbEntity
8
Geo
100
AcDbLine
10
-28.7294591484465
20
-2.86389615589795
30
0.000000000000000
11
-28.6294591484465
21
-2.91348528195125
31
0.000000000000000
  0
LINE
  5
F101F9
330
F101FA
100
AcDbEntity
8
Geo
100
AcDbLine
10
-28.6294591484465
20
-2.91348528195125
30
0.000000000000000
11
-28.5294591484465
21
-2.96285973338071
31
0.000000000000000
  0
LINE
  5
F101FB
330
F101FC
100
AcDbEntity
8
Geo
100
AcDbLine
10
-28.5294591484465
20
-2.96285973338071
30
0.000000000000000
11
-28.4294591484465
21
-3.01201693861147
31
0.000000000000000
  0
LINE
  5
F101FD
330
F101FE
100
AcDbEntity
8
Geo
100
AcDbLine
10
-28.4294591484465
20
-3.01201693861147
30
0.000000000000000
11
-28.3294591484465
21
-3.06095433738354
31
0.000000000000000
  0
LINE
  5
F101FF
330
F10200
100
AcDbEntity
8
Geo
100
AcDbLine
10
-28.3294591484465
20
-3.06095433738354
30
0.000000000000000
11
-28.2294591484465
21
-3.10966938088513
31
0.000000000000000
  0
LINE
  5
F10201
330
F10202
100
AcDbEntity
8
Geo
100
AcDbLine
10
-28.2294591484465
20
-3.10966938088513
30
0.000000000000000
11
-28.1294591484465
21
-3.15815953188540
31
0.000000000000000
  0
LINE
  5
F10203
330
F10204
100
AcDbEntity
8
Geo
100
AcDbLine
10
-28.1294591484465
20
-3.15815953188540
30
0.000000000000000
11
-28.0294591484465
21
-3.20642226486661
31
0.000000000000000
  0
LINE
  5
F10205
330
F10206
100
AcDbEntity
8
Geo
100
AcDbLine
10
-28.0294591484465
20
-3.20642226486661
30
0.000000000000000
11
-27.9294591484465
21
-3.25445506615567
31
0.000000000000000
  0
LINE
  5
F10207
330
F10208
100
AcDbEntity
8
Geo
100
AcDbLine
10
-27.9294591484465
20
-3.25445506615567
30
0.000000000000000
11
-27.8294591484465
21
-3.30225543405504
31
0.000000000000000
  0
LINE
  5
F10209
330
F1020A
100
AcDbEntity
8
Geo
100
AcDbLine
10
-27.8294591484465
20
-3.30225543405504
30
0.000000000000000
11
-27.7294591484465
21
-3.34982087897303
31
0.000000000000000
  0
LINE
  5
F1020B
330
F1020C
100
AcDbEntity
8
Geo
100
AcDbLine
10
-27.7294591484465
20
-3.34982087897303
30
0.000000000000000
11
-27.6294591484465
21
-3.39714892355345
31
0.000000000000000
  0
LINE
  5
F1020D
330
F1020E
100
AcDbEntity
8
Geo
100
AcDbLine
10
-27.6294591484465
20
-3.39714892355345
30
0.000000000000000
11
-27.5294591484465
21
-3.44423710280470
31
0.000000000000000
  0
LINE
  5
F1020F
330
F10210
100
AcDbEntity
8
Geo
100
AcDbLine
10
-27.5294591484465
20
-3.44423710280470
30
0.000000000000000
11
-27.4294591484465
21
-3.49108296422808
31
0.000000000000000
  0
LINE
  5
F10211
330
F10212
100
AcDbEntity
8
Geo
100
AcDbLine
10
-27.4294591484465
20
-3.49108296422808
30
0.000000000000000
11
-27.3294591484465
21
-3.53768406794556
31
0.000000000000000
  0
LINE
  5
F10213
330
F10214
100
AcDbEntity
8
Geo
100
AcDbLine
10
-27.3294591484465
20
-3.53768406794556
30
0.000000000000000
11
-27.2294591484465
21
-3.58403798682687
31
0.000000000000000
  0
LINE
  5
F10215
330
F10216
100
AcDbEntity
8
Geo
100
AcDbLine
10
-27.2294591484465
20
-3.58403798682687
30
0.000000000000000
11
-27.1294591484465
21
-3.63014230661586
31
0.000000000000000
  0
LINE
  5
F10217
330
F10218
100
AcDbEntity
8
Geo
100
AcDbLine
10
-27.1294591484465
20
-3.63014230661586
30
0.000000000000000
11
-27.0294591484465
21
-3.67599462605631
31
0.000000000000000
  0
LINE
  5
F10219
330
F1021A
100
AcDbEntity
8
Geo
100
AcDbLine
10
-27.0294591484465
20
-3.67599462605631
30
0.000000000000000
11
-26.9294591484465
21
-3.72159255701694
31
0.000000000000000
  0
LINE
  5
F1021B
330
F1021C
100
AcDbEntity
8
Geo
100
AcDbLine
10
-26.9294591484465
20
-3.72159255701694
30
0.000000000000000
11
-26.8294591484465
21
-3.76693372461583
31
0.000000000000000
  0
LINE
  5
F1021D
330
F1021E
100
AcDbEntity
8
Geo
100
AcDbLine
10
-26.8294591484465
20
-3.76693372461583
30
0.000000000000000
11
-26.7294591484465
21
-3.81201576734408
31
0.000000000000000
  0
LINE
  5
F1021F
330
F10220
100
AcDbEntity
8
Geo
100
AcDbLine
10
-26.7294591484465
20
-3.81201576734408
30
0.000000000000000
11
-26.6294591484465
21
-3.85683633718882
31
0.000000000000000
  0
LINE
  5
F10221
330
F10222
100
AcDbEntity
8
Geo
100
AcDbLine
10
-26.6294591484465
20
-3.85683633718882
30
0.000000000000000
11
-26.5294591484465
21
-3.90139309975550
31
0.000000000000000
  0
LINE
  5
F10223
330
F10224
100
AcDbEntity
8
Geo
100
AcDbLine
10
-26.5294591484465
20
-3.90139309975550
30
0.000000000000000
11
-26.4294591484465
21
-3.94568373438948
31
0.000000000000000
  0
LINE
  5
F10225
330
F10226
100
AcDbEntity
8
Geo
100
AcDbLine
10
-26.4294591484465
20
-3.94568373438948
30
0.000000000000000
11
-26.3294591484465
21
-3.98970593429688
31
0.000000000000000
  0
LINE
  5
F10227
330
F10228
100
AcDbEntity
8
Geo
100
AcDbLine
10
-26.3294591484465
20
-3.98970593429688
30
0.000000000000000
11
-26.2294591484465
21
-4.03345740666475
31
0.000000000000000
  0
LINE
  5
F10229
330
F1022A
100
AcDbEntity
8
Geo
100
AcDbLine
10
-26.2294591484465
20
-4.03345740666475
30
0.000000000000000
11
-26.1294591484465
21
-4.07693587278045
31
0.000000000000000
  0
LINE
  5
F1022B
330
F1022C
100
AcDbEntity
8
Geo
100
AcDbLine
10
-26.1294591484465
20
-4.07693587278045
30
0.000000000000000
11
-26.0294591484465
21
-4.12013906815036
31
0.000000000000000
  0
LINE
  5
F1022D
330
F1022E
100
AcDbEntity
8
Geo
100
AcDbLine
10
-26.0294591484465
20
-4.12013906815036
30
0.000000000000000
11
-25.9294591484465
21
-4.16306474261784
31
0.000000000000000
  0
LINE
  5
F1022F
330
F10230
100
AcDbEntity
8
Geo
100
AcDbLine
10
-25.9294591484465
20
-4.16306474261784
30
0.000000000000000
11
-25.8294591484465
21
-4.20571066048037
31
0.000000000000000
  0
LINE
  5
F10231
330
F10232
100
AcDbEntity
8
Geo
100
AcDbLine
10
-25.8294591484465
20
-4.20571066048037
30
0.000000000000000
11
-25.7294591484465
21
-4.24807460060604
31
0.000000000000000
  0
LINE
  5
F10233
330
F10234
100
AcDbEntity
8
Geo
100
AcDbLine
10
-25.7294591484465
20
-4.24807460060604
30
0.000000000000000
11
-25.6294591484465
21
-4.29015435654921
31
0.000000000000000
  0
LINE
  5
F10235
330
F10236
100
AcDbEntity
8
Geo
100
AcDbLine
10
-25.6294591484465
20
-4.29015435654921
30
0.000000000000000
11
-25.5294591484465
21
-4.33194773666543
31
0.000000000000000
  0
LINE
  5
F10237
330
F10238
100
AcDbEntity
8
Geo
100
AcDbLine
10
-25.5294591484465
20
-4.33194773666543
30
0.000000000000000
11
-25.4294591484465
21
-4.37345256422560
31
0.000000000000000
  0
LINE
  5
F10239
330
F1023A
100
AcDbEntity
8
Geo
100
AcDbLine
10
-25.4294591484465
20
-4.37345256422560
30
0.000000000000000
11
-25.3294591484465
21
-4.41466667752935
31
0.000000000000000
  0
LINE
  5
F1023B
330
F1023C
100
AcDbEntity
8
Geo
100
AcDbLine
10
-25.3294591484465
20
-4.41466667752935
30
0.000000000000000
11
-25.2294591484465
21
-4.45558793001758
31
0.000000000000000
  0
LINE
  5
F1023D
330
F1023E
100
AcDbEntity
8
Geo
100
AcDbLine
10
-25.2294591484465
20
-4.45558793001758
30
0.000000000000000
11
-25.1294591484465
21
-4.49621419038431
31
0.000000000000000
  0
LINE
  5
F1023F
330
F10240
100
AcDbEntity
8
Geo
100
AcDbLine
10
-25.1294591484465
20
-4.49621419038431
30
0.000000000000000
11
-25.0294591484465
21
-4.53654334268767
31
0.000000000000000
  0
LINE
  5
F10241
330
F10242
100
AcDbEntity
8
Geo
100
AcDbLine
10
-25.0294591484465
20
-4.53654334268767
30
0.000000000000000
11
-24.9294591484465
21
-4.57657328646008
31
0.000000000000000
  0
LINE
  5
F10243
330
F10244
100
AcDbEntity
8
Geo
100
AcDbLine
10
-24.9294591484465
20
-4.57657328646008
30
0.000000000000000
11
-24.8294591484465
21
-4.61630193681770
31
0.000000000000000
  0
LINE
  5
F10245
330
F10246
100
AcDbEntity
8
Geo
100
AcDbLine
10
-24.8294591484465
20
-4.61630193681770
30
0.000000000000000
11
-24.7294591484465
21
-4.65572722456896
31
0.000000000000000
  0
LINE
  5
F10247
330
F10248
100
AcDbEntity
8
Geo
100
AcDbLine
10
-24.7294591484465
20
-4.65572722456896
30
0.000000000000000
11
-24.6294591484465
21
-4.69484709632237
31
0.000000000000000
  0
LINE
  5
F10249
330
F1024A
100
AcDbEntity
8
Geo
100
AcDbLine
10
-24.6294591484465
20
-4.69484709632237
30
0.000000000000000
11
-24.5294591484465
21
-4.73365951459346
31
0.000000000000000
  0
LINE
  5
F1024B
330
F1024C
100
AcDbEntity
8
Geo
100
AcDbLine
10
-24.5294591484465
20
-4.73365951459346
30
0.000000000000000
11
-24.4294591484465
21
-4.77216245791088
31
0.000000000000000
  0
LINE
  5
F1024D
330
F1024E
100
AcDbEntity
8
Geo
100
AcDbLine
10
-24.4294591484465
20
-4.77216245791088
30
0.000000000000000
11
-24.3294591484465
21
-4.81035392092170
31
0.000000000000000
  0
LINE
  5
F1024F
330
F10250
100
AcDbEntity
8
Geo
100
AcDbLine
10
-24.3294591484465
20
-4.81035392092170
30
0.000000000000000
11
-24.2294591484465
21
-4.84823191449586
31
0.000000000000000
  0
LINE
  5
F10251
330
F10252
100
AcDbEntity
8
Geo
100
AcDbLine
10
-24.2294591484465
20
-4.84823191449586
30
0.000000000000000
11
-24.1294591484465
21
-4.88579446582976
31
0.000000000000000
  0
LINE
  5
F10253
330
F10254
100
AcDbEntity
8
Geo
100
AcDbLine
10
-24.1294591484465
20
-4.88579446582976
30
0.000000000000000
11
-24.0294591484465
21
-4.92303961854900
31
0.000000000000000
  0
LINE
  5
F10255
330
F10256
100
AcDbEntity
8
Geo
100
AcDbLine
10
-24.0294591484465
20
-4.92303961854900
30
0.000000000000000
11
-23.9294591484465
21
-4.95996543281030
31
0.000000000000000
  0
LINE
  5
F10257
330
F10258
100
AcDbEntity
8
Geo
100
AcDbLine
10
-23.9294591484465
20
-4.95996543281030
30
0.000000000000000
11
-23.8294591484465
21
-4.99656998540252
31
0.000000000000000
  0
LINE
  5
F10259
330
F1025A
100
AcDbEntity
8
Geo
100
AcDbLine
10
-23.8294591484465
20
-4.99656998540252
30
0.000000000000000
11
-23.7294591484465
21
-5.03285136984681
31
0.000000000000000
  0
LINE
  5
F1025B
330
F1025C
100
AcDbEntity
8
Geo
100
AcDbLine
10
-23.7294591484465
20
-5.03285136984681
30
0.000000000000000
11
-23.6294591484465
21
-5.06880769649594
31
0.000000000000000
  0
LINE
  5
F1025D
330
F1025E
100
AcDbEntity
8
Geo
100
AcDbLine
10
-23.6294591484465
20
-5.06880769649594
30
0.000000000000000
11
-23.5294591484465
21
-5.10443709263269
31
0.000000000000000
  0
LINE
  5
F1025F
330
F10260
100
AcDbEntity
8
Geo
100
AcDbLine
10
-23.5294591484465
20
-5.10443709263269
30
0.000000000000000
11
-23.4294591484465
21
-5.13973770256739
31
0.000000000000000
  0
LINE
  5
F10261
330
F10262
100
AcDbEntity
8
Geo
100
AcDbLine
10
-23.4294591484465
20
-5.13973770256739
30
0.000000000000000
11
-23.3294591484465
21
-5.17470768773460
31
0.000000000000000
  0
LINE
  5
F10263
330
F10264
100
AcDbEntity
8
Geo
100
AcDbLine
10
-23.3294591484465
20
-5.17470768773460
30
0.000000000000000
11
-23.2294591484465
21
-5.20934522678883
31
0.000000000000000
  0
LINE
  5
F10265
330
F10266
100
AcDbEntity
8
Geo
100
AcDbLine
10
-23.2294591484465
20
-5.20934522678883
30
0.000000000000000
11
-23.1294591484465
21
-5.24364851569941
31
0.000000000000000
  0
LINE
  5
F10267
330
F10268
100
AcDbEntity
8
Geo
100
AcDbLine
10
-23.1294591484465
20
-5.24364851569941
30
0.000000000000000
11
-23.0294591484465
21
-5.27761576784446
31
0.000000000000000
  0
LINE
  5
F10269
330
F1026A
100
AcDbEntity
8
Geo
100
AcDbLine
10
-23.0294591484465
20
-5.27761576784446
30
0.000000000000000
11
-22.9294591484465
21
-5.31124521410395
31
0.000000000000000
  0
LINE
  5
F1026B
330
F1026C
100
AcDbEntity
8
Geo
100
AcDbLine
10
-22.9294591484465
20
-5.31124521410395
30
0.000000000000000
11
-22.8294591484465
21
-5.34453510295182
31
0.000000000000000
  0
LINE
  5
F1026D
330
F1026E
100
AcDbEntity
8
Geo
100
AcDbLine
10
-22.8294591484465
20
-5.34453510295182
30
0.000000000000000
11
-22.7294591484465
21
-5.37748370054722
31
0.000000000000000
  0
LINE
  5
F1026F
330
F10270
100
AcDbEntity
8
Geo
100
AcDbLine
10
-22.7294591484465
20
-5.37748370054722
30
0.000000000000000
11
-22.6294591484465
21
-5.41008929082481
31
0.000000000000000
  0
LINE
  5
F10271
330
F10272
100
AcDbEntity
8
Geo
100
AcDbLine
10
-22.6294591484465
20
-5.41008929082481
30
0.000000000000000
11
-22.5294591484465
21
-5.44235017558413
31
0.000000000000000
  0
LINE
  5
F10273
330
F10274
100
AcDbEntity
8
Geo
100
AcDbLine
10
-22.5294591484465
20
-5.44235017558413
30
0.000000000000000
11
-22.4294591484465
21
-5.47426467457805
31
0.000000000000000
  0
LINE
  5
F10275
330
F10276
100
AcDbEntity
8
Geo
100
AcDbLine
10
-22.4294591484465
20
-5.47426467457805
30
0.000000000000000
11
-22.3294591484465
21
-5.50583112560031
31
0.000000000000000
  0
LINE
  5
F10277
330
F10278
100
AcDbEntity
8
Geo
100
AcDbLine
10
-22.3294591484465
20
-5.50583112560031
30
0.000000000000000
11
-22.2294591484465
21
-5.53704788457204
31
0.000000000000000
  0
LINE
  5
F10279
330
F1027A
100
AcDbEntity
8
Geo
100
AcDbLine
10
-22.2294591484465
20
-5.53704788457204
30
0.000000000000000
11
-22.1294591484465
21
-5.56791332562745
31
0.000000000000000
  0
LINE
  5
F1027B
330
F1027C
100
AcDbEntity
8
Geo
100
AcDbLine
10
-22.1294591484465
20
-5.56791332562745
30
0.000000000000000
11
-22.0294591484465
21
-5.59842584119845
31
0.000000000000000
  0
LINE
  5
F1027D
330
F1027E
100
AcDbEntity
8
Geo
100
AcDbLine
10
-22.0294591484465
20
-5.59842584119845
30
0.000000000000000
11
-21.9294591484465
21
-5.62858384209843
31
0.000000000000000
  0
LINE
  5
F1027F
330
F10280
100
AcDbEntity
8
Geo
100
AcDbLine
10
-21.9294591484465
20
-5.62858384209843
30
0.000000000000000
11
-21.8294591484465
21
-5.65838575760498
31
0.000000000000000
  0
LINE
  5
F10281
330
F10282
100
AcDbEntity
8
Geo
100
AcDbLine
10
-21.8294591484465
20
-5.65838575760498
30
0.000000000000000
11
-21.7294591484465
21
-5.68783003554174
31
0.000000000000000
  0
LINE
  5
F10283
330
F10284
100
AcDbEntity
8
Geo
100
AcDbLine
10
-21.7294591484465
20
-5.68783003554174
30
0.000000000000000
11
-21.6294591484465
21
-5.71691514235923
31
0.000000000000000
  0
LINE
  5
F10285
330
F10286
100
AcDbEntity
8
Geo
100
AcDbLine
10
-21.6294591484465
20
-5.71691514235923
30
0.000000000000000
11
-21.5294591484465
21
-5.74563956321471
31
0.000000000000000
  0
LINE
  5
F10287
330
F10288
100
AcDbEntity
8
Geo
100
AcDbLine
10
-21.5294591484465
20
-5.74563956321471
30
0.000000000000000
11
-21.4294591484465
21
-5.77400180205109
31
0.000000000000000
  0
LINE
  5
F10289
330
F1028A
100
AcDbEntity
8
Geo
100
AcDbLine
10
-21.4294591484465
20
-5.77400180205109
30
0.000000000000000
11
-21.3294591484465
21
-5.80200038167483
31
0.000000000000000
  0
LINE
  5
F1028B
330
F1028C
100
AcDbEntity
8
Geo
100
AcDbLine
10
-21.3294591484465
20
-5.80200038167483
30
0.000000000000000
11
-21.2294591484465
21
-5.82963384383291
31
0.000000000000000
  0
LINE
  5
F1028D
330
F1028E
100
AcDbEntity
8
Geo
100
AcDbLine
10
-21.2294591484465
20
-5.82963384383291
30
0.000000000000000
11
-21.1294591484465
21
-5.85690074928877
31
0.000000000000000
  0
LINE
  5
F1028F
330
F10290
100
AcDbEntity
8
Geo
100
AcDbLine
10
-36.1294591484465
20
-6.79171461449944
30
0.000000000000000
11
-36.1294591484465
21
-6.79171461449944
31
0.000000000000000
  0
LINE
  5
F10291
330
F10292
100
AcDbEntity
8
Geo
100
AcDbLine
10
-36.1294591484465
20
8.81673751586178
30
0.000000000000000
11
-36.0294591484465
21
8.79869843032916
31
0.000000000000000
  0
LINE
  5
F10293
330
F10294
100
AcDbEntity
8
Geo
100
AcDbLine
10
-36.0294591484465
20
8.79869843032916
30
0.000000000000000
11
-35.9294591484465
21
8.78026401249964
31
0.000000000000000
  0
LINE
  5
F10295
330
F10296
100
AcDbEntity
8
Geo
100
AcDbLine
10
-35.9294591484465
20
8.78026401249964
30
0.000000000000000
11
-35.8294591484465
21
8.76143522249500
31
0.000000000000000
  0
LINE
  5
F10297
330
F10298
100
AcDbEntity
8
Geo
100
AcDbLine
10
-35.8294591484465
20
8.76143522249500
30
0.000000000000000
11
-35.7294591484465
21
8.74221304097710
31
0.000000000000000
  0
LINE
  5
F10299
330
F1029A
100
AcDbEntity
8
Geo
100
AcDbLine
10
-35.7294591484465
20
8.74221304097710
30
0.000000000000000
11
-35.6294591484465
21
8.72259846909691
31
0.000000000000000
  0
LINE
  5
F1029B
330
F1029C
100
AcDbEntity
8
Geo
100
AcDbLine
10
-35.6294591484465
20
8.72259846909691
30
0.000000000000000
11
-35.5294591484465
21
8.70259252844226
31
0.000000000000000
  0
LINE
  5
F1029D
330
F1029E
100
AcDbEntity
8
Geo
100
AcDbLine
10
-35.5294591484465
20
8.70259252844226
30
0.000000000000000
11
-35.4294591484465
21
8.68219626098472
31
0.000000000000000
  0
LINE
  5
F1029F
330
F102A0
100
AcDbEntity
8
Geo
100
AcDbLine
10
-35.4294591484465
20
8.68219626098472
30
0.000000000000000
11
-35.3294591484465
21
8.66141072902527
31
0.000000000000000
  0
LINE
  5
F102A1
330
F102A2
100
AcDbEntity
8
Geo
100
AcDbLine
10
-35.3294591484465
20
8.66141072902527
30
0.000000000000000
11
-35.2294591484465
21
8.64023701513899
31
0.000000000000000
  0
LINE
  5
F102A3
330
F102A4
100
AcDbEntity
8
Geo
100
AcDbLine
10
-35.2294591484465
20
8.64023701513899
30
0.000000000000000
11
-35.1294591484465
21
8.61867622211871
31
0.000000000000000
  0
LINE
  5
F102A5
330
F102A6
100
AcDbEntity
8
Geo
100
AcDbLine
10
-35.1294591484465
20
8.61867622211871
30
0.000000000000000
11
-35.0294591484465
21
8.59672947291752
31
0.000000000000000
  0
LINE
  5
F102A7
330
F102A8
100
AcDbEntity
8
Geo
100
AcDbLine
10
-35.0294591484465
20
8.59672947291752
30
0.000000000000000
11
-34.9294591484465
21
8.57439791059030
31
0.000000000000000
  0
LINE
  5
F102A9
330
F102AA
100
AcDbEntity
8
Geo
100
AcDbLine
10
-34.9294591484465
20
8.57439791059030
30
0.000000000000000
11
-34.8294591484465
21
8.55168269823423
31
0.000000000000000
  0
LINE
  5
F102AB
330
F102AC
100
AcDbEntity
8
Geo
100
AcDbLine
10
-34.8294591484465
20
8.55168269823423
30
0.000000000000000
11
-34.7294591484465
21
8.52858501892813
31
0.000000000000000
  0
LINE
  5
F102AD
330
F102AE
100
AcDbEntity
8
Geo
100
AcDbLine
10
-34.7294591484465
20
8.52858501892813
30
0.000000000000000
11
-34.6294591484465
21
8.50510607567092
31
0.000000000000000
  0
LINE
  5
F102AF
330
F102B0
100
AcDbEntity
8
Geo
100
AcDbLine
10
-34.6294591484465
20
8.50510607567092
30
0.000000000000000
11
-34.5294591484465
21
8.48124709131892
31
0.000000000000000
  0
LINE
  5
F102B1
330
F102B2
100
AcDbEntity
8
Geo
100
AcDbLine
10
-34.5294591484465
20
8.48124709131892
30
0.000000000000000
11
-34.4294591484465
21
8.45700930852217
31
0.000000000000000
  0
LINE
  5
F102B3
330
F102B4
100
AcDbEntity
8
Geo
100
AcDbLine
10
-34.4294591484465
20
8.45700930852217
30
0.000000000000000
11
-34.3294591484465
21
8.43239398965971
31
0.000000000000000
  0
LINE
  5
F102B5
330
F102B6
100
AcDbEntity
8
Geo
100
AcDbLine
10
-34.3294591484465
20
8.43239398965971
30
0.000000000000000
11
-34.2294591484465
21
8.40740241677383
31
0.000000000000000
  0
LINE
  5
F102B7
330
F102B8
100
AcDbEntity
8
Geo
100
AcDbLine
10
-34.2294591484465
20
8.40740241677383
30
0.000000000000000
11
-34.1294591484465
21
8.38203589150332
31
0.000000000000000
  0
LINE
  5
F102B9
330
F102BA
100
AcDbEntity
8
Geo
100
AcDbLine
10
-34.1294591484465
20
8.38203589150332
30
0.000000000000000
11
-34.0294591484465
21
8.35629573501561
31
0.000000000000000
  0
LINE
  5
F102BB
330
F102BC
100
AcDbEntity
8
Geo
100
AcDbLine
10
-34.0294591484465
20
8.35629573501561
30
0.000000000000000
11
-33.9294591484465
21
8.33018328793805
31
0.000000000000000
  0
LINE
  5
F102BD
330
F102BE
100
AcDbEntity
8
Geo
100
AcDbLine
10
-33.9294591484465
20
8.33018328793805
30
0.000000000000000
11
-33.8294591484465
21
8.30369991028802
31
0.000000000000000
  0
LINE
  5
F102BF
330
F102C0
100
AcDbEntity
8
Geo
100
AcDbLine
10
-33.8294591484465
20
8.30369991028802
30
0.000000000000000
11
-33.7294591484465
21
8.27684698140211
31
0.000000000000000
  0
LINE
  5
F102C1
330
F102C2
100
AcDbEntity
8
Geo
100
AcDbLine
10
-33.7294591484465
20
8.27684698140211
30
0.000000000000000
11
-33.6294591484465
21
8.24962589986431
31
0.000000000000000
  0
LINE
  5
F102C3
330
F102C4
100
AcDbEntity
8
Geo
100
AcDbLine
10
-33.6294591484465
20
8.24962589986431
30
0.000000000000000
11
-33.5294591484465
21
8.22203808343311
31
0.000000000000000
  0
LINE
  5
F102C5
330
F102C6
100
AcDbEntity
8
Geo
100
AcDbLine
10
-33.5294591484465
20
8.22203808343311
30
0.000000000000000
11
-33.4294591484465
21
8.19408496896774
31
0.000000000000000
  0
LINE
  5
F102C7
330
F102C8
100
AcDbEntity
8
Geo
100
AcDbLine
10
-33.4294591484465
20
8.19408496896774
30
0.000000000000000
11
-33.3294591484465
21
8.16576801235323
31
0.000000000000000
  0
LINE
  5
F102C9
330
F102CA
100
AcDbEntity
8
Geo
100
AcDbLine
10
-33.3294591484465
20
8.16576801235323
30
0.000000000000000
11
-33.2294591484465
21
8.13708868842470
31
0.000000000000000
  0
LINE
  5
F102CB
330
F102CC
100
AcDbEntity
8
Geo
100
AcDbLine
10
-33.2294591484465
20
8.13708868842470
30
0.000000000000000
11
-33.1294591484465
21
8.10804849089043
31
0.000000000000000
  0
LINE
  5
F102CD
330
F102CE
100
AcDbEntity
8
Geo
100
AcDbLine
10
-33.1294591484465
20
8.10804849089043
30
0.000000000000000
11
-33.0294591484465
21
8.07864893225415
31
0.000000000000000
  0
LINE
  5
F102CF
330
F102D0
100
AcDbEntity
8
Geo
100
AcDbLine
10
-33.0294591484465
20
8.07864893225415
30
0.000000000000000
11
-32.9294591484465
21
8.04889154373623
31
0.000000000000000
  0
LINE
  5
F102D1
330
F102D2
100
AcDbEntity
8
Geo
100
AcDbLine
10
-32.9294591484465
20
8.04889154373623
30
0.000000000000000
11
-32.8294591484465
21
8.01877787519393
31
0.000000000000000
  0
LINE
  5
F102D3
330
F102D4
100
AcDbEntity
8
Geo
100
AcDbLine
10
-32.8294591484465
20
8.01877787519393
30
0.000000000000000
11
-32.7294591484465
21
7.98830949504067
31
0.000000000000000
  0
LINE
  5
F102D5
330
F102D6
100
AcDbEntity
8
Geo
100
AcDbLine
10
-32.7294591484465
20
7.98830949504067
30
0.000000000000000
11
-32.6294591484465
21
7.95748799016437
31
0.000000000000000
  0
LINE
  5
F102D7
330
F102D8
100
AcDbEntity
8
Geo
100
AcDbLine
10
-32.6294591484465
20
7.95748799016437
30
0.000000000000000
11
-32.5294591484465
21
7.92631496584477
31
0.000000000000000
  0
LINE
  5
F102D9
330
F102DA
100
AcDbEntity
8
Geo
100
AcDbLine
10
-32.5294591484465
20
7.92631496584477
30
0.000000000000000
11
-32.4294591484465
21
7.89479204566985
31
0.000000000000000
  0
LINE
  5
F102DB
330
F102DC
100
AcDbEntity
8
Geo
100
AcDbLine
10
-32.4294591484465
20
7.89479204566985
30
0.000000000000000
11
-32.3294591484465
21
7.86292087145123
31
0.000000000000000
  0
LINE
  5
F102DD
330
F102DE
100
AcDbEntity
8
Geo
100
AcDbLine
10
-32.3294591484465
20
7.86292087145123
30
0.000000000000000
11
-32.2294591484465
21
7.83070310313871
31
0.000000000000000
  0
LINE
  5
F102DF
330
F102E0
100
AcDbEntity
8
Geo
100
AcDbLine
10
-32.2294591484465
20
7.83070310313871
30
0.000000000000000
11
-32.1294591484465
21
7.79814041873376
31
0.000000000000000
  0
LINE
  5
F102E1
330
F102E2
100
AcDbEntity
8
Geo
100
AcDbLine
10
-32.1294591484465
20
7.79814041873376
30
0.000000000000000
11
-32.0294591484465
21
7.76523451420217
31
0.000000000000000
  0
LINE
  5
F102E3
330
F102E4
100
AcDbEntity
8
Geo
100
AcDbLine
10
-32.0294591484465
20
7.76523451420217
30
0.000000000000000
11
-31.9294591484465
21
7.73198710338570
31
0.000000000000000
  0
LINE
  5
F102E5
330
F102E6
100
AcDbEntity
8
Geo
100
AcDbLine
10
-31.9294591484465
20
7.73198710338570
30
0.000000000000000
11
-31.8294591484465
21
7.69839991791281
31
0.000000000000000
  0
LINE
  5
F102E7
330
F102E8
100
AcDbEntity
8
Geo
100
AcDbLine
10
-31.8294591484465
20
7.69839991791281
30
0.000000000000000
11
-31.7294591484465
21
7.66447470710848
31
0.000000000000000
  0
LINE
  5
F102E9
330
F102EA
100
AcDbEntity
8
Geo
100
AcDbLine
10
-31.7294591484465
20
7.66447470710848
30
0.000000000000000
11
-31.6294591484465
21
7.63021323790311
31
0.000000000000000
  0
LINE
  5
F102EB
330
F102EC
100
AcDbEntity
8
Geo
100
AcDbLine
10
-31.6294591484465
20
7.63021323790311
30
0.000000000000000
11
-31.5294591484465
21
7.59561729474047
31
0.000000000000000
  0
LINE
  5
F102ED
330
F102EE
100
AcDbEntity
8
Geo
100
AcDbLine
10
-31.5294591484465
20
7.59561729474047
30
0.000000000000000
11
-31.4294591484465
21
7.56068867948479
31
0.000000000000000
  0
LINE
  5
F102EF
330
F102F0
100
AcDbEntity
8
Geo
100
AcDbLine
10
-31.4294591484465
20
7.56068867948479
30
0.000000000000000
11
-31.3294591484465
21
7.52542921132688
31
0.000000000000000
  0
LINE
  5
F102F1
330
F102F2
100
AcDbEntity
8
Geo
100
AcDbLine
10
-31.3294591484465
20
7.52542921132688
30
0.000000000000000
11
-31.2294591484465
21
7.48984072668940
31
0.000000000000000
  0
LINE
  5
F102F3
330
F102F4
100
AcDbEntity
8
Geo
100
AcDbLine
10
-31.2294591484465
20
7.48984072668940
30
0.000000000000000
11
-31.1294591484465
21
7.45392507913121
31
0.000000000000000
  0
LINE
  5
F102F5
330
F102F6
100
AcDbEntity
8
Geo
100
AcDbLine
10
-31.1294591484465
20
7.45392507913121
30
0.000000000000000
11
-31.0294591484465
21
7.41768413925084
31
0.000000000000000
  0
LINE
  5
F102F7
330
F102F8
100
AcDbEntity
8
Geo
100
AcDbLine
10
-31.0294591484465
20
7.41768413925084
30
0.000000000000000
11
-30.9294591484465
21
7.38111979458906
31
0.000000000000000
  0
LINE
  5
F102F9
330
F102FA
100
AcDbEntity
8
Geo
100
AcDbLine
10
-30.9294591484465
20
7.38111979458906
30
0.000000000000000
11
-30.8294591484465
21
7.34423394953053
31
0.000000000000000
  0
LINE
  5
F102FB
330
F102FC
100
AcDbEntity
8
Geo
100
AcDbLine
10
-30.8294591484465
20
7.34423394953053
30
0.000000000000000
11
-30.7294591484465
21
7.30702852520470
31
0.000000000000000
  0
LINE
  5
F102FD
330
F102FE
100
AcDbEntity
8
Geo
100
AcDbLine
10
-30.7294591484465
20
7.30702852520470
30
0.000000000000000
11
-30.6294591484465
21
7.26950545938566
31
0.000000000000000
  0
LINE
  5
F102FF
330
F10300
100
AcDbEntity
8
Geo
100
AcDbLine
10
-30.6294591484465
20
7.26950545938566
30
0.000000000000000
11
-30.5294591484465
21
7.23166670639128
31
0.000000000000000
  0
LINE
  5
F10301
330
F10302
100
AcDbEntity
8
Geo
100
AcDbLine
10
-30.5294591484465
20
7.23166670639128
30
0.000000000000000
11
-30.4294591484465
21
7.19351423698139
31
0.000000000000000
  0
LINE
  5
F10303
330
F10304
100
AcDbEntity
8
Geo
100
AcDbLine
10
-30.4294591484465
20
7.19351423698139
30
0.000000000000000
11
-30.3294591484465
21
7.15505003825515
31
0.000000000000000
  0
LINE
  5
F10305
330
F10306
100
AcDbEntity
8
Geo
100
AcDbLine
10
-30.3294591484465
20
7.15505003825515
30
0.000000000000000
11
-30.2294591484465
21
7.11627611354755
31
0.000000000000000
  0
LINE
  5
F10307
330
F10308
100
AcDbEntity
8
Geo
100
AcDbLine
10
-30.2294591484465
20
7.11627611354755
30
0.000000000000000
11
-30.1294591484465
21
7.07719448232506
31
0.000000000000000
  0
LINE
  5
F10309
330
F1030A
100
AcDbEntity
8
Geo
100
AcDbLine
10
-30.1294591484465
20
7.07719448232506
30
0.000000000000000
11
-30.0294591484465
21
7.03780718008048
31
0.000000000000000
  0
LINE
  5
F1030B
330
F1030C
100
AcDbEntity
8
Geo
100
AcDbLine
10
-30.0294591484465
20
7.03780718008048
30
0.000000000000000
11
-29.9294591484465
21
6.99811625822689
31
0.000000000000000
  0
LINE
  5
F1030D
330
F1030E
100
AcDbEntity
8
Geo
100
AcDbLine
10
-29.9294591484465
20
6.99811625822689
30
0.000000000000000
11
-29.8294591484465
21
6.95812378399084
31
0.000000000000000
  0
LINE
  5
F1030F
330
F10310
100
AcDbEntity
8
Geo
100
AcDbLine
10
-29.8294591484465
20
6.95812378399084
30
0.000000000000000
11
-29.7294591484465
21
6.91783184030466
31
0.000000000000000
  0
LINE
  5
F10311
330
F10312
100
AcDbEntity
8
Geo
100
AcDbLine
10
-29.7294591484465
20
6.91783184030466
30
0.000000000000000
11
-29.6294591484465
21
6.87724252569796
31
0.000000000000000
  0
LINE
  5
F10313
330
F10314
100
AcDbEntity
8
Geo
100
AcDbLine
10
-29.6294591484465
20
6.87724252569796
30
0.000000000000000
11
-29.5294591484465
21
6.83635795418838
31
0.000000000000000
  0
LINE
  5
F10315
330
F10316
100
AcDbEntity
8
Geo
100
AcDbLine
10
-29.5294591484465
20
6.83635795418838
30
0.000000000000000
11
-29.4294591484465
21
6.79518025517143
31
0.000000000000000
  0
LINE
  5
F10317
330
F10318
100
AcDbEntity
8
Geo
100
AcDbLine
10
-29.4294591484465
20
6.79518025517143
30
0.000000000000000
11
-29.3294591484465
21
6.75371157330965
31
0.000000000000000
  0
LINE
  5
F10319
330
F1031A
100
AcDbEntity
8
Geo
100
AcDbLine
10
-29.3294591484465
20
6.75371157330965
30
0.000000000000000
11
-29.2294591484465
21
6.71195406842082
31
0.000000000000000
  0
LINE
  5
F1031B
330
F1031C
100
AcDbEntity
8
Geo
100
AcDbLine
10
-29.2294591484465
20
6.71195406842082
30
0.000000000000000
11
-29.1294591484465
21
6.66990991536555
31
0.000000000000000
  0
LINE
  5
F1031D
330
F1031E
100
AcDbEntity
8
Geo
100
AcDbLine
10
-29.1294591484465
20
6.66990991536555
30
0.000000000000000
11
-29.0294591484465
21
6.62758130393399
31
0.000000000000000
  0
LINE
  5
F1031F
330
F10320
100
AcDbEntity
8
Geo
100
AcDbLine
10
-29.0294591484465
20
6.62758130393399
30
0.000000000000000
11
-28.9294591484465
21
6.58497043873174
31
0.000000000000000
  0
LINE
  5
F10321
330
F10322
100
AcDbEntity
8
Geo
100
AcDbLine
10
-28.9294591484465
20
6.58497043873174
30
0.000000000000000
11
-28.8294591484465
21
6.54207953906507
31
0.000000000000000
  0
LINE
  5
F10323
330
F10324
100
AcDbEntity
8
Geo
100
AcDbLine
10
-28.8294591484465
20
6.54207953906507
30
0.000000000000000
11
-28.7294591484465
21
6.49891083882529
31
0.000000000000000
  0
LINE
  5
F10325
330
F10326
100
AcDbEntity
8
Geo
100
AcDbLine
10
-28.7294591484465
20
6.49891083882529
30
0.000000000000000
11
-28.6294591484465
21
6.45546658637247
31
0.000000000000000
  0
LINE
  5
F10327
330
F10328
100
AcDbEntity
8
Geo
100
AcDbLine
10
-28.6294591484465
20
6.45546658637247
30
0.000000000000000
11
-28.5294591484465
21
6.41174904441826
31
0.000000000000000
  0
LINE
  5
F10329
330
F1032A
100
AcDbEntity
8
Geo
100
AcDbLine
10
-28.5294591484465
20
6.41174904441826
30
0.000000000000000
11
-28.4294591484465
21
6.36776048990808
31
0.000000000000000
  0
LINE
  5
F1032B
330
F1032C
100
AcDbEntity
8
Geo
100
AcDbLine
10
-28.4294591484465
20
6.36776048990808
30
0.000000000000000
11
-28.3294591484465
21
6.32350321390255
31
0.000000000000000
  0
LINE
  5
F1032D
330
F1032E
100
AcDbEntity
8
Geo
100
AcDbLine
10
-28.3294591484465
20
6.32350321390255
30
0.000000000000000
11
-28.2294591484465
21
6.27897952145811
31
0.000000000000000
  0
LINE
  5
F1032F
330
F10330
100
AcDbEntity
8
Geo
100
AcDbLine
10
-28.2294591484465
20
6.27897952145811
30
0.000000000000000
11
-28.1294591484465
21
6.23419173150702
31
0.000000000000000
  0
LINE
  5
F10331
330
F10332
100
AcDbEntity
8
Geo
100
AcDbLine
10
-28.1294591484465
20
6.23419173150702
30
0.000000000000000
11
-28.0294591484465
21
6.18914217673654
31
0.000000000000000
  0
LINE
  5
F10333
330
F10334
100
AcDbEntity
8
Geo
100
AcDbLine
10
-28.0294591484465
20
6.18914217673654
30
0.000000000000000
11
-27.9294591484465
21
6.14383320346746
31
0.000000000000000
  0
LINE
  5
F10335
330
F10336
100
AcDbEntity
8
Geo
100
AcDbLine
10
-27.9294591484465
20
6.14383320346746
30
0.000000000000000
11
-27.8294591484465
21
6.09826717153192
31
0.000000000000000
  0
LINE
  5
F10337
330
F10338
100
AcDbEntity
8
Geo
100
AcDbLine
10
-27.8294591484465
20
6.09826717153192
30
0.000000000000000
11
-27.7294591484465
21
6.05244645415042
31
0.000000000000000
  0
LINE
  5
F10339
330
F1033A
100
AcDbEntity
8
Geo
100
AcDbLine
10
-27.7294591484465
20
6.05244645415042
30
0.000000000000000
11
-27.6294591484465
21
6.00637343780831
31
0.000000000000000
  0
LINE
  5
F1033B
330
F1033C
100
AcDbEntity
8
Geo
100
AcDbLine
10
-27.6294591484465
20
6.00637343780831
30
0.000000000000000
11
-27.5294591484465
21
5.96005052213145
31
0.000000000000000
  0
LINE
  5
F1033D
330
F1033E
100
AcDbEntity
8
Geo
100
AcDbLine
10
-27.5294591484465
20
5.96005052213145
30
0.000000000000000
11
-27.4294591484465
21
5.91348011976122
31
0.000000000000000
  0
LINE
  5
F1033F
330
F10340
100
AcDbEntity
8
Geo
100
AcDbLine
10
-27.4294591484465
20
5.91348011976122
30
0.000000000000000
11
-27.3294591484465
21
5.86666465622889
31
0.000000000000000
  0
LINE
  5
F10341
330
F10342
100
AcDbEntity
8
Geo
100
AcDbLine
10
-27.3294591484465
20
5.86666465622889
30
0.000000000000000
11
-27.2294591484465
21
5.81960656982925
31
0.000000000000000
  0
LINE
  5
F10343
330
F10344
100
AcDbEntity
8
Geo
100
AcDbLine
10
-27.2294591484465
20
5.81960656982925
30
0.000000000000000
11
-27.1294591484465
21
5.77230831149369
31
0.000000000000000
  0
LINE
  5
F10345
330
F10346
100
AcDbEntity
8
Geo
100
AcDbLine
10
-27.1294591484465
20
5.77230831149369
30
0.000000000000000
11
-27.0294591484465
21
5.72477234466245
31
0.000000000000000
  0
LINE
  5
F10347
330
F10348
100
AcDbEntity
8
Geo
100
AcDbLine
10
-27.0294591484465
20
5.72477234466245
30
0.000000000000000
11
-26.9294591484465
21
5.67700114515639
31
0.000000000000000
  0
LINE
  5
F10349
330
F1034A
100
AcDbEntity
8
Geo
100
AcDbLine
10
-26.9294591484465
20
5.67700114515639
30
0.000000000000000
11
-26.8294591484465
21
5.62899720104804
31
0.000000000000000
  0
LINE
  5
F1034B
330
F1034C
100
AcDbEntity
8
Geo
100
AcDbLine
10
-26.8294591484465
20
5.62899720104804
30
0.000000000000000
11
-26.7294591484465
21
5.58076301253195
31
0.000000000000000
  0
LINE
  5
F1034D
330
F1034E
100
AcDbEntity
8
Geo
100
AcDbLine
10
-26.7294591484465
20
5.58076301253195
30
0.000000000000000
11
-26.6294591484465
21
5.53230109179455
31
0.000000000000000
  0
LINE
  5
F1034F
330
F10350
100
AcDbEntity
8
Geo
100
AcDbLine
10
-26.6294591484465
20
5.53230109179455
30
0.000000000000000
11
-26.5294591484465
21
5.48361396288324
31
0.000000000000000
  0
LINE
  5
F10351
330
F10352
100
AcDbEntity
8
Geo
100
AcDbLine
10
-26.5294591484465
20
5.48361396288324
30
0.000000000000000
11
-26.4294591484465
21
5.43470416157499
31
0.000000000000000
  0
LINE
  5
F10353
330
F10354
100
AcDbEntity
8
Geo
100
AcDbLine
10
-26.4294591484465
20
5.43470416157499
30
0.000000000000000
11
-26.3294591484465
21
5.38557423524423
31
0.000000000000000
  0
LINE
  5
F10355
330
F10356
100
AcDbEntity
8
Geo
100
AcDbLine
10
-26.3294591484465
20
5.38557423524423
30
0.000000000000000
11
-26.2294591484465
21
5.33622674273018
31
0.000000000000000
  0
LINE
  5
F10357
330
F10358
100
AcDbEntity
8
Geo
100
AcDbLine
10
-26.2294591484465
20
5.33622674273018
30
0.000000000000000
11
-26.1294591484465
21
5.28666425420358
31
0.000000000000000
  0
LINE
  5
F10359
330
F1035A
100
AcDbEntity
8
Geo
100
AcDbLine
10
-26.1294591484465
20
5.28666425420358
30
0.000000000000000
11
-26.0294591484465
21
5.23688935103284
31
0.000000000000000
  0
LINE
  5
F1035B
330
F1035C
100
AcDbEntity
8
Geo
100
AcDbLine
10
-26.0294591484465
20
5.23688935103284
30
0.000000000000000
11
-25.9294591484465
21
5.18690462564959
31
0.000000000000000
  0
LINE
  5
F1035D
330
F1035E
100
AcDbEntity
8
Geo
100
AcDbLine
10
-25.9294591484465
20
5.18690462564959
30
0.000000000000000
11
-25.8294591484465
21
5.13671268141364
31
0.000000000000000
  0
LINE
  5
F1035F
330
F10360
100
AcDbEntity
8
Geo
100
AcDbLine
10
-25.8294591484465
20
5.13671268141364
30
0.000000000000000
11
-25.7294591484465
21
5.08631613247740
31
0.000000000000000
  0
LINE
  5
F10361
330
F10362
100
AcDbEntity
8
Geo
100
AcDbLine
10
-25.7294591484465
20
5.08631613247740
30
0.000000000000000
11
-25.6294591484465
21
5.03571760364974
31
0.000000000000000
  0
LINE
  5
F10363
330
F10364
100
AcDbEntity
8
Geo
100
AcDbLine
10
-25.6294591484465
20
5.03571760364974
30
0.000000000000000
11
-25.5294591484465
21
4.98491973025927
31
0.000000000000000
  0
LINE
  5
F10365
330
F10366
100
AcDbEntity
8
Geo
100
AcDbLine
10
-25.5294591484465
20
4.98491973025927
30
0.000000000000000
11
-25.4294591484465
21
4.93392515801707
31
0.000000000000000
  0
LINE
  5
F10367
330
F10368
100
AcDbEntity
8
Geo
100
AcDbLine
10
-25.4294591484465
20
4.93392515801707
30
0.000000000000000
11
-25.3294591484465
21
4.88273654287892
31
0.000000000000000
  0
LINE
  5
F10369
330
F1036A
100
AcDbEntity
8
Geo
100
AcDbLine
10
-25.3294591484465
20
4.88273654287892
30
0.000000000000000
11
-25.2294591484465
21
4.83135655090695
31
0.000000000000000
  0
LINE
  5
F1036B
330
F1036C
100
AcDbEntity
8
Geo
100
AcDbLine
10
-25.2294591484465
20
4.83135655090695
30
0.000000000000000
11
-25.1294591484465
21
4.77978785813081
31
0.000000000000000
  0
LINE
  5
F1036D
330
F1036E
100
AcDbEntity
8
Geo
100
AcDbLine
10
-25.1294591484465
20
4.77978785813081
30
0.000000000000000
11
-25.0294591484465
21
4.72803315040823
31
0.000000000000000
  0
LINE
  5
F1036F
330
F10370
100
AcDbEntity
8
Geo
100
AcDbLine
10
-25.0294591484465
20
4.72803315040823
30
0.000000000000000
11
-24.9294591484465
21
4.67609512328523
31
0.000000000000000
  0
LINE
  5
F10371
330
F10372
100
AcDbEntity
8
Geo
100
AcDbLine
10
-24.9294591484465
20
4.67609512328523
30
0.000000000000000
11
-24.8294591484465
21
4.62397648185564
31
0.000000000000000
  0
LINE
  5
F10373
330
F10374
100
AcDbEntity
8
Geo
100
AcDbLine
10
-24.8294591484465
20
4.62397648185564
30
0.000000000000000
11
-24.7294591484465
21
4.57167994062025
31
0.000000000000000
  0
LINE
  5
F10375
330
F10376
100
AcDbEntity
8
Geo
100
AcDbLine
10
-24.7294591484465
20
4.57167994062025
30
0.000000000000000
11
-24.6294591484465
21
4.51920822334542
31
0.000000000000000
  0
LINE
  5
F10377
330
F10378
100
AcDbEntity
8
Geo
100
AcDbLine
10
-24.6294591484465
20
4.51920822334542
30
0.000000000000000
11
-24.5294591484465
21
4.46656406292125
31
0.000000000000000
  0
LINE
  5
F10379
330
F1037A
100
AcDbEntity
8
Geo
100
AcDbLine
10
-24.5294591484465
20
4.46656406292125
30
0.000000000000000
11
-24.4294591484465
21
4.41375020121918
31
0.000000000000000
  0
LINE
  5
F1037B
330
F1037C
100
AcDbEntity
8
Geo
100
AcDbLine
10
-24.4294591484465
20
4.41375020121918
30
0.000000000000000
11
-24.3294591484465
21
4.36076938894924
31
0.000000000000000
  0
LINE
  5
F1037D
330
F1037E
100
AcDbEntity
8
Geo
100
AcDbLine
10
-24.3294591484465
20
4.36076938894924
30
0.000000000000000
11
-24.2294591484465
21
4.30762438551675
31
0.000000000000000
  0
LINE
  5
F1037F
330
F10380
100
AcDbEntity
8
Geo
100
AcDbLine
10
-24.2294591484465
20
4.30762438551675
30
0.000000000000000
11
-24.1294591484465
21
4.25431795887864
31
0.000000000000000
  0
LINE
  5
F10381
330
F10382
100
AcDbEntity
8
Geo
100
AcDbLine
10
-24.1294591484465
20
4.25431795887864
30
0.000000000000000
11
-24.0294591484465
21
4.20085288539924
31
0.000000000000000
  0
LINE
  5
F10383
330
F10384
100
AcDbEntity
8
Geo
100
AcDbLine
10
-24.0294591484465
20
4.20085288539924
30
0.000000000000000
11
-23.9294591484465
21
4.14723194970570
31
0.000000000000000
  0
LINE
  5
F10385
330
F10386
100
AcDbEntity
8
Geo
100
AcDbLine
10
-23.9294591484465
20
4.14723194970570
30
0.000000000000000
11
-23.8294591484465
21
4.09345794454298
31
0.000000000000000
  0
LINE
  5
F10387
330
F10388
100
AcDbEntity
8
Geo
100
AcDbLine
10
-23.8294591484465
20
4.09345794454298
30
0.000000000000000
11
-23.7294591484465
21
4.03953367062835
31
0.000000000000000
  0
LINE
  5
F10389
330
F1038A
100
AcDbEntity
8
Geo
100
AcDbLine
10
-23.7294591484465
20
4.03953367062835
30
0.000000000000000
11
-23.6294591484465
21
3.98546193650556
31
0.000000000000000
  0
LINE
  5
F1038B
330
F1038C
100
AcDbEntity
8
Geo
100
AcDbLine
10
-23.6294591484465
20
3.98546193650556
30
0.000000000000000
11
-23.5294591484465
21
3.93124555839853
31
0.000000000000000
  0
LINE
  5
F1038D
330
F1038E
100
AcDbEntity
8
Geo
100
AcDbLine
10
-23.5294591484465
20
3.93124555839853
30
0.000000000000000
11
-23.4294591484465
21
3.87688736006471
31
0.000000000000000
  0
LINE
  5
F1038F
330
F10390
100
AcDbEntity
8
Geo
100
AcDbLine
10
-23.4294591484465
20
3.87688736006471
30
0.000000000000000
11
-23.3294591484465
21
3.82239017264796
31
0.000000000000000
  0
LINE
  5
F10391
330
F10392
100
AcDbEntity
8
Geo
100
AcDbLine
10
-23.3294591484465
20
3.82239017264796
30
0.000000000000000
11
-23.2294591484465
21
3.76775683453115
31
0.000000000000000
  0
LINE
  5
F10393
330
F10394
100
AcDbEntity
8
Geo
100
AcDbLine
10
-23.2294591484465
20
3.76775683453115
30
0.000000000000000
11
-23.1294591484465
21
3.71299019118828
31
0.000000000000000
  0
LINE
  5
F10395
330
F10396
100
AcDbEntity
8
Geo
100
AcDbLine
10
-23.1294591484465
20
3.71299019118828
30
0.000000000000000
11
-23.0294591484465
21
3.65809309503633
31
0.000000000000000
  0
LINE
  5
F10397
330
F10398
100
AcDbEntity
8
Geo
100
AcDbLine
10
-23.0294591484465
20
3.65809309503633
30
0.000000000000000
11
-22.9294591484465
21
3.60306840528662
31
0.000000000000000
  0
LINE
  5
F10399
330
F1039A
100
AcDbEntity
8
Geo
100
AcDbLine
10
-22.9294591484465
20
3.60306840528662
30
0.000000000000000
11
-22.8294591484465
21
3.54791898779599
31
0.000000000000000
  0
LINE
  5
F1039B
330
F1039C
100
AcDbEntity
8
Geo
100
AcDbLine
10
-22.8294591484465
20
3.54791898779599
30
0.000000000000000
11
-22.7294591484465
21
3.49264771491746
31
0.000000000000000
  0
LINE
  5
F1039D
330
F1039E
100
AcDbEntity
8
Geo
100
AcDbLine
10
-22.7294591484465
20
3.49264771491746
30
0.000000000000000
11
-22.6294591484465
21
3.43725746535067
31
0.000000000000000
  0
LINE
  5
F1039F
330
F103A0
100
AcDbEntity
8
Geo
100
AcDbLine
10
-22.6294591484465
20
3.43725746535067
30
0.000000000000000
11
-22.5294591484465
21
3.38175112399193
31
0.000000000000000
  0
LINE
  5
F103A1
330
F103A2
100
AcDbEntity
8
Geo
100
AcDbLine
10
-22.5294591484465
20
3.38175112399193
30
0.000000000000000
11
-22.4294591484465
21
3.32613158178396
31
0.000000000000000
  0
LINE
  5
F103A3
330
F103A4
100
AcDbEntity
8
Geo
100
AcDbLine
10
-22.4294591484465
20
3.32613158178396
30
0.000000000000000
11
-22.3294591484465
21
3.27040173556535
31
0.000000000000000
  0
LINE
  5
F103A5
330
F103A6
100
AcDbEntity
8
Geo
100
AcDbLine
10
-22.3294591484465
20
3.27040173556535
30
0.000000000000000
11
-22.2294591484465
21
3.21456448791967
31
0.000000000000000
  0
LINE
  5
F103A7
330
F103A8
100
AcDbEntity
8
Geo
100
AcDbLine
10
-22.2294591484465
20
3.21456448791967
30
0.000000000000000
11
-22.1294591484465
21
3.15862274702426
31
0.000000000000000
  0
LINE
  5
F103A9
330
F103AA
100
AcDbEntity
8
Geo
100
AcDbLine
10
-22.1294591484465
20
3.15862274702426
30
0.000000000000000
11
-22.0294591484465
21
3.10257942649883
31
0.000000000000000
  0
LINE
  5
F103AB
330
F103AC
100
AcDbEntity
8
Geo
100
AcDbLine
10
-22.0294591484465
20
3.10257942649883
30
0.000000000000000
11
-21.9294591484465
21
3.04643744525364
31
0.000000000000000
  0
LINE
  5
F103AD
330
F103AE
100
AcDbEntity
8
Geo
100
AcDbLine
10
-21.9294591484465
20
3.04643744525364
30
0.000000000000000
11
-21.8294591484465
21
2.99019972733753
31
0.000000000000000
  0
LINE
  5
F103AF
330
F103B0
100
AcDbEntity
8
Geo
100
AcDbLine
10
-21.8294591484465
20
2.99019972733753
30
0.000000000000000
11
-21.7294591484465
21
2.93386920178560
31
0.000000000000000
  0
LINE
  5
F103B1
330
F103B2
100
AcDbEntity
8
Geo
100
AcDbLine
10
-21.7294591484465
20
2.93386920178560
30
0.000000000000000
11
-21.6294591484465
21
2.87744880246665
31
0.000000000000000
  0
LINE
  5
F103B3
330
F103B4
100
AcDbEntity
8
Geo
100
AcDbLine
10
-21.6294591484465
20
2.87744880246665
30
0.000000000000000
11
-21.5294591484465
21
2.82094146793039
31
0.000000000000000
  0
LINE
  5
F103B5
330
F103B6
100
AcDbEntity
8
Geo
100
AcDbLine
10
-21.5294591484465
20
2.82094146793039
30
0.000000000000000
11
-21.4294591484465
21
2.76435014125438
31
0.000000000000000
  0
LINE
  5
F103B7
330
F103B8
100
AcDbEntity
8
Geo
100
AcDbLine
10
-21.4294591484465
20
2.76435014125438
30
0.000000000000000
11
-21.3294591484465
21
2.70767776989077
31
0.000000000000000
  0
LINE
  5
F103B9
330
F103BA
100
AcDbEntity
8
Geo
100
AcDbLine
10
-21.3294591484465
20
2.70767776989077
30
0.000000000000000
11
-21.2294591484465
21
2.65092730551276
31
0.000000000000000
  0
LINE
  5
F103BB
330
F103BC
100
AcDbEntity
8
Geo
100
AcDbLine
10
-21.2294591484465
20
2.65092730551276
30
0.000000000000000
11
-21.1294591484465
21
2.59410170386086
31
0.000000000000000
  0
LINE
  5
F103BD
330
F103BE
100
AcDbEntity
8
Geo
100
AcDbLine
10
-36.1294591484465
20
-1.26385056949900
30
0.000000000000000
11
-36.0294591484465
21
-1.31869498816592
31
0.000000000000000
  0
LINE
  5
F103BF
330
F103C0
100
AcDbEntity
8
Geo
100
AcDbLine
10
-36.0294591484465
20
-1.31869498816592
30
0.000000000000000
11
-35.9294591484465
21
-1.37340779384295
31
0.000000000000000
  0
LINE
  5
F103C1
330
F103C2
100
AcDbEntity
8
Geo
100
AcDbLine
10
-35.9294591484465
20
-1.37340779384295
30
0.000000000000000
11
-35.8294591484465
21
-1.42798613691716
31
0.000000000000000
  0
LINE
  5
F103C3
330
F103C4
100
AcDbEntity
8
Geo
100
AcDbLine
10
-35.8294591484465
20
-1.42798613691716
30
0.000000000000000
11
-35.7294591484465
21
-1.48242717477886
31
0.000000000000000
  0
LINE
  5
F103C5
330
F103C6
100
AcDbEntity
8
Geo
100
AcDbLine
10
-35.7294591484465
20
-1.48242717477886
30
0.000000000000000
11
-35.6294591484465
21
-1.53672807196963
31
0.000000000000000
  0
LINE
  5
F103C7
330
F103C8
100
AcDbEntity
8
Geo
100
AcDbLine
10
-35.6294591484465
20
-1.53672807196963
30
0.000000000000000
11
-35.5294591484465
21
-1.59088600033002
31
0.000000000000000
  0
LINE
  5
F103C9
330
F103CA
100
AcDbEntity
8
Geo
100
AcDbLine
10
-35.5294591484465
20
-1.59088600033002
30
0.000000000000000
11
-35.4294591484465
21
-1.64489813914683
31
0.000000000000000
  0
LINE
  5
F103CB
330
F103CC
100
AcDbEntity
8
Geo
100
AcDbLine
10
-35.4294591484465
20
-1.64489813914683
30
0.000000000000000
11
-35.3294591484465
21
-1.69876167530004
31
0.000000000000000
  0
LINE
  5
F103CD
330
F103CE
100
AcDbEntity
8
Geo
100
AcDbLine
10
-35.3294591484465
20
-1.69876167530004
30
0.000000000000000
11
-35.2294591484465
21
-1.75247380340933
31
0.000000000000000
  0
LINE
  5
F103CF
330
F103D0
100
AcDbEntity
8
Geo
100
AcDbLine
10
-35.2294591484465
20
-1.75247380340933
30
0.000000000000000
11
-35.1294591484465
21
-1.80603172598015
31
0.000000000000000
  0
LINE
  5
F103D1
330
F103D2
100
AcDbEntity
8
Geo
100
AcDbLine
10
-35.1294591484465
20
-1.80603172598015
30
0.000000000000000
11
-35.0294591484465
21
-1.85943265354949
31
0.000000000000000
  0
LINE
  5
F103D3
330
F103D4
100
AcDbEntity
8
Geo
100
AcDbLine
10
-35.0294591484465
20
-1.85943265354949
30
0.000000000000000
11
-34.9294591484465
21
-1.91267380483110
31
0.000000000000000
  0
LINE
  5
F103D5
330
F103D6
100
AcDbEntity
8
Geo
100
AcDbLine
10
-34.9294591484465
20
-1.91267380483110
30
0.000000000000000
11
-34.8294591484465
21
-1.96575240686040
31
0.000000000000000
  0
LINE
  5
F103D7
330
F103D8
100
AcDbEntity
8
Geo
100
AcDbLine
10
-34.8294591484465
20
-1.96575240686040
30
0.000000000000000
11
-34.7294591484465
21
-2.01866569513885
31
0.000000000000000
  0
LINE
  5
F103D9
330
F103DA
100
AcDbEntity
8
Geo
100
AcDbLine
10
-34.7294591484465
20
-2.01866569513885
30
0.000000000000000
11
-34.6294591484465
21
-2.07141091377799
31
0.000000000000000
  0
LINE
  5
F103DB
330
F103DC
100
AcDbEntity
8
Geo
100
AcDbLine
10
-34.6294591484465
20
-2.07141091377799
30
0.000000000000000
11
-34.5294591484465
21
-2.12398531564293
31
0.000000000000000
  0
LINE
  5
F103DD
330
F103DE
100
AcDbEntity
8
Geo
100
AcDbLine
10
-34.5294591484465
20
-2.12398531564293
30
0.000000000000000
11
-34.4294591484465
21
-2.17638616249548
31
0.000000000000000
  0
LINE
  5
F103DF
330
F103E0
100
AcDbEntity
8
Geo
100
AcDbLine
10
-34.4294591484465
20
-2.17638616249548
30
0.000000000000000
11
-34.3294591484465
21
-2.22861072513668
31
0.000000000000000
  0
LINE
  5
F103E1
330
F103E2
100
AcDbEntity
8
Geo
100
AcDbLine
10
-34.3294591484465
20
-2.22861072513668
30
0.000000000000000
11
-34.2294591484465
21
-2.28065628354906
31
0.000000000000000
  0
LINE
  5
F103E3
330
F103E4
100
AcDbEntity
8
Geo
100
AcDbLine
10
-34.2294591484465
20
-2.28065628354906
30
0.000000000000000
11
-34.1294591484465
21
-2.33252012703820
31
0.000000000000000
  0
LINE
  5
F103E5
330
F103E6
100
AcDbEntity
8
Geo
100
AcDbLine
10
-34.1294591484465
20
-2.33252012703820
30
0.000000000000000
11
-34.0294591484465
21
-2.38419955437398
31
0.000000000000000
  0
LINE
  5
F103E7
330
F103E8
100
AcDbEntity
8
Geo
100
AcDbLine
10
-34.0294591484465
20
-2.38419955437398
30
0.000000000000000
11
-33.9294591484465
21
-2.43569187393124
31
0.000000000000000
  0
LINE
  5
F103E9
330
F103EA
100
AcDbEntity
8
Geo
100
AcDbLine
10
-33.9294591484465
20
-2.43569187393124
30
0.000000000000000
11
-33.8294591484465
21
-2.48699440382999
31
0.000000000000000
  0
LINE
  5
F103EB
330
F103EC
100
AcDbEntity
8
Geo
100
AcDbLine
10
-33.8294591484465
20
-2.48699440382999
30
0.000000000000000
11
-33.7294591484465
21
-2.53810447207505
31
0.000000000000000
  0
LINE
  5
F103ED
330
F103EE
100
AcDbEntity
8
Geo
100
AcDbLine
10
-33.7294591484465
20
-2.53810447207505
30
0.000000000000000
11
-33.6294591484465
21
-2.58901941669525
31
0.000000000000000
  0
LINE
  5
F103EF
330
F103F0
100
AcDbEntity
8
Geo
100
AcDbLine
10
-33.6294591484465
20
-2.58901941669525
30
0.000000000000000
11
-33.5294591484465
21
-2.63973658588207
31
0.000000000000000
  0
LINE
  5
F103F1
330
F103F2
100
AcDbEntity
8
Geo
100
AcDbLine
10
-33.5294591484465
20
-2.63973658588207
30
0.000000000000000
11
-33.4294591484465
21
-2.69025333812775
31
0.000000000000000
  0
LINE
  5
F103F3
330
F103F4
100
AcDbEntity
8
Geo
100
AcDbLine
10
-33.4294591484465
20
-2.69025333812775
30
0.000000000000000
11
-33.3294591484465
21
-2.74056704236286
31
0.000000000000000
  0
LINE
  5
F103F5
330
F103F6
100
AcDbEntity
8
Geo
100
AcDbLine
10
-33.3294591484465
20
-2.74056704236286
30
0.000000000000000
11
-33.2294591484465
21
-2.79067507809335
31
0.000000000000000
  0
LINE
  5
F103F7
330
F103F8
100
AcDbEntity
8
Geo
100
AcDbLine
10
-33.2294591484465
20
-2.79067507809335
30
0.000000000000000
11
-33.1294591484465
21
-2.84057483553701
31
0.000000000000000
  0
LINE
  5
F103F9
330
F103FA
100
AcDbEntity
8
Geo
100
AcDbLine
10
-33.1294591484465
20
-2.84057483553701
30
0.000000000000000
11
-33.0294591484465
21
-2.89026371575943
31
0.000000000000000
  0
LINE
  5
F103FB
330
F103FC
100
AcDbEntity
8
Geo
100
AcDbLine
10
-33.0294591484465
20
-2.89026371575943
30
0.000000000000000
11
-32.9294591484465
21
-2.93973913080933
31
0.000000000000000
  0
LINE
  5
F103FD
330
F103FE
100
AcDbEntity
8
Geo
100
AcDbLine
10
-32.9294591484465
20
-2.93973913080933
30
0.000000000000000
11
-32.8294591484465
21
-2.98899850385335
31
0.000000000000000
  0
LINE
  5
F103FF
330
F10400
100
AcDbEntity
8
Geo
100
AcDbLine
10
-32.8294591484465
20
-2.98899850385335
30
0.000000000000000
11
-32.7294591484465
21
-3.03803926931029
31
0.000000000000000
  0
LINE
  5
F10401
330
F10402
100
AcDbEntity
8
Geo
100
AcDbLine
10
-32.7294591484465
20
-3.03803926931029
30
0.000000000000000
11
-32.6294591484465
21
-3.08685887298469
31
0.000000000000000
  0
LINE
  5
F10403
330
F10404
100
AcDbEntity
8
Geo
100
AcDbLine
10
-32.6294591484465
20
-3.08685887298469
30
0.000000000000000
11
-32.5294591484465
21
-3.13545477219992
31
0.000000000000000
  0
LINE
  5
F10405
330
F10406
100
AcDbEntity
8
Geo
100
AcDbLine
10
-32.5294591484465
20
-3.13545477219992
30
0.000000000000000
11
-32.4294591484465
21
-3.18382443593052
31
0.000000000000000
  0
LINE
  5
F10407
330
F10408
100
AcDbEntity
8
Geo
100
AcDbLine
10
-32.4294591484465
20
-3.18382443593052
30
0.000000000000000
11
-32.3294591484465
21
-3.23196534493411
31
0.000000000000000
  0
LINE
  5
F10409
330
F1040A
100
AcDbEntity
8
Geo
100
AcDbLine
10
-32.3294591484465
20
-3.23196534493411
30
0.000000000000000
11
-32.2294591484465
21
-3.27987499188257
31
0.000000000000000
  0
LINE
  5
F1040B
330
F1040C
100
AcDbEntity
8
Geo
100
AcDbLine
10
-32.2294591484465
20
-3.27987499188257
30
0.000000000000000
11
-32.1294591484465
21
-3.32755088149262
31
0.000000000000000
  0
LINE
  5
F1040D
330
F1040E
100
AcDbEntity
8
Geo
100
AcDbLine
10
-32.1294591484465
20
-3.32755088149262
30
0.000000000000000
11
-32.0294591484465
21
-3.37499053065578
31
0.000000000000000
  0
LINE
  5
F1040F
330
F10410
100
AcDbEntity
8
Geo
100
AcDbLine
10
-32.0294591484465
20
-3.37499053065578
30
0.000000000000000
11
-31.9294591484465
21
-3.42219146856772
31
0.000000000000000
  0
LINE
  5
F10411
330
F10412
100
AcDbEntity
8
Geo
100
AcDbLine
10
-31.9294591484465
20
-3.42219146856772
30
0.000000000000000
11
-31.8294591484465
21
-3.46915123685692
31
0.000000000000000
  0
LINE
  5
F10413
330
F10414
100
AcDbEntity
8
Geo
100
AcDbLine
10
-31.8294591484465
20
-3.46915123685692
30
0.000000000000000
11
-31.7294591484465
21
-3.51586738971273
31
0.000000000000000
  0
LINE
  5
F10415
330
F10416
100
AcDbEntity
8
Geo
100
AcDbLine
10
-31.7294591484465
20
-3.51586738971273
30
0.000000000000000
11
-31.6294591484465
21
-3.56233749401276
31
0.000000000000000
  0
LINE
  5
F10417
330
F10418
100
AcDbEntity
8
Geo
100
AcDbLine
10
-31.6294591484465
20
-3.56233749401276
30
0.000000000000000
11
-31.5294591484465
21
-3.60855912944957
31
0.000000000000000
  0
LINE
  5
F10419
330
F1041A
100
AcDbEntity
8
Geo
100
AcDbLine
10
-31.5294591484465
20
-3.60855912944957
30
0.000000000000000
11
-31.4294591484465
21
-3.65452988865677
31
0.000000000000000
  0
LINE
  5
F1041B
330
F1041C
100
AcDbEntity
8
Geo
100
AcDbLine
10
-31.4294591484465
20
-3.65452988865677
30
0.000000000000000
11
-31.3294591484465
21
-3.70024737733438
31
0.000000000000000
  0
LINE
  5
F1041D
330
F1041E
100
AcDbEntity
8
Geo
100
AcDbLine
10
-31.3294591484465
20
-3.70024737733438
30
0.000000000000000
11
-31.2294591484465
21
-3.74570921437352
31
0.000000000000000
  0
LINE
  5
F1041F
330
F10420
100
AcDbEntity
8
Geo
100
AcDbLine
10
-31.2294591484465
20
-3.74570921437352
30
0.000000000000000
11
-31.1294591484465
21
-3.79091303198047
31
0.000000000000000
  0
LINE
  5
F10421
330
F10422
100
AcDbEntity
8
Geo
100
AcDbLine
10
-31.1294591484465
20
-3.79091303198047
30
0.000000000000000
11
-31.0294591484465
21
-3.83585647579993
31
0.000000000000000
  0
LINE
  5
F10423
330
F10424
100
AcDbEntity
8
Geo
100
AcDbLine
10
-31.0294591484465
20
-3.83585647579993
30
0.000000000000000
11
-30.9294591484465
21
-3.88053720503771
31
0.000000000000000
  0
LINE
  5
F10425
330
F10426
100
AcDbEntity
8
Geo
100
AcDbLine
10
-30.9294591484465
20
-3.88053720503771
30
0.000000000000000
11
-30.8294591484465
21
-3.92495289258259
31
0.000000000000000
  0
LINE
  5
F10427
330
F10428
100
AcDbEntity
8
Geo
100
AcDbLine
10
-30.8294591484465
20
-3.92495289258259
30
0.000000000000000
11
-30.7294591484465
21
-3.96910122512755
31
0.000000000000000
  0
LINE
  5
F10429
330
F1042A
100
AcDbEntity
8
Geo
100
AcDbLine
10
-30.7294591484465
20
-3.96910122512755
30
0.000000000000000
11
-30.6294591484465
21
-4.01297990329026
31
0.000000000000000
  0
LINE
  5
F1042B
330
F1042C
100
AcDbEntity
8
Geo
100
AcDbLine
10
-30.6294591484465
20
-4.01297990329026
30
0.000000000000000
11
-30.5294591484465
21
-4.05658664173280
31
0.000000000000000
  0
LINE
  5
F1042D
330
F1042E
100
AcDbEntity
8
Geo
100
AcDbLine
10
-30.5294591484465
20
-4.05658664173280
30
0.000000000000000
11
-30.4294591484465
21
-4.09991916928074
31
0.000000000000000
  0
LINE
  5
F1042F
330
F10430
100
AcDbEntity
8
Geo
100
AcDbLine
10
-30.4294591484465
20
-4.09991916928074
30
0.000000000000000
11
-30.3294591484465
21
-4.14297522904141
31
0.000000000000000
  0
LINE
  5
F10431
330
F10432
100
AcDbEntity
8
Geo
100
AcDbLine
10
-30.3294591484465
20
-4.14297522904141
30
0.000000000000000
11
-30.2294591484465
21
-4.18575257852142
31
0.000000000000000
  0
LINE
  5
F10433
330
F10434
100
AcDbEntity
8
Geo
100
AcDbLine
10
-30.2294591484465
20
-4.18575257852142
30
0.000000000000000
11
-30.1294591484465
21
-4.22824898974349
31
0.000000000000000
  0
LINE
  5
F10435
330
F10436
100
AcDbEntity
8
Geo
100
AcDbLine
10
-30.1294591484465
20
-4.22824898974349
30
0.000000000000000
11
-30.0294591484465
21
-4.27046224936247
31
0.000000000000000
  0
LINE
  5
F10437
330
F10438
100
AcDbEntity
8
Geo
100
AcDbLine
10
-30.0294591484465
20
-4.27046224936247
30
0.000000000000000
11
-29.9294591484465
21
-4.31239015878065
31
0.000000000000000
  0
LINE
  5
F10439
330
F1043A
100
AcDbEntity
8
Geo
100
AcDbLine
10
-29.9294591484465
20
-4.31239015878065
30
0.000000000000000
11
-29.8294591484465
21
-4.35403053426220
31
0.000000000000000
  0
LINE
  5
F1043B
330
F1043C
100
AcDbEntity
8
Geo
100
AcDbLine
10
-29.8294591484465
20
-4.35403053426220
30
0.000000000000000
11
-29.7294591484465
21
-4.39538120704699
31
0.000000000000000
  0
LINE
  5
F1043D
330
F1043E
100
AcDbEntity
8
Geo
100
AcDbLine
10
-29.7294591484465
20
-4.39538120704699
30
0.000000000000000
11
-29.6294591484465
21
-4.43644002346350
31
0.000000000000000
  0
LINE
  5
F1043F
330
F10440
100
AcDbEntity
8
Geo
100
AcDbLine
10
-29.6294591484465
20
-4.43644002346350
30
0.000000000000000
11
-29.5294591484465
21
-4.47720484504098
31
0.000000000000000
  0
LINE
  5
F10441
330
F10442
100
AcDbEntity
8
Geo
100
AcDbLine
10
-29.5294591484465
20
-4.47720484504098
30
0.000000000000000
11
-29.4294591484465
21
-4.51767354862085
31
0.000000000000000
  0
LINE
  5
F10443
330
F10444
100
AcDbEntity
8
Geo
100
AcDbLine
10
-29.4294591484465
20
-4.51767354862085
30
0.000000000000000
11
-29.3294591484465
21
-4.55784402646730
31
0.000000000000000
  0
LINE
  5
F10445
330
F10446
100
AcDbEntity
8
Geo
100
AcDbLine
10
-29.3294591484465
20
-4.55784402646730
30
0.000000000000000
11
-29.2294591484465
21
-4.59771418637700
31
0.000000000000000
  0
LINE
  5
F10447
330
F10448
100
AcDbEntity
8
Geo
100
AcDbLine
10
-29.2294591484465
20
-4.59771418637700
30
0.000000000000000
11
-29.1294591484465
21
-4.63728195178814
31
0.000000000000000
  0
LINE
  5
F10449
330
F1044A
100
AcDbEntity
8
Geo
100
AcDbLine
10
-29.1294591484465
20
-4.63728195178814
30
0.000000000000000
11
-29.0294591484465
21
-4.67654526188857
31
0.000000000000000
  0
LINE
  5
F1044B
330
F1044C
100
AcDbEntity
8
Geo
100
AcDbLine
10
-29.0294591484465
20
-4.67654526188857
30
0.000000000000000
11
-28.9294591484465
21
-4.71550207172307
31
0.000000000000000
  0
LINE
  5
F1044D
330
F1044E
100
AcDbEntity
8
Geo
100
AcDbLine
10
-28.9294591484465
20
-4.71550207172307
30
0.000000000000000
11
-28.8294591484465
21
-4.75415035229994
31
0.000000000000000
  0
LINE
  5
F1044F
330
F10450
100
AcDbEntity
8
Geo
100
AcDbLine
10
-28.8294591484465
20
-4.75415035229994
30
0.000000000000000
11
-28.7294591484465
21
-4.79248809069666
31
0.000000000000000
  0
LINE
  5
F10451
330
F10452
100
AcDbEntity
8
Geo
100
AcDbLine
10
-28.7294591484465
20
-4.79248809069666
30
0.000000000000000
11
-28.6294591484465
21
-4.83051329016466
31
0.000000000000000
  0
LINE
  5
F10453
330
F10454
100
AcDbEntity
8
Geo
100
AcDbLine
10
-28.6294591484465
20
-4.83051329016466
30
0.000000000000000
11
-28.5294591484465
21
-4.86822397023340
31
0.000000000000000
  0
LINE
  5
F10455
330
F10456
100
AcDbEntity
8
Geo
100
AcDbLine
10
-28.5294591484465
20
-4.86822397023340
30
0.000000000000000
11
-28.4294591484465
21
-4.90561816681350
31
0.000000000000000
  0
LINE
  5
F10457
330
F10458
100
AcDbEntity
8
Geo
100
AcDbLine
10
-28.4294591484465
20
-4.90561816681350
30
0.000000000000000
11
-28.3294591484465
21
-4.94269393229900
31
0.000000000000000
  0
LINE
  5
F10459
330
F1045A
100
AcDbEntity
8
Geo
100
AcDbLine
10
-28.3294591484465
20
-4.94269393229900
30
0.000000000000000
11
-28.2294591484465
21
-4.97944933566883
31
0.000000000000000
  0
LINE
  5
F1045B
330
F1045C
100
AcDbEntity
8
Geo
100
AcDbLine
10
-28.2294591484465
20
-4.97944933566883
30
0.000000000000000
11
-28.1294591484465
21
-5.01588246258738
31
0.000000000000000
  0
LINE
  5
F1045D
330
F1045E
100
AcDbEntity
8
Geo
100
AcDbLine
10
-28.1294591484465
20
-5.01588246258738
30
0.000000000000000
11
-28.0294591484465
21
-5.05199141550417
31
0.000000000000000
  0
LINE
  5
F1045F
330
F10460
100
AcDbEntity
8
Geo
100
AcDbLine
10
-28.0294591484465
20
-5.05199141550417
30
0.000000000000000
11
-27.9294591484465
21
-5.08777431375275
31
0.000000000000000
  0
LINE
  5
F10461
330
F10462
100
AcDbEntity
8
Geo
100
AcDbLine
10
-27.9294591484465
20
-5.08777431375275
30
0.000000000000000
11
-27.8294591484465
21
-5.12322929364859
31
0.000000000000000
  0
LINE
  5
F10463
330
F10464
100
AcDbEntity
8
Geo
100
AcDbLine
10
-27.8294591484465
20
-5.12322929364859
30
0.000000000000000
11
-27.7294591484465
21
-5.15835450858617
31
0.000000000000000
  0
LINE
  5
F10465
330
F10466
100
AcDbEntity
8
Geo
100
AcDbLine
10
-27.7294591484465
20
-5.15835450858617
30
0.000000000000000
11
-27.6294591484465
21
-5.19314812913514
31
0.000000000000000
  0
LINE
  5
F10467
330
F10468
100
AcDbEntity
8
Geo
100
AcDbLine
10
-27.6294591484465
20
-5.19314812913514
30
0.000000000000000
11
-27.5294591484465
21
-5.22760834313564
31
0.000000000000000
  0
LINE
  5
F10469
330
F1046A
100
AcDbEntity
8
Geo
100
AcDbLine
10
-27.5294591484465
20
-5.22760834313564
30
0.000000000000000
11
-27.4294591484465
21
-5.26173335579265
31
0.000000000000000
  0
LINE
  5
F1046B
330
F1046C
100
AcDbEntity
8
Geo
100
AcDbLine
10
-27.4294591484465
20
-5.26173335579265
30
0.000000000000000
11
-27.3294591484465
21
-5.29552138976946
31
0.000000000000000
  0
LINE
  5
F1046D
330
F1046E
100
AcDbEntity
8
Geo
100
AcDbLine
10
-27.3294591484465
20
-5.29552138976946
30
0.000000000000000
11
-27.2294591484465
21
-5.32897068528028
31
0.000000000000000
  0
LINE
  5
F1046F
330
F10470
100
AcDbEntity
8
Geo
100
AcDbLine
10
-27.2294591484465
20
-5.32897068528028
30
0.000000000000000
11
-27.1294591484465
21
-5.36207950018187
31
0.000000000000000
  0
LINE
  5
F10471
330
F10472
100
AcDbEntity
8
Geo
100
AcDbLine
10
-27.1294591484465
20
-5.36207950018187
30
0.000000000000000
11
-27.0294591484465
21
-5.39484611006427
31
0.000000000000000
  0
LINE
  5
F10473
330
F10474
100
AcDbEntity
8
Geo
100
AcDbLine
10
-27.0294591484465
20
-5.39484611006427
30
0.000000000000000
11
-26.9294591484465
21
-5.42726880834061
31
0.000000000000000
  0
LINE
  5
F10475
330
F10476
100
AcDbEntity
8
Geo
100
AcDbLine
10
-26.9294591484465
20
-5.42726880834061
30
0.000000000000000
11
-26.8294591484465
21
-5.45934590633603
31
0.000000000000000
  0
LINE
  5
F10477
330
F10478
100
AcDbEntity
8
Geo
100
AcDbLine
10
-26.8294591484465
20
-5.45934590633603
30
0.000000000000000
11
-26.7294591484465
21
-5.49107573337559
31
0.000000000000000
  0
LINE
  5
F10479
330
F1047A
100
AcDbEntity
8
Geo
100
AcDbLine
10
-26.7294591484465
20
-5.49107573337559
30
0.000000000000000
11
-26.6294591484465
21
-5.52245663687131
31
0.000000000000000
  0
LINE
  5
F1047B
330
F1047C
100
AcDbEntity
8
Geo
100
AcDbLine
10
-26.6294591484465
20
-5.52245663687131
30
0.000000000000000
11
-26.5294591484465
21
-5.55348698240821
31
0.000000000000000
  0
LINE
  5
F1047D
330
F1047E
100
AcDbEntity
8
Geo
100
AcDbLine
10
-26.5294591484465
20
-5.55348698240821
30
0.000000000000000
11
-26.4294591484465
21
-5.58416515382949
31
0.000000000000000
  0
LINE
  5
F1047F
330
F10480
100
AcDbEntity
8
Geo
100
AcDbLine
10
-26.4294591484465
20
-5.58416515382949
30
0.000000000000000
11
-26.3294591484465
21
-5.61448955332065
31
0.000000000000000
  0
LINE
  5
F10481
330
F10482
100
AcDbEntity
8
Geo
100
AcDbLine
10
-26.3294591484465
20
-5.61448955332065
30
0.000000000000000
11
-26.2294591484465
21
-5.64445860149275
31
0.000000000000000
  0
LINE
  5
F10483
330
F10484
100
AcDbEntity
8
Geo
100
AcDbLine
10
-26.2294591484465
20
-5.64445860149275
30
0.000000000000000
11
-26.1294591484465
21
-5.67407073746462
31
0.000000000000000
  0
LINE
  5
F10485
330
F10486
100
AcDbEntity
8
Geo
100
AcDbLine
10
-26.1294591484465
20
-5.67407073746462
30
0.000000000000000
11
-26.0294591484465
21
-5.70332441894422
31
0.000000000000000
  0
LINE
  5
F10487
330
F10488
100
AcDbEntity
8
Geo
100
AcDbLine
10
-26.0294591484465
20
-5.70332441894422
30
0.000000000000000
11
-25.9294591484465
21
-5.73221812230891
31
0.000000000000000
  0
LINE
  5
F10489
330
F1048A
100
AcDbEntity
8
Geo
100
AcDbLine
10
-25.9294591484465
20
-5.73221812230891
30
0.000000000000000
11
-25.8294591484465
21
-5.76075034268484
31
0.000000000000000
  0
LINE
  5
F1048B
330
F1048C
100
AcDbEntity
8
Geo
100
AcDbLine
10
-25.8294591484465
20
-5.76075034268484
30
0.000000000000000
11
-25.7294591484465
21
-5.78891959402533
31
0.000000000000000
  0
LINE
  5
F1048D
330
F1048E
100
AcDbEntity
8
Geo
100
AcDbLine
10
-25.7294591484465
20
-5.78891959402533
30
0.000000000000000
11
-25.6294591484465
21
-5.81672440918822
31
0.000000000000000
  0
LINE
  5
F1048F
330
F10490
100
AcDbEntity
8
Geo
100
AcDbLine
10
-25.6294591484465
20
-5.81672440918822
30
0.000000000000000
11
-25.5294591484465
21
-5.84416334001234
31
0.000000000000000
  0
LINE
  5
F10491
330
F10492
100
AcDbEntity
8
Geo
100
AcDbLine
10
-25.5294591484465
20
-5.84416334001234
30
0.000000000000000
11
-25.4294591484465
21
-5.87123495739293
31
0.000000000000000
  0
LINE
  5
F10493
330
F10494
100
AcDbEntity
8
Geo
100
AcDbLine
10
-25.4294591484465
20
-5.87123495739293
30
0.000000000000000
11
-25.3294591484465
21
-5.89793785135602
31
0.000000000000000
  0
LINE
  5
F10495
330
F10496
100
AcDbEntity
8
Geo
100
AcDbLine
10
-25.3294591484465
20
-5.89793785135602
30
0.000000000000000
11
-25.2294591484465
21
-5.92427063113194
31
0.000000000000000
  0
LINE
  5
F10497
330
F10498
100
AcDbEntity
8
Geo
100
AcDbLine
10
-25.2294591484465
20
-5.92427063113194
30
0.000000000000000
11
-25.1294591484465
21
-5.95023192522767
31
0.000000000000000
  0
LINE
  5
F10499
330
F1049A
100
AcDbEntity
8
Geo
100
AcDbLine
10
-25.1294591484465
20
-5.95023192522767
30
0.000000000000000
11
-25.0294591484465
21
-5.97582038149836
31
0.000000000000000
  0
LINE
  5
F1049B
330
F1049C
100
AcDbEntity
8
Geo
100
AcDbLine
10
-25.0294591484465
20
-5.97582038149836
30
0.000000000000000
11
-24.9294591484465
21
-6.00103466721769
31
0.000000000000000
  0
LINE
  5
F1049D
330
F1049E
100
AcDbEntity
8
Geo
100
AcDbLine
10
-24.9294591484465
20
-6.00103466721769
30
0.000000000000000
11
-24.8294591484465
21
-6.02587346914732
31
0.000000000000000
  0
LINE
  5
F1049F
330
F104A0
100
AcDbEntity
8
Geo
100
AcDbLine
10
-24.8294591484465
20
-6.02587346914732
30
0.000000000000000
11
-24.7294591484465
21
-6.05033549360526
31
0.000000000000000
  0
LINE
  5
F104A1
330
F104A2
100
AcDbEntity
8
Geo
100
AcDbLine
10
-24.7294591484465
20
-6.05033549360526
30
0.000000000000000
11
-24.6294591484465
21
-6.07441946653326
31
0.000000000000000
  0
LINE
  5
F104A3
330
F104A4
100
AcDbEntity
8
Geo
100
AcDbLine
10
-24.6294591484465
20
-6.07441946653326
30
0.000000000000000
11
-24.5294591484465
21
-6.09812413356319
31
0.000000000000000
  0
LINE
  5
F104A5
330
F104A6
100
AcDbEntity
8
Geo
100
AcDbLine
10
-24.5294591484465
20
-6.09812413356319
30
0.000000000000000
11
-24.4294591484465
21
-6.12144826008232
31
0.000000000000000
  0
LINE
  5
F104A7
330
F104A8
100
AcDbEntity
8
Geo
100
AcDbLine
10
-24.4294591484465
20
-6.12144826008232
30
0.000000000000000
11
-24.3294591484465
21
-6.14439063129767
31
0.000000000000000
  0
LINE
  5
F104A9
330
F104AA
100
AcDbEntity
8
Geo
100
AcDbLine
10
-24.3294591484465
20
-6.14439063129767
30
0.000000000000000
11
-24.2294591484465
21
-6.16695005229926
31
0.000000000000000
  0
LINE
  5
F104AB
330
F104AC
100
AcDbEntity
8
Geo
100
AcDbLine
10
-24.2294591484465
20
-6.16695005229926
30
0.000000000000000
11
-24.1294591484465
21
-6.18912534812235
31
0.000000000000000
  0
LINE
  5
F104AD
330
F104AE
100
AcDbEntity
8
Geo
100
AcDbLine
10
-24.1294591484465
20
-6.18912534812235
30
0.000000000000000
11
-24.0294591484465
21
-6.21091536380862
31
0.000000000000000
  0
LINE
  5
F104AF
330
F104B0
100
AcDbEntity
8
Geo
100
AcDbLine
10
-24.0294591484465
20
-6.21091536380862
30
0.000000000000000
11
-23.9294591484465
21
-6.23231896446635
31
0.000000000000000
  0
LINE
  5
F104B1
330
F104B2
100
AcDbEntity
8
Geo
100
AcDbLine
10
-23.9294591484465
20
-6.23231896446635
30
0.000000000000000
11
-23.8294591484465
21
-6.25333503532951
31
0.000000000000000
  0
LINE
  5
F104B3
330
F104B4
100
AcDbEntity
8
Geo
100
AcDbLine
10
-23.8294591484465
20
-6.25333503532951
30
0.000000000000000
11
-23.7294591484465
21
-6.27396248181583
31
0.000000000000000
  0
LINE
  5
F104B5
330
F104B6
100
AcDbEntity
8
Geo
100
AcDbLine
10
-23.7294591484465
20
-6.27396248181583
30
0.000000000000000
11
-23.6294591484465
21
-6.29420022958380
31
0.000000000000000
  0
LINE
  5
F104B7
330
F104B8
100
AcDbEntity
8
Geo
100
AcDbLine
10
-23.6294591484465
20
-6.29420022958380
30
0.000000000000000
11
-23.5294591484465
21
-6.31404722458863
31
0.000000000000000
  0
LINE
  5
F104B9
330
F104BA
100
AcDbEntity
8
Geo
100
AcDbLine
10
-23.5294591484465
20
-6.31404722458863
30
0.000000000000000
11
-23.4294591484465
21
-6.33350243313714
31
0.000000000000000
  0
LINE
  5
F104BB
330
F104BC
100
AcDbEntity
8
Geo
100
AcDbLine
10
-23.4294591484465
20
-6.33350243313714
30
0.000000000000000
11
-23.3294591484465
21
-6.35256484194164
31
0.000000000000000
  0
LINE
  5
F104BD
330
F104BE
100
AcDbEntity
8
Geo
100
AcDbLine
10
-23.3294591484465
20
-6.35256484194164
30
0.000000000000000
11
-23.2294591484465
21
-6.37123345817263
31
0.000000000000000
  0
LINE
  5
F104BF
330
F104C0
100
AcDbEntity
8
Geo
100
AcDbLine
10
-23.2294591484465
20
-6.37123345817263
30
0.000000000000000
11
-23.1294591484465
21
-6.38950730951058
31
0.000000000000000
  0
LINE
  5
F104C1
330
F104C2
100
AcDbEntity
8
Geo
100
AcDbLine
10
-23.1294591484465
20
-6.38950730951058
30
0.000000000000000
11
-23.0294591484465
21
-6.40738544419651
31
0.000000000000000
  0
LINE
  5
F104C3
330
F104C4
100
AcDbEntity
8
Geo
100
AcDbLine
10
-23.0294591484465
20
-6.40738544419651
30
0.000000000000000
11
-22.9294591484465
21
-6.42486693108163
31
0.000000000000000
  0
LINE
  5
F104C5
330
F104C6
100
AcDbEntity
8
Geo
100
AcDbLine
10
-22.9294591484465
20
-6.42486693108163
30
0.000000000000000
11
-22.8294591484465
21
-6.44195085967578
31
0.000000000000000
  0
LINE
  5
F104C7
330
F104C8
100
AcDbEntity
8
Geo
100
AcDbLine
10
-22.8294591484465
20
-6.44195085967578
30
0.000000000000000
11
-22.7294591484465
21
-6.45863634019488
31
0.000000000000000
  0
LINE
  5
F104C9
330
F104CA
100
AcDbEntity
8
Geo
100
AcDbLine
10
-22.7294591484465
20
-6.45863634019488
30
0.000000000000000
11
-22.6294591484465
21
-6.47492250360725
31
0.000000000000000
  0
LINE
  5
F104CB
330
F104CC
100
AcDbEntity
8
Geo
100
AcDbLine
10
-22.6294591484465
20
-6.47492250360725
30
0.000000000000000
11
-22.5294591484465
21
-6.49080850167889
31
0.000000000000000
  0
LINE
  5
F104CD
330
F104CE
100
AcDbEntity
8
Geo
100
AcDbLine
10
-22.5294591484465
20
-6.49080850167889
30
0.000000000000000
11
-22.4294591484465
21
-6.50629350701766
31
0.000000000000000
  0
LINE
  5
F104CF
330
F104D0
100
AcDbEntity
8
Geo
100
AcDbLine
10
-22.4294591484465
20
-6.50629350701766
30
0.000000000000000
11
-22.3294591484465
21
-6.52137671311638
31
0.000000000000000
  0
LINE
  5
F104D1
330
F104D2
100
AcDbEntity
8
Geo
100
AcDbLine
10
-22.3294591484465
20
-6.52137671311638
30
0.000000000000000
11
-22.2294591484465
21
-6.53605733439479
31
0.000000000000000
  0
LINE
  5
F104D3
330
F104D4
100
AcDbEntity
8
Geo
100
AcDbLine
10
-22.2294591484465
20
-6.53605733439479
30
0.000000000000000
11
-22.1294591484465
21
-6.55033460624053
31
0.000000000000000
  0
LINE
  5
F104D5
330
F104D6
100
AcDbEntity
8
Geo
100
AcDbLine
10
-22.1294591484465
20
-6.55033460624053
30
0.000000000000000
11
-22.0294591484465
21
-6.56420778504892
31
0.000000000000000
  0
LINE
  5
F104D7
330
F104D8
100
AcDbEntity
8
Geo
100
AcDbLine
10
-22.0294591484465
20
-6.56420778504892
30
0.000000000000000
11
-21.9294591484465
21
-6.57767614826168
31
0.000000000000000
  0
LINE
  5
F104D9
330
F104DA
100
AcDbEntity
8
Geo
100
AcDbLine
10
-21.9294591484465
20
-6.57767614826168
30
0.000000000000000
11
-21.8294591484465
21
-6.59073899440463
31
0.000000000000000
  0
LINE
  5
F104DB
330
F104DC
100
AcDbEntity
8
Geo
100
AcDbLine
10
-21.8294591484465
20
-6.59073899440463
30
0.000000000000000
11
-21.7294591484465
21
-6.60339564312414
31
0.000000000000000
  0
LINE
  5
F104DD
330
F104DE
100
AcDbEntity
8
Geo
100
AcDbLine
10
-21.7294591484465
20
-6.60339564312414
30
0.000000000000000
11
-21.6294591484465
21
-6.61564543522261
31
0.000000000000000
  0
LINE
  5
F104DF
330
F104E0
100
AcDbEntity
8
Geo
100
AcDbLine
10
-21.6294591484465
20
-6.61564543522261
30
0.000000000000000
11
-21.5294591484465
21
-6.62748773269281
31
0.000000000000000
  0
LINE
  5
F104E1
330
F104E2
100
AcDbEntity
8
Geo
100
AcDbLine
10
-21.5294591484465
20
-6.62748773269281
30
0.000000000000000
11
-21.4294591484465
21
-6.63892191875110
31
0.000000000000000
  0
LINE
  5
F104E3
330
F104E4
100
AcDbEntity
8
Geo
100
AcDbLine
10
-21.4294591484465
20
-6.63892191875110
30
0.000000000000000
11
-21.3294591484465
21
-6.64994739786953
31
0.000000000000000
  0
LINE
  5
F104E5
330
F104E6
100
AcDbEntity
8
Geo
100
AcDbLine
10
-21.3294591484465
20
-6.64994739786953
30
0.000000000000000
11
-21.2294591484465
21
-6.66056359580690
31
0.000000000000000
  0
LINE
  5
F104E7
330
F104E8
100
AcDbEntity
8
Geo
100
AcDbLine
10
-21.2294591484465
20
-6.66056359580690
30
0.000000000000000
11
-21.1294591484465
21
-6.67076995963861
31
0.000000000000000
  0
LINE
  5
F104E9
330
F104EA
100
AcDbEntity
8
Geo
100
AcDbLine
10
-21.1294591484465
20
4.96103702673408
30
0.000000000000000
11
-21.0294591484465
21
4.90995115289910
31
0.000000000000000
  0
LINE
  5
F104EB
330
F104EC
100
AcDbEntity
8
Geo
100
AcDbLine
10
-21.0294591484465
20
4.90995115289910
30
0.000000000000000
11
-20.9294591484465
21
4.85867248480886
31
0.000000000000000
  0
LINE
  5
F104ED
330
F104EE
100
AcDbEntity
8
Geo
100
AcDbLine
10
-20.9294591484465
20
4.85867248480886
30
0.000000000000000
11
-20.8294591484465
21
4.80720369321573
31
0.000000000000000
  0
LINE
  5
F104EF
330
F104F0
100
AcDbEntity
8
Geo
100
AcDbLine
10
-20.8294591484465
20
4.80720369321573
30
0.000000000000000
11
-20.7294591484465
21
4.75554745877452
31
0.000000000000000
  0
LINE
  5
F104F1
330
F104F2
100
AcDbEntity
8
Geo
100
AcDbLine
10
-20.7294591484465
20
4.75554745877452
30
0.000000000000000
11
-20.6294591484465
21
4.70370647190525
31
0.000000000000000
  0
LINE
  5
F104F3
330
F104F4
100
AcDbEntity
8
Geo
100
AcDbLine
10
-20.6294591484465
20
4.70370647190525
30
0.000000000000000
11
-20.5294591484465
21
4.65168343266930
31
0.000000000000000
  0
LINE
  5
F104F5
330
F104F6
100
AcDbEntity
8
Geo
100
AcDbLine
10
-20.5294591484465
20
4.65168343266930
30
0.000000000000000
11
-20.4294591484465
21
4.59948105070521
31
0.000000000000000
  0
LINE
  5
F104F7
330
F104F8
100
AcDbEntity
8
Geo
100
AcDbLine
10
-20.4294591484465
20
4.59948105070521
30
0.000000000000000
11
-20.3294591484465
21
4.54710204536528
31
0.000000000000000
  0
LINE
  5
F104F9
330
F104FA
100
AcDbEntity
8
Geo
100
AcDbLine
10
-20.3294591484465
20
4.54710204536528
30
0.000000000000000
11
-20.2294591484465
21
4.49454914640996
31
0.000000000000000
  0
LINE
  5
F104FB
330
F104FC
100
AcDbEntity
8
Geo
100
AcDbLine
10
-20.2294591484465
20
4.49454914640996
30
0.000000000000000
11
-20.1294591484465
21
4.44182509604816
31
0.000000000000000
  0
LINE
  5
F104FD
330
F104FE
100
AcDbEntity
8
Geo
100
AcDbLine
10
-20.1294591484465
20
4.44182509604816
30
0.000000000000000
11
-20.0294591484465
21
4.38893265389489
31
0.000000000000000
  0
LINE
  5
F104FF
330
F10500
100
AcDbEntity
8
Geo
100
AcDbLine
10
-20.0294591484465
20
4.38893265389489
30
0.000000000000000
11
-19.9294591484465
21
4.33587460773783
31
0.000000000000000
  0
LINE
  5
F10501
330
F10502
100
AcDbEntity
8
Geo
100
AcDbLine
10
-19.9294591484465
20
4.33587460773783
30
0.000000000000000
11
-19.8294591484465
21
4.28265379510716
31
0.000000000000000
  0
LINE
  5
F10503
330
F10504
100
AcDbEntity
8
Geo
100
AcDbLine
10
-19.8294591484465
20
4.28265379510716
30
0.000000000000000
11
-19.7294591484465
21
4.22927314383720
31
0.000000000000000
  0
LINE
  5
F10505
330
F10506
100
AcDbEntity
8
Geo
100
AcDbLine
10
-19.7294591484465
20
4.22927314383720
30
0.000000000000000
11
-19.6294591484465
21
4.17573574448189
31
0.000000000000000
  0
LINE
  5
F10507
330
F10508
100
AcDbEntity
8
Geo
100
AcDbLine
10
-19.6294591484465
20
4.17573574448189
30
0.000000000000000
11
-19.5294591484465
21
4.12204497406605
31
0.000000000000000
  0
LINE
  5
F10509
330
F1050A
100
AcDbEntity
8
Geo
100
AcDbLine
10
-19.5294591484465
20
4.12204497406605
30
0.000000000000000
11
-19.4294591484465
21
4.06820469978339
31
0.000000000000000
  0
LINE
  5
F1050B
330
F1050C
100
AcDbEntity
8
Geo
100
AcDbLine
10
-19.4294591484465
20
4.06820469978339
30
0.000000000000000
11
-19.3294591484465
21
4.01421960355070
31
0.000000000000000
  0
LINE
  5
F1050D
330
F1050E
100
AcDbEntity
8
Geo
100
AcDbLine
10
-19.3294591484465
20
4.01421960355070
30
0.000000000000000
11
-19.2294591484465
21
3.96009568456566
31
0.000000000000000
  0
LINE
  5
F1050F
330
F10510
100
AcDbEntity
8
Geo
100
AcDbLine
10
-19.2294591484465
20
3.96009568456566
30
0.000000000000000
11
-19.1294591484465
21
3.90584101807779
31
0.000000000000000
  0
LINE
  5
F10511
330
F10512
100
AcDbEntity
8
Geo
100
AcDbLine
10
-19.1294591484465
20
3.90584101807779
30
0.000000000000000
11
-19.0294591484465
21
3.85146687547753
31
0.000000000000000
  0
LINE
  5
F10513
330
F10514
100
AcDbEntity
8
Geo
100
AcDbLine
10
-19.0294591484465
20
3.85146687547753
30
0.000000000000000
11
-18.9294591484465
21
3.79698934467376
31
0.000000000000000
  0
LINE
  5
F10515
330
F10516
100
AcDbEntity
8
Geo
100
AcDbLine
10
-18.9294591484465
20
3.79698934467376
30
0.000000000000000
11
-18.8294591484465
21
3.74243163183448
31
0.000000000000000
  0
LINE
  5
F10517
330
F10518
100
AcDbEntity
8
Geo
100
AcDbLine
10
-18.8294591484465
20
3.74243163183448
30
0.000000000000000
11
-18.7294591484465
21
3.68782727731252
31
0.000000000000000
  0
LINE
  5
F10519
330
F1051A
100
AcDbEntity
8
Geo
100
AcDbLine
10
-18.7294591484465
20
3.68782727731252
30
0.000000000000000
11
-18.6294591484465
21
3.63322458149782
31
0.000000000000000
  0
LINE
  5
F1051B
330
F1051C
100
AcDbEntity
8
Geo
100
AcDbLine
10
-18.6294591484465
20
3.63322458149782
30
0.000000000000000
11
-18.5294591484465
21
3.57869261207542
31
0.000000000000000
  0
LINE
  5
F1051D
330
F1051E
100
AcDbEntity
8
Geo
100
AcDbLine
10
-18.5294591484465
20
3.57869261207542
30
0.000000000000000
11
-18.4294591484465
21
3.52432925445423
31
0.000000000000000
  0
LINE
  5
F1051F
330
F10520
100
AcDbEntity
8
Geo
100
AcDbLine
10
-18.4294591484465
20
3.52432925445423
30
0.000000000000000
11
-18.3294591484465
21
3.47027187373401
31
0.000000000000000
  0
LINE
  5
F10521
330
F10522
100
AcDbEntity
8
Geo
100
AcDbLine
10
-18.3294591484465
20
3.47027187373401
30
0.000000000000000
11
-18.2294591484465
21
3.41671128121675
31
0.000000000000000
  0
LINE
  5
F10523
330
F10524
100
AcDbEntity
8
Geo
100
AcDbLine
10
-18.2294591484465
20
3.41671128121675
30
0.000000000000000
11
-18.1294591484465
21
3.36390984268201
31
0.000000000000000
  0
LINE
  5
F10525
330
F10526
100
AcDbEntity
8
Geo
100
AcDbLine
10
-18.1294591484465
20
3.36390984268201
30
0.000000000000000
11
-18.0294591484465
21
3.31222473057552
31
0.000000000000000
  0
LINE
  5
F10527
330
F10528
100
AcDbEntity
8
Geo
100
AcDbLine
10
-18.0294591484465
20
3.31222473057552
30
0.000000000000000
11
-17.9294591484465
21
3.26213750829895
31
0.000000000000000
  0
LINE
  5
F10529
330
F1052A
100
AcDbEntity
8
Geo
100
AcDbLine
10
-17.9294591484465
20
3.26213750829895
30
0.000000000000000
11
-17.8294591484465
21
3.21429144101673
31
0.000000000000000
  0
LINE
  5
F1052B
330
F1052C
100
AcDbEntity
8
Geo
100
AcDbLine
10
-17.8294591484465
20
3.21429144101673
30
0.000000000000000
11
-17.7294591484465
21
3.16953815059527
31
0.000000000000000
  0
LINE
  5
F1052D
330
F1052E
100
AcDbEntity
8
Geo
100
AcDbLine
10
-17.7294591484465
20
3.16953815059527
30
0.000000000000000
11
-17.6294591484465
21
3.12899546522411
31
0.000000000000000
  0
LINE
  5
F1052F
330
F10530
100
AcDbEntity
8
Geo
100
AcDbLine
10
-17.6294591484465
20
3.12899546522411
30
0.000000000000000
11
-17.5294591484465
21
3.09411854245445
31
0.000000000000000
  0
LINE
  5
F10531
330
F10532
100
AcDbEntity
8
Geo
100
AcDbLine
10
-17.5294591484465
20
3.09411854245445
30
0.000000000000000
11
-17.4294591484465
21
3.06678653995664
31
0.000000000000000
  0
LINE
  5
F10533
330
F10534
100
AcDbEntity
8
Geo
100
AcDbLine
10
-17.4294591484465
20
3.06678653995664
30
0.000000000000000
11
-17.3294591484465
21
3.04940721798436
31
0.000000000000000
  0
LINE
  5
F10535
330
F10536
100
AcDbEntity
8
Geo
100
AcDbLine
10
-17.3294591484465
20
3.04940721798436
30
0.000000000000000
11
-17.2294591484465
21
3.04504177914620
31
0.000000000000000
  0
LINE
  5
F10537
330
F10538
100
AcDbEntity
8
Geo
100
AcDbLine
10
-17.2294591484465
20
3.04504177914620
30
0.000000000000000
11
-17.1294591484465
21
3.05755178740329
31
0.000000000000000
  0
LINE
  5
F10539
330
F1053A
100
AcDbEntity
8
Geo
100
AcDbLine
10
-17.1294591484465
20
3.05755178740329
30
0.000000000000000
11
-17.0294591484465
21
3.09176877761186
31
0.000000000000000
  0
LINE
  5
F1053B
330
F1053C
100
AcDbEntity
8
Geo
100
AcDbLine
10
-17.0294591484465
20
3.09176877761186
30
0.000000000000000
11
-16.9294591484465
21
3.15368443262000
31
0.000000000000000
  0
LINE
  5
F1053D
330
F1053E
100
AcDbEntity
8
Geo
100
AcDbLine
10
-16.9294591484465
20
3.15368443262000
30
0.000000000000000
11
-16.8294591484465
21
3.25065355463725
31
0.000000000000000
  0
LINE
  5
F1053F
330
F10540
100
AcDbEntity
8
Geo
100
AcDbLine
10
-16.8294591484465
20
3.25065355463725
30
0.000000000000000
11
-16.7294591484465
21
3.39159081646592
31
0.000000000000000
  0
LINE
  5
F10541
330
F10542
100
AcDbEntity
8
Geo
100
AcDbLine
10
-16.7294591484465
20
3.39159081646592
30
0.000000000000000
11
-16.6294591484465
21
3.58712046375812
31
0.000000000000000
  0
LINE
  5
F10543
330
F10544
100
AcDbEntity
8
Geo
100
AcDbLine
10
-16.6294591484465
20
3.58712046375812
30
0.000000000000000
11
-16.5294591484465
21
3.84959667586225
31
0.000000000000000
  0
LINE
  5
F10545
330
F10546
100
AcDbEntity
8
Geo
100
AcDbLine
10
-16.5294591484465
20
3.84959667586225
30
0.000000000000000
11
-16.4294591484465
21
4.19283514587436
31
0.000000000000000
  0
LINE
  5
F10547
330
F10548
100
AcDbEntity
8
Geo
100
AcDbLine
10
-16.4294591484465
20
4.19283514587436
30
0.000000000000000
11
-16.3294591484465
21
4.63125652460896
31
0.000000000000000
  0
LINE
  5
F10549
330
F1054A
100
AcDbEntity
8
Geo
100
AcDbLine
10
-16.3294591484465
20
4.63125652460896
30
0.000000000000000
11
-16.2294591484465
21
5.17789715591614
31
0.000000000000000
  0
LINE
  5
F1054B
330
F1054C
100
AcDbEntity
8
Geo
100
AcDbLine
10
-16.2294591484465
20
5.17789715591614
30
0.000000000000000
11
-16.1294591484465
21
5.84033399822427
31
0.000000000000000
  0
LINE
  5
F1054D
330
F1054E
100
AcDbEntity
8
Geo
100
AcDbLine
10
-16.1294591484465
20
5.84033399822427
30
0.000000000000000
11
-16.1294591484465
21
6.00278435157582
31
0.000000000000000
  0
LINE
  5
F1054F
330
F10550
100
AcDbEntity
8
Geo
100
AcDbLine
10
-16.1294591484465
20
6.00278435157582
30
0.000000000000000
11
-16.2294591484465
21
6.56999681000822
31
0.000000000000000
  0
LINE
  5
F10551
330
F10552
100
AcDbEntity
8
Geo
100
AcDbLine
10
-16.2294591484465
20
6.56999681000822
30
0.000000000000000
11
-16.3294591484465
21
7.04730373360670
31
0.000000000000000
  0
LINE
  5
F10553
330
F10554
100
AcDbEntity
8
Geo
100
AcDbLine
10
-16.3294591484465
20
7.04730373360670
30
0.000000000000000
11
-16.4294591484465
21
7.44609271577136
31
0.000000000000000
  0
LINE
  5
F10555
330
F10556
100
AcDbEntity
8
Geo
100
AcDbLine
10
-16.4294591484465
20
7.44609271577136
30
0.000000000000000
11
-16.5294591484465
21
7.77721543749214
31
0.000000000000000
  0
LINE
  5
F10557
330
F10558
100
AcDbEntity
8
Geo
100
AcDbLine
10
-16.5294591484465
20
7.77721543749214
30
0.000000000000000
11
-16.6294591484465
21
8.05065949002273
31
0.000000000000000
  0
LINE
  5
F10559
330
F1055A
100
AcDbEntity
8
Geo
100
AcDbLine
10
-16.6294591484465
20
8.05065949002273
30
0.000000000000000
11
-16.7294591484465
21
8.27538702573091
31
0.000000000000000
  0
LINE
  5
F1055B
330
F1055C
100
AcDbEntity
8
Geo
100
AcDbLine
10
-16.7294591484465
20
8.27538702573091
30
0.000000000000000
11
-16.8294591484465
21
8.45928611678493
31
0.000000000000000
  0
LINE
  5
F1055D
330
F1055E
100
AcDbEntity
8
Geo
100
AcDbLine
10
-16.8294591484465
20
8.45928611678493
30
0.000000000000000
11
-16.9294591484465
21
8.60919458530690
31
0.000000000000000
  0
LINE
  5
F1055F
330
F10560
100
AcDbEntity
8
Geo
100
AcDbLine
10
-16.9294591484465
20
8.60919458530690
30
0.000000000000000
11
-17.0294591484465
21
8.73096732095812
31
0.000000000000000
  0
LINE
  5
F10561
330
F10562
100
AcDbEntity
8
Geo
100
AcDbLine
10
-17.0294591484465
20
8.73096732095812
30
0.000000000000000
11
-17.1294591484465
21
8.82956684694689
31
0.000000000000000
  0
LINE
  5
F10563
330
F10564
100
AcDbEntity
8
Geo
100
AcDbLine
10
-17.1294591484465
20
8.82956684694689
30
0.000000000000000
11
-17.2294591484465
21
8.90916347100247
31
0.000000000000000
  0
LINE
  5
F10565
330
F10566
100
AcDbEntity
8
Geo
100
AcDbLine
10
-17.2294591484465
20
8.90916347100247
30
0.000000000000000
11
-17.3294591484465
21
8.97323616494488
31
0.000000000000000
  0
LINE
  5
F10567
330
F10568
100
AcDbEntity
8
Geo
100
AcDbLine
10
-17.3294591484465
20
8.97323616494488
30
0.000000000000000
11
-17.4294591484465
21
9.02466874089068
31
0.000000000000000
  0
LINE
  5
F10569
330
F1056A
100
AcDbEntity
8
Geo
100
AcDbLine
10
-17.4294591484465
20
9.02466874089068
30
0.000000000000000
11
-17.5294591484465
21
9.06583826933708
31
0.000000000000000
  0
LINE
  5
F1056B
330
F1056C
100
AcDbEntity
8
Geo
100
AcDbLine
10
-17.5294591484465
20
9.06583826933708
30
0.000000000000000
11
-17.6294591484465
21
9.09869428880246
31
0.000000000000000
  0
LINE
  5
F1056D
330
F1056E
100
AcDbEntity
8
Geo
100
AcDbLine
10
-17.6294591484465
20
9.09869428880246
30
0.000000000000000
11
-17.7294591484465
21
9.12482840370166
31
0.000000000000000
  0
LINE
  5
F1056F
330
F10570
100
AcDbEntity
8
Geo
100
AcDbLine
10
-17.7294591484465
20
9.12482840370166
30
0.000000000000000
11
-17.8294591484465
21
9.14553452048582
31
0.000000000000000
  0
LINE
  5
F10571
330
F10572
100
AcDbEntity
8
Geo
100
AcDbLine
10
-17.8294591484465
20
9.14553452048582
30
0.000000000000000
11
-17.9294591484465
21
9.16186035331629
31
0.000000000000000
  0
LINE
  5
F10573
330
F10574
100
AcDbEntity
8
Geo
100
AcDbLine
10
-17.9294591484465
20
9.16186035331629
30
0.000000000000000
11
-18.0294591484465
21
9.17465102800654
31
0.000000000000000
  0
LINE
  5
F10575
330
F10576
100
AcDbEntity
8
Geo
100
AcDbLine
10
-18.0294591484465
20
9.17465102800654
30
0.000000000000000
11
-18.1294591484465
21
9.18458568968152
31
0.000000000000000
  0
LINE
  5
F10577
330
F10578
100
AcDbEntity
8
Geo
100
AcDbLine
10
-18.1294591484465
20
9.18458568968152
30
0.000000000000000
11
-18.2294591484465
21
9.19220801976969
31
0.000000000000000
  0
LINE
  5
F10579
330
F1057A
100
AcDbEntity
8
Geo
100
AcDbLine
10
-18.2294591484465
20
9.19220801976969
30
0.000000000000000
11
-18.3294591484465
21
9.19795152201278
31
0.000000000000000
  0
LINE
  5
F1057B
330
F1057C
100
AcDbEntity
8
Geo
100
AcDbLine
10
-18.3294591484465
20
9.19795152201278
30
0.000000000000000
11
-18.4294591484465
21
9.20216036575236
31
0.000000000000000
  0
LINE
  5
F1057D
330
F1057E
100
AcDbEntity
8
Geo
100
AcDbLine
10
-18.4294591484465
20
9.20216036575236
30
0.000000000000000
11
-18.5294591484465
21
9.20510649145994
31
0.000000000000000
  0
LINE
  5
F1057F
330
F10580
100
AcDbEntity
8
Geo
100
AcDbLine
10
-18.5294591484465
20
9.20510649145994
30
0.000000000000000
11
-18.6294591484465
21
9.20700359709754
31
0.000000000000000
  0
LINE
  5
F10581
330
F10582
100
AcDbEntity
8
Geo
100
AcDbLine
10
-18.6294591484465
20
9.20700359709754
30
0.000000000000000
11
-18.7294591484465
21
9.20801853986948
31
0.000000000000000
  0
LINE
  5
F10583
330
F10584
100
AcDbEntity
8
Geo
100
AcDbLine
10
-18.7294591484465
20
9.20801853986948
30
0.000000000000000
11
-18.8176592661975
21
9.20828538550056
31
0.000000000000000
  0
LINE
  5
F10585
330
F10586
100
AcDbEntity
8
Geo
100
AcDbLine
10
-21.1294591484465
20
-5.85690074928877
30
0.000000000000000
11
-21.0294591484465
21
-5.88379967789722
31
0.000000000000000
  0
LINE
  5
F10587
330
F10588
100
AcDbEntity
8
Geo
100
AcDbLine
10
-21.0294591484465
20
-5.88379967789722
30
0.000000000000000
11
-20.9294591484465
21
-5.91032922867850
31
0.000000000000000
  0
LINE
  5
F10589
330
F1058A
100
AcDbEntity
8
Geo
100
AcDbLine
10
-20.9294591484465
20
-5.91032922867850
30
0.000000000000000
11
-20.8294591484465
21
-5.93648801989116
31
0.000000000000000
  0
LINE
  5
F1058B
330
F1058C
100
AcDbEntity
8
Geo
100
AcDbLine
10
-20.8294591484465
20
-5.93648801989116
30
0.000000000000000
11
-20.7294591484465
21
-5.96227468910396
31
0.000000000000000
  0
LINE
  5
F1058D
330
F1058E
100
AcDbEntity
8
Geo
100
AcDbLine
10
-20.7294591484465
20
-5.96227468910396
30
0.000000000000000
11
-20.6294591484465
21
-5.98768789326567
31
0.000000000000000
  0
LINE
  5
F1058F
330
F10590
100
AcDbEntity
8
Geo
100
AcDbLine
10
-20.6294591484465
20
-5.98768789326567
30
0.000000000000000
11
-20.5294591484465
21
-6.01272630876740
31
0.000000000000000
  0
LINE
  5
F10591
330
F10592
100
AcDbEntity
8
Geo
100
AcDbLine
10
-20.5294591484465
20
-6.01272630876740
30
0.000000000000000
11
-20.4294591484465
21
-6.03738863147656
31
0.000000000000000
  0
LINE
  5
F10593
330
F10594
100
AcDbEntity
8
Geo
100
AcDbLine
10
-20.4294591484465
20
-6.03738863147656
30
0.000000000000000
11
-20.3294591484465
21
-6.06167357668141
31
0.000000000000000
  0
LINE
  5
F10595
330
F10596
100
AcDbEntity
8
Geo
100
AcDbLine
10
-20.3294591484465
20
-6.06167357668141
30
0.000000000000000
11
-20.2294591484465
21
-6.08557987879750
31
0.000000000000000
  0
LINE
  5
F10597
330
F10598
100
AcDbEntity
8
Geo
100
AcDbLine
10
-20.2294591484465
20
-6.08557987879750
30
0.000000000000000
11
-20.1294591484465
21
-6.10910629052116
31
0.000000000000000
  0
LINE
  5
F10599
330
F1059A
100
AcDbEntity
8
Geo
100
AcDbLine
10
-20.1294591484465
20
-6.10910629052116
30
0.000000000000000
11
-20.0294591484465
21
-6.13225158082935
31
0.000000000000000
  0
LINE
  5
F1059B
330
F1059C
100
AcDbEntity
8
Geo
100
AcDbLine
10
-20.0294591484465
20
-6.13225158082935
30
0.000000000000000
11
-19.9294591484465
21
-6.15501453076969
31
0.000000000000000
  0
LINE
  5
F1059D
330
F1059E
100
AcDbEntity
8
Geo
100
AcDbLine
10
-19.9294591484465
20
-6.15501453076969
30
0.000000000000000
11
-19.8294591484465
21
-6.17739392530174
31
0.000000000000000
  0
LINE
  5
F1059F
330
F105A0
100
AcDbEntity
8
Geo
100
AcDbLine
10
-19.8294591484465
20
-6.17739392530174
30
0.000000000000000
11
-19.7294591484465
21
-6.19938853847722
31
0.000000000000000
  0
LINE
  5
F105A1
330
F105A2
100
AcDbEntity
8
Geo
100
AcDbLine
10
-19.7294591484465
20
-6.19938853847722
30
0.000000000000000
11
-19.6294591484465
21
-6.22099710791573
31
0.000000000000000
  0
LINE
  5
F105A3
330
F105A4
100
AcDbEntity
8
Geo
100
AcDbLine
10
-19.6294591484465
20
-6.22099710791573
30
0.000000000000000
11
-19.5294591484465
21
-6.24221829277803
31
0.000000000000000
  0
LINE
  5
F105A5
330
F105A6
100
AcDbEntity
8
Geo
100
AcDbLine
10
-19.5294591484465
20
-6.24221829277803
30
0.000000000000000
11
-19.4294591484465
21
-6.26305060719795
31
0.000000000000000
  0
LINE
  5
F105A7
330
F105A8
100
AcDbEntity
8
Geo
100
AcDbLine
10
-19.4294591484465
20
-6.26305060719795
30
0.000000000000000
11
-19.3294591484465
21
-6.28349231835421
31
0.000000000000000
  0
LINE
  5
F105A9
330
F105AA
100
AcDbEntity
8
Geo
100
AcDbLine
10
-19.3294591484465
20
-6.28349231835421
30
0.000000000000000
11
-19.2294591484465
21
-6.30354129500528
31
0.000000000000000
  0
LINE
  5
F105AB
330
F105AC
100
AcDbEntity
8
Geo
100
AcDbLine
10
-19.2294591484465
20
-6.30354129500528
30
0.000000000000000
11
-19.1294591484465
21
-6.32319478835312
31
0.000000000000000
  0
LINE
  5
F105AD
330
F105AE
100
AcDbEntity
8
Geo
100
AcDbLine
10
-19.1294591484465
20
-6.32319478835312
30
0.000000000000000
11
-19.0294591484465
21
-6.34244912254853
31
0.000000000000000
  0
LINE
  5
F105AF
330
F105B0
100
AcDbEntity
8
Geo
100
AcDbLine
10
-19.0294591484465
20
-6.34244912254853
30
0.000000000000000
11
-18.9294591484465
21
-6.36129926702570
31
0.000000000000000
  0
LINE
  5
F105B1
330
F105B2
100
AcDbEntity
8
Geo
100
AcDbLine
10
-18.9294591484465
20
-6.36129926702570
30
0.000000000000000
11
-18.8294591484465
21
-6.37973825720060
31
0.000000000000000
  0
LINE
  5
F105B3
330
F105B4
100
AcDbEntity
8
Geo
100
AcDbLine
10
-18.8294591484465
20
-6.37973825720060
30
0.000000000000000
11
-18.7294591484465
21
-6.39775642392632
31
0.000000000000000
  0
LINE
  5
F105B5
330
F105B6
100
AcDbEntity
8
Geo
100
AcDbLine
10
-18.7294591484465
20
-6.39775642392632
30
0.000000000000000
11
-18.6294591484465
21
-6.41534038546409
31
0.000000000000000
  0
LINE
  5
F105B7
330
F105B8
100
AcDbEntity
8
Geo
100
AcDbLine
10
-18.6294591484465
20
-6.41534038546409
30
0.000000000000000
11
-18.5294591484465
21
-6.43247174846213
31
0.000000000000000
  0
LINE
  5
F105B9
330
F105BA
100
AcDbEntity
8
Geo
100
AcDbLine
10
-18.5294591484465
20
-6.43247174846213
30
0.000000000000000
11
-18.4294591484465
21
-6.44912545610134
31
0.000000000000000
  0
LINE
  5
F105BB
330
F105BC
100
AcDbEntity
8
Geo
100
AcDbLine
10
-18.4294591484465
20
-6.44912545610134
30
0.000000000000000
11
-18.3294591484465
21
-6.46526771114570
31
0.000000000000000
  0
LINE
  5
F105BD
330
F105BE
100
AcDbEntity
8
Geo
100
AcDbLine
10
-18.3294591484465
20
-6.46526771114570
30
0.000000000000000
11
-18.2294591484465
21
-6.48085338702334
31
0.000000000000000
  0
LINE
  5
F105BF
330
F105C0
100
AcDbEntity
8
Geo
100
AcDbLine
10
-18.2294591484465
20
-6.48085338702334
30
0.000000000000000
11
-18.1294591484465
21
-6.49582281724434
31
0.000000000000000
  0
LINE
  5
F105C1
330
F105C2
100
AcDbEntity
8
Geo
100
AcDbLine
10
-18.1294591484465
20
-6.49582281724434
30
0.000000000000000
11
-18.0294591484465
21
-6.51009781516042
31
0.000000000000000
  0
LINE
  5
F105C3
330
F105C4
100
AcDbEntity
8
Geo
100
AcDbLine
10
-18.0294591484465
20
-6.51009781516042
30
0.000000000000000
11
-17.9294591484465
21
-6.52357670960154
31
0.000000000000000
  0
LINE
  5
F105C5
330
F105C6
100
AcDbEntity
8
Geo
100
AcDbLine
10
-17.9294591484465
20
-6.52357670960154
30
0.000000000000000
11
-17.8294591484465
21
-6.53612806583535
31
0.000000000000000
  0
LINE
  5
F105C7
330
F105C8
100
AcDbEntity
8
Geo
100
AcDbLine
10
-17.8294591484465
20
-6.53612806583535
30
0.000000000000000
11
-17.7294591484465
21
-6.54758256021696
31
0.000000000000000
  0
LINE
  5
F105C9
330
F105CA
100
AcDbEntity
8
Geo
100
AcDbLine
10
-17.7294591484465
20
-6.54758256021696
30
0.000000000000000
11
-17.6294591484465
21
-6.55772213378813
31
0.000000000000000
  0
LINE
  5
F105CB
330
F105CC
100
AcDbEntity
8
Geo
100
AcDbLine
10
-17.6294591484465
20
-6.55772213378813
30
0.000000000000000
11
-17.5294591484465
21
-6.56626497475394
31
0.000000000000000
  0
LINE
  5
F105CD
330
F105CE
100
AcDbEntity
8
Geo
100
AcDbLine
10
-17.5294591484465
20
-6.56626497475394
30
0.000000000000000
11
-17.4294591484465
21
-6.57284393220683
31
0.000000000000000
  0
LINE
  5
F105CF
330
F105D0
100
AcDbEntity
8
Geo
100
AcDbLine
10
-17.4294591484465
20
-6.57284393220683
30
0.000000000000000
11
-17.3294591484465
21
-6.57697443019934
31
0.000000000000000
  0
LINE
  5
F105D1
330
F105D2
100
AcDbEntity
8
Geo
100
AcDbLine
10
-17.3294591484465
20
-6.57697443019934
30
0.000000000000000
11
-17.2294591484465
21
-6.57800551263585
31
0.000000000000000
  0
LINE
  5
F105D3
330
F105D4
100
AcDbEntity
8
Geo
100
AcDbLine
10
-17.2294591484465
20
-6.57800551263585
30
0.000000000000000
11
-17.1294591484465
21
-6.57504383629096
31
0.000000000000000
  0
LINE
  5
F105D5
330
F105D6
100
AcDbEntity
8
Geo
100
AcDbLine
10
-17.1294591484465
20
-6.57504383629096
30
0.000000000000000
11
-17.0294591484465
21
-6.56683456930663
31
0.000000000000000
  0
LINE
  5
F105D7
330
F105D8
100
AcDbEntity
8
Geo
100
AcDbLine
10
-17.0294591484465
20
-6.56683456930663
30
0.000000000000000
11
-16.9294591484465
21
-6.55157431345450
31
0.000000000000000
  0
LINE
  5
F105D9
330
F105DA
100
AcDbEntity
8
Geo
100
AcDbLine
10
-16.9294591484465
20
-6.55157431345450
30
0.000000000000000
11
-16.8294591484465
21
-6.52661812144103
31
0.000000000000000
  0
LINE
  5
F105DB
330
F105DC
100
AcDbEntity
8
Geo
100
AcDbLine
10
-16.8294591484465
20
-6.52661812144103
30
0.000000000000000
11
-16.7294591484465
21
-6.48802395048102
31
0.000000000000000
  0
LINE
  5
F105DD
330
F105DE
100
AcDbEntity
8
Geo
100
AcDbLine
10
-16.7294591484465
20
-6.48802395048102
30
0.000000000000000
11
-16.6294591484465
21
-6.42985206223180
31
0.000000000000000
  0
LINE
  5
F105DF
330
F105E0
100
AcDbEntity
8
Geo
100
AcDbLine
10
-16.6294591484465
20
-6.42985206223180
30
0.000000000000000
11
-16.5294591484465
21
-6.34310353756571
31
0.000000000000000
  0
LINE
  5
F105E1
330
F105E2
100
AcDbEntity
8
Geo
100
AcDbLine
10
-16.5294591484465
20
-6.34310353756571
30
0.000000000000000
11
-16.4294591484465
21
-6.21414431964673
31
0.000000000000000
  0
LINE
  5
F105E3
330
F105E4
100
AcDbEntity
8
Geo
100
AcDbLine
10
-16.4294591484465
20
-6.21414431964673
30
0.000000000000000
11
-16.3294591484465
21
-6.02243163156152
31
0.000000000000000
  0
LINE
  5
F105E5
330
F105E6
100
AcDbEntity
8
Geo
100
AcDbLine
10
-16.3294591484465
20
-6.02243163156152
30
0.000000000000000
11
-16.2294591484465
21
-5.73737386270463
31
0.000000000000000
  0
LINE
  5
F105E7
330
F105E8
100
AcDbEntity
8
Geo
100
AcDbLine
10
-16.2294591484465
20
-5.73737386270463
30
0.000000000000000
11
-16.1294591484465
21
-5.31430042454169
31
0.000000000000000
  0
LINE
  5
F105E9
330
F105EA
100
AcDbEntity
8
Geo
100
AcDbLine
10
-16.1294591484465
20
-5.31430042454169
30
0.000000000000000
11
-16.1294591484465
21
-5.19583669830636
31
0.000000000000000
  0
LINE
  5
F105EB
330
F105EC
100
AcDbEntity
8
Geo
100
AcDbLine
10
-16.1294591484465
20
-5.19583669830636
30
0.000000000000000
11
-16.2294591484465
21
-4.72905834720553
31
0.000000000000000
  0
LINE
  5
F105ED
330
F105EE
100
AcDbEntity
8
Geo
100
AcDbLine
10
-16.2294591484465
20
-4.72905834720553
30
0.000000000000000
11
-16.3294591484465
21
-4.26034010272590
31
0.000000000000000
  0
LINE
  5
F105EF
330
F105F0
100
AcDbEntity
8
Geo
100
AcDbLine
10
-16.3294591484465
20
-4.26034010272590
30
0.000000000000000
11
-16.4294591484465
21
-3.80068254316699
31
0.000000000000000
  0
LINE
  5
F105F1
330
F105F2
100
AcDbEntity
8
Geo
100
AcDbLine
10
-16.4294591484465
20
-3.80068254316699
30
0.000000000000000
11
-16.5294591484465
21
-3.35780243363324
31
0.000000000000000
  0
LINE
  5
F105F3
330
F105F4
100
AcDbEntity
8
Geo
100
AcDbLine
10
-16.5294591484465
20
-3.35780243363324
30
0.000000000000000
11
-16.6294591484465
21
-2.93682216603108
31
0.000000000000000
  0
LINE
  5
F105F5
330
F105F6
100
AcDbEntity
8
Geo
100
AcDbLine
10
-16.6294591484465
20
-2.93682216603108
30
0.000000000000000
11
-16.7294591484465
21
-2.54085777082912
31
0.000000000000000
  0
LINE
  5
F105F7
330
F105F8
100
AcDbEntity
8
Geo
100
AcDbLine
10
-16.7294591484465
20
-2.54085777082912
30
0.000000000000000
11
-16.8294591484465
21
-2.17150579072818
31
0.000000000000000
  0
LINE
  5
F105F9
330
F105FA
100
AcDbEntity
8
Geo
100
AcDbLine
10
-16.8294591484465
20
-2.17150579072818
30
0.000000000000000
11
-16.9294591484465
21
-1.82923712737438
31
0.000000000000000
  0
LINE
  5
F105FB
330
F105FC
100
AcDbEntity
8
Geo
100
AcDbLine
10
-16.9294591484465
20
-1.82923712737438
30
0.000000000000000
11
-17.0294591484465
21
-1.51370956268370
31
0.000000000000000
  0
LINE
  5
F105FD
330
F105FE
100
AcDbEntity
8
Geo
100
AcDbLine
10
-17.0294591484465
20
-1.51370956268370
30
0.000000000000000
11
-17.1294591484465
21
-1.22401165339386
31
0.000000000000000
  0
LINE
  5
F105FF
330
F10600
100
AcDbEntity
8
Geo
100
AcDbLine
10
-17.1294591484465
20
-1.22401165339386
30
0.000000000000000
11
-17.2294591484465
21
-0.958850215295246
31
0.000000000000000
  0
LINE
  5
F10601
330
F10602
100
AcDbEntity
8
Geo
100
AcDbLine
10
-17.2294591484465
20
-0.958850215295246
30
0.000000000000000
11
-17.3294591484465
21
-0.716692378736504
31
0.000000000000000
  0
LINE
  5
F10603
330
F10604
100
AcDbEntity
8
Geo
100
AcDbLine
10
-17.3294591484465
20
-0.716692378736504
30
0.000000000000000
11
-17.4294591484465
21
-0.495871661716733
31
0.000000000000000
  0
LINE
  5
F10605
330
F10606
100
AcDbEntity
8
Geo
100
AcDbLine
10
-17.4294591484465
20
-0.495871661716733
30
0.000000000000000
11
-17.5294591484465
21
-0.294665936968815
31
0.000000000000000
  0
LINE
  5
F10607
330
F10608
100
AcDbEntity
8
Geo
100
AcDbLine
10
-17.5294591484465
20
-0.294665936968815
30
0.000000000000000
11
-17.6294591484465
21
-0.111353708605918
31
0.000000000000000
  0
LINE
  5
F10609
330
F1060A
100
AcDbEntity
8
Geo
100
AcDbLine
10
-17.6294591484465
20
-0.111353708605918
30
0.000000000000000
11
-17.7294591484465
21
0.0557461709957425
31
0.000000000000000
  0
LINE
  5
F1060B
330
F1060C
100
AcDbEntity
8
Geo
100
AcDbLine
10
-17.7294591484465
20
0.0557461709957425
30
0.000000000000000
11
-17.8294591484465
21
0.208247301637825
31
0.000000000000000
  0
LINE
  5
F1060D
330
F1060E
100
AcDbEntity
8
Geo
100
AcDbLine
10
-17.8294591484465
20
0.208247301637825
30
0.000000000000000
11
-17.9294591484465
21
0.347677907416011
31
0.000000000000000
  0
LINE
  5
F1060F
330
F10610
100
AcDbEntity
8
Geo
100
AcDbLine
10
-17.9294591484465
20
0.347677907416011
30
0.000000000000000
11
-18.0294591484465
21
0.475469958602135
31
0.000000000000000
  0
LINE
  5
F10611
330
F10612
100
AcDbEntity
8
Geo
100
AcDbLine
10
-18.0294591484465
20
0.475469958602135
30
0.000000000000000
11
-18.1294591484465
21
0.592953395821254
31
0.000000000000000
  0
LINE
  5
F10613
330
F10614
100
AcDbEntity
8
Geo
100
AcDbLine
10
-18.1294591484465
20
0.592953395821254
30
0.000000000000000
11
-18.2294591484465
21
0.701354058785456
31
0.000000000000000
  0
LINE
  5
F10615
330
F10616
100
AcDbEntity
8
Geo
100
AcDbLine
10
-18.2294591484465
20
0.701354058785456
30
0.000000000000000
11
-18.3294591484465
21
0.801794269890522
31
0.000000000000000
  0
LINE
  5
F10617
330
F10618
100
AcDbEntity
8
Geo
100
AcDbLine
10
-18.3294591484465
20
0.801794269890522
30
0.000000000000000
11
-18.4294591484465
21
0.895295289644124
31
0.000000000000000
  0
LINE
  5
F10619
330
F1061A
100
AcDbEntity
8
Geo
100
AcDbLine
10
-18.4294591484465
20
0.895295289644124
30
0.000000000000000
11
-18.5294591484465
21
0.982781063407703
31
0.000000000000000
  0
LINE
  5
F1061B
330
F1061C
100
AcDbEntity
8
Geo
100
AcDbLine
10
-18.5294591484465
20
0.982781063407703
30
0.000000000000000
11
-18.6294591484465
21
1.06508283151928
31
0.000000000000000
  0
LINE
  5
F1061D
330
F1061E
100
AcDbEntity
8
Geo
100
AcDbLine
10
-18.6294591484465
20
1.06508283151928
30
0.000000000000000
11
-18.7294591484465
21
1.14294428900887
31
0.000000000000000
  0
LINE
  5
F1061F
330
F10620
100
AcDbEntity
8
Geo
100
AcDbLine
10
-18.7294591484465
20
1.14294428900887
30
0.000000000000000
11
-18.8294591484465
21
1.21702706594590
31
0.000000000000000
  0
LINE
  5
F10621
330
F10622
100
AcDbEntity
8
Geo
100
AcDbLine
10
-18.8294591484465
20
1.21702706594590
30
0.000000000000000
11
-18.9294591484465
21
1.28791636211409
31
0.000000000000000
  0
LINE
  5
F10623
330
F10624
100
AcDbEntity
8
Geo
100
AcDbLine
10
-18.9294591484465
20
1.28791636211409
30
0.000000000000000
11
-19.0294591484465
21
1.35612661572277
31
0.000000000000000
  0
LINE
  5
F10625
330
F10626
100
AcDbEntity
8
Geo
100
AcDbLine
10
-19.0294591484465
20
1.35612661572277
30
0.000000000000000
11
-19.1294591484465
21
1.42210711946964
31
0.000000000000000
  0
LINE
  5
F10627
330
F10628
100
AcDbEntity
8
Geo
100
AcDbLine
10
-19.1294591484465
20
1.42210711946964
30
0.000000000000000
11
-19.2294591484465
21
1.48624752168210
31
0.000000000000000
  0
LINE
  5
F10629
330
F1062A
100
AcDbEntity
8
Geo
100
AcDbLine
10
-19.2294591484465
20
1.48624752168210
30
0.000000000000000
11
-19.3294591484465
21
1.54888316790397
31
0.000000000000000
  0
LINE
  5
F1062B
330
F1062C
100
AcDbEntity
8
Geo
100
AcDbLine
10
-19.3294591484465
20
1.54888316790397
30
0.000000000000000
11
-19.4294591484465
21
1.61030025097100
31
0.000000000000000
  0
LINE
  5
F1062D
330
F1062E
100
AcDbEntity
8
Geo
100
AcDbLine
10
-19.4294591484465
20
1.61030025097100
30
0.000000000000000
11
-19.5294591484465
21
1.67074074667869
31
0.000000000000000
  0
LINE
  5
F1062F
330
F10630
100
AcDbEntity
8
Geo
100
AcDbLine
10
-19.5294591484465
20
1.67074074667869
30
0.000000000000000
11
-19.6294591484465
21
1.73040711858582
31
0.000000000000000
  0
LINE
  5
F10631
330
F10632
100
AcDbEntity
8
Geo
100
AcDbLine
10
-19.6294591484465
20
1.73040711858582
30
0.000000000000000
11
-19.7294591484465
21
1.78946678005000
31
0.000000000000000
  0
LINE
  5
F10633
330
F10634
100
AcDbEntity
8
Geo
100
AcDbLine
10
-19.7294591484465
20
1.78946678005000
30
0.000000000000000
11
-19.8294591484465
21
1.84805630479735
31
0.000000000000000
  0
LINE
  5
F10635
330
F10636
100
AcDbEntity
8
Geo
100
AcDbLine
10
-19.8294591484465
20
1.84805630479735
30
0.000000000000000
11
-19.9294591484465
21
1.90628537958098
31
0.000000000000000
  0
LINE
  5
F10637
330
F10638
100
AcDbEntity
8
Geo
100
AcDbLine
10
-19.9294591484465
20
1.90628537958098
30
0.000000000000000
11
-20.0294591484465
21
1.96424049407121
31
0.000000000000000
  0
LINE
  5
F10639
330
F1063A
100
AcDbEntity
8
Geo
100
AcDbLine
10
-20.0294591484465
20
1.96424049407121
30
0.000000000000000
11
-20.1294591484465
21
2.02198836425233
31
0.000000000000000
  0
LINE
  5
F1063B
330
F1063C
100
AcDbEntity
8
Geo
100
AcDbLine
10
-20.1294591484465
20
2.02198836425233
30
0.000000000000000
11
-20.2294591484465
21
2.07957908642814
31
0.000000000000000
  0
LINE
  5
F1063D
330
F1063E
100
AcDbEntity
8
Geo
100
AcDbLine
10
-20.2294591484465
20
2.07957908642814
30
0.000000000000000
11
-20.3294591484465
21
2.13704901956804
31
0.000000000000000
  0
LINE
  5
F1063F
330
F10640
100
AcDbEntity
8
Geo
100
AcDbLine
10
-20.3294591484465
20
2.13704901956804
30
0.000000000000000
11
-20.4294591484465
21
2.19442339423359
31
0.000000000000000
  0
LINE
  5
F10641
330
F10642
100
AcDbEntity
8
Geo
100
AcDbLine
10
-20.4294591484465
20
2.19442339423359
30
0.000000000000000
11
-20.5294591484465
21
2.25171864676252
31
0.000000000000000
  0
LINE
  5
F10643
330
F10644
100
AcDbEntity
8
Geo
100
AcDbLine
10
-20.5294591484465
20
2.25171864676252
30
0.000000000000000
11
-20.6294591484465
21
2.30894447778890
31
0.000000000000000
  0
LINE
  5
F10645
330
F10646
100
AcDbEntity
8
Geo
100
AcDbLine
10
-20.6294591484465
20
2.30894447778890
30
0.000000000000000
11
-20.7294591484465
21
2.36610563456338
31
0.000000000000000
  0
LINE
  5
F10647
330
F10648
100
AcDbEntity
8
Geo
100
AcDbLine
10
-20.7294591484465
20
2.36610563456338
30
0.000000000000000
11
-20.8294591484465
21
2.42320341692050
31
0.000000000000000
  0
LINE
  5
F10649
330
F1064A
100
AcDbEntity
8
Geo
100
AcDbLine
10
-20.8294591484465
20
2.42320341692050
30
0.000000000000000
11
-20.9294591484465
21
2.48023690712459
31
0.000000000000000
  0
LINE
  5
F1064B
330
F1064C
100
AcDbEntity
8
Geo
100
AcDbLine
10
-20.9294591484465
20
2.48023690712459
30
0.000000000000000
11
-21.0294591484465
21
2.53720392421465
31
0.000000000000000
  0
LINE
  5
F1064D
330
F1064E
100
AcDbEntity
8
Geo
100
AcDbLine
10
-21.0294591484465
20
2.53720392421465
30
0.000000000000000
11
-21.1294591484465
21
2.59410170386086
31
0.000000000000000
  0
LINE
  5
F1064F
330
F10650
100
AcDbEntity
8
Geo
100
AcDbLine
10
-18.8176592661974
20
-6.79171461449944
30
0.000000000000000
11
-18.8294591484465
21
-6.79170983843695
31
0.000000000000000
  0
LINE
  5
F10651
330
F10652
100
AcDbEntity
8
Geo
100
AcDbLine
10
-18.8294591484465
20
-6.79170983843695
30
0.000000000000000
11
-18.9294591484465
21
-6.79131828640492
31
0.000000000000000
  0
LINE
  5
F10653
330
F10654
100
AcDbEntity
8
Geo
100
AcDbLine
10
-18.9294591484465
20
-6.79131828640492
30
0.000000000000000
11
-19.0294591484465
21
-6.79034843351168
31
0.000000000000000
  0
LINE
  5
F10655
330
F10656
100
AcDbEntity
8
Geo
100
AcDbLine
10
-19.0294591484465
20
-6.79034843351168
30
0.000000000000000
11
-19.1294591484465
21
-6.78885662062153
31
0.000000000000000
  0
LINE
  5
F10657
330
F10658
100
AcDbEntity
8
Geo
100
AcDbLine
10
-19.1294591484465
20
-6.78885662062153
30
0.000000000000000
11
-19.2294591484465
21
-6.78688422188422
31
0.000000000000000
  0
LINE
  5
F10659
330
F1065A
100
AcDbEntity
8
Geo
100
AcDbLine
10
-19.2294591484465
20
-6.78688422188422
30
0.000000000000000
11
-19.3294591484465
21
-6.78446089788801
31
0.000000000000000
  0
LINE
  5
F1065B
330
F1065C
100
AcDbEntity
8
Geo
100
AcDbLine
10
-19.3294591484465
20
-6.78446089788801
30
0.000000000000000
11
-19.4294591484465
21
-6.78160723254762
31
0.000000000000000
  0
LINE
  5
F1065D
330
F1065E
100
AcDbEntity
8
Geo
100
AcDbLine
10
-19.4294591484465
20
-6.78160723254762
30
0.000000000000000
11
-19.5294591484465
21
-6.77833686917742
31
0.000000000000000
  0
LINE
  5
F1065F
330
F10660
100
AcDbEntity
8
Geo
100
AcDbLine
10
-19.5294591484465
20
-6.77833686917742
30
0.000000000000000
11
-19.6294591484465
21
-6.77465823799071
31
0.000000000000000
  0
LINE
  5
F10661
330
F10662
100
AcDbEntity
8
Geo
100
AcDbLine
10
-19.6294591484465
20
-6.77465823799071
30
0.000000000000000
11
-19.7294591484465
21
-6.77057594846367
31
0.000000000000000
  0
LINE
  5
F10663
330
F10664
100
AcDbEntity
8
Geo
100
AcDbLine
10
-19.7294591484465
20
-6.77057594846367
30
0.000000000000000
11
-19.8294591484465
21
-6.76609190497310
31
0.000000000000000
  0
LINE
  5
F10665
330
F10666
100
AcDbEntity
8
Geo
100
AcDbLine
10
-19.8294591484465
20
-6.76609190497310
30
0.000000000000000
11
-19.9294591484465
21
-6.76120619227676
31
0.000000000000000
  0
LINE
  5
F10667
330
F10668
100
AcDbEntity
8
Geo
100
AcDbLine
10
-19.9294591484465
20
-6.76120619227676
30
0.000000000000000
11
-20.0294591484465
21
-6.75591776822586
31
0.000000000000000
  0
LINE
  5
F10669
330
F1066A
100
AcDbEntity
8
Geo
100
AcDbLine
10
-20.0294591484465
20
-6.75591776822586
30
0.000000000000000
11
-20.1294591484465
21
-6.75022499411009
31
0.000000000000000
  0
LINE
  5
F1066B
330
F1066C
100
AcDbEntity
8
Geo
100
AcDbLine
10
-20.1294591484465
20
-6.75022499411009
30
0.000000000000000
11
-20.2294591484465
21
-6.74412602782080
31
0.000000000000000
  0
LINE
  5
F1066D
330
F1066E
100
AcDbEntity
8
Geo
100
AcDbLine
10
-20.2294591484465
20
-6.74412602782080
30
0.000000000000000
11
-20.3294591484465
21
-6.73761910121671
31
0.000000000000000
  0
LINE
  5
F1066F
330
F10670
100
AcDbEntity
8
Geo
100
AcDbLine
10
-20.3294591484465
20
-6.73761910121671
30
0.000000000000000
11
-20.4294591484465
21
-6.73070270037864
31
0.000000000000000
  0
LINE
  5
F10671
330
F10672
100
AcDbEntity
8
Geo
100
AcDbLine
10
-20.4294591484465
20
-6.73070270037864
30
0.000000000000000
11
-20.5294591484465
21
-6.72337566558402
31
0.000000000000000
  0
LINE
  5
F10673
330
F10674
100
AcDbEntity
8
Geo
100
AcDbLine
10
-20.5294591484465
20
-6.72337566558402
30
0.000000000000000
11
-20.6294591484465
21
-6.71563722660027
31
0.000000000000000
  0
LINE
  5
F10675
330
F10676
100
AcDbEntity
8
Geo
100
AcDbLine
10
-20.6294591484465
20
-6.71563722660027
30
0.000000000000000
11
-20.7294591484465
21
-6.70748698811277
31
0.000000000000000
  0
LINE
  5
F10677
330
F10678
100
AcDbEntity
8
Geo
100
AcDbLine
10
-20.7294591484465
20
-6.70748698811277
30
0.000000000000000
11
-20.8294591484465
21
-6.69892487962649
31
0.000000000000000
  0
LINE
  5
F10679
330
F1067A
100
AcDbEntity
8
Geo
100
AcDbLine
10
-20.8294591484465
20
-6.69892487962649
30
0.000000000000000
11
-20.9294591484465
21
-6.68995108390438
31
0.000000000000000
  0
LINE
  5
F1067B
330
F1067C
100
AcDbEntity
8
Geo
100
AcDbLine
10
-20.9294591484465
20
-6.68995108390438
30
0.000000000000000
11
-21.0294591484465
21
-6.68056595784860
31
0.000000000000000
  0
LINE
  5
F1067D
330
F1067E
100
AcDbEntity
8
Geo
100
AcDbLine
10
-21.0294591484465
20
-6.68056595784860
30
0.000000000000000
11
-21.1294591484465
21
-6.67076995963861
31
0.000000000000000
  0
LINE
  5
F1067F
330
F10680
100
AcDbEntity
8
Geo
100
AcDbLine
10
-36.1294591484465
20
0.420439183090794
30
0.000000000000000
11
-36.0294591484465
21
0.363727723600209
31
0.000000000000000
  0
LINE
  5
F10681
330
F10682
100
AcDbEntity
8
Geo
100
AcDbLine
10
-36.0294591484465
20
0.363727723600209
30
0.000000000000000
11
-35.9294591484465
21
0.307060251296960
31
0.000000000000000
  0
LINE
  5
F10683
330
F10684
100
AcDbEntity
8
Geo
100
AcDbLine
10
-35.9294591484465
20
0.307060251296960
30
0.000000000000000
11
-35.8294591484465
21
0.250439717599055
31
0.000000000000000
  0
LINE
  5
F10685
330
F10686
100
AcDbEntity
8
Geo
100
AcDbLine
10
-35.8294591484465
20
0.250439717599055
30
0.000000000000000
11
-35.7294591484465
21
0.193869071479828
31
0.000000000000000
  0
LINE
  5
F10687
330
F10688
100
AcDbEntity
8
Geo
100
AcDbLine
10
-35.7294591484465
20
0.193869071479828
30
0.000000000000000
11
-35.6294591484465
21
0.137351259314308
31
0.000000000000000
  0
LINE
  5
F10689
330
F1068A
100
AcDbEntity
8
Geo
100
AcDbLine
10
-35.6294591484465
20
0.137351259314308
30
0.000000000000000
11
-35.5294591484465
21
0.0808892247257704
31
0.000000000000000
  0
LINE
  5
F1068B
330
F1068C
100
AcDbEntity
8
Geo
100
AcDbLine
10
-35.5294591484465
20
0.0808892247257704
30
0.000000000000000
11
-35.4294591484465
21
0.0244859084324183
31
0.000000000000000
  0
LINE
  5
F1068D
330
F1068E
100
AcDbEntity
8
Geo
100
AcDbLine
10
-35.4294591484465
20
0.0244859084324183
30
0.000000000000000
11
-35.3294591484465
21
-0.0318557519057745
31
0.000000000000000
  0
LINE
  5
F1068F
330
F10690
100
AcDbEntity
8
Geo
100
AcDbLine
10
-35.3294591484465
20
-0.0318557519057745
30
0.000000000000000
11
-35.2294591484465
21
-0.0881328218400701
31
0.000000000000000
  0
LINE
  5
F10691
330
F10692
100
AcDbEntity
8
Geo
100
AcDbLine
10
-35.2294591484465
20
-0.0881328218400701
30
0.000000000000000
11
-35.1294591484465
21
-0.144342370285795
31
0.000000000000000
  0
LINE
  5
F10693
330
F10694
100
AcDbEntity
8
Geo
100
AcDbLine
10
-35.1294591484465
20
-0.144342370285795
30
0.000000000000000
11
-35.0294591484465
21
-0.200481469675008
31
0.000000000000000
  0
LINE
  5
F10695
330
F10696
100
AcDbEntity
8
Geo
100
AcDbLine
10
-35.0294591484465
20
-0.200481469675008
30
0.000000000000000
11
-34.9294591484465
21
-0.256547196108974
31
0.000000000000000
  0
LINE
  5
F10697
330
F10698
100
AcDbEntity
8
Geo
100
AcDbLine
10
-34.9294591484465
20
-0.256547196108974
30
0.000000000000000
11
-34.8294591484465
21
-0.312536629510448
31
0.000000000000000
  0
LINE
  5
F10699
330
F1069A
100
AcDbEntity
8
Geo
100
AcDbLine
10
-34.8294591484465
20
-0.312536629510448
30
0.000000000000000
11
-34.7294591484465
21
-0.368446853775766
31
0.000000000000000
  0
LINE
  5
F1069B
330
F1069C
100
AcDbEntity
8
Geo
100
AcDbLine
10
-34.7294591484465
20
-0.368446853775766
30
0.000000000000000
11
-34.6294591484465
21
-0.424274956926716
31
0.000000000000000
  0
LINE
  5
F1069D
330
F1069E
100
AcDbEntity
8
Geo
100
AcDbLine
10
-34.6294591484465
20
-0.424274956926716
30
0.000000000000000
11
-34.5294591484465
21
-0.480018031262214
31
0.000000000000000
  0
LINE
  5
F1069F
330
F106A0
100
AcDbEntity
8
Geo
100
AcDbLine
10
-34.5294591484465
20
-0.480018031262214
30
0.000000000000000
11
-34.4294591484465
21
-0.535673173509740
31
0.000000000000000
  0
LINE
  5
F106A1
330
F106A2
100
AcDbEntity
8
Geo
100
AcDbLine
10
-34.4294591484465
20
-0.535673173509740
30
0.000000000000000
11
-34.3294591484465
21
-0.591237484976549
31
0.000000000000000
  0
LINE
  5
F106A3
330
F106A4
100
AcDbEntity
8
Geo
100
AcDbLine
10
-34.3294591484465
20
-0.591237484976549
30
0.000000000000000
11
-34.2294591484465
21
-0.646708071700648
31
0.000000000000000
  0
LINE
  5
F106A5
330
F106A6
100
AcDbEntity
8
Geo
100
AcDbLine
10
-34.2294591484465
20
-0.646708071700648
30
0.000000000000000
11
-34.1294591484465
21
-0.702082044601515
31
0.000000000000000
  0
LINE
  5
F106A7
330
F106A8
100
AcDbEntity
8
Geo
100
AcDbLine
10
-34.1294591484465
20
-0.702082044601515
30
0.000000000000000
11
-34.0294591484465
21
-0.757356519630581
31
0.000000000000000
  0
LINE
  5
F106A9
330
F106AA
100
AcDbEntity
8
Geo
100
AcDbLine
10
-34.0294591484465
20
-0.757356519630581
30
0.000000000000000
11
-33.9294591484465
21
-0.812528617921432
31
0.000000000000000
  0
LINE
  5
F106AB
330
F106AC
100
AcDbEntity
8
Geo
100
AcDbLine
10
-33.9294591484465
20
-0.812528617921432
30
0.000000000000000
11
-33.8294591484465
21
-0.867595465939755
31
0.000000000000000
  0
LINE
  5
F106AD
330
F106AE
100
AcDbEntity
8
Geo
100
AcDbLine
10
-33.8294591484465
20
-0.867595465939755
30
0.000000000000000
11
-33.7294591484465
21
-0.922554195632999
31
0.000000000000000
  0
LINE
  5
F106AF
330
F106B0
100
AcDbEntity
8
Geo
100
AcDbLine
10
-33.7294591484465
20
-0.922554195632999
30
0.000000000000000
11
-33.6294591484465
21
-0.977401944579745
31
0.000000000000000
  0
LINE
  5
F106B1
330
F106B2
100
AcDbEntity
8
Geo
100
AcDbLine
10
-33.6294591484465
20
-0.977401944579745
30
0.000000000000000
11
-33.5294591484465
21
-1.03213585613880
31
0.000000000000000
  0
LINE
  5
F106B3
330
F106B4
100
AcDbEntity
8
Geo
100
AcDbLine
10
-33.5294591484465
20
-1.03213585613880
30
0.000000000000000
11
-33.4294591484465
21
-1.08675307959799
31
0.000000000000000
  0
LINE
  5
F106B5
330
F106B6
100
AcDbEntity
8
Geo
100
AcDbLine
10
-33.4294591484465
20
-1.08675307959799
30
0.000000000000000
11
-33.3294591484465
21
-1.14125077032259
31
0.000000000000000
  0
LINE
  5
F106B7
330
F106B8
100
AcDbEntity
8
Geo
100
AcDbLine
10
-33.3294591484465
20
-1.14125077032259
30
0.000000000000000
11
-33.2294591484465
21
-1.19562608990353
31
0.000000000000000
  0
LINE
  5
F106B9
330
F106BA
100
AcDbEntity
8
Geo
100
AcDbLine
10
-33.2294591484465
20
-1.19562608990353
30
0.000000000000000
11
-33.1294591484465
21
-1.24987620630521
31
0.000000000000000
  0
LINE
  5
F106BB
330
F106BC
100
AcDbEntity
8
Geo
100
AcDbLine
10
-33.1294591484465
20
-1.24987620630521
30
0.000000000000000
11
-33.0294591484465
21
-1.30399829401301
31
0.000000000000000
  0
LINE
  5
F106BD
330
F106BE
100
AcDbEntity
8
Geo
100
AcDbLine
10
-33.0294591484465
20
-1.30399829401301
30
0.000000000000000
11
-32.9294591484465
21
-1.35798953418041
31
0.000000000000000
  0
LINE
  5
F106BF
330
F106C0
100
AcDbEntity
8
Geo
100
AcDbLine
10
-32.9294591484465
20
-1.35798953418041
30
0.000000000000000
11
-32.8294591484465
21
-1.41184711477586
31
0.000000000000000
  0
LINE
  5
F106C1
330
F106C2
100
AcDbEntity
8
Geo
100
AcDbLine
10
-32.8294591484465
20
-1.41184711477586
30
0.000000000000000
11
-32.7294591484465
21
-1.46556823072922
31
0.000000000000000
  0
LINE
  5
F106C3
330
F106C4
100
AcDbEntity
8
Geo
100
AcDbLine
10
-32.7294591484465
20
-1.46556823072922
30
0.000000000000000
11
-32.6294591484465
21
-1.51915008407785
31
0.000000000000000
  0
LINE
  5
F106C5
330
F106C6
100
AcDbEntity
8
Geo
100
AcDbLine
10
-32.6294591484465
20
-1.51915008407785
30
0.000000000000000
11
-32.5294591484465
21
-1.57258988411231
31
0.000000000000000
  0
LINE
  5
F106C7
330
F106C8
100
AcDbEntity
8
Geo
100
AcDbLine
10
-32.5294591484465
20
-1.57258988411231
30
0.000000000000000
11
-32.4294591484465
21
-1.62588484752179
31
0.000000000000000
  0
LINE
  5
F106C9
330
F106CA
100
AcDbEntity
8
Geo
100
AcDbLine
10
-32.4294591484465
20
-1.62588484752179
30
0.000000000000000
11
-32.3294591484465
21
-1.67903219853898
31
0.000000000000000
  0
LINE
  5
F106CB
330
F106CC
100
AcDbEntity
8
Geo
100
AcDbLine
10
-32.3294591484465
20
-1.67903219853898
30
0.000000000000000
11
-32.2294591484465
21
-1.73202916908469
31
0.000000000000000
  0
LINE
  5
F106CD
330
F106CE
100
AcDbEntity
8
Geo
100
AcDbLine
10
-32.2294591484465
20
-1.73202916908469
30
0.000000000000000
11
-32.1294591484465
21
-1.78487299891202
31
0.000000000000000
  0
LINE
  5
F106CF
330
F106D0
100
AcDbEntity
8
Geo
100
AcDbLine
10
-32.1294591484465
20
-1.78487299891202
30
0.000000000000000
11
-32.0294591484465
21
-1.83756093575012
31
0.000000000000000
  0
LINE
  5
F106D1
330
F106D2
100
AcDbEntity
8
Geo
100
AcDbLine
10
-32.0294591484465
20
-1.83756093575012
30
0.000000000000000
11
-31.9294591484465
21
-1.89009023544752
31
0.000000000000000
  0
LINE
  5
F106D3
330
F106D4
100
AcDbEntity
8
Geo
100
AcDbLine
10
-31.9294591484465
20
-1.89009023544752
30
0.000000000000000
11
-31.8294591484465
21
-1.94245816211507
31
0.000000000000000
  0
LINE
  5
F106D5
330
F106D6
100
AcDbEntity
8
Geo
100
AcDbLine
10
-31.8294591484465
20
-1.94245816211507
30
0.000000000000000
11
-31.7294591484465
21
-1.99466198826843
31
0.000000000000000
  0
LINE
  5
F106D7
330
F106D8
100
AcDbEntity
8
Geo
100
AcDbLine
10
-31.7294591484465
20
-1.99466198826843
30
0.000000000000000
11
-31.6294591484465
21
-2.04669899497011
31
0.000000000000000
  0
LINE
  5
F106D9
330
F106DA
100
AcDbEntity
8
Geo
100
AcDbLine
10
-31.6294591484465
20
-2.04669899497011
30
0.000000000000000
11
-31.5294591484465
21
-2.09856647197111
31
0.000000000000000
  0
LINE
  5
F106DB
330
F106DC
100
AcDbEntity
8
Geo
100
AcDbLine
10
-31.5294591484465
20
-2.09856647197111
30
0.000000000000000
11
-31.4294591484465
21
-2.15026171785207
31
0.000000000000000
  0
LINE
  5
F106DD
330
F106DE
100
AcDbEntity
8
Geo
100
AcDbLine
10
-31.4294591484465
20
-2.15026171785207
30
0.000000000000000
11
-31.3294591484465
21
-2.20178204016396
31
0.000000000000000
  0
LINE
  5
F106DF
330
F106E0
100
AcDbEntity
8
Geo
100
AcDbLine
10
-31.3294591484465
20
-2.20178204016396
30
0.000000000000000
11
-31.2294591484465
21
-2.25312475556828
31
0.000000000000000
  0
LINE
  5
F106E1
330
F106E2
100
AcDbEntity
8
Geo
100
AcDbLine
10
-31.2294591484465
20
-2.25312475556828
30
0.000000000000000
11
-31.1294591484465
21
-2.30428718997690
31
0.000000000000000
  0
LINE
  5
F106E3
330
F106E4
100
AcDbEntity
8
Geo
100
AcDbLine
10
-31.1294591484465
20
-2.30428718997690
30
0.000000000000000
11
-31.0294591484465
21
-2.35526667869125
31
0.000000000000000
  0
LINE
  5
F106E5
330
F106E6
100
AcDbEntity
8
Geo
100
AcDbLine
10
-31.0294591484465
20
-2.35526667869125
30
0.000000000000000
11
-30.9294591484465
21
-2.40606056654115
31
0.000000000000000
  0
LINE
  5
F106E7
330
F106E8
100
AcDbEntity
8
Geo
100
AcDbLine
10
-30.9294591484465
20
-2.40606056654115
30
0.000000000000000
11
-30.8294591484465
21
-2.45666620802309
31
0.000000000000000
  0
LINE
  5
F106E9
330
F106EA
100
AcDbEntity
8
Geo
100
AcDbLine
10
-30.8294591484465
20
-2.45666620802309
30
0.000000000000000
11
-30.7294591484465
21
-2.50708096743802
31
0.000000000000000
  0
LINE
  5
F106EB
330
F106EC
100
AcDbEntity
8
Geo
100
AcDbLine
10
-30.7294591484465
20
-2.50708096743802
30
0.000000000000000
11
-30.6294591484465
21
-2.55730221902861
31
0.000000000000000
  0
LINE
  5
F106ED
330
F106EE
100
AcDbEntity
8
Geo
100
AcDbLine
10
-30.6294591484465
20
-2.55730221902861
30
0.000000000000000
11
-30.5294591484465
21
-2.60732734711604
31
0.000000000000000
  0
LINE
  5
F106EF
330
F106F0
100
AcDbEntity
8
Geo
100
AcDbLine
10
-30.5294591484465
20
-2.60732734711604
30
0.000000000000000
11
-30.4294591484465
21
-2.65715374623618
31
0.000000000000000
  0
LINE
  5
F106F1
330
F106F2
100
AcDbEntity
8
Geo
100
AcDbLine
10
-30.4294591484465
20
-2.65715374623618
30
0.000000000000000
11
-30.3294591484465
21
-2.70677882127534
31
0.000000000000000
  0
LINE
  5
F106F3
330
F106F4
100
AcDbEntity
8
Geo
100
AcDbLine
10
-30.3294591484465
20
-2.70677882127534
30
0.000000000000000
11
-30.2294591484465
21
-2.75619998760543
31
0.000000000000000
  0
LINE
  5
F106F5
330
F106F6
100
AcDbEntity
8
Geo
100
AcDbLine
10
-30.2294591484465
20
-2.75619998760543
30
0.000000000000000
11
-30.1294591484465
21
-2.80541467121853
31
0.000000000000000
  0
LINE
  5
F106F7
330
F106F8
100
AcDbEntity
8
Geo
100
AcDbLine
10
-30.1294591484465
20
-2.80541467121853
30
0.000000000000000
11
-30.0294591484465
21
-2.85442030886100
31
0.000000000000000
  0
LINE
  5
F106F9
330
F106FA
100
AcDbEntity
8
Geo
100
AcDbLine
10
-30.0294591484465
20
-2.85442030886100
30
0.000000000000000
11
-29.9294591484465
21
-2.90321434816694
31
0.000000000000000
  0
LINE
  5
F106FB
330
F106FC
100
AcDbEntity
8
Geo
100
AcDbLine
10
-29.9294591484465
20
-2.90321434816694
30
0.000000000000000
11
-29.8294591484465
21
-2.95179424779119
31
0.000000000000000
  0
LINE
  5
F106FD
330
F106FE
100
AcDbEntity
8
Geo
100
AcDbLine
10
-29.8294591484465
20
-2.95179424779119
30
0.000000000000000
11
-29.7294591484465
21
-3.00015747754162
31
0.000000000000000
  0
LINE
  5
F106FF
330
F10700
100
AcDbEntity
8
Geo
100
AcDbLine
10
-29.7294591484465
20
-3.00015747754162
30
0.000000000000000
11
-29.6294591484465
21
-3.04830151851093
31
0.000000000000000
  0
LINE
  5
F10701
330
F10702
100
AcDbEntity
8
Geo
100
AcDbLine
10
-29.6294591484465
20
-3.04830151851093
30
0.000000000000000
11
-29.5294591484465
21
-3.09622386320789
31
0.000000000000000
  0
LINE
  5
F10703
330
F10704
100
AcDbEntity
8
Geo
100
AcDbLine
10
-29.5294591484465
20
-3.09622386320789
30
0.000000000000000
11
-29.4294591484465
21
-3.14392201568787
31
0.000000000000000
  0
LINE
  5
F10705
330
F10706
100
AcDbEntity
8
Geo
100
AcDbLine
10
-29.4294591484465
20
-3.14392201568787
30
0.000000000000000
11
-29.3294591484465
21
-3.19139349168288
31
0.000000000000000
  0
LINE
  5
F10707
330
F10708
100
AcDbEntity
8
Geo
100
AcDbLine
10
-29.3294591484465
20
-3.19139349168288
30
0.000000000000000
11
-29.2294591484465
21
-3.23863581873095
31
0.000000000000000
  0
LINE
  5
F10709
330
F1070A
100
AcDbEntity
8
Geo
100
AcDbLine
10
-29.2294591484465
20
-3.23863581873095
30
0.000000000000000
11
-29.1294591484465
21
-3.28564653630488
31
0.000000000000000
  0
LINE
  5
F1070B
330
F1070C
100
AcDbEntity
8
Geo
100
AcDbLine
10
-29.1294591484465
20
-3.28564653630488
30
0.000000000000000
11
-29.0294591484465
21
-3.33242319594042
31
0.000000000000000
  0
LINE
  5
F1070D
330
F1070E
100
AcDbEntity
8
Geo
100
AcDbLine
10
-29.0294591484465
20
-3.33242319594042
30
0.000000000000000
11
-28.9294591484465
21
-3.37896336136381
31
0.000000000000000
  0
LINE
  5
F1070F
330
F10710
100
AcDbEntity
8
Geo
100
AcDbLine
10
-28.9294591484465
20
-3.37896336136381
30
0.000000000000000
11
-28.8294591484465
21
-3.42526460861860
31
0.000000000000000
  0
LINE
  5
F10711
330
F10712
100
AcDbEntity
8
Geo
100
AcDbLine
10
-28.8294591484465
20
-3.42526460861860
30
0.000000000000000
11
-28.7294591484465
21
-3.47132452619197
31
0.000000000000000
  0
LINE
  5
F10713
330
F10714
100
AcDbEntity
8
Geo
100
AcDbLine
10
-28.7294591484465
20
-3.47132452619197
30
0.000000000000000
11
-28.6294591484465
21
-3.51714071514029
31
0.000000000000000
  0
LINE
  5
F10715
330
F10716
100
AcDbEntity
8
Geo
100
AcDbLine
10
-28.6294591484465
20
-3.51714071514029
30
0.000000000000000
11
-28.5294591484465
21
-3.56271078921408
31
0.000000000000000
  0
LINE
  5
F10717
330
F10718
100
AcDbEntity
8
Geo
100
AcDbLine
10
-28.5294591484465
20
-3.56271078921408
30
0.000000000000000
11
-28.4294591484465
21
-3.60803237498228
31
0.000000000000000
  0
LINE
  5
F10719
330
F1071A
100
AcDbEntity
8
Geo
100
AcDbLine
10
-28.4294591484465
20
-3.60803237498228
30
0.000000000000000
11
-28.3294591484465
21
-3.65310311195589
31
0.000000000000000
  0
LINE
  5
F1071B
330
F1071C
100
AcDbEntity
8
Geo
100
AcDbLine
10
-28.3294591484465
20
-3.65310311195589
30
0.000000000000000
11
-28.2294591484465
21
-3.69792065271086
31
0.000000000000000
  0
LINE
  5
F1071D
330
F1071E
100
AcDbEntity
8
Geo
100
AcDbLine
10
-28.2294591484465
20
-3.69792065271086
30
0.000000000000000
11
-28.1294591484465
21
-3.74248266301041
31
0.000000000000000
  0
LINE
  5
F1071F
330
F10720
100
AcDbEntity
8
Geo
100
AcDbLine
10
-28.1294591484465
20
-3.74248266301041
30
0.000000000000000
11
-28.0294591484465
21
-3.78678682192659
31
0.000000000000000
  0
LINE
  5
F10721
330
F10722
100
AcDbEntity
8
Geo
100
AcDbLine
10
-28.0294591484465
20
-3.78678682192659
30
0.000000000000000
11
-27.9294591484465
21
-3.83083082196113
31
0.000000000000000
  0
LINE
  5
F10723
330
F10724
100
AcDbEntity
8
Geo
100
AcDbLine
10
-27.9294591484465
20
-3.83083082196113
30
0.000000000000000
11
-27.8294591484465
21
-3.87461236916565
31
0.000000000000000
  0
LINE
  5
F10725
330
F10726
100
AcDbEntity
8
Geo
100
AcDbLine
10
-27.8294591484465
20
-3.87461236916565
30
0.000000000000000
11
-27.7294591484465
21
-3.91812918326114
31
0.000000000000000
  0
LINE
  5
F10727
330
F10728
100
AcDbEntity
8
Geo
100
AcDbLine
10
-27.7294591484465
20
-3.91812918326114
30
0.000000000000000
11
-27.6294591484465
21
-3.96137899775669
31
0.000000000000000
  0
LINE
  5
F10729
330
F1072A
100
AcDbEntity
8
Geo
100
AcDbLine
10
-27.6294591484465
20
-3.96137899775669
30
0.000000000000000
11
-27.5294591484465
21
-4.00435956006758
31
0.000000000000000
  0
LINE
  5
F1072B
330
F1072C
100
AcDbEntity
8
Geo
100
AcDbLine
10
-27.5294591484465
20
-4.00435956006758
30
0.000000000000000
11
-27.4294591484465
21
-4.04706863163256
31
0.000000000000000
  0
LINE
  5
F1072D
330
F1072E
100
AcDbEntity
8
Geo
100
AcDbLine
10
-27.4294591484465
20
-4.04706863163256
30
0.000000000000000
11
-27.3294591484465
21
-4.08950398803049
31
0.000000000000000
  0
LINE
  5
F1072F
330
F10730
100
AcDbEntity
8
Geo
100
AcDbLine
10
-27.3294591484465
20
-4.08950398803049
30
0.000000000000000
11
-27.2294591484465
21
-4.13166341909615
31
0.000000000000000
  0
LINE
  5
F10731
330
F10732
100
AcDbEntity
8
Geo
100
AcDbLine
10
-27.2294591484465
20
-4.13166341909615
30
0.000000000000000
11
-27.1294591484465
21
-4.17354472903536
31
0.000000000000000
  0
LINE
  5
F10733
330
F10734
100
AcDbEntity
8
Geo
100
AcDbLine
10
-27.1294591484465
20
-4.17354472903536
30
0.000000000000000
11
-27.0294591484465
21
-4.21514573653937
31
0.000000000000000
  0
LINE
  5
F10735
330
F10736
100
AcDbEntity
8
Geo
100
AcDbLine
10
-27.0294591484465
20
-4.21514573653937
30
0.000000000000000
11
-26.9294591484465
21
-4.25646427489843
31
0.000000000000000
  0
LINE
  5
F10737
330
F10738
100
AcDbEntity
8
Geo
100
AcDbLine
10
-26.9294591484465
20
-4.25646427489843
30
0.000000000000000
11
-26.8294591484465
21
-4.29749819211469
31
0.000000000000000
  0
LINE
  5
F10739
330
F1073A
100
AcDbEntity
8
Geo
100
AcDbLine
10
-26.8294591484465
20
-4.29749819211469
30
0.000000000000000
11
-26.7294591484465
21
-4.33824535101422
31
0.000000000000000
  0
LINE
  5
F1073B
330
F1073C
100
AcDbEntity
8
Geo
100
AcDbLine
10
-26.7294591484465
20
-4.33824535101422
30
0.000000000000000
11
-26.6294591484465
21
-4.37870362935839
31
0.000000000000000
  0
LINE
  5
F1073D
330
F1073E
100
AcDbEntity
8
Geo
100
AcDbLine
10
-26.6294591484465
20
-4.37870362935839
30
0.000000000000000
11
-26.5294591484465
21
-4.41887091995433
31
0.000000000000000
  0
LINE
  5
F1073F
330
F10740
100
AcDbEntity
8
Geo
100
AcDbLine
10
-26.5294591484465
20
-4.41887091995433
30
0.000000000000000
11
-26.4294591484465
21
-4.45874513076475
31
0.000000000000000
  0
LINE
  5
F10741
330
F10742
100
AcDbEntity
8
Geo
100
AcDbLine
10
-26.4294591484465
20
-4.45874513076475
30
0.000000000000000
11
-26.3294591484465
21
-4.49832418501685
31
0.000000000000000
  0
LINE
  5
F10743
330
F10744
100
AcDbEntity
8
Geo
100
AcDbLine
10
-26.3294591484465
20
-4.49832418501685
30
0.000000000000000
11
-26.2294591484465
21
-4.53760602131050
31
0.000000000000000
  0
LINE
  5
F10745
330
F10746
100
AcDbEntity
8
Geo
100
AcDbLine
10
-26.2294591484465
20
-4.53760602131050
30
0.000000000000000
11
-26.1294591484465
21
-4.57658859372560
31
0.000000000000000
  0
LINE
  5
F10747
330
F10748
100
AcDbEntity
8
Geo
100
AcDbLine
10
-26.1294591484465
20
-4.57658859372560
30
0.000000000000000
11
-26.0294591484465
21
-4.61526987192865
31
0.000000000000000
  0
LINE
  5
F10749
330
F1074A
100
AcDbEntity
8
Geo
100
AcDbLine
10
-26.0294591484465
20
-4.61526987192865
30
0.000000000000000
11
-25.9294591484465
21
-4.65364784127849
31
0.000000000000000
  0
LINE
  5
F1074B
330
F1074C
100
AcDbEntity
8
Geo
100
AcDbLine
10
-25.9294591484465
20
-4.65364784127849
30
0.000000000000000
11
-25.8294591484465
21
-4.69172050293123
31
0.000000000000000
  0
LINE
  5
F1074D
330
F1074E
100
AcDbEntity
8
Geo
100
AcDbLine
10
-25.8294591484465
20
-4.69172050293123
30
0.000000000000000
11
-25.7294591484465
21
-4.72948587394434
31
0.000000000000000
  0
LINE
  5
F1074F
330
F10750
100
AcDbEntity
8
Geo
100
AcDbLine
10
-25.7294591484465
20
-4.72948587394434
30
0.000000000000000
11
-25.6294591484465
21
-4.76694198737996
31
0.000000000000000
  0
LINE
  5
F10751
330
F10752
100
AcDbEntity
8
Geo
100
AcDbLine
10
-25.6294591484465
20
-4.76694198737996
30
0.000000000000000
11
-25.5294591484465
21
-4.80408689240731
31
0.000000000000000
  0
LINE
  5
F10753
330
F10754
100
AcDbEntity
8
Geo
100
AcDbLine
10
-25.5294591484465
20
-4.80408689240731
30
0.000000000000000
11
-25.4294591484465
21
-4.84091865440431
31
0.000000000000000
  0
LINE
  5
F10755
330
F10756
100
AcDbEntity
8
Geo
100
AcDbLine
10
-25.4294591484465
20
-4.84091865440431
30
0.000000000000000
11
-25.3294591484465
21
-4.87743535505836
31
0.000000000000000
  0
LINE
  5
F10757
330
F10758
100
AcDbEntity
8
Geo
100
AcDbLine
10
-25.3294591484465
20
-4.87743535505836
30
0.000000000000000
11
-25.2294591484465
21
-4.91363509246622
31
0.000000000000000
  0
LINE
  5
F10759
330
F1075A
100
AcDbEntity
8
Geo
100
AcDbLine
10
-25.2294591484465
20
-4.91363509246622
30
0.000000000000000
11
-25.1294591484465
21
-4.94951598123308
31
0.000000000000000
  0
LINE
  5
F1075B
330
F1075C
100
AcDbEntity
8
Geo
100
AcDbLine
10
-25.1294591484465
20
-4.94951598123308
30
0.000000000000000
11
-25.0294591484465
21
-4.98507615257076
31
0.000000000000000
  0
LINE
  5
F1075D
330
F1075E
100
AcDbEntity
8
Geo
100
AcDbLine
10
-25.0294591484465
20
-4.98507615257076
30
0.000000000000000
11
-24.9294591484465
21
-5.02031375439504
31
0.000000000000000
  0
LINE
  5
F1075F
330
F10760
100
AcDbEntity
8
Geo
100
AcDbLine
10
-24.9294591484465
20
-5.02031375439504
30
0.000000000000000
11
-24.8294591484465
21
-5.05522695142214
31
0.000000000000000
  0
LINE
  5
F10761
330
F10762
100
AcDbEntity
8
Geo
100
AcDbLine
10
-24.8294591484465
20
-5.05522695142214
30
0.000000000000000
11
-24.7294591484465
21
-5.08981392526425
31
0.000000000000000
  0
LINE
  5
F10763
330
F10764
100
AcDbEntity
8
Geo
100
AcDbLine
10
-24.7294591484465
20
-5.08981392526425
30
0.000000000000000
11
-24.6294591484465
21
-5.12407287452431
31
0.000000000000000
  0
LINE
  5
F10765
330
F10766
100
AcDbEntity
8
Geo
100
AcDbLine
10
-24.6294591484465
20
-5.12407287452431
30
0.000000000000000
11
-24.5294591484465
21
-5.15800201488980
31
0.000000000000000
  0
LINE
  5
F10767
330
F10768
100
AcDbEntity
8
Geo
100
AcDbLine
10
-24.5294591484465
20
-5.15800201488980
30
0.000000000000000
11
-24.4294591484465
21
-5.19159957922566
31
0.000000000000000
  0
LINE
  5
F10769
330
F1076A
100
AcDbEntity
8
Geo
100
AcDbLine
10
-24.4294591484465
20
-5.19159957922566
30
0.000000000000000
11
-24.3294591484465
21
-5.22486381766633
31
0.000000000000000
  0
LINE
  5
F1076B
330
F1076C
100
AcDbEntity
8
Geo
100
AcDbLine
10
-24.3294591484465
20
-5.22486381766633
30
0.000000000000000
11
-24.2294591484465
21
-5.25779299770692
31
0.000000000000000
  0
LINE
  5
F1076D
330
F1076E
100
AcDbEntity
8
Geo
100
AcDbLine
10
-24.2294591484465
20
-5.25779299770692
30
0.000000000000000
11
-24.1294591484465
21
-5.29038540429342
31
0.000000000000000
  0
LINE
  5
F1076F
330
F10770
100
AcDbEntity
8
Geo
100
AcDbLine
10
-24.1294591484465
20
-5.29038540429342
30
0.000000000000000
11
-24.0294591484465
21
-5.32263933991200
31
0.000000000000000
  0
LINE
  5
F10771
330
F10772
100
AcDbEntity
8
Geo
100
AcDbLine
10
-24.0294591484465
20
-5.32263933991200
30
0.000000000000000
11
-23.9294591484465
21
-5.35455312467750
31
0.000000000000000
  0
LINE
  5
F10773
330
F10774
100
AcDbEntity
8
Geo
100
AcDbLine
10
-23.9294591484465
20
-5.35455312467750
30
0.000000000000000
11
-23.8294591484465
21
-5.38612509642082
31
0.000000000000000
  0
LINE
  5
F10775
330
F10776
100
AcDbEntity
8
Geo
100
AcDbLine
10
-23.8294591484465
20
-5.38612509642082
30
0.000000000000000
11
-23.7294591484465
21
-5.41735361077558
31
0.000000000000000
  0
LINE
  5
F10777
330
F10778
100
AcDbEntity
8
Geo
100
AcDbLine
10
-23.7294591484465
20
-5.41735361077558
30
0.000000000000000
11
-23.6294591484465
21
-5.44823704126371
31
0.000000000000000
  0
LINE
  5
F10779
330
F1077A
100
AcDbEntity
8
Geo
100
AcDbLine
10
-23.6294591484465
20
-5.44823704126371
30
0.000000000000000
11
-23.5294591484465
21
-5.47877377938019
31
0.000000000000000
  0
LINE
  5
F1077B
330
F1077C
100
AcDbEntity
8
Geo
100
AcDbLine
10
-23.5294591484465
20
-5.47877377938019
30
0.000000000000000
11
-23.4294591484465
21
-5.50896223467682
31
0.000000000000000
  0
LINE
  5
F1077D
330
F1077E
100
AcDbEntity
8
Geo
100
AcDbLine
10
-23.4294591484465
20
-5.50896223467682
30
0.000000000000000
11
-23.3294591484465
21
-5.53880083484503
31
0.000000000000000
  0
LINE
  5
F1077F
330
F10780
100
AcDbEntity
8
Geo
100
AcDbLine
10
-23.3294591484465
20
-5.53880083484503
30
0.000000000000000
11
-23.2294591484465
21
-5.56828802579782
31
0.000000000000000
  0
LINE
  5
F10781
330
F10782
100
AcDbEntity
8
Geo
100
AcDbLine
10
-23.2294591484465
20
-5.56828802579782
30
0.000000000000000
11
-23.1294591484465
21
-5.59742227175066
31
0.000000000000000
  0
LINE
  5
F10783
330
F10784
100
AcDbEntity
8
Geo
100
AcDbLine
10
-23.1294591484465
20
-5.59742227175066
30
0.000000000000000
11
-23.0294591484465
21
-5.62620205530148
31
0.000000000000000
  0
LINE
  5
F10785
330
F10786
100
AcDbEntity
8
Geo
100
AcDbLine
10
-23.0294591484465
20
-5.62620205530148
30
0.000000000000000
11
-22.9294591484465
21
-5.65462587750974
31
0.000000000000000
  0
LINE
  5
F10787
330
F10788
100
AcDbEntity
8
Geo
100
AcDbLine
10
-22.9294591484465
20
-5.65462587750974
30
0.000000000000000
11
-22.8294591484465
21
-5.68269225797445
31
0.000000000000000
  0
LINE
  5
F10789
330
F1078A
100
AcDbEntity
8
Geo
100
AcDbLine
10
-22.8294591484465
20
-5.68269225797445
30
0.000000000000000
11
-22.7294591484465
21
-5.71039973491130
31
0.000000000000000
  0
LINE
  5
F1078B
330
F1078C
100
AcDbEntity
8
Geo
100
AcDbLine
10
-22.7294591484465
20
-5.71039973491130
30
0.000000000000000
11
-22.6294591484465
21
-5.73774686522881
31
0.000000000000000
  0
LINE
  5
F1078D
330
F1078E
100
AcDbEntity
8
Geo
100
AcDbLine
10
-22.6294591484465
20
-5.73774686522881
30
0.000000000000000
11
-22.5294591484465
21
-5.76473222460345
31
0.000000000000000
  0
LINE
  5
F1078F
330
F10790
100
AcDbEntity
8
Geo
100
AcDbLine
10
-22.5294591484465
20
-5.76473222460345
30
0.000000000000000
11
-22.4294591484465
21
-5.79135440755386
31
0.000000000000000
  0
LINE
  5
F10791
330
F10792
100
AcDbEntity
8
Geo
100
AcDbLine
10
-22.4294591484465
20
-5.79135440755386
30
0.000000000000000
11
-22.3294591484465
21
-5.81761202751402
31
0.000000000000000
  0
LINE
  5
F10793
330
F10794
100
AcDbEntity
8
Geo
100
AcDbLine
10
-22.3294591484465
20
-5.81761202751402
30
0.000000000000000
11
-22.2294591484465
21
-5.84350371690549
31
0.000000000000000
  0
LINE
  5
F10795
330
F10796
100
AcDbEntity
8
Geo
100
AcDbLine
10
-22.2294591484465
20
-5.84350371690549
30
0.000000000000000
11
-22.1294591484465
21
-5.86902812720865
31
0.000000000000000
  0
LINE
  5
F10797
330
F10798
100
AcDbEntity
8
Geo
100
AcDbLine
10
-22.1294591484465
20
-5.86902812720865
30
0.000000000000000
11
-22.0294591484465
21
-5.89418392903289
31
0.000000000000000
  0
LINE
  5
F10799
330
F1079A
100
AcDbEntity
8
Geo
100
AcDbLine
10
-22.0294591484465
20
-5.89418392903289
30
0.000000000000000
11
-21.9294591484465
21
-5.91896981218588
31
0.000000000000000
  0
LINE
  5
F1079B
330
F1079C
100
AcDbEntity
8
Geo
100
AcDbLine
10
-21.9294591484465
20
-5.91896981218588
30
0.000000000000000
11
-21.8294591484465
21
-5.94338448574181
31
0.000000000000000
  0
LINE
  5
F1079D
330
F1079E
100
AcDbEntity
8
Geo
100
AcDbLine
10
-21.8294591484465
20
-5.94338448574181
30
0.000000000000000
11
-21.7294591484465
21
-5.96742667810863
31
0.000000000000000
  0
LINE
  5
F1079F
330
F107A0
100
AcDbEntity
8
Geo
100
AcDbLine
10
-21.7294591484465
20
-5.96742667810863
30
0.000000000000000
11
-21.6294591484465
21
-5.99109513709425
31
0.000000000000000
  0
LINE
  5
F107A1
330
F107A2
100
AcDbEntity
8
Geo
100
AcDbLine
10
-21.6294591484465
20
-5.99109513709425
30
0.000000000000000
11
-21.5294591484465
21
-6.01438862997177
31
0.000000000000000
  0
LINE
  5
F107A3
330
F107A4
100
AcDbEntity
8
Geo
100
AcDbLine
10
-21.5294591484465
20
-6.01438862997177
30
0.000000000000000
11
-21.4294591484465
21
-6.03730594354372
31
0.000000000000000
  0
LINE
  5
F107A5
330
F107A6
100
AcDbEntity
8
Geo
100
AcDbLine
10
-21.4294591484465
20
-6.03730594354372
30
0.000000000000000
11
-21.3294591484465
21
-6.05984588420518
31
0.000000000000000
  0
LINE
  5
F107A7
330
F107A8
100
AcDbEntity
8
Geo
100
AcDbLine
10
-21.3294591484465
20
-6.05984588420518
30
0.000000000000000
11
-21.2294591484465
21
-6.08200727800602
31
0.000000000000000
  0
LINE
  5
F107A9
330
F107AA
100
AcDbEntity
8
Geo
100
AcDbLine
10
-21.2294591484465
20
-6.08200727800602
30
0.000000000000000
11
-21.1294591484465
21
-6.10378897071199
31
0.000000000000000
  0
LINE
  5
F107AB
330
F107AC
100
AcDbEntity
8
Geo
100
AcDbLine
10
-36.1294591484465
20
9.06936684336701
30
0.000000000000000
11
-36.0294591484465
21
9.06347638773525
31
0.000000000000000
  0
LINE
  5
F107AD
330
F107AE
100
AcDbEntity
8
Geo
100
AcDbLine
10
-36.0294591484465
20
9.06347638773525
30
0.000000000000000
11
-35.9294591484465
21
9.05717680934782
31
0.000000000000000
  0
LINE
  5
F107AF
330
F107B0
100
AcDbEntity
8
Geo
100
AcDbLine
10
-35.9294591484465
20
9.05717680934782
30
0.000000000000000
11
-35.8294591484465
21
9.05046843630635
31
0.000000000000000
  0
LINE
  5
F107B1
330
F107B2
100
AcDbEntity
8
Geo
100
AcDbLine
10
-35.8294591484465
20
9.05046843630635
30
0.000000000000000
11
-35.7294591484465
21
9.04335161800376
31
0.000000000000000
  0
LINE
  5
F107B3
330
F107B4
100
AcDbEntity
8
Geo
100
AcDbLine
10
-35.7294591484465
20
9.04335161800376
30
0.000000000000000
11
-35.6294591484465
21
9.03582672510606
31
0.000000000000000
  0
LINE
  5
F107B5
330
F107B6
100
AcDbEntity
8
Geo
100
AcDbLine
10
-35.6294591484465
20
9.03582672510606
30
0.000000000000000
11
-35.5294591484465
21
9.02789414953304
31
0.000000000000000
  0
LINE
  5
F107B7
330
F107B8
100
AcDbEntity
8
Geo
100
AcDbLine
10
-35.5294591484465
20
9.02789414953304
30
0.000000000000000
11
-35.4294591484465
21
9.01955430443790
31
0.000000000000000
  0
LINE
  5
F107B9
330
F107BA
100
AcDbEntity
8
Geo
100
AcDbLine
10
-35.4294591484465
20
9.01955430443790
30
0.000000000000000
11
-35.3294591484465
21
9.01080762418568
31
0.000000000000000
  0
LINE
  5
F107BB
330
F107BC
100
AcDbEntity
8
Geo
100
AcDbLine
10
-35.3294591484465
20
9.01080762418568
30
0.000000000000000
11
-35.2294591484465
21
9.00165456433067
31
0.000000000000000
  0
LINE
  5
F107BD
330
F107BE
100
AcDbEntity
8
Geo
100
AcDbLine
10
-35.2294591484465
20
9.00165456433067
30
0.000000000000000
11
-35.1294591484465
21
8.99209560159266
31
0.000000000000000
  0
LINE
  5
F107BF
330
F107C0
100
AcDbEntity
8
Geo
100
AcDbLine
10
-35.1294591484465
20
8.99209560159266
30
0.000000000000000
11
-35.0294591484465
21
8.98213123383214
31
0.000000000000000
  0
LINE
  5
F107C1
330
F107C2
100
AcDbEntity
8
Geo
100
AcDbLine
10
-35.0294591484465
20
8.98213123383214
30
0.000000000000000
11
-34.9294591484465
21
8.97176198002434
31
0.000000000000000
  0
LINE
  5
F107C3
330
F107C4
100
AcDbEntity
8
Geo
100
AcDbLine
10
-34.9294591484465
20
8.97176198002434
30
0.000000000000000
11
-34.8294591484465
21
8.96098838023222
31
0.000000000000000
  0
LINE
  5
F107C5
330
F107C6
100
AcDbEntity
8
Geo
100
AcDbLine
10
-34.8294591484465
20
8.96098838023222
30
0.000000000000000
11
-34.7294591484465
21
8.94981099557834
31
0.000000000000000
  0
LINE
  5
F107C7
330
F107C8
100
AcDbEntity
8
Geo
100
AcDbLine
10
-34.7294591484465
20
8.94981099557834
30
0.000000000000000
11
-34.6294591484465
21
8.93823040821561
31
0.000000000000000
  0
LINE
  5
F107C9
330
F107CA
100
AcDbEntity
8
Geo
100
AcDbLine
10
-34.6294591484465
20
8.93823040821561
30
0.000000000000000
11
-34.5294591484465
21
8.92624722129701
31
0.000000000000000
  0
LINE
  5
F107CB
330
F107CC
100
AcDbEntity
8
Geo
100
AcDbLine
10
-34.5294591484465
20
8.92624722129701
30
0.000000000000000
11
-34.4294591484465
21
8.91386205894416
31
0.000000000000000
  0
LINE
  5
F107CD
330
F107CE
100
AcDbEntity
8
Geo
100
AcDbLine
10
-34.4294591484465
20
8.91386205894416
30
0.000000000000000
11
-34.3294591484465
21
8.90107556621479
31
0.000000000000000
  0
LINE
  5
F107CF
330
F107D0
100
AcDbEntity
8
Geo
100
AcDbLine
10
-34.3294591484465
20
8.90107556621479
30
0.000000000000000
11
-34.2294591484465
21
8.88788840906917
31
0.000000000000000
  0
LINE
  5
F107D1
330
F107D2
100
AcDbEntity
8
Geo
100
AcDbLine
10
-34.2294591484465
20
8.88788840906917
30
0.000000000000000
11
-34.1294591484465
21
8.87430127433542
31
0.000000000000000
  0
LINE
  5
F107D3
330
F107D4
100
AcDbEntity
8
Geo
100
AcDbLine
10
-34.1294591484465
20
8.87430127433542
30
0.000000000000000
11
-34.0294591484465
21
8.86031486967375
31
0.000000000000000
  0
LINE
  5
F107D5
330
F107D6
100
AcDbEntity
8
Geo
100
AcDbLine
10
-34.0294591484465
20
8.86031486967375
30
0.000000000000000
11
-33.9294591484465
21
8.84592992353956
31
0.000000000000000
  0
LINE
  5
F107D7
330
F107D8
100
AcDbEntity
8
Geo
100
AcDbLine
10
-33.9294591484465
20
8.84592992353956
30
0.000000000000000
11
-33.8294591484465
21
8.83114718514555
31
0.000000000000000
  0
LINE
  5
F107D9
330
F107DA
100
AcDbEntity
8
Geo
100
AcDbLine
10
-33.8294591484465
20
8.83114718514555
30
0.000000000000000
11
-33.7294591484465
21
8.81596742442266
31
0.000000000000000
  0
LINE
  5
F107DB
330
F107DC
100
AcDbEntity
8
Geo
100
AcDbLine
10
-33.7294591484465
20
8.81596742442266
30
0.000000000000000
11
-33.6294591484465
21
8.80039143198001
31
0.000000000000000
  0
LINE
  5
F107DD
330
F107DE
100
AcDbEntity
8
Geo
100
AcDbLine
10
-33.6294591484465
20
8.80039143198001
30
0.000000000000000
11
-33.5294591484465
21
8.78442001906368
31
0.000000000000000
  0
LINE
  5
F107DF
330
F107E0
100
AcDbEntity
8
Geo
100
AcDbLine
10
-33.5294591484465
20
8.78442001906368
30
0.000000000000000
11
-33.4294591484465
21
8.76805401751447
31
0.000000000000000
  0
LINE
  5
F107E1
330
F107E2
100
AcDbEntity
8
Geo
100
AcDbLine
10
-33.4294591484465
20
8.76805401751447
30
0.000000000000000
11
-33.3294591484465
21
8.75129427972461
31
0.000000000000000
  0
LINE
  5
F107E3
330
F107E4
100
AcDbEntity
8
Geo
100
AcDbLine
10
-33.3294591484465
20
8.75129427972461
30
0.000000000000000
11
-33.2294591484465
21
8.73414167859332
31
0.000000000000000
  0
LINE
  5
F107E5
330
F107E6
100
AcDbEntity
8
Geo
100
AcDbLine
10
-33.2294591484465
20
8.73414167859332
30
0.000000000000000
11
-33.1294591484465
21
8.71659710748136
31
0.000000000000000
  0
LINE
  5
F107E7
330
F107E8
100
AcDbEntity
8
Geo
100
AcDbLine
10
-33.1294591484465
20
8.71659710748136
30
0.000000000000000
11
-33.0294591484465
21
8.69866148016451
31
0.000000000000000
  0
LINE
  5
F107E9
330
F107EA
100
AcDbEntity
8
Geo
100
AcDbLine
10
-33.0294591484465
20
8.69866148016451
30
0.000000000000000
11
-32.9294591484465
21
8.68033573078597
31
0.000000000000000
  0
LINE
  5
F107EB
330
F107EC
100
AcDbEntity
8
Geo
100
AcDbLine
10
-32.9294591484465
20
8.68033573078597
30
0.000000000000000
11
-32.8294591484465
21
8.66162081380772
31
0.000000000000000
  0
LINE
  5
F107ED
330
F107EE
100
AcDbEntity
8
Geo
100
AcDbLine
10
-32.8294591484465
20
8.66162081380772
30
0.000000000000000
11
-32.7294591484465
21
8.64251770396077
31
0.000000000000000
  0
LINE
  5
F107EF
330
F107F0
100
AcDbEntity
8
Geo
100
AcDbLine
10
-32.7294591484465
20
8.64251770396077
30
0.000000000000000
11
-32.6294591484465
21
8.62302739619446
31
0.000000000000000
  0
LINE
  5
F107F1
330
F107F2
100
AcDbEntity
8
Geo
100
AcDbLine
10
-32.6294591484465
20
8.62302739619446
30
0.000000000000000
11
-32.5294591484465
21
8.60315090562457
31
0.000000000000000
  0
LINE
  5
F107F3
330
F107F4
100
AcDbEntity
8
Geo
100
AcDbLine
10
-32.5294591484465
20
8.60315090562457
30
0.000000000000000
11
-32.4294591484465
21
8.58288926748049
31
0.000000000000000
  0
LINE
  5
F107F5
330
F107F6
100
AcDbEntity
8
Geo
100
AcDbLine
10
-32.4294591484465
20
8.58288926748049
30
0.000000000000000
11
-32.3294591484465
21
8.56224353705130
31
0.000000000000000
  0
LINE
  5
F107F7
330
F107F8
100
AcDbEntity
8
Geo
100
AcDbLine
10
-32.3294591484465
20
8.56224353705130
30
0.000000000000000
11
-32.2294591484465
21
8.54121478963078
31
0.000000000000000
  0
LINE
  5
F107F9
330
F107FA
100
AcDbEntity
8
Geo
100
AcDbLine
10
-32.2294591484465
20
8.54121478963078
30
0.000000000000000
11
-32.1294591484465
21
8.51980412046145
31
0.000000000000000
  0
LINE
  5
F107FB
330
F107FC
100
AcDbEntity
8
Geo
100
AcDbLine
10
-32.1294591484465
20
8.51980412046145
30
0.000000000000000
11
-32.0294591484465
21
8.49801264467748
31
0.000000000000000
  0
LINE
  5
F107FD
330
F107FE
100
AcDbEntity
8
Geo
100
AcDbLine
10
-32.0294591484465
20
8.49801264467748
30
0.000000000000000
11
-31.9294591484465
21
8.47584149724666
31
0.000000000000000
  0
LINE
  5
F107FF
330
F10800
100
AcDbEntity
8
Geo
100
AcDbLine
10
-31.9294591484465
20
8.47584149724666
30
0.000000000000000
11
-31.8294591484465
21
8.45329183291121
31
0.000000000000000
  0
LINE
  5
F10801
330
F10802
100
AcDbEntity
8
Geo
100
AcDbLine
10
-31.8294591484465
20
8.45329183291121
30
0.000000000000000
11
-31.7294591484465
21
8.43036482612774
31
0.000000000000000
  0
LINE
  5
F10803
330
F10804
100
AcDbEntity
8
Geo
100
AcDbLine
10
-31.7294591484465
20
8.43036482612774
30
0.000000000000000
11
-31.6294591484465
21
8.40706167100600
31
0.000000000000000
  0
LINE
  5
F10805
330
F10806
100
AcDbEntity
8
Geo
100
AcDbLine
10
-31.6294591484465
20
8.40706167100600
30
0.000000000000000
11
-31.5294591484465
21
8.38338358124671
31
0.000000000000000
  0
LINE
  5
F10807
330
F10808
100
AcDbEntity
8
Geo
100
AcDbLine
10
-31.5294591484465
20
8.38338358124671
30
0.000000000000000
11
-31.4294591484465
21
8.35933179007836
31
0.000000000000000
  0
LINE
  5
F10809
330
F1080A
100
AcDbEntity
8
Geo
100
AcDbLine
10
-31.4294591484465
20
8.35933179007836
30
0.000000000000000
11
-31.3294591484465
21
8.33490755019298
31
0.000000000000000
  0
LINE
  5
F1080B
330
F1080C
100
AcDbEntity
8
Geo
100
AcDbLine
10
-31.3294591484465
20
8.33490755019298
30
0.000000000000000
11
-31.2294591484465
21
8.31011213368086
31
0.000000000000000
  0
LINE
  5
F1080D
330
F1080E
100
AcDbEntity
8
Geo
100
AcDbLine
10
-31.2294591484465
20
8.31011213368086
30
0.000000000000000
11
-31.1294591484465
21
8.28494683196436
31
0.000000000000000
  0
LINE
  5
F1080F
330
F10810
100
AcDbEntity
8
Geo
100
AcDbLine
10
-31.1294591484465
20
8.28494683196436
30
0.000000000000000
11
-31.0294591484465
21
8.25941295573057
31
0.000000000000000
  0
LINE
  5
F10811
330
F10812
100
AcDbEntity
8
Geo
100
AcDbLine
10
-31.0294591484465
20
8.25941295573057
30
0.000000000000000
11
-30.9294591484465
21
8.23351183486311
31
0.000000000000000
  0
LINE
  5
F10813
330
F10814
100
AcDbEntity
8
Geo
100
AcDbLine
10
-30.9294591484465
20
8.23351183486311
30
0.000000000000000
11
-30.8294591484465
21
8.20724481837284
31
0.000000000000000
  0
LINE
  5
F10815
330
F10816
100
AcDbEntity
8
Geo
100
AcDbLine
10
-30.8294591484465
20
8.20724481837284
30
0.000000000000000
11
-30.7294591484465
21
8.18061327432760
31
0.000000000000000
  0
LINE
  5
F10817
330
F10818
100
AcDbEntity
8
Geo
100
AcDbLine
10
-30.7294591484465
20
8.18061327432760
30
0.000000000000000
11
-30.6294591484465
21
8.15361858978095
31
0.000000000000000
  0
LINE
  5
F10819
330
F1081A
100
AcDbEntity
8
Geo
100
AcDbLine
10
-30.6294591484465
20
8.15361858978095
30
0.000000000000000
11
-30.5294591484465
21
8.12626217069994
31
0.000000000000000
  0
LINE
  5
F1081B
330
F1081C
100
AcDbEntity
8
Geo
100
AcDbLine
10
-30.5294591484465
20
8.12626217069994
30
0.000000000000000
11
-30.4294591484465
21
8.09854544189189
31
0.000000000000000
  0
LINE
  5
F1081D
330
F1081E
100
AcDbEntity
8
Geo
100
AcDbLine
10
-30.4294591484465
20
8.09854544189189
30
0.000000000000000
11
-30.3294591484465
21
8.07046984693014
31
0.000000000000000
  0
LINE
  5
F1081F
330
F10820
100
AcDbEntity
8
Geo
100
AcDbLine
10
-30.3294591484465
20
8.07046984693014
30
0.000000000000000
11
-30.2294591484465
21
8.04203684807894
31
0.000000000000000
  0
LINE
  5
F10821
330
F10822
100
AcDbEntity
8
Geo
100
AcDbLine
10
-30.2294591484465
20
8.04203684807894
30
0.000000000000000
11
-30.1294591484465
21
8.01324792621720
31
0.000000000000000
  0
LINE
  5
F10823
330
F10824
100
AcDbEntity
8
Geo
100
AcDbLine
10
-30.1294591484465
20
8.01324792621720
30
0.000000000000000
11
-30.0294591484465
21
7.98410458076143
31
0.000000000000000
  0
LINE
  5
F10825
330
F10826
100
AcDbEntity
8
Geo
100
AcDbLine
10
-30.0294591484465
20
7.98410458076143
30
0.000000000000000
11
-29.9294591484465
21
7.95460832958762
31
0.000000000000000
  0
LINE
  5
F10827
330
F10828
100
AcDbEntity
8
Geo
100
AcDbLine
10
-29.9294591484465
20
7.95460832958762
30
0.000000000000000
11
-29.8294591484465
21
7.92476070895219
31
0.000000000000000
  0
LINE
  5
F10829
330
F1082A
100
AcDbEntity
8
Geo
100
AcDbLine
10
-29.8294591484465
20
7.92476070895219
30
0.000000000000000
11
-29.7294591484465
21
7.89456327341195
31
0.000000000000000
  0
LINE
  5
F1082B
330
F1082C
100
AcDbEntity
8
Geo
100
AcDbLine
10
-29.7294591484465
20
7.89456327341195
30
0.000000000000000
11
-29.6294591484465
21
7.86401759574320
31
0.000000000000000
  0
LINE
  5
F1082D
330
F1082E
100
AcDbEntity
8
Geo
100
AcDbLine
10
-29.6294591484465
20
7.86401759574320
30
0.000000000000000
11
-29.5294591484465
21
7.83312526685972
31
0.000000000000000
  0
LINE
  5
F1082F
330
F10830
100
AcDbEntity
8
Geo
100
AcDbLine
10
-29.5294591484465
20
7.83312526685972
30
0.000000000000000
11
-29.4294591484465
21
7.80188789573001
31
0.000000000000000
  0
LINE
  5
F10831
330
F10832
100
AcDbEntity
8
Geo
100
AcDbLine
10
-29.4294591484465
20
7.80188789573001
30
0.000000000000000
11
-29.3294591484465
21
7.77030710929341
31
0.000000000000000
  0
LINE
  5
F10833
330
F10834
100
AcDbEntity
8
Geo
100
AcDbLine
10
-29.3294591484465
20
7.77030710929341
30
0.000000000000000
11
-29.2294591484465
21
7.73838455237542
31
0.000000000000000
  0
LINE
  5
F10835
330
F10836
100
AcDbEntity
8
Geo
100
AcDbLine
10
-29.2294591484465
20
7.73838455237542
30
0.000000000000000
11
-29.1294591484465
21
7.70612188760198
31
0.000000000000000
  0
LINE
  5
F10837
330
F10838
100
AcDbEntity
8
Geo
100
AcDbLine
10
-29.1294591484465
20
7.70612188760198
30
0.000000000000000
11
-29.0294591484465
21
7.67352079531293
31
0.000000000000000
  0
LINE
  5
F10839
330
F1083A
100
AcDbEntity
8
Geo
100
AcDbLine
10
-29.0294591484465
20
7.67352079531293
30
0.000000000000000
11
-28.9294591484465
21
7.64058297347446
31
0.000000000000000
  0
LINE
  5
F1083B
330
F1083C
100
AcDbEntity
8
Geo
100
AcDbLine
10
-28.9294591484465
20
7.64058297347446
30
0.000000000000000
11
-28.8294591484465
21
7.60731013759067
31
0.000000000000000
  0
LINE
  5
F1083D
330
F1083E
100
AcDbEntity
8
Geo
100
AcDbLine
10
-28.8294591484465
20
7.60731013759067
30
0.000000000000000
11
-28.7294591484465
21
7.57370402061424
31
0.000000000000000
  0
LINE
  5
F1083F
330
F10840
100
AcDbEntity
8
Geo
100
AcDbLine
10
-28.7294591484465
20
7.57370402061424
30
0.000000000000000
11
-28.6294591484465
21
7.53976637285618
31
0.000000000000000
  0
LINE
  5
F10841
330
F10842
100
AcDbEntity
8
Geo
100
AcDbLine
10
-28.6294591484465
20
7.53976637285618
30
0.000000000000000
11
-28.5294591484465
21
7.50549896189463
31
0.000000000000000
  0
LINE
  5
F10843
330
F10844
100
AcDbEntity
8
Geo
100
AcDbLine
10
-28.5294591484465
20
7.50549896189463
30
0.000000000000000
11
-28.4294591484465
21
7.47090357248282
31
0.000000000000000
  0
LINE
  5
F10845
330
F10846
100
AcDbEntity
8
Geo
100
AcDbLine
10
-28.4294591484465
20
7.47090357248282
30
0.000000000000000
11
-28.3294591484465
21
7.43598200645615
31
0.000000000000000
  0
LINE
  5
F10847
330
F10848
100
AcDbEntity
8
Geo
100
AcDbLine
10
-28.3294591484465
20
7.43598200645615
30
0.000000000000000
11
-28.2294591484465
21
7.40073608263827
31
0.000000000000000
  0
LINE
  5
F10849
330
F1084A
100
AcDbEntity
8
Geo
100
AcDbLine
10
-28.2294591484465
20
7.40073608263827
30
0.000000000000000
11
-28.1294591484465
21
7.36516763674643
31
0.000000000000000
  0
LINE
  5
F1084B
330
F1084C
100
AcDbEntity
8
Geo
100
AcDbLine
10
-28.1294591484465
20
7.36516763674643
30
0.000000000000000
11
-28.0294591484465
21
7.32927852129579
31
0.000000000000000
  0
LINE
  5
F1084D
330
F1084E
100
AcDbEntity
8
Geo
100
AcDbLine
10
-28.0294591484465
20
7.32927852129579
30
0.000000000000000
11
-27.9294591484465
21
7.29307060550302
31
0.000000000000000
  0
LINE
  5
F1084F
330
F10850
100
AcDbEntity
8
Geo
100
AcDbLine
10
-27.9294591484465
20
7.29307060550302
30
0.000000000000000
11
-27.8294591484465
21
7.25654577518888
31
0.000000000000000
  0
LINE
  5
F10851
330
F10852
100
AcDbEntity
8
Geo
100
AcDbLine
10
-27.8294591484465
20
7.25654577518888
30
0.000000000000000
11
-27.7294591484465
21
7.21970593268001
31
0.000000000000000
  0
LINE
  5
F10853
330
F10854
100
AcDbEntity
8
Geo
100
AcDbLine
10
-27.7294591484465
20
7.21970593268001
30
0.000000000000000
11
-27.6294591484465
21
7.18255299670990
31
0.000000000000000
  0
LINE
  5
F10855
330
F10856
100
AcDbEntity
8
Geo
100
AcDbLine
10
-27.6294591484465
20
7.18255299670990
30
0.000000000000000
11
-27.5294591484465
21
7.14508890231889
31
0.000000000000000
  0
LINE
  5
F10857
330
F10858
100
AcDbEntity
8
Geo
100
AcDbLine
10
-27.5294591484465
20
7.14508890231889
30
0.000000000000000
11
-27.4294591484465
21
7.10731560075342
31
0.000000000000000
  0
LINE
  5
F10859
330
F1085A
100
AcDbEntity
8
Geo
100
AcDbLine
10
-27.4294591484465
20
7.10731560075342
30
0.000000000000000
11
-27.3294591484465
21
7.06923505936442
31
0.000000000000000
  0
LINE
  5
F1085B
330
F1085C
100
AcDbEntity
8
Geo
100
AcDbLine
10
-27.3294591484465
20
7.06923505936442
30
0.000000000000000
11
-27.2294591484465
21
7.03084926150481
31
0.000000000000000
  0
LINE
  5
F1085D
330
F1085E
100
AcDbEntity
8
Geo
100
AcDbLine
10
-27.2294591484465
20
7.03084926150481
30
0.000000000000000
11
-27.1294591484465
21
6.99216020642621
31
0.000000000000000
  0
LINE
  5
F1085F
330
F10860
100
AcDbEntity
8
Geo
100
AcDbLine
10
-27.1294591484465
20
6.99216020642621
30
0.000000000000000
11
-27.0294591484465
21
6.95316990917484
31
0.000000000000000
  0
LINE
  5
F10861
330
F10862
100
AcDbEntity
8
Geo
100
AcDbLine
10
-27.0294591484465
20
6.95316990917484
30
0.000000000000000
11
-26.9294591484465
21
6.91388040048652
31
0.000000000000000
  0
LINE
  5
F10863
330
F10864
100
AcDbEntity
8
Geo
100
AcDbLine
10
-26.9294591484465
20
6.91388040048652
30
0.000000000000000
11
-26.8294591484465
21
6.87429372668095
31
0.000000000000000
  0
LINE
  5
F10865
330
F10866
100
AcDbEntity
8
Geo
100
AcDbLine
10
-26.8294591484465
20
6.87429372668095
30
0.000000000000000
11
-26.7294591484465
21
6.83441194955512
31
0.000000000000000
  0
LINE
  5
F10867
330
F10868
100
AcDbEntity
8
Geo
100
AcDbLine
10
-26.7294591484465
20
6.83441194955512
30
0.000000000000000
11
-26.6294591484465
21
6.79423714627589
31
0.000000000000000
  0
LINE
  5
F10869
330
F1086A
100
AcDbEntity
8
Geo
100
AcDbLine
10
-26.6294591484465
20
6.79423714627589
30
0.000000000000000
11
-26.5294591484465
21
6.75377140927185
31
0.000000000000000
  0
LINE
  5
F1086B
330
F1086C
100
AcDbEntity
8
Geo
100
AcDbLine
10
-26.5294591484465
20
6.75377140927185
30
0.000000000000000
11
-26.4294591484465
21
6.71301684612434
31
0.000000000000000
  0
LINE
  5
F1086D
330
F1086E
100
AcDbEntity
8
Geo
100
AcDbLine
10
-26.4294591484465
20
6.71301684612434
30
0.000000000000000
11
-26.3294591484465
21
6.67197557945762
31
0.000000000000000
  0
LINE
  5
F1086F
330
F10870
100
AcDbEntity
8
Geo
100
AcDbLine
10
-26.3294591484465
20
6.67197557945762
30
0.000000000000000
11
-26.2294591484465
21
6.63064974682840
31
0.000000000000000
  0
LINE
  5
F10871
330
F10872
100
AcDbEntity
8
Geo
100
AcDbLine
10
-26.2294591484465
20
6.63064974682840
30
0.000000000000000
11
-26.1294591484465
21
6.58904150061446
31
0.000000000000000
  0
LINE
  5
F10873
330
F10874
100
AcDbEntity
8
Geo
100
AcDbLine
10
-26.1294591484465
20
6.58904150061446
30
0.000000000000000
11
-26.0294591484465
21
6.54715300790253
31
0.000000000000000
  0
LINE
  5
F10875
330
F10876
100
AcDbEntity
8
Geo
100
AcDbLine
10
-26.0294591484465
20
6.54715300790253
30
0.000000000000000
11
-25.9294591484465
21
6.50498645037549
31
0.000000000000000
  0
LINE
  5
F10877
330
F10878
100
AcDbEntity
8
Geo
100
AcDbLine
10
-25.9294591484465
20
6.50498645037549
30
0.000000000000000
11
-25.8294591484465
21
6.46254402419867
31
0.000000000000000
  0
LINE
  5
F10879
330
F1087A
100
AcDbEntity
8
Geo
100
AcDbLine
10
-25.8294591484465
20
6.46254402419867
30
0.000000000000000
11
-25.7294591484465
21
6.41982793990550
31
0.000000000000000
  0
LINE
  5
F1087B
330
F1087C
100
AcDbEntity
8
Geo
100
AcDbLine
10
-25.7294591484465
20
6.41982793990550
30
0.000000000000000
11
-25.6294591484465
21
6.37684042228239
31
0.000000000000000
  0
LINE
  5
F1087D
330
F1087E
100
AcDbEntity
8
Geo
100
AcDbLine
10
-25.6294591484465
20
6.37684042228239
30
0.000000000000000
11
-25.5294591484465
21
6.33358371025284
31
0.000000000000000
  0
LINE
  5
F1087F
330
F10880
100
AcDbEntity
8
Geo
100
AcDbLine
10
-25.5294591484465
20
6.33358371025284
30
0.000000000000000
11
-25.4294591484465
21
6.29006005676080
31
0.000000000000000
  0
LINE
  5
F10881
330
F10882
100
AcDbEntity
8
Geo
100
AcDbLine
10
-25.4294591484465
20
6.29006005676080
30
0.000000000000000
11
-25.3294591484465
21
6.24627172865340
31
0.000000000000000
  0
LINE
  5
F10883
330
F10884
100
AcDbEntity
8
Geo
100
AcDbLine
10
-25.3294591484465
20
6.24627172865340
30
0.000000000000000
11
-25.2294591484465
21
6.20222100656282
31
0.000000000000000
  0
LINE
  5
F10885
330
F10886
100
AcDbEntity
8
Geo
100
AcDbLine
10
-25.2294591484465
20
6.20222100656282
30
0.000000000000000
11
-25.1294591484465
21
6.15791018478756
31
0.000000000000000
  0
LINE
  5
F10887
330
F10888
100
AcDbEntity
8
Geo
100
AcDbLine
10
-25.1294591484465
20
6.15791018478756
30
0.000000000000000
11
-25.0294591484465
21
6.11334157117289
31
0.000000000000000
  0
LINE
  5
F10889
330
F1088A
100
AcDbEntity
8
Geo
100
AcDbLine
10
-25.0294591484465
20
6.11334157117289
30
0.000000000000000
11
-24.9294591484465
21
6.06851748699070
31
0.000000000000000
  0
LINE
  5
F1088B
330
F1088C
100
AcDbEntity
8
Geo
100
AcDbLine
10
-24.9294591484465
20
6.06851748699070
30
0.000000000000000
11
-24.8294591484465
21
6.02344026681858
31
0.000000000000000
  0
LINE
  5
F1088D
330
F1088E
100
AcDbEntity
8
Geo
100
AcDbLine
10
-24.8294591484465
20
6.02344026681858
30
0.000000000000000
11
-24.7294591484465
21
5.97811225841821
31
0.000000000000000
  0
LINE
  5
F1088F
330
F10890
100
AcDbEntity
8
Geo
100
AcDbLine
10
-24.7294591484465
20
5.97811225841821
30
0.000000000000000
11
-24.6294591484465
21
5.93253582261312
31
0.000000000000000
  0
LINE
  5
F10891
330
F10892
100
AcDbEntity
8
Geo
100
AcDbLine
10
-24.6294591484465
20
5.93253582261312
30
0.000000000000000
11
-24.5294591484465
21
5.88671333316571
31
0.000000000000000
  0
LINE
  5
F10893
330
F10894
100
AcDbEntity
8
Geo
100
AcDbLine
10
-24.5294591484465
20
5.88671333316571
30
0.000000000000000
11
-24.4294591484465
21
5.84064717665362
31
0.000000000000000
  0
LINE
  5
F10895
330
F10896
100
AcDbEntity
8
Geo
100
AcDbLine
10
-24.4294591484465
20
5.84064717665362
30
0.000000000000000
11
-24.3294591484465
21
5.79433975234540
31
0.000000000000000
  0
LINE
  5
F10897
330
F10898
100
AcDbEntity
8
Geo
100
AcDbLine
10
-24.3294591484465
20
5.79433975234540
30
0.000000000000000
11
-24.2294591484465
21
5.74779347207562
31
0.000000000000000
  0
LINE
  5
F10899
330
F1089A
100
AcDbEntity
8
Geo
100
AcDbLine
10
-24.2294591484465
20
5.74779347207562
30
0.000000000000000
11
-24.1294591484465
21
5.70101076011918
31
0.000000000000000
  0
LINE
  5
F1089B
330
F1089C
100
AcDbEntity
8
Geo
100
AcDbLine
10
-24.1294591484465
20
5.70101076011918
30
0.000000000000000
11
-24.0294591484465
21
5.65399405306508
31
0.000000000000000
  0
LINE
  5
F1089D
330
F1089E
100
AcDbEntity
8
Geo
100
AcDbLine
10
-24.0294591484465
20
5.65399405306508
30
0.000000000000000
11
-23.9294591484465
21
5.60674579968953
31
0.000000000000000
  0
LINE
  5
F1089F
330
F108A0
100
AcDbEntity
8
Geo
100
AcDbLine
10
-23.9294591484465
20
5.60674579968953
30
0.000000000000000
11
-23.8294591484465
21
5.55926846082836
31
0.000000000000000
  0
LINE
  5
F108A1
330
F108A2
100
AcDbEntity
8
Geo
100
AcDbLine
10
-23.8294591484465
20
5.55926846082836
30
0.000000000000000
11
-23.7294591484465
21
5.51156450924892
31
0.000000000000000
  0
LINE
  5
F108A3
330
F108A4
100
AcDbEntity
8
Geo
100
AcDbLine
10
-23.7294591484465
20
5.51156450924892
30
0.000000000000000
11
-23.6294591484465
21
5.46363642952123
31
0.000000000000000
  0
LINE
  5
F108A5
330
F108A6
100
AcDbEntity
8
Geo
100
AcDbLine
10
-23.6294591484465
20
5.46363642952123
30
0.000000000000000
11
-23.5294591484465
21
5.41548671788862
31
0.000000000000000
  0
LINE
  5
F108A7
330
F108A8
100
AcDbEntity
8
Geo
100
AcDbLine
10
-23.5294591484465
20
5.41548671788862
30
0.000000000000000
11
-23.4294591484465
21
5.36711788213767
31
0.000000000000000
  0
LINE
  5
F108A9
330
F108AA
100
AcDbEntity
8
Geo
100
AcDbLine
10
-23.4294591484465
20
5.36711788213767
30
0.000000000000000
11
-23.3294591484465
21
5.31853244146764
31
0.000000000000000
  0
LINE
  5
F108AB
330
F108AC
100
AcDbEntity
8
Geo
100
AcDbLine
10
-23.3294591484465
20
5.31853244146764
30
0.000000000000000
11
-23.2294591484465
21
5.26973292635927
31
0.000000000000000
  0
LINE
  5
F108AD
330
F108AE
100
AcDbEntity
8
Geo
100
AcDbLine
10
-23.2294591484465
20
5.26973292635927
30
0.000000000000000
11
-23.1294591484465
21
5.22072187844292
31
0.000000000000000
  0
LINE
  5
F108AF
330
F108B0
100
AcDbEntity
8
Geo
100
AcDbLine
10
-23.1294591484465
20
5.22072187844292
30
0.000000000000000
11
-23.0294591484465
21
5.17150185036627
31
0.000000000000000
  0
LINE
  5
F108B1
330
F108B2
100
AcDbEntity
8
Geo
100
AcDbLine
10
-23.0294591484465
20
5.17150185036627
30
0.000000000000000
11
-22.9294591484465
21
5.12207540566131
31
0.000000000000000
  0
LINE
  5
F108B3
330
F108B4
100
AcDbEntity
8
Geo
100
AcDbLine
10
-22.9294591484465
20
5.12207540566131
30
0.000000000000000
11
-22.8294591484465
21
5.07244511861087
31
0.000000000000000
  0
LINE
  5
F108B5
330
F108B6
100
AcDbEntity
8
Geo
100
AcDbLine
10
-22.8294591484465
20
5.07244511861087
30
0.000000000000000
11
-22.7294591484465
21
5.02261357411451
31
0.000000000000000
  0
LINE
  5
F108B7
330
F108B8
100
AcDbEntity
8
Geo
100
AcDbLine
10
-22.7294591484465
20
5.02261357411451
30
0.000000000000000
11
-22.6294591484465
21
4.97258336755391
31
0.000000000000000
  0
LINE
  5
F108B9
330
F108BA
100
AcDbEntity
8
Geo
100
AcDbLine
10
-22.6294591484465
20
4.97258336755391
30
0.000000000000000
11
-22.5294591484465
21
4.92235710465769
31
0.000000000000000
  0
LINE
  5
F108BB
330
F108BC
100
AcDbEntity
8
Geo
100
AcDbLine
10
-22.5294591484465
20
4.92235710465769
30
0.000000000000000
11
-22.4294591484465
21
4.87193740136568
31
0.000000000000000
  0
LINE
  5
F108BD
330
F108BE
100
AcDbEntity
8
Geo
100
AcDbLine
10
-22.4294591484465
20
4.87193740136568
30
0.000000000000000
11
-22.3294591484465
21
4.82132688369271
31
0.000000000000000
  0
LINE
  5
F108BF
330
F108C0
100
AcDbEntity
8
Geo
100
AcDbLine
10
-22.3294591484465
20
4.82132688369271
30
0.000000000000000
11
-22.2294591484465
21
4.77052818759178
31
0.000000000000000
  0
LINE
  5
F108C1
330
F108C2
100
AcDbEntity
8
Geo
100
AcDbLine
10
-22.2294591484465
20
4.77052818759178
30
0.000000000000000
11
-22.1294591484465
21
4.71954395881684
31
0.000000000000000
  0
LINE
  5
F108C3
330
F108C4
100
AcDbEntity
8
Geo
100
AcDbLine
10
-22.1294591484465
20
4.71954395881684
30
0.000000000000000
11
-22.0294591484465
21
4.66837685278495
31
0.000000000000000
  0
LINE
  5
F108C5
330
F108C6
100
AcDbEntity
8
Geo
100
AcDbLine
10
-22.0294591484465
20
4.66837685278495
30
0.000000000000000
11
-21.9294591484465
21
4.61702953443799
31
0.000000000000000
  0
LINE
  5
F108C7
330
F108C8
100
AcDbEntity
8
Geo
100
AcDbLine
10
-21.9294591484465
20
4.61702953443799
30
0.000000000000000
11
-21.8294591484465
21
4.56550467810383
31
0.000000000000000
  0
LINE
  5
F108C9
330
F108CA
100
AcDbEntity
8
Geo
100
AcDbLine
10
-21.8294591484465
20
4.56550467810383
30
0.000000000000000
11
-21.7294591484465
21
4.51380496735709
31
0.000000000000000
  0
LINE
  5
F108CB
330
F108CC
100
AcDbEntity
8
Geo
100
AcDbLine
10
-21.7294591484465
20
4.51380496735709
30
0.000000000000000
11
-21.6294591484465
21
4.46193309487937
31
0.000000000000000
  0
LINE
  5
F108CD
330
F108CE
100
AcDbEntity
8
Geo
100
AcDbLine
10
-21.6294591484465
20
4.46193309487937
30
0.000000000000000
11
-21.5294591484465
21
4.40989176231896
31
0.000000000000000
  0
LINE
  5
F108CF
330
F108D0
100
AcDbEntity
8
Geo
100
AcDbLine
10
-21.5294591484465
20
4.40989176231896
30
0.000000000000000
11
-21.4294591484465
21
4.35768368015016
31
0.000000000000000
  0
LINE
  5
F108D1
330
F108D2
100
AcDbEntity
8
Geo
100
AcDbLine
10
-21.4294591484465
20
4.35768368015016
30
0.000000000000000
11
-21.3294591484465
21
4.30531156753212
31
0.000000000000000
  0
LINE
  5
F108D3
330
F108D4
100
AcDbEntity
8
Geo
100
AcDbLine
10
-21.3294591484465
20
4.30531156753212
30
0.000000000000000
11
-21.2294591484465
21
4.25277815216720
31
0.000000000000000
  0
LINE
  5
F108D5
330
F108D6
100
AcDbEntity
8
Geo
100
AcDbLine
10
-21.2294591484465
20
4.25277815216720
30
0.000000000000000
11
-21.1294591484465
21
4.20008617015891
31
0.000000000000000
  0
LINE
  5
F108D7
330
F108D8
100
AcDbEntity
8
Geo
100
AcDbLine
10
46.8705408515535
20
8.50828538550056
30
0.000000000000000
11
46.8705408515535
21
1.20828538550056
31
0.000000000000000
  0
LINE
  5
F108D9
330
F108DA
100
AcDbEntity
8
Geo
100
AcDbLine
10
-36.1294591484465
20
1.20828538550056
30
0.000000000000000
11
-36.1294591484465
21
-6.79171461449944
31
0.000000000000000
  0
LINE
  5
F108DB
330
F108DC
100
AcDbEntity
8
Geo
100
AcDbLine
10
-36.1294591484465
20
-6.79171461449944
30
0.000000000000000
11
-16.1294591484465
21
-6.79171461449944
31
0.000000000000000
  0
LINE
  5
F108DD
330
F108DE
100
AcDbEntity
8
Geo
100
AcDbLine
10
-16.1294591484465
20
-6.79171461449944
30
0.000000000000000
11
46.1705408515535
21
-6.79171461449944
31
0.000000000000000
  0
LINE
  5
F108DF
330
F108E0
100
AcDbEntity
8
Geo
100
AcDbLine
10
46.1705408515535
20
-6.79171461449944
30
0.000000000000000
11
46.8705408515535
21
-6.09171461449944
31
0.000000000000000
  0
LINE
  5
F108E1
330
F108E2
100
AcDbEntity
8
Geo
100
AcDbLine
10
-36.1294591484465
20
9.20828538550056
30
0.000000000000000
11
-36.1294591484465
21
-6.79171461449944
31
0.000000000000000
  0
LINE
  5
F108E3
330
F108E4
100
AcDbEntity
8
Geo
100
AcDbLine
10
-16.1294591484465
20
9.20828538550056
30
0.000000000000000
11
-16.1294591484465
21
-6.79171461449944
31
0.000000000000000
  0
LINE
  5
F108E5
330
F108E6
100
AcDbEntity
8
Geo
100
AcDbLine
10
-16.1294591484465
20
9.20828538550056
30
0.000000000000000
11
-16.1294591484465
21
-6.79171461449944
31
0.000000000000000
  0
LINE
  5
F108E7
330
F108E8
100
AcDbEntity
8
Geo
100
AcDbLine
10
46.1705408515535
20
9.20828538550056
30
0.000000000000000
11
46.1705408515535
21
-6.79171461449944
31
0.000000000000000
  0
LINE
  5
F108E9
330
F108EA
100
AcDbEntity
8
Geo
100
AcDbLine
10
46.8705408515535
20
8.50828538550056
30
0.000000000000000
11
46.8705408515535
21
-6.09171461449944
31
0.000000000000000
  0
LINE
  5
F108EB
330
F108EC
100
AcDbEntity
8
Geo
 6
Dashdot
100
AcDbLine
10
-36.1294591484465
20
1.20828538550056
30
0.000000000000000
11
46.8705408515535
21
1.20828538550056
31
0.000000000000000
  0
LWPOLYLINE
  5
F108ED
330
F108EE
100
AcDbEntity
8
Rahmen
100
AcDbPolyline
90
   4
70
   1
43
   0.0
 10
-134.602991944764
 20
99.9252013808976
 10
143.302646720368
 20
99.9252013808976
 10
143.302646720368
 20
-100.166858457998
 10
-134.602991944764
 20
-100.166858457998
  0
TEXT
  5
F108EF
330
F108F0
 100
AcDbEntity
8
Text
100
AcDbText
10
-133.636363636364
20
-99.6668584579977
30
0.000000000000000
40
1.00000000000000
1
ISBESketcher - ©ISBE GmbH      lizensiert für: Schmid Werkzeuge
100
AcDbText
  0
LWPOLYLINE
  5
F108F1
330
F108F2
100
AcDbEntity
8
Rahmen
100
AcDbPolyline
90
   4
70
   1
43
   0.0
 10
103.429228998849
 20
-97.0253164556962
 10
143.302646720368
 20
-97.0253164556962
 10
143.302646720368
 20
-100.166858457998
 10
103.429228998849
 20
-100.166858457998
  0
TEXT
  5
F108F3
330
F108F4
 100
AcDbEntity
8
Text
100
AcDbText
10
104.500000000000
20
-99.4499424626007
30
0.000000000000000
40
1.50000000000000
1
Ers. durch:
100
AcDbText
  0
TEXT
  5
F108F5
330
F108F6
 100
AcDbEntity
8
Text
100
AcDbText
10
0.000000000000000
20
0.500000000000000
30
0.000000000000000
40
1.50000000000000
1

100
AcDbText
  0
LWPOLYLINE
  5
F108F7
330
F108F8
100
AcDbEntity
8
Rahmen
100
AcDbPolyline
90
   4
70
   1
43
   0.0
 10
63.3141542002302
 20
-97.0253164556962
 10
103.429228998849
 20
-97.0253164556962
 10
103.429228998849
 20
-100.166858457998
 10
63.3141542002302
 20
-100.166858457998
  0
TEXT
  5
F108F9
330
F108FA
 100
AcDbEntity
8
Text
100
AcDbText
10
64.5000000000000
20
-99.4499424626007
30
0.000000000000000
40
1.50000000000000
1
Ers. für:
100
AcDbText
  0
TEXT
  5
F108FB
330
F108FC
 100
AcDbEntity
8
Text
100
AcDbText
10
0.000000000000000
20
0.500000000000000
30
0.000000000000000
40
1.50000000000000
1

100
AcDbText
  0
LWPOLYLINE
  5
F108FD
330
F108FE
100
AcDbEntity
8
Rahmen
100
AcDbPolyline
90
   4
70
   1
43
   0.0
 10
130.011507479862
 20
-94.1254315304948
 10
143.302646720368
 20
-94.1254315304948
 10
143.302646720368
 20
-97.0253164556962
 10
130.011507479862
 20
-97.0253164556962
  0
TEXT
  5
F108FF
330
F10900
 100
AcDbEntity
8
Text
100
AcDbText
10
131.166666666667
20
-96.4499424626007
30
0.000000000000000
40
1.50000000000000
1
Blätter
100
AcDbText
  0
TEXT
  5
F10901
330
F10902
 100
AcDbEntity
8
Text
100
AcDbText
10
0.000000000000000
20
0.500000000000000
30
0.000000000000000
40
1.50000000000000
1

100
AcDbText
  0
LWPOLYLINE
  5
F10903
330
F10904
100
AcDbEntity
8
Rahmen
100
AcDbPolyline
90
   4
70
   1
43
   0.0
 10
130.011507479862
 20
-91.2255466052934
 10
143.302646720368
 20
-91.2255466052934
 10
143.302646720368
 20
-94.1254315304948
 10
130.011507479862
 20
-94.1254315304948
  0
TEXT
  5
F10905
330
F10906
 100
AcDbEntity
8
Text
100
AcDbText
10
131.166666666667
20
-93.4499424626007
30
0.000000000000000
40
1.50000000000000
1
Blatt
100
AcDbText
  0
TEXT
  5
F10907
330
F10908
 100
AcDbEntity
8
Text
100
AcDbText
10
0.000000000000000
20
0.500000000000000
30
0.000000000000000
40
1.50000000000000
1

100
AcDbText
  0
LWPOLYLINE
  5
F10909
330
F1090A
100
AcDbEntity
8
Rahmen
100
AcDbPolyline
90
   4
70
   1
43
   0.0
 10
63.3141542002302
 20
-91.2255466052934
 10
130.011507479862
 20
-91.2255466052934
 10
130.011507479862
 20
-97.0253164556962
 10
63.3141542002302
 20
-97.0253164556962
  0
TEXT
  5
F1090B
330
F1090C
 100
AcDbEntity
8
Text
100
AcDbText
10
64.5000000000000
20
-93.4499424626007
30
0.000000000000000
40
1.50000000000000
1
Datum:
100
AcDbText
  0
TEXT
  5
F1090D
330
F1090E
 100
AcDbEntity
8
Text
100
AcDbText
10
91.1543920214806
20
-96.4499424626007
30
0.000000000000000
40
1.50000000000000
1
14.05.2019
100
AcDbText
  0
LWPOLYLINE
  5
F1090F
330
F10910
100
AcDbEntity
8
Rahmen
100
AcDbPolyline
90
   4
70
   1
43
   0.0
 10
63.3141542002302
 20
-85.1841196777906
 10
143.302646720368
 20
-85.1841196777906
 10
143.302646720368
 20
-91.2255466052934
 10
63.3141542002302
 20
-91.2255466052934
  0
TEXT
  5
F10911
330
F10912
 100
AcDbEntity
8
Text
100
AcDbText
10
0.000000000000000
20
0.500000000000000
30
0.000000000000000
40
1.50000000000000
1

100
AcDbText
  0
TEXT
  5
F10913
330
F10914
 100
AcDbEntity
8
Text
100
AcDbText
10
73.0512082853855
20
-89.7040659762179
30
0.000000000000000
40
2.50000000000000
1
VHM-Schlichtfräser 0140-160-b
100
AcDbText
  0
LWPOLYLINE
  5
F10915
330
F10916
100
AcDbEntity
8
Rahmen
100
AcDbPolyline
90
   4
70
   1
43
   0.0
 10
103.429228998849
 20
-79.1426927502877
 10
143.302646720368
 20
-79.1426927502877
 10
143.302646720368
 20
-85.1841196777906
 10
103.429228998849
 20
-85.1841196777906
  0
TEXT
  5
F10917
330
F10918
 100
AcDbEntity
8
Text
100
AcDbText
10
104.500000000000
20
-81.4499424626007
30
0.000000000000000
40
1.50000000000000
1
Zu bearb. Material:
100
AcDbText
  0
TEXT
  5
F10919
330
F1091A
 100
AcDbEntity
8
Text
100
AcDbText
10
0.000000000000000
20
0.500000000000000
30
0.000000000000000
40
1.50000000000000
1

100
AcDbText
  0
LWPOLYLINE
  5
F1091B
330
F1091C
100
AcDbEntity
8
Rahmen
100
AcDbPolyline
90
   4
70
   1
43
   0.0
 10
63.3141542002302
 20
-79.1426927502877
 10
103.429228998849
 20
-79.1426927502877
 10
103.429228998849
 20
-85.1841196777906
 10
63.3141542002302
 20
-85.1841196777906
  0
TEXT
  5
F1091D
330
F1091E
 100
AcDbEntity
8
Text
100
AcDbText
10
64.5000000000000
20
-81.4499424626007
30
0.000000000000000
40
1.50000000000000
1
Werkstoff:
100
AcDbText
  0
TEXT
  5
F1091F
330
F10920
 100
AcDbEntity
8
Text
100
AcDbText
10
80.9626006904488
20
-84.4499424626007
30
0.000000000000000
40
1.50000000000000
1
VHM
100
AcDbText
  0
LWPOLYLINE
  5
F10921
330
F10922
100
AcDbEntity
8
Rahmen
100
AcDbPolyline
90
   4
70
   1
43
   0.0
 10
103.429228998849
 20
-76.0011507479862
 10
143.302646720368
 20
-76.0011507479862
 10
143.302646720368
 20
-79.1426927502877
 10
103.429228998849
 20
-79.1426927502877
  0
TEXT
  5
F10923
330
F10924
 100
AcDbEntity
8
Text
100
AcDbText
10
0.000000000000000
20
0.500000000000000
30
0.000000000000000
40
1.50000000000000
1

100
AcDbText
  0
TEXT
  5
F10925
330
F10926
 100
AcDbEntity
8
Text
100
AcDbText
10
0.000000000000000
20
0.500000000000000
30
0.000000000000000
40
1.50000000000000
1

100
AcDbText
  0
LWPOLYLINE
  5
F10927
330
F10928
100
AcDbEntity
8
Rahmen
100
AcDbPolyline
90
   4
70
   1
43
   0.0
 10
63.3141542002302
 20
-76.0011507479862
 10
103.429228998849
 20
-76.0011507479862
 10
103.429228998849
 20
-79.1426927502877
 10
63.3141542002302
 20
-79.1426927502877
  0
TEXT
  5
F10929
330
F1092A
 100
AcDbEntity
8
Text
100
AcDbText
10
64.5000000000000
20
-78.4499424626007
30
0.000000000000000
40
1.50000000000000
1
Maßstab:
100
AcDbText
  0
TEXT
  5
F1092B
330
F1092C
 100
AcDbEntity
8
Text
100
AcDbText
10
89.0834292289989
20
-78.4499424626007
30
0.000000000000000
40
1.50000000000000
1
1 : 1
100
AcDbText
0
VIEWPORT
5
294
102
{ACAD_XDICTIONARY
360
58A
102
}
330
25D
100
AcDbEntity
67
1
8
0
60
1
100
AcDbViewport
10
0.0
20
0.0
30
0.0
40
10.0
41
10.0
68
-1
69
1
12
0.0
22
0.0
13
0.0
23
0.0
14
1.0
24
1.0
15
0.0
25
0.0
16
0.0
26
0.0
36
1.0
17
0.0
27
0.0
37
0.0
42
0.0
43
0.0
44
0.0
45
10.0
50
0.0
51
0.0000000000007958
72
100
90
32800
1

281
0
71
0
74
0
110
0.0
120
0.0
130
0.0
111
1.0
121
0.0
131
0.0
112
0.0
122
1.0
132
0.0
79
0
146
0.0
1001
VD_INVISIBLE_NOT_FOR_READ
1000
VD_INVISIBLE_NOT_FOR_READ
0
VIEWPORT
5
295
102
{ACAD_XDICTIONARY
360
58C
102
}
330
25D
100
AcDbEntity
67
1
8
0
60
1
100
AcDbViewport
10
0.0
20
0.0
30
0.0
40
10.0
41
10.0
68
0
69
2
12
0.0
22
0.0
13
0.0
23
0.0
14
1.0
24
1.0
15
0.0
25
0.0
16
0.0
26
0.0
36
1.0
17
0.0
27
0.0
37
0.0
42
0.0
43
0.0
44
0.0
45
10.0
50
0.0
51
0.0000000000007958
72
100
90
163872
1

281
0
71
0
74
0
110
0.0
120
0.0
130
0.0
111
1.0
121
0.0
131
0.0
112
0.0
122
1.0
132
0.0
79
0
146
0.0
1001
VD_INVISIBLE_NOT_FOR_READ
1000
VD_INVISIBLE_NOT_FOR_READ
0
ENDSEC
0
SECTION
2
OBJECTS
0
DICTIONARY
5
13
330
0
100
AcDbDictionary
281
1
3
ACAD_COLOR
350
FA7
3
ACAD_GROUP
350
14
3
ACAD_LAYOUT
350
FCF
3
ACAD_MATERIAL
350
F7A
3
ACAD_MLEADERSTYLE
350
FCD
3
ACAD_MLINESTYLE
350
16
3
ACAD_PLOTSETTINGS
350
17
3
ACAD_PLOTSTYLENAME
350
18
3
ACAD_SCALELIST
350
FAB
3
ACAD_TABLESTYLE
350
FA8
3
ACAD_VISUALSTYLE
350
F93
3
ACDB_RECOMPOSE_DATA
350
107E
3
AcDbVariableDictionary
350
FF0
3
DWGPROPS
350
107F
0
DICTIONARY
5
F1000A
330
F10009
100
AcDbDictionary
280
1
281
1
3
ACAD_MTEXT_2008_RT
360
F1000B
0
DICTIONARY
5
F1000F
330
F1000E
100
AcDbDictionary
280
1
281
1
3
ACAD_MTEXT_2008_RT
360
F10010
0
DICTIONARY
5
F10005
330
F10004
100
AcDbDictionary
280
1
281
1
3
ACAD_MTEXT_2008_RT
360
F10006
0
DICTIONARY
5
FA7
102
{ACAD_REACTORS
330
13
102
}
330
13
100
AcDbDictionary
281
1
0
DICTIONARY
5
14
330
13
100
AcDbDictionary
281
1
0
DICTIONARY
5
FCF
102
{ACAD_REACTORS
330
13
102
}
330
13
100
AcDbDictionary
281
1
3
Layout1
350
FD1
3
Model
350
FD0
0
DICTIONARY
5
F7A
102
{ACAD_REACTORS
330
13
102
}
330
13
100
AcDbDictionary
281
1
3
ByBlock
350
F83
3
ByLayer
350
F7B
3
Global
350
F8B
0
DICTIONARY
5
FCD
102
{ACAD_REACTORS
330
13
102
}
330
13
100
AcDbDictionary
281
1
3
Standard
350
FCE
0
DICTIONARY
5
16
330
13
100
AcDbDictionary
281
1
3
Standard
350
FAA
0
DICTIONARY
5
17
102
{ACAD_REACTORS
330
13
102
}
330
13
100
AcDbDictionary
281
1
0
ACDBDICTIONARYWDFLT
5
18
102
{ACAD_REACTORS
330
13
102
}
330
13
100
AcDbDictionary
281
1
3
Normal
350
19
100
AcDbDictionaryWithDefault
340
19
0
DICTIONARY
5
FAB
102
{ACAD_REACTORS
330
13
102
}
330
13
100
AcDbDictionary
281
1
3
A0
350
FAC
3
A1
350
FAD
3
A2
350
FAE
3
A3
350
FAF
3
A4
350
FB0
3
A5
350
FB1
3
A6
350
FB2
3
A7
350
FB3
3
A8
350
FB4
3
A9
350
FB5
3
B0
350
FB6
3
B1
350
FB7
3
B2
350
FB8
3
B3
350
FB9
3
B4
350
FBA
3
B5
350
FBB
3
B6
350
FBC
3
B7
350
FBD
3
B8
350
FBE
3
B9
350
FBF
3
C0
350
FC0
3
C1
350
FC1
3
C2
350
FC2
3
C3
350
FC3
3
C4
350
FC4
3
C5
350
FC5
3
C6
350
FC6
3
C7
350
FC7
3
C8
350
FC8
3
C9
350
FC9
3
D0
350
FCA
3
D1
350
FCB
3
D2
350
FCC
0
DICTIONARY
5
FA8
102
{ACAD_REACTORS
330
13
102
}
330
13
100
AcDbDictionary
281
1
3
Standard
350
FA9
0
DICTIONARY
5
F93
102
{ACAD_REACTORS
330
13
102
}
330
13
100
AcDbDictionary
281
1
3
2dWireframe
350
F99
3
3D Hidden
350
F9B
3
3dWireframe
350
F9A
3
Basic
350
F98
3
Brighten
350
F9F
3
ColorChange
350
FA3
3
Conceptual
350
F9C
3
Dim
350
F9E
3
EdgeColorOff
350
FA6
3
Facepattern
350
FA2
3
Flat
350
F94
3
FlatWithEdges
350
F95
3
Gouraud
350
F96
3
GouraudWithEdges
350
F97
3
JitterOff
350
FA4
3
Linepattern
350
FA1
3
OverhangOff
350
FA5
3
Realistic
350
F9D
3
Thicken
350
FA0
0
XRECORD
5
107E
102
{ACAD_REACTORS
330
13
102
}
330
13
100
AcDbXrecord
280
1
90
1
330
FA9
330
F10009
330
F1000E
330
F10004
0
DICTIONARY
5
FF0
102
{ACAD_REACTORS
330
13
102
}
330
13
100
AcDbDictionary
281
1
3
CANNOSCALE
350
FF3
3
CMLEADERSTYLE
350
FF2
3
CTABLESTYLE
350
FF1
3
DIMASSOC
350
FF6
3
INDEXCTL
350
FF5
3
SORTENTS
350
FF4
3
XCLIPFRAME
350
1078
0
XRECORD
5
107F
102
{ACAD_REACTORS
330
13
102
}
330
13
100
AcDbXrecord
280
1
1
DWGPROPS COOKIE
2

3

4

6

7

8

9

300
=
301
=
302
=
303
=
304
=
305
=
306
=
307
=
308
=
309
=
40
0.0
41
0.0
42
0.0
1

90
0
0
XRECORD
5
F1000B
102
{ACAD_REACTORS
330
F1000A
102
}
330
F1000A
100
AcDbXrecord
280
1
40
48458.0
1
20
0
XRECORD
5
F10010
102
{ACAD_REACTORS
330
F1000F
102
}
330
F1000F
100
AcDbXrecord
280
1
40
48458.0
1
83
0
XRECORD
5
F10006
102
{ACAD_REACTORS
330
F10005
102
}
330
F10005
100
AcDbXrecord
280
1
40
48458.0
1
Ø16
0
LAYOUT
5
FD1
102
{ACAD_XDICTIONARY
360
10A9
102
}
102
{ACAD_REACTORS
330
FCF
102
}
330
FCF
100
AcDbPlotSettings
1

2
Microsoft XPS Document Writer
4

6

40
0.0
41
0.0
42
0.0
43
0.0
44
0.0
45
0.0
46
0.0
47
0.0
48
0.0
49
0.0
140
0.0
141
0.0
142
1.0
143
1.0
70
688
72
0
73
0
74
5
7

75
16
147
1.0
148
0.0
149
0.0
100
AcDbLayout
1
Layout1
70
1
71
1
10
0.0
20
0.0
11
12.0
21
9.0
12
0.0
22
0.0
32
0.0
14
1.000000000000000E+20
24
1.000000000000000E+20
34
1.000000000000000E+20
15
-1.000000000000000E+20
25
-1.000000000000000E+20
35
-1.000000000000000E+20
146
0.0
13
0.0
23
0.0
33
0.0
16
1.0
26
0.0
36
0.0
17
0.0
27
1.0
37
0.0
76
0
330
25D
0
LAYOUT
5
FD0
102
{ACAD_XDICTIONARY
360
10A7
102
}
102
{ACAD_REACTORS
330
FCF
102
}
330
FCF
100
AcDbPlotSettings
1

2
Microsoft XPS Document Writer
4

6

40
0.0
41
0.0
42
0.0
43
0.0
44
0.0
45
0.0
46
0.0
47
0.0
48
0.0
49
0.0
140
0.0
141
0.0
142
1.0
143
1.0
70
1712
72
0
73
0
74
0
7

75
0
147
1.0
148
0.0
149
0.0
100
AcDbLayout
1
Model
70
1
71
0
10
0.0
20
0.0
11
12.0
21
9.0
12
0.0
22
0.0
32
0.0
14
0.0
24
0.0
34
0.0
15
0.0
25
0.0
35
0.0
146
0.0
13
0.0
23
0.0
33
0.0
16
1.0
26
0.0
36
0.0
17
0.0
27
1.0
37
0.0
76
0
330
261
331
26B
0
MATERIAL
5
F83
102
{ACAD_XDICTIONARY
360
F84
102
}
102
{ACAD_REACTORS
330
F7A
102
}
330
F7A
100
AcDbMaterial
1
ByBlock
72
0
43
0.0208333333333333
43
0.0
43
0.0
43
0.0
43
0.0
43
0.0208333333333333
43
0.0
43
0.0
43
0.0
43
0.0
43
1.0
43
0.0
43
0.0
43
0.0
43
0.0
43
1.0
77
0
47
0.0208333333333333
47
0.0
47
0.0
47
0.0
47
0.0
47
0.0208333333333333
47
0.0
47
0.0
47
0.0
47
0.0
47
1.0
47
0.0
47
0.0
47
0.0
47
0.0
47
1.0
171
0
49
0.0208333333333333
49
0.0
49
0.0
49
0.0
49
0.0
49
0.0208333333333333
49
0.0
49
0.0
49
0.0
49
0.0
49
1.0
49
0.0
49
0.0
49
0.0
49
0.0
49
1.0
175
0
142
0.0208333333333333
142
0.0
142
0.0
142
0.0
142
0.0
142
0.0208333333333333
142
0.0
142
0.0
142
0.0
142
0.0
142
1.0
142
0.0
142
0.0
142
0.0
142
0.0
142
1.0
179
0
144
0.0208333333333333
144
0.0
144
0.0
144
0.0
144
0.0
144
0.0208333333333333
144
0.0
144
0.0
144
0.0
144
0.0
144
1.0
144
0.0
144
0.0
144
0.0
144
0.0
144
1.0
147
0.0208333333333333
147
0.0
147
0.0
147
0.0
147
0.0
147
0.0208333333333333
147
0.0
147
0.0
147
0.0
147
0.0
147
1.0
147
0.0
147
0.0
147
0.0
147
0.0
147
1.0
0
MATERIAL
5
F7B
102
{ACAD_XDICTIONARY
360
F7C
102
}
102
{ACAD_REACTORS
330
F7A
102
}
330
F7A
100
AcDbMaterial
1
ByLayer
72
0
43
0.0208333333333333
43
0.0
43
0.0
43
0.0
43
0.0
43
0.0208333333333333
43
0.0
43
0.0
43
0.0
43
0.0
43
1.0
43
0.0
43
0.0
43
0.0
43
0.0
43
1.0
77
0
47
0.0208333333333333
47
0.0
47
0.0
47
0.0
47
0.0
47
0.0208333333333333
47
0.0
47
0.0
47
0.0
47
0.0
47
1.0
47
0.0
47
0.0
47
0.0
47
0.0
47
1.0
171
0
49
0.0208333333333333
49
0.0
49
0.0
49
0.0
49
0.0
49
0.0208333333333333
49
0.0
49
0.0
49
0.0
49
0.0
49
1.0
49
0.0
49
0.0
49
0.0
49
0.0
49
1.0
175
0
142
0.0208333333333333
142
0.0
142
0.0
142
0.0
142
0.0
142
0.0208333333333333
142
0.0
142
0.0
142
0.0
142
0.0
142
1.0
142
0.0
142
0.0
142
0.0
142
0.0
142
1.0
179
0
144
0.0208333333333333
144
0.0
144
0.0
144
0.0
144
0.0
144
0.0208333333333333
144
0.0
144
0.0
144
0.0
144
0.0
144
1.0
144
0.0
144
0.0
144
0.0
144
0.0
144
1.0
147
0.0208333333333333
147
0.0
147
0.0
147
0.0
147
0.0
147
0.0208333333333333
147
0.0
147
0.0
147
0.0
147
0.0
147
1.0
147
0.0
147
0.0
147
0.0
147
0.0
147
1.0
0
MATERIAL
5
F8B
102
{ACAD_XDICTIONARY
360
F8C
102
}
102
{ACAD_REACTORS
330
F7A
102
}
330
F7A
100
AcDbMaterial
1
Global
72
0
43
0.0208333333333333
43
0.0
43
0.0
43
0.0
43
0.0
43
0.0208333333333333
43
0.0
43
0.0
43
0.0
43
0.0
43
1.0
43
0.0
43
0.0
43
0.0
43
0.0
43
1.0
77
0
47
0.0208333333333333
47
0.0
47
0.0
47
0.0
47
0.0
47
0.0208333333333333
47
0.0
47
0.0
47
0.0
47
0.0
47
1.0
47
0.0
47
0.0
47
0.0
47
0.0
47
1.0
171
0
49
0.0208333333333333
49
0.0
49
0.0
49
0.0
49
0.0
49
0.0208333333333333
49
0.0
49
0.0
49
0.0
49
0.0
49
1.0
49
0.0
49
0.0
49
0.0
49
0.0
49
1.0
175
0
142
0.0208333333333333
142
0.0
142
0.0
142
0.0
142
0.0
142
0.0208333333333333
142
0.0
142
0.0
142
0.0
142
0.0
142
1.0
142
0.0
142
0.0
142
0.0
142
0.0
142
1.0
179
0
144
0.0208333333333333
144
0.0
144
0.0
144
0.0
144
0.0
144
0.0208333333333333
144
0.0
144
0.0
144
0.0
144
0.0
144
1.0
144
0.0
144
0.0
144
0.0
144
0.0
144
1.0
147
0.0208333333333333
147
0.0
147
0.0
147
0.0
147
0.0
147
0.0208333333333333
147
0.0
147
0.0
147
0.0
147
0.0
147
1.0
147
0.0
147
0.0
147
0.0
147
0.0
147
1.0
0
MLEADERSTYLE
5
FCE
102
{ACAD_REACTORS
330
FCD
102
}
330
FCD
100
AcDbMLeaderStyle
170
2
171
1
172
0
90
2
40
0.0
41
0.0
173
1
91
-1056964608
340
256
92
-2
290
1
42
0.09
291
1
43
0.36
3
Standard
44
0.18
300

342
253
174
1
178
6
175
1
176
0
93
-1056964608
45
0.18
292
0
297
0
46
0.18
94
-1056964608
47
1.0
49
1.0
140
1.0
293
1
141
0.0
294
1
177
0
142
1.0
295
0
296
0
143
0.125
1001
ACAD_MLEADERVER
1070
2
0
MLINESTYLE
5
FAA
102
{ACAD_REACTORS
330
16
102
}
330
16
100
AcDbMlineStyle
2
STANDARD
70
0
3

62
256
51
90.0
52
90.0
71
2
49
0.5
62
256
6
BYLAYER
49
-0.5
62
256
6
BYLAYER
0
ACDBPLACEHOLDER
5
19
102
{ACAD_REACTORS
330
18
102
}
330
18
0
SCALE
5
FAC
102
{ACAD_REACTORS
330
FAB
102
}
330
FAB
100
AcDbScale
70
0
300
1:1
140
1.0
141
1.0
290
1
0
SCALE
5
FAD
102
{ACAD_REACTORS
330
FAB
102
}
330
FAB
100
AcDbScale
70
0
300
1:2
140
1.0
141
2.0
290
0
0
SCALE
5
FAE
102
{ACAD_REACTORS
330
FAB
102
}
330
FAB
100
AcDbScale
70
0
300
1:4
140
1.0
141
4.0
290
0
0
SCALE
5
FAF
102
{ACAD_REACTORS
330
FAB
102
}
330
FAB
100
AcDbScale
70
0
300
1:5
140
1.0
141
5.0
290
0
0
SCALE
5
FB0
102
{ACAD_REACTORS
330
FAB
102
}
330
FAB
100
AcDbScale
70
0
300
1:8
140
1.0
141
8.0
290
0
0
SCALE
5
FB1
102
{ACAD_REACTORS
330
FAB
102
}
330
FAB
100
AcDbScale
70
0
300
1:10
140
1.0
141
10.0
290
0
0
SCALE
5
FB2
102
{ACAD_REACTORS
330
FAB
102
}
330
FAB
100
AcDbScale
70
0
300
1:16
140
1.0
141
16.0
290
0
0
SCALE
5
FB3
102
{ACAD_REACTORS
330
FAB
102
}
330
FAB
100
AcDbScale
70
0
300
1:20
140
1.0
141
20.0
290
0
0
SCALE
5
FB4
102
{ACAD_REACTORS
330
FAB
102
}
330
FAB
100
AcDbScale
70
0
300
1:30
140
1.0
141
30.0
290
0
0
SCALE
5
FB5
102
{ACAD_REACTORS
330
FAB
102
}
330
FAB
100
AcDbScale
70
0
300
1:40
140
1.0
141
40.0
290
0
0
SCALE
5
FB6
102
{ACAD_REACTORS
330
FAB
102
}
330
FAB
100
AcDbScale
70
0
300
1:50
140
1.0
141
50.0
290
0
0
SCALE
5
FB7
102
{ACAD_REACTORS
330
FAB
102
}
330
FAB
100
AcDbScale
70
0
300
1:100
140
1.0
141
100.0
290
0
0
SCALE
5
FB8
102
{ACAD_REACTORS
330
FAB
102
}
330
FAB
100
AcDbScale
70
0
300
2:1
140
2.0
141
1.0
290
0
0
SCALE
5
FB9
102
{ACAD_REACTORS
330
FAB
102
}
330
FAB
100
AcDbScale
70
0
300
4:1
140
4.0
141
1.0
290
0
0
SCALE
5
FBA
102
{ACAD_REACTORS
330
FAB
102
}
330
FAB
100
AcDbScale
70
0
300
8:1
140
8.0
141
1.0
290
0
0
SCALE
5
FBB
102
{ACAD_REACTORS
330
FAB
102
}
330
FAB
100
AcDbScale
70
0
300
10:1
140
10.0
141
1.0
290
0
0
SCALE
5
FBC
102
{ACAD_REACTORS
330
FAB
102
}
330
FAB
100
AcDbScale
70
0
300
100:1
140
100.0
141
1.0
290
0
0
SCALE
5
FBD
102
{ACAD_REACTORS
330
FAB
102
}
330
FAB
100
AcDbScale
70
0
300
1/128" = 1'-0"
140
0.0078125
141
12.0
290
0
0
SCALE
5
FBE
102
{ACAD_REACTORS
330
FAB
102
}
330
FAB
100
AcDbScale
70
0
300
1/64" = 1'-0"
140
0.015625
141
12.0
290
0
0
SCALE
5
FBF
102
{ACAD_REACTORS
330
FAB
102
}
330
FAB
100
AcDbScale
70
0
300
1/32" = 1'-0"
140
0.03125
141
12.0
290
0
0
SCALE
5
FC0
102
{ACAD_REACTORS
330
FAB
102
}
330
FAB
100
AcDbScale
70
0
300
1/16" = 1'-0"
140
0.0625
141
12.0
290
0
0
SCALE
5
FC1
102
{ACAD_REACTORS
330
FAB
102
}
330
FAB
100
AcDbScale
70
0
300
3/32" = 1'-0"
140
0.09375
141
12.0
290
0
0
SCALE
5
FC2
102
{ACAD_REACTORS
330
FAB
102
}
330
FAB
100
AcDbScale
70
0
300
1/8" = 1'-0"
140
0.125
141
12.0
290
0
0
SCALE
5
FC3
102
{ACAD_REACTORS
330
FAB
102
}
330
FAB
100
AcDbScale
70
0
300
3/16" = 1'-0"
140
0.1875
141
12.0
290
0
0
SCALE
5
FC4
102
{ACAD_REACTORS
330
FAB
102
}
330
FAB
100
AcDbScale
70
0
300
1/4" = 1'-0"
140
0.25
141
12.0
290
0
0
SCALE
5
FC5
102
{ACAD_REACTORS
330
FAB
102
}
330
FAB
100
AcDbScale
70
0
300
3/8" = 1'-0"
140
0.375
141
12.0
290
0
0
SCALE
5
FC6
102
{ACAD_REACTORS
330
FAB
102
}
330
FAB
100
AcDbScale
70
0
300
1/2" = 1'-0"
140
0.5
141
12.0
290
0
0
SCALE
5
FC7
102
{ACAD_REACTORS
330
FAB
102
}
330
FAB
100
AcDbScale
70
0
300
3/4" = 1'-0"
140
0.75
141
12.0
290
0
0
SCALE
5
FC8
102
{ACAD_REACTORS
330
FAB
102
}
330
FAB
100
AcDbScale
70
0
300
1" = 1'-0"
140
1.0
141
12.0
290
0
0
SCALE
5
FC9
102
{ACAD_REACTORS
330
FAB
102
}
330
FAB
100
AcDbScale
70
0
300
1-1/2" = 1'-0"
140
1.5
141
12.0
290
0
0
SCALE
5
FCA
102
{ACAD_REACTORS
330
FAB
102
}
330
FAB
100
AcDbScale
70
0
300
3" = 1'-0"
140
3.0
141
12.0
290
0
0
SCALE
5
FCB
102
{ACAD_REACTORS
330
FAB
102
}
330
FAB
100
AcDbScale
70
0
300
6" = 1'-0"
140
6.0
141
12.0
290
0
0
SCALE
5
FCC
102
{ACAD_REACTORS
330
FAB
102
}
330
FAB
100
AcDbScale
70
0
300
1'-0" = 1'-0"
140
12.0
141
12.0
290
0
0
TABLESTYLE
5
FA9
102
{ACAD_XDICTIONARY
360
FF8
102
}
102
{ACAD_REACTORS
330
FA8
102
}
330
FA8
100
AcDbTableStyle
3
Standard
70
0
71
0
40
0.06
41
0.06
280
0
281
0
7
Standard
140
0.18
170
2
62
0
63
7
283
0
274
-2
284
1
64
0
275
-2
285
1
65
0
276
-2
286
1
66
0
277
-2
287
1
67
0
278
-2
288
1
68
0
279
-2
289
1
69
0
7
Standard
140
0.25
170
5
62
0
63
7
283
0
274
-2
284
1
64
0
275
-2
285
1
65
0
276
-2
286
1
66
0
277
-2
287
1
67
0
278
-2
288
1
68
0
279
-2
289
1
69
0
7
Standard
140
0.18
170
5
62
0
63
7
283
0
274
-2
284
1
64
0
275
-2
285
1
65
0
276
-2
286
1
66
0
277
-2
287
1
67
0
278
-2
288
1
68
0
279
-2
289
1
69
0
0
VISUALSTYLE
5
F99
102
{ACAD_XDICTIONARY
360
108A
102
}
102
{ACAD_REACTORS
330
F93
102
}
330
F93
100
AcDbVisualStyle
2

70
4
71
0
72
2
73
0
90
0
40
-0.6
41
-30.0
62
5
63
7
74
1
91
4
64
7
65
257
75
1
175
1
42
1.0
92
0
66
257
43
1.0
76
1
77
6
78
2
67
7
79
5
170
0
171
0
290
0
174
0
93
1
44
0.0
173
0
291
0
45
0.0
1001
ACAD
1000
AcDbSavedByObjectVersion
1070
0
0
VISUALSTYLE
5
F9B
102
{ACAD_XDICTIONARY
360
108E
102
}
102
{ACAD_REACTORS
330
F93
102
}
330
F93
100
AcDbVisualStyle
2

70
6
71
1
72
2
73
2
90
0
40
-0.6
41
-30.0
62
5
63
7
74
2
91
2
64
7
65
257
75
2
175
1
42
179.0
92
0
66
257
43
1.0
76
1
77
6
78
2
67
7
79
3
170
0
171
0
290
0
174
0
93
1
44
0.0
173
0
291
0
45
0.0
1001
ACAD
1000
AcDbSavedByObjectVersion
1070
0
0
VISUALSTYLE
5
F9A
102
{ACAD_XDICTIONARY
360
108C
102
}
102
{ACAD_REACTORS
330
F93
102
}
330
F93
100
AcDbVisualStyle
2

70
5
71
0
72
2
73
0
90
0
40
-0.6
41
-30.0
62
5
63
7
74
1
91
4
64
7
65
257
75
1
175
1
42
1.0
92
0
66
257
43
1.0
76
1
77
6
78
2
67
7
79
5
170
0
171
0
290
0
174
0
93
1
44
0.0
173
0
291
0
45
0.0
1001
ACAD
1000
AcDbSavedByObjectVersion
1070
0
0
VISUALSTYLE
5
F98
102
{ACAD_XDICTIONARY
360
1088
102
}
102
{ACAD_REACTORS
330
F93
102
}
330
F93
100
AcDbVisualStyle
2

70
7
71
1
72
0
73
1
90
0
40
-0.6
41
-30.0
62
5
63
7
74
0
91
4
64
7
65
257
75
1
175
1
42
1.0
92
8
66
7
43
1.0
76
1
77
6
78
2
67
7
79
5
170
0
171
0
290
0
174
0
93
1
44
0.0
173
0
291
1
45
0.0
1001
ACAD
1000
AcDbSavedByObjectVersion
1070
0
0
VISUALSTYLE
5
F9F
102
{ACAD_XDICTIONARY
360
1096
102
}
102
{ACAD_REACTORS
330
F93
102
}
330
F93
100
AcDbVisualStyle
2

70
12
71
2
72
2
73
0
90
0
40
-0.6
41
-30.0
62
5
63
7
74
1
91
4
64
7
65
257
75
1
175
1
42
1.0
92
8
66
7
43
1.0
76
1
77
6
78
2
67
7
79
5
170
0
171
0
290
0
174
0
93
1
44
50.0
173
0
291
1
45
0.0
1001
ACAD
1000
AcDbSavedByObjectVersion
1070
0
0
VISUALSTYLE
5
FA3
102
{ACAD_XDICTIONARY
360
109E
102
}
102
{ACAD_REACTORS
330
F93
102
}
330
F93
100
AcDbVisualStyle
2

70
16
71
2
72
2
73
3
90
0
40
-0.6
41
-30.0
62
5
63
8
74
1
91
4
64
7
65
257
75
1
175
1
42
1.0
92
8
66
8
43
1.0
76
1
77
6
78
2
67
7
79
5
170
0
171
0
290
0
174
0
93
1
44
0.0
173
0
291
1
45
0.0
1001
ACAD
1000
AcDbSavedByObjectVersion
1070
0
0
VISUALSTYLE
5
F9C
102
{ACAD_XDICTIONARY
360
1090
102
}
102
{ACAD_REACTORS
330
F93
102
}
330
F93
100
AcDbVisualStyle
2

70
9
71
3
72
2
73
0
90
0
40
-0.6
41
-30.0
62
5
63
7
74
2
91
2
64
7
65
257
75
1
175
1
42
179.0
92
8
66
7
43
1.0
76
1
77
6
78
2
67
7
79
3
170
0
171
0
290
0
174
0
93
1
44
0.0
173
0
291
0
45
0.0
1001
ACAD
1000
AcDbSavedByObjectVersion
1070
0
0
VISUALSTYLE
5
F9E
102
{ACAD_XDICTIONARY
360
1094
102
}
102
{ACAD_REACTORS
330
F93
102
}
330
F93
100
AcDbVisualStyle
2

70
11
71
2
72
2
73
0
90
0
40
-0.6
41
-30.0
62
5
63
7
74
1
91
4
64
7
65
257
75
1
175
1
42
1.0
92
8
66
7
43
1.0
76
1
77
6
78
2
67
7
79
5
170
0
171
0
290
0
174
0
93
1
44
-50.0
173
0
291
1
45
0.0
1001
ACAD
1000
AcDbSavedByObjectVersion
1070
0
0
VISUALSTYLE
5
FA6
102
{ACAD_XDICTIONARY
360
10A4
102
}
102
{ACAD_REACTORS
330
F93
102
}
330
F93
100
AcDbVisualStyle
2

70
22
71
2
72
2
73
0
90
0
40
-0.6
41
-30.0
62
5
63
7
74
1
91
4
64
7
65
257
75
1
175
1
42
1.0
92
8
66
7
43
1.0
76
1
77
6
78
2
67
7
79
5
170
0
171
0
290
0
174
0
93
1
44
0.0
173
0
291
1
45
0.0
1001
ACAD
1000
AcDbSavedByObjectVersion
1070
0
0
VISUALSTYLE
5
FA2
102
{ACAD_XDICTIONARY
360
109C
102
}
102
{ACAD_REACTORS
330
F93
102
}
330
F93
100
AcDbVisualStyle
2

70
15
71
2
72
2
73
0
90
0
40
-0.6
41
-30.0
62
5
63
7
74
1
91
4
64
7
65
257
75
1
175
1
42
1.0
92
8
66
7
43
1.0
76
1
77
6
78
2
67
7
79
5
170
0
171
0
290
0
174
0
93
1
44
0.0
173
0
291
1
45
0.0
1001
ACAD
1000
AcDbSavedByObjectVersion
1070
0
0
VISUALSTYLE
5
F94
102
{ACAD_XDICTIONARY
360
1080
102
}
102
{ACAD_REACTORS
330
F93
102
}
330
F93
100
AcDbVisualStyle
2

70
0
71
2
72
1
73
1
90
2
40
-0.6
41
30.0
62
5
63
7
74
0
91
4
64
7
65
257
75
1
175
1
42
1.0
92
8
66
7
43
1.0
76
1
77
6
78
2
67
7
79
5
170
0
171
0
290
0
174
0
93
13
44
0.0
173
0
291
1
45
0.0
1001
ACAD
1000
AcDbSavedByObjectVersion
1070
0
0
VISUALSTYLE
5
F95
102
{ACAD_XDICTIONARY
360
1082
102
}
102
{ACAD_REACTORS
330
F93
102
}
330
F93
100
AcDbVisualStyle
2

70
1
71
2
72
1
73
1
90
2
40
-0.6
41
30.0
62
5
63
7
74
1
91
4
64
7
65
257
75
1
175
1
42
1.0
92
0
66
257
43
1.0
76
1
77
6
78
2
67
7
79
5
170
0
171
0
290
0
174
0
93
13
44
0.0
173
0
291
1
45
0.0
1001
ACAD
1000
AcDbSavedByObjectVersion
1070
0
0
VISUALSTYLE
5
F96
102
{ACAD_XDICTIONARY
360
1084
102
}
102
{ACAD_REACTORS
330
F93
102
}
330
F93
100
AcDbVisualStyle
2

70
2
71
2
72
2
73
1
90
2
40
-0.6
41
30.0
62
5
63
7
74
0
91
4
64
7
65
257
75
1
175
1
42
1.0
92
0
66
7
43
1.0
76
1
77
6
78
2
67
7
79
5
170
0
171
0
290
0
174
0
93
13
44
0.0
173
0
291
1
45
0.0
1001
ACAD
1000
AcDbSavedByObjectVersion
1070
0
0
VISUALSTYLE
5
F97
102
{ACAD_XDICTIONARY
360
1086
102
}
102
{ACAD_REACTORS
330
F93
102
}
330
F93
100
AcDbVisualStyle
2

70
3
71
2
72
2
73
1
90
2
40
-0.6
41
30.0
62
5
63
7
74
1
91
4
64
7
65
257
75
1
175
1
42
1.0
92
0
66
257
43
1.0
76
1
77
6
78
2
67
7
79
5
170
0
171
0
290
0
174
0
93
13
44
0.0
173
0
291
1
45
0.0
1001
ACAD
1000
AcDbSavedByObjectVersion
1070
0
0
VISUALSTYLE
5
FA4
102
{ACAD_XDICTIONARY
360
10A0
102
}
102
{ACAD_REACTORS
330
F93
102
}
330
F93
100
AcDbVisualStyle
2

70
20
71
2
72
2
73
0
90
0
40
-0.6
41
-30.0
62
5
63
7
74
1
91
4
64
7
65
257
75
1
175
1
42
1.0
92
10
66
7
43
1.0
76
1
77
6
78
2
67
7
79
5
170
0
171
0
290
0
174
0
93
1
44
0.0
173
0
291
1
45
0.0
1001
ACAD
1000
AcDbSavedByObjectVersion
1070
0
0
VISUALSTYLE
5
FA1
102
{ACAD_XDICTIONARY
360
109A
102
}
102
{ACAD_REACTORS
330
F93
102
}
330
F93
100
AcDbVisualStyle
2

70
14
71
2
72
2
73
0
90
0
40
-0.6
41
-30.0
62
5
63
7
74
1
91
4
64
7
65
257
75
7
175
7
42
1.0
92
8
66
7
43
1.0
76
1
77
6
78
2
67
7
79
5
170
0
171
0
290
0
174
0
93
1
44
0.0
173
0
291
1
45
0.0
1001
ACAD
1000
AcDbSavedByObjectVersion
1070
0
0
VISUALSTYLE
5
FA5
102
{ACAD_XDICTIONARY
360
10A2
102
}
102
{ACAD_REACTORS
330
F93
102
}
330
F93
100
AcDbVisualStyle
2

70
21
71
2
72
2
73
0
90
0
40
-0.6
41
-30.0
62
5
63
7
74
1
91
4
64
7
65
257
75
1
175
1
42
1.0
92
9
66
7
43
1.0
76
1
77
6
78
2
67
7
79
5
170
0
171
0
290
0
174
0
93
1
44
0.0
173
0
291
1
45
0.0
1001
ACAD
1000
AcDbSavedByObjectVersion
1070
0
0
VISUALSTYLE
5
F9D
102
{ACAD_XDICTIONARY
360
1092
102
}
102
{ACAD_REACTORS
330
F93
102
}
330
F93
100
AcDbVisualStyle
2

70
8
71
2
72
2
73
0
90
0
40
-0.6
41
-30.0
62
5
63
7
74
1
91
0
64
7
65
257
75
1
175
1
42
1.0
92
8
66
8
43
1.0
76
1
77
6
78
2
67
7
79
5
170
0
171
0
290
0
174
0
93
13
44
0.0
173
0
291
0
45
0.0
1001
ACAD
1000
AcDbSavedByObjectVersion
1070
0
0
VISUALSTYLE
5
FA0
102
{ACAD_XDICTIONARY
360
1098
102
}
102
{ACAD_REACTORS
330
F93
102
}
330
F93
100
AcDbVisualStyle
2

70
13
71
2
72
2
73
0
90
0
40
-0.6
41
-30.0
62
5
63
7
74
1
91
4
64
7
65
257
75
1
175
1
42
1.0
92
12
66
7
43
1.0
76
1
77
6
78
2
67
7
79
5
170
0
171
0
290
0
174
0
93
1
44
0.0
173
0
291
1
45
0.0
1001
ACAD
1000
AcDbSavedByObjectVersion
1070
0
0
DICTIONARYVAR
5
FF3
102
{ACAD_REACTORS
330
FF0
102
}
330
FF0
100
DictionaryVariables
280
0
1
1:1
0
DICTIONARYVAR
5
FF2
102
{ACAD_REACTORS
330
FF0
102
}
330
FF0
100
DictionaryVariables
280
0
1
STANDARD
0
DICTIONARYVAR
5
FF1
102
{ACAD_REACTORS
330
FF0
102
}
330
FF0
100
DictionaryVariables
280
0
1
STANDARD
0
DICTIONARYVAR
5
FF6
102
{ACAD_REACTORS
330
FF0
102
}
330
FF0
100
DictionaryVariables
280
0
1
1
0
DICTIONARYVAR
5
FF5
102
{ACAD_REACTORS
330
FF0
102
}
330
FF0
100
DictionaryVariables
280
0
1
0
0
DICTIONARYVAR
5
FF4
102
{ACAD_REACTORS
330
FF0
102
}
330
FF0
100
DictionaryVariables
280
0
1
127
0
DICTIONARYVAR
5
1078
102
{ACAD_REACTORS
330
FF0
102
}
330
FF0
100
DictionaryVariables
280
0
1
2
0
DICTIONARY
5
10A9
330
FD1
100
AcDbDictionary
280
1
281
1
3
ACAD_XREC_ROUNDTRIP
360
10AA
0
DICTIONARY
5
10A7
330
FD0
100
AcDbDictionary
280
1
281
1
3
ACAD_XREC_ROUNDTRIP
360
10A8
0
DICTIONARY
5
F84
330
F83
100
AcDbDictionary
280
1
281
1
3
ACAD_XREC_ROUNDTRIP
360
FFF
3
BUMPTILE
360
F86
3
DIFFUSETILE
360
F85
3
OPACITYTILE
360
F89
3
REFLECTIONTILE
360
F88
3
REFRACTIONTILE
360
F8A
3
SPECULARTILE
360
F87
0
DICTIONARY
5
F7C
330
F7B
100
AcDbDictionary
280
1
281
1
3
ACAD_XREC_ROUNDTRIP
360
FFE
3
BUMPTILE
360
F7E
3
DIFFUSETILE
360
F7D
3
OPACITYTILE
360
F81
3
REFLECTIONTILE
360
F80
3
REFRACTIONTILE
360
F82
3
SPECULARTILE
360
F7F
0
DICTIONARY
5
F8C
330
F8B
100
AcDbDictionary
280
1
281
1
3
ACAD_XREC_ROUNDTRIP
360
1000
3
BUMPTILE
360
F8E
3
DIFFUSETILE
360
F8D
3
OPACITYTILE
360
F91
3
REFLECTIONTILE
360
F90
3
REFRACTIONTILE
360
F92
3
SPECULARTILE
360
F8F
0
DICTIONARY
5
FF8
330
FA9
100
AcDbDictionary
280
1
281
1
3
ACAD_ROUNDTRIP_2008_TABLESTYLE_CELLSTYLEMAP
360
1079
3
ACAD_XREC_ROUNDTRIP
360
10A6
0
DICTIONARY
5
108A
330
F99
100
AcDbDictionary
280
1
281
1
3
ACAD_XREC_ROUNDTRIP
360
108B
0
DICTIONARY
5
108E
330
F9B
100
AcDbDictionary
280
1
281
1
3
ACAD_XREC_ROUNDTRIP
360
108F
0
DICTIONARY
5
108C
330
F9A
100
AcDbDictionary
280
1
281
1
3
ACAD_XREC_ROUNDTRIP
360
108D
0
DICTIONARY
5
1088
330
F98
100
AcDbDictionary
280
1
281
1
3
ACAD_XREC_ROUNDTRIP
360
1089
0
DICTIONARY
5
1096
330
F9F
100
AcDbDictionary
280
1
281
1
3
ACAD_XREC_ROUNDTRIP
360
1097
0
DICTIONARY
5
109E
330
FA3
100
AcDbDictionary
280
1
281
1
3
ACAD_XREC_ROUNDTRIP
360
109F
0
DICTIONARY
5
1090
330
F9C
100
AcDbDictionary
280
1
281
1
3
ACAD_XREC_ROUNDTRIP
360
1091
0
DICTIONARY
5
1094
330
F9E
100
AcDbDictionary
280
1
281
1
3
ACAD_XREC_ROUNDTRIP
360
1095
0
DICTIONARY
5
10A4
330
FA6
100
AcDbDictionary
280
1
281
1
3
ACAD_XREC_ROUNDTRIP
360
10A5
0
DICTIONARY
5
109C
330
FA2
100
AcDbDictionary
280
1
281
1
3
ACAD_XREC_ROUNDTRIP
360
109D
0
DICTIONARY
5
1080
330
F94
100
AcDbDictionary
280
1
281
1
3
ACAD_XREC_ROUNDTRIP
360
1081
0
DICTIONARY
5
1082
330
F95
100
AcDbDictionary
280
1
281
1
3
ACAD_XREC_ROUNDTRIP
360
1083
0
DICTIONARY
5
1084
330
F96
100
AcDbDictionary
280
1
281
1
3
ACAD_XREC_ROUNDTRIP
360
1085
0
DICTIONARY
5
1086
330
F97
100
AcDbDictionary
280
1
281
1
3
ACAD_XREC_ROUNDTRIP
360
1087
0
DICTIONARY
5
10A0
330
FA4
100
AcDbDictionary
280
1
281
1
3
ACAD_XREC_ROUNDTRIP
360
10A1
0
DICTIONARY
5
109A
330
FA1
100
AcDbDictionary
280
1
281
1
3
ACAD_XREC_ROUNDTRIP
360
109B
0
DICTIONARY
5
10A2
330
FA5
100
AcDbDictionary
280
1
281
1
3
ACAD_XREC_ROUNDTRIP
360
10A3
0
DICTIONARY
5
1092
330
F9D
100
AcDbDictionary
280
1
281
1
3
ACAD_XREC_ROUNDTRIP
360
1093
0
DICTIONARY
5
1098
330
FA0
100
AcDbDictionary
280
1
281
1
3
ACAD_XREC_ROUNDTRIP
360
1099
0
XRECORD
5
10AA
102
{ACAD_REACTORS
330
10A9
102
}
330
10A9
100
AcDbXrecord
280
1
102
SHADEPLOT
70
0
102
SHADEPLOTRESLEVEL
70
2
102
SHADEPLOTCUSTOMDPI
70
300
0
XRECORD
5
10A8
102
{ACAD_REACTORS
330
10A7
102
}
330
10A7
100
AcDbXrecord
280
1
102
SHADEPLOT
70
0
102
SHADEPLOTRESLEVEL
70
2
102
SHADEPLOTCUSTOMDPI
70
300
0
XRECORD
5
FFF
102
{ACAD_REACTORS
330
F84
102
}
330
F84
100
AcDbXrecord
280
1
102
MATERIAL
148
0.0
149
0.0
149
0.0
93
0
94
127
282
0
72
0
77
0
171
0
175
0
179
0
273
0
0
XRECORD
5
F86
102
{ACAD_REACTORS
330
F84
102
}
330
F84
100
AcDbXrecord
280
1
270
1
271
1
0
XRECORD
5
F85
102
{ACAD_REACTORS
330
F84
102
}
330
F84
100
AcDbXrecord
280
1
270
1
271
1
0
XRECORD
5
F89
102
{ACAD_REACTORS
330
F84
102
}
330
F84
100
AcDbXrecord
280
1
270
1
271
1
0
XRECORD
5
F88
102
{ACAD_REACTORS
330
F84
102
}
330
F84
100
AcDbXrecord
280
1
270
1
271
1
0
XRECORD
5
F8A
102
{ACAD_REACTORS
330
F84
102
}
330
F84
100
AcDbXrecord
280
1
270
1
271
1
0
XRECORD
5
F87
102
{ACAD_REACTORS
330
F84
102
}
330
F84
100
AcDbXrecord
280
1
270
1
271
1
0
XRECORD
5
FFE
102
{ACAD_REACTORS
330
F7C
102
}
330
F7C
100
AcDbXrecord
280
1
102
MATERIAL
148
0.0
149
0.0
149
0.0
93
0
94
127
282
0
72
0
77
0
171
0
175
0
179
0
273
0
0
XRECORD
5
F7E
102
{ACAD_REACTORS
330
F7C
102
}
330
F7C
100
AcDbXrecord
280
1
270
1
271
1
0
XRECORD
5
F7D
102
{ACAD_REACTORS
330
F7C
102
}
330
F7C
100
AcDbXrecord
280
1
270
1
271
1
0
XRECORD
5
F81
102
{ACAD_REACTORS
330
F7C
102
}
330
F7C
100
AcDbXrecord
280
1
270
1
271
1
0
XRECORD
5
F80
102
{ACAD_REACTORS
330
F7C
102
}
330
F7C
100
AcDbXrecord
280
1
270
1
271
1
0
XRECORD
5
F82
102
{ACAD_REACTORS
330
F7C
102
}
330
F7C
100
AcDbXrecord
280
1
270
1
271
1
0
XRECORD
5
F7F
102
{ACAD_REACTORS
330
F7C
102
}
330
F7C
100
AcDbXrecord
280
1
270
1
271
1
0
XRECORD
5
1000
102
{ACAD_REACTORS
330
F8C
102
}
330
F8C
100
AcDbXrecord
280
1
102
MATERIAL
148
0.0
149
0.0
149
0.0
93
0
94
127
282
0
72
0
77
0
171
0
175
0
179
0
273
0
0
XRECORD
5
F8E
102
{ACAD_REACTORS
330
F8C
102
}
330
F8C
100
AcDbXrecord
280
1
270
1
271
1
0
XRECORD
5
F8D
102
{ACAD_REACTORS
330
F8C
102
}
330
F8C
100
AcDbXrecord
280
1
270
1
271
1
0
XRECORD
5
F91
102
{ACAD_REACTORS
330
F8C
102
}
330
F8C
100
AcDbXrecord
280
1
270
1
271
1
0
XRECORD
5
F90
102
{ACAD_REACTORS
330
F8C
102
}
330
F8C
100
AcDbXrecord
280
1
270
1
271
1
0
XRECORD
5
F92
102
{ACAD_REACTORS
330
F8C
102
}
330
F8C
100
AcDbXrecord
280
1
270
1
271
1
0
XRECORD
5
F8F
102
{ACAD_REACTORS
330
F8C
102
}
330
F8C
100
AcDbXrecord
280
1
270
1
271
1
0
CELLSTYLEMAP
5
1079
102
{ACAD_REACTORS
330
FF8
102
}
330
FF8
100
AcDbCellStyleMap
90
3
300
CELLSTYLE
1
TABLEFORMAT_BEGIN
90
5
170
1
91
0
92
32768
62
257
93
1
300
CONTENTFORMAT
1
CONTENTFORMAT_BEGIN
90
0
91
0
92
512
93
0
300

40
0.0
140
1.0
94
5
62
0
340
253
144
0.25
309
CONTENTFORMAT_END
171
1
301
MARGIN
1
CELLMARGIN_BEGIN
40
0.06
40
0.06
40
0.06
40
0.06
40
0.18
40
0.18
309
CELLMARGIN_END
94
6
95
1
302
GRIDFORMAT
1
GRIDFORMAT_BEGIN
90
0
91
1
62
0
92
-2
340
0
93
0
40
0.045
309
GRIDFORMAT_END
95
2
302
GRIDFORMAT
1
GRIDFORMAT_BEGIN
90
0
91
1
62
0
92
-2
340
0
93
0
40
0.045
309
GRIDFORMAT_END
95
4
302
GRIDFORMAT
1
GRIDFORMAT_BEGIN
90
0
91
1
62
0
92
-2
340
0
93
0
40
0.045
309
GRIDFORMAT_END
95
8
302
GRIDFORMAT
1
GRIDFORMAT_BEGIN
90
0
91
1
62
0
92
-2
340
0
93
0
40
0.045
309
GRIDFORMAT_END
95
16
302
GRIDFORMAT
1
GRIDFORMAT_BEGIN
90
0
91
1
62
0
92
-2
340
0
93
0
40
0.045
309
GRIDFORMAT_END
95
32
302
GRIDFORMAT
1
GRIDFORMAT_BEGIN
90
0
91
1
62
0
92
-2
340
0
93
0
40
0.045
309
GRIDFORMAT_END
309
TABLEFORMAT_END
1
CELLSTYLE_BEGIN
90
1
91
1
300
_TITLE
309
CELLSTYLE_END
300
CELLSTYLE
1
TABLEFORMAT_BEGIN
90
5
170
1
91
0
92
0
62
257
93
1
300
CONTENTFORMAT
1
CONTENTFORMAT_BEGIN
90
0
91
0
92
512
93
0
300

40
0.0
140
1.0
94
5
62
0
340
253
144
0.18
309
CONTENTFORMAT_END
171
1
301
MARGIN
1
CELLMARGIN_BEGIN
40
0.06
40
0.06
40
0.06
40
0.06
40
0.18
40
0.18
309
CELLMARGIN_END
94
6
95
1
302
GRIDFORMAT
1
GRIDFORMAT_BEGIN
90
0
91
1
62
0
92
-2
340
0
93
0
40
0.045
309
GRIDFORMAT_END
95
2
302
GRIDFORMAT
1
GRIDFORMAT_BEGIN
90
0
91
1
62
0
92
-2
340
0
93
0
40
0.045
309
GRIDFORMAT_END
95
4
302
GRIDFORMAT
1
GRIDFORMAT_BEGIN
90
0
91
1
62
0
92
-2
340
0
93
0
40
0.045
309
GRIDFORMAT_END
95
8
302
GRIDFORMAT
1
GRIDFORMAT_BEGIN
90
0
91
1
62
0
92
-2
340
0
93
0
40
0.045
309
GRIDFORMAT_END
95
16
302
GRIDFORMAT
1
GRIDFORMAT_BEGIN
90
0
91
1
62
0
92
-2
340
0
93
0
40
0.045
309
GRIDFORMAT_END
95
32
302
GRIDFORMAT
1
GRIDFORMAT_BEGIN
90
0
91
1
62
0
92
-2
340
0
93
0
40
0.045
309
GRIDFORMAT_END
309
TABLEFORMAT_END
1
CELLSTYLE_BEGIN
90
2
91
1
300
_HEADER
309
CELLSTYLE_END
300
CELLSTYLE
1
TABLEFORMAT_BEGIN
90
5
170
1
91
0
92
0
62
257
93
1
300
CONTENTFORMAT
1
CONTENTFORMAT_BEGIN
90
0
91
0
92
512
93
0
300

40
0.0
140
1.0
94
2
62
0
340
253
144
0.18
309
CONTENTFORMAT_END
171
1
301
MARGIN
1
CELLMARGIN_BEGIN
40
0.06
40
0.06
40
0.06
40
0.06
40
0.18
40
0.18
309
CELLMARGIN_END
94
6
95
1
302
GRIDFORMAT
1
GRIDFORMAT_BEGIN
90
0
91
1
62
0
92
-2
340
0
93
0
40
0.045
309
GRIDFORMAT_END
95
2
302
GRIDFORMAT
1
GRIDFORMAT_BEGIN
90
0
91
1
62
0
92
-2
340
0
93
0
40
0.045
309
GRIDFORMAT_END
95
4
302
GRIDFORMAT
1
GRIDFORMAT_BEGIN
90
0
91
1
62
0
92
-2
340
0
93
0
40
0.045
309
GRIDFORMAT_END
95
8
302
GRIDFORMAT
1
GRIDFORMAT_BEGIN
90
0
91
1
62
0
92
-2
340
0
93
0
40
0.045
309
GRIDFORMAT_END
95
16
302
GRIDFORMAT
1
GRIDFORMAT_BEGIN
90
0
91
1
62
0
92
-2
340
0
93
0
40
0.045
309
GRIDFORMAT_END
95
32
302
GRIDFORMAT
1
GRIDFORMAT_BEGIN
90
0
91
1
62
0
92
-2
340
0
93
0
40
0.045
309
GRIDFORMAT_END
309
TABLEFORMAT_END
1
CELLSTYLE_BEGIN
90
3
91
2
300
_DATA
309
CELLSTYLE_END
0
XRECORD
5
10A6
102
{ACAD_REACTORS
330
FF8
102
}
330
FF8
100
AcDbXrecord
280
1
102
ACAD_ROUNDTRIP_PRE2007_TABLESTYLE
90
512
91
0
1

92
512
93
0
2

94
512
95
0
3

0
XRECORD
5
108B
102
{ACAD_REACTORS
330
108A
102
}
330
108A
100
AcDbXrecord
280
1
102
RTVSPropertyOp0
70
1
102
RTVSPropertyOp1
70
1
102
RTVSPropertyOp2
70
1
102
RTVSPropertyOp3
70
1
102
RTVSPropertyOp4
70
1
102
RTVSPropertyOp5
70
1
102
RTVSPropertyOp6
70
1
102
RTVSPropertyOp7
70
1
102
RTVSPropertyOp8
70
1
102
RTVSPropertyOp9
70
1
102
RTVSPropertyOp10
70
1
102
RTVSPropertyOp11
70
1
102
RTVSPropertyOp12
70
1
102
RTVSPropertyOp13
70
1
102
RTVSPropertyOp14
70
1
102
RTVSPropertyOp15
70
1
102
RTVSPropertyOp16
70
1
102
RTVSPropertyOp17
70
1
102
RTVSPropertyOp18
70
1
102
RTVSPropertyOp19
70
1
102
RTVSPropertyOp20
70
1
102
RTVSPropertyOp21
70
1
102
RTVSPropertyOp22
70
1
102
RTVSPropertyOp23
70
1
102
RTVSPropertyOp24
70
1
102
RTVSPropertyOp25
70
1
102
RTVSPropertyOp26
70
1
102
RTVSPropertyOp27
70
1
0
XRECORD
5
108F
102
{ACAD_REACTORS
330
108E
102
}
330
108E
100
AcDbXrecord
280
1
102
RTVSPropertyOp0
70
1
102
RTVSPropertyOp1
70
1
102
RTVSPropertyOp2
70
1
102
RTVSPropertyOp3
70
1
102
RTVSPropertyOp4
70
1
102
RTVSPropertyOp5
70
1
102
RTVSPropertyOp6
70
1
102
RTVSPropertyOp7
70
1
102
RTVSPropertyOp8
70
1
102
RTVSPropertyOp9
70
1
102
RTVSPropertyOp10
70
1
102
RTVSPropertyOp11
70
1
102
RTVSPropertyOp12
70
1
102
RTVSPropertyOp13
70
1
102
RTVSPropertyOp14
70
1
102
RTVSPropertyOp15
70
1
102
RTVSPropertyOp16
70
1
102
RTVSPropertyOp17
70
1
102
RTVSPropertyOp18
70
1
102
RTVSPropertyOp19
70
1
102
RTVSPropertyOp20
70
1
102
RTVSPropertyOp21
70
1
102
RTVSPropertyOp22
70
1
102
RTVSPropertyOp23
70
1
102
RTVSPropertyOp24
70
1
102
RTVSPropertyOp25
70
1
102
RTVSPropertyOp26
70
1
102
RTVSPropertyOp27
70
1
0
XRECORD
5
108D
102
{ACAD_REACTORS
330
108C
102
}
330
108C
100
AcDbXrecord
280
1
102
RTVSPropertyOp0
70
1
102
RTVSPropertyOp1
70
1
102
RTVSPropertyOp2
70
1
102
RTVSPropertyOp3
70
1
102
RTVSPropertyOp4
70
1
102
RTVSPropertyOp5
70
1
102
RTVSPropertyOp6
70
1
102
RTVSPropertyOp7
70
1
102
RTVSPropertyOp8
70
1
102
RTVSPropertyOp9
70
1
102
RTVSPropertyOp10
70
1
102
RTVSPropertyOp11
70
1
102
RTVSPropertyOp12
70
1
102
RTVSPropertyOp13
70
1
102
RTVSPropertyOp14
70
1
102
RTVSPropertyOp15
70
1
102
RTVSPropertyOp16
70
1
102
RTVSPropertyOp17
70
1
102
RTVSPropertyOp18
70
1
102
RTVSPropertyOp19
70
1
102
RTVSPropertyOp20
70
1
102
RTVSPropertyOp21
70
1
102
RTVSPropertyOp22
70
1
102
RTVSPropertyOp23
70
1
102
RTVSPropertyOp24
70
1
102
RTVSPropertyOp25
70
1
102
RTVSPropertyOp26
70
1
102
RTVSPropertyOp27
70
1
0
XRECORD
5
1089
102
{ACAD_REACTORS
330
1088
102
}
330
1088
100
AcDbXrecord
280
1
102
RTVSPropertyOp0
70
1
102
RTVSPropertyOp1
70
1
102
RTVSPropertyOp2
70
1
102
RTVSPropertyOp3
70
1
102
RTVSPropertyOp4
70
1
102
RTVSPropertyOp5
70
1
102
RTVSPropertyOp6
70
1
102
RTVSPropertyOp7
70
1
102
RTVSPropertyOp8
70
1
102
RTVSPropertyOp9
70
1
102
RTVSPropertyOp10
70
1
102
RTVSPropertyOp11
70
1
102
RTVSPropertyOp12
70
1
102
RTVSPropertyOp13
70
1
102
RTVSPropertyOp14
70
1
102
RTVSPropertyOp15
70
1
102
RTVSPropertyOp16
70
1
102
RTVSPropertyOp17
70
1
102
RTVSPropertyOp18
70
1
102
RTVSPropertyOp19
70
1
102
RTVSPropertyOp20
70
1
102
RTVSPropertyOp21
70
1
102
RTVSPropertyOp22
70
1
102
RTVSPropertyOp23
70
1
102
RTVSPropertyOp24
70
1
102
RTVSPropertyOp25
70
1
102
RTVSPropertyOp26
70
1
102
RTVSPropertyOp27
70
1
0
XRECORD
5
1097
102
{ACAD_REACTORS
330
1096
102
}
330
1096
100
AcDbXrecord
280
1
102
RTVSPropertyOp0
70
1
102
RTVSPropertyOp1
70
1
102
RTVSPropertyOp2
70
1
102
RTVSPropertyOp3
70
1
102
RTVSPropertyOp4
70
1
102
RTVSPropertyOp5
70
1
102
RTVSPropertyOp6
70
1
102
RTVSPropertyOp7
70
1
102
RTVSPropertyOp8
70
1
102
RTVSPropertyOp9
70
1
102
RTVSPropertyOp10
70
1
102
RTVSPropertyOp11
70
1
102
RTVSPropertyOp12
70
1
102
RTVSPropertyOp13
70
1
102
RTVSPropertyOp14
70
1
102
RTVSPropertyOp15
70
1
102
RTVSPropertyOp16
70
1
102
RTVSPropertyOp17
70
1
102
RTVSPropertyOp18
70
1
102
RTVSPropertyOp19
70
1
102
RTVSPropertyOp20
70
1
102
RTVSPropertyOp21
70
1
102
RTVSPropertyOp22
70
1
102
RTVSPropertyOp23
70
1
102
RTVSPropertyOp24
70
1
102
RTVSPropertyOp25
70
1
102
RTVSPropertyOp26
70
1
102
RTVSPropertyOp27
70
1
0
XRECORD
5
109F
102
{ACAD_REACTORS
330
109E
102
}
330
109E
100
AcDbXrecord
280
1
102
RTVSPropertyOp0
70
1
102
RTVSPropertyOp1
70
1
102
RTVSPropertyOp2
70
1
102
RTVSPropertyOp3
70
1
102
RTVSPropertyOp4
70
1
102
RTVSPropertyOp5
70
1
102
RTVSPropertyOp6
70
1
102
RTVSPropertyOp7
70
1
102
RTVSPropertyOp8
70
1
102
RTVSPropertyOp9
70
1
102
RTVSPropertyOp10
70
1
102
RTVSPropertyOp11
70
1
102
RTVSPropertyOp12
70
1
102
RTVSPropertyOp13
70
1
102
RTVSPropertyOp14
70
1
102
RTVSPropertyOp15
70
1
102
RTVSPropertyOp16
70
1
102
RTVSPropertyOp17
70
1
102
RTVSPropertyOp18
70
1
102
RTVSPropertyOp19
70
1
102
RTVSPropertyOp20
70
1
102
RTVSPropertyOp21
70
1
102
RTVSPropertyOp22
70
1
102
RTVSPropertyOp23
70
1
102
RTVSPropertyOp24
70
1
102
RTVSPropertyOp25
70
1
102
RTVSPropertyOp26
70
1
102
RTVSPropertyOp27
70
1
0
XRECORD
5
1091
102
{ACAD_REACTORS
330
1090
102
}
330
1090
100
AcDbXrecord
280
1
102
RTVSPropertyOp0
70
1
102
RTVSPropertyOp1
70
1
102
RTVSPropertyOp2
70
1
102
RTVSPropertyOp3
70
1
102
RTVSPropertyOp4
70
1
102
RTVSPropertyOp5
70
1
102
RTVSPropertyOp6
70
1
102
RTVSPropertyOp7
70
1
102
RTVSPropertyOp8
70
1
102
RTVSPropertyOp9
70
1
102
RTVSPropertyOp10
70
1
102
RTVSPropertyOp11
70
1
102
RTVSPropertyOp12
70
1
102
RTVSPropertyOp13
70
1
102
RTVSPropertyOp14
70
1
102
RTVSPropertyOp15
70
1
102
RTVSPropertyOp16
70
1
102
RTVSPropertyOp17
70
1
102
RTVSPropertyOp18
70
1
102
RTVSPropertyOp19
70
1
102
RTVSPropertyOp20
70
1
102
RTVSPropertyOp21
70
1
102
RTVSPropertyOp22
70
1
102
RTVSPropertyOp23
70
1
102
RTVSPropertyOp24
70
1
102
RTVSPropertyOp25
70
1
102
RTVSPropertyOp26
70
1
102
RTVSPropertyOp27
70
1
0
XRECORD
5
1095
102
{ACAD_REACTORS
330
1094
102
}
330
1094
100
AcDbXrecord
280
1
102
RTVSPropertyOp0
70
1
102
RTVSPropertyOp1
70
1
102
RTVSPropertyOp2
70
1
102
RTVSPropertyOp3
70
1
102
RTVSPropertyOp4
70
1
102
RTVSPropertyOp5
70
1
102
RTVSPropertyOp6
70
1
102
RTVSPropertyOp7
70
1
102
RTVSPropertyOp8
70
1
102
RTVSPropertyOp9
70
1
102
RTVSPropertyOp10
70
1
102
RTVSPropertyOp11
70
1
102
RTVSPropertyOp12
70
1
102
RTVSPropertyOp13
70
1
102
RTVSPropertyOp14
70
1
102
RTVSPropertyOp15
70
1
102
RTVSPropertyOp16
70
1
102
RTVSPropertyOp17
70
1
102
RTVSPropertyOp18
70
1
102
RTVSPropertyOp19
70
1
102
RTVSPropertyOp20
70
1
102
RTVSPropertyOp21
70
1
102
RTVSPropertyOp22
70
1
102
RTVSPropertyOp23
70
1
102
RTVSPropertyOp24
70
1
102
RTVSPropertyOp25
70
1
102
RTVSPropertyOp26
70
1
102
RTVSPropertyOp27
70
1
0
XRECORD
5
10A5
102
{ACAD_REACTORS
330
10A4
102
}
330
10A4
100
AcDbXrecord
280
1
102
RTVSPropertyOp0
70
0
102
RTVSPropertyOp1
70
0
102
RTVSPropertyOp2
70
0
102
RTVSPropertyOp3
70
0
102
RTVSPropertyOp4
70
0
102
RTVSPropertyOp5
70
0
102
RTVSPropertyOp6
70
0
102
RTVSPropertyOp7
70
0
102
RTVSPropertyOp8
70
0
102
RTVSPropertyOp9
70
0
102
RTVSPropertyOp10
70
0
102
RTVSPropertyOp11
70
0
102
RTVSPropertyOp12
70
0
102
RTVSPropertyOp13
70
0
102
RTVSPropertyOp14
70
2
102
RTVSPropertyOp15
70
0
102
RTVSPropertyOp16
70
0
102
RTVSPropertyOp17
70
0
102
RTVSPropertyOp18
70
0
102
RTVSPropertyOp19
70
0
102
RTVSPropertyOp20
70
0
102
RTVSPropertyOp21
70
0
102
RTVSPropertyOp22
70
0
102
RTVSPropertyOp23
70
0
102
RTVSPropertyOp24
70
0
102
RTVSPropertyOp25
70
0
102
RTVSPropertyOp26
70
0
102
RTVSPropertyOp27
70
0
0
XRECORD
5
109D
102
{ACAD_REACTORS
330
109C
102
}
330
109C
100
AcDbXrecord
280
1
102
RTVSPropertyOp0
70
1
102
RTVSPropertyOp1
70
1
102
RTVSPropertyOp2
70
1
102
RTVSPropertyOp3
70
1
102
RTVSPropertyOp4
70
1
102
RTVSPropertyOp5
70
1
102
RTVSPropertyOp6
70
1
102
RTVSPropertyOp7
70
1
102
RTVSPropertyOp8
70
1
102
RTVSPropertyOp9
70
1
102
RTVSPropertyOp10
70
1
102
RTVSPropertyOp11
70
1
102
RTVSPropertyOp12
70
1
102
RTVSPropertyOp13
70
1
102
RTVSPropertyOp14
70
1
102
RTVSPropertyOp15
70
1
102
RTVSPropertyOp16
70
1
102
RTVSPropertyOp17
70
1
102
RTVSPropertyOp18
70
1
102
RTVSPropertyOp19
70
1
102
RTVSPropertyOp20
70
1
102
RTVSPropertyOp21
70
1
102
RTVSPropertyOp22
70
1
102
RTVSPropertyOp23
70
1
102
RTVSPropertyOp24
70
1
102
RTVSPropertyOp25
70
1
102
RTVSPropertyOp26
70
1
102
RTVSPropertyOp27
70
1
0
XRECORD
5
1081
102
{ACAD_REACTORS
330
1080
102
}
330
1080
100
AcDbXrecord
280
1
102
RTVSPropertyOp0
70
1
102
RTVSPropertyOp1
70
1
102
RTVSPropertyOp2
70
1
102
RTVSPropertyOp3
70
1
102
RTVSPropertyOp4
70
1
102
RTVSPropertyOp5
70
1
102
RTVSPropertyOp6
70
1
102
RTVSPropertyOp7
70
1
102
RTVSPropertyOp8
70
1
102
RTVSPropertyOp9
70
1
102
RTVSPropertyOp10
70
1
102
RTVSPropertyOp11
70
1
102
RTVSPropertyOp12
70
1
102
RTVSPropertyOp13
70
1
102
RTVSPropertyOp14
70
1
102
RTVSPropertyOp15
70
1
102
RTVSPropertyOp16
70
1
102
RTVSPropertyOp17
70
1
102
RTVSPropertyOp18
70
1
102
RTVSPropertyOp19
70
1
102
RTVSPropertyOp20
70
1
102
RTVSPropertyOp21
70
1
102
RTVSPropertyOp22
70
1
102
RTVSPropertyOp23
70
1
102
RTVSPropertyOp24
70
1
102
RTVSPropertyOp25
70
1
102
RTVSPropertyOp26
70
1
102
RTVSPropertyOp27
70
1
0
XRECORD
5
1083
102
{ACAD_REACTORS
330
1082
102
}
330
1082
100
AcDbXrecord
280
1
102
RTVSPropertyOp0
70
1
102
RTVSPropertyOp1
70
1
102
RTVSPropertyOp2
70
1
102
RTVSPropertyOp3
70
1
102
RTVSPropertyOp4
70
1
102
RTVSPropertyOp5
70
1
102
RTVSPropertyOp6
70
1
102
RTVSPropertyOp7
70
1
102
RTVSPropertyOp8
70
1
102
RTVSPropertyOp9
70
1
102
RTVSPropertyOp10
70
1
102
RTVSPropertyOp11
70
1
102
RTVSPropertyOp12
70
1
102
RTVSPropertyOp13
70
1
102
RTVSPropertyOp14
70
1
102
RTVSPropertyOp15
70
1
102
RTVSPropertyOp16
70
1
102
RTVSPropertyOp17
70
1
102
RTVSPropertyOp18
70
1
102
RTVSPropertyOp19
70
1
102
RTVSPropertyOp20
70
1
102
RTVSPropertyOp21
70
1
102
RTVSPropertyOp22
70
1
102
RTVSPropertyOp23
70
1
102
RTVSPropertyOp24
70
1
102
RTVSPropertyOp25
70
1
102
RTVSPropertyOp26
70
1
102
RTVSPropertyOp27
70
1
0
XRECORD
5
1085
102
{ACAD_REACTORS
330
1084
102
}
330
1084
100
AcDbXrecord
280
1
102
RTVSPropertyOp0
70
1
102
RTVSPropertyOp1
70
1
102
RTVSPropertyOp2
70
1
102
RTVSPropertyOp3
70
1
102
RTVSPropertyOp4
70
1
102
RTVSPropertyOp5
70
1
102
RTVSPropertyOp6
70
1
102
RTVSPropertyOp7
70
1
102
RTVSPropertyOp8
70
1
102
RTVSPropertyOp9
70
1
102
RTVSPropertyOp10
70
1
102
RTVSPropertyOp11
70
1
102
RTVSPropertyOp12
70
1
102
RTVSPropertyOp13
70
1
102
RTVSPropertyOp14
70
1
102
RTVSPropertyOp15
70
1
102
RTVSPropertyOp16
70
1
102
RTVSPropertyOp17
70
1
102
RTVSPropertyOp18
70
1
102
RTVSPropertyOp19
70
1
102
RTVSPropertyOp20
70
1
102
RTVSPropertyOp21
70
1
102
RTVSPropertyOp22
70
1
102
RTVSPropertyOp23
70
1
102
RTVSPropertyOp24
70
1
102
RTVSPropertyOp25
70
1
102
RTVSPropertyOp26
70
1
102
RTVSPropertyOp27
70
1
0
XRECORD
5
1087
102
{ACAD_REACTORS
330
1086
102
}
330
1086
100
AcDbXrecord
280
1
102
RTVSPropertyOp0
70
1
102
RTVSPropertyOp1
70
1
102
RTVSPropertyOp2
70
1
102
RTVSPropertyOp3
70
1
102
RTVSPropertyOp4
70
1
102
RTVSPropertyOp5
70
1
102
RTVSPropertyOp6
70
1
102
RTVSPropertyOp7
70
1
102
RTVSPropertyOp8
70
1
102
RTVSPropertyOp9
70
1
102
RTVSPropertyOp10
70
1
102
RTVSPropertyOp11
70
1
102
RTVSPropertyOp12
70
1
102
RTVSPropertyOp13
70
1
102
RTVSPropertyOp14
70
1
102
RTVSPropertyOp15
70
1
102
RTVSPropertyOp16
70
1
102
RTVSPropertyOp17
70
1
102
RTVSPropertyOp18
70
1
102
RTVSPropertyOp19
70
1
102
RTVSPropertyOp20
70
1
102
RTVSPropertyOp21
70
1
102
RTVSPropertyOp22
70
1
102
RTVSPropertyOp23
70
1
102
RTVSPropertyOp24
70
1
102
RTVSPropertyOp25
70
1
102
RTVSPropertyOp26
70
1
102
RTVSPropertyOp27
70
1
0
XRECORD
5
10A1
102
{ACAD_REACTORS
330
10A0
102
}
330
10A0
100
AcDbXrecord
280
1
102
RTVSPropertyOp0
70
0
102
RTVSPropertyOp1
70
0
102
RTVSPropertyOp2
70
0
102
RTVSPropertyOp3
70
0
102
RTVSPropertyOp4
70
0
102
RTVSPropertyOp5
70
0
102
RTVSPropertyOp6
70
0
102
RTVSPropertyOp7
70
0
102
RTVSPropertyOp8
70
0
102
RTVSPropertyOp9
70
0
102
RTVSPropertyOp10
70
0
102
RTVSPropertyOp11
70
0
102
RTVSPropertyOp12
70
0
102
RTVSPropertyOp13
70
0
102
RTVSPropertyOp14
70
2
102
RTVSPropertyOp15
70
0
102
RTVSPropertyOp16
70
0
102
RTVSPropertyOp17
70
0
102
RTVSPropertyOp18
70
0
102
RTVSPropertyOp19
70
0
102
RTVSPropertyOp20
70
0
102
RTVSPropertyOp21
70
0
102
RTVSPropertyOp22
70
0
102
RTVSPropertyOp23
70
0
102
RTVSPropertyOp24
70
0
102
RTVSPropertyOp25
70
0
102
RTVSPropertyOp26
70
0
102
RTVSPropertyOp27
70
0
0
XRECORD
5
109B
102
{ACAD_REACTORS
330
109A
102
}
330
109A
100
AcDbXrecord
280
1
102
RTVSPropertyOp0
70
1
102
RTVSPropertyOp1
70
1
102
RTVSPropertyOp2
70
1
102
RTVSPropertyOp3
70
1
102
RTVSPropertyOp4
70
1
102
RTVSPropertyOp5
70
1
102
RTVSPropertyOp6
70
1
102
RTVSPropertyOp7
70
1
102
RTVSPropertyOp8
70
1
102
RTVSPropertyOp9
70
1
102
RTVSPropertyOp10
70
1
102
RTVSPropertyOp11
70
1
102
RTVSPropertyOp12
70
1
102
RTVSPropertyOp13
70
1
102
RTVSPropertyOp14
70
1
102
RTVSPropertyOp15
70
1
102
RTVSPropertyOp16
70
1
102
RTVSPropertyOp17
70
1
102
RTVSPropertyOp18
70
1
102
RTVSPropertyOp19
70
1
102
RTVSPropertyOp20
70
1
102
RTVSPropertyOp21
70
1
102
RTVSPropertyOp22
70
1
102
RTVSPropertyOp23
70
1
102
RTVSPropertyOp24
70
1
102
RTVSPropertyOp25
70
1
102
RTVSPropertyOp26
70
1
102
RTVSPropertyOp27
70
1
0
XRECORD
5
10A3
102
{ACAD_REACTORS
330
10A2
102
}
330
10A2
100
AcDbXrecord
280
1
102
RTVSPropertyOp0
70
0
102
RTVSPropertyOp1
70
0
102
RTVSPropertyOp2
70
0
102
RTVSPropertyOp3
70
0
102
RTVSPropertyOp4
70
0
102
RTVSPropertyOp5
70
0
102
RTVSPropertyOp6
70
0
102
RTVSPropertyOp7
70
0
102
RTVSPropertyOp8
70
0
102
RTVSPropertyOp9
70
0
102
RTVSPropertyOp10
70
0
102
RTVSPropertyOp11
70
0
102
RTVSPropertyOp12
70
0
102
RTVSPropertyOp13
70
0
102
RTVSPropertyOp14
70
2
102
RTVSPropertyOp15
70
0
102
RTVSPropertyOp16
70
0
102
RTVSPropertyOp17
70
0
102
RTVSPropertyOp18
70
0
102
RTVSPropertyOp19
70
0
102
RTVSPropertyOp20
70
0
102
RTVSPropertyOp21
70
0
102
RTVSPropertyOp22
70
0
102
RTVSPropertyOp23
70
0
102
RTVSPropertyOp24
70
0
102
RTVSPropertyOp25
70
0
102
RTVSPropertyOp26
70
0
102
RTVSPropertyOp27
70
0
0
XRECORD
5
1093
102
{ACAD_REACTORS
330
1092
102
}
330
1092
100
AcDbXrecord
280
1
102
RTVSPropertyOp0
70
1
102
RTVSPropertyOp1
70
1
102
RTVSPropertyOp2
70
1
102
RTVSPropertyOp3
70
1
102
RTVSPropertyOp4
70
1
102
RTVSPropertyOp5
70
1
102
RTVSPropertyOp6
70
1
102
RTVSPropertyOp7
70
1
102
RTVSPropertyOp8
70
1
102
RTVSPropertyOp9
70
1
102
RTVSPropertyOp10
70
1
102
RTVSPropertyOp11
70
1
102
RTVSPropertyOp12
70
1
102
RTVSPropertyOp13
70
1
102
RTVSPropertyOp14
70
1
102
RTVSPropertyOp15
70
1
102
RTVSPropertyOp16
70
1
102
RTVSPropertyOp17
70
1
102
RTVSPropertyOp18
70
1
102
RTVSPropertyOp19
70
1
102
RTVSPropertyOp20
70
1
102
RTVSPropertyOp21
70
1
102
RTVSPropertyOp22
70
1
102
RTVSPropertyOp23
70
1
102
RTVSPropertyOp24
70
1
102
RTVSPropertyOp25
70
1
102
RTVSPropertyOp26
70
1
102
RTVSPropertyOp27
70
1
0
XRECORD
5
1099
102
{ACAD_REACTORS
330
1098
102
}
330
1098
100
AcDbXrecord
280
1
102
RTVSPropertyOp0
70
1
102
RTVSPropertyOp1
70
1
102
RTVSPropertyOp2
70
1
102
RTVSPropertyOp3
70
1
102
RTVSPropertyOp4
70
1
102
RTVSPropertyOp5
70
1
102
RTVSPropertyOp6
70
1
102
RTVSPropertyOp7
70
1
102
RTVSPropertyOp8
70
1
102
RTVSPropertyOp9
70
1
102
RTVSPropertyOp10
70
1
102
RTVSPropertyOp11
70
1
102
RTVSPropertyOp12
70
1
102
RTVSPropertyOp13
70
1
102
RTVSPropertyOp14
70
1
102
RTVSPropertyOp15
70
1
102
RTVSPropertyOp16
70
1
102
RTVSPropertyOp17
70
1
102
RTVSPropertyOp18
70
1
102
RTVSPropertyOp19
70
1
102
RTVSPropertyOp20
70
1
102
RTVSPropertyOp21
70
1
102
RTVSPropertyOp22
70
1
102
RTVSPropertyOp23
70
1
102
RTVSPropertyOp24
70
1
102
RTVSPropertyOp25
70
1
102
RTVSPropertyOp26
70
1
102
RTVSPropertyOp27
70
1
0
ENDSEC
0
EOF
