0
SECTION
2
HEADER
9
$ACADVER
1
AC1015
9
$ACADMAINTVER
70
20
9
$DWGCODEPAGE
3
ANSI_1252
9
$INSBASE
10
0.0
20
0.0
30
0.0
9
$EXTMIN
10
-150.000000000000
20
-105.000000000000
30
0.0
9
$EXTMAX
10
150.000000000000
20
105.000000000000
30
0.0
9
$LIMMIN
10
0.0
20
0.0
9
$LIMMAX
10
12.0
20
9.0
9
$ORTHOMODE
70
0
9
$REGENMODE
70
1
9
$FILLMODE
70
1
9
$QTEXTMODE
70
0
9
$MIRRTEXT
70
1
9
$LTSCALE
40
1.0
9
$ATTMODE
70
1
9
$TEXTSIZE
40
0.2
9
$TRACEWID
40
0.05
9
$TEXTSTYLE
7
Standard
9
$CLAYER
8
0
9
$CELTYPE
6
ByLayer
9
$CECOLOR
62
256
9
$CELTSCALE
40
1.0
9
$DISPSILH
70
0
9
$DIMSCALE
40
1.0
9
$DIMASZ
40
2.5
9
$DIMEXO
40
0.625
9
$DIMDLI
40
0.38
9
$DIMRND
40
0.0
9
$DIMDLE
40
0.0
9
$DIMEXE
40
1.25
9
$DIMTP
40
0.0
9
$DIMTM
40
0.000000001
9
$DIMTXT
40
2.5
9
$DIMCEN
40
0.09
9
$DIMTSZ
40
0.0
9
$DIMTOL
70
1
9
$DIMLIM
70
0
9
$DIMTIH
70
0
9
$DIMTOH
70
0
9
$DIMSE1
70
0
9
$DIMSE2
70
0
9
$DIMTAD
70
1
9
$DIMZIN
70
0
9
$DIMBLK
1
VDDIM_DEFAULT
9
$DIMASO
70
1
9
$DIMSHO
70
1
9
$DIMPOST
1

9
$DIMAPOST
1

9
$DIMALT
70
0
9
$DIMALTD
70
2
9
$DIMALTF
40
25.4
9
$DIMLFAC
40
1.00000000000000
9
$DIMTOFL
70
0
9
$DIMTVP
40
0.0
9
$DIMTIX
70
0
9
$DIMSOXD
70
0
9
$DIMSAH
70
0
9
$DIMBLK1
1

9
$DIMBLK2
1

9
$DIMSTYLE
2
BEM-ISBE
9
$DIMCLRD
70
0
9
$DIMCLRE
70
0
9
$DIMCLRT
70
0
9
$DIMTFAC
40
0.5
9
$DIMGAP
40
0.625
9
$DIMJUST
70
0
9
$DIMSD1
70
0
9
$DIMSD2
70
0
9
$DIMTOLJ
70
1
9
$DIMTZIN
70
0
9
$DIMALTZ
70
0
9
$DIMALTTZ
70
0
9
$DIMUPT
70
0
9
$DIMDEC
70
3
9
$DIMTDEC
70
3
9
$DIMALTU
70
2
9
$DIMALTTD
70
2
9
$DIMTXSTY
7
Standard
9
$DIMAUNIT
70
0
9
$DIMADEC
70
3
9
$DIMALTRND
40
0.0
9
$DIMAZIN
70
0
9
$DIMDSEP
70
46
9
$DIMATFIT
70
3
9
$DIMFRAC
70
0
9
$DIMLDRBLK
1

9
$DIMLUNIT
70
2
9
$DIMLWD
70
-2
9
$DIMLWE
70
-2
9
$DIMTMOVE
70
0
9
$LUNITS
70
2
9
$LUPREC
70
4
9
$SKETCHINC
40
0.1
9
$FILLETRAD
40
0.5
9
$AUNITS
70
0
9
$AUPREC
70
0
9
$MENU
1
.
9
$ELEVATION
40
0.0
9
$PELEVATION
40
0.0
9
$THICKNESS
40
0.0
9
$LIMCHECK
70
0
9
$CHAMFERA
40
0.5
9
$CHAMFERB
40
0.5
9
$CHAMFERC
40
1.0
9
$CHAMFERD
40
0.0
9
$SKPOLY
70
0
9
$TDCREATE
40
0.0
9
$TDUCREATE
40
0.0
9
$TDUPDATE
40
0.0
9
$TDUUPDATE
40
0.0
9
$TDINDWG
40
0.0
9
$TDUSRTIMER
40
0.0
9
$USRTIMER
70
1
9
$ANGBASE
50
0.0
9
$ANGDIR
70
0
9
$PDMODE
70
0
9
$PDSIZE
40
0.0
9
$PLINEWID
40
0.0
9
$SPLFRAME
70
0
9
$SPLINETYPE
70
6
9
$SPLINESEGS
70
8
9
$HANDSEED
5
10AB
9
$SURFTAB1
70
6
9
$SURFTAB2
70
6
9
$SURFTYPE
70
6
9
$SURFU
70
6
9
$SURFV
70
6
9
$UCSBASE
2

9
$UCSNAME
2

9
$UCSORG
10
0.0
20
0.0
30
0.0
9
$UCSXDIR
10
1.0
20
0.0
30
0.0
9
$UCSYDIR
10
0.0
20
1.0
30
0.0
9
$UCSORTHOREF
2

9
$UCSORTHOVIEW
70
0
9
$UCSORGTOP
10
0.0
20
0.0
30
0.0
9
$UCSORGBOTTOM
10
0.0
20
0.0
30
0.0
9
$UCSORGLEFT
10
0.0
20
0.0
30
0.0
9
$UCSORGRIGHT
10
0.0
20
0.0
30
0.0
9
$UCSORGFRONT
10
0.0
20
0.0
30
0.0
9
$UCSORGBACK
10
0.0
20
0.0
30
0.0
9
$PUCSBASE
2

9
$PUCSNAME
2

9
$PUCSORG
10
0.0
20
0.0
30
0.0
9
$PUCSXDIR
10
1.0
20
0.0
30
0.0
9
$PUCSYDIR
10
0.0
20
1.0
30
0.0
9
$PUCSORTHOREF
2

9
$PUCSORTHOVIEW
70
0
9
$PUCSORGTOP
10
0.0
20
0.0
30
0.0
9
$PUCSORGBOTTOM
10
0.0
20
0.0
30
0.0
9
$PUCSORGLEFT
10
0.0
20
0.0
30
0.0
9
$PUCSORGRIGHT
10
0.0
20
0.0
30
0.0
9
$PUCSORGFRONT
10
0.0
20
0.0
30
0.0
9
$PUCSORGBACK
10
0.0
20
0.0
30
0.0
9
$USERI1
70
0
9
$USERI2
70
0
9
$USERI3
70
0
9
$USERI4
70
0
9
$USERI5
70
0
9
$USERR1
40
0.0
9
$USERR2
40
0.0
9
$USERR3
40
0.0
9
$USERR4
40
0.0
9
$USERR5
40
0.0
9
$WORLDVIEW
70
1
9
$SHADEDGE
70
3
9
$SHADEDIF
70
70
9
$TILEMODE
70
1
9
$MAXACTVP
70
64
9
$PINSBASE
10
0.0
20
0.0
30
0.0
9
$PLIMCHECK
70
0
9
$PEXTMIN
10
1.000000000000000E+20
20
1.000000000000000E+20
30
1.000000000000000E+20
9
$PEXTMAX
10
-1.000000000000000E+20
20
-1.000000000000000E+20
30
-1.000000000000000E+20
9
$PLIMMIN
10
0.0
20
0.0
9
$PLIMMAX
10
12.0
20
9.0
9
$UNITMODE
70
0
9
$VISRETAIN
70
1
9
$PLINEGEN
70
0
9
$PSLTSCALE
70
1
9
$TREEDEPTH
70
3020
9
$CMLSTYLE
2
Standard
9
$CMLJUST
70
0
9
$CMLSCALE
40
1.0
9
$PROXYGRAPHICS
70
1
9
$MEASUREMENT
70
0
9
$CELWEIGHT
370
-1
9
$ENDCAPS
280
0
9
$JOINSTYLE
280
0
9
$LWDISPLAY
290
0
9
$INSUNITS
70
4
9
$HYPERLINKBASE
1

9
$STYLESHEET
1

9
$XEDIT
290
1
9
$CEPSNTYPE
380
0
9
$PSTYLEMODE
290
0
9
$FINGERPRINTGUID
2
{FAEB1C30-E019-11D5-929B-00C0DF256EC4}
9
$VERSIONGUID
2
{04C5C4E4-4947-4D90-8812-D401569E61F7}
9
$EXTNAMES
290
1
9
$PSVPSCALE
40
0.0
9
$OLESTARTUP
290
0
0
ENDSEC
0
SECTION
2
CLASSES
0
CLASS
1
ACDBDICTIONARYWDFLT
2
AcDbDictionaryWithDefault
3
ObjectDBX Classes
90
0
280
0
281
0
0
CLASS
1
ACDBPLACEHOLDER
2
AcDbPlaceHolder
3
ObjectDBX Classes
90
0
280
0
281
0
0
CLASS
1
LAYOUT
2
AcDbLayout
3
ObjectDBX Classes
90
0
280
0
281
0
0
CLASS
1
MATERIAL
2
AcDbMaterial
3
ObjectDBX Classes
90
1153
280
0
281
0
0
CLASS
1
VISUALSTYLE
2
AcDbVisualStyle
3
ObjectDBX Classes
90
4095
280
0
281
0
0
CLASS
1
TABLESTYLE
2
AcDbTableStyle
3
ObjectDBX Classes
90
4095
280
0
281
0
0
CLASS
1
SCALE
2
AcDbScale
3
ObjectDBX Classes
90
1153
280
0
281
0
0
CLASS
1
MLEADERSTYLE
2
AcDbMLeaderStyle
3
ACDB_MLEADERSTYLE_CLASS
90
4095
280
0
281
0
0
CLASS
1
DICTIONARYVAR
2
AcDbDictionaryVar
3
ObjectDBX Classes
90
0
280
0
281
0
0
CLASS
1
CELLSTYLEMAP
2
AcDbCellStyleMap
3
ObjectDBX Classes
90
1152
280
0
281
0
0
ENDSEC
0
SECTION
2
TABLES
0
TABLE
2
VPORT
5
24A
330
0
100
AcDbSymbolTable
70
1
0
VPORT
5
26B
330
24A
100
AcDbSymbolTableRecord
100
AcDbViewportTableRecord
2
*Active
70
0
10
0.0
20
0.0
11
1.0
21
1.0
12
0.000000000000000
22
0.000000000000000
13
0.0
23
0.0
14
10.0
24
10.0
15
10.0
25
10.0
16
0.0
26
0.0
36
1.0
17
0.0
27
0.0
37
0.0
40
210.000000000000
41
1.42857142857143
42
1.0
43
0.0
44
0.0
50
0.0
51
0.0000000000007958
71
0
72
100
73
1
74
3
75
0
76
0
77
0
78
1
281
0
65
1
110
0.0
120
0.0
130
0.0
111
1.0
121
0.0
131
0.0
112
0.0
122
1.0
132
0.0
79
0
146
0.0
0
ENDTAB
0
TABLE
2
LTYPE
5
247
330
0
100
AcDbSymbolTable
70
25
0
LTYPE
5
256
330
247
100
AcDbSymbolTableRecord
100
AcDbLinetypeTableRecord
2
ByBlock
70
0
3

72
65
73
0
40
0.0
0
LTYPE
5
257
330
247
100
AcDbSymbolTableRecord
100
AcDbLinetypeTableRecord
2
ByLayer
70
0
3

72
65
73
0
40
0.0
0
LTYPE
5
258
330
247
100
AcDbSymbolTableRecord
100
AcDbLinetypeTableRecord
2
Continuous
70
0
3
Solid line
72
65
73
0
40
0.0
0
LTYPE
5
273
330
247
100
AcDbSymbolTableRecord
100
AcDbLinetypeTableRecord
2
CENTER
70
0
3
Center ____ _ ____ _ ____ _ ____ _ ____ _ ____
72
65
73
4
40
2.0
49
1.25
74
0
49
-0.25
74
0
49
0.25
74
0
49
-0.25
74
0
0
LTYPE
5
274
330
247
100
AcDbSymbolTableRecord
100
AcDbLinetypeTableRecord
2
DASHDOT
70
0
3
Dashdot __ . __ . __ . __ . __ . __ . __ . __
72
65
73
4
40
1.0
49
0.5
74
0
49
-0.25
74
0
49
0.0
74
0
49
-0.25
74
0
0
LTYPE
5
275
330
247
100
AcDbSymbolTableRecord
100
AcDbLinetypeTableRecord
2
DASHED
70
0
3
Dashed __ __ __ __ __ __ __ __ __ __ __ __ __ _
72
65
73
2
40
0.75
49
0.5
74
0
49
-0.25
74
0
0
LTYPE
5
276
330
247
100
AcDbSymbolTableRecord
100
AcDbLinetypeTableRecord
2
HIDDEN
70
0
3
Hidden __ __ __ __ __ __ __ __ __ __ __ __ __ __
72
65
73
2
40
0.375
49
0.25
74
0
49
-0.125
74
0
0
LTYPE
5
277
330
247
100
AcDbSymbolTableRecord
100
AcDbLinetypeTableRecord
2
HIDDEN2
70
0
3
Hidden2 _ _ _ _ _ _ _ _ _ _ _ _ _ _ _ _ _
72
65
73
2
40
0.1875
49
0.125
74
0
49
-0.0625
74
0
0
LTYPE
5
278
330
247
100
AcDbSymbolTableRecord
100
AcDbLinetypeTableRecord
2
BORDER
70
0
3
Border __ __ . __ __ . __ __ . __ __ . __ __ .
72
65
73
6
40
1.75
49
0.5
74
0
49
-0.25
74
0
49
0.5
74
0
49
-0.25
74
0
49
0.0
74
0
49
-0.25
74
0
0
LTYPE
5
279
330
247
100
AcDbSymbolTableRecord
100
AcDbLinetypeTableRecord
2
BORDER2
70
0
3
Border2 __.__.__.__.__.__.__.__.__.__.__.
72
65
73
6
40
0.875
49
0.25
74
0
49
-0.125
74
0
49
0.25
74
0
49
-0.125
74
0
49
0.0
74
0
49
-0.125
74
0
0
LTYPE
5
27A
330
247
100
AcDbSymbolTableRecord
100
AcDbLinetypeTableRecord
2
BORDERX2
70
0
3
Borderx2  ____  ____  .  ____  ____  .  ___
72
65
73
6
40
3.5
49
1.0
74
0
49
-0.5
74
0
49
1.0
74
0
49
-0.5
74
0
49
0.0
74
0
49
-0.5
74
0
0
LTYPE
5
27B
330
247
100
AcDbSymbolTableRecord
100
AcDbLinetypeTableRecord
2
CENTER2
70
0
3
Center2  ___ _ ___ _ ___ _ ___ _ ___ _ ___
72
65
73
4
40
1.125
49
0.75
74
0
49
-0.125
74
0
49
0.125
74
0
49
-0.125
74
0
0
LTYPE
5
27C
330
247
100
AcDbSymbolTableRecord
100
AcDbLinetypeTableRecord
2
CENTERX2
70
0
3
Centerx2  ________  __  ________  __  _____
72
65
73
4
40
4.0
49
2.5
74
0
49
-0.5
74
0
49
0.5
74
0
49
-0.5
74
0
0
LTYPE
5
27D
330
247
100
AcDbSymbolTableRecord
100
AcDbLinetypeTableRecord
2
DASHDOT2
70
0
3
Dashdot2  _._._._._._._._._._._._._._._.
72
65
73
4
40
0.5
49
0.25
74
0
49
-0.125
74
0
49
0.0
74
0
49
-0.125
74
0
0
LTYPE
5
27E
330
247
100
AcDbSymbolTableRecord
100
AcDbLinetypeTableRecord
2
DASHDOTX2
70
0
3
Dashdotx2 ____  .  ____  .  ____  .  ___
72
65
73
4
40
2.0
49
1.0
74
0
49
-0.5
74
0
49
0.0
74
0
49
-0.5
74
0
0
LTYPE
5
27F
330
247
100
AcDbSymbolTableRecord
100
AcDbLinetypeTableRecord
2
DASHED2
70
0
3
Dashed2 _ _ _ _ _ _ _ _ _ _ _ _ _ _ _ _ _
72
65
73
2
40
0.375
49
0.25
74
0
49
-0.125
74
0
0
LTYPE
5
280
330
247
100
AcDbSymbolTableRecord
100
AcDbLinetypeTableRecord
2
DASHEDX2
70
0
3
Dashedx2 ____  ____  ____  ____  ____  ___
72
65
73
2
40
1.5
49
1.0
74
0
49
-0.5
74
0
0
LTYPE
5
281
330
247
100
AcDbSymbolTableRecord
100
AcDbLinetypeTableRecord
2
DIVIDE
70
0
3
Divide ____ . . ____ . . ____ . . ____ . . ____
72
65
73
6
40
1.25
49
0.5
74
0
49
-0.25
74
0
49
0.0
74
0
49
-0.25
74
0
49
0.0
74
0
49
-0.25
74
0
0
LTYPE
5
282
330
247
100
AcDbSymbolTableRecord
100
AcDbLinetypeTableRecord
2
DIVIDE2
70
0
3
Divide2 __..__..__..__..__..__..__..__.._
72
65
73
6
40
0.625
49
0.25
74
0
49
-0.125
74
0
49
0.0
74
0
49
-0.125
74
0
49
0.0
74
0
49
-0.125
74
0
0
LTYPE
5
283
330
247
100
AcDbSymbolTableRecord
100
AcDbLinetypeTableRecord
2
DIVIDEX2
70
0
3
Dividex2 ________  .  .  ________  .  .  _
72
65
73
6
40
2.5
49
1.0
74
0
49
-0.5
74
0
49
0.0
74
0
49
-0.5
74
0
49
0.0
74
0
49
-0.5
74
0
0
LTYPE
5
284
330
247
100
AcDbSymbolTableRecord
100
AcDbLinetypeTableRecord
2
DOT
70
0
3
Dot . . . . . . . . . . . . . . . . . . . . . . . .
72
65
73
2
40
0.25
49
0.0
74
0
49
-0.25
74
0
0
LTYPE
5
285
330
247
100
AcDbSymbolTableRecord
100
AcDbLinetypeTableRecord
2
DOT2
70
0
3
Dot2 ........................................
72
65
73
2
40
0.125
49
0.0
74
0
49
-0.125
74
0
0
LTYPE
5
286
330
247
100
AcDbSymbolTableRecord
100
AcDbLinetypeTableRecord
2
DOTX2
70
0
3
Dotx2 .  .  .  .  .  .  .  .  .  .  .  .  .  .
72
65
73
2
40
0.5
49
0.0
74
0
49
-0.5
74
0
0
LTYPE
5
287
330
247
100
AcDbSymbolTableRecord
100
AcDbLinetypeTableRecord
2
HIDDENX2
70
0
3
Hiddenx2 ____ ____ ____ ____ ____ ____ ____
72
65
73
2
40
0.75
49
0.5
74
0
49
-0.25
74
0
0
LTYPE
5
288
330
247
100
AcDbSymbolTableRecord
100
AcDbLinetypeTableRecord
2
PHANTOM
70
0
3
Phantom ______  __  __  ______  __  __  ______
72
65
73
6
40
2.5
49
1.25
74
0
49
-0.25
74
0
49
0.25
74
0
49
-0.25
74
0
49
0.25
74
0
49
-0.25
74
0
0
LTYPE
5
289
330
247
100
AcDbSymbolTableRecord
100
AcDbLinetypeTableRecord
2
PHANTOM2
70
0
3
Phantom2 ___ _ _ ___ _ _ ___ _ _ ___ _ _
72
65
73
6
40
1.25
49
0.625
74
0
49
-0.125
74
0
49
0.125
74
0
49
-0.125
74
0
49
0.125
74
0
49
-0.125
74
0
0
LTYPE
5
28A
330
247
100
AcDbSymbolTableRecord
100
AcDbLinetypeTableRecord
2
PHANTOMX2
70
0
3
Phantomx2 ____________    ____    ____   _
72
65
73
6
40
5.0
49
2.5
74
0
49
-0.5
74
0
49
0.5
74
0
49
-0.5
74
0
49
0.5
74
0
49
-0.5
74
0
0
ENDTAB
0
TABLE
2
LAYER
5
244
330
0
100
AcDbSymbolTable
70
6
0
LAYER
5
252
330
244
100
AcDbSymbolTableRecord
100
AcDbLayerTableRecord
2
0
70
0
62
7
6
Continuous
370
0
390
251
0
LAYER
5
23F
330
244
100
AcDbSymbolTableRecord
100
AcDbLayerTableRecord
2
Bemassung
70
0
 62
   7
6
Continuous
370
0
390
251
0
LAYER
5
240
330
244
100
AcDbSymbolTableRecord
100
AcDbLayerTableRecord
2
Rahmen
70
0
 62
   7
6
Continuous
370
0
390
251
0
LAYER
5
241
330
244
100
AcDbSymbolTableRecord
100
AcDbLayerTableRecord
2
Geo
70
0
 62
   7
6
Continuous
370
0
390
251
0
LAYER
5
33A
330
244
100
AcDbSymbolTableRecord
100
AcDbLayerTableRecord
2
Defpoints
70
0
62
7
6
Continuous
290
0
370
-3
390
251
0
LAYER
5
57E
330
244
100
AcDbSymbolTableRecord
100
AcDbLayerTableRecord
2
Text
70
0
 62
   7
6
Continuous
370
0
390
251
1001
AcAecLayerStandard
1000

1000

0
ENDTAB
0
TABLE
2
STYLE
5
245
330
0
100
AcDbSymbolTable
70
2
0
STYLE
5
253
330
245
100
AcDbSymbolTableRecord
100
AcDbTextStyleTableRecord
2
Standard
70
0
40
0.0
41
1.0
50
0.0
71
0
42
0.2
3
Arial
4

1001
ACAD
1000
Arial
1071
0
0
STYLE
5
132
330
245
100
AcDbSymbolTableRecord
100
AcDbTextStyleTableRecord
2
Beschriftung
70
0
40
0.0
41
1.0
50
0.0
71
0
42
0.2
3
Arial
4

1001
ACAD
1000
Arial
1071
0
1001
AcadAnnotative
1000
AnnotativeData
1070
1
1070
1
0
ENDTAB
0
TABLE
2
VIEW
5
248
330
0
100
AcDbSymbolTable
70
0
0
ENDTAB
0
TABLE
2
UCS
5
249
330
0
100
AcDbSymbolTable
70
0
0
ENDTAB
0
TABLE
2
APPID
5
24B
330
0
100
AcDbSymbolTable
70
13
0
APPID
5
254
330
24B
100
AcDbSymbolTableRecord
100
AcDbRegAppTableRecord
2
ACAD
70
0
0
APPID
5
26C
330
24B
100
AcDbSymbolTableRecord
100
AcDbRegAppTableRecord
2
VD_INVISIBLE_NOT_FOR_READ
70
0
0
APPID
5
26D
330
24B
100
AcDbSymbolTableRecord
100
AcDbRegAppTableRecord
2
VD_TEMPHATCH
70
0
0
APPID
5
26E
330
24B
100
AcDbSymbolTableRecord
100
AcDbRegAppTableRecord
2
VDEXTRAPARAM
70
0
0
APPID
5
26F
330
24B
100
AcDbSymbolTableRecord
100
AcDbRegAppTableRecord
2
PE_URL
70
0
0
APPID
5
270
330
24B
100
AcDbSymbolTableRecord
100
AcDbRegAppTableRecord
2
VD_UNKNOWN
70
0
0
APPID
5
28F
330
24B
100
AcDbSymbolTableRecord
100
AcDbRegAppTableRecord
2
AcadAnnotative
70
0
0
APPID
5
290
330
24B
100
AcDbSymbolTableRecord
100
AcDbRegAppTableRecord
2
ACAD_DSTYLE_DIMJAG
70
0
0
APPID
5
291
330
24B
100
AcDbSymbolTableRecord
100
AcDbRegAppTableRecord
2
ACAD_DSTYLE_DIMTALN
70
0
0
APPID
5
293
330
24B
100
AcDbSymbolTableRecord
100
AcDbRegAppTableRecord
2
ACAD_PSEXT
70
0
0
APPID
5
42A
330
24B
100
AcDbSymbolTableRecord
100
AcDbRegAppTableRecord
2
ACAD_MLEADERVER
70
0
0
APPID
5
532
330
24B
100
AcDbSymbolTableRecord
100
AcDbRegAppTableRecord
2
ACAD_EXEMPT_FROM_CAD_STANDARDS
70
0
0
APPID
5
57F
330
24B
100
AcDbSymbolTableRecord
100
AcDbRegAppTableRecord
2
AcAecLayerStandard
70
0
0
ENDTAB
0
TABLE
2
DIMSTYLE
5
24C
330
0
100
AcDbSymbolTable
70
3
100
AcDbDimStyleTable
71
2
340
27
340
269
0
DIMSTYLE
105
269
330
24C
100
AcDbSymbolTableRecord
100
AcDbDimStyleTableRecord
2
Standard
70
0
172
1
174
1
288
1
340
253
342
23C
0
DIMSTYLE
105
137
330
24C
100
AcDbSymbolTableRecord
100
AcDbDimStyleTableRecord
2
Beschriftung
70
0
41
2.5
42
0.625
44
1.25
73
0
74
0
77
1
140
2.5
147
0.625
172
1
174
1
271
2
288
1
340
253
342
23C
1001
AcadAnnotative
1000
AnnotativeData
1070
1
1070
1
1001
ACAD_DSTYLE_DIMJAG
1070
388
1040
1.5
1001
ACAD_DSTYLE_DIMTALN
1070
392
1070
0
0
DIMSTYLE
105
27
102
{ACAD_REACTORS
330
F10008
330
F1000D
330
F10003
330
F10012
102
}
330
24C
100
AcDbSymbolTableRecord
100
AcDbDimStyleTableRecord
2
BEM-ISBE
70
0
41
2.5
42
0.625
44
1.25
48
0.000000001
71
1
73
0
74
0
77
1
140
2.5
144
1.00000000000000
146
0.5
147
0.625
171
 3
172
 1
179
 3
271
 3
272
 3
274
 3
340
253
342
23C
1001
ACAD_DSTYLE_DIMJAG
1070
388
1040
1.5
1001
ACAD_DSTYLE_DIMTALN
1070
392
1070
1
0
ENDTAB
0
TABLE
2
BLOCK_RECORD
5
243
330
0
100
AcDbSymbolTable
70
5
0
BLOCK_RECORD
5
261
330
243
100
AcDbSymbolTableRecord
100
AcDbBlockTableRecord
2
*Model_Space
340
FD0
0
BLOCK_RECORD
5
25D
330
243
100
AcDbSymbolTableRecord
100
AcDbBlockTableRecord
2
*Paper_Space
340
FD1
0
BLOCK_RECORD
5
265
330
243
100
AcDbSymbolTableRecord
100
AcDbBlockTableRecord
2
*Paper_Space0
340
0
0
BLOCK_RECORD
5
23C
330
243
100
AcDbSymbolTableRecord
100
AcDbBlockTableRecord
2
VDDIM_DEFAULT
340
0
102
{BLKREFS
102
}
0
BLOCK_RECORD
5
23E
330
243
100
AcDbSymbolTableRecord
100
AcDbBlockTableRecord
2
VDDIM_NONE
340
0
0
BLOCK_RECORD
5
F10007
330
243
100
AcDbSymbolTableRecord
100
AcDbBlockTableRecord
2
*D4
340
0
0
BLOCK_RECORD
5
F1000C
330
243
100
AcDbSymbolTableRecord
100
AcDbBlockTableRecord
2
*D5
340
0
0
BLOCK_RECORD
5
F10002
330
243
100
AcDbSymbolTableRecord
100
AcDbBlockTableRecord
2
*D3
340
0
0
BLOCK_RECORD
5
F10011
330
243
100
AcDbSymbolTableRecord
100
AcDbBlockTableRecord
2
*D6
340
0
0
ENDTAB
0
ENDSEC
0
SECTION
2
BLOCKS
0
BLOCK
5
262
330
261
100
AcDbEntity
8
0
100
AcDbBlockBegin
2
*Model_Space
70
0
10
0.0
20
0.0
30
0.0
3
*Model_Space
1

0
ENDBLK
5
263
330
261
100
AcDbEntity
8
0
100
AcDbBlockEnd
0
BLOCK
5
25E
330
25D
100
AcDbEntity
67
1
8
0
100
AcDbBlockBegin
2
*Paper_Space
70
0
10
0.0
20
0.0
30
0.0
3
*Paper_Space
1

0
ENDBLK
5
25F
330
25D
100
AcDbEntity
67
1
8
0
100
AcDbBlockEnd
0
BLOCK
5
266
330
265
100
AcDbEntity
8
0
100
AcDbBlockBegin
2
*Paper_Space0
70
0
10
0.0
20
0.0
30
0.0
3
*Paper_Space0
1

0
VIEWPORT
5
296
102
{ACAD_XDICTIONARY
360
58E
102
}
330
265
100
AcDbEntity
8
0
60
1
100
AcDbViewport
10
0.0
20
0.0
30
0.0
40
10.0
41
10.0
69
0
12
0.0
22
0.0
13
0.0
23
0.0
14
1.0
24
1.0
15
0.0
25
0.0
16
0.0
26
0.0
36
1.0
17
0.0
27
0.0
37
0.0
42
0.0
43
0.0
44
0.0
45
10.0
50
0.0
51
0.0000000000007958
72
100
90
163872
1

281
0
71
0
74
0
110
0.0
120
0.0
130
0.0
111
1.0
121
0.0
131
0.0
112
0.0
122
1.0
132
0.0
79
0
146
0.0
1001
VD_INVISIBLE_NOT_FOR_READ
1000
VD_INVISIBLE_NOT_FOR_READ
0
VIEWPORT
5
297
102
{ACAD_XDICTIONARY
360
590
102
}
330
265
100
AcDbEntity
8
0
60
1
100
AcDbViewport
10
0.0
20
0.0
30
0.0
40
10.0
41
10.0
69
0
12
0.0
22
0.0
13
0.0
23
0.0
14
1.0
24
1.0
15
0.0
25
0.0
16
0.0
26
0.0
36
1.0
17
0.0
27
0.0
37
0.0
42
0.0
43
0.0
44
0.0
45
10.0
50
0.0
51
0.0000000000007958
72
100
90
163872
1

281
0
71
0
74
0
110
0.0
120
0.0
130
0.0
111
1.0
121
0.0
131
0.0
112
0.0
122
1.0
132
0.0
79
0
146
0.0
1001
VD_INVISIBLE_NOT_FOR_READ
1000
VD_INVISIBLE_NOT_FOR_READ
0
ENDBLK
5
267
330
265
100
AcDbEntity
8
0
100
AcDbBlockEnd
0
BLOCK
5
28B
330
23C
100
AcDbEntity
8
0
100
AcDbBlockBegin
2
VDDIM_DEFAULT
70
0
10
0.0
20
0.0
30
0.0
3
VDDIM_DEFAULT
1

0
LWPOLYLINE
5
23D
330
23C
100
AcDbEntity
8
0
6
Continuous
62
0
100
AcDbPolyline
90
4
70
0
43
0.0
10
0.0
20
0.0
10
-1.0
20
-0.1665
10
-1.0
20
0.1665
10
0.0
20
0.0
1001
VDEXTRAPARAM
1071
1
1071
0
1071
0
1040
1.0
1000

1000

1040
0.0
1040
0.0
0
HATCH
5
292
330
23C
100
AcDbEntity
8
0
6
Continuous
62
0
100
AcDbHatch
10
0.0
20
0.0
30
0.0
210
0.0
220
0.0
230
1.0
2
SOLID
70
1
71
0
91
1
92
2
72
0
73
1
93
3
10
0.0
20
0.0
10
-1.0
20
-0.1665
10
-1.0
20
0.1665
97
0
75
0
76
1
98
1
10
0.0
20
0.0
1001
VDEXTRAPARAM
1071
1
1071
0
1071
0
1040
1.0
1000

1000

1040
0.0
1040
0.0
1001
VD_TEMPHATCH
1000
VD_TEMPHATCH
0
ENDBLK
5
28C
330
23C
100
AcDbEntity
8
0
100
AcDbBlockEnd
0
BLOCK
5
28D
330
23E
100
AcDbEntity
8
0
100
AcDbBlockBegin
2
VDDIM_NONE
70
0
10
0.0
20
0.0
30
0.0
3
VDDIM_NONE
1

0
ENDBLK
5
28E
330
23E
100
AcDbEntity
8
0
100
AcDbBlockEnd
  0
BLOCK
  5
F10016
330
F10007
100
AcDbEntity
  8
0
100
AcDbBlockBegin
  2
*D4
 70
     1
 10
0.0
 20
0.0
 30
0.0
  3
*D4
  1

  0
LINE
  5
F10017
330
F10007
100
AcDbEntity
  8
Bemassung
 62
     0
370
    -2
100
AcDbLine
10
-20.7209436133487
20
-6.82508630609895
30
0.000000000000000
11
-20.7209436133487
21
-13.8250863060990
31
0.000000000000000
  0
LINE
  5
F10018
330
F10007
100
AcDbEntity
  8
Bemassung
 62
     0
370
    -2
100
AcDbLine
10
-40.7209436133487
20
-13.8250863060990
30
0.000000000000000
11
-40.7209436133487
21
23.1749136939010
31
0.000000000000000
  0
LINE
  5
F10019
330
F10007
100
AcDbEntity
  8
Bemassung
 62
     0
370
    -2
100
AcDbLine
10
-20.7209436133487
20
-11.8250863060990
30
0.000000000000000
11
-40.7209436133487
21
-11.8250863060990
31
0.000000000000000
  0
INSERT
  5
F1001A
330
F10007
100
AcDbEntity
  8
Bemassung
 62
     0
370
    -2
100
AcDbBlockReference
  2
VDDIM_DEFAULT
10
-20.7209436133487
20
-11.8250863060990
30
0.000000000000000
 41
2.50000000000000
 42
2.50000000000000
 43
2.50000000000000
  0
INSERT
  5
F1001B
330
F10007
100
AcDbEntity
  8
Bemassung
 62
     0
370
    -2
100
AcDbBlockReference
  2
VDDIM_DEFAULT
10
-40.7209436133487
20
-11.8250863060990
30
0.000000000000000
 41
2.50000000000000
 42
2.50000000000000
 43
2.50000000000000
 50
180.000000000000
  0
MTEXT
  5
F1001C
330
F10007
100
AcDbEntity
  8
Bemassung
 62
     0
100
AcDbMText
10
-30.7209436133487
20
-11.1584196394323
30
0.000000000000000
 40
2.50000000000000
 41
0.0
 71
     8
 72
     1
  1
20
 11
1.00000000000000
 21
0.000000000000000
 31
0.0
 73
     1
 44
1.0
1001
ACAD
1000
MTEXTBEGIN
1070
73
1070
1
1070
44
1040
1.0
1070
74
1070
0
1000
MTEXTEND
  0
POINT
  5
F1001D
330
F10007
100
AcDbEntity
  8
Bemassung
 62
     0
100
AcDbPoint
10
-20.7209436133487
20
-6.82508630609895
30
0.000000000000000
  0
POINT
  5
F1001E
330
F10007
100
AcDbEntity
  8
Bemassung
 62
     0
100
AcDbPoint
10
-40.7209436133487
20
-13.8250863060990
30
0.000000000000000
  0
ENDBLK
  5
F1001F
330
F10007
100
AcDbEntity
  8
0
100
AcDbBlockEnd
  0
BLOCK
  5
F10020
330
F1000C
100
AcDbEntity
  8
0
100
AcDbBlockBegin
  2
*D5
 70
     1
 10
0.0
 20
0.0
 30
0.0
  3
*D5
  1

  0
LINE
  5
F10021
330
F1000C
100
AcDbEntity
  8
Bemassung
 62
     0
370
    -2
100
AcDbLine
10
42.2790563866513
20
10.1749136939010
30
0.000000000000000
11
42.2790563866513
21
23.1749136939010
31
0.000000000000000
  0
LINE
  5
F10022
330
F1000C
100
AcDbEntity
  8
Bemassung
 62
     0
370
    -2
100
AcDbLine
10
-40.7209436133487
20
-13.8250863060990
30
0.000000000000000
11
-40.7209436133487
21
23.1749136939010
31
0.000000000000000
  0
LINE
  5
F10023
330
F1000C
100
AcDbEntity
  8
Bemassung
 62
     0
370
    -2
100
AcDbLine
10
42.2790563866513
20
21.1749136939010
30
0.000000000000000
11
-40.7209436133487
21
21.1749136939010
31
0.000000000000000
  0
INSERT
  5
F10024
330
F1000C
100
AcDbEntity
  8
Bemassung
 62
     0
370
    -2
100
AcDbBlockReference
  2
VDDIM_DEFAULT
10
42.2790563866513
20
21.1749136939010
30
0.000000000000000
 41
2.50000000000000
 42
2.50000000000000
 43
2.50000000000000
  0
INSERT
  5
F10025
330
F1000C
100
AcDbEntity
  8
Bemassung
 62
     0
370
    -2
100
AcDbBlockReference
  2
VDDIM_DEFAULT
10
-40.7209436133487
20
21.1749136939010
30
0.000000000000000
 41
2.50000000000000
 42
2.50000000000000
 43
2.50000000000000
 50
180.000000000000
  0
MTEXT
  5
F10026
330
F1000C
100
AcDbEntity
  8
Bemassung
 62
     0
100
AcDbMText
10
0.779056386651334
20
21.8415803605677
30
0.000000000000000
 40
2.50000000000000
 41
0.0
 71
     8
 72
     1
  1
83
 11
1.00000000000000
 21
0.000000000000000
 31
0.0
 73
     1
 44
1.0
1001
ACAD
1000
MTEXTBEGIN
1070
73
1070
1
1070
44
1040
1.0
1070
74
1070
0
1000
MTEXTEND
  0
POINT
  5
F10027
330
F1000C
100
AcDbEntity
  8
Bemassung
 62
     0
100
AcDbPoint
10
42.2790563866513
20
10.1749136939010
30
0.000000000000000
  0
POINT
  5
F10028
330
F1000C
100
AcDbEntity
  8
Bemassung
 62
     0
100
AcDbPoint
10
-40.7209436133487
20
-13.8250863060990
30
0.000000000000000
  0
ENDBLK
  5
F10029
330
F1000C
100
AcDbEntity
  8
0
100
AcDbBlockEnd
  0
BLOCK
  5
F1002A
330
F10002
100
AcDbEntity
  8
0
100
AcDbBlockBegin
  2
*D3
 70
     1
 10
0.0
 20
0.0
 30
0.0
  3
*D3
  1

  0
LINE
  5
F1002B
330
F10002
100
AcDbEntity
  8
Bemassung
 62
     0
370
    -2
100
AcDbLine
10
-40.7209436133487
20
-6.82508630609895
30
0.000000000000000
11
-52.7209436133487
21
-6.82508630609895
31
0.000000000000000
  0
LINE
  5
F1002C
330
F10002
100
AcDbEntity
  8
Bemassung
 62
     0
370
    -2
100
AcDbLine
10
-40.7209436133487
20
11.1749136939010
30
0.000000000000000
11
-52.7209436133487
21
11.1749136939010
31
0.000000000000000
  0
LINE
  5
F1002D
330
F10002
100
AcDbEntity
  8
Bemassung
 62
     0
370
    -2
100
AcDbLine
10
-50.7209436133487
20
-6.82508630609895
30
0.000000000000000
11
-50.7209436133487
21
11.1749136939010
31
0.000000000000000
  0
INSERT
  5
F1002E
330
F10002
100
AcDbEntity
  8
Bemassung
 62
     0
370
    -2
100
AcDbBlockReference
  2
VDDIM_DEFAULT
10
-50.7209436133487
20
-6.82508630609895
30
0.000000000000000
 41
2.50000000000000
 42
2.50000000000000
 43
2.50000000000000
 50
270.000000000000
  0
INSERT
  5
F1002F
330
F10002
100
AcDbEntity
  8
Bemassung
 62
     0
370
    -2
100
AcDbBlockReference
  2
VDDIM_DEFAULT
10
-50.7209436133487
20
11.1749136939010
30
0.000000000000000
 41
2.50000000000000
 42
2.50000000000000
 43
2.50000000000000
 50
90.0000000000000
  0
MTEXT
  5
F10030
330
F10002
100
AcDbEntity
  8
Bemassung
 62
     0
100
AcDbMText
10
-51.3876102800153
20
2.17491369390105
30
0.000000000000000
 40
2.50000000000000
 41
0.0
 71
     8
 72
     1
  1
Ø18
 11
6.12323399573677e-17
 21
1.00000000000000
 31
0.0
 73
     1
 44
1.0
1001
ACAD
1000
MTEXTBEGIN
1070
73
1070
1
1070
44
1040
1.0
1070
74
1070
0
1000
MTEXTEND
  0
POINT
  5
F10031
330
F10002
100
AcDbEntity
  8
Bemassung
 62
     0
100
AcDbPoint
10
-40.7209436133487
20
-6.82508630609895
30
0.000000000000000
  0
POINT
  5
F10032
330
F10002
100
AcDbEntity
  8
Bemassung
 62
     0
100
AcDbPoint
10
-40.7209436133487
20
11.1749136939010
30
0.000000000000000
  0
ENDBLK
  5
F10033
330
F10002
100
AcDbEntity
  8
0
100
AcDbBlockEnd
  0
BLOCK
  5
F10034
330
F10011
100
AcDbEntity
  8
0
100
AcDbBlockBegin
  2
*D6
 70
     1
 10
0.0
 20
0.0
 30
0.0
  3
*D6
  1

  0
LINE
  5
F10035
330
F10011
100
AcDbEntity
  8
Bemassung
 62
     0
370
    -2
100
AcDbLine
10
41.2790563866513
20
11.1749136939010
30
0.000000000000000
11
55.1645569620253
21
11.1749136939010
31
0.000000000000000
  0
LINE
  5
F10036
330
F10011
100
AcDbEntity
  8
Bemassung
 62
     0
370
    -2
100
AcDbLine
10
41.2790563866513
20
-6.82508630609895
30
0.000000000000000
11
55.1645569620253
21
-6.82508630609895
31
0.000000000000000
  0
LINE
  5
F10037
330
F10011
100
AcDbEntity
  8
Bemassung
 62
     0
370
    -2
100
AcDbLine
10
53.1645569620253
20
11.1749136939010
30
0.000000000000000
11
53.1645569620253
21
-6.82508630609895
31
0.000000000000000
  0
INSERT
  5
F10038
330
F10011
100
AcDbEntity
  8
Bemassung
 62
     0
370
    -2
100
AcDbBlockReference
  2
VDDIM_DEFAULT
10
53.1645569620253
20
11.1749136939010
30
0.000000000000000
 41
2.50000000000000
 42
2.50000000000000
 43
2.50000000000000
 50
90.0000000000000
  0
INSERT
  5
F10039
330
F10011
100
AcDbEntity
  8
Bemassung
 62
     0
370
    -2
100
AcDbBlockReference
  2
VDDIM_DEFAULT
10
53.1645569620253
20
-6.82508630609895
30
0.000000000000000
 41
2.50000000000000
 42
2.50000000000000
 43
2.50000000000000
 50
270.000000000000
  0
MTEXT
  5
F1003A
330
F10011
100
AcDbEntity
  8
Bemassung
 62
     0
100
AcDbMText
10
52.4978902953586
20
2.17491369390105
30
0.000000000000000
 40
2.50000000000000
 41
0.0
 71
     8
 72
     1
  1
Ø18
 11
6.12323399573677e-17
 21
1.00000000000000
 31
0.0
 73
     1
 44
1.0
1001
ACAD
1000
MTEXTBEGIN
1070
73
1070
1
1070
44
1040
1.0
1070
74
1070
0
1000
MTEXTEND
  0
POINT
  5
F1003B
330
F10011
100
AcDbEntity
  8
Bemassung
 62
     0
100
AcDbPoint
10
41.2790563866513
20
11.1749136939010
30
0.000000000000000
  0
POINT
  5
F1003C
330
F10011
100
AcDbEntity
  8
Bemassung
 62
     0
100
AcDbPoint
10
41.2790563866513
20
-6.82508630609895
30
0.000000000000000
  0
ENDBLK
  5
F1003D
330
F10011
100
AcDbEntity
  8
0
100
AcDbBlockEnd
0
ENDSEC
0
SECTION
2
ENTITIES
  0
DIMENSION
  5
F10008
330
261
100
AcDbEntity
  8
Bemassung
100
AcDbDimension
  2
*D4
10
-40.7209436133487
20
-11.8250863060990
30
0.000000000000000
11
-30.7209436133487
21
-11.1584196394323
31
0.000000000000000
 70
32
 1
20
 71
     8
  3
BEM-ISBE
100
AcDbAlignedDimension
13
-20.7209436133487
23
-6.82508630609895
33
0.000000000000000
14
-40.7209436133487
24
-13.8250863060990
34
0.000000000000000
100
AcDbRotatedDimension
1001
ACAD
1000
DSTYLE
1002
{
1070
284
1070
8
1070
78
1070
8
1070
144
1040
1.00000000000000
1070
147
1040
0.625
1070
 72
1070
 0
1070
 71
1070
 0
1002
}
  0
DIMENSION
  5
F1000D
330
261
100
AcDbEntity
  8
Bemassung
100
AcDbDimension
  2
*D5
10
-40.7209436133487
20
21.1749136939010
30
0.000000000000000
11
0.779056386651334
21
21.8415803605677
31
0.000000000000000
 70
32
 1
83
 71
     8
  3
BEM-ISBE
100
AcDbAlignedDimension
13
42.2790563866513
23
10.1749136939010
33
0.000000000000000
14
-40.7209436133487
24
-13.8250863060990
34
0.000000000000000
100
AcDbRotatedDimension
1001
ACAD
1000
DSTYLE
1002
{
1070
284
1070
8
1070
78
1070
8
1070
144
1040
1.00000000000000
1070
147
1040
0.625
1070
 72
1070
 0
1070
 71
1070
 0
1002
}
  0
DIMENSION
  5
F10003
330
261
100
AcDbEntity
  8
Bemassung
100
AcDbDimension
  2
*D3
10
-50.7209436133487
20
11.1749136939010
30
0.000000000000000
11
-51.3876102800153
21
2.17491369390105
31
0.000000000000000
 70
32
 1
Ø18
 71
     8
  3
BEM-ISBE
100
AcDbAlignedDimension
13
-40.7209436133487
23
-6.82508630609895
33
0.000000000000000
14
-40.7209436133487
24
11.1749136939010
34
0.000000000000000
50
90.0000000000000
100
AcDbRotatedDimension
1001
ACAD
1000
DSTYLE
1002
{
1070
284
1070
8
1070
78
1070
8
1070
144
1040
1.00000000000000
1070
147
1040
0.625
1070
 72
1070
 0
1070
 71
1070
 0
1002
}
  0
DIMENSION
  5
F10012
330
261
100
AcDbEntity
  8
Bemassung
100
AcDbDimension
  2
*D6
10
53.1645569620253
20
-6.82508630609895
30
0.000000000000000
11
52.4978902953586
21
2.17491369390105
31
0.000000000000000
 70
32
 1
Ø18
 71
     8
  3
BEM-ISBE
100
AcDbAlignedDimension
13
41.2790563866513
23
11.1749136939010
33
0.000000000000000
14
41.2790563866513
24
-6.82508630609895
34
0.000000000000000
50
90.0000000000000
100
AcDbRotatedDimension
1001
ACAD
1000
DSTYLE
1002
{
1070
284
1070
8
1070
78
1070
8
1070
144
1040
1.00000000000000
1070
147
1040
0.625
1070
 72
1070
 0
1070
 71
1070
 0
1002
}
  0
LINE
  5
F1003E
330
F1003F
100
AcDbEntity
8
Geo
100
AcDbLine
10
-40.7209436133487
20
2.17491369390105
30
0.000000000000000
11
-40.7209436133487
21
11.1749136939010
31
0.000000000000000
  0
LINE
  5
F10040
330
F10041
100
AcDbEntity
8
Geo
100
AcDbLine
10
-40.7209436133487
20
11.1749136939010
30
0.000000000000000
11
-20.7209436133487
21
11.1749136939010
31
0.000000000000000
  0
LINE
  5
F10042
330
F10043
100
AcDbEntity
8
Geo
100
AcDbLine
10
-20.7209436133487
20
11.1749136939010
30
0.000000000000000
11
41.2790563866513
21
11.1749136939010
31
0.000000000000000
  0
LINE
  5
F10044
330
F10045
100
AcDbEntity
8
Geo
100
AcDbLine
10
41.2790563866513
20
11.1749136939010
30
0.000000000000000
11
42.2790563866513
21
10.1749136939010
31
0.000000000000000
  0
LINE
  5
F10046
330
F10047
100
AcDbEntity
8
Geo
100
AcDbLine
10
-40.7209436133487
20
11.1749136939010
30
0.000000000000000
11
-40.6209436133487
21
11.1747285093509
31
0.000000000000000
  0
LINE
  5
F10048
330
F10049
100
AcDbEntity
8
Geo
100
AcDbLine
10
-40.6209436133487
20
11.1747285093509
30
0.000000000000000
11
-40.5209436133487
21
11.1741729633213
31
0.000000000000000
  0
LINE
  5
F1004A
330
F1004B
100
AcDbEntity
8
Geo
100
AcDbLine
10
-40.5209436133487
20
11.1741729633213
30
0.000000000000000
11
-40.4209436133487
21
11.1732470786741
31
0.000000000000000
  0
LINE
  5
F1004C
330
F1004D
100
AcDbEntity
8
Geo
100
AcDbLine
10
-40.4209436133487
20
11.1732470786741
30
0.000000000000000
11
-40.3209436133487
21
11.1719508935114
31
0.000000000000000
  0
LINE
  5
F1004E
330
F1004F
100
AcDbEntity
8
Geo
100
AcDbLine
10
-40.3209436133487
20
11.1719508935114
30
0.000000000000000
11
-40.2209436133487
21
11.1702844611739
31
0.000000000000000
  0
LINE
  5
F10050
330
F10051
100
AcDbEntity
8
Geo
100
AcDbLine
10
-40.2209436133487
20
11.1702844611739
30
0.000000000000000
11
-40.1209436133487
21
11.1682478502390
31
0.000000000000000
  0
LINE
  5
F10052
330
F10053
100
AcDbEntity
8
Geo
100
AcDbLine
10
-40.1209436133487
20
11.1682478502390
30
0.000000000000000
11
-40.0209436133487
21
11.1658411445175
31
0.000000000000000
  0
LINE
  5
F10054
330
F10055
100
AcDbEntity
8
Geo
100
AcDbLine
10
-40.0209436133487
20
11.1658411445175
30
0.000000000000000
11
-39.9209436133487
21
11.1630644430503
31
0.000000000000000
  0
LINE
  5
F10056
330
F10057
100
AcDbEntity
8
Geo
100
AcDbLine
10
-39.9209436133487
20
11.1630644430503
30
0.000000000000000
11
-39.8209436133487
21
11.1599178601048
31
0.000000000000000
  0
LINE
  5
F10058
330
F10059
100
AcDbEntity
8
Geo
100
AcDbLine
10
-39.8209436133487
20
11.1599178601048
30
0.000000000000000
11
-39.7209436133487
21
11.1564015251694
31
0.000000000000000
  0
LINE
  5
F1005A
330
F1005B
100
AcDbEntity
8
Geo
100
AcDbLine
10
-39.7209436133487
20
11.1564015251694
30
0.000000000000000
11
-39.6209436133487
21
11.1525155829488
31
0.000000000000000
  0
LINE
  5
F1005C
330
F1005D
100
AcDbEntity
8
Geo
100
AcDbLine
10
-39.6209436133487
20
11.1525155829488
30
0.000000000000000
11
-39.5209436133487
21
11.1482601933577
31
0.000000000000000
  0
LINE
  5
F1005E
330
F1005F
100
AcDbEntity
8
Geo
100
AcDbLine
10
-39.5209436133487
20
11.1482601933577
30
0.000000000000000
11
-39.4209436133487
21
11.1436355315145
31
0.000000000000000
  0
LINE
  5
F10060
330
F10061
100
AcDbEntity
8
Geo
100
AcDbLine
10
-39.4209436133487
20
11.1436355315145
30
0.000000000000000
11
-39.3209436133487
21
11.1386417877339
31
0.000000000000000
  0
LINE
  5
F10062
330
F10063
100
AcDbEntity
8
Geo
100
AcDbLine
10
-39.3209436133487
20
11.1386417877339
30
0.000000000000000
11
-39.2209436133487
21
11.1332791675189
31
0.000000000000000
  0
LINE
  5
F10064
330
F10065
100
AcDbEntity
8
Geo
100
AcDbLine
10
-39.2209436133487
20
11.1332791675189
30
0.000000000000000
11
-39.1209436133487
21
11.1275478915528
31
0.000000000000000
  0
LINE
  5
F10066
330
F10067
100
AcDbEntity
8
Geo
100
AcDbLine
10
-39.1209436133487
20
11.1275478915528
30
0.000000000000000
11
-39.0209436133487
21
11.1214481956897
31
0.000000000000000
  0
LINE
  5
F10068
330
F10069
100
AcDbEntity
8
Geo
100
AcDbLine
10
-39.0209436133487
20
11.1214481956897
30
0.000000000000000
11
-38.9209436133487
21
11.1149803309451
31
0.000000000000000
  0
LINE
  5
F1006A
330
F1006B
100
AcDbEntity
8
Geo
100
AcDbLine
10
-38.9209436133487
20
11.1149803309451
30
0.000000000000000
11
-38.8209436133487
21
11.1081445634854
31
0.000000000000000
  0
LINE
  5
F1006C
330
F1006D
100
AcDbEntity
8
Geo
100
AcDbLine
10
-38.8209436133487
20
11.1081445634854
30
0.000000000000000
11
-38.7209436133487
21
11.1009411746168
31
0.000000000000000
  0
LINE
  5
F1006E
330
F1006F
100
AcDbEntity
8
Geo
100
AcDbLine
10
-38.7209436133487
20
11.1009411746168
30
0.000000000000000
11
-38.6209436133487
21
11.0933704607742
31
0.000000000000000
  0
LINE
  5
F10070
330
F10071
100
AcDbEntity
8
Geo
100
AcDbLine
10
-38.6209436133487
20
11.0933704607742
30
0.000000000000000
11
-38.5209436133487
21
11.0854327335084
31
0.000000000000000
  0
LINE
  5
F10072
330
F10073
100
AcDbEntity
8
Geo
100
AcDbLine
10
-38.5209436133487
20
11.0854327335084
30
0.000000000000000
11
-38.4209436133487
21
11.0771283194738
31
0.000000000000000
  0
LINE
  5
F10074
330
F10075
100
AcDbEntity
8
Geo
100
AcDbLine
10
-38.4209436133487
20
11.0771283194738
30
0.000000000000000
11
-38.3209436133487
21
11.0684575604146
31
0.000000000000000
  0
LINE
  5
F10076
330
F10077
100
AcDbEntity
8
Geo
100
AcDbLine
10
-38.3209436133487
20
11.0684575604146
30
0.000000000000000
11
-38.2209436133487
21
11.0594208131510
31
0.000000000000000
  0
LINE
  5
F10078
330
F10079
100
AcDbEntity
8
Geo
100
AcDbLine
10
-38.2209436133487
20
11.0594208131510
30
0.000000000000000
11
-38.1209436133487
21
11.0500184495643
31
0.000000000000000
  0
LINE
  5
F1007A
330
F1007B
100
AcDbEntity
8
Geo
100
AcDbLine
10
-38.1209436133487
20
11.0500184495643
30
0.000000000000000
11
-38.0209436133487
21
11.0402508565818
31
0.000000000000000
  0
LINE
  5
F1007C
330
F1007D
100
AcDbEntity
8
Geo
100
AcDbLine
10
-38.0209436133487
20
11.0402508565818
30
0.000000000000000
11
-37.9209436133487
21
11.0301184361605
31
0.000000000000000
  0
LINE
  5
F1007E
330
F1007F
100
AcDbEntity
8
Geo
100
AcDbLine
10
-37.9209436133487
20
11.0301184361605
30
0.000000000000000
11
-37.8209436133487
21
11.0196216052712
31
0.000000000000000
  0
LINE
  5
F10080
330
F10081
100
AcDbEntity
8
Geo
100
AcDbLine
10
-37.8209436133487
20
11.0196216052712
30
0.000000000000000
11
-37.7209436133487
21
11.0087607958806
31
0.000000000000000
  0
LINE
  5
F10082
330
F10083
100
AcDbEntity
8
Geo
100
AcDbLine
10
-37.7209436133487
20
11.0087607958806
30
0.000000000000000
11
-37.6209436133487
21
10.9975364549342
31
0.000000000000000
  0
LINE
  5
F10084
330
F10085
100
AcDbEntity
8
Geo
100
AcDbLine
10
-37.6209436133487
20
10.9975364549342
30
0.000000000000000
11
-37.5209436133487
21
10.9859490443373
31
0.000000000000000
  0
LINE
  5
F10086
330
F10087
100
AcDbEntity
8
Geo
100
AcDbLine
10
-37.5209436133487
20
10.9859490443373
30
0.000000000000000
11
-37.4209436133487
21
10.9739990409366
31
0.000000000000000
  0
LINE
  5
F10088
330
F10089
100
AcDbEntity
8
Geo
100
AcDbLine
10
-37.4209436133487
20
10.9739990409366
30
0.000000000000000
11
-37.3209436133487
21
10.9616869364999
31
0.000000000000000
  0
LINE
  5
F1008A
330
F1008B
100
AcDbEntity
8
Geo
100
AcDbLine
10
-37.3209436133487
20
10.9616869364999
30
0.000000000000000
11
-37.2209436133487
21
10.9490132376967
31
0.000000000000000
  0
LINE
  5
F1008C
330
F1008D
100
AcDbEntity
8
Geo
100
AcDbLine
10
-37.2209436133487
20
10.9490132376967
30
0.000000000000000
11
-37.1209436133487
21
10.9359784660763
31
0.000000000000000
  0
LINE
  5
F1008E
330
F1008F
100
AcDbEntity
8
Geo
100
AcDbLine
10
-37.1209436133487
20
10.9359784660763
30
0.000000000000000
11
-37.0209436133487
21
10.9225831580475
31
0.000000000000000
  0
LINE
  5
F10090
330
F10091
100
AcDbEntity
8
Geo
100
AcDbLine
10
-37.0209436133487
20
10.9225831580475
30
0.000000000000000
11
-36.9209436133487
21
10.9088278648554
31
0.000000000000000
  0
LINE
  5
F10092
330
F10093
100
AcDbEntity
8
Geo
100
AcDbLine
10
-36.9209436133487
20
10.9088278648554
30
0.000000000000000
11
-36.8209436133487
21
10.8947131525597
31
0.000000000000000
  0
LINE
  5
F10094
330
F10095
100
AcDbEntity
8
Geo
100
AcDbLine
10
-36.8209436133487
20
10.8947131525597
30
0.000000000000000
11
-36.7209436133487
21
10.8802396020107
31
0.000000000000000
  0
LINE
  5
F10096
330
F10097
100
AcDbEntity
8
Geo
100
AcDbLine
10
-36.7209436133487
20
10.8802396020107
30
0.000000000000000
11
-36.6209436133487
21
10.8654078088257
31
0.000000000000000
  0
LINE
  5
F10098
330
F10099
100
AcDbEntity
8
Geo
100
AcDbLine
10
-36.6209436133487
20
10.8654078088257
30
0.000000000000000
11
-36.5209436133487
21
10.8502183833644
31
0.000000000000000
  0
LINE
  5
F1009A
330
F1009B
100
AcDbEntity
8
Geo
100
AcDbLine
10
-36.5209436133487
20
10.8502183833644
30
0.000000000000000
11
-36.4209436133487
21
10.8346719507041
31
0.000000000000000
  0
LINE
  5
F1009C
330
F1009D
100
AcDbEntity
8
Geo
100
AcDbLine
10
-36.4209436133487
20
10.8346719507041
30
0.000000000000000
11
-36.3209436133487
21
10.8187691506133
31
0.000000000000000
  0
LINE
  5
F1009E
330
F1009F
100
AcDbEntity
8
Geo
100
AcDbLine
10
-36.3209436133487
20
10.8187691506133
30
0.000000000000000
11
-36.2209436133487
21
10.8025106375260
31
0.000000000000000
  0
LINE
  5
F100A0
330
F100A1
100
AcDbEntity
8
Geo
100
AcDbLine
10
-36.2209436133487
20
10.8025106375260
30
0.000000000000000
11
-36.1209436133487
21
10.7858970805146
31
0.000000000000000
  0
LINE
  5
F100A2
330
F100A3
100
AcDbEntity
8
Geo
100
AcDbLine
10
-36.1209436133487
20
10.7858970805146
30
0.000000000000000
11
-36.0209436133487
21
10.7689291632622
31
0.000000000000000
  0
LINE
  5
F100A4
330
F100A5
100
AcDbEntity
8
Geo
100
AcDbLine
10
-36.0209436133487
20
10.7689291632622
30
0.000000000000000
11
-35.9209436133487
21
10.7516075840346
31
0.000000000000000
  0
LINE
  5
F100A6
330
F100A7
100
AcDbEntity
8
Geo
100
AcDbLine
10
-35.9209436133487
20
10.7516075840346
30
0.000000000000000
11
-35.8209436133487
21
10.7339330556516
31
0.000000000000000
  0
LINE
  5
F100A8
330
F100A9
100
AcDbEntity
8
Geo
100
AcDbLine
10
-35.8209436133487
20
10.7339330556516
30
0.000000000000000
11
-35.7209436133487
21
10.7159063054574
31
0.000000000000000
  0
LINE
  5
F100AA
330
F100AB
100
AcDbEntity
8
Geo
100
AcDbLine
10
-35.7209436133487
20
10.7159063054574
30
0.000000000000000
11
-35.6209436133487
21
10.6975280752912
31
0.000000000000000
  0
LINE
  5
F100AC
330
F100AD
100
AcDbEntity
8
Geo
100
AcDbLine
10
-35.6209436133487
20
10.6975280752912
30
0.000000000000000
11
-35.5209436133487
21
10.6787991214560
31
0.000000000000000
  0
LINE
  5
F100AE
330
F100AF
100
AcDbEntity
8
Geo
100
AcDbLine
10
-35.5209436133487
20
10.6787991214560
30
0.000000000000000
11
-35.4209436133487
21
10.6597202146882
31
0.000000000000000
  0
LINE
  5
F100B0
330
F100B1
100
AcDbEntity
8
Geo
100
AcDbLine
10
-35.4209436133487
20
10.6597202146882
30
0.000000000000000
11
-35.3209436133487
21
10.6402921401251
31
0.000000000000000
  0
LINE
  5
F100B2
330
F100B3
100
AcDbEntity
8
Geo
100
AcDbLine
10
-35.3209436133487
20
10.6402921401251
30
0.000000000000000
11
-35.2209436133487
21
10.6205156972733
31
0.000000000000000
  0
LINE
  5
F100B4
330
F100B5
100
AcDbEntity
8
Geo
100
AcDbLine
10
-35.2209436133487
20
10.6205156972733
30
0.000000000000000
11
-35.1209436133487
21
10.6003916999755
31
0.000000000000000
  0
LINE
  5
F100B6
330
F100B7
100
AcDbEntity
8
Geo
100
AcDbLine
10
-35.1209436133487
20
10.6003916999755
30
0.000000000000000
11
-35.0209436133487
21
10.5799209763767
31
0.000000000000000
  0
LINE
  5
F100B8
330
F100B9
100
AcDbEntity
8
Geo
100
AcDbLine
10
-35.0209436133487
20
10.5799209763767
30
0.000000000000000
11
-34.9209436133487
21
10.5591043688907
31
0.000000000000000
  0
LINE
  5
F100BA
330
F100BB
100
AcDbEntity
8
Geo
100
AcDbLine
10
-34.9209436133487
20
10.5591043688907
30
0.000000000000000
11
-34.8209436133487
21
10.5379427341651
31
0.000000000000000
  0
LINE
  5
F100BC
330
F100BD
100
AcDbEntity
8
Geo
100
AcDbLine
10
-34.8209436133487
20
10.5379427341651
30
0.000000000000000
11
-34.7209436133487
21
10.5164369430461
31
0.000000000000000
  0
LINE
  5
F100BE
330
F100BF
100
AcDbEntity
8
Geo
100
AcDbLine
10
-34.7209436133487
20
10.5164369430461
30
0.000000000000000
11
-34.6209436133487
21
10.4945878805426
31
0.000000000000000
  0
LINE
  5
F100C0
330
F100C1
100
AcDbEntity
8
Geo
100
AcDbLine
10
-34.6209436133487
20
10.4945878805426
30
0.000000000000000
11
-34.5209436133487
21
10.4723964457899
31
0.000000000000000
  0
LINE
  5
F100C2
330
F100C3
100
AcDbEntity
8
Geo
100
AcDbLine
10
-34.5209436133487
20
10.4723964457899
30
0.000000000000000
11
-34.4209436133487
21
10.4498635520126
31
0.000000000000000
  0
LINE
  5
F100C4
330
F100C5
100
AcDbEntity
8
Geo
100
AcDbLine
10
-34.4209436133487
20
10.4498635520126
30
0.000000000000000
11
-34.3209436133487
21
10.4269901264871
31
0.000000000000000
  0
LINE
  5
F100C6
330
F100C7
100
AcDbEntity
8
Geo
100
AcDbLine
10
-34.3209436133487
20
10.4269901264871
30
0.000000000000000
11
-34.2209436133487
21
10.4037771105035
31
0.000000000000000
  0
LINE
  5
F100C8
330
F100C9
100
AcDbEntity
8
Geo
100
AcDbLine
10
-34.2209436133487
20
10.4037771105035
30
0.000000000000000
11
-34.1209436133487
21
10.3802254593266
31
0.000000000000000
  0
LINE
  5
F100CA
330
F100CB
100
AcDbEntity
8
Geo
100
AcDbLine
10
-34.1209436133487
20
10.3802254593266
30
0.000000000000000
11
-34.0209436133487
21
10.3563361421569
31
0.000000000000000
  0
LINE
  5
F100CC
330
F100CD
100
AcDbEntity
8
Geo
100
AcDbLine
10
-34.0209436133487
20
10.3563361421569
30
0.000000000000000
11
-33.9209436133487
21
10.3321101420904
31
0.000000000000000
  0
LINE
  5
F100CE
330
F100CF
100
AcDbEntity
8
Geo
100
AcDbLine
10
-33.9209436133487
20
10.3321101420904
30
0.000000000000000
11
-33.8209436133487
21
10.3075484560784
31
0.000000000000000
  0
LINE
  5
F100D0
330
F100D1
100
AcDbEntity
8
Geo
100
AcDbLine
10
-33.8209436133487
20
10.3075484560784
30
0.000000000000000
11
-33.7209436133487
21
10.2826520948865
31
0.000000000000000
  0
LINE
  5
F100D2
330
F100D3
100
AcDbEntity
8
Geo
100
AcDbLine
10
-33.7209436133487
20
10.2826520948865
30
0.000000000000000
11
-33.6209436133487
21
10.2574220830528
31
0.000000000000000
  0
LINE
  5
F100D4
330
F100D5
100
AcDbEntity
8
Geo
100
AcDbLine
10
-33.6209436133487
20
10.2574220830528
30
0.000000000000000
11
-33.5209436133487
21
10.2318594588457
31
0.000000000000000
  0
LINE
  5
F100D6
330
F100D7
100
AcDbEntity
8
Geo
100
AcDbLine
10
-33.5209436133487
20
10.2318594588457
30
0.000000000000000
11
-33.4209436133487
21
10.2059652742216
31
0.000000000000000
  0
LINE
  5
F100D8
330
F100D9
100
AcDbEntity
8
Geo
100
AcDbLine
10
-33.4209436133487
20
10.2059652742216
30
0.000000000000000
11
-33.3209436133487
21
10.1797405947810
31
0.000000000000000
  0
LINE
  5
F100DA
330
F100DB
100
AcDbEntity
8
Geo
100
AcDbLine
10
-33.3209436133487
20
10.1797405947810
30
0.000000000000000
11
-33.2209436133487
21
10.1531864997253
31
0.000000000000000
  0
LINE
  5
F100DC
330
F100DD
100
AcDbEntity
8
Geo
100
AcDbLine
10
-33.2209436133487
20
10.1531864997253
30
0.000000000000000
11
-33.1209436133487
21
10.1263040818117
31
0.000000000000000
  0
LINE
  5
F100DE
330
F100DF
100
AcDbEntity
8
Geo
100
AcDbLine
10
-33.1209436133487
20
10.1263040818117
30
0.000000000000000
11
-33.0209436133487
21
10.0990944473088
31
0.000000000000000
  0
LINE
  5
F100E0
330
F100E1
100
AcDbEntity
8
Geo
100
AcDbLine
10
-33.0209436133487
20
10.0990944473088
30
0.000000000000000
11
-32.9209436133487
21
10.0715587159508
31
0.000000000000000
  0
LINE
  5
F100E2
330
F100E3
100
AcDbEntity
8
Geo
100
AcDbLine
10
-32.9209436133487
20
10.0715587159508
30
0.000000000000000
11
-32.8209436133487
21
10.0436980208916
31
0.000000000000000
  0
LINE
  5
F100E4
330
F100E5
100
AcDbEntity
8
Geo
100
AcDbLine
10
-32.8209436133487
20
10.0436980208916
30
0.000000000000000
11
-32.7209436133487
21
10.0155135086577
31
0.000000000000000
  0
LINE
  5
F100E6
330
F100E7
100
AcDbEntity
8
Geo
100
AcDbLine
10
-32.7209436133487
20
10.0155135086577
30
0.000000000000000
11
-32.6209436133487
21
9.98700633910179
31
0.000000000000000
  0
LINE
  5
F100E8
330
F100E9
100
AcDbEntity
8
Geo
100
AcDbLine
10
-32.6209436133487
20
9.98700633910179
30
0.000000000000000
11
-32.5209436133487
21
9.95817768535430
31
0.000000000000000
  0
LINE
  5
F100EA
330
F100EB
100
AcDbEntity
8
Geo
100
AcDbLine
10
-32.5209436133487
20
9.95817768535430
30
0.000000000000000
11
-32.4209436133487
21
9.92902873377554
31
0.000000000000000
  0
LINE
  5
F100EC
330
F100ED
100
AcDbEntity
8
Geo
100
AcDbLine
10
-32.4209436133487
20
9.92902873377554
30
0.000000000000000
11
-32.3209436133487
21
9.89956068390673
31
0.000000000000000
  0
LINE
  5
F100EE
330
F100EF
100
AcDbEntity
8
Geo
100
AcDbLine
10
-32.3209436133487
20
9.89956068390673
30
0.000000000000000
11
-32.2209436133487
21
9.86977474842066
31
0.000000000000000
  0
LINE
  5
F100F0
330
F100F1
100
AcDbEntity
8
Geo
100
AcDbLine
10
-32.2209436133487
20
9.86977474842066
30
0.000000000000000
11
-32.1209436133487
21
9.83967215307178
31
0.000000000000000
  0
LINE
  5
F100F2
330
F100F3
100
AcDbEntity
8
Geo
100
AcDbLine
10
-32.1209436133487
20
9.83967215307178
30
0.000000000000000
11
-32.0209436133487
21
9.80925413664578
31
0.000000000000000
  0
LINE
  5
F100F4
330
F100F5
100
AcDbEntity
8
Geo
100
AcDbLine
10
-32.0209436133487
20
9.80925413664578
30
0.000000000000000
11
-31.9209436133487
21
9.77852195090859
31
0.000000000000000
  0
LINE
  5
F100F6
330
F100F7
100
AcDbEntity
8
Geo
100
AcDbLine
10
-31.9209436133487
20
9.77852195090859
30
0.000000000000000
11
-31.8209436133487
21
9.74747686055487
31
0.000000000000000
  0
LINE
  5
F100F8
330
F100F9
100
AcDbEntity
8
Geo
100
AcDbLine
10
-31.8209436133487
20
9.74747686055487
30
0.000000000000000
11
-31.7209436133487
21
9.71612014315598
31
0.000000000000000
  0
LINE
  5
F100FA
330
F100FB
100
AcDbEntity
8
Geo
100
AcDbLine
10
-31.7209436133487
20
9.71612014315598
30
0.000000000000000
11
-31.6209436133487
21
9.68445308910739
31
0.000000000000000
  0
LINE
  5
F100FC
330
F100FD
100
AcDbEntity
8
Geo
100
AcDbLine
10
-31.6209436133487
20
9.68445308910739
30
0.000000000000000
11
-31.5209436133487
21
9.65247700157558
31
0.000000000000000
  0
LINE
  5
F100FE
330
F100FF
100
AcDbEntity
8
Geo
100
AcDbLine
10
-31.5209436133487
20
9.65247700157558
30
0.000000000000000
11
-31.4209436133487
21
9.62019319644440
31
0.000000000000000
  0
LINE
  5
F10100
330
F10101
100
AcDbEntity
8
Geo
100
AcDbLine
10
-31.4209436133487
20
9.62019319644440
30
0.000000000000000
11
-31.3209436133487
21
9.58760300226095
31
0.000000000000000
  0
LINE
  5
F10102
330
F10103
100
AcDbEntity
8
Geo
100
AcDbLine
10
-31.3209436133487
20
9.58760300226095
30
0.000000000000000
11
-31.2209436133487
21
9.55470776018090
31
0.000000000000000
  0
LINE
  5
F10104
330
F10105
100
AcDbEntity
8
Geo
100
AcDbLine
10
-31.2209436133487
20
9.55470776018090
30
0.000000000000000
11
-31.1209436133487
21
9.52150882391325
31
0.000000000000000
  0
LINE
  5
F10106
330
F10107
100
AcDbEntity
8
Geo
100
AcDbLine
10
-31.1209436133487
20
9.52150882391325
30
0.000000000000000
11
-31.0209436133487
21
9.48800755966471
31
0.000000000000000
  0
LINE
  5
F10108
330
F10109
100
AcDbEntity
8
Geo
100
AcDbLine
10
-31.0209436133487
20
9.48800755966471
30
0.000000000000000
11
-30.9209436133487
21
9.45420534608338
31
0.000000000000000
  0
LINE
  5
F1010A
330
F1010B
100
AcDbEntity
8
Geo
100
AcDbLine
10
-30.9209436133487
20
9.45420534608338
30
0.000000000000000
11
-30.8209436133487
21
9.42010357420209
31
0.000000000000000
  0
LINE
  5
F1010C
330
F1010D
100
AcDbEntity
8
Geo
100
AcDbLine
10
-30.8209436133487
20
9.42010357420209
30
0.000000000000000
11
-30.7209436133487
21
9.38570364738114
31
0.000000000000000
  0
LINE
  5
F1010E
330
F1010F
100
AcDbEntity
8
Geo
100
AcDbLine
10
-30.7209436133487
20
9.38570364738114
30
0.000000000000000
11
-30.6209436133487
21
9.35100698125050
31
0.000000000000000
  0
LINE
  5
F10110
330
F10111
100
AcDbEntity
8
Geo
100
AcDbLine
10
-30.6209436133487
20
9.35100698125050
30
0.000000000000000
11
-30.5209436133487
21
9.31601500365164
31
0.000000000000000
  0
LINE
  5
F10112
330
F10113
100
AcDbEntity
8
Geo
100
AcDbLine
10
-30.5209436133487
20
9.31601500365164
30
0.000000000000000
11
-30.4209436133487
21
9.28072915457869
31
0.000000000000000
  0
LINE
  5
F10114
330
F10115
100
AcDbEntity
8
Geo
100
AcDbLine
10
-30.4209436133487
20
9.28072915457869
30
0.000000000000000
11
-30.3209436133487
21
9.24515088611921
31
0.000000000000000
  0
LINE
  5
F10116
330
F10117
100
AcDbEntity
8
Geo
100
AcDbLine
10
-30.3209436133487
20
9.24515088611921
30
0.000000000000000
11
-30.2209436133487
21
9.20928166239448
31
0.000000000000000
  0
LINE
  5
F10118
330
F10119
100
AcDbEntity
8
Geo
100
AcDbLine
10
-30.2209436133487
20
9.20928166239448
30
0.000000000000000
11
-30.1209436133487
21
9.17312295949916
31
0.000000000000000
  0
LINE
  5
F1011A
330
F1011B
100
AcDbEntity
8
Geo
100
AcDbLine
10
-30.1209436133487
20
9.17312295949916
30
0.000000000000000
11
-30.0209436133487
21
9.13667626544062
31
0.000000000000000
  0
LINE
  5
F1011C
330
F1011D
100
AcDbEntity
8
Geo
100
AcDbLine
10
-30.0209436133487
20
9.13667626544062
30
0.000000000000000
11
-29.9209436133487
21
9.09994308007767
31
0.000000000000000
  0
LINE
  5
F1011E
330
F1011F
100
AcDbEntity
8
Geo
100
AcDbLine
10
-29.9209436133487
20
9.09994308007767
30
0.000000000000000
11
-29.8209436133487
21
9.06292491505884
31
0.000000000000000
  0
LINE
  5
F10120
330
F10121
100
AcDbEntity
8
Geo
100
AcDbLine
10
-29.8209436133487
20
9.06292491505884
30
0.000000000000000
11
-29.7209436133487
21
9.02562329376019
31
0.000000000000000
  0
LINE
  5
F10122
330
F10123
100
AcDbEntity
8
Geo
100
AcDbLine
10
-29.7209436133487
20
9.02562329376019
30
0.000000000000000
11
-29.6209436133487
21
8.98803975122259
31
0.000000000000000
  0
LINE
  5
F10124
330
F10125
100
AcDbEntity
8
Geo
100
AcDbLine
10
-29.6209436133487
20
8.98803975122259
30
0.000000000000000
11
-29.5209436133487
21
8.95017583408858
31
0.000000000000000
  0
LINE
  5
F10126
330
F10127
100
AcDbEntity
8
Geo
100
AcDbLine
10
-29.5209436133487
20
8.95017583408858
30
0.000000000000000
11
-29.4209436133487
21
8.91203310053871
31
0.000000000000000
  0
LINE
  5
F10128
330
F10129
100
AcDbEntity
8
Geo
100
AcDbLine
10
-29.4209436133487
20
8.91203310053871
30
0.000000000000000
11
-29.3209436133487
21
8.87361312022741
31
0.000000000000000
  0
LINE
  5
F1012A
330
F1012B
100
AcDbEntity
8
Geo
100
AcDbLine
10
-29.3209436133487
20
8.87361312022741
30
0.000000000000000
11
-29.2209436133487
21
8.83491747421841
31
0.000000000000000
  0
LINE
  5
F1012C
330
F1012D
100
AcDbEntity
8
Geo
100
AcDbLine
10
-29.2209436133487
20
8.83491747421841
30
0.000000000000000
11
-29.1209436133487
21
8.79594775491967
31
0.000000000000000
  0
LINE
  5
F1012E
330
F1012F
100
AcDbEntity
8
Geo
100
AcDbLine
10
-29.1209436133487
20
8.79594775491967
30
0.000000000000000
11
-29.0209436133487
21
8.75670556601783
31
0.000000000000000
  0
LINE
  5
F10130
330
F10131
100
AcDbEntity
8
Geo
100
AcDbLine
10
-29.0209436133487
20
8.75670556601783
30
0.000000000000000
11
-28.9209436133487
21
8.71719252241225
31
0.000000000000000
  0
LINE
  5
F10132
330
F10133
100
AcDbEntity
8
Geo
100
AcDbLine
10
-28.9209436133487
20
8.71719252241225
30
0.000000000000000
11
-28.8209436133487
21
8.67741025014854
31
0.000000000000000
  0
LINE
  5
F10134
330
F10135
100
AcDbEntity
8
Geo
100
AcDbLine
10
-28.8209436133487
20
8.67741025014854
30
0.000000000000000
11
-28.7209436133487
21
8.63736038635162
31
0.000000000000000
  0
LINE
  5
F10136
330
F10137
100
AcDbEntity
8
Geo
100
AcDbLine
10
-28.7209436133487
20
8.63736038635162
30
0.000000000000000
11
-28.6209436133487
21
8.59704457915838
31
0.000000000000000
  0
LINE
  5
F10138
330
F10139
100
AcDbEntity
8
Geo
100
AcDbLine
10
-28.6209436133487
20
8.59704457915838
30
0.000000000000000
11
-28.5209436133487
21
8.55646448764986
31
0.000000000000000
  0
LINE
  5
F1013A
330
F1013B
100
AcDbEntity
8
Geo
100
AcDbLine
10
-28.5209436133487
20
8.55646448764986
30
0.000000000000000
11
-28.4209436133487
21
8.51562178178293
31
0.000000000000000
  0
LINE
  5
F1013C
330
F1013D
100
AcDbEntity
8
Geo
100
AcDbLine
10
-28.4209436133487
20
8.51562178178293
30
0.000000000000000
11
-28.3209436133487
21
8.47451814232163
31
0.000000000000000
  0
LINE
  5
F1013E
330
F1013F
100
AcDbEntity
8
Geo
100
AcDbLine
10
-28.3209436133487
20
8.47451814232163
30
0.000000000000000
11
-28.2209436133487
21
8.43315526076794
31
0.000000000000000
  0
LINE
  5
F10140
330
F10141
100
AcDbEntity
8
Geo
100
AcDbLine
10
-28.2209436133487
20
8.43315526076794
30
0.000000000000000
11
-28.1209436133487
21
8.39153483929223
31
0.000000000000000
  0
LINE
  5
F10142
330
F10143
100
AcDbEntity
8
Geo
100
AcDbLine
10
-28.1209436133487
20
8.39153483929223
30
0.000000000000000
11
-28.0209436133487
21
8.34965859066317
31
0.000000000000000
  0
LINE
  5
F10144
330
F10145
100
AcDbEntity
8
Geo
100
AcDbLine
10
-28.0209436133487
20
8.34965859066317
30
0.000000000000000
11
-27.9209436133487
21
8.30752823817727
31
0.000000000000000
  0
LINE
  5
F10146
330
F10147
100
AcDbEntity
8
Geo
100
AcDbLine
10
-27.9209436133487
20
8.30752823817727
30
0.000000000000000
11
-27.8209436133487
21
8.26514551558793
31
0.000000000000000
  0
LINE
  5
F10148
330
F10149
100
AcDbEntity
8
Geo
100
AcDbLine
10
-27.8209436133487
20
8.26514551558793
30
0.000000000000000
11
-27.7209436133487
21
8.22251216703414
31
0.000000000000000
  0
LINE
  5
F1014A
330
F1014B
100
AcDbEntity
8
Geo
100
AcDbLine
10
-27.7209436133487
20
8.22251216703414
30
0.000000000000000
11
-27.6209436133487
21
8.17962994696867
31
0.000000000000000
  0
LINE
  5
F1014C
330
F1014D
100
AcDbEntity
8
Geo
100
AcDbLine
10
-27.6209436133487
20
8.17962994696867
30
0.000000000000000
11
-27.5209436133487
21
8.13650062008589
31
0.000000000000000
  0
LINE
  5
F1014E
330
F1014F
100
AcDbEntity
8
Geo
100
AcDbLine
10
-27.5209436133487
20
8.13650062008589
30
0.000000000000000
11
-27.4209436133487
21
8.09312596124912
31
0.000000000000000
  0
LINE
  5
F10150
330
F10151
100
AcDbEntity
8
Geo
100
AcDbLine
10
-27.4209436133487
20
8.09312596124912
30
0.000000000000000
11
-27.3209436133487
21
8.04950775541763
31
0.000000000000000
  0
LINE
  5
F10152
330
F10153
100
AcDbEntity
8
Geo
100
AcDbLine
10
-27.3209436133487
20
8.04950775541763
30
0.000000000000000
11
-27.2209436133487
21
8.00564779757316
31
0.000000000000000
  0
LINE
  5
F10154
330
F10155
100
AcDbEntity
8
Geo
100
AcDbLine
10
-27.2209436133487
20
8.00564779757316
30
0.000000000000000
11
-27.1209436133487
21
7.96154789264605
31
0.000000000000000
  0
LINE
  5
F10156
330
F10157
100
AcDbEntity
8
Geo
100
AcDbLine
10
-27.1209436133487
20
7.96154789264605
30
0.000000000000000
11
-27.0209436133487
21
7.91720985544099
31
0.000000000000000
  0
LINE
  5
F10158
330
F10159
100
AcDbEntity
8
Geo
100
AcDbLine
10
-27.0209436133487
20
7.91720985544099
30
0.000000000000000
11
-26.9209436133487
21
7.87263551056229
31
0.000000000000000
  0
LINE
  5
F1015A
330
F1015B
100
AcDbEntity
8
Geo
100
AcDbLine
10
-26.9209436133487
20
7.87263551056229
30
0.000000000000000
11
-26.8209436133487
21
7.82782669233886
31
0.000000000000000
  0
LINE
  5
F1015C
330
F1015D
100
AcDbEntity
8
Geo
100
AcDbLine
10
-26.8209436133487
20
7.82782669233886
30
0.000000000000000
11
-26.7209436133487
21
7.78278524474865
31
0.000000000000000
  0
LINE
  5
F1015E
330
F1015F
100
AcDbEntity
8
Geo
100
AcDbLine
10
-26.7209436133487
20
7.78278524474865
30
0.000000000000000
11
-26.6209436133487
21
7.73751302134283
31
0.000000000000000
  0
LINE
  5
F10160
330
F10161
100
AcDbEntity
8
Geo
100
AcDbLine
10
-26.6209436133487
20
7.73751302134283
30
0.000000000000000
11
-26.5209436133487
21
7.69201188516946
31
0.000000000000000
  0
LINE
  5
F10162
330
F10163
100
AcDbEntity
8
Geo
100
AcDbLine
10
-26.5209436133487
20
7.69201188516946
30
0.000000000000000
11
-26.4209436133487
21
7.64628370869686
31
0.000000000000000
  0
LINE
  5
F10164
330
F10165
100
AcDbEntity
8
Geo
100
AcDbLine
10
-26.4209436133487
20
7.64628370869686
30
0.000000000000000
11
-26.3209436133487
21
7.60033037373655
31
0.000000000000000
  0
LINE
  5
F10166
330
F10167
100
AcDbEntity
8
Geo
100
AcDbLine
10
-26.3209436133487
20
7.60033037373655
30
0.000000000000000
11
-26.2209436133487
21
7.55415377136577
31
0.000000000000000
  0
LINE
  5
F10168
330
F10169
100
AcDbEntity
8
Geo
100
AcDbLine
10
-26.2209436133487
20
7.55415377136577
30
0.000000000000000
11
-26.1209436133487
21
7.50775580184972
31
0.000000000000000
  0
LINE
  5
F1016A
330
F1016B
100
AcDbEntity
8
Geo
100
AcDbLine
10
-26.1209436133487
20
7.50775580184972
30
0.000000000000000
11
-26.0209436133487
21
7.46113837456332
31
0.000000000000000
  0
LINE
  5
F1016C
330
F1016D
100
AcDbEntity
8
Geo
100
AcDbLine
10
-26.0209436133487
20
7.46113837456332
30
0.000000000000000
11
-25.9209436133487
21
7.41430340791261
31
0.000000000000000
  0
LINE
  5
F1016E
330
F1016F
100
AcDbEntity
8
Geo
100
AcDbLine
10
-25.9209436133487
20
7.41430340791261
30
0.000000000000000
11
-25.8209436133487
21
7.36725282925589
31
0.000000000000000
  0
LINE
  5
F10170
330
F10171
100
AcDbEntity
8
Geo
100
AcDbLine
10
-25.8209436133487
20
7.36725282925589
30
0.000000000000000
11
-25.7209436133487
21
7.31998857482431
31
0.000000000000000
  0
LINE
  5
F10172
330
F10173
100
AcDbEntity
8
Geo
100
AcDbLine
10
-40.7209436133487
20
2.17491369390105
30
0.000000000000000
11
-40.6209436133487
21
2.11717906296908
31
0.000000000000000
  0
LINE
  5
F10174
330
F10175
100
AcDbEntity
8
Geo
100
AcDbLine
10
-40.6209436133487
20
2.11717906296908
30
0.000000000000000
11
-40.5209436133487
21
2.05944680793973
31
0.000000000000000
  0
LINE
  5
F10176
330
F10177
100
AcDbEntity
8
Geo
100
AcDbLine
10
-40.5209436133487
20
2.05944680793973
30
0.000000000000000
11
-40.4209436133487
21
2.00171930461779
31
0.000000000000000
  0
LINE
  5
F10178
330
F10179
100
AcDbEntity
8
Geo
100
AcDbLine
10
-40.4209436133487
20
2.00171930461779
30
0.000000000000000
11
-40.3209436133487
21
1.94399892861253
31
0.000000000000000
  0
LINE
  5
F1017A
330
F1017B
100
AcDbEntity
8
Geo
100
AcDbLine
10
-40.3209436133487
20
1.94399892861253
30
0.000000000000000
11
-40.2209436133487
21
1.88628805523992
31
0.000000000000000
  0
LINE
  5
F1017C
330
F1017D
100
AcDbEntity
8
Geo
100
AcDbLine
10
-40.2209436133487
20
1.88628805523992
30
0.000000000000000
11
-40.1209436133487
21
1.82858905942487
31
0.000000000000000
  0
LINE
  5
F1017E
330
F1017F
100
AcDbEntity
8
Geo
100
AcDbLine
10
-40.1209436133487
20
1.82858905942487
30
0.000000000000000
11
-40.0209436133487
21
1.77090431560352
31
0.000000000000000
  0
LINE
  5
F10180
330
F10181
100
AcDbEntity
8
Geo
100
AcDbLine
10
-40.0209436133487
20
1.77090431560352
30
0.000000000000000
11
-39.9209436133487
21
1.71323619762550
31
0.000000000000000
  0
LINE
  5
F10182
330
F10183
100
AcDbEntity
8
Geo
100
AcDbLine
10
-39.9209436133487
20
1.71323619762550
30
0.000000000000000
11
-39.8209436133487
21
1.65558707865624
31
0.000000000000000
  0
LINE
  5
F10184
330
F10185
100
AcDbEntity
8
Geo
100
AcDbLine
10
-39.8209436133487
20
1.65558707865624
30
0.000000000000000
11
-39.7209436133487
21
1.59795933107934
31
0.000000000000000
  0
LINE
  5
F10186
330
F10187
100
AcDbEntity
8
Geo
100
AcDbLine
10
-39.7209436133487
20
1.59795933107934
30
0.000000000000000
11
-39.6209436133487
21
1.54035532639892
31
0.000000000000000
  0
LINE
  5
F10188
330
F10189
100
AcDbEntity
8
Geo
100
AcDbLine
10
-39.6209436133487
20
1.54035532639892
30
0.000000000000000
11
-39.5209436133487
21
1.48277743514200
31
0.000000000000000
  0
LINE
  5
F1018A
330
F1018B
100
AcDbEntity
8
Geo
100
AcDbLine
10
-39.5209436133487
20
1.48277743514200
30
0.000000000000000
11
-39.4209436133487
21
1.42522802676102
31
0.000000000000000
  0
LINE
  5
F1018C
330
F1018D
100
AcDbEntity
8
Geo
100
AcDbLine
10
-39.4209436133487
20
1.42522802676102
30
0.000000000000000
11
-39.3209436133487
21
1.36770946953626
31
0.000000000000000
  0
LINE
  5
F1018E
330
F1018F
100
AcDbEntity
8
Geo
100
AcDbLine
10
-39.3209436133487
20
1.36770946953626
30
0.000000000000000
11
-39.2209436133487
21
1.31022413047842
31
0.000000000000000
  0
LINE
  5
F10190
330
F10191
100
AcDbEntity
8
Geo
100
AcDbLine
10
-39.2209436133487
20
1.31022413047842
30
0.000000000000000
11
-39.1209436133487
21
1.25277437523121
31
0.000000000000000
  0
LINE
  5
F10192
330
F10193
100
AcDbEntity
8
Geo
100
AcDbLine
10
-39.1209436133487
20
1.25277437523121
30
0.000000000000000
11
-39.0209436133487
21
1.19536256797396
31
0.000000000000000
  0
LINE
  5
F10194
330
F10195
100
AcDbEntity
8
Geo
100
AcDbLine
10
-39.0209436133487
20
1.19536256797396
30
0.000000000000000
11
-38.9209436133487
21
1.13799107132440
31
0.000000000000000
  0
LINE
  5
F10196
330
F10197
100
AcDbEntity
8
Geo
100
AcDbLine
10
-38.9209436133487
20
1.13799107132440
30
0.000000000000000
11
-38.8209436133487
21
1.08066224624137
31
0.000000000000000
  0
LINE
  5
F10198
330
F10199
100
AcDbEntity
8
Geo
100
AcDbLine
10
-38.8209436133487
20
1.08066224624137
30
0.000000000000000
11
-38.7209436133487
21
1.02337845192768
31
0.000000000000000
  0
LINE
  5
F1019A
330
F1019B
100
AcDbEntity
8
Geo
100
AcDbLine
10
-38.7209436133487
20
1.02337845192768
30
0.000000000000000
11
-38.6209436133487
21
0.966142045733042
31
0.000000000000000
  0
LINE
  5
F1019C
330
F1019D
100
AcDbEntity
8
Geo
100
AcDbLine
10
-38.6209436133487
20
0.966142045733042
30
0.000000000000000
11
-38.5209436133487
21
0.908955383057041
31
0.000000000000000
  0
LINE
  5
F1019E
330
F1019F
100
AcDbEntity
8
Geo
100
AcDbLine
10
-38.5209436133487
20
0.908955383057041
30
0.000000000000000
11
-38.4209436133487
21
0.851820817252210
31
0.000000000000000
  0
LINE
  5
F101A0
330
F101A1
100
AcDbEntity
8
Geo
100
AcDbLine
10
-38.4209436133487
20
0.851820817252210
30
0.000000000000000
11
-38.3209436133487
21
0.794740699527186
31
0.000000000000000
  0
LINE
  5
F101A2
330
F101A3
100
AcDbEntity
8
Geo
100
AcDbLine
10
-38.3209436133487
20
0.794740699527186
30
0.000000000000000
11
-38.2209436133487
21
0.737717378849951
31
0.000000000000000
  0
LINE
  5
F101A4
330
F101A5
100
AcDbEntity
8
Geo
100
AcDbLine
10
-38.2209436133487
20
0.737717378849951
30
0.000000000000000
11
-38.1209436133487
21
0.680753201851169
31
0.000000000000000
  0
LINE
  5
F101A6
330
F101A7
100
AcDbEntity
8
Geo
100
AcDbLine
10
-38.1209436133487
20
0.680753201851169
30
0.000000000000000
11
-38.0209436133487
21
0.623850512727615
31
0.000000000000000
  0
LINE
  5
F101A8
330
F101A9
100
AcDbEntity
8
Geo
100
AcDbLine
10
-38.0209436133487
20
0.623850512727615
30
0.000000000000000
11
-37.9209436133487
21
0.567011653145709
31
0.000000000000000
  0
LINE
  5
F101AA
330
F101AB
100
AcDbEntity
8
Geo
100
AcDbLine
10
-37.9209436133487
20
0.567011653145709
30
0.000000000000000
11
-37.8209436133487
21
0.510238962145148
31
0.000000000000000
  0
LINE
  5
F101AC
330
F101AD
100
AcDbEntity
8
Geo
100
AcDbLine
10
-37.8209436133487
20
0.510238962145148
30
0.000000000000000
11
-37.7209436133487
21
0.453534776042653
31
0.000000000000000
  0
LINE
  5
F101AE
330
F101AF
100
AcDbEntity
8
Geo
100
AcDbLine
10
-37.7209436133487
20
0.453534776042653
30
0.000000000000000
11
-37.6209436133487
21
0.396901428335823
31
0.000000000000000
  0
LINE
  5
F101B0
330
F101B1
100
AcDbEntity
8
Geo
100
AcDbLine
10
-37.6209436133487
20
0.396901428335823
30
0.000000000000000
11
-37.5209436133487
21
0.340341249607105
31
0.000000000000000
  0
LINE
  5
F101B2
330
F101B3
100
AcDbEntity
8
Geo
100
AcDbLine
10
-37.5209436133487
20
0.340341249607105
30
0.000000000000000
11
-37.4209436133487
21
0.283856567427890
31
0.000000000000000
  0
LINE
  5
F101B4
330
F101B5
100
AcDbEntity
8
Geo
100
AcDbLine
10
-37.4209436133487
20
0.283856567427890
30
0.000000000000000
11
-37.3209436133487
21
0.227449706262722
31
0.000000000000000
  0
LINE
  5
F101B6
330
F101B7
100
AcDbEntity
8
Geo
100
AcDbLine
10
-37.3209436133487
20
0.227449706262722
30
0.000000000000000
11
-37.2209436133487
21
0.171122987373650
31
0.000000000000000
  0
LINE
  5
F101B8
330
F101B9
100
AcDbEntity
8
Geo
100
AcDbLine
10
-37.2209436133487
20
0.171122987373650
30
0.000000000000000
11
-37.1209436133487
21
0.114878728724694
31
0.000000000000000
  0
LINE
  5
F101BA
330
F101BB
100
AcDbEntity
8
Geo
100
AcDbLine
10
-37.1209436133487
20
0.114878728724694
30
0.000000000000000
11
-37.0209436133487
21
0.0587192448864613
31
0.000000000000000
  0
LINE
  5
F101BC
330
F101BD
100
AcDbEntity
8
Geo
100
AcDbLine
10
-37.0209436133487
20
0.0587192448864613
30
0.000000000000000
11
-36.9209436133487
21
0.00264684694089778
31
0.000000000000000
  0
LINE
  5
F101BE
330
F101BF
100
AcDbEntity
8
Geo
100
AcDbLine
10
-36.9209436133487
20
0.00264684694089778
30
0.000000000000000
11
-36.8209436133487
21
-0.0533361576138227
31
0.000000000000000
  0
LINE
  5
F101C0
330
F101C1
100
AcDbEntity
8
Geo
100
AcDbLine
10
-36.8209436133487
20
-0.0533361576138227
30
0.000000000000000
11
-36.7209436133487
21
-0.109227464958252
31
0.000000000000000
  0
LINE
  5
F101C2
330
F101C3
100
AcDbEntity
8
Geo
100
AcDbLine
10
-36.7209436133487
20
-0.109227464958252
30
0.000000000000000
11
-36.6209436133487
21
-0.165024775046478
31
0.000000000000000
  0
LINE
  5
F101C4
330
F101C5
100
AcDbEntity
8
Geo
100
AcDbLine
10
-36.6209436133487
20
-0.165024775046478
30
0.000000000000000
11
-36.5209436133487
21
-0.220725791700775
31
0.000000000000000
  0
LINE
  5
F101C6
330
F101C7
100
AcDbEntity
8
Geo
100
AcDbLine
10
-36.5209436133487
20
-0.220725791700775
30
0.000000000000000
11
-36.4209436133487
21
-0.276328222706097
31
0.000000000000000
  0
LINE
  5
F101C8
330
F101C9
100
AcDbEntity
8
Geo
100
AcDbLine
10
-36.4209436133487
20
-0.276328222706097
30
0.000000000000000
11
-36.3209436133487
21
-0.331829779904405
31
0.000000000000000
  0
LINE
  5
F101CA
330
F101CB
100
AcDbEntity
8
Geo
100
AcDbLine
10
-36.3209436133487
20
-0.331829779904405
30
0.000000000000000
11
-36.2209436133487
21
-0.387228179288831
31
0.000000000000000
  0
LINE
  5
F101CC
330
F101CD
100
AcDbEntity
8
Geo
100
AcDbLine
10
-36.2209436133487
20
-0.387228179288831
30
0.000000000000000
11
-36.1209436133487
21
-0.442521141097673
31
0.000000000000000
  0
LINE
  5
F101CE
330
F101CF
100
AcDbEntity
8
Geo
100
AcDbLine
10
-36.1209436133487
20
-0.442521141097673
30
0.000000000000000
11
-36.0209436133487
21
-0.497706389908207
31
0.000000000000000
  0
LINE
  5
F101D0
330
F101D1
100
AcDbEntity
8
Geo
100
AcDbLine
10
-36.0209436133487
20
-0.497706389908207
30
0.000000000000000
11
-35.9209436133487
21
-0.552781654730325
31
0.000000000000000
  0
LINE
  5
F101D2
330
F101D3
100
AcDbEntity
8
Geo
100
AcDbLine
10
-35.9209436133487
20
-0.552781654730325
30
0.000000000000000
11
-35.8209436133487
21
-0.607744669100000
31
0.000000000000000
  0
LINE
  5
F101D4
330
F101D5
100
AcDbEntity
8
Geo
100
AcDbLine
10
-35.8209436133487
20
-0.607744669100000
30
0.000000000000000
11
-35.7209436133487
21
-0.662593171172544
31
0.000000000000000
  0
LINE
  5
F101D6
330
F101D7
100
AcDbEntity
8
Geo
100
AcDbLine
10
-35.7209436133487
20
-0.662593171172544
30
0.000000000000000
11
-35.6209436133487
21
-0.717324903815693
31
0.000000000000000
  0
LINE
  5
F101D8
330
F101D9
100
AcDbEntity
8
Geo
100
AcDbLine
10
-35.6209436133487
20
-0.717324903815693
30
0.000000000000000
11
-35.5209436133487
21
-0.771937614702497
31
0.000000000000000
  0
LINE
  5
F101DA
330
F101DB
100
AcDbEntity
8
Geo
100
AcDbLine
10
-35.5209436133487
20
-0.771937614702497
30
0.000000000000000
11
-35.4209436133487
21
-0.826429056403999
31
0.000000000000000
  0
LINE
  5
F101DC
330
F101DD
100
AcDbEntity
8
Geo
100
AcDbLine
10
-35.4209436133487
20
-0.826429056403999
30
0.000000000000000
11
-35.3209436133487
21
-0.880796986481730
31
0.000000000000000
  0
LINE
  5
F101DE
330
F101DF
100
AcDbEntity
8
Geo
100
AcDbLine
10
-35.3209436133487
20
-0.880796986481730
30
0.000000000000000
11
-35.2209436133487
21
-0.935039167579984
31
0.000000000000000
  0
LINE
  5
F101E0
330
F101E1
100
AcDbEntity
8
Geo
100
AcDbLine
10
-35.2209436133487
20
-0.935039167579984
30
0.000000000000000
11
-35.1209436133487
21
-0.989153367517894
31
0.000000000000000
  0
LINE
  5
F101E2
330
F101E3
100
AcDbEntity
8
Geo
100
AcDbLine
10
-35.1209436133487
20
-0.989153367517894
30
0.000000000000000
11
-35.0209436133487
21
-1.04313735938129
31
0.000000000000000
  0
LINE
  5
F101E4
330
F101E5
100
AcDbEntity
8
Geo
100
AcDbLine
10
-35.0209436133487
20
-1.04313735938129
30
0.000000000000000
11
-34.9209436133487
21
-1.09698892161434
31
0.000000000000000
  0
LINE
  5
F101E6
330
F101E7
100
AcDbEntity
8
Geo
100
AcDbLine
10
-34.9209436133487
20
-1.09698892161434
30
0.000000000000000
11
-34.8209436133487
21
-1.15070583811096
31
0.000000000000000
  0
LINE
  5
F101E8
330
F101E9
100
AcDbEntity
8
Geo
100
AcDbLine
10
-34.8209436133487
20
-1.15070583811096
30
0.000000000000000
11
-34.7209436133487
21
-1.20428589830605
31
0.000000000000000
  0
LINE
  5
F101EA
330
F101EB
100
AcDbEntity
8
Geo
100
AcDbLine
10
-34.7209436133487
20
-1.20428589830605
30
0.000000000000000
11
-34.6209436133487
21
-1.25772689726642
31
0.000000000000000
  0
LINE
  5
F101EC
330
F101ED
100
AcDbEntity
8
Geo
100
AcDbLine
10
-34.6209436133487
20
-1.25772689726642
30
0.000000000000000
11
-34.5209436133487
21
-1.31102663578155
31
0.000000000000000
  0
LINE
  5
F101EE
330
F101EF
100
AcDbEntity
8
Geo
100
AcDbLine
10
-34.5209436133487
20
-1.31102663578155
30
0.000000000000000
11
-34.4209436133487
21
-1.36418292045407
31
0.000000000000000
  0
LINE
  5
F101F0
330
F101F1
100
AcDbEntity
8
Geo
100
AcDbLine
10
-34.4209436133487
20
-1.36418292045407
30
0.000000000000000
11
-34.3209436133487
21
-1.41719356379007
31
0.000000000000000
  0
LINE
  5
F101F2
330
F101F3
100
AcDbEntity
8
Geo
100
AcDbLine
10
-34.3209436133487
20
-1.41719356379007
30
0.000000000000000
11
-34.2209436133487
21
-1.47005638428907
31
0.000000000000000
  0
LINE
  5
F101F4
330
F101F5
100
AcDbEntity
8
Geo
100
AcDbLine
10
-34.2209436133487
20
-1.47005638428907
30
0.000000000000000
11
-34.1209436133487
21
-1.52276920653382
31
0.000000000000000
  0
LINE
  5
F101F6
330
F101F7
100
AcDbEntity
8
Geo
100
AcDbLine
10
-34.1209436133487
20
-1.52276920653382
30
0.000000000000000
11
-34.0209436133487
21
-1.57532986127982
31
0.000000000000000
  0
LINE
  5
F101F8
330
F101F9
100
AcDbEntity
8
Geo
100
AcDbLine
10
-34.0209436133487
20
-1.57532986127982
30
0.000000000000000
11
-33.9209436133487
21
-1.62773618554456
31
0.000000000000000
  0
LINE
  5
F101FA
330
F101FB
100
AcDbEntity
8
Geo
100
AcDbLine
10
-33.9209436133487
20
-1.62773618554456
30
0.000000000000000
11
-33.8209436133487
21
-1.67998602269660
31
0.000000000000000
  0
LINE
  5
F101FC
330
F101FD
100
AcDbEntity
8
Geo
100
AcDbLine
10
-33.8209436133487
20
-1.67998602269660
30
0.000000000000000
11
-33.7209436133487
21
-1.73207722254424
31
0.000000000000000
  0
LINE
  5
F101FE
330
F101FF
100
AcDbEntity
8
Geo
100
AcDbLine
10
-33.7209436133487
20
-1.73207722254424
30
0.000000000000000
11
-33.6209436133487
21
-1.78400764142407
31
0.000000000000000
  0
LINE
  5
F10200
330
F10201
100
AcDbEntity
8
Geo
100
AcDbLine
10
-33.6209436133487
20
-1.78400764142407
30
0.000000000000000
11
-33.5209436133487
21
-1.83577514228912
31
0.000000000000000
  0
LINE
  5
F10202
330
F10203
100
AcDbEntity
8
Geo
100
AcDbLine
10
-33.5209436133487
20
-1.83577514228912
30
0.000000000000000
11
-33.4209436133487
21
-1.88737759479689
31
0.000000000000000
  0
LINE
  5
F10204
330
F10205
100
AcDbEntity
8
Geo
100
AcDbLine
10
-33.4209436133487
20
-1.88737759479689
30
0.000000000000000
11
-33.3209436133487
21
-1.93881287539694
31
0.000000000000000
  0
LINE
  5
F10206
330
F10207
100
AcDbEntity
8
Geo
100
AcDbLine
10
-33.3209436133487
20
-1.93881287539694
30
0.000000000000000
11
-33.2209436133487
21
-1.99007886741831
31
0.000000000000000
  0
LINE
  5
F10208
330
F10209
100
AcDbEntity
8
Geo
100
AcDbLine
10
-33.2209436133487
20
-1.99007886741831
30
0.000000000000000
11
-33.1209436133487
21
-2.04117346115662
31
0.000000000000000
  0
LINE
  5
F1020A
330
F1020B
100
AcDbEntity
8
Geo
100
AcDbLine
10
-33.1209436133487
20
-2.04117346115662
30
0.000000000000000
11
-33.0209436133487
21
-2.09209455396092
31
0.000000000000000
  0
LINE
  5
F1020C
330
F1020D
100
AcDbEntity
8
Geo
100
AcDbLine
10
-33.0209436133487
20
-2.09209455396092
30
0.000000000000000
11
-32.9209436133487
21
-2.14284005032017
31
0.000000000000000
  0
LINE
  5
F1020E
330
F1020F
100
AcDbEntity
8
Geo
100
AcDbLine
10
-32.9209436133487
20
-2.14284005032017
30
0.000000000000000
11
-32.8209436133487
21
-2.19340786194950
31
0.000000000000000
  0
LINE
  5
F10210
330
F10211
100
AcDbEntity
8
Geo
100
AcDbLine
10
-32.8209436133487
20
-2.19340786194950
30
0.000000000000000
11
-32.7209436133487
21
-2.24379590787613
31
0.000000000000000
  0
LINE
  5
F10212
330
F10213
100
AcDbEntity
8
Geo
100
AcDbLine
10
-32.7209436133487
20
-2.24379590787613
30
0.000000000000000
11
-32.6209436133487
21
-2.29400211452505
31
0.000000000000000
  0
LINE
  5
F10214
330
F10215
100
AcDbEntity
8
Geo
100
AcDbLine
10
-32.6209436133487
20
-2.29400211452505
30
0.000000000000000
11
-32.5209436133487
21
-2.34402441580430
31
0.000000000000000
  0
LINE
  5
F10216
330
F10217
100
AcDbEntity
8
Geo
100
AcDbLine
10
-32.5209436133487
20
-2.34402441580430
30
0.000000000000000
11
-32.4209436133487
21
-2.39386075319003
31
0.000000000000000
  0
LINE
  5
F10218
330
F10219
100
AcDbEntity
8
Geo
100
AcDbLine
10
-32.4209436133487
20
-2.39386075319003
30
0.000000000000000
11
-32.3209436133487
21
-2.44350907581118
31
0.000000000000000
  0
LINE
  5
F1021A
330
F1021B
100
AcDbEntity
8
Geo
100
AcDbLine
10
-32.3209436133487
20
-2.44350907581118
30
0.000000000000000
11
-32.2209436133487
21
-2.49296734053392
31
0.000000000000000
  0
LINE
  5
F1021C
330
F1021D
100
AcDbEntity
8
Geo
100
AcDbLine
10
-32.2209436133487
20
-2.49296734053392
30
0.000000000000000
11
-32.1209436133487
21
-2.54223351204568
31
0.000000000000000
  0
LINE
  5
F1021E
330
F1021F
100
AcDbEntity
8
Geo
100
AcDbLine
10
-32.1209436133487
20
-2.54223351204568
30
0.000000000000000
11
-32.0209436133487
21
-2.59130556293895
31
0.000000000000000
  0
LINE
  5
F10220
330
F10221
100
AcDbEntity
8
Geo
100
AcDbLine
10
-32.0209436133487
20
-2.59130556293895
30
0.000000000000000
11
-31.9209436133487
21
-2.64018147379471
31
0.000000000000000
  0
LINE
  5
F10222
330
F10223
100
AcDbEntity
8
Geo
100
AcDbLine
10
-31.9209436133487
20
-2.64018147379471
30
0.000000000000000
11
-31.8209436133487
21
-2.68885923326548
31
0.000000000000000
  0
LINE
  5
F10224
330
F10225
100
AcDbEntity
8
Geo
100
AcDbLine
10
-31.8209436133487
20
-2.68885923326548
30
0.000000000000000
11
-31.7209436133487
21
-2.73733683815816
31
0.000000000000000
  0
LINE
  5
F10226
330
F10227
100
AcDbEntity
8
Geo
100
AcDbLine
10
-31.7209436133487
20
-2.73733683815816
30
0.000000000000000
11
-31.6209436133487
21
-2.78561229351643
31
0.000000000000000
  0
LINE
  5
F10228
330
F10229
100
AcDbEntity
8
Geo
100
AcDbLine
10
-31.6209436133487
20
-2.78561229351643
30
0.000000000000000
11
-31.5209436133487
21
-2.83368361270285
31
0.000000000000000
  0
LINE
  5
F1022A
330
F1022B
100
AcDbEntity
8
Geo
100
AcDbLine
10
-31.5209436133487
20
-2.83368361270285
30
0.000000000000000
11
-31.4209436133487
21
-2.88154881748061
31
0.000000000000000
  0
LINE
  5
F1022C
330
F1022D
100
AcDbEntity
8
Geo
100
AcDbLine
10
-31.4209436133487
20
-2.88154881748061
30
0.000000000000000
11
-31.3209436133487
21
-2.92920593809495
31
0.000000000000000
  0
LINE
  5
F1022E
330
F1022F
100
AcDbEntity
8
Geo
100
AcDbLine
10
-31.3209436133487
20
-2.92920593809495
30
0.000000000000000
11
-31.2209436133487
21
-2.97665301335423
31
0.000000000000000
  0
LINE
  5
F10230
330
F10231
100
AcDbEntity
8
Geo
100
AcDbLine
10
-31.2209436133487
20
-2.97665301335423
30
0.000000000000000
11
-31.1209436133487
21
-3.02388809071059
31
0.000000000000000
  0
LINE
  5
F10232
330
F10233
100
AcDbEntity
8
Geo
100
AcDbLine
10
-31.1209436133487
20
-3.02388809071059
30
0.000000000000000
11
-31.0209436133487
21
-3.07090922634037
31
0.000000000000000
  0
LINE
  5
F10234
330
F10235
100
AcDbEntity
8
Geo
100
AcDbLine
10
-31.0209436133487
20
-3.07090922634037
30
0.000000000000000
11
-30.9209436133487
21
-3.11771448522403
31
0.000000000000000
  0
LINE
  5
F10236
330
F10237
100
AcDbEntity
8
Geo
100
AcDbLine
10
-30.9209436133487
20
-3.11771448522403
30
0.000000000000000
11
-30.8209436133487
21
-3.16430194122585
31
0.000000000000000
  0
LINE
  5
F10238
330
F10239
100
AcDbEntity
8
Geo
100
AcDbLine
10
-30.8209436133487
20
-3.16430194122585
30
0.000000000000000
11
-30.7209436133487
21
-3.21066967717314
31
0.000000000000000
  0
LINE
  5
F1023A
330
F1023B
100
AcDbEntity
8
Geo
100
AcDbLine
10
-30.7209436133487
20
-3.21066967717314
30
0.000000000000000
11
-30.6209436133487
21
-3.25681578493517
31
0.000000000000000
  0
LINE
  5
F1023C
330
F1023D
100
AcDbEntity
8
Geo
100
AcDbLine
10
-30.6209436133487
20
-3.25681578493517
30
0.000000000000000
11
-30.5209436133487
21
-3.30273836550165
31
0.000000000000000
  0
LINE
  5
F1023E
330
F1023F
100
AcDbEntity
8
Geo
100
AcDbLine
10
-30.5209436133487
20
-3.30273836550165
30
0.000000000000000
11
-30.4209436133487
21
-3.34843552906095
31
0.000000000000000
  0
LINE
  5
F10240
330
F10241
100
AcDbEntity
8
Geo
100
AcDbLine
10
-30.4209436133487
20
-3.34843552906095
30
0.000000000000000
11
-30.3209436133487
21
-3.39390539507780
31
0.000000000000000
  0
LINE
  5
F10242
330
F10243
100
AcDbEntity
8
Geo
100
AcDbLine
10
-30.3209436133487
20
-3.39390539507780
30
0.000000000000000
11
-30.2209436133487
21
-3.43914609237072
31
0.000000000000000
  0
LINE
  5
F10244
330
F10245
100
AcDbEntity
8
Geo
100
AcDbLine
10
-30.2209436133487
20
-3.43914609237072
30
0.000000000000000
11
-30.1209436133487
21
-3.48415575918901
31
0.000000000000000
  0
LINE
  5
F10246
330
F10247
100
AcDbEntity
8
Geo
100
AcDbLine
10
-30.1209436133487
20
-3.48415575918901
30
0.000000000000000
11
-30.0209436133487
21
-3.52893254328934
31
0.000000000000000
  0
LINE
  5
F10248
330
F10249
100
AcDbEntity
8
Geo
100
AcDbLine
10
-30.0209436133487
20
-3.52893254328934
30
0.000000000000000
11
-29.9209436133487
21
-3.57347460201203
31
0.000000000000000
  0
LINE
  5
F1024A
330
F1024B
100
AcDbEntity
8
Geo
100
AcDbLine
10
-29.9209436133487
20
-3.57347460201203
30
0.000000000000000
11
-29.8209436133487
21
-3.61778010235684
31
0.000000000000000
  0
LINE
  5
F1024C
330
F1024D
100
AcDbEntity
8
Geo
100
AcDbLine
10
-29.8209436133487
20
-3.61778010235684
30
0.000000000000000
11
-29.7209436133487
21
-3.66184722105839
31
0.000000000000000
  0
LINE
  5
F1024E
330
F1024F
100
AcDbEntity
8
Geo
100
AcDbLine
10
-29.7209436133487
20
-3.66184722105839
30
0.000000000000000
11
-29.6209436133487
21
-3.70567414466123
31
0.000000000000000
  0
LINE
  5
F10250
330
F10251
100
AcDbEntity
8
Geo
100
AcDbLine
10
-29.6209436133487
20
-3.70567414466123
30
0.000000000000000
11
-29.5209436133487
21
-3.74925906959444
31
0.000000000000000
  0
LINE
  5
F10252
330
F10253
100
AcDbEntity
8
Geo
100
AcDbLine
10
-29.5209436133487
20
-3.74925906959444
30
0.000000000000000
11
-29.4209436133487
21
-3.79260020224586
31
0.000000000000000
  0
LINE
  5
F10254
330
F10255
100
AcDbEntity
8
Geo
100
AcDbLine
10
-29.4209436133487
20
-3.79260020224586
30
0.000000000000000
11
-29.3209436133487
21
-3.83569575903591
31
0.000000000000000
  0
LINE
  5
F10256
330
F10257
100
AcDbEntity
8
Geo
100
AcDbLine
10
-29.3209436133487
20
-3.83569575903591
30
0.000000000000000
11
-29.2209436133487
21
-3.87854396649096
31
0.000000000000000
  0
LINE
  5
F10258
330
F10259
100
AcDbEntity
8
Geo
100
AcDbLine
10
-29.2209436133487
20
-3.87854396649096
30
0.000000000000000
11
-29.1209436133487
21
-3.92114306131634
31
0.000000000000000
  0
LINE
  5
F1025A
330
F1025B
100
AcDbEntity
8
Geo
100
AcDbLine
10
-29.1209436133487
20
-3.92114306131634
30
0.000000000000000
11
-29.0209436133487
21
-3.96349129046889
31
0.000000000000000
  0
LINE
  5
F1025C
330
F1025D
100
AcDbEntity
8
Geo
100
AcDbLine
10
-29.0209436133487
20
-3.96349129046889
30
0.000000000000000
11
-28.9209436133487
21
-4.00558691122912
31
0.000000000000000
  0
LINE
  5
F1025E
330
F1025F
100
AcDbEntity
8
Geo
100
AcDbLine
10
-28.9209436133487
20
-4.00558691122912
30
0.000000000000000
11
-28.8209436133487
21
-4.04742819127288
31
0.000000000000000
  0
LINE
  5
F10260
330
F10261
100
AcDbEntity
8
Geo
100
AcDbLine
10
-28.8209436133487
20
-4.04742819127288
30
0.000000000000000
11
-28.7209436133487
21
-4.08901340874271
31
0.000000000000000
  0
LINE
  5
F10262
330
F10263
100
AcDbEntity
8
Geo
100
AcDbLine
10
-28.7209436133487
20
-4.08901340874271
30
0.000000000000000
11
-28.6209436133487
21
-4.13034085231865
31
0.000000000000000
  0
LINE
  5
F10264
330
F10265
100
AcDbEntity
8
Geo
100
AcDbLine
10
-28.6209436133487
20
-4.13034085231865
30
0.000000000000000
11
-28.5209436133487
21
-4.17140882128869
31
0.000000000000000
  0
LINE
  5
F10266
330
F10267
100
AcDbEntity
8
Geo
100
AcDbLine
10
-28.5209436133487
20
-4.17140882128869
30
0.000000000000000
11
-28.4209436133487
21
-4.21221562561876
31
0.000000000000000
  0
LINE
  5
F10268
330
F10269
100
AcDbEntity
8
Geo
100
AcDbLine
10
-28.4209436133487
20
-4.21221562561876
30
0.000000000000000
11
-28.3209436133487
21
-4.25275958602225
31
0.000000000000000
  0
LINE
  5
F1026A
330
F1026B
100
AcDbEntity
8
Geo
100
AcDbLine
10
-28.3209436133487
20
-4.25275958602225
30
0.000000000000000
11
-28.2209436133487
21
-4.29303903402915
31
0.000000000000000
  0
LINE
  5
F1026C
330
F1026D
100
AcDbEntity
8
Geo
100
AcDbLine
10
-28.2209436133487
20
-4.29303903402915
30
0.000000000000000
11
-28.1209436133487
21
-4.33305231205469
31
0.000000000000000
  0
LINE
  5
F1026E
330
F1026F
100
AcDbEntity
8
Geo
100
AcDbLine
10
-28.1209436133487
20
-4.33305231205469
30
0.000000000000000
11
-28.0209436133487
21
-4.37279777346756
31
0.000000000000000
  0
LINE
  5
F10270
330
F10271
100
AcDbEntity
8
Geo
100
AcDbLine
10
-28.0209436133487
20
-4.37279777346756
30
0.000000000000000
11
-27.9209436133487
21
-4.41227378265767
31
0.000000000000000
  0
LINE
  5
F10272
330
F10273
100
AcDbEntity
8
Geo
100
AcDbLine
10
-27.9209436133487
20
-4.41227378265767
30
0.000000000000000
11
-27.8209436133487
21
-4.45147871510348
31
0.000000000000000
  0
LINE
  5
F10274
330
F10275
100
AcDbEntity
8
Geo
100
AcDbLine
10
-27.8209436133487
20
-4.45147871510348
30
0.000000000000000
11
-27.7209436133487
21
-4.49041095743879
31
0.000000000000000
  0
LINE
  5
F10276
330
F10277
100
AcDbEntity
8
Geo
100
AcDbLine
10
-27.7209436133487
20
-4.49041095743879
30
0.000000000000000
11
-27.6209436133487
21
-4.52906890751923
31
0.000000000000000
  0
LINE
  5
F10278
330
F10279
100
AcDbEntity
8
Geo
100
AcDbLine
10
-27.6209436133487
20
-4.52906890751923
30
0.000000000000000
11
-27.5209436133487
21
-4.56745097448810
31
0.000000000000000
  0
LINE
  5
F1027A
330
F1027B
100
AcDbEntity
8
Geo
100
AcDbLine
10
-27.5209436133487
20
-4.56745097448810
30
0.000000000000000
11
-27.4209436133487
21
-4.60555557884189
31
0.000000000000000
  0
LINE
  5
F1027C
330
F1027D
100
AcDbEntity
8
Geo
100
AcDbLine
10
-27.4209436133487
20
-4.60555557884189
30
0.000000000000000
11
-27.3209436133487
21
-4.64338115249526
31
0.000000000000000
  0
LINE
  5
F1027E
330
F1027F
100
AcDbEntity
8
Geo
100
AcDbLine
10
-27.3209436133487
20
-4.64338115249526
30
0.000000000000000
11
-27.2209436133487
21
-4.68092613884558
31
0.000000000000000
  0
LINE
  5
F10280
330
F10281
100
AcDbEntity
8
Geo
100
AcDbLine
10
-27.2209436133487
20
-4.68092613884558
30
0.000000000000000
11
-27.1209436133487
21
-4.71818899283698
31
0.000000000000000
  0
LINE
  5
F10282
330
F10283
100
AcDbEntity
8
Geo
100
AcDbLine
10
-27.1209436133487
20
-4.71818899283698
30
0.000000000000000
11
-27.0209436133487
21
-4.75516818102395
31
0.000000000000000
  0
LINE
  5
F10284
330
F10285
100
AcDbEntity
8
Geo
100
AcDbLine
10
-27.0209436133487
20
-4.75516818102395
30
0.000000000000000
11
-26.9209436133487
21
-4.79186218163440
31
0.000000000000000
  0
LINE
  5
F10286
330
F10287
100
AcDbEntity
8
Geo
100
AcDbLine
10
-26.9209436133487
20
-4.79186218163440
30
0.000000000000000
11
-26.8209436133487
21
-4.82826948463235
31
0.000000000000000
  0
LINE
  5
F10288
330
F10289
100
AcDbEntity
8
Geo
100
AcDbLine
10
-26.8209436133487
20
-4.82826948463235
30
0.000000000000000
11
-26.7209436133487
21
-4.86438859178000
31
0.000000000000000
  0
LINE
  5
F1028A
330
F1028B
100
AcDbEntity
8
Geo
100
AcDbLine
10
-26.7209436133487
20
-4.86438859178000
30
0.000000000000000
11
-26.6209436133487
21
-4.90021801669944
31
0.000000000000000
  0
LINE
  5
F1028C
330
F1028D
100
AcDbEntity
8
Geo
100
AcDbLine
10
-26.6209436133487
20
-4.90021801669944
30
0.000000000000000
11
-26.5209436133487
21
-4.93575628493380
31
0.000000000000000
  0
LINE
  5
F1028E
330
F1028F
100
AcDbEntity
8
Geo
100
AcDbLine
10
-26.5209436133487
20
-4.93575628493380
30
0.000000000000000
11
-26.4209436133487
21
-4.97100193400791
31
0.000000000000000
  0
LINE
  5
F10290
330
F10291
100
AcDbEntity
8
Geo
100
AcDbLine
10
-26.4209436133487
20
-4.97100193400791
30
0.000000000000000
11
-26.3209436133487
21
-5.00595351348853
31
0.000000000000000
  0
LINE
  5
F10292
330
F10293
100
AcDbEntity
8
Geo
100
AcDbLine
10
-26.3209436133487
20
-5.00595351348853
30
0.000000000000000
11
-26.2209436133487
21
-5.04060958504398
31
0.000000000000000
  0
LINE
  5
F10294
330
F10295
100
AcDbEntity
8
Geo
100
AcDbLine
10
-26.2209436133487
20
-5.04060958504398
30
0.000000000000000
11
-26.1209436133487
21
-5.07496872250336
31
0.000000000000000
  0
LINE
  5
F10296
330
F10297
100
AcDbEntity
8
Geo
100
AcDbLine
10
-26.1209436133487
20
-5.07496872250336
30
0.000000000000000
11
-26.0209436133487
21
-5.10902951191525
31
0.000000000000000
  0
LINE
  5
F10298
330
F10299
100
AcDbEntity
8
Geo
100
AcDbLine
10
-26.0209436133487
20
-5.10902951191525
30
0.000000000000000
11
-25.9209436133487
21
-5.14279055160588
31
0.000000000000000
  0
LINE
  5
F1029A
330
F1029B
100
AcDbEntity
8
Geo
100
AcDbLine
10
-25.9209436133487
20
-5.14279055160588
30
0.000000000000000
11
-25.8209436133487
21
-5.17625045223681
31
0.000000000000000
  0
LINE
  5
F1029C
330
F1029D
100
AcDbEntity
8
Geo
100
AcDbLine
10
-25.8209436133487
20
-5.17625045223681
30
0.000000000000000
11
-25.7209436133487
21
-5.20940783686214
31
0.000000000000000
  0
LINE
  5
F1029E
330
F1029F
100
AcDbEntity
8
Geo
100
AcDbLine
10
-40.7209436133487
20
-6.82508630609895
30
0.000000000000000
11
-40.7209436133487
21
-6.82508630609895
31
0.000000000000000
  0
LINE
  5
F102A0
330
F102A1
100
AcDbEntity
8
Geo
100
AcDbLine
10
-40.7209436133487
20
10.7344223405574
30
0.000000000000000
11
-40.6209436133487
21
10.7164052374624
31
0.000000000000000
  0
LINE
  5
F102A2
330
F102A3
100
AcDbEntity
8
Geo
100
AcDbLine
10
-40.6209436133487
20
10.7164052374624
30
0.000000000000000
11
-40.5209436133487
21
10.6980366338631
31
0.000000000000000
  0
LINE
  5
F102A4
330
F102A5
100
AcDbEntity
8
Geo
100
AcDbLine
10
-40.5209436133487
20
10.6980366338631
30
0.000000000000000
11
-40.4209436133487
21
10.6793172856667
31
0.000000000000000
  0
LINE
  5
F102A6
330
F102A7
100
AcDbEntity
8
Geo
100
AcDbLine
10
-40.4209436133487
20
10.6793172856667
30
0.000000000000000
11
-40.3209436133487
21
10.6602479632141
31
0.000000000000000
  0
LINE
  5
F102A8
330
F102A9
100
AcDbEntity
8
Geo
100
AcDbLine
10
-40.3209436133487
20
10.6602479632141
30
0.000000000000000
11
-40.2209436133487
21
10.6408294512482
31
0.000000000000000
  0
LINE
  5
F102AA
330
F102AB
100
AcDbEntity
8
Geo
100
AcDbLine
10
-40.2209436133487
20
10.6408294512482
30
0.000000000000000
11
-40.1209436133487
21
10.6210625488822
31
0.000000000000000
  0
LINE
  5
F102AC
330
F102AD
100
AcDbEntity
8
Geo
100
AcDbLine
10
-40.1209436133487
20
10.6210625488822
30
0.000000000000000
11
-40.0209436133487
21
10.6009480695660
31
0.000000000000000
  0
LINE
  5
F102AE
330
F102AF
100
AcDbEntity
8
Geo
100
AcDbLine
10
-40.0209436133487
20
10.6009480695660
30
0.000000000000000
11
-39.9209436133487
21
10.5804868410530
31
0.000000000000000
  0
LINE
  5
F102B0
330
F102B1
100
AcDbEntity
8
Geo
100
AcDbLine
10
-39.9209436133487
20
10.5804868410530
30
0.000000000000000
11
-39.8209436133487
21
10.5596797053663
31
0.000000000000000
  0
LINE
  5
F102B2
330
F102B3
100
AcDbEntity
8
Geo
100
AcDbLine
10
-39.8209436133487
20
10.5596797053663
30
0.000000000000000
11
-39.7209436133487
21
10.5385275187637
31
0.000000000000000
  0
LINE
  5
F102B4
330
F102B5
100
AcDbEntity
8
Geo
100
AcDbLine
10
-39.7209436133487
20
10.5385275187637
30
0.000000000000000
11
-39.6209436133487
21
10.5170311517026
31
0.000000000000000
  0
LINE
  5
F102B6
330
F102B7
100
AcDbEntity
8
Geo
100
AcDbLine
10
-39.6209436133487
20
10.5170311517026
30
0.000000000000000
11
-39.5209436133487
21
10.4951914888040
31
0.000000000000000
  0
LINE
  5
F102B8
330
F102B9
100
AcDbEntity
8
Geo
100
AcDbLine
10
-39.5209436133487
20
10.4951914888040
30
0.000000000000000
11
-39.4209436133487
21
10.4730094288164
31
0.000000000000000
  0
LINE
  5
F102BA
330
F102BB
100
AcDbEntity
8
Geo
100
AcDbLine
10
-39.4209436133487
20
10.4730094288164
30
0.000000000000000
11
-39.3209436133487
21
10.4504858845787
31
0.000000000000000
  0
LINE
  5
F102BC
330
F102BD
100
AcDbEntity
8
Geo
100
AcDbLine
10
-39.3209436133487
20
10.4504858845787
30
0.000000000000000
11
-39.2209436133487
21
10.4276217829826
31
0.000000000000000
  0
LINE
  5
F102BE
330
F102BF
100
AcDbEntity
8
Geo
100
AcDbLine
10
-39.2209436133487
20
10.4276217829826
30
0.000000000000000
11
-39.1209436133487
21
10.4044180649342
31
0.000000000000000
  0
LINE
  5
F102C0
330
F102C1
100
AcDbEntity
8
Geo
100
AcDbLine
10
-39.1209436133487
20
10.4044180649342
30
0.000000000000000
11
-39.0209436133487
21
10.3808756853160
31
0.000000000000000
  0
LINE
  5
F102C2
330
F102C3
100
AcDbEntity
8
Geo
100
AcDbLine
10
-39.0209436133487
20
10.3808756853160
30
0.000000000000000
11
-38.9209436133487
21
10.3569956129467
31
0.000000000000000
  0
LINE
  5
F102C4
330
F102C5
100
AcDbEntity
8
Geo
100
AcDbLine
10
-38.9209436133487
20
10.3569956129467
30
0.000000000000000
11
-38.8209436133487
21
10.3327788305420
31
0.000000000000000
  0
LINE
  5
F102C6
330
F102C7
100
AcDbEntity
8
Geo
100
AcDbLine
10
-38.8209436133487
20
10.3327788305420
30
0.000000000000000
11
-38.7209436133487
21
10.3082263346740
31
0.000000000000000
  0
LINE
  5
F102C8
330
F102C9
100
AcDbEntity
8
Geo
100
AcDbLine
10
-38.7209436133487
20
10.3082263346740
30
0.000000000000000
11
-38.6209436133487
21
10.2833391357298
31
0.000000000000000
  0
LINE
  5
F102CA
330
F102CB
100
AcDbEntity
8
Geo
100
AcDbLine
10
-38.6209436133487
20
10.2833391357298
30
0.000000000000000
11
-38.5209436133487
21
10.2581182578706
31
0.000000000000000
  0
LINE
  5
F102CC
330
F102CD
100
AcDbEntity
8
Geo
100
AcDbLine
10
-38.5209436133487
20
10.2581182578706
30
0.000000000000000
11
-38.4209436133487
21
10.2325647389891
31
0.000000000000000
  0
LINE
  5
F102CE
330
F102CF
100
AcDbEntity
8
Geo
100
AcDbLine
10
-38.4209436133487
20
10.2325647389891
30
0.000000000000000
11
-38.3209436133487
21
10.2066796306667
31
0.000000000000000
  0
LINE
  5
F102D0
330
F102D1
100
AcDbEntity
8
Geo
100
AcDbLine
10
-38.3209436133487
20
10.2066796306667
30
0.000000000000000
11
-38.2209436133487
21
10.1804639981306
31
0.000000000000000
  0
LINE
  5
F102D2
330
F102D3
100
AcDbEntity
8
Geo
100
AcDbLine
10
-38.2209436133487
20
10.1804639981306
30
0.000000000000000
11
-38.1209436133487
21
10.1539189202097
31
0.000000000000000
  0
LINE
  5
F102D4
330
F102D5
100
AcDbEntity
8
Geo
100
AcDbLine
10
-38.1209436133487
20
10.1539189202097
30
0.000000000000000
11
-38.0209436133487
21
10.1270454892903
31
0.000000000000000
  0
LINE
  5
F102D6
330
F102D7
100
AcDbEntity
8
Geo
100
AcDbLine
10
-38.0209436133487
20
10.1270454892903
30
0.000000000000000
11
-37.9209436133487
21
10.0998448112711
31
0.000000000000000
  0
LINE
  5
F102D8
330
F102D9
100
AcDbEntity
8
Geo
100
AcDbLine
10
-37.9209436133487
20
10.0998448112711
30
0.000000000000000
11
-37.8209436133487
21
10.0723180055178
31
0.000000000000000
  0
LINE
  5
F102DA
330
F102DB
100
AcDbEntity
8
Geo
100
AcDbLine
10
-37.8209436133487
20
10.0723180055178
30
0.000000000000000
11
-37.7209436133487
21
10.0444662048168
31
0.000000000000000
  0
LINE
  5
F102DC
330
F102DD
100
AcDbEntity
8
Geo
100
AcDbLine
10
-37.7209436133487
20
10.0444662048168
30
0.000000000000000
11
-37.6209436133487
21
10.0162905553288
31
0.000000000000000
  0
LINE
  5
F102DE
330
F102DF
100
AcDbEntity
8
Geo
100
AcDbLine
10
-37.6209436133487
20
10.0162905553288
30
0.000000000000000
11
-37.5209436133487
21
9.98779221654158
31
0.000000000000000
  0
LINE
  5
F102E0
330
F102E1
100
AcDbEntity
8
Geo
100
AcDbLine
10
-37.5209436133487
20
9.98779221654158
30
0.000000000000000
11
-37.4209436133487
21
9.95897236122231
31
0.000000000000000
  0
LINE
  5
F102E2
330
F102E3
100
AcDbEntity
8
Geo
100
AcDbLine
10
-37.4209436133487
20
9.95897236122231
30
0.000000000000000
11
-37.3209436133487
21
9.92983217536917
31
0.000000000000000
  0
LINE
  5
F102E4
330
F102E5
100
AcDbEntity
8
Geo
100
AcDbLine
10
-37.3209436133487
20
9.92983217536917
30
0.000000000000000
11
-37.2209436133487
21
9.90037285816265
31
0.000000000000000
  0
LINE
  5
F102E6
330
F102E7
100
AcDbEntity
8
Geo
100
AcDbLine
10
-37.2209436133487
20
9.90037285816265
30
0.000000000000000
11
-37.1209436133487
21
9.87059562191617
31
0.000000000000000
  0
LINE
  5
F102E8
330
F102E9
100
AcDbEntity
8
Geo
100
AcDbLine
10
-37.1209436133487
20
9.87059562191617
30
0.000000000000000
11
-37.0209436133487
21
9.84050169202620
31
0.000000000000000
  0
LINE
  5
F102EA
330
F102EB
100
AcDbEntity
8
Geo
100
AcDbLine
10
-37.0209436133487
20
9.84050169202620
30
0.000000000000000
11
-36.9209436133487
21
9.81009230692183
31
0.000000000000000
  0
LINE
  5
F102EC
330
F102ED
100
AcDbEntity
8
Geo
100
AcDbLine
10
-36.9209436133487
20
9.81009230692183
30
0.000000000000000
11
-36.8209436133487
21
9.77936871801377
31
0.000000000000000
  0
LINE
  5
F102EE
330
F102EF
100
AcDbEntity
8
Geo
100
AcDbLine
10
-36.8209436133487
20
9.77936871801377
30
0.000000000000000
11
-36.7209436133487
21
9.74833218964293
31
0.000000000000000
  0
LINE
  5
F102F0
330
F102F1
100
AcDbEntity
8
Geo
100
AcDbLine
10
-36.7209436133487
20
9.74833218964293
30
0.000000000000000
11
-36.6209436133487
21
9.71698399902831
31
0.000000000000000
  0
LINE
  5
F102F2
330
F102F3
100
AcDbEntity
8
Geo
100
AcDbLine
10
-36.6209436133487
20
9.71698399902831
30
0.000000000000000
11
-36.5209436133487
21
9.68532543621448
31
0.000000000000000
  0
LINE
  5
F102F4
330
F102F5
100
AcDbEntity
8
Geo
100
AcDbLine
10
-36.5209436133487
20
9.68532543621448
30
0.000000000000000
11
-36.4209436133487
21
9.65335780401849
31
0.000000000000000
  0
LINE
  5
F102F6
330
F102F7
100
AcDbEntity
8
Geo
100
AcDbLine
10
-36.4209436133487
20
9.65335780401849
30
0.000000000000000
11
-36.3209436133487
21
9.62108241797626
31
0.000000000000000
  0
LINE
  5
F102F8
330
F102F9
100
AcDbEntity
8
Geo
100
AcDbLine
10
-36.3209436133487
20
9.62108241797626
30
0.000000000000000
11
-36.2209436133487
21
9.58850060628840
31
0.000000000000000
  0
LINE
  5
F102FA
330
F102FB
100
AcDbEntity
8
Geo
100
AcDbLine
10
-36.2209436133487
20
9.58850060628840
30
0.000000000000000
11
-36.1209436133487
21
9.55561370976562
31
0.000000000000000
  0
LINE
  5
F102FC
330
F102FD
100
AcDbEntity
8
Geo
100
AcDbLine
10
-36.1209436133487
20
9.55561370976562
30
0.000000000000000
11
-36.0209436133487
21
9.52242308177350
31
0.000000000000000
  0
LINE
  5
F102FE
330
F102FF
100
AcDbEntity
8
Geo
100
AcDbLine
10
-36.0209436133487
20
9.52242308177350
30
0.000000000000000
11
-35.9209436133487
21
9.48893008817683
31
0.000000000000000
  0
LINE
  5
F10300
330
F10301
100
AcDbEntity
8
Geo
100
AcDbLine
10
-35.9209436133487
20
9.48893008817683
30
0.000000000000000
11
-35.8209436133487
21
9.45513610728337
31
0.000000000000000
  0
LINE
  5
F10302
330
F10303
100
AcDbEntity
8
Geo
100
AcDbLine
10
-35.8209436133487
20
9.45513610728337
30
0.000000000000000
11
-35.7209436133487
21
9.42104252978716
31
0.000000000000000
  0
LINE
  5
F10304
330
F10305
100
AcDbEntity
8
Geo
100
AcDbLine
10
-35.7209436133487
20
9.42104252978716
30
0.000000000000000
11
-35.6209436133487
21
9.38665075871126
31
0.000000000000000
  0
LINE
  5
F10306
330
F10307
100
AcDbEntity
8
Geo
100
AcDbLine
10
-35.6209436133487
20
9.38665075871126
30
0.000000000000000
11
-35.5209436133487
21
9.35196220935004
31
0.000000000000000
  0
LINE
  5
F10308
330
F10309
100
AcDbEntity
8
Geo
100
AcDbLine
10
-35.5209436133487
20
9.35196220935004
30
0.000000000000000
11
-35.4209436133487
21
9.31697830921093
31
0.000000000000000
  0
LINE
  5
F1030A
330
F1030B
100
AcDbEntity
8
Geo
100
AcDbLine
10
-35.4209436133487
20
9.31697830921093
30
0.000000000000000
11
-35.3209436133487
21
9.28170049795565
31
0.000000000000000
  0
LINE
  5
F1030C
330
F1030D
100
AcDbEntity
8
Geo
100
AcDbLine
10
-35.3209436133487
20
9.28170049795565
30
0.000000000000000
11
-35.2209436133487
21
9.24613022734103
31
0.000000000000000
  0
LINE
  5
F1030E
330
F1030F
100
AcDbEntity
8
Geo
100
AcDbLine
10
-35.2209436133487
20
9.24613022734103
30
0.000000000000000
11
-35.1209436133487
21
9.21026896115916
31
0.000000000000000
  0
LINE
  5
F10310
330
F10311
100
AcDbEntity
8
Geo
100
AcDbLine
10
-35.1209436133487
20
9.21026896115916
30
0.000000000000000
11
-35.0209436133487
21
9.17411817517728
31
0.000000000000000
  0
LINE
  5
F10312
330
F10313
100
AcDbEntity
8
Geo
100
AcDbLine
10
-35.0209436133487
20
9.17411817517728
30
0.000000000000000
11
-34.9209436133487
21
9.13767935707693
31
0.000000000000000
  0
LINE
  5
F10314
330
F10315
100
AcDbEntity
8
Geo
100
AcDbLine
10
-34.9209436133487
20
9.13767935707693
30
0.000000000000000
11
-34.8209436133487
21
9.10095400639283
31
0.000000000000000
  0
LINE
  5
F10316
330
F10317
100
AcDbEntity
8
Geo
100
AcDbLine
10
-34.8209436133487
20
9.10095400639283
30
0.000000000000000
11
-34.7209436133487
21
9.06394363445108
31
0.000000000000000
  0
LINE
  5
F10318
330
F10319
100
AcDbEntity
8
Geo
100
AcDbLine
10
-34.7209436133487
20
9.06394363445108
30
0.000000000000000
11
-34.6209436133487
21
9.02664976430704
31
0.000000000000000
  0
LINE
  5
F1031A
330
F1031B
100
AcDbEntity
8
Geo
100
AcDbLine
10
-34.6209436133487
20
9.02664976430704
30
0.000000000000000
11
-34.5209436133487
21
8.98907393068262
31
0.000000000000000
  0
LINE
  5
F1031C
330
F1031D
100
AcDbEntity
8
Geo
100
AcDbLine
10
-34.5209436133487
20
8.98907393068262
30
0.000000000000000
11
-34.4209436133487
21
8.95121767990311
31
0.000000000000000
  0
LINE
  5
F1031E
330
F1031F
100
AcDbEntity
8
Geo
100
AcDbLine
10
-34.4209436133487
20
8.95121767990311
30
0.000000000000000
11
-34.3209436133487
21
8.91308256983357
31
0.000000000000000
  0
LINE
  5
F10320
330
F10321
100
AcDbEntity
8
Geo
100
AcDbLine
10
-34.3209436133487
20
8.91308256983357
30
0.000000000000000
11
-34.2209436133487
21
8.87467016981471
31
0.000000000000000
  0
LINE
  5
F10322
330
F10323
100
AcDbEntity
8
Geo
100
AcDbLine
10
-34.2209436133487
20
8.87467016981471
30
0.000000000000000
11
-34.1209436133487
21
8.83598206059832
31
0.000000000000000
  0
LINE
  5
F10324
330
F10325
100
AcDbEntity
8
Geo
100
AcDbLine
10
-34.1209436133487
20
8.83598206059832
30
0.000000000000000
11
-34.0209436133487
21
8.79701983428219
31
0.000000000000000
  0
LINE
  5
F10326
330
F10327
100
AcDbEntity
8
Geo
100
AcDbLine
10
-34.0209436133487
20
8.79701983428219
30
0.000000000000000
11
-33.9209436133487
21
8.75778509424463
31
0.000000000000000
  0
LINE
  5
F10328
330
F10329
100
AcDbEntity
8
Geo
100
AcDbLine
10
-33.9209436133487
20
8.75778509424463
30
0.000000000000000
11
-33.8209436133487
21
8.71827945507846
31
0.000000000000000
  0
LINE
  5
F1032A
330
F1032B
100
AcDbEntity
8
Geo
100
AcDbLine
10
-33.8209436133487
20
8.71827945507846
30
0.000000000000000
11
-33.7209436133487
21
8.67850454252456
31
0.000000000000000
  0
LINE
  5
F1032C
330
F1032D
100
AcDbEntity
8
Geo
100
AcDbLine
10
-33.7209436133487
20
8.67850454252456
30
0.000000000000000
11
-33.6209436133487
21
8.63846199340500
31
0.000000000000000
  0
LINE
  5
F1032E
330
F1032F
100
AcDbEntity
8
Geo
100
AcDbLine
10
-33.6209436133487
20
8.63846199340500
30
0.000000000000000
11
-33.5209436133487
21
8.59815345555565
31
0.000000000000000
  0
LINE
  5
F10330
330
F10331
100
AcDbEntity
8
Geo
100
AcDbLine
10
-33.5209436133487
20
8.59815345555565
30
0.000000000000000
11
-33.4209436133487
21
8.55758058775841
31
0.000000000000000
  0
LINE
  5
F10332
330
F10333
100
AcDbEntity
8
Geo
100
AcDbLine
10
-33.4209436133487
20
8.55758058775841
30
0.000000000000000
11
-33.3209436133487
21
8.51674505967286
31
0.000000000000000
  0
LINE
  5
F10334
330
F10335
100
AcDbEntity
8
Geo
100
AcDbLine
10
-33.3209436133487
20
8.51674505967286
30
0.000000000000000
11
-33.2209436133487
21
8.47564855176768
31
0.000000000000000
  0
LINE
  5
F10336
330
F10337
100
AcDbEntity
8
Geo
100
AcDbLine
10
-33.2209436133487
20
8.47564855176768
30
0.000000000000000
11
-33.1209436133487
21
8.43429275525137
31
0.000000000000000
  0
LINE
  5
F10338
330
F10339
100
AcDbEntity
8
Geo
100
AcDbLine
10
-33.1209436133487
20
8.43429275525137
30
0.000000000000000
11
-33.0209436133487
21
8.39267937200271
31
0.000000000000000
  0
LINE
  5
F1033A
330
F1033B
100
AcDbEntity
8
Geo
100
AcDbLine
10
-33.0209436133487
20
8.39267937200271
30
0.000000000000000
11
-32.9209436133487
21
8.35081011450076
31
0.000000000000000
  0
LINE
  5
F1033C
330
F1033D
100
AcDbEntity
8
Geo
100
AcDbLine
10
-32.9209436133487
20
8.35081011450076
30
0.000000000000000
11
-32.8209436133487
21
8.30868670575432
31
0.000000000000000
  0
LINE
  5
F1033E
330
F1033F
100
AcDbEntity
8
Geo
100
AcDbLine
10
-32.8209436133487
20
8.30868670575432
30
0.000000000000000
11
-32.7209436133487
21
8.26631087923104
31
0.000000000000000
  0
LINE
  5
F10340
330
F10341
100
AcDbEntity
8
Geo
100
AcDbLine
10
-32.7209436133487
20
8.26631087923104
30
0.000000000000000
11
-32.6209436133487
21
8.22368437878612
31
0.000000000000000
  0
LINE
  5
F10342
330
F10343
100
AcDbEntity
8
Geo
100
AcDbLine
10
-32.6209436133487
20
8.22368437878612
30
0.000000000000000
11
-32.5209436133487
21
8.18080895859052
31
0.000000000000000
  0
LINE
  5
F10344
330
F10345
100
AcDbEntity
8
Geo
100
AcDbLine
10
-32.5209436133487
20
8.18080895859052
30
0.000000000000000
11
-32.4209436133487
21
8.13768638305878
31
0.000000000000000
  0
LINE
  5
F10346
330
F10347
100
AcDbEntity
8
Geo
100
AcDbLine
10
-32.4209436133487
20
8.13768638305878
30
0.000000000000000
11
-32.3209436133487
21
8.09431842677639
31
0.000000000000000
  0
LINE
  5
F10348
330
F10349
100
AcDbEntity
8
Geo
100
AcDbLine
10
-32.3209436133487
20
8.09431842677639
30
0.000000000000000
11
-32.2209436133487
21
8.05070687442679
31
0.000000000000000
  0
LINE
  5
F1034A
330
F1034B
100
AcDbEntity
8
Geo
100
AcDbLine
10
-32.2209436133487
20
8.05070687442679
30
0.000000000000000
11
-32.1209436133487
21
8.00685352071791
31
0.000000000000000
  0
LINE
  5
F1034C
330
F1034D
100
AcDbEntity
8
Geo
100
AcDbLine
10
-32.1209436133487
20
8.00685352071791
30
0.000000000000000
11
-32.0209436133487
21
7.96276017030834
31
0.000000000000000
  0
LINE
  5
F1034E
330
F1034F
100
AcDbEntity
8
Geo
100
AcDbLine
10
-32.0209436133487
20
7.96276017030834
30
0.000000000000000
11
-31.9209436133487
21
7.91842863773301
31
0.000000000000000
  0
LINE
  5
F10350
330
F10351
100
AcDbEntity
8
Geo
100
AcDbLine
10
-31.9209436133487
20
7.91842863773301
30
0.000000000000000
11
-31.8209436133487
21
7.87386074732857
31
0.000000000000000
  0
LINE
  5
F10352
330
F10353
100
AcDbEntity
8
Geo
100
AcDbLine
10
-31.8209436133487
20
7.87386074732857
30
0.000000000000000
11
-31.7209436133487
21
7.82905833315830
31
0.000000000000000
  0
LINE
  5
F10354
330
F10355
100
AcDbEntity
8
Geo
100
AcDbLine
10
-31.7209436133487
20
7.82905833315830
30
0.000000000000000
11
-31.6209436133487
21
7.78402323893662
31
0.000000000000000
  0
LINE
  5
F10356
330
F10357
100
AcDbEntity
8
Geo
100
AcDbLine
10
-31.6209436133487
20
7.78402323893662
30
0.000000000000000
11
-31.5209436133487
21
7.73875731795324
31
0.000000000000000
  0
LINE
  5
F10358
330
F10359
100
AcDbEntity
8
Geo
100
AcDbLine
10
-31.5209436133487
20
7.73875731795324
30
0.000000000000000
11
-31.4209436133487
21
7.69326243299686
31
0.000000000000000
  0
LINE
  5
F1035A
330
F1035B
100
AcDbEntity
8
Geo
100
AcDbLine
10
-31.4209436133487
20
7.69326243299686
30
0.000000000000000
11
-31.3209436133487
21
7.64754045627857
31
0.000000000000000
  0
LINE
  5
F1035C
330
F1035D
100
AcDbEntity
8
Geo
100
AcDbLine
10
-31.3209436133487
20
7.64754045627857
30
0.000000000000000
11
-31.2209436133487
21
7.60159326935472
31
0.000000000000000
  0
LINE
  5
F1035E
330
F1035F
100
AcDbEntity
8
Geo
100
AcDbLine
10
-31.2209436133487
20
7.60159326935472
30
0.000000000000000
11
-31.1209436133487
21
7.55542276304958
31
0.000000000000000
  0
LINE
  5
F10360
330
F10361
100
AcDbEntity
8
Geo
100
AcDbLine
10
-31.1209436133487
20
7.55542276304958
30
0.000000000000000
11
-31.0209436133487
21
7.50903083737746
31
0.000000000000000
  0
LINE
  5
F10362
330
F10363
100
AcDbEntity
8
Geo
100
AcDbLine
10
-31.0209436133487
20
7.50903083737746
30
0.000000000000000
11
-30.9209436133487
21
7.46241940146457
31
0.000000000000000
  0
LINE
  5
F10364
330
F10365
100
AcDbEntity
8
Geo
100
AcDbLine
10
-30.9209436133487
20
7.46241940146457
30
0.000000000000000
11
-30.8209436133487
21
7.41559037347040
31
0.000000000000000
  0
LINE
  5
F10366
330
F10367
100
AcDbEntity
8
Geo
100
AcDbLine
10
-30.8209436133487
20
7.41559037347040
30
0.000000000000000
11
-30.7209436133487
21
7.36854568050885
31
0.000000000000000
  0
LINE
  5
F10368
330
F10369
100
AcDbEntity
8
Geo
100
AcDbLine
10
-30.7209436133487
20
7.36854568050885
30
0.000000000000000
11
-30.6209436133487
21
7.32128725856887
31
0.000000000000000
  0
LINE
  5
F1036A
330
F1036B
100
AcDbEntity
8
Geo
100
AcDbLine
10
-30.6209436133487
20
7.32128725856887
30
0.000000000000000
11
-30.5209436133487
21
7.27381705243482
31
0.000000000000000
  0
LINE
  5
F1036C
330
F1036D
100
AcDbEntity
8
Geo
100
AcDbLine
10
-30.5209436133487
20
7.27381705243482
30
0.000000000000000
11
-30.4209436133487
21
7.22613701560643
31
0.000000000000000
  0
LINE
  5
F1036E
330
F1036F
100
AcDbEntity
8
Geo
100
AcDbLine
10
-30.4209436133487
20
7.22613701560643
30
0.000000000000000
11
-30.3209436133487
21
7.17824911021839
31
0.000000000000000
  0
LINE
  5
F10370
330
F10371
100
AcDbEntity
8
Geo
100
AcDbLine
10
-30.3209436133487
20
7.17824911021839
30
0.000000000000000
11
-30.2209436133487
21
7.13015530695965
31
0.000000000000000
  0
LINE
  5
F10372
330
F10373
100
AcDbEntity
8
Geo
100
AcDbLine
10
-30.2209436133487
20
7.13015530695965
30
0.000000000000000
11
-30.1209436133487
21
7.08185758499227
31
0.000000000000000
  0
LINE
  5
F10374
330
F10375
100
AcDbEntity
8
Geo
100
AcDbLine
10
-30.1209436133487
20
7.08185758499227
30
0.000000000000000
11
-30.0209436133487
21
7.03335793187002
31
0.000000000000000
  0
LINE
  5
F10376
330
F10377
100
AcDbEntity
8
Geo
100
AcDbLine
10
-30.0209436133487
20
7.03335793187002
30
0.000000000000000
11
-29.9209436133487
21
6.98465834345655
31
0.000000000000000
  0
LINE
  5
F10378
330
F10379
100
AcDbEntity
8
Geo
100
AcDbLine
10
-29.9209436133487
20
6.98465834345655
30
0.000000000000000
11
-29.8209436133487
21
6.93576082384327
31
0.000000000000000
  0
LINE
  5
F1037A
330
F1037B
100
AcDbEntity
8
Geo
100
AcDbLine
10
-29.8209436133487
20
6.93576082384327
30
0.000000000000000
11
-29.7209436133487
21
6.88666738526689
31
0.000000000000000
  0
LINE
  5
F1037C
330
F1037D
100
AcDbEntity
8
Geo
100
AcDbLine
10
-29.7209436133487
20
6.88666738526689
30
0.000000000000000
11
-29.6209436133487
21
6.83738004802660
31
0.000000000000000
  0
LINE
  5
F1037E
330
F1037F
100
AcDbEntity
8
Geo
100
AcDbLine
10
-29.6209436133487
20
6.83738004802660
30
0.000000000000000
11
-29.5209436133487
21
6.78790084040093
31
0.000000000000000
  0
LINE
  5
F10380
330
F10381
100
AcDbEntity
8
Geo
100
AcDbLine
10
-29.5209436133487
20
6.78790084040093
30
0.000000000000000
11
-29.4209436133487
21
6.73823179856426
31
0.000000000000000
  0
LINE
  5
F10382
330
F10383
100
AcDbEntity
8
Geo
100
AcDbLine
10
-29.4209436133487
20
6.73823179856426
30
0.000000000000000
11
-29.3209436133487
21
6.68837496650309
31
0.000000000000000
  0
LINE
  5
F10384
330
F10385
100
AcDbEntity
8
Geo
100
AcDbLine
10
-29.3209436133487
20
6.68837496650309
30
0.000000000000000
11
-29.2209436133487
21
6.63833239593187
31
0.000000000000000
  0
LINE
  5
F10386
330
F10387
100
AcDbEntity
8
Geo
100
AcDbLine
10
-29.2209436133487
20
6.63833239593187
30
0.000000000000000
11
-29.1209436133487
21
6.58810614620858
31
0.000000000000000
  0
LINE
  5
F10388
330
F10389
100
AcDbEntity
8
Geo
100
AcDbLine
10
-29.1209436133487
20
6.58810614620858
30
0.000000000000000
11
-29.0209436133487
21
6.53769828424997
31
0.000000000000000
  0
LINE
  5
F1038A
330
F1038B
100
AcDbEntity
8
Geo
100
AcDbLine
10
-29.0209436133487
20
6.53769828424997
30
0.000000000000000
11
-28.9209436133487
21
6.48711088444656
31
0.000000000000000
  0
LINE
  5
F1038C
330
F1038D
100
AcDbEntity
8
Geo
100
AcDbLine
10
-28.9209436133487
20
6.48711088444656
30
0.000000000000000
11
-28.8209436133487
21
6.43634602857721
31
0.000000000000000
  0
LINE
  5
F1038E
330
F1038F
100
AcDbEntity
8
Geo
100
AcDbLine
10
-28.8209436133487
20
6.43634602857721
30
0.000000000000000
11
-28.7209436133487
21
6.38540580572346
31
0.000000000000000
  0
LINE
  5
F10390
330
F10391
100
AcDbEntity
8
Geo
100
AcDbLine
10
-28.7209436133487
20
6.38540580572346
30
0.000000000000000
11
-28.6209436133487
21
6.33429231218359
31
0.000000000000000
  0
LINE
  5
F10392
330
F10393
100
AcDbEntity
8
Geo
100
AcDbLine
10
-28.6209436133487
20
6.33429231218359
30
0.000000000000000
11
-28.5209436133487
21
6.28300765138635
31
0.000000000000000
  0
LINE
  5
F10394
330
F10395
100
AcDbEntity
8
Geo
100
AcDbLine
10
-28.5209436133487
20
6.28300765138635
30
0.000000000000000
11
-28.4209436133487
21
6.23155393380436
31
0.000000000000000
  0
LINE
  5
F10396
330
F10397
100
AcDbEntity
8
Geo
100
AcDbLine
10
-28.4209436133487
20
6.23155393380436
30
0.000000000000000
11
-28.3209436133487
21
6.17993327686730
31
0.000000000000000
  0
LINE
  5
F10398
330
F10399
100
AcDbEntity
8
Geo
100
AcDbLine
10
-28.3209436133487
20
6.17993327686730
30
0.000000000000000
11
-28.2209436133487
21
6.12814780487474
31
0.000000000000000
  0
LINE
  5
F1039A
330
F1039B
100
AcDbEntity
8
Geo
100
AcDbLine
10
-28.2209436133487
20
6.12814780487474
30
0.000000000000000
11
-28.1209436133487
21
6.07619964890878
31
0.000000000000000
  0
LINE
  5
F1039C
330
F1039D
100
AcDbEntity
8
Geo
100
AcDbLine
10
-28.1209436133487
20
6.07619964890878
30
0.000000000000000
11
-28.0209436133487
21
6.02409094674627
31
0.000000000000000
  0
LINE
  5
F1039E
330
F1039F
100
AcDbEntity
8
Geo
100
AcDbLine
10
-28.0209436133487
20
6.02409094674627
30
0.000000000000000
11
-27.9209436133487
21
5.97182384277089
31
0.000000000000000
  0
LINE
  5
F103A0
330
F103A1
100
AcDbEntity
8
Geo
100
AcDbLine
10
-27.9209436133487
20
5.97182384277089
30
0.000000000000000
11
-27.8209436133487
21
5.91940048788489
31
0.000000000000000
  0
LINE
  5
F103A2
330
F103A3
100
AcDbEntity
8
Geo
100
AcDbLine
10
-27.8209436133487
20
5.91940048788489
30
0.000000000000000
11
-27.7209436133487
21
5.86682303942059
31
0.000000000000000
  0
LINE
  5
F103A4
330
F103A5
100
AcDbEntity
8
Geo
100
AcDbLine
10
-27.7209436133487
20
5.86682303942059
30
0.000000000000000
11
-27.6209436133487
21
5.81409366105157
31
0.000000000000000
  0
LINE
  5
F103A6
330
F103A7
100
AcDbEntity
8
Geo
100
AcDbLine
10
-27.6209436133487
20
5.81409366105157
30
0.000000000000000
11
-27.5209436133487
21
5.76121452270366
31
0.000000000000000
  0
LINE
  5
F103A8
330
F103A9
100
AcDbEntity
8
Geo
100
AcDbLine
10
-27.5209436133487
20
5.76121452270366
30
0.000000000000000
11
-27.4209436133487
21
5.70818780046562
31
0.000000000000000
  0
LINE
  5
F103AA
330
F103AB
100
AcDbEntity
8
Geo
100
AcDbLine
10
-27.4209436133487
20
5.70818780046562
30
0.000000000000000
11
-27.3209436133487
21
5.65501567649960
31
0.000000000000000
  0
LINE
  5
F103AC
330
F103AD
100
AcDbEntity
8
Geo
100
AcDbLine
10
-27.3209436133487
20
5.65501567649960
30
0.000000000000000
11
-27.2209436133487
21
5.60170033895136
31
0.000000000000000
  0
LINE
  5
F103AE
330
F103AF
100
AcDbEntity
8
Geo
100
AcDbLine
10
-27.2209436133487
20
5.60170033895136
30
0.000000000000000
11
-27.1209436133487
21
5.54824398186018
31
0.000000000000000
  0
LINE
  5
F103B0
330
F103B1
100
AcDbEntity
8
Geo
100
AcDbLine
10
-27.1209436133487
20
5.54824398186018
30
0.000000000000000
11
-27.0209436133487
21
5.49464880506861
31
0.000000000000000
  0
LINE
  5
F103B2
330
F103B3
100
AcDbEntity
8
Geo
100
AcDbLine
10
-27.0209436133487
20
5.49464880506861
30
0.000000000000000
11
-26.9209436133487
21
5.44091701413190
31
0.000000000000000
  0
LINE
  5
F103B4
330
F103B5
100
AcDbEntity
8
Geo
100
AcDbLine
10
-26.9209436133487
20
5.44091701413190
30
0.000000000000000
11
-26.8209436133487
21
5.38705082022730
31
0.000000000000000
  0
LINE
  5
F103B6
330
F103B7
100
AcDbEntity
8
Geo
100
AcDbLine
10
-26.8209436133487
20
5.38705082022730
30
0.000000000000000
11
-26.7209436133487
21
5.33305244006299
31
0.000000000000000
  0
LINE
  5
F103B8
330
F103B9
100
AcDbEntity
8
Geo
100
AcDbLine
10
-26.7209436133487
20
5.33305244006299
30
0.000000000000000
11
-26.6209436133487
21
5.27892409578693
31
0.000000000000000
  0
LINE
  5
F103BA
330
F103BB
100
AcDbEntity
8
Geo
100
AcDbLine
10
-26.6209436133487
20
5.27892409578693
30
0.000000000000000
11
-26.5209436133487
21
5.22466801489534
31
0.000000000000000
  0
LINE
  5
F103BC
330
F103BD
100
AcDbEntity
8
Geo
100
AcDbLine
10
-26.5209436133487
20
5.22466801489534
30
0.000000000000000
11
-26.4209436133487
21
5.17028643014110
31
0.000000000000000
  0
LINE
  5
F103BE
330
F103BF
100
AcDbEntity
8
Geo
100
AcDbLine
10
-26.4209436133487
20
5.17028643014110
30
0.000000000000000
11
-26.3209436133487
21
5.11578157944184
31
0.000000000000000
  0
LINE
  5
F103C0
330
F103C1
100
AcDbEntity
8
Geo
100
AcDbLine
10
-26.3209436133487
20
5.11578157944184
30
0.000000000000000
11
-26.2209436133487
21
5.06115570578784
31
0.000000000000000
  0
LINE
  5
F103C2
330
F103C3
100
AcDbEntity
8
Geo
100
AcDbLine
10
-26.2209436133487
20
5.06115570578784
30
0.000000000000000
11
-26.1209436133487
21
5.00641105714972
31
0.000000000000000
  0
LINE
  5
F103C4
330
F103C5
100
AcDbEntity
8
Geo
100
AcDbLine
10
-26.1209436133487
20
5.00641105714972
30
0.000000000000000
11
-26.0209436133487
21
4.95154988638597
31
0.000000000000000
  0
LINE
  5
F103C6
330
F103C7
100
AcDbEntity
8
Geo
100
AcDbLine
10
-26.0209436133487
20
4.95154988638597
30
0.000000000000000
11
-25.9209436133487
21
4.89657445115018
31
0.000000000000000
  0
LINE
  5
F103C8
330
F103C9
100
AcDbEntity
8
Geo
100
AcDbLine
10
-25.9209436133487
20
4.89657445115018
30
0.000000000000000
11
-25.8209436133487
21
4.84148701379819
31
0.000000000000000
  0
LINE
  5
F103CA
330
F103CB
100
AcDbEntity
8
Geo
100
AcDbLine
10
-25.8209436133487
20
4.84148701379819
30
0.000000000000000
11
-25.7209436133487
21
4.78628984129495
31
0.000000000000000
  0
LINE
  5
F103CC
330
F103CD
100
AcDbEntity
8
Geo
100
AcDbLine
10
-40.7209436133487
20
-0.606239255473452
30
0.000000000000000
11
-40.6209436133487
21
-0.661090927264085
31
0.000000000000000
  0
LINE
  5
F103CE
330
F103CF
100
AcDbEntity
8
Geo
100
AcDbLine
10
-40.6209436133487
20
-0.661090927264085
30
0.000000000000000
11
-40.5209436133487
21
-0.715825891445849
31
0.000000000000000
  0
LINE
  5
F103D0
330
F103D1
100
AcDbEntity
8
Geo
100
AcDbLine
10
-40.5209436133487
20
-0.715825891445849
30
0.000000000000000
11
-40.4209436133487
21
-0.770441895558807
31
0.000000000000000
  0
LINE
  5
F103D2
330
F103D3
100
AcDbEntity
8
Geo
100
AcDbLine
10
-40.4209436133487
20
-0.770441895558807
30
0.000000000000000
11
-40.3209436133487
21
-0.824936692038481
31
0.000000000000000
  0
LINE
  5
F103D4
330
F103D5
100
AcDbEntity
8
Geo
100
AcDbLine
10
-40.3209436133487
20
-0.824936692038481
30
0.000000000000000
11
-40.2209436133487
21
-0.879308038308345
31
0.000000000000000
  0
LINE
  5
F103D6
330
F103D7
100
AcDbEntity
8
Geo
100
AcDbLine
10
-40.2209436133487
20
-0.879308038308345
30
0.000000000000000
11
-40.1209436133487
21
-0.933553696872109
31
0.000000000000000
  0
LINE
  5
F103D8
330
F103D9
100
AcDbEntity
8
Geo
100
AcDbLine
10
-40.1209436133487
20
-0.933553696872109
30
0.000000000000000
11
-40.0209436133487
21
-0.987671435405801
31
0.000000000000000
  0
LINE
  5
F103DA
330
F103DB
100
AcDbEntity
8
Geo
100
AcDbLine
10
-40.0209436133487
20
-0.987671435405801
30
0.000000000000000
11
-39.9209436133487
21
-1.04165902684963
31
0.000000000000000
  0
LINE
  5
F103DC
330
F103DD
100
AcDbEntity
8
Geo
100
AcDbLine
10
-39.9209436133487
20
-1.04165902684963
30
0.000000000000000
11
-39.8209436133487
21
-1.09551424949963
31
0.000000000000000
  0
LINE
  5
F103DE
330
F103DF
100
AcDbEntity
8
Geo
100
AcDbLine
10
-39.8209436133487
20
-1.09551424949963
30
0.000000000000000
11
-39.7209436133487
21
-1.14923488709910
31
0.000000000000000
  0
LINE
  5
F103E0
330
F103E1
100
AcDbEntity
8
Geo
100
AcDbLine
10
-39.7209436133487
20
-1.14923488709910
30
0.000000000000000
11
-39.6209436133487
21
-1.20281872892979
31
0.000000000000000
  0
LINE
  5
F103E2
330
F103E3
100
AcDbEntity
8
Geo
100
AcDbLine
10
-39.6209436133487
20
-1.20281872892979
30
0.000000000000000
11
-39.5209436133487
21
-1.25626356990289
31
0.000000000000000
  0
LINE
  5
F103E4
330
F103E5
100
AcDbEntity
8
Geo
100
AcDbLine
10
-39.5209436133487
20
-1.25626356990289
30
0.000000000000000
11
-39.4209436133487
21
-1.30956721064977
31
0.000000000000000
  0
LINE
  5
F103E6
330
F103E7
100
AcDbEntity
8
Geo
100
AcDbLine
10
-39.4209436133487
20
-1.30956721064977
30
0.000000000000000
11
-39.3209436133487
21
-1.36272745761250
31
0.000000000000000
  0
LINE
  5
F103E8
330
F103E9
100
AcDbEntity
8
Geo
100
AcDbLine
10
-39.3209436133487
20
-1.36272745761250
30
0.000000000000000
11
-39.2209436133487
21
-1.41574212313408
31
0.000000000000000
  0
LINE
  5
F103EA
330
F103EB
100
AcDbEntity
8
Geo
100
AcDbLine
10
-39.2209436133487
20
-1.41574212313408
30
0.000000000000000
11
-39.1209436133487
21
-1.46860902554853
31
0.000000000000000
  0
LINE
  5
F103EC
330
F103ED
100
AcDbEntity
8
Geo
100
AcDbLine
10
-39.1209436133487
20
-1.46860902554853
30
0.000000000000000
11
-39.0209436133487
21
-1.52132598927061
31
0.000000000000000
  0
LINE
  5
F103EE
330
F103EF
100
AcDbEntity
8
Geo
100
AcDbLine
10
-39.0209436133487
20
-1.52132598927061
30
0.000000000000000
11
-38.9209436133487
21
-1.57389084488538
31
0.000000000000000
  0
LINE
  5
F103F0
330
F103F1
100
AcDbEntity
8
Geo
100
AcDbLine
10
-38.9209436133487
20
-1.57389084488538
30
0.000000000000000
11
-38.8209436133487
21
-1.62630142923749
31
0.000000000000000
  0
LINE
  5
F103F2
330
F103F3
100
AcDbEntity
8
Geo
100
AcDbLine
10
-38.8209436133487
20
-1.62630142923749
30
0.000000000000000
11
-38.7209436133487
21
-1.67855558552016
31
0.000000000000000
  0
LINE
  5
F103F4
330
F103F5
100
AcDbEntity
8
Geo
100
AcDbLine
10
-38.7209436133487
20
-1.67855558552016
30
0.000000000000000
11
-38.6209436133487
21
-1.73065116336396
31
0.000000000000000
  0
LINE
  5
F103F6
330
F103F7
100
AcDbEntity
8
Geo
100
AcDbLine
10
-38.6209436133487
20
-1.73065116336396
30
0.000000000000000
11
-38.5209436133487
21
-1.78258601892530
31
0.000000000000000
  0
LINE
  5
F103F8
330
F103F9
100
AcDbEntity
8
Geo
100
AcDbLine
10
-38.5209436133487
20
-1.78258601892530
30
0.000000000000000
11
-38.4209436133487
21
-1.83435801497466
31
0.000000000000000
  0
LINE
  5
F103FA
330
F103FB
100
AcDbEntity
8
Geo
100
AcDbLine
10
-38.4209436133487
20
-1.83435801497466
30
0.000000000000000
11
-38.3209436133487
21
-1.88596502098452
31
0.000000000000000
  0
LINE
  5
F103FC
330
F103FD
100
AcDbEntity
8
Geo
100
AcDbLine
10
-38.3209436133487
20
-1.88596502098452
30
0.000000000000000
11
-38.2209436133487
21
-1.93740491321708
31
0.000000000000000
  0
LINE
  5
F103FE
330
F103FF
100
AcDbEntity
8
Geo
100
AcDbLine
10
-38.2209436133487
20
-1.93740491321708
30
0.000000000000000
11
-38.1209436133487
21
-1.98867557481158
31
0.000000000000000
  0
LINE
  5
F10400
330
F10401
100
AcDbEntity
8
Geo
100
AcDbLine
10
-38.1209436133487
20
-1.98867557481158
30
0.000000000000000
11
-38.0209436133487
21
-2.03977489587151
31
0.000000000000000
  0
LINE
  5
F10402
330
F10403
100
AcDbEntity
8
Geo
100
AcDbLine
10
-38.0209436133487
20
-2.03977489587151
30
0.000000000000000
11
-37.9209436133487
21
-2.09070077355134
31
0.000000000000000
  0
LINE
  5
F10404
330
F10405
100
AcDbEntity
8
Geo
100
AcDbLine
10
-37.9209436133487
20
-2.09070077355134
30
0.000000000000000
11
-37.8209436133487
21
-2.14145111214315
31
0.000000000000000
  0
LINE
  5
F10406
330
F10407
100
AcDbEntity
8
Geo
100
AcDbLine
10
-37.8209436133487
20
-2.14145111214315
30
0.000000000000000
11
-37.7209436133487
21
-2.19202382316279
31
0.000000000000000
  0
LINE
  5
F10408
330
F10409
100
AcDbEntity
8
Geo
100
AcDbLine
10
-37.7209436133487
20
-2.19202382316279
30
0.000000000000000
11
-37.6209436133487
21
-2.24241682543587
31
0.000000000000000
  0
LINE
  5
F1040A
330
F1040B
100
AcDbEntity
8
Geo
100
AcDbLine
10
-37.6209436133487
20
-2.24241682543587
30
0.000000000000000
11
-37.5209436133487
21
-2.29262804518340
31
0.000000000000000
  0
LINE
  5
F1040C
330
F1040D
100
AcDbEntity
8
Geo
100
AcDbLine
10
-37.5209436133487
20
-2.29262804518340
30
0.000000000000000
11
-37.4209436133487
21
-2.34265541610714
31
0.000000000000000
  0
LINE
  5
F1040E
330
F1040F
100
AcDbEntity
8
Geo
100
AcDbLine
10
-37.4209436133487
20
-2.34265541610714
30
0.000000000000000
11
-37.3209436133487
21
-2.39249687947459
31
0.000000000000000
  0
LINE
  5
F10410
330
F10411
100
AcDbEntity
8
Geo
100
AcDbLine
10
-37.3209436133487
20
-2.39249687947459
30
0.000000000000000
11
-37.2209436133487
21
-2.44215038420377
31
0.000000000000000
  0
LINE
  5
F10412
330
F10413
100
AcDbEntity
8
Geo
100
AcDbLine
10
-37.2209436133487
20
-2.44215038420377
30
0.000000000000000
11
-37.1209436133487
21
-2.49161388694757
31
0.000000000000000
  0
LINE
  5
F10414
330
F10415
100
AcDbEntity
8
Geo
100
AcDbLine
10
-37.1209436133487
20
-2.49161388694757
30
0.000000000000000
11
-37.0209436133487
21
-2.54088535217789
31
0.000000000000000
  0
LINE
  5
F10416
330
F10417
100
AcDbEntity
8
Geo
100
AcDbLine
10
-37.0209436133487
20
-2.54088535217789
30
0.000000000000000
11
-36.9209436133487
21
-2.58996275226936
31
0.000000000000000
  0
LINE
  5
F10418
330
F10419
100
AcDbEntity
8
Geo
100
AcDbLine
10
-36.9209436133487
20
-2.58996275226936
30
0.000000000000000
11
-36.8209436133487
21
-2.63884406758282
31
0.000000000000000
  0
LINE
  5
F1041A
330
F1041B
100
AcDbEntity
8
Geo
100
AcDbLine
10
-36.8209436133487
20
-2.63884406758282
30
0.000000000000000
11
-36.7209436133487
21
-2.68752728654840
31
0.000000000000000
  0
LINE
  5
F1041C
330
F1041D
100
AcDbEntity
8
Geo
100
AcDbLine
10
-36.7209436133487
20
-2.68752728654840
30
0.000000000000000
11
-36.6209436133487
21
-2.73601040574833
31
0.000000000000000
  0
LINE
  5
F1041E
330
F1041F
100
AcDbEntity
8
Geo
100
AcDbLine
10
-36.6209436133487
20
-2.73601040574833
30
0.000000000000000
11
-36.5209436133487
21
-2.78429142999935
31
0.000000000000000
  0
LINE
  5
F10420
330
F10421
100
AcDbEntity
8
Geo
100
AcDbLine
10
-36.5209436133487
20
-2.78429142999935
30
0.000000000000000
11
-36.4209436133487
21
-2.83236837243485
31
0.000000000000000
  0
LINE
  5
F10422
330
F10423
100
AcDbEntity
8
Geo
100
AcDbLine
10
-36.4209436133487
20
-2.83236837243485
30
0.000000000000000
11
-36.3209436133487
21
-2.88023925458663
31
0.000000000000000
  0
LINE
  5
F10424
330
F10425
100
AcDbEntity
8
Geo
100
AcDbLine
10
-36.3209436133487
20
-2.88023925458663
30
0.000000000000000
11
-36.2209436133487
21
-2.92790210646628
31
0.000000000000000
  0
LINE
  5
F10426
330
F10427
100
AcDbEntity
8
Geo
100
AcDbLine
10
-36.2209436133487
20
-2.92790210646628
30
0.000000000000000
11
-36.1209436133487
21
-2.97535496664630
31
0.000000000000000
  0
LINE
  5
F10428
330
F10429
100
AcDbEntity
8
Geo
100
AcDbLine
10
-36.1209436133487
20
-2.97535496664630
30
0.000000000000000
11
-36.0209436133487
21
-3.02259588234079
31
0.000000000000000
  0
LINE
  5
F1042A
330
F1042B
100
AcDbEntity
8
Geo
100
AcDbLine
10
-36.0209436133487
20
-3.02259588234079
30
0.000000000000000
11
-35.9209436133487
21
-3.06962290948581
31
0.000000000000000
  0
LINE
  5
F1042C
330
F1042D
100
AcDbEntity
8
Geo
100
AcDbLine
10
-35.9209436133487
20
-3.06962290948581
30
0.000000000000000
11
-35.8209436133487
21
-3.11643411281938
31
0.000000000000000
  0
LINE
  5
F1042E
330
F1042F
100
AcDbEntity
8
Geo
100
AcDbLine
10
-35.8209436133487
20
-3.11643411281938
30
0.000000000000000
11
-35.7209436133487
21
-3.16302756596115
31
0.000000000000000
  0
LINE
  5
F10430
330
F10431
100
AcDbEntity
8
Geo
100
AcDbLine
10
-35.7209436133487
20
-3.16302756596115
30
0.000000000000000
11
-35.6209436133487
21
-3.20940135149164
31
0.000000000000000
  0
LINE
  5
F10432
330
F10433
100
AcDbEntity
8
Geo
100
AcDbLine
10
-35.6209436133487
20
-3.20940135149164
30
0.000000000000000
11
-35.5209436133487
21
-3.25555356103115
31
0.000000000000000
  0
LINE
  5
F10434
330
F10435
100
AcDbEntity
8
Geo
100
AcDbLine
10
-35.5209436133487
20
-3.25555356103115
30
0.000000000000000
11
-35.4209436133487
21
-3.30148229531832
31
0.000000000000000
  0
LINE
  5
F10436
330
F10437
100
AcDbEntity
8
Geo
100
AcDbLine
10
-35.4209436133487
20
-3.30148229531832
30
0.000000000000000
11
-35.3209436133487
21
-3.34718566428826
31
0.000000000000000
  0
LINE
  5
F10438
330
F10439
100
AcDbEntity
8
Geo
100
AcDbLine
10
-35.3209436133487
20
-3.34718566428826
30
0.000000000000000
11
-35.2209436133487
21
-3.39266178715034
31
0.000000000000000
  0
LINE
  5
F1043A
330
F1043B
100
AcDbEntity
8
Geo
100
AcDbLine
10
-35.2209436133487
20
-3.39266178715034
30
0.000000000000000
11
-35.1209436133487
21
-3.43790879246559
31
0.000000000000000
  0
LINE
  5
F1043C
330
F1043D
100
AcDbEntity
8
Geo
100
AcDbLine
10
-35.1209436133487
20
-3.43790879246559
30
0.000000000000000
11
-35.0209436133487
21
-3.48292481822372
31
0.000000000000000
  0
LINE
  5
F1043E
330
F1043F
100
AcDbEntity
8
Geo
100
AcDbLine
10
-35.0209436133487
20
-3.48292481822372
30
0.000000000000000
11
-34.9209436133487
21
-3.52770801191973
31
0.000000000000000
  0
LINE
  5
F10440
330
F10441
100
AcDbEntity
8
Geo
100
AcDbLine
10
-34.9209436133487
20
-3.52770801191973
30
0.000000000000000
11
-34.8209436133487
21
-3.57225653063017
31
0.000000000000000
  0
LINE
  5
F10442
330
F10443
100
AcDbEntity
8
Geo
100
AcDbLine
10
-34.8209436133487
20
-3.57225653063017
30
0.000000000000000
11
-34.7209436133487
21
-3.61656854108894
31
0.000000000000000
  0
LINE
  5
F10444
330
F10445
100
AcDbEntity
8
Geo
100
AcDbLine
10
-34.7209436133487
20
-3.61656854108894
30
0.000000000000000
11
-34.6209436133487
21
-3.66064221976278
31
0.000000000000000
  0
LINE
  5
F10446
330
F10447
100
AcDbEntity
8
Geo
100
AcDbLine
10
-34.6209436133487
20
-3.66064221976278
30
0.000000000000000
11
-34.5209436133487
21
-3.70447575292626
31
0.000000000000000
  0
LINE
  5
F10448
330
F10449
100
AcDbEntity
8
Geo
100
AcDbLine
10
-34.5209436133487
20
-3.70447575292626
30
0.000000000000000
11
-34.4209436133487
21
-3.74806733673648
31
0.000000000000000
  0
LINE
  5
F1044A
330
F1044B
100
AcDbEntity
8
Geo
100
AcDbLine
10
-34.4209436133487
20
-3.74806733673648
30
0.000000000000000
11
-34.3209436133487
21
-3.79141517730725
31
0.000000000000000
  0
LINE
  5
F1044C
330
F1044D
100
AcDbEntity
8
Geo
100
AcDbLine
10
-34.3209436133487
20
-3.79141517730725
30
0.000000000000000
11
-34.2209436133487
21
-3.83451749078294
31
0.000000000000000
  0
LINE
  5
F1044E
330
F1044F
100
AcDbEntity
8
Geo
100
AcDbLine
10
-34.2209436133487
20
-3.83451749078294
30
0.000000000000000
11
-34.1209436133487
21
-3.87737250341186
31
0.000000000000000
  0
LINE
  5
F10450
330
F10451
100
AcDbEntity
8
Geo
100
AcDbLine
10
-34.1209436133487
20
-3.87737250341186
30
0.000000000000000
11
-34.0209436133487
21
-3.91997845161931
31
0.000000000000000
  0
LINE
  5
F10452
330
F10453
100
AcDbEntity
8
Geo
100
AcDbLine
10
-34.0209436133487
20
-3.91997845161931
30
0.000000000000000
11
-33.9209436133487
21
-3.96233358208009
31
0.000000000000000
  0
LINE
  5
F10454
330
F10455
100
AcDbEntity
8
Geo
100
AcDbLine
10
-33.9209436133487
20
-3.96233358208009
30
0.000000000000000
11
-33.8209436133487
21
-4.00443615179070
31
0.000000000000000
  0
LINE
  5
F10456
330
F10457
100
AcDbEntity
8
Geo
100
AcDbLine
10
-33.8209436133487
20
-4.00443615179070
30
0.000000000000000
11
-33.7209436133487
21
-4.04628442814104
31
0.000000000000000
  0
LINE
  5
F10458
330
F10459
100
AcDbEntity
8
Geo
100
AcDbLine
10
-33.7209436133487
20
-4.04628442814104
30
0.000000000000000
11
-33.6209436133487
21
-4.08787668898572
31
0.000000000000000
  0
LINE
  5
F1045A
330
F1045B
100
AcDbEntity
8
Geo
100
AcDbLine
10
-33.6209436133487
20
-4.08787668898572
30
0.000000000000000
11
-33.5209436133487
21
-4.12921122271495
31
0.000000000000000
  0
LINE
  5
F1045C
330
F1045D
100
AcDbEntity
8
Geo
100
AcDbLine
10
-33.5209436133487
20
-4.12921122271495
30
0.000000000000000
11
-33.4209436133487
21
-4.17028632832494
31
0.000000000000000
  0
LINE
  5
F1045E
330
F1045F
100
AcDbEntity
8
Geo
100
AcDbLine
10
-33.4209436133487
20
-4.17028632832494
30
0.000000000000000
11
-33.3209436133487
21
-4.21110031548792
31
0.000000000000000
  0
LINE
  5
F10460
330
F10461
100
AcDbEntity
8
Geo
100
AcDbLine
10
-33.3209436133487
20
-4.21110031548792
30
0.000000000000000
11
-33.2209436133487
21
-4.25165150462171
31
0.000000000000000
  0
LINE
  5
F10462
330
F10463
100
AcDbEntity
8
Geo
100
AcDbLine
10
-33.2209436133487
20
-4.25165150462171
30
0.000000000000000
11
-33.1209436133487
21
-4.29193822695880
31
0.000000000000000
  0
LINE
  5
F10464
330
F10465
100
AcDbEntity
8
Geo
100
AcDbLine
10
-33.1209436133487
20
-4.29193822695880
30
0.000000000000000
11
-33.0209436133487
21
-4.33195882461508
31
0.000000000000000
  0
LINE
  5
F10466
330
F10467
100
AcDbEntity
8
Geo
100
AcDbLine
10
-33.0209436133487
20
-4.33195882461508
30
0.000000000000000
11
-32.9209436133487
21
-4.37171165065801
31
0.000000000000000
  0
LINE
  5
F10468
330
F10469
100
AcDbEntity
8
Geo
100
AcDbLine
10
-32.9209436133487
20
-4.37171165065801
30
0.000000000000000
11
-32.8209436133487
21
-4.41119506917446
31
0.000000000000000
  0
LINE
  5
F1046A
330
F1046B
100
AcDbEntity
8
Geo
100
AcDbLine
10
-32.8209436133487
20
-4.41119506917446
30
0.000000000000000
11
-32.7209436133487
21
-4.45040745533793
31
0.000000000000000
  0
LINE
  5
F1046C
330
F1046D
100
AcDbEntity
8
Geo
100
AcDbLine
10
-32.7209436133487
20
-4.45040745533793
30
0.000000000000000
11
-32.6209436133487
21
-4.48934719547554
31
0.000000000000000
  0
LINE
  5
F1046E
330
F1046F
100
AcDbEntity
8
Geo
100
AcDbLine
10
-32.6209436133487
20
-4.48934719547554
30
0.000000000000000
11
-32.5209436133487
21
-4.52801268713433
31
0.000000000000000
  0
LINE
  5
F10470
330
F10471
100
AcDbEntity
8
Geo
100
AcDbLine
10
-32.5209436133487
20
-4.52801268713433
30
0.000000000000000
11
-32.4209436133487
21
-4.56640233914726
31
0.000000000000000
  0
LINE
  5
F10472
330
F10473
100
AcDbEntity
8
Geo
100
AcDbLine
10
-32.4209436133487
20
-4.56640233914726
30
0.000000000000000
11
-32.3209436133487
21
-4.60451457169867
31
0.000000000000000
  0
LINE
  5
F10474
330
F10475
100
AcDbEntity
8
Geo
100
AcDbLine
10
-32.3209436133487
20
-4.60451457169867
30
0.000000000000000
11
-32.2209436133487
21
-4.64234781638933
31
0.000000000000000
  0
LINE
  5
F10476
330
F10477
100
AcDbEntity
8
Geo
100
AcDbLine
10
-32.2209436133487
20
-4.64234781638933
30
0.000000000000000
11
-32.1209436133487
21
-4.67990051630091
31
0.000000000000000
  0
LINE
  5
F10478
330
F10479
100
AcDbEntity
8
Geo
100
AcDbLine
10
-32.1209436133487
20
-4.67990051630091
30
0.000000000000000
11
-32.0209436133487
21
-4.71717112606012
31
0.000000000000000
  0
LINE
  5
F1047A
330
F1047B
100
AcDbEntity
8
Geo
100
AcDbLine
10
-32.0209436133487
20
-4.71717112606012
30
0.000000000000000
11
-31.9209436133487
21
-4.75415811190226
31
0.000000000000000
  0
LINE
  5
F1047C
330
F1047D
100
AcDbEntity
8
Geo
100
AcDbLine
10
-31.9209436133487
20
-4.75415811190226
30
0.000000000000000
11
-31.8209436133487
21
-4.79085995173439
31
0.000000000000000
  0
LINE
  5
F1047E
330
F1047F
100
AcDbEntity
8
Geo
100
AcDbLine
10
-31.8209436133487
20
-4.79085995173439
30
0.000000000000000
11
-31.7209436133487
21
-4.82727513519789
31
0.000000000000000
  0
LINE
  5
F10480
330
F10481
100
AcDbEntity
8
Geo
100
AcDbLine
10
-31.7209436133487
20
-4.82727513519789
30
0.000000000000000
11
-31.6209436133487
21
-4.86340216373068
31
0.000000000000000
  0
LINE
  5
F10482
330
F10483
100
AcDbEntity
8
Geo
100
AcDbLine
10
-31.6209436133487
20
-4.86340216373068
30
0.000000000000000
11
-31.5209436133487
21
-4.89923955062888
31
0.000000000000000
  0
LINE
  5
F10484
330
F10485
100
AcDbEntity
8
Geo
100
AcDbLine
10
-31.5209436133487
20
-4.89923955062888
30
0.000000000000000
11
-31.4209436133487
21
-4.93478582110794
31
0.000000000000000
  0
LINE
  5
F10486
330
F10487
100
AcDbEntity
8
Geo
100
AcDbLine
10
-31.4209436133487
20
-4.93478582110794
30
0.000000000000000
11
-31.3209436133487
21
-4.97003951236341
31
0.000000000000000
  0
LINE
  5
F10488
330
F10489
100
AcDbEntity
8
Geo
100
AcDbLine
10
-31.3209436133487
20
-4.97003951236341
30
0.000000000000000
11
-31.2209436133487
21
-5.00499917363108
31
0.000000000000000
  0
LINE
  5
F1048A
330
F1048B
100
AcDbEntity
8
Geo
100
AcDbLine
10
-31.2209436133487
20
-5.00499917363108
30
0.000000000000000
11
-31.1209436133487
21
-5.03966336624668
31
0.000000000000000
  0
LINE
  5
F1048C
330
F1048D
100
AcDbEntity
8
Geo
100
AcDbLine
10
-31.1209436133487
20
-5.03966336624668
30
0.000000000000000
11
-31.0209436133487
21
-5.07403066370513
31
0.000000000000000
  0
LINE
  5
F1048E
330
F1048F
100
AcDbEntity
8
Geo
100
AcDbLine
10
-31.0209436133487
20
-5.07403066370513
30
0.000000000000000
11
-30.9209436133487
21
-5.10809965171920
31
0.000000000000000
  0
LINE
  5
F10490
330
F10491
100
AcDbEntity
8
Geo
100
AcDbLine
10
-30.9209436133487
20
-5.10809965171920
30
0.000000000000000
11
-30.8209436133487
21
-5.14186892827773
31
0.000000000000000
  0
LINE
  5
F10492
330
F10493
100
AcDbEntity
8
Geo
100
AcDbLine
10
-30.8209436133487
20
-5.14186892827773
30
0.000000000000000
11
-30.7209436133487
21
-5.17533710370333
31
0.000000000000000
  0
LINE
  5
F10494
330
F10495
100
AcDbEntity
8
Geo
100
AcDbLine
10
-30.7209436133487
20
-5.17533710370333
30
0.000000000000000
11
-30.6209436133487
21
-5.20850280070954
31
0.000000000000000
  0
LINE
  5
F10496
330
F10497
100
AcDbEntity
8
Geo
100
AcDbLine
10
-30.6209436133487
20
-5.20850280070954
30
0.000000000000000
11
-30.5209436133487
21
-5.24136465445754
31
0.000000000000000
  0
LINE
  5
F10498
330
F10499
100
AcDbEntity
8
Geo
100
AcDbLine
10
-30.5209436133487
20
-5.24136465445754
30
0.000000000000000
11
-30.4209436133487
21
-5.27392131261233
31
0.000000000000000
  0
LINE
  5
F1049A
330
F1049B
100
AcDbEntity
8
Geo
100
AcDbLine
10
-30.4209436133487
20
-5.27392131261233
30
0.000000000000000
11
-30.3209436133487
21
-5.30617143539831
31
0.000000000000000
  0
LINE
  5
F1049C
330
F1049D
100
AcDbEntity
8
Geo
100
AcDbLine
10
-30.3209436133487
20
-5.30617143539831
30
0.000000000000000
11
-30.2209436133487
21
-5.33811369565450
31
0.000000000000000
  0
LINE
  5
F1049E
330
F1049F
100
AcDbEntity
8
Geo
100
AcDbLine
10
-30.2209436133487
20
-5.33811369565450
30
0.000000000000000
11
-30.1209436133487
21
-5.36974677888910
31
0.000000000000000
  0
LINE
  5
F104A0
330
F104A1
100
AcDbEntity
8
Geo
100
AcDbLine
10
-30.1209436133487
20
-5.36974677888910
30
0.000000000000000
11
-30.0209436133487
21
-5.40106938333359
31
0.000000000000000
  0
LINE
  5
F104A2
330
F104A3
100
AcDbEntity
8
Geo
100
AcDbLine
10
-30.0209436133487
20
-5.40106938333359
30
0.000000000000000
11
-29.9209436133487
21
-5.43208021999633
31
0.000000000000000
  0
LINE
  5
F104A4
330
F104A5
100
AcDbEntity
8
Geo
100
AcDbLine
10
-29.9209436133487
20
-5.43208021999633
30
0.000000000000000
11
-29.8209436133487
21
-5.46277801271558
31
0.000000000000000
  0
LINE
  5
F104A6
330
F104A7
100
AcDbEntity
8
Geo
100
AcDbLine
10
-29.8209436133487
20
-5.46277801271558
30
0.000000000000000
11
-29.7209436133487
21
-5.49316149821202
31
0.000000000000000
  0
LINE
  5
F104A8
330
F104A9
100
AcDbEntity
8
Geo
100
AcDbLine
10
-29.7209436133487
20
-5.49316149821202
30
0.000000000000000
11
-29.6209436133487
21
-5.52322942614074
31
0.000000000000000
  0
LINE
  5
F104AA
330
F104AB
100
AcDbEntity
8
Geo
100
AcDbLine
10
-29.6209436133487
20
-5.52322942614074
30
0.000000000000000
11
-29.5209436133487
21
-5.55298055914269
31
0.000000000000000
  0
LINE
  5
F104AC
330
F104AD
100
AcDbEntity
8
Geo
100
AcDbLine
10
-29.5209436133487
20
-5.55298055914269
30
0.000000000000000
11
-29.4209436133487
21
-5.58241367289561
31
0.000000000000000
  0
LINE
  5
F104AE
330
F104AF
100
AcDbEntity
8
Geo
100
AcDbLine
10
-29.4209436133487
20
-5.58241367289561
30
0.000000000000000
11
-29.3209436133487
21
-5.61152755616441
31
0.000000000000000
  0
LINE
  5
F104B0
330
F104B1
100
AcDbEntity
8
Geo
100
AcDbLine
10
-29.3209436133487
20
-5.61152755616441
30
0.000000000000000
11
-29.2209436133487
21
-5.64032101085101
31
0.000000000000000
  0
LINE
  5
F104B2
330
F104B3
100
AcDbEntity
8
Geo
100
AcDbLine
10
-29.2209436133487
20
-5.64032101085101
30
0.000000000000000
11
-29.1209436133487
21
-5.66879285204363
31
0.000000000000000
  0
LINE
  5
F104B4
330
F104B5
100
AcDbEntity
8
Geo
100
AcDbLine
10
-29.1209436133487
20
-5.66879285204363
30
0.000000000000000
11
-29.0209436133487
21
-5.69694190806559
31
0.000000000000000
  0
LINE
  5
F104B6
330
F104B7
100
AcDbEntity
8
Geo
100
AcDbLine
10
-29.0209436133487
20
-5.69694190806559
30
0.000000000000000
11
-28.9209436133487
21
-5.72476702052349
31
0.000000000000000
  0
LINE
  5
F104B8
330
F104B9
100
AcDbEntity
8
Geo
100
AcDbLine
10
-28.9209436133487
20
-5.72476702052349
30
0.000000000000000
11
-28.8209436133487
21
-5.75226704435489
31
0.000000000000000
  0
LINE
  5
F104BA
330
F104BB
100
AcDbEntity
8
Geo
100
AcDbLine
10
-28.8209436133487
20
-5.75226704435489
30
0.000000000000000
11
-28.7209436133487
21
-5.77944084787547
31
0.000000000000000
  0
LINE
  5
F104BC
330
F104BD
100
AcDbEntity
8
Geo
100
AcDbLine
10
-28.7209436133487
20
-5.77944084787547
30
0.000000000000000
11
-28.6209436133487
21
-5.80628731282554
31
0.000000000000000
  0
LINE
  5
F104BE
330
F104BF
100
AcDbEntity
8
Geo
100
AcDbLine
10
-28.6209436133487
20
-5.80628731282554
30
0.000000000000000
11
-28.5209436133487
21
-5.83280533441608
31
0.000000000000000
  0
LINE
  5
F104C0
330
F104C1
100
AcDbEntity
8
Geo
100
AcDbLine
10
-28.5209436133487
20
-5.83280533441608
30
0.000000000000000
11
-28.4209436133487
21
-5.85899382137424
31
0.000000000000000
  0
LINE
  5
F104C2
330
F104C3
100
AcDbEntity
8
Geo
100
AcDbLine
10
-28.4209436133487
20
-5.85899382137424
30
0.000000000000000
11
-28.3209436133487
21
-5.88485169598819
31
0.000000000000000
  0
LINE
  5
F104C4
330
F104C5
100
AcDbEntity
8
Geo
100
AcDbLine
10
-28.3209436133487
20
-5.88485169598819
30
0.000000000000000
11
-28.2209436133487
21
-5.91037789415152
31
0.000000000000000
  0
LINE
  5
F104C6
330
F104C7
100
AcDbEntity
8
Geo
100
AcDbLine
10
-28.2209436133487
20
-5.91037789415152
30
0.000000000000000
11
-28.1209436133487
21
-5.93557136540699
31
0.000000000000000
  0
LINE
  5
F104C8
330
F104C9
100
AcDbEntity
8
Geo
100
AcDbLine
10
-28.1209436133487
20
-5.93557136540699
30
0.000000000000000
11
-28.0209436133487
21
-5.96043107298981
31
0.000000000000000
  0
LINE
  5
F104CA
330
F104CB
100
AcDbEntity
8
Geo
100
AcDbLine
10
-28.0209436133487
20
-5.96043107298981
30
0.000000000000000
11
-27.9209436133487
21
-5.98495599387025
31
0.000000000000000
  0
LINE
  5
F104CC
330
F104CD
100
AcDbEntity
8
Geo
100
AcDbLine
10
-27.9209436133487
20
-5.98495599387025
30
0.000000000000000
11
-27.8209436133487
21
-6.00914511879575
31
0.000000000000000
  0
LINE
  5
F104CE
330
F104CF
100
AcDbEntity
8
Geo
100
AcDbLine
10
-27.8209436133487
20
-6.00914511879575
30
0.000000000000000
11
-27.7209436133487
21
-6.03299745233251
31
0.000000000000000
  0
LINE
  5
F104D0
330
F104D1
100
AcDbEntity
8
Geo
100
AcDbLine
10
-27.7209436133487
20
-6.03299745233251
30
0.000000000000000
11
-27.6209436133487
21
-6.05651201290636
31
0.000000000000000
  0
LINE
  5
F104D2
330
F104D3
100
AcDbEntity
8
Geo
100
AcDbLine
10
-27.6209436133487
20
-6.05651201290636
30
0.000000000000000
11
-27.5209436133487
21
-6.07968783284325
31
0.000000000000000
  0
LINE
  5
F104D4
330
F104D5
100
AcDbEntity
8
Geo
100
AcDbLine
10
-27.5209436133487
20
-6.07968783284325
30
0.000000000000000
11
-27.4209436133487
21
-6.10252395840899
31
0.000000000000000
  0
LINE
  5
F104D6
330
F104D7
100
AcDbEntity
8
Geo
100
AcDbLine
10
-27.4209436133487
20
-6.10252395840899
30
0.000000000000000
11
-27.3209436133487
21
-6.12501944984856
31
0.000000000000000
  0
LINE
  5
F104D8
330
F104D9
100
AcDbEntity
8
Geo
100
AcDbLine
10
-27.3209436133487
20
-6.12501944984856
30
0.000000000000000
11
-27.2209436133487
21
-6.14717338142473
31
0.000000000000000
  0
LINE
  5
F104DA
330
F104DB
100
AcDbEntity
8
Geo
100
AcDbLine
10
-27.2209436133487
20
-6.14717338142473
30
0.000000000000000
11
-27.1209436133487
21
-6.16898484145622
31
0.000000000000000
  0
LINE
  5
F104DC
330
F104DD
100
AcDbEntity
8
Geo
100
AcDbLine
10
-27.1209436133487
20
-6.16898484145622
30
0.000000000000000
11
-27.0209436133487
21
-6.19045293235514
31
0.000000000000000
  0
LINE
  5
F104DE
330
F104DF
100
AcDbEntity
8
Geo
100
AcDbLine
10
-27.0209436133487
20
-6.19045293235514
30
0.000000000000000
11
-26.9209436133487
21
-6.21157677066401
31
0.000000000000000
  0
LINE
  5
F104E0
330
F104E1
100
AcDbEntity
8
Geo
100
AcDbLine
10
-26.9209436133487
20
-6.21157677066401
30
0.000000000000000
11
-26.8209436133487
21
-6.23235548709204
31
0.000000000000000
  0
LINE
  5
F104E2
330
F104E3
100
AcDbEntity
8
Geo
100
AcDbLine
10
-26.8209436133487
20
-6.23235548709204
30
0.000000000000000
11
-26.7209436133487
21
-6.25278822655095
31
0.000000000000000
  0
LINE
  5
F104E4
330
F104E5
100
AcDbEntity
8
Geo
100
AcDbLine
10
-26.7209436133487
20
-6.25278822655095
30
0.000000000000000
11
-26.6209436133487
21
-6.27287414819015
31
0.000000000000000
  0
LINE
  5
F104E6
330
F104E7
100
AcDbEntity
8
Geo
100
AcDbLine
10
-26.6209436133487
20
-6.27287414819015
30
0.000000000000000
11
-26.5209436133487
21
-6.29261242543135
31
0.000000000000000
  0
LINE
  5
F104E8
330
F104E9
100
AcDbEntity
8
Geo
100
AcDbLine
10
-26.5209436133487
20
-6.29261242543135
30
0.000000000000000
11
-26.4209436133487
21
-6.31200224600253
31
0.000000000000000
  0
LINE
  5
F104EA
330
F104EB
100
AcDbEntity
8
Geo
100
AcDbLine
10
-26.4209436133487
20
-6.31200224600253
30
0.000000000000000
11
-26.3209436133487
21
-6.33104281197144
31
0.000000000000000
  0
LINE
  5
F104EC
330
F104ED
100
AcDbEntity
8
Geo
100
AcDbLine
10
-26.3209436133487
20
-6.33104281197144
30
0.000000000000000
11
-26.2209436133487
21
-6.34973333977837
31
0.000000000000000
  0
LINE
  5
F104EE
330
F104EF
100
AcDbEntity
8
Geo
100
AcDbLine
10
-26.2209436133487
20
-6.34973333977837
30
0.000000000000000
11
-26.1209436133487
21
-6.36807306026845
31
0.000000000000000
  0
LINE
  5
F104F0
330
F104F1
100
AcDbEntity
8
Geo
100
AcDbLine
10
-26.1209436133487
20
-6.36807306026845
30
0.000000000000000
11
-26.0209436133487
21
-6.38606121872324
31
0.000000000000000
  0
LINE
  5
F104F2
330
F104F3
100
AcDbEntity
8
Geo
100
AcDbLine
10
-26.0209436133487
20
-6.38606121872324
30
0.000000000000000
11
-25.9209436133487
21
-6.40369707489187
31
0.000000000000000
  0
LINE
  5
F104F4
330
F104F5
100
AcDbEntity
8
Geo
100
AcDbLine
10
-25.9209436133487
20
-6.40369707489187
30
0.000000000000000
11
-25.8209436133487
21
-6.42097990302140
31
0.000000000000000
  0
LINE
  5
F104F6
330
F104F7
100
AcDbEntity
8
Geo
100
AcDbLine
10
-25.8209436133487
20
-6.42097990302140
30
0.000000000000000
11
-25.7209436133487
21
-6.43790899188680
31
0.000000000000000
  0
LINE
  5
F104F8
330
F104F9
100
AcDbEntity
8
Geo
100
AcDbLine
10
-25.7209436133487
20
7.31998857482431
30
0.000000000000000
11
-25.6209436133487
21
7.27251258964225
31
0.000000000000000
  0
LINE
  5
F104FA
330
F104FB
100
AcDbEntity
8
Geo
100
AcDbLine
10
-25.6209436133487
20
7.27251258964225
30
0.000000000000000
11
-25.5209436133487
21
7.22482682744726
31
0.000000000000000
  0
LINE
  5
F104FC
330
F104FD
100
AcDbEntity
8
Geo
100
AcDbLine
10
-25.5209436133487
20
7.22482682744726
30
0.000000000000000
11
-25.4209436133487
21
7.17693325060965
31
0.000000000000000
  0
LINE
  5
F104FE
330
F104FF
100
AcDbEntity
8
Geo
100
AcDbLine
10
-25.4209436133487
20
7.17693325060965
30
0.000000000000000
11
-25.3209436133487
21
7.12883383005200
31
0.000000000000000
  0
LINE
  5
F10500
330
F10501
100
AcDbEntity
8
Geo
100
AcDbLine
10
-25.3209436133487
20
7.12883383005200
30
0.000000000000000
11
-25.2209436133487
21
7.08053054517049
31
0.000000000000000
  0
LINE
  5
F10502
330
F10503
100
AcDbEntity
8
Geo
100
AcDbLine
10
-25.2209436133487
20
7.08053054517049
30
0.000000000000000
11
-25.1209436133487
21
7.03202538377057
31
0.000000000000000
  0
LINE
  5
F10504
330
F10505
100
AcDbEntity
8
Geo
100
AcDbLine
10
-25.1209436133487
20
7.03202538377057
30
0.000000000000000
11
-25.0209436133487
21
6.98332034206549
31
0.000000000000000
  0
LINE
  5
F10506
330
F10507
100
AcDbEntity
8
Geo
100
AcDbLine
10
-25.0209436133487
20
6.98332034206549
30
0.000000000000000
11
-24.9209436133487
21
6.93441742488626
31
0.000000000000000
  0
LINE
  5
F10508
330
F10509
100
AcDbEntity
8
Geo
100
AcDbLine
10
-24.9209436133487
20
6.93441742488626
30
0.000000000000000
11
-24.8209436133487
21
6.88531864647953
31
0.000000000000000
  0
LINE
  5
F1050A
330
F1050B
100
AcDbEntity
8
Geo
100
AcDbLine
10
-24.8209436133487
20
6.88531864647953
30
0.000000000000000
11
-24.7209436133487
21
6.83602603272539
31
0.000000000000000
  0
LINE
  5
F1050C
330
F1050D
100
AcDbEntity
8
Geo
100
AcDbLine
10
-24.7209436133487
20
6.83602603272539
30
0.000000000000000
11
-24.6209436133487
21
6.78654162643668
31
0.000000000000000
  0
LINE
  5
F1050E
330
F1050F
100
AcDbEntity
8
Geo
100
AcDbLine
10
-24.6209436133487
20
6.78654162643668
30
0.000000000000000
11
-24.5209436133487
21
6.73686749880196
31
0.000000000000000
  0
LINE
  5
F10510
330
F10511
100
AcDbEntity
8
Geo
100
AcDbLine
10
-24.5209436133487
20
6.73686749880196
30
0.000000000000000
11
-24.4209436133487
21
6.68700577226898
31
0.000000000000000
  0
LINE
  5
F10512
330
F10513
100
AcDbEntity
8
Geo
100
AcDbLine
10
-24.4209436133487
20
6.68700577226898
30
0.000000000000000
11
-24.3209436133487
21
6.63695866356768
31
0.000000000000000
  0
LINE
  5
F10514
330
F10515
100
AcDbEntity
8
Geo
100
AcDbLine
10
-24.3209436133487
20
6.63695866356768
30
0.000000000000000
11
-24.2209436133487
21
6.58672856055778
31
0.000000000000000
  0
LINE
  5
F10516
330
F10517
100
AcDbEntity
8
Geo
100
AcDbLine
10
-24.2209436133487
20
6.58672856055778
30
0.000000000000000
11
-24.1209436133487
21
6.53631815366453
31
0.000000000000000
  0
LINE
  5
F10518
330
F10519
100
AcDbEntity
8
Geo
100
AcDbLine
10
-24.1209436133487
20
6.53631815366453
30
0.000000000000000
11
-24.0209436133487
21
6.48573065244693
31
0.000000000000000
  0
LINE
  5
F1051A
330
F1051B
100
AcDbEntity
8
Geo
100
AcDbLine
10
-24.0209436133487
20
6.48573065244693
30
0.000000000000000
11
-23.9209436133487
21
6.43497013104686
31
0.000000000000000
  0
LINE
  5
F1051C
330
F1051D
100
AcDbEntity
8
Geo
100
AcDbLine
10
-23.9209436133487
20
6.43497013104686
30
0.000000000000000
11
-23.8209436133487
21
6.38404206373861
31
0.000000000000000
  0
LINE
  5
F1051E
330
F1051F
100
AcDbEntity
8
Geo
100
AcDbLine
10
-23.8209436133487
20
6.38404206373861
30
0.000000000000000
11
-23.7209436133487
21
6.33295413450929
31
0.000000000000000
  0
LINE
  5
F10520
330
F10521
100
AcDbEntity
8
Geo
100
AcDbLine
10
-23.7209436133487
20
6.33295413450929
30
0.000000000000000
11
-23.6209436133487
21
6.28171743366329
31
0.000000000000000
  0
LINE
  5
F10522
330
F10523
100
AcDbEntity
8
Geo
100
AcDbLine
10
-23.6209436133487
20
6.28171743366329
30
0.000000000000000
11
-23.5209436133487
21
6.23034819111689
31
0.000000000000000
  0
LINE
  5
F10524
330
F10525
100
AcDbEntity
8
Geo
100
AcDbLine
10
-23.5209436133487
20
6.23034819111689
30
0.000000000000000
11
-23.4209436133487
21
6.17887024173835
31
0.000000000000000
  0
LINE
  5
F10526
330
F10527
100
AcDbEntity
8
Geo
100
AcDbLine
10
-23.4209436133487
20
6.17887024173835
30
0.000000000000000
11
-23.3209436133487
21
6.12731847434740
31
0.000000000000000
  0
LINE
  5
F10528
330
F10529
100
AcDbEntity
8
Geo
100
AcDbLine
10
-23.3209436133487
20
6.12731847434740
30
0.000000000000000
11
-23.2209436133487
21
6.07574358450238
31
0.000000000000000
  0
LINE
  5
F1052A
330
F1052B
100
AcDbEntity
8
Geo
100
AcDbLine
10
-23.2209436133487
20
6.07574358450238
30
0.000000000000000
11
-23.1209436133487
21
6.02421853376335
31
0.000000000000000
  0
LINE
  5
F1052C
330
F1052D
100
AcDbEntity
8
Geo
100
AcDbLine
10
-23.1209436133487
20
6.02421853376335
30
0.000000000000000
11
-23.0209436133487
21
5.97284721656003
31
0.000000000000000
  0
LINE
  5
F1052E
330
F1052F
100
AcDbEntity
8
Geo
100
AcDbLine
10
-23.0209436133487
20
5.97284721656003
30
0.000000000000000
11
-22.9209436133487
21
5.92177595188826
31
0.000000000000000
  0
LINE
  5
F10530
330
F10531
100
AcDbEntity
8
Geo
100
AcDbLine
10
-22.9209436133487
20
5.92177595188826
30
0.000000000000000
11
-22.8209436133487
21
5.87120855234257
31
0.000000000000000
  0
LINE
  5
F10532
330
F10533
100
AcDbEntity
8
Geo
100
AcDbLine
10
-22.8209436133487
20
5.87120855234257
30
0.000000000000000
11
-22.7209436133487
21
5.82142587846437
31
0.000000000000000
  0
LINE
  5
F10534
330
F10535
100
AcDbEntity
8
Geo
100
AcDbLine
10
-22.7209436133487
20
5.82142587846437
30
0.000000000000000
11
-22.6209436133487
21
5.77281096202842
31
0.000000000000000
  0
LINE
  5
F10536
330
F10537
100
AcDbEntity
8
Geo
100
AcDbLine
10
-22.6209436133487
20
5.77281096202842
30
0.000000000000000
11
-22.5209436133487
21
5.72588097589804
31
0.000000000000000
  0
LINE
  5
F10538
330
F10539
100
AcDbEntity
8
Geo
100
AcDbLine
10
-22.5209436133487
20
5.72588097589804
30
0.000000000000000
11
-22.4209436133487
21
5.68132753561358
31
0.000000000000000
  0
LINE
  5
F1053A
330
F1053B
100
AcDbEntity
8
Geo
100
AcDbLine
10
-22.4209436133487
20
5.68132753561358
30
0.000000000000000
11
-22.3209436133487
21
5.64006702903586
31
0.000000000000000
  0
LINE
  5
F1053C
330
F1053D
100
AcDbEntity
8
Geo
100
AcDbLine
10
-22.3209436133487
20
5.64006702903586
30
0.000000000000000
11
-22.2209436133487
21
5.60330286682079
31
0.000000000000000
  0
LINE
  5
F1053E
330
F1053F
100
AcDbEntity
8
Geo
100
AcDbLine
10
-22.2209436133487
20
5.60330286682079
30
0.000000000000000
11
-22.1209436133487
21
5.57260169577828
31
0.000000000000000
  0
LINE
  5
F10540
330
F10541
100
AcDbEntity
8
Geo
100
AcDbLine
10
-22.1209436133487
20
5.57260169577828
30
0.000000000000000
11
-22.0209436133487
21
5.54998566266321
31
0.000000000000000
  0
LINE
  5
F10542
330
F10543
100
AcDbEntity
8
Geo
100
AcDbLine
10
-22.0209436133487
20
5.54998566266321
30
0.000000000000000
11
-21.9209436133487
21
5.53804265907072
31
0.000000000000000
  0
LINE
  5
F10544
330
F10545
100
AcDbEntity
8
Geo
100
AcDbLine
10
-21.9209436133487
20
5.53804265907072
30
0.000000000000000
11
-21.8209436133487
21
5.54005594581377
31
0.000000000000000
  0
LINE
  5
F10546
330
F10547
100
AcDbEntity
8
Geo
100
AcDbLine
10
-21.8209436133487
20
5.54005594581377
30
0.000000000000000
11
-21.7209436133487
21
5.56015334022358
31
0.000000000000000
  0
LINE
  5
F10548
330
F10549
100
AcDbEntity
8
Geo
100
AcDbLine
10
-21.7209436133487
20
5.56015334022358
30
0.000000000000000
11
-21.6209436133487
21
5.60347370084499
31
0.000000000000000
  0
LINE
  5
F1054A
330
F1054B
100
AcDbEntity
8
Geo
100
AcDbLine
10
-21.6209436133487
20
5.60347370084499
30
0.000000000000000
11
-21.5209436133487
21
5.67634376390829
31
0.000000000000000
  0
LINE
  5
F1054C
330
F1054D
100
AcDbEntity
8
Geo
100
AcDbLine
10
-21.5209436133487
20
5.67634376390829
30
0.000000000000000
11
-21.4209436133487
21
5.78644966743946
31
0.000000000000000
  0
LINE
  5
F1054E
330
F1054F
100
AcDbEntity
8
Geo
100
AcDbLine
10
-21.4209436133487
20
5.78644966743946
30
0.000000000000000
11
-21.3209436133487
21
5.94297147861973
31
0.000000000000000
  0
LINE
  5
F10550
330
F10551
100
AcDbEntity
8
Geo
100
AcDbLine
10
-21.3209436133487
20
5.94297147861973
30
0.000000000000000
11
-21.2209436133487
21
6.15661989015176
31
0.000000000000000
  0
LINE
  5
F10552
330
F10553
100
AcDbEntity
8
Geo
100
AcDbLine
10
-21.2209436133487
20
6.15661989015176
30
0.000000000000000
11
-21.1209436133487
21
6.43946176740172
31
0.000000000000000
  0
LINE
  5
F10554
330
F10555
100
AcDbEntity
8
Geo
100
AcDbLine
10
-21.1209436133487
20
6.43946176740172
30
0.000000000000000
11
-21.0209436133487
21
6.80432810597279
31
0.000000000000000
  0
LINE
  5
F10556
330
F10557
100
AcDbEntity
8
Geo
100
AcDbLine
10
-21.0209436133487
20
6.80432810597279
30
0.000000000000000
11
-20.9209436133487
21
7.26343636539281
31
0.000000000000000
  0
LINE
  5
F10558
330
F10559
100
AcDbEntity
8
Geo
100
AcDbLine
10
-20.9209436133487
20
7.26343636539281
30
0.000000000000000
11
-20.8209436133487
21
7.82558837176322
31
0.000000000000000
  0
LINE
  5
F1055A
330
F1055B
100
AcDbEntity
8
Geo
100
AcDbLine
10
-20.8209436133487
20
7.82558837176322
30
0.000000000000000
11
-20.7209436133487
21
8.49087683980765
31
0.000000000000000
  0
LINE
  5
F1055C
330
F1055D
100
AcDbEntity
8
Geo
100
AcDbLine
10
-20.7209436133487
20
8.49087683980765
30
0.000000000000000
11
-20.7209436133487
21
8.65000630106563
31
0.000000000000000
  0
LINE
  5
F1055E
330
F1055F
100
AcDbEntity
8
Geo
100
AcDbLine
10
-20.7209436133487
20
8.65000630106563
30
0.000000000000000
11
-20.8209436133487
21
9.19155790560156
31
0.000000000000000
  0
LINE
  5
F10560
330
F10561
100
AcDbEntity
8
Geo
100
AcDbLine
10
-20.8209436133487
20
9.19155790560156
30
0.000000000000000
11
-20.9209436133487
21
9.63388246500767
31
0.000000000000000
  0
LINE
  5
F10562
330
F10563
100
AcDbEntity
8
Geo
100
AcDbLine
10
-20.9209436133487
20
9.63388246500767
30
0.000000000000000
11
-21.0209436133487
21
9.99154412174603
31
0.000000000000000
  0
LINE
  5
F10564
330
F10565
100
AcDbEntity
8
Geo
100
AcDbLine
10
-21.0209436133487
20
9.99154412174603
30
0.000000000000000
11
-21.1209436133487
21
10.2779009428977
31
0.000000000000000
  0
LINE
  5
F10566
330
F10567
100
AcDbEntity
8
Geo
100
AcDbLine
10
-21.1209436133487
20
10.2779009428977
30
0.000000000000000
11
-21.2209436133487
21
10.5048751707597
31
0.000000000000000
  0
LINE
  5
F10568
330
F10569
100
AcDbEntity
8
Geo
100
AcDbLine
10
-21.2209436133487
20
10.5048751707597
30
0.000000000000000
11
-21.3209436133487
21
10.6828872584519
31
0.000000000000000
  0
LINE
  5
F1056A
330
F1056B
100
AcDbEntity
8
Geo
100
AcDbLine
10
-21.3209436133487
20
10.6828872584519
30
0.000000000000000
11
-21.4209436133487
21
10.8208943819981
31
0.000000000000000
  0
LINE
  5
F1056C
330
F1056D
100
AcDbEntity
8
Geo
100
AcDbLine
10
-21.4209436133487
20
10.8208943819981
30
0.000000000000000
11
-21.5209436133487
21
10.9264908392303
31
0.000000000000000
  0
LINE
  5
F1056E
330
F1056F
100
AcDbEntity
8
Geo
100
AcDbLine
10
-21.5209436133487
20
10.9264908392303
30
0.000000000000000
11
-21.6209436133487
21
11.0060407686000
31
0.000000000000000
  0
LINE
  5
F10570
330
F10571
100
AcDbEntity
8
Geo
100
AcDbLine
10
-21.6209436133487
20
11.0060407686000
30
0.000000000000000
11
-21.7209436133487
21
11.0648233989626
31
0.000000000000000
  0
LINE
  5
F10572
330
F10573
100
AcDbEntity
8
Geo
100
AcDbLine
10
-21.7209436133487
20
11.0648233989626
30
0.000000000000000
11
-21.8209436133487
21
11.1071781589057
31
0.000000000000000
  0
LINE
  5
F10574
330
F10575
100
AcDbEntity
8
Geo
100
AcDbLine
10
-21.8209436133487
20
11.1071781589057
30
0.000000000000000
11
-21.9209436133487
21
11.1366420099413
31
0.000000000000000
  0
LINE
  5
F10576
330
F10577
100
AcDbEntity
8
Geo
100
AcDbLine
10
-21.9209436133487
20
11.1366420099413
30
0.000000000000000
11
-22.0209436133487
21
11.1560748311385
31
0.000000000000000
  0
LINE
  5
F10578
330
F10579
100
AcDbEntity
8
Geo
100
AcDbLine
10
-22.0209436133487
20
11.1560748311385
30
0.000000000000000
11
-22.1209436133487
21
11.1677709918748
31
0.000000000000000
  0
LINE
  5
F1057A
330
F1057B
100
AcDbEntity
8
Geo
100
AcDbLine
10
-22.1209436133487
20
11.1677709918748
30
0.000000000000000
11
-22.2209436133487
21
11.1735567323603
31
0.000000000000000
  0
LINE
  5
F1057C
330
F1057D
100
AcDbEntity
8
Geo
100
AcDbLine
10
-22.2209436133487
20
11.1735567323603
30
0.000000000000000
11
-22.3063186049323
21
11.1749136939010
31
0.000000000000000
  0
LINE
  5
F1057E
330
F1057F
100
AcDbEntity
8
Geo
100
AcDbLine
10
-25.7209436133487
20
-5.20940783686214
30
0.000000000000000
11
-25.6209436133487
21
-5.24226134098510
31
0.000000000000000
  0
LINE
  5
F10580
330
F10581
100
AcDbEntity
8
Geo
100
AcDbLine
10
-25.6209436133487
20
-5.24226134098510
30
0.000000000000000
11
-25.5209436133487
21
-5.27480961261429
31
0.000000000000000
  0
LINE
  5
F10582
330
F10583
100
AcDbEntity
8
Geo
100
AcDbLine
10
-25.5209436133487
20
-5.27480961261429
30
0.000000000000000
11
-25.4209436133487
21
-5.30705131231924
31
0.000000000000000
  0
LINE
  5
F10584
330
F10585
100
AcDbEntity
8
Geo
100
AcDbLine
10
-25.4209436133487
20
-5.30705131231924
30
0.000000000000000
11
-25.3209436133487
21
-5.33898511328543
31
0.000000000000000
  0
LINE
  5
F10586
330
F10587
100
AcDbEntity
8
Geo
100
AcDbLine
10
-25.3209436133487
20
-5.33898511328543
30
0.000000000000000
11
-25.2209436133487
21
-5.37060970136727
31
0.000000000000000
  0
LINE
  5
F10588
330
F10589
100
AcDbEntity
8
Geo
100
AcDbLine
10
-25.2209436133487
20
-5.37060970136727
30
0.000000000000000
11
-25.1209436133487
21
-5.40192377513134
31
0.000000000000000
  0
LINE
  5
F1058A
330
F1058B
100
AcDbEntity
8
Geo
100
AcDbLine
10
-25.1209436133487
20
-5.40192377513134
30
0.000000000000000
11
-25.0209436133487
21
-5.43292604586005
31
0.000000000000000
  0
LINE
  5
F1058C
330
F1058D
100
AcDbEntity
8
Geo
100
AcDbLine
10
-25.0209436133487
20
-5.43292604586005
30
0.000000000000000
11
-24.9209436133487
21
-5.46361523742716
31
0.000000000000000
  0
LINE
  5
F1058E
330
F1058F
100
AcDbEntity
8
Geo
100
AcDbLine
10
-24.9209436133487
20
-5.46361523742716
30
0.000000000000000
11
-24.8209436133487
21
-5.49399008582682
31
0.000000000000000
  0
LINE
  5
F10590
330
F10591
100
AcDbEntity
8
Geo
100
AcDbLine
10
-24.8209436133487
20
-5.49399008582682
30
0.000000000000000
11
-24.7209436133487
21
-5.52404933788835
31
0.000000000000000
  0
LINE
  5
F10592
330
F10593
100
AcDbEntity
8
Geo
100
AcDbLine
10
-24.7209436133487
20
-5.52404933788835
30
0.000000000000000
11
-24.6209436133487
21
-5.55379174827084
31
0.000000000000000
  0
LINE
  5
F10594
330
F10595
100
AcDbEntity
8
Geo
100
AcDbLine
10
-24.6209436133487
20
-5.55379174827084
30
0.000000000000000
11
-24.5209436133487
21
-5.58321607312079
31
0.000000000000000
  0
LINE
  5
F10596
330
F10597
100
AcDbEntity
8
Geo
100
AcDbLine
10
-24.5209436133487
20
-5.58321607312079
30
0.000000000000000
11
-24.4209436133487
21
-5.61232105768630
31
0.000000000000000
  0
LINE
  5
F10598
330
F10599
100
AcDbEntity
8
Geo
100
AcDbLine
10
-24.4209436133487
20
-5.61232105768630
30
0.000000000000000
11
-24.3209436133487
21
-5.64110541359050
31
0.000000000000000
  0
LINE
  5
F1059A
330
F1059B
100
AcDbEntity
8
Geo
100
AcDbLine
10
-24.3209436133487
20
-5.64110541359050
30
0.000000000000000
11
-24.2209436133487
21
-5.66956777923323
31
0.000000000000000
  0
LINE
  5
F1059C
330
F1059D
100
AcDbEntity
8
Geo
100
AcDbLine
10
-24.2209436133487
20
-5.66956777923323
30
0.000000000000000
11
-24.1209436133487
21
-5.69770665375674
31
0.000000000000000
  0
LINE
  5
F1059E
330
F1059F
100
AcDbEntity
8
Geo
100
AcDbLine
10
-24.1209436133487
20
-5.69770665375674
30
0.000000000000000
11
-24.0209436133487
21
-5.72552029100848
31
0.000000000000000
  0
LINE
  5
F105A0
330
F105A1
100
AcDbEntity
8
Geo
100
AcDbLine
10
-24.0209436133487
20
-5.72552029100848
30
0.000000000000000
11
-23.9209436133487
21
-5.75300653478016
31
0.000000000000000
  0
LINE
  5
F105A2
330
F105A3
100
AcDbEntity
8
Geo
100
AcDbLine
10
-23.9209436133487
20
-5.75300653478016
30
0.000000000000000
11
-23.8209436133487
21
-5.78016257010980
31
0.000000000000000
  0
LINE
  5
F105A4
330
F105A5
100
AcDbEntity
8
Geo
100
AcDbLine
10
-23.8209436133487
20
-5.78016257010980
30
0.000000000000000
11
-23.7209436133487
21
-5.80698455740901
31
0.000000000000000
  0
LINE
  5
F105A6
330
F105A7
100
AcDbEntity
8
Geo
100
AcDbLine
10
-23.7209436133487
20
-5.80698455740901
30
0.000000000000000
11
-23.6209436133487
21
-5.83346710642776
31
0.000000000000000
  0
LINE
  5
F105A8
330
F105A9
100
AcDbEntity
8
Geo
100
AcDbLine
10
-23.6209436133487
20
-5.83346710642776
30
0.000000000000000
11
-23.5209436133487
21
-5.85960253539315
31
0.000000000000000
  0
LINE
  5
F105AA
330
F105AB
100
AcDbEntity
8
Geo
100
AcDbLine
10
-23.5209436133487
20
-5.85960253539315
30
0.000000000000000
11
-23.4209436133487
21
-5.88537984684739
31
0.000000000000000
  0
LINE
  5
F105AC
330
F105AD
100
AcDbEntity
8
Geo
100
AcDbLine
10
-23.4209436133487
20
-5.88537984684739
30
0.000000000000000
11
-23.3209436133487
21
-5.91078333551485
31
0.000000000000000
  0
LINE
  5
F105AE
330
F105AF
100
AcDbEntity
8
Geo
100
AcDbLine
10
-23.3209436133487
20
-5.91078333551485
30
0.000000000000000
11
-23.2209436133487
21
-5.93579072461843
31
0.000000000000000
  0
LINE
  5
F105B0
330
F105B1
100
AcDbEntity
8
Geo
100
AcDbLine
10
-23.2209436133487
20
-5.93579072461843
30
0.000000000000000
11
-23.1209436133487
21
-5.96037070492687
31
0.000000000000000
  0
LINE
  5
F105B2
330
F105B3
100
AcDbEntity
8
Geo
100
AcDbLine
10
-23.1209436133487
20
-5.96037070492687
30
0.000000000000000
11
-23.0209436133487
21
-5.98447972457458
31
0.000000000000000
  0
LINE
  5
F105B4
330
F105B5
100
AcDbEntity
8
Geo
100
AcDbLine
10
-23.0209436133487
20
-5.98447972457458
30
0.000000000000000
11
-22.9209436133487
21
-6.00805784580695
31
0.000000000000000
  0
LINE
  5
F105B6
330
F105B7
100
AcDbEntity
8
Geo
100
AcDbLine
10
-22.9209436133487
20
-6.00805784580695
30
0.000000000000000
11
-22.8209436133487
21
-6.03102344450423
31
0.000000000000000
  0
LINE
  5
F105B8
330
F105B9
100
AcDbEntity
8
Geo
100
AcDbLine
10
-22.8209436133487
20
-6.03102344450423
30
0.000000000000000
11
-22.7209436133487
21
-6.05326647475298
31
0.000000000000000
  0
LINE
  5
F105BA
330
F105BB
100
AcDbEntity
8
Geo
100
AcDbLine
10
-22.7209436133487
20
-6.05326647475298
30
0.000000000000000
11
-22.6209436133487
21
-6.07463994541798
31
0.000000000000000
  0
LINE
  5
F105BC
330
F105BD
100
AcDbEntity
8
Geo
100
AcDbLine
10
-22.6209436133487
20
-6.07463994541798
30
0.000000000000000
11
-22.5209436133487
21
-6.09494914427149
31
0.000000000000000
  0
LINE
  5
F105BE
330
F105BF
100
AcDbEntity
8
Geo
100
AcDbLine
10
-22.5209436133487
20
-6.09494914427149
30
0.000000000000000
11
-22.4209436133487
21
-6.11393797389027
31
0.000000000000000
  0
LINE
  5
F105C0
330
F105C1
100
AcDbEntity
8
Geo
100
AcDbLine
10
-22.4209436133487
20
-6.11393797389027
30
0.000000000000000
11
-22.3209436133487
21
-6.13127149329556
31
0.000000000000000
  0
LINE
  5
F105C2
330
F105C3
100
AcDbEntity
8
Geo
100
AcDbLine
10
-22.3209436133487
20
-6.13127149329556
30
0.000000000000000
11
-22.2209436133487
21
-6.14651332789076
31
0.000000000000000
  0
LINE
  5
F105C4
330
F105C5
100
AcDbEntity
8
Geo
100
AcDbLine
10
-22.2209436133487
20
-6.14651332789076
30
0.000000000000000
11
-22.1209436133487
21
-6.15909591983829
31
0.000000000000000
  0
LINE
  5
F105C6
330
F105C7
100
AcDbEntity
8
Geo
100
AcDbLine
10
-22.1209436133487
20
-6.15909591983829
30
0.000000000000000
11
-22.0209436133487
21
-6.16828049092266
31
0.000000000000000
  0
LINE
  5
F105C8
330
F105C9
100
AcDbEntity
8
Geo
100
AcDbLine
10
-22.0209436133487
20
-6.16828049092266
30
0.000000000000000
11
-21.9209436133487
21
-6.17310185254093
31
0.000000000000000
  0
LINE
  5
F105CA
330
F105CB
100
AcDbEntity
8
Geo
100
AcDbLine
10
-21.9209436133487
20
-6.17310185254093
30
0.000000000000000
11
-21.8209436133487
21
-6.17229048620573
31
0.000000000000000
  0
LINE
  5
F105CC
330
F105CD
100
AcDbEntity
8
Geo
100
AcDbLine
10
-21.8209436133487
20
-6.17229048620573
30
0.000000000000000
11
-21.7209436133487
21
-6.16416014777744
31
0.000000000000000
  0
LINE
  5
F105CE
330
F105CF
100
AcDbEntity
8
Geo
100
AcDbLine
10
-21.7209436133487
20
-6.16416014777744
30
0.000000000000000
11
-21.6209436133487
21
-6.14644294301728
31
0.000000000000000
  0
LINE
  5
F105D0
330
F105D1
100
AcDbEntity
8
Geo
100
AcDbLine
10
-21.6209436133487
20
-6.14644294301728
30
0.000000000000000
11
-21.5209436133487
21
-6.11604448141556
31
0.000000000000000
  0
LINE
  5
F105D2
330
F105D3
100
AcDbEntity
8
Geo
100
AcDbLine
10
-21.5209436133487
20
-6.11604448141556
30
0.000000000000000
11
-21.4209436133487
21
-6.06867823630984
31
0.000000000000000
  0
LINE
  5
F105D4
330
F105D5
100
AcDbEntity
8
Geo
100
AcDbLine
10
-21.4209436133487
20
-6.06867823630984
30
0.000000000000000
11
-21.3209436133487
21
-5.99831948098276
31
0.000000000000000
  0
LINE
  5
F105D6
330
F105D7
100
AcDbEntity
8
Geo
100
AcDbLine
10
-21.3209436133487
20
-5.99831948098276
30
0.000000000000000
11
-21.2209436133487
21
-5.89639448797002
31
0.000000000000000
  0
LINE
  5
F105D8
330
F105D9
100
AcDbEntity
8
Geo
100
AcDbLine
10
-21.2209436133487
20
-5.89639448797002
30
0.000000000000000
11
-21.1209436133487
21
-5.75059132021647
31
0.000000000000000
  0
LINE
  5
F105DA
330
F105DB
100
AcDbEntity
8
Geo
100
AcDbLine
10
-21.1209436133487
20
-5.75059132021647
30
0.000000000000000
11
-21.0209436133487
21
-5.54315097292462
31
0.000000000000000
  0
LINE
  5
F105DC
330
F105DD
100
AcDbEntity
8
Geo
100
AcDbLine
10
-21.0209436133487
20
-5.54315097292462
30
0.000000000000000
11
-20.9209436133487
21
-5.24849098466219
31
0.000000000000000
  0
LINE
  5
F105DE
330
F105DF
100
AcDbEntity
8
Geo
100
AcDbLine
10
-20.9209436133487
20
-5.24849098466219
30
0.000000000000000
11
-20.8209436133487
21
-4.83007564834406
31
0.000000000000000
  0
LINE
  5
F105E0
330
F105E1
100
AcDbEntity
8
Geo
100
AcDbLine
10
-20.8209436133487
20
-4.83007564834406
30
0.000000000000000
11
-20.7209436133487
21
-4.23668591458589
31
0.000000000000000
  0
LINE
  5
F105E2
330
F105E3
100
AcDbEntity
8
Geo
100
AcDbLine
10
-20.7209436133487
20
-4.23668591458589
30
0.000000000000000
11
-20.7209436133487
21
-4.07594030604511
31
0.000000000000000
  0
LINE
  5
F105E4
330
F105E5
100
AcDbEntity
8
Geo
100
AcDbLine
10
-20.7209436133487
20
-4.07594030604511
30
0.000000000000000
11
-20.8209436133487
21
-3.46128218686906
31
0.000000000000000
  0
LINE
  5
F105E6
330
F105E7
100
AcDbEntity
8
Geo
100
AcDbLine
10
-20.8209436133487
20
-3.46128218686906
30
0.000000000000000
11
-20.9209436133487
21
-2.86133340802480
31
0.000000000000000
  0
LINE
  5
F105E8
330
F105E9
100
AcDbEntity
8
Geo
100
AcDbLine
10
-20.9209436133487
20
-2.86133340802480
30
0.000000000000000
11
-21.0209436133487
21
-2.28606027536712
31
0.000000000000000
  0
LINE
  5
F105EA
330
F105EB
100
AcDbEntity
8
Geo
100
AcDbLine
10
-21.0209436133487
20
-2.28606027536712
30
0.000000000000000
11
-21.1209436133487
21
-1.74192146252285
31
0.000000000000000
  0
LINE
  5
F105EC
330
F105ED
100
AcDbEntity
8
Geo
100
AcDbLine
10
-21.1209436133487
20
-1.74192146252285
30
0.000000000000000
11
-21.2209436133487
21
-1.23268689801867
31
0.000000000000000
  0
LINE
  5
F105EE
330
F105EF
100
AcDbEntity
8
Geo
100
AcDbLine
10
-21.2209436133487
20
-1.23268689801867
30
0.000000000000000
11
-21.3209436133487
21
-0.760113703740155
31
0.000000000000000
  0
LINE
  5
F105F0
330
F105F1
100
AcDbEntity
8
Geo
100
AcDbLine
10
-21.3209436133487
20
-0.760113703740155
30
0.000000000000000
11
-21.4209436133487
21
-0.324489823151294
31
0.000000000000000
  0
LINE
  5
F105F2
330
F105F3
100
AcDbEntity
8
Geo
100
AcDbLine
10
-21.4209436133487
20
-0.324489823151294
30
0.000000000000000
11
-21.5209436133487
21
0.0749381061022487
31
0.000000000000000
  0
LINE
  5
F105F4
330
F105F5
100
AcDbEntity
8
Geo
100
AcDbLine
10
-21.5209436133487
20
0.0749381061022487
30
0.000000000000000
11
-21.6209436133487
21
0.439634295498969
31
0.000000000000000
  0
LINE
  5
F105F6
330
F105F7
100
AcDbEntity
8
Geo
100
AcDbLine
10
-21.6209436133487
20
0.439634295498969
30
0.000000000000000
11
-21.7209436133487
21
0.771523001380592
31
0.000000000000000
  0
LINE
  5
F105F8
330
F105F9
100
AcDbEntity
8
Geo
100
AcDbLine
10
-21.7209436133487
20
0.771523001380592
30
0.000000000000000
11
-21.8209436133487
21
1.07280139144972
31
0.000000000000000
  0
LINE
  5
F105FA
330
F105FB
100
AcDbEntity
8
Geo
100
AcDbLine
10
-21.8209436133487
20
1.07280139144972
30
0.000000000000000
11
-21.9209436133487
21
1.34580236875644
31
0.000000000000000
  0
LINE
  5
F105FC
330
F105FD
100
AcDbEntity
8
Geo
100
AcDbLine
10
-21.9209436133487
20
1.34580236875644
30
0.000000000000000
11
-22.0209436133487
21
1.59289597340137
31
0.000000000000000
  0
LINE
  5
F105FE
330
F105FF
100
AcDbEntity
8
Geo
100
AcDbLine
10
-22.0209436133487
20
1.59289597340137
30
0.000000000000000
11
-22.1209436133487
21
1.81642015381969
31
0.000000000000000
  0
LINE
  5
F10600
330
F10601
100
AcDbEntity
8
Geo
100
AcDbLine
10
-22.1209436133487
20
1.81642015381969
30
0.000000000000000
11
-22.2209436133487
21
2.01863360435579
31
0.000000000000000
  0
LINE
  5
F10602
330
F10603
100
AcDbEntity
8
Geo
100
AcDbLine
10
-22.2209436133487
20
2.01863360435579
30
0.000000000000000
11
-22.3209436133487
21
2.20168497179538
31
0.000000000000000
  0
LINE
  5
F10604
330
F10605
100
AcDbEntity
8
Geo
100
AcDbLine
10
-22.3209436133487
20
2.20168497179538
30
0.000000000000000
11
-22.4209436133487
21
2.36759404914524
31
0.000000000000000
  0
LINE
  5
F10606
330
F10607
100
AcDbEntity
8
Geo
100
AcDbLine
10
-22.4209436133487
20
2.36759404914524
30
0.000000000000000
11
-22.5209436133487
21
2.51824162914831
31
0.000000000000000
  0
LINE
  5
F10608
330
F10609
100
AcDbEntity
8
Geo
100
AcDbLine
10
-22.5209436133487
20
2.51824162914831
30
0.000000000000000
11
-22.6209436133487
21
2.65536551977566
31
0.000000000000000
  0
LINE
  5
F1060A
330
F1060B
100
AcDbEntity
8
Geo
100
AcDbLine
10
-22.6209436133487
20
2.65536551977566
30
0.000000000000000
11
-22.7209436133487
21
2.78056086727459
31
0.000000000000000
  0
LINE
  5
F1060C
330
F1060D
100
AcDbEntity
8
Geo
100
AcDbLine
10
-22.7209436133487
20
2.78056086727459
30
0.000000000000000
11
-22.8209436133487
21
2.89528342463096
31
0.000000000000000
  0
LINE
  5
F1060E
330
F1060F
100
AcDbEntity
8
Geo
100
AcDbLine
10
-22.8209436133487
20
2.89528342463096
30
0.000000000000000
11
-22.9209436133487
21
3.00085477553348
31
0.000000000000000
  0
LINE
  5
F10610
330
F10611
100
AcDbEntity
8
Geo
100
AcDbLine
10
-22.9209436133487
20
3.00085477553348
30
0.000000000000000
11
-23.0209436133487
21
3.09846880226841
31
0.000000000000000
  0
LINE
  5
F10612
330
F10613
100
AcDbEntity
8
Geo
100
AcDbLine
10
-23.0209436133487
20
3.09846880226841
30
0.000000000000000
11
-23.1209436133487
21
3.18919889188847
31
0.000000000000000
  0
LINE
  5
F10614
330
F10615
100
AcDbEntity
8
Geo
100
AcDbLine
10
-23.1209436133487
20
3.18919889188847
30
0.000000000000000
11
-23.2209436133487
21
3.27400552572983
31
0.000000000000000
  0
LINE
  5
F10616
330
F10617
100
AcDbEntity
8
Geo
100
AcDbLine
10
-23.2209436133487
20
3.27400552572983
30
0.000000000000000
11
-23.3209436133487
21
3.35374400650283
31
0.000000000000000
  0
LINE
  5
F10618
330
F10619
100
AcDbEntity
8
Geo
100
AcDbLine
10
-23.3209436133487
20
3.35374400650283
30
0.000000000000000
11
-23.4209436133487
21
3.42917215534404
31
0.000000000000000
  0
LINE
  5
F1061A
330
F1061B
100
AcDbEntity
8
Geo
100
AcDbLine
10
-23.4209436133487
20
3.42917215534404
30
0.000000000000000
11
-23.5209436133487
21
3.50095786652102
31
0.000000000000000
  0
LINE
  5
F1061C
330
F1061D
100
AcDbEntity
8
Geo
100
AcDbLine
10
-23.5209436133487
20
3.50095786652102
30
0.000000000000000
11
-23.6209436133487
21
3.56968644610274
31
0.000000000000000
  0
LINE
  5
F1061E
330
F1061F
100
AcDbEntity
8
Geo
100
AcDbLine
10
-23.6209436133487
20
3.56968644610274
30
0.000000000000000
11
-23.7209436133487
21
3.63586768748454
31
0.000000000000000
  0
LINE
  5
F10620
330
F10621
100
AcDbEntity
8
Geo
100
AcDbLine
10
-23.7209436133487
20
3.63586768748454
30
0.000000000000000
11
-23.8209436133487
21
3.69994265463536
31
0.000000000000000
  0
LINE
  5
F10622
330
F10623
100
AcDbEntity
8
Geo
100
AcDbLine
10
-23.8209436133487
20
3.69994265463536
30
0.000000000000000
11
-23.9209436133487
21
3.76229015585323
31
0.000000000000000
  0
LINE
  5
F10624
330
F10625
100
AcDbEntity
8
Geo
100
AcDbLine
10
-23.9209436133487
20
3.76229015585323
30
0.000000000000000
11
-24.0209436133487
21
3.82323289852004
31
0.000000000000000
  0
LINE
  5
F10626
330
F10627
100
AcDbEntity
8
Geo
100
AcDbLine
10
-24.0209436133487
20
3.82323289852004
30
0.000000000000000
11
-24.1209436133487
21
3.88304332017161
31
0.000000000000000
  0
LINE
  5
F10628
330
F10629
100
AcDbEntity
8
Geo
100
AcDbLine
10
-24.1209436133487
20
3.88304332017161
30
0.000000000000000
11
-24.2209436133487
21
3.94194909409353
31
0.000000000000000
  0
LINE
  5
F1062A
330
F1062B
100
AcDbEntity
8
Geo
100
AcDbLine
10
-24.2209436133487
20
3.94194909409353
30
0.000000000000000
11
-24.3209436133487
21
4.00013830928767
31
0.000000000000000
  0
LINE
  5
F1062C
330
F1062D
100
AcDbEntity
8
Geo
100
AcDbLine
10
-24.3209436133487
20
4.00013830928767
30
0.000000000000000
11
-24.4209436133487
21
4.05776432549541
31
0.000000000000000
  0
LINE
  5
F1062E
330
F1062F
100
AcDbEntity
8
Geo
100
AcDbLine
10
-24.4209436133487
20
4.05776432549541
30
0.000000000000000
11
-24.5209436133487
21
4.11495030433059
31
0.000000000000000
  0
LINE
  5
F10630
330
F10631
100
AcDbEntity
8
Geo
100
AcDbLine
10
-24.5209436133487
20
4.11495030433059
30
0.000000000000000
11
-24.6209436133487
21
4.17179341768405
31
0.000000000000000
  0
LINE
  5
F10632
330
F10633
100
AcDbEntity
8
Geo
100
AcDbLine
10
-24.6209436133487
20
4.17179341768405
30
0.000000000000000
11
-24.7209436133487
21
4.22836873455237
31
0.000000000000000
  0
LINE
  5
F10634
330
F10635
100
AcDbEntity
8
Geo
100
AcDbLine
10
-24.7209436133487
20
4.22836873455237
30
0.000000000000000
11
-24.8209436133487
21
4.28473278740525
31
0.000000000000000
  0
LINE
  5
F10636
330
F10637
100
AcDbEntity
8
Geo
100
AcDbLine
10
-24.8209436133487
20
4.28473278740525
30
0.000000000000000
11
-24.9209436133487
21
4.34092681919135
31
0.000000000000000
  0
LINE
  5
F10638
330
F10639
100
AcDbEntity
8
Geo
100
AcDbLine
10
-24.9209436133487
20
4.34092681919135
30
0.000000000000000
11
-25.0209436133487
21
4.39697971211858
31
0.000000000000000
  0
LINE
  5
F1063A
330
F1063B
100
AcDbEntity
8
Geo
100
AcDbLine
10
-25.0209436133487
20
4.39697971211858
30
0.000000000000000
11
-25.1209436133487
21
4.45291059944327
31
0.000000000000000
  0
LINE
  5
F1063C
330
F1063D
100
AcDbEntity
8
Geo
100
AcDbLine
10
-25.1209436133487
20
4.45291059944327
30
0.000000000000000
11
-25.2209436133487
21
4.50873116166242
31
0.000000000000000
  0
LINE
  5
F1063E
330
F1063F
100
AcDbEntity
8
Geo
100
AcDbLine
10
-25.2209436133487
20
4.50873116166242
30
0.000000000000000
11
-25.3209436133487
21
4.56444760871895
31
0.000000000000000
  0
LINE
  5
F10640
330
F10641
100
AcDbEntity
8
Geo
100
AcDbLine
10
-25.3209436133487
20
4.56444760871895
30
0.000000000000000
11
-25.4209436133487
21
4.62006235009020
31
0.000000000000000
  0
LINE
  5
F10642
330
F10643
100
AcDbEntity
8
Geo
100
AcDbLine
10
-25.4209436133487
20
4.62006235009020
30
0.000000000000000
11
-25.5209436133487
21
4.67557535492491
31
0.000000000000000
  0
LINE
  5
F10644
330
F10645
100
AcDbEntity
8
Geo
100
AcDbLine
10
-25.5209436133487
20
4.67557535492491
30
0.000000000000000
11
-25.6209436133487
21
4.73098520471179
31
0.000000000000000
  0
LINE
  5
F10646
330
F10647
100
AcDbEntity
8
Geo
100
AcDbLine
10
-25.6209436133487
20
4.73098520471179
30
0.000000000000000
11
-25.7209436133487
21
4.78628984129495
31
0.000000000000000
  0
LINE
  5
F10648
330
F10649
100
AcDbEntity
8
Geo
100
AcDbLine
10
-22.3063186049323
20
-6.82508630609895
30
0.000000000000000
11
-22.3209436133487
21
-6.82504648927087
31
0.000000000000000
  0
LINE
  5
F1064A
330
F1064B
100
AcDbEntity
8
Geo
100
AcDbLine
10
-22.3209436133487
20
-6.82504648927087
30
0.000000000000000
11
-22.4209436133487
21
-6.82302352974654
31
0.000000000000000
  0
LINE
  5
F1064C
330
F1064D
100
AcDbEntity
8
Geo
100
AcDbLine
10
-22.4209436133487
20
-6.82302352974654
30
0.000000000000000
11
-22.5209436133487
21
-6.81853536243317
31
0.000000000000000
  0
LINE
  5
F1064E
330
F1064F
100
AcDbEntity
8
Geo
100
AcDbLine
10
-22.5209436133487
20
-6.81853536243317
30
0.000000000000000
11
-22.6209436133487
21
-6.81225304779312
31
0.000000000000000
  0
LINE
  5
F10650
330
F10651
100
AcDbEntity
8
Geo
100
AcDbLine
10
-22.6209436133487
20
-6.81225304779312
30
0.000000000000000
11
-22.7209436133487
21
-6.80468493306355
31
0.000000000000000
  0
LINE
  5
F10652
330
F10653
100
AcDbEntity
8
Geo
100
AcDbLine
10
-22.7209436133487
20
-6.80468493306355
30
0.000000000000000
11
-22.8209436133487
21
-6.79621039681624
31
0.000000000000000
  0
LINE
  5
F10654
330
F10655
100
AcDbEntity
8
Geo
100
AcDbLine
10
-22.8209436133487
20
-6.79621039681624
30
0.000000000000000
11
-22.9209436133487
21
-6.78710735771849
31
0.000000000000000
  0
LINE
  5
F10656
330
F10657
100
AcDbEntity
8
Geo
100
AcDbLine
10
-22.9209436133487
20
-6.78710735771849
30
0.000000000000000
11
-23.0209436133487
21
-6.77757456142822
31
0.000000000000000
  0
LINE
  5
F10658
330
F10659
100
AcDbEntity
8
Geo
100
AcDbLine
10
-23.0209436133487
20
-6.77757456142822
30
0.000000000000000
11
-23.1209436133487
21
-6.76774953005766
31
0.000000000000000
  0
LINE
  5
F1065A
330
F1065B
100
AcDbEntity
8
Geo
100
AcDbLine
10
-23.1209436133487
20
-6.76774953005766
30
0.000000000000000
11
-23.2209436133487
21
-6.75772293506843
31
0.000000000000000
  0
LINE
  5
F1065C
330
F1065D
100
AcDbEntity
8
Geo
100
AcDbLine
10
-23.2209436133487
20
-6.75772293506843
30
0.000000000000000
11
-23.3209436133487
21
-6.74755004063388
31
0.000000000000000
  0
LINE
  5
F1065E
330
F1065F
100
AcDbEntity
8
Geo
100
AcDbLine
10
-23.3209436133487
20
-6.74755004063388
30
0.000000000000000
11
-23.4209436133487
21
-6.73725976221495
31
0.000000000000000
  0
LINE
  5
F10660
330
F10661
100
AcDbEntity
8
Geo
100
AcDbLine
10
-23.4209436133487
20
-6.73725976221495
30
0.000000000000000
11
-23.5209436133487
21
-6.72686179485739
31
0.000000000000000
  0
LINE
  5
F10662
330
F10663
100
AcDbEntity
8
Geo
100
AcDbLine
10
-23.5209436133487
20
-6.72686179485739
30
0.000000000000000
11
-23.6209436133487
21
-6.71635218727220
31
0.000000000000000
  0
LINE
  5
F10664
330
F10665
100
AcDbEntity
8
Geo
100
AcDbLine
10
-23.6209436133487
20
-6.71635218727220
30
0.000000000000000
11
-23.7209436133487
21
-6.70571767040139
31
0.000000000000000
  0
LINE
  5
F10666
330
F10667
100
AcDbEntity
8
Geo
100
AcDbLine
10
-23.7209436133487
20
-6.70571767040139
30
0.000000000000000
11
-23.8209436133487
21
-6.69493899196254
31
0.000000000000000
  0
LINE
  5
F10668
330
F10669
100
AcDbEntity
8
Geo
100
AcDbLine
10
-23.8209436133487
20
-6.69493899196254
30
0.000000000000000
11
-23.9209436133487
21
-6.68399346037255
31
0.000000000000000
  0
LINE
  5
F1066A
330
F1066B
100
AcDbEntity
8
Geo
100
AcDbLine
10
-23.9209436133487
20
-6.68399346037255
30
0.000000000000000
11
-24.0209436133487
21
-6.67285686142440
31
0.000000000000000
  0
LINE
  5
F1066C
330
F1066D
100
AcDbEntity
8
Geo
100
AcDbLine
10
-24.0209436133487
20
-6.67285686142440
30
0.000000000000000
11
-24.1209436133487
21
-6.66150487811423
31
0.000000000000000
  0
LINE
  5
F1066E
330
F1066F
100
AcDbEntity
8
Geo
100
AcDbLine
10
-24.1209436133487
20
-6.66150487811423
30
0.000000000000000
11
-24.2209436133487
21
-6.64991411713676
31
0.000000000000000
  0
LINE
  5
F10670
330
F10671
100
AcDbEntity
8
Geo
100
AcDbLine
10
-24.2209436133487
20
-6.64991411713676
30
0.000000000000000
11
-24.3209436133487
21
-6.63806282390419
31
0.000000000000000
  0
LINE
  5
F10672
330
F10673
100
AcDbEntity
8
Geo
100
AcDbLine
10
-24.3209436133487
20
-6.63806282390419
30
0.000000000000000
11
-24.4209436133487
21
-6.62593135070146
31
0.000000000000000
  0
LINE
  5
F10674
330
F10675
100
AcDbEntity
8
Geo
100
AcDbLine
10
-24.4209436133487
20
-6.62593135070146
30
0.000000000000000
11
-24.5209436133487
21
-6.61350242905267
31
0.000000000000000
  0
LINE
  5
F10676
330
F10677
100
AcDbEntity
8
Geo
100
AcDbLine
10
-24.5209436133487
20
-6.61350242905267
30
0.000000000000000
11
-24.6209436133487
21
-6.60076128690493
31
0.000000000000000
  0
LINE
  5
F10678
330
F10679
100
AcDbEntity
8
Geo
100
AcDbLine
10
-24.6209436133487
20
-6.60076128690493
30
0.000000000000000
11
-24.7209436133487
21
-6.58769564327834
31
0.000000000000000
  0
LINE
  5
F1067A
330
F1067B
100
AcDbEntity
8
Geo
100
AcDbLine
10
-24.7209436133487
20
-6.58769564327834
30
0.000000000000000
11
-24.8209436133487
21
-6.57429560709780
31
0.000000000000000
  0
LINE
  5
F1067C
330
F1067D
100
AcDbEntity
8
Geo
100
AcDbLine
10
-24.8209436133487
20
-6.57429560709780
30
0.000000000000000
11
-24.9209436133487
21
-6.56055350259565
31
0.000000000000000
  0
LINE
  5
F1067E
330
F1067F
100
AcDbEntity
8
Geo
100
AcDbLine
10
-24.9209436133487
20
-6.56055350259565
30
0.000000000000000
11
-25.0209436133487
21
-6.54646364059622
31
0.000000000000000
  0
LINE
  5
F10680
330
F10681
100
AcDbEntity
8
Geo
100
AcDbLine
10
-25.0209436133487
20
-6.54646364059622
30
0.000000000000000
11
-25.1209436133487
21
-6.53202205286657
31
0.000000000000000
  0
LINE
  5
F10682
330
F10683
100
AcDbEntity
8
Geo
100
AcDbLine
10
-25.1209436133487
20
-6.53202205286657
30
0.000000000000000
11
-25.2209436133487
21
-6.51722620529360
31
0.000000000000000
  0
LINE
  5
F10684
330
F10685
100
AcDbEntity
8
Geo
100
AcDbLine
10
-25.2209436133487
20
-6.51722620529360
30
0.000000000000000
11
-25.3209436133487
21
-6.50207470472752
31
0.000000000000000
  0
LINE
  5
F10686
330
F10687
100
AcDbEntity
8
Geo
100
AcDbLine
10
-25.3209436133487
20
-6.50207470472752
30
0.000000000000000
11
-25.4209436133487
21
-6.48656701375720
31
0.000000000000000
  0
LINE
  5
F10688
330
F10689
100
AcDbEntity
8
Geo
100
AcDbLine
10
-25.4209436133487
20
-6.48656701375720
30
0.000000000000000
11
-25.5209436133487
21
-6.47070318733334
31
0.000000000000000
  0
LINE
  5
F1068A
330
F1068B
100
AcDbEntity
8
Geo
100
AcDbLine
10
-25.5209436133487
20
-6.47070318733334
30
0.000000000000000
11
-25.6209436133487
21
-6.45448364494142
31
0.000000000000000
  0
LINE
  5
F1068C
330
F1068D
100
AcDbEntity
8
Geo
100
AcDbLine
10
-25.6209436133487
20
-6.45448364494142
30
0.000000000000000
11
-25.7209436133487
21
-6.43790899188680
31
0.000000000000000
  0
LINE
  5
F1068E
330
F1068F
100
AcDbEntity
8
Geo
100
AcDbLine
10
-40.7209436133487
20
1.28858671619006
30
0.000000000000000
11
-40.6209436133487
21
1.23187287372112
31
0.000000000000000
  0
LINE
  5
F10690
330
F10691
100
AcDbEntity
8
Geo
100
AcDbLine
10
-40.6209436133487
20
1.23187287372112
30
0.000000000000000
11
-40.5209436133487
21
1.17519783938333
31
0.000000000000000
  0
LINE
  5
F10692
330
F10693
100
AcDbEntity
8
Geo
100
AcDbLine
10
-40.5209436133487
20
1.17519783938333
30
0.000000000000000
11
-40.4209436133487
21
1.11856394547460
31
0.000000000000000
  0
LINE
  5
F10694
330
F10695
100
AcDbEntity
8
Geo
100
AcDbLine
10
-40.4209436133487
20
1.11856394547460
30
0.000000000000000
11
-40.3209436133487
21
1.06197352259985
31
0.000000000000000
  0
LINE
  5
F10696
330
F10697
100
AcDbEntity
8
Geo
100
AcDbLine
10
-40.3209436133487
20
1.06197352259985
30
0.000000000000000
11
-40.2209436133487
21
1.00542889957509
31
0.000000000000000
  0
LINE
  5
F10698
330
F10699
100
AcDbEntity
8
Geo
100
AcDbLine
10
-40.2209436133487
20
1.00542889957509
30
0.000000000000000
11
-40.1209436133487
21
0.948932403331554
31
0.000000000000000
  0
LINE
  5
F1069A
330
F1069B
100
AcDbEntity
8
Geo
100
AcDbLine
10
-40.1209436133487
20
0.948932403331554
30
0.000000000000000
11
-40.0209436133487
21
0.892486358819961
31
0.000000000000000
  0
LINE
  5
F1069C
330
F1069D
100
AcDbEntity
8
Geo
100
AcDbLine
10
-40.0209436133487
20
0.892486358819961
30
0.000000000000000
11
-39.9209436133487
21
0.836093088914838
31
0.000000000000000
  0
LINE
  5
F1069E
330
F1069F
100
AcDbEntity
8
Geo
100
AcDbLine
10
-39.9209436133487
20
0.836093088914838
30
0.000000000000000
11
-39.8209436133487
21
0.779754914318921
31
0.000000000000000
  0
LINE
  5
F106A0
330
F106A1
100
AcDbEntity
8
Geo
100
AcDbLine
10
-39.8209436133487
20
0.779754914318921
30
0.000000000000000
11
-39.7209436133487
21
0.723474153467656
31
0.000000000000000
  0
LINE
  5
F106A2
330
F106A3
100
AcDbEntity
8
Geo
100
AcDbLine
10
-39.7209436133487
20
0.723474153467656
30
0.000000000000000
11
-39.6209436133487
21
0.667253122433798
31
0.000000000000000
  0
LINE
  5
F106A4
330
F106A5
100
AcDbEntity
8
Geo
100
AcDbLine
10
-39.6209436133487
20
0.667253122433798
30
0.000000000000000
11
-39.5209436133487
21
0.611094134832085
31
0.000000000000000
  0
LINE
  5
F106A6
330
F106A7
100
AcDbEntity
8
Geo
100
AcDbLine
10
-39.5209436133487
20
0.611094134832085
30
0.000000000000000
11
-39.4209436133487
21
0.554999501724044
31
0.000000000000000
  0
LINE
  5
F106A8
330
F106A9
100
AcDbEntity
8
Geo
100
AcDbLine
10
-39.4209436133487
20
0.554999501724044
30
0.000000000000000
11
-39.3209436133487
21
0.498971531522871
31
0.000000000000000
  0
LINE
  5
F106AA
330
F106AB
100
AcDbEntity
8
Geo
100
AcDbLine
10
-39.3209436133487
20
0.498971531522871
30
0.000000000000000
11
-39.2209436133487
21
0.443012529898447
31
0.000000000000000
  0
LINE
  5
F106AC
330
F106AD
100
AcDbEntity
8
Geo
100
AcDbLine
10
-39.2209436133487
20
0.443012529898447
30
0.000000000000000
11
-39.1209436133487
21
0.387124799682446
31
0.000000000000000
  0
LINE
  5
F106AE
330
F106AF
100
AcDbEntity
8
Geo
100
AcDbLine
10
-39.1209436133487
20
0.387124799682446
30
0.000000000000000
11
-39.0209436133487
21
0.331310640773577
31
0.000000000000000
  0
LINE
  5
F106B0
330
F106B1
100
AcDbEntity
8
Geo
100
AcDbLine
10
-39.0209436133487
20
0.331310640773577
30
0.000000000000000
11
-38.9209436133487
21
0.275572350042927
31
0.000000000000000
  0
LINE
  5
F106B2
330
F106B3
100
AcDbEntity
8
Geo
100
AcDbLine
10
-38.9209436133487
20
0.275572350042927
30
0.000000000000000
11
-38.8209436133487
21
0.219912221239453
31
0.000000000000000
  0
LINE
  5
F106B4
330
F106B5
100
AcDbEntity
8
Geo
100
AcDbLine
10
-38.8209436133487
20
0.219912221239453
30
0.000000000000000
11
-38.7209436133487
21
0.164332544895578
31
0.000000000000000
  0
LINE
  5
F106B6
330
F106B7
100
AcDbEntity
8
Geo
100
AcDbLine
10
-38.7209436133487
20
0.164332544895578
30
0.000000000000000
11
-38.6209436133487
21
0.108835608232940
31
0.000000000000000
  0
LINE
  5
F106B8
330
F106B9
100
AcDbEntity
8
Geo
100
AcDbLine
10
-38.6209436133487
20
0.108835608232940
30
0.000000000000000
11
-38.5209436133487
21
0.0534236950682572
31
0.000000000000000
  0
LINE
  5
F106BA
330
F106BB
100
AcDbEntity
8
Geo
100
AcDbLine
10
-38.5209436133487
20
0.0534236950682572
30
0.000000000000000
11
-38.4209436133487
21
-0.00190091428064321
31
0.000000000000000
  0
LINE
  5
F106BC
330
F106BD
100
AcDbEntity
8
Geo
100
AcDbLine
10
-38.4209436133487
20
-0.00190091428064321
30
0.000000000000000
11
-38.3209436133487
21
-0.0571359430886735
31
0.000000000000000
  0
LINE
  5
F106BE
330
F106BF
100
AcDbEntity
8
Geo
100
AcDbLine
10
-38.3209436133487
20
-0.0571359430886735
30
0.000000000000000
11
-38.2209436133487
21
-0.112279118317178
31
0.000000000000000
  0
LINE
  5
F106C0
330
F106C1
100
AcDbEntity
8
Geo
100
AcDbLine
10
-38.2209436133487
20
-0.112279118317178
30
0.000000000000000
11
-38.1209436133487
21
-0.167328170707466
31
0.000000000000000
  0
LINE
  5
F106C2
330
F106C3
100
AcDbEntity
8
Geo
100
AcDbLine
10
-38.1209436133487
20
-0.167328170707466
30
0.000000000000000
11
-38.0209436133487
21
-0.222280834874204
31
0.000000000000000
  0
LINE
  5
F106C4
330
F106C5
100
AcDbEntity
8
Geo
100
AcDbLine
10
-38.0209436133487
20
-0.222280834874204
30
0.000000000000000
11
-37.9209436133487
21
-0.277134849398642
31
0.000000000000000
  0
LINE
  5
F106C6
330
F106C7
100
AcDbEntity
8
Geo
100
AcDbLine
10
-37.9209436133487
20
-0.277134849398642
30
0.000000000000000
11
-37.8209436133487
21
-0.331887956921663
31
0.000000000000000
  0
LINE
  5
F106C8
330
F106C9
100
AcDbEntity
8
Geo
100
AcDbLine
10
-37.8209436133487
20
-0.331887956921663
30
0.000000000000000
11
-37.7209436133487
21
-0.386537904236698
31
0.000000000000000
  0
LINE
  5
F106CA
330
F106CB
100
AcDbEntity
8
Geo
100
AcDbLine
10
-37.7209436133487
20
-0.386537904236698
30
0.000000000000000
11
-37.6209436133487
21
-0.441082442382430
31
0.000000000000000
  0
LINE
  5
F106CC
330
F106CD
100
AcDbEntity
8
Geo
100
AcDbLine
10
-37.6209436133487
20
-0.441082442382430
30
0.000000000000000
11
-37.5209436133487
21
-0.495519326735359
31
0.000000000000000
  0
LINE
  5
F106CE
330
F106CF
100
AcDbEntity
8
Geo
100
AcDbLine
10
-37.5209436133487
20
-0.495519326735359
30
0.000000000000000
11
-37.4209436133487
21
-0.549846317102165
31
0.000000000000000
  0
LINE
  5
F106D0
330
F106D1
100
AcDbEntity
8
Geo
100
AcDbLine
10
-37.4209436133487
20
-0.549846317102165
30
0.000000000000000
11
-37.3209436133487
21
-0.604061177811901
31
0.000000000000000
  0
LINE
  5
F106D2
330
F106D3
100
AcDbEntity
8
Geo
100
AcDbLine
10
-37.3209436133487
20
-0.604061177811901
30
0.000000000000000
11
-37.2209436133487
21
-0.658161677807988
31
0.000000000000000
  0
LINE
  5
F106D4
330
F106D5
100
AcDbEntity
8
Geo
100
AcDbLine
10
-37.2209436133487
20
-0.658161677807988
30
0.000000000000000
11
-37.1209436133487
21
-0.712145590740039
31
0.000000000000000
  0
LINE
  5
F106D6
330
F106D7
100
AcDbEntity
8
Geo
100
AcDbLine
10
-37.1209436133487
20
-0.712145590740039
30
0.000000000000000
11
-37.0209436133487
21
-0.766010695055469
31
0.000000000000000
  0
LINE
  5
F106D8
330
F106D9
100
AcDbEntity
8
Geo
100
AcDbLine
10
-37.0209436133487
20
-0.766010695055469
30
0.000000000000000
11
-36.9209436133487
21
-0.819754774090918
31
0.000000000000000
  0
LINE
  5
F106DA
330
F106DB
100
AcDbEntity
8
Geo
100
AcDbLine
10
-36.9209436133487
20
-0.819754774090918
30
0.000000000000000
11
-36.8209436133487
21
-0.873375616163476
31
0.000000000000000
  0
LINE
  5
F106DC
330
F106DD
100
AcDbEntity
8
Geo
100
AcDbLine
10
-36.8209436133487
20
-0.873375616163476
30
0.000000000000000
11
-36.7209436133487
21
-0.926871014661699
31
0.000000000000000
  0
LINE
  5
F106DE
330
F106DF
100
AcDbEntity
8
Geo
100
AcDbLine
10
-36.7209436133487
20
-0.926871014661699
30
0.000000000000000
11
-36.6209436133487
21
-0.980238768136404
31
0.000000000000000
  0
LINE
  5
F106E0
330
F106E1
100
AcDbEntity
8
Geo
100
AcDbLine
10
-36.6209436133487
20
-0.980238768136404
30
0.000000000000000
11
-36.5209436133487
21
-1.03347668039128
31
0.000000000000000
  0
LINE
  5
F106E2
330
F106E3
100
AcDbEntity
8
Geo
100
AcDbLine
10
-36.5209436133487
20
-1.03347668039128
30
0.000000000000000
11
-36.4209436133487
21
-1.08658256057324
31
0.000000000000000
  0
LINE
  5
F106E4
330
F106E5
100
AcDbEntity
8
Geo
100
AcDbLine
10
-36.4209436133487
20
-1.08658256057324
30
0.000000000000000
11
-36.3209436133487
21
-1.13955422326263
31
0.000000000000000
  0
LINE
  5
F106E6
330
F106E7
100
AcDbEntity
8
Geo
100
AcDbLine
10
-36.3209436133487
20
-1.13955422326263
30
0.000000000000000
11
-36.2209436133487
21
-1.19238948856311
31
0.000000000000000
  0
LINE
  5
F106E8
330
F106E9
100
AcDbEntity
8
Geo
100
AcDbLine
10
-36.2209436133487
20
-1.19238948856311
30
0.000000000000000
11
-36.1209436133487
21
-1.24508618219136
31
0.000000000000000
  0
LINE
  5
F106EA
330
F106EB
100
AcDbEntity
8
Geo
100
AcDbLine
10
-36.1209436133487
20
-1.24508618219136
30
0.000000000000000
11
-36.0209436133487
21
-1.29764213556663
31
0.000000000000000
  0
LINE
  5
F106EC
330
F106ED
100
AcDbEntity
8
Geo
100
AcDbLine
10
-36.0209436133487
20
-1.29764213556663
30
0.000000000000000
11
-35.9209436133487
21
-1.35005518589989
31
0.000000000000000
  0
LINE
  5
F106EE
330
F106EF
100
AcDbEntity
8
Geo
100
AcDbLine
10
-35.9209436133487
20
-1.35005518589989
30
0.000000000000000
11
-35.8209436133487
21
-1.40232317628287
31
0.000000000000000
  0
LINE
  5
F106F0
330
F106F1
100
AcDbEntity
8
Geo
100
AcDbLine
10
-35.8209436133487
20
-1.40232317628287
30
0.000000000000000
11
-35.7209436133487
21
-1.45444395577687
31
0.000000000000000
  0
LINE
  5
F106F2
330
F106F3
100
AcDbEntity
8
Geo
100
AcDbLine
10
-35.7209436133487
20
-1.45444395577687
30
0.000000000000000
11
-35.6209436133487
21
-1.50641537950118
31
0.000000000000000
  0
LINE
  5
F106F4
330
F106F5
100
AcDbEntity
8
Geo
100
AcDbLine
10
-35.6209436133487
20
-1.50641537950118
30
0.000000000000000
11
-35.5209436133487
21
-1.55823530872142
31
0.000000000000000
  0
LINE
  5
F106F6
330
F106F7
100
AcDbEntity
8
Geo
100
AcDbLine
10
-35.5209436133487
20
-1.55823530872142
30
0.000000000000000
11
-35.4209436133487
21
-1.60990161093754
31
0.000000000000000
  0
LINE
  5
F106F8
330
F106F9
100
AcDbEntity
8
Geo
100
AcDbLine
10
-35.4209436133487
20
-1.60990161093754
30
0.000000000000000
11
-35.3209436133487
21
-1.66141215997153
31
0.000000000000000
  0
LINE
  5
F106FA
330
F106FB
100
AcDbEntity
8
Geo
100
AcDbLine
10
-35.3209436133487
20
-1.66141215997153
30
0.000000000000000
11
-35.2209436133487
21
-1.71276483605501
31
0.000000000000000
  0
LINE
  5
F106FC
330
F106FD
100
AcDbEntity
8
Geo
100
AcDbLine
10
-35.2209436133487
20
-1.71276483605501
30
0.000000000000000
11
-35.1209436133487
21
-1.76395752591635
31
0.000000000000000
  0
LINE
  5
F106FE
330
F106FF
100
AcDbEntity
8
Geo
100
AcDbLine
10
-35.1209436133487
20
-1.76395752591635
30
0.000000000000000
11
-35.0209436133487
21
-1.81498812286773
31
0.000000000000000
  0
LINE
  5
F10700
330
F10701
100
AcDbEntity
8
Geo
100
AcDbLine
10
-35.0209436133487
20
-1.81498812286773
30
0.000000000000000
11
-34.9209436133487
21
-1.86585452689179
31
0.000000000000000
  0
LINE
  5
F10702
330
F10703
100
AcDbEntity
8
Geo
100
AcDbLine
10
-34.9209436133487
20
-1.86585452689179
30
0.000000000000000
11
-34.8209436133487
21
-1.91655464472805
31
0.000000000000000
  0
LINE
  5
F10704
330
F10705
100
AcDbEntity
8
Geo
100
AcDbLine
10
-34.8209436133487
20
-1.91655464472805
30
0.000000000000000
11
-34.7209436133487
21
-1.96708638995906
31
0.000000000000000
  0
LINE
  5
F10706
330
F10707
100
AcDbEntity
8
Geo
100
AcDbLine
10
-34.7209436133487
20
-1.96708638995906
30
0.000000000000000
11
-34.6209436133487
21
-2.01744768309626
31
0.000000000000000
  0
LINE
  5
F10708
330
F10709
100
AcDbEntity
8
Geo
100
AcDbLine
10
-34.6209436133487
20
-2.01744768309626
30
0.000000000000000
11
-34.5209436133487
21
-2.06763645166556
31
0.000000000000000
  0
LINE
  5
F1070A
330
F1070B
100
AcDbEntity
8
Geo
100
AcDbLine
10
-34.5209436133487
20
-2.06763645166556
30
0.000000000000000
11
-34.4209436133487
21
-2.11765063029263
31
0.000000000000000
  0
LINE
  5
F1070C
330
F1070D
100
AcDbEntity
8
Geo
100
AcDbLine
10
-34.4209436133487
20
-2.11765063029263
30
0.000000000000000
11
-34.3209436133487
21
-2.16748816078786
31
0.000000000000000
  0
LINE
  5
F1070E
330
F1070F
100
AcDbEntity
8
Geo
100
AcDbLine
10
-34.3209436133487
20
-2.16748816078786
30
0.000000000000000
11
-34.2209436133487
21
-2.21714699223112
31
0.000000000000000
  0
LINE
  5
F10710
330
F10711
100
AcDbEntity
8
Geo
100
AcDbLine
10
-34.2209436133487
20
-2.21714699223112
30
0.000000000000000
11
-34.1209436133487
21
-2.26662508105609
31
0.000000000000000
  0
LINE
  5
F10712
330
F10713
100
AcDbEntity
8
Geo
100
AcDbLine
10
-34.1209436133487
20
-2.26662508105609
30
0.000000000000000
11
-34.0209436133487
21
-2.31592039113443
31
0.000000000000000
  0
LINE
  5
F10714
330
F10715
100
AcDbEntity
8
Geo
100
AcDbLine
10
-34.0209436133487
20
-2.31592039113443
30
0.000000000000000
11
-33.9209436133487
21
-2.36503089385950
31
0.000000000000000
  0
LINE
  5
F10716
330
F10717
100
AcDbEntity
8
Geo
100
AcDbLine
10
-33.9209436133487
20
-2.36503089385950
30
0.000000000000000
11
-33.8209436133487
21
-2.41395456822989
31
0.000000000000000
  0
LINE
  5
F10718
330
F10719
100
AcDbEntity
8
Geo
100
AcDbLine
10
-33.8209436133487
20
-2.41395456822989
30
0.000000000000000
11
-33.7209436133487
21
-2.46268940093257
31
0.000000000000000
  0
LINE
  5
F1071A
330
F1071B
100
AcDbEntity
8
Geo
100
AcDbLine
10
-33.7209436133487
20
-2.46268940093257
30
0.000000000000000
11
-33.6209436133487
21
-2.51123338642575
31
0.000000000000000
  0
LINE
  5
F1071C
330
F1071D
100
AcDbEntity
8
Geo
100
AcDbLine
10
-33.6209436133487
20
-2.51123338642575
30
0.000000000000000
11
-33.5209436133487
21
-2.55958452702141
31
0.000000000000000
  0
LINE
  5
F1071E
330
F1071F
100
AcDbEntity
8
Geo
100
AcDbLine
10
-33.5209436133487
20
-2.55958452702141
30
0.000000000000000
11
-33.4209436133487
21
-2.60774083296749
31
0.000000000000000
  0
LINE
  5
F10720
330
F10721
100
AcDbEntity
8
Geo
100
AcDbLine
10
-33.4209436133487
20
-2.60774083296749
30
0.000000000000000
11
-33.3209436133487
21
-2.65570032252981
31
0.000000000000000
  0
LINE
  5
F10722
330
F10723
100
AcDbEntity
8
Geo
100
AcDbLine
10
-33.3209436133487
20
-2.65570032252981
30
0.000000000000000
11
-33.2209436133487
21
-2.70346102207358
31
0.000000000000000
  0
LINE
  5
F10724
330
F10725
100
AcDbEntity
8
Geo
100
AcDbLine
10
-33.2209436133487
20
-2.70346102207358
30
0.000000000000000
11
-33.1209436133487
21
-2.75102096614467
31
0.000000000000000
  0
LINE
  5
F10726
330
F10727
100
AcDbEntity
8
Geo
100
AcDbLine
10
-33.1209436133487
20
-2.75102096614467
30
0.000000000000000
11
-33.0209436133487
21
-2.79837819755043
31
0.000000000000000
  0
LINE
  5
F10728
330
F10729
100
AcDbEntity
8
Geo
100
AcDbLine
10
-33.0209436133487
20
-2.79837819755043
30
0.000000000000000
11
-32.9209436133487
21
-2.84553076744030
31
0.000000000000000
  0
LINE
  5
F1072A
330
F1072B
100
AcDbEntity
8
Geo
100
AcDbLine
10
-32.9209436133487
20
-2.84553076744030
30
0.000000000000000
11
-32.8209436133487
21
-2.89247673538596
31
0.000000000000000
  0
LINE
  5
F1072C
330
F1072D
100
AcDbEntity
8
Geo
100
AcDbLine
10
-32.8209436133487
20
-2.89247673538596
30
0.000000000000000
11
-32.7209436133487
21
-2.93921416946118
31
0.000000000000000
  0
LINE
  5
F1072E
330
F1072F
100
AcDbEntity
8
Geo
100
AcDbLine
10
-32.7209436133487
20
-2.93921416946118
30
0.000000000000000
11
-32.6209436133487
21
-2.98574114632137
31
0.000000000000000
  0
LINE
  5
F10730
330
F10731
100
AcDbEntity
8
Geo
100
AcDbLine
10
-32.6209436133487
20
-2.98574114632137
30
0.000000000000000
11
-32.5209436133487
21
-3.03205575128270
31
0.000000000000000
  0
LINE
  5
F10732
330
F10733
100
AcDbEntity
8
Geo
100
AcDbLine
10
-32.5209436133487
20
-3.03205575128270
30
0.000000000000000
11
-32.4209436133487
21
-3.07815607840086
31
0.000000000000000
  0
LINE
  5
F10734
330
F10735
100
AcDbEntity
8
Geo
100
AcDbLine
10
-32.4209436133487
20
-3.07815607840086
30
0.000000000000000
11
-32.3209436133487
21
-3.12404023054958
31
0.000000000000000
  0
LINE
  5
F10736
330
F10737
100
AcDbEntity
8
Geo
100
AcDbLine
10
-32.3209436133487
20
-3.12404023054958
30
0.000000000000000
11
-32.2209436133487
21
-3.16970631949861
31
0.000000000000000
  0
LINE
  5
F10738
330
F10739
100
AcDbEntity
8
Geo
100
AcDbLine
10
-32.2209436133487
20
-3.16970631949861
30
0.000000000000000
11
-32.1209436133487
21
-3.21515246599147
31
0.000000000000000
  0
LINE
  5
F1073A
330
F1073B
100
AcDbEntity
8
Geo
100
AcDbLine
10
-32.1209436133487
20
-3.21515246599147
30
0.000000000000000
11
-32.0209436133487
21
-3.26037679982279
31
0.000000000000000
  0
LINE
  5
F1073C
330
F1073D
100
AcDbEntity
8
Geo
100
AcDbLine
10
-32.0209436133487
20
-3.26037679982279
30
0.000000000000000
11
-31.9209436133487
21
-3.30537745991525
31
0.000000000000000
  0
LINE
  5
F1073E
330
F1073F
100
AcDbEntity
8
Geo
100
AcDbLine
10
-31.9209436133487
20
-3.30537745991525
30
0.000000000000000
11
-31.8209436133487
21
-3.35015259439619
31
0.000000000000000
  0
LINE
  5
F10740
330
F10741
100
AcDbEntity
8
Geo
100
AcDbLine
10
-31.8209436133487
20
-3.35015259439619
30
0.000000000000000
11
-31.7209436133487
21
-3.39470036067381
31
0.000000000000000
  0
LINE
  5
F10742
330
F10743
100
AcDbEntity
8
Geo
100
AcDbLine
10
-31.7209436133487
20
-3.39470036067381
30
0.000000000000000
11
-31.6209436133487
21
-3.43901892551296
31
0.000000000000000
  0
LINE
  5
F10744
330
F10745
100
AcDbEntity
8
Geo
100
AcDbLine
10
-31.6209436133487
20
-3.43901892551296
30
0.000000000000000
11
-31.5209436133487
21
-3.48310646511067
31
0.000000000000000
  0
LINE
  5
F10746
330
F10747
100
AcDbEntity
8
Geo
100
AcDbLine
10
-31.5209436133487
20
-3.48310646511067
30
0.000000000000000
11
-31.4209436133487
21
-3.52696116517111
31
0.000000000000000
  0
LINE
  5
F10748
330
F10749
100
AcDbEntity
8
Geo
100
AcDbLine
10
-31.4209436133487
20
-3.52696116517111
30
0.000000000000000
11
-31.3209436133487
21
-3.57058122098029
31
0.000000000000000
  0
LINE
  5
F1074A
330
F1074B
100
AcDbEntity
8
Geo
100
AcDbLine
10
-31.3209436133487
20
-3.57058122098029
30
0.000000000000000
11
-31.2209436133487
21
-3.61396483748036
31
0.000000000000000
  0
LINE
  5
F1074C
330
F1074D
100
AcDbEntity
8
Geo
100
AcDbLine
10
-31.2209436133487
20
-3.61396483748036
30
0.000000000000000
11
-31.1209436133487
21
-3.65711022934343
31
0.000000000000000
  0
LINE
  5
F1074E
330
F1074F
100
AcDbEntity
8
Geo
100
AcDbLine
10
-31.1209436133487
20
-3.65711022934343
30
0.000000000000000
11
-31.0209436133487
21
-3.70001562104504
31
0.000000000000000
  0
LINE
  5
F10750
330
F10751
100
AcDbEntity
8
Geo
100
AcDbLine
10
-31.0209436133487
20
-3.70001562104504
30
0.000000000000000
11
-30.9209436133487
21
-3.74267924693728
31
0.000000000000000
  0
LINE
  5
F10752
330
F10753
100
AcDbEntity
8
Geo
100
AcDbLine
10
-30.9209436133487
20
-3.74267924693728
30
0.000000000000000
11
-30.8209436133487
21
-3.78509935132140
31
0.000000000000000
  0
LINE
  5
F10754
330
F10755
100
AcDbEntity
8
Geo
100
AcDbLine
10
-30.8209436133487
20
-3.78509935132140
30
0.000000000000000
11
-30.7209436133487
21
-3.82727418852008
31
0.000000000000000
  0
LINE
  5
F10756
330
F10757
100
AcDbEntity
8
Geo
100
AcDbLine
10
-30.7209436133487
20
-3.82727418852008
30
0.000000000000000
11
-30.6209436133487
21
-3.86920202294926
31
0.000000000000000
  0
LINE
  5
F10758
330
F10759
100
AcDbEntity
8
Geo
100
AcDbLine
10
-30.6209436133487
20
-3.86920202294926
30
0.000000000000000
11
-30.5209436133487
21
-3.91088112918957
31
0.000000000000000
  0
LINE
  5
F1075A
330
F1075B
100
AcDbEntity
8
Geo
100
AcDbLine
10
-30.5209436133487
20
-3.91088112918957
30
0.000000000000000
11
-30.4209436133487
21
-3.95230979205734
31
0.000000000000000
  0
LINE
  5
F1075C
330
F1075D
100
AcDbEntity
8
Geo
100
AcDbLine
10
-30.4209436133487
20
-3.95230979205734
30
0.000000000000000
11
-30.3209436133487
21
-3.99348630667517
31
0.000000000000000
  0
LINE
  5
F1075E
330
F1075F
100
AcDbEntity
8
Geo
100
AcDbLine
10
-30.3209436133487
20
-3.99348630667517
30
0.000000000000000
11
-30.2209436133487
21
-4.03440897854210
31
0.000000000000000
  0
LINE
  5
F10760
330
F10761
100
AcDbEntity
8
Geo
100
AcDbLine
10
-30.2209436133487
20
-4.03440897854210
30
0.000000000000000
11
-30.1209436133487
21
-4.07507612360333
31
0.000000000000000
  0
LINE
  5
F10762
330
F10763
100
AcDbEntity
8
Geo
100
AcDbLine
10
-30.1209436133487
20
-4.07507612360333
30
0.000000000000000
11
-30.0209436133487
21
-4.11548606831953
31
0.000000000000000
  0
LINE
  5
F10764
330
F10765
100
AcDbEntity
8
Geo
100
AcDbLine
10
-30.0209436133487
20
-4.11548606831953
30
0.000000000000000
11
-29.9209436133487
21
-4.15563714973572
31
0.000000000000000
  0
LINE
  5
F10766
330
F10767
100
AcDbEntity
8
Geo
100
AcDbLine
10
-29.9209436133487
20
-4.15563714973572
30
0.000000000000000
11
-29.8209436133487
21
-4.19552771554969
31
0.000000000000000
  0
LINE
  5
F10768
330
F10769
100
AcDbEntity
8
Geo
100
AcDbLine
10
-29.8209436133487
20
-4.19552771554969
30
0.000000000000000
11
-29.7209436133487
21
-4.23515612418000
31
0.000000000000000
  0
LINE
  5
F1076A
330
F1076B
100
AcDbEntity
8
Geo
100
AcDbLine
10
-29.7209436133487
20
-4.23515612418000
30
0.000000000000000
11
-29.6209436133487
21
-4.27452074483353
31
0.000000000000000
  0
LINE
  5
F1076C
330
F1076D
100
AcDbEntity
8
Geo
100
AcDbLine
10
-29.6209436133487
20
-4.27452074483353
30
0.000000000000000
11
-29.5209436133487
21
-4.31361995757261
31
0.000000000000000
  0
LINE
  5
F1076E
330
F1076F
100
AcDbEntity
8
Geo
100
AcDbLine
10
-29.5209436133487
20
-4.31361995757261
30
0.000000000000000
11
-29.4209436133487
21
-4.35245215338164
31
0.000000000000000
  0
LINE
  5
F10770
330
F10771
100
AcDbEntity
8
Geo
100
AcDbLine
10
-29.4209436133487
20
-4.35245215338164
30
0.000000000000000
11
-29.3209436133487
21
-4.39101573423336
31
0.000000000000000
  0
LINE
  5
F10772
330
F10773
100
AcDbEntity
8
Geo
100
AcDbLine
10
-29.3209436133487
20
-4.39101573423336
30
0.000000000000000
11
-29.2209436133487
21
-4.42930911315457
31
0.000000000000000
  0
LINE
  5
F10774
330
F10775
100
AcDbEntity
8
Geo
100
AcDbLine
10
-29.2209436133487
20
-4.42930911315457
30
0.000000000000000
11
-29.1209436133487
21
-4.46733071429147
31
0.000000000000000
  0
LINE
  5
F10776
330
F10777
100
AcDbEntity
8
Geo
100
AcDbLine
10
-29.1209436133487
20
-4.46733071429147
30
0.000000000000000
11
-29.0209436133487
21
-4.50507897297448
31
0.000000000000000
  0
LINE
  5
F10778
330
F10779
100
AcDbEntity
8
Geo
100
AcDbLine
10
-29.0209436133487
20
-4.50507897297448
30
0.000000000000000
11
-28.9209436133487
21
-4.54255233578264
31
0.000000000000000
  0
LINE
  5
F1077A
330
F1077B
100
AcDbEntity
8
Geo
100
AcDbLine
10
-28.9209436133487
20
-4.54255233578264
30
0.000000000000000
11
-28.8209436133487
21
-4.57974926060754
31
0.000000000000000
  0
LINE
  5
F1077C
330
F1077D
100
AcDbEntity
8
Geo
100
AcDbLine
10
-28.8209436133487
20
-4.57974926060754
30
0.000000000000000
11
-28.7209436133487
21
-4.61666821671679
31
0.000000000000000
  0
LINE
  5
F1077E
330
F1077F
100
AcDbEntity
8
Geo
100
AcDbLine
10
-28.7209436133487
20
-4.61666821671679
30
0.000000000000000
11
-28.6209436133487
21
-4.65330768481698
31
0.000000000000000
  0
LINE
  5
F10780
330
F10781
100
AcDbEntity
8
Geo
100
AcDbLine
10
-28.6209436133487
20
-4.65330768481698
30
0.000000000000000
11
-28.5209436133487
21
-4.68966615711626
31
0.000000000000000
  0
LINE
  5
F10782
330
F10783
100
AcDbEntity
8
Geo
100
AcDbLine
10
-28.5209436133487
20
-4.68966615711626
30
0.000000000000000
11
-28.4209436133487
21
-4.72574213738632
31
0.000000000000000
  0
LINE
  5
F10784
330
F10785
100
AcDbEntity
8
Geo
100
AcDbLine
10
-28.4209436133487
20
-4.72574213738632
30
0.000000000000000
11
-28.3209436133487
21
-4.76153414102402
31
0.000000000000000
  0
LINE
  5
F10786
330
F10787
100
AcDbEntity
8
Geo
100
AcDbLine
10
-28.3209436133487
20
-4.76153414102402
30
0.000000000000000
11
-28.2209436133487
21
-4.79704069511244
31
0.000000000000000
  0
LINE
  5
F10788
330
F10789
100
AcDbEntity
8
Geo
100
AcDbLine
10
-28.2209436133487
20
-4.79704069511244
30
0.000000000000000
11
-28.1209436133487
21
-4.83226033848152
31
0.000000000000000
  0
LINE
  5
F1078A
330
F1078B
100
AcDbEntity
8
Geo
100
AcDbLine
10
-28.1209436133487
20
-4.83226033848152
30
0.000000000000000
11
-28.0209436133487
21
-4.86719162176820
31
0.000000000000000
  0
LINE
  5
F1078C
330
F1078D
100
AcDbEntity
8
Geo
100
AcDbLine
10
-28.0209436133487
20
-4.86719162176820
30
0.000000000000000
11
-27.9209436133487
21
-4.90183310747605
31
0.000000000000000
  0
LINE
  5
F1078E
330
F1078F
100
AcDbEntity
8
Geo
100
AcDbLine
10
-27.9209436133487
20
-4.90183310747605
30
0.000000000000000
11
-27.8209436133487
21
-4.93618337003440
31
0.000000000000000
  0
LINE
  5
F10790
330
F10791
100
AcDbEntity
8
Geo
100
AcDbLine
10
-27.8209436133487
20
-4.93618337003440
30
0.000000000000000
11
-27.7209436133487
21
-4.97024099585706
31
0.000000000000000
  0
LINE
  5
F10792
330
F10793
100
AcDbEntity
8
Geo
100
AcDbLine
10
-27.7209436133487
20
-4.97024099585706
30
0.000000000000000
11
-27.6209436133487
21
-5.00400458340042
31
0.000000000000000
  0
LINE
  5
F10794
330
F10795
100
AcDbEntity
8
Geo
100
AcDbLine
10
-27.6209436133487
20
-5.00400458340042
30
0.000000000000000
11
-27.5209436133487
21
-5.03747274322123
31
0.000000000000000
  0
LINE
  5
F10796
330
F10797
100
AcDbEntity
8
Geo
100
AcDbLine
10
-27.5209436133487
20
-5.03747274322123
30
0.000000000000000
11
-27.4209436133487
21
-5.07064409803368
31
0.000000000000000
  0
LINE
  5
F10798
330
F10799
100
AcDbEntity
8
Geo
100
AcDbLine
10
-27.4209436133487
20
-5.07064409803368
30
0.000000000000000
11
-27.3209436133487
21
-5.10351728276610
31
0.000000000000000
  0
LINE
  5
F1079A
330
F1079B
100
AcDbEntity
8
Geo
100
AcDbLine
10
-27.3209436133487
20
-5.10351728276610
30
0.000000000000000
11
-27.2209436133487
21
-5.13609094461719
31
0.000000000000000
  0
LINE
  5
F1079C
330
F1079D
100
AcDbEntity
8
Geo
100
AcDbLine
10
-27.2209436133487
20
-5.13609094461719
30
0.000000000000000
11
-27.1209436133487
21
-5.16836374311164
31
0.000000000000000
  0
LINE
  5
F1079E
330
F1079F
100
AcDbEntity
8
Geo
100
AcDbLine
10
-27.1209436133487
20
-5.16836374311164
30
0.000000000000000
11
-27.0209436133487
21
-5.20033435015529
31
0.000000000000000
  0
LINE
  5
F107A0
330
F107A1
100
AcDbEntity
8
Geo
100
AcDbLine
10
-27.0209436133487
20
-5.20033435015529
30
0.000000000000000
11
-26.9209436133487
21
-5.23200145008981
31
0.000000000000000
  0
LINE
  5
F107A2
330
F107A3
100
AcDbEntity
8
Geo
100
AcDbLine
10
-26.9209436133487
20
-5.23200145008981
30
0.000000000000000
11
-26.8209436133487
21
-5.26336373974685
31
0.000000000000000
  0
LINE
  5
F107A4
330
F107A5
100
AcDbEntity
8
Geo
100
AcDbLine
10
-26.8209436133487
20
-5.26336373974685
30
0.000000000000000
11
-26.7209436133487
21
-5.29441992850161
31
0.000000000000000
  0
LINE
  5
F107A6
330
F107A7
100
AcDbEntity
8
Geo
100
AcDbLine
10
-26.7209436133487
20
-5.29441992850161
30
0.000000000000000
11
-26.6209436133487
21
-5.32516873832602
31
0.000000000000000
  0
LINE
  5
F107A8
330
F107A9
100
AcDbEntity
8
Geo
100
AcDbLine
10
-26.6209436133487
20
-5.32516873832602
30
0.000000000000000
11
-26.5209436133487
21
-5.35560890384131
31
0.000000000000000
  0
LINE
  5
F107AA
330
F107AB
100
AcDbEntity
8
Geo
100
AcDbLine
10
-26.5209436133487
20
-5.35560890384131
30
0.000000000000000
11
-26.4209436133487
21
-5.38573917237005
31
0.000000000000000
  0
LINE
  5
F107AC
330
F107AD
100
AcDbEntity
8
Geo
100
AcDbLine
10
-26.4209436133487
20
-5.38573917237005
30
0.000000000000000
11
-26.3209436133487
21
-5.41555830398776
31
0.000000000000000
  0
LINE
  5
F107AE
330
F107AF
100
AcDbEntity
8
Geo
100
AcDbLine
10
-26.3209436133487
20
-5.41555830398776
30
0.000000000000000
11
-26.2209436133487
21
-5.44506507157389
31
0.000000000000000
  0
LINE
  5
F107B0
330
F107B1
100
AcDbEntity
8
Geo
100
AcDbLine
10
-26.2209436133487
20
-5.44506507157389
30
0.000000000000000
11
-26.1209436133487
21
-5.47425826086232
31
0.000000000000000
  0
LINE
  5
F107B2
330
F107B3
100
AcDbEntity
8
Geo
100
AcDbLine
10
-26.1209436133487
20
-5.47425826086232
30
0.000000000000000
11
-26.0209436133487
21
-5.50313667049137
31
0.000000000000000
  0
LINE
  5
F107B4
330
F107B5
100
AcDbEntity
8
Geo
100
AcDbLine
10
-26.0209436133487
20
-5.50313667049137
30
0.000000000000000
11
-25.9209436133487
21
-5.53169911205319
31
0.000000000000000
  0
LINE
  5
F107B6
330
F107B7
100
AcDbEntity
8
Geo
100
AcDbLine
10
-25.9209436133487
20
-5.53169911205319
30
0.000000000000000
11
-25.8209436133487
21
-5.55994441014269
31
0.000000000000000
  0
LINE
  5
F107B8
330
F107B9
100
AcDbEntity
8
Geo
100
AcDbLine
10
-25.8209436133487
20
-5.55994441014269
30
0.000000000000000
11
-25.7209436133487
21
-5.58787140240592
31
0.000000000000000
  0
LINE
  5
F107BA
330
F107BB
100
AcDbEntity
8
Geo
100
AcDbLine
10
-40.7209436133487
20
11.0186303340008
30
0.000000000000000
11
-40.6209436133487
21
11.0127626139307
31
0.000000000000000
  0
LINE
  5
F107BC
330
F107BD
100
AcDbEntity
8
Geo
100
AcDbLine
10
-40.6209436133487
20
11.0127626139307
30
0.000000000000000
11
-40.5209436133487
21
11.0065311976215
31
0.000000000000000
  0
LINE
  5
F107BE
330
F107BF
100
AcDbEntity
8
Geo
100
AcDbLine
10
-40.5209436133487
20
11.0065311976215
30
0.000000000000000
11
-40.4209436133487
21
10.9999363415091
31
0.000000000000000
  0
LINE
  5
F107C0
330
F107C1
100
AcDbEntity
8
Geo
100
AcDbLine
10
-40.4209436133487
20
10.9999363415091
30
0.000000000000000
11
-40.3209436133487
21
10.9929783169859
31
0.000000000000000
  0
LINE
  5
F107C2
330
F107C3
100
AcDbEntity
8
Geo
100
AcDbLine
10
-40.3209436133487
20
10.9929783169859
30
0.000000000000000
11
-40.2209436133487
21
10.9856574103892
31
0.000000000000000
  0
LINE
  5
F107C4
330
F107C5
100
AcDbEntity
8
Geo
100
AcDbLine
10
-40.2209436133487
20
10.9856574103892
30
0.000000000000000
11
-40.1209436133487
21
10.9779739229901
31
0.000000000000000
  0
LINE
  5
F107C6
330
F107C7
100
AcDbEntity
8
Geo
100
AcDbLine
10
-40.1209436133487
20
10.9779739229901
30
0.000000000000000
11
-40.0209436133487
21
10.9699281709802
31
0.000000000000000
  0
LINE
  5
F107C8
330
F107C9
100
AcDbEntity
8
Geo
100
AcDbLine
10
-40.0209436133487
20
10.9699281709802
30
0.000000000000000
11
-39.9209436133487
21
10.9615204854594
31
0.000000000000000
  0
LINE
  5
F107CA
330
F107CB
100
AcDbEntity
8
Geo
100
AcDbLine
10
-39.9209436133487
20
10.9615204854594
30
0.000000000000000
11
-39.8209436133487
21
10.9527512124218
31
0.000000000000000
  0
LINE
  5
F107CC
330
F107CD
100
AcDbEntity
8
Geo
100
AcDbLine
10
-39.8209436133487
20
10.9527512124218
30
0.000000000000000
11
-39.7209436133487
21
10.9436207127415
31
0.000000000000000
  0
LINE
  5
F107CE
330
F107CF
100
AcDbEntity
8
Geo
100
AcDbLine
10
-39.7209436133487
20
10.9436207127415
30
0.000000000000000
11
-39.6209436133487
21
10.9341293621580
31
0.000000000000000
  0
LINE
  5
F107D0
330
F107D1
100
AcDbEntity
8
Geo
100
AcDbLine
10
-39.6209436133487
20
10.9341293621580
30
0.000000000000000
11
-39.5209436133487
21
10.9242775512606
31
0.000000000000000
  0
LINE
  5
F107D2
330
F107D3
100
AcDbEntity
8
Geo
100
AcDbLine
10
-39.5209436133487
20
10.9242775512606
30
0.000000000000000
11
-39.4209436133487
21
10.9140656854720
31
0.000000000000000
  0
LINE
  5
F107D4
330
F107D5
100
AcDbEntity
8
Geo
100
AcDbLine
10
-39.4209436133487
20
10.9140656854720
30
0.000000000000000
11
-39.3209436133487
21
10.9034941850324
31
0.000000000000000
  0
LINE
  5
F107D6
330
F107D7
100
AcDbEntity
8
Geo
100
AcDbLine
10
-39.3209436133487
20
10.9034941850324
30
0.000000000000000
11
-39.2209436133487
21
10.8925634849813
31
0.000000000000000
  0
LINE
  5
F107D8
330
F107D9
100
AcDbEntity
8
Geo
100
AcDbLine
10
-39.2209436133487
20
10.8925634849813
30
0.000000000000000
11
-39.1209436133487
21
10.8812740351403
31
0.000000000000000
  0
LINE
  5
F107DA
330
F107DB
100
AcDbEntity
8
Geo
100
AcDbLine
10
-39.1209436133487
20
10.8812740351403
30
0.000000000000000
11
-39.0209436133487
21
10.8696263000942
31
0.000000000000000
  0
LINE
  5
F107DC
330
F107DD
100
AcDbEntity
8
Geo
100
AcDbLine
10
-39.0209436133487
20
10.8696263000942
30
0.000000000000000
11
-38.9209436133487
21
10.8576207591721
31
0.000000000000000
  0
LINE
  5
F107DE
330
F107DF
100
AcDbEntity
8
Geo
100
AcDbLine
10
-38.9209436133487
20
10.8576207591721
30
0.000000000000000
11
-38.8209436133487
21
10.8452579064273
31
0.000000000000000
  0
LINE
  5
F107E0
330
F107E1
100
AcDbEntity
8
Geo
100
AcDbLine
10
-38.8209436133487
20
10.8452579064273
30
0.000000000000000
11
-38.7209436133487
21
10.8325382506175
31
0.000000000000000
  0
LINE
  5
F107E2
330
F107E3
100
AcDbEntity
8
Geo
100
AcDbLine
10
-38.7209436133487
20
10.8325382506175
30
0.000000000000000
11
-38.6209436133487
21
10.8194623151836
31
0.000000000000000
  0
LINE
  5
F107E4
330
F107E5
100
AcDbEntity
8
Geo
100
AcDbLine
10
-38.6209436133487
20
10.8194623151836
30
0.000000000000000
11
-38.5209436133487
21
10.8060306382280
31
0.000000000000000
  0
LINE
  5
F107E6
330
F107E7
100
AcDbEntity
8
Geo
100
AcDbLine
10
-38.5209436133487
20
10.8060306382280
30
0.000000000000000
11
-38.4209436133487
21
10.7922437724928
31
0.000000000000000
  0
LINE
  5
F107E8
330
F107E9
100
AcDbEntity
8
Geo
100
AcDbLine
10
-38.4209436133487
20
10.7922437724928
30
0.000000000000000
11
-38.3209436133487
21
10.7781022853368
31
0.000000000000000
  0
LINE
  5
F107EA
330
F107EB
100
AcDbEntity
8
Geo
100
AcDbLine
10
-38.3209436133487
20
10.7781022853368
30
0.000000000000000
11
-38.2209436133487
21
10.7636067587121
31
0.000000000000000
  0
LINE
  5
F107EC
330
F107ED
100
AcDbEntity
8
Geo
100
AcDbLine
10
-38.2209436133487
20
10.7636067587121
30
0.000000000000000
11
-38.1209436133487
21
10.7487577891404
31
0.000000000000000
  0
LINE
  5
F107EE
330
F107EF
100
AcDbEntity
8
Geo
100
AcDbLine
10
-38.1209436133487
20
10.7487577891404
30
0.000000000000000
11
-38.0209436133487
21
10.7335559876884
31
0.000000000000000
  0
LINE
  5
F107F0
330
F107F1
100
AcDbEntity
8
Geo
100
AcDbLine
10
-38.0209436133487
20
10.7335559876884
30
0.000000000000000
11
-37.9209436133487
21
10.7180019799424
31
0.000000000000000
  0
LINE
  5
F107F2
330
F107F3
100
AcDbEntity
8
Geo
100
AcDbLine
10
-37.9209436133487
20
10.7180019799424
30
0.000000000000000
11
-37.8209436133487
21
10.7020964059829
31
0.000000000000000
  0
LINE
  5
F107F4
330
F107F5
100
AcDbEntity
8
Geo
100
AcDbLine
10
-37.8209436133487
20
10.7020964059829
30
0.000000000000000
11
-37.7209436133487
21
10.6858399203580
31
0.000000000000000
  0
LINE
  5
F107F6
330
F107F7
100
AcDbEntity
8
Geo
100
AcDbLine
10
-37.7209436133487
20
10.6858399203580
30
0.000000000000000
11
-37.6209436133487
21
10.6692331920566
31
0.000000000000000
  0
LINE
  5
F107F8
330
F107F9
100
AcDbEntity
8
Geo
100
AcDbLine
10
-37.6209436133487
20
10.6692331920566
30
0.000000000000000
11
-37.5209436133487
21
10.6522769044808
31
0.000000000000000
  0
LINE
  5
F107FA
330
F107FB
100
AcDbEntity
8
Geo
100
AcDbLine
10
-37.5209436133487
20
10.6522769044808
30
0.000000000000000
11
-37.4209436133487
21
10.6349717554177
31
0.000000000000000
  0
LINE
  5
F107FC
330
F107FD
100
AcDbEntity
8
Geo
100
AcDbLine
10
-37.4209436133487
20
10.6349717554177
30
0.000000000000000
11
-37.3209436133487
21
10.6173184570111
31
0.000000000000000
  0
LINE
  5
F107FE
330
F107FF
100
AcDbEntity
8
Geo
100
AcDbLine
10
-37.3209436133487
20
10.6173184570111
30
0.000000000000000
11
-37.2209436133487
21
10.5993177357316
31
0.000000000000000
  0
LINE
  5
F10800
330
F10801
100
AcDbEntity
8
Geo
100
AcDbLine
10
-37.2209436133487
20
10.5993177357316
30
0.000000000000000
11
-37.1209436133487
21
10.5809703323471
31
0.000000000000000
  0
LINE
  5
F10802
330
F10803
100
AcDbEntity
8
Geo
100
AcDbLine
10
-37.1209436133487
20
10.5809703323471
30
0.000000000000000
11
-37.0209436133487
21
10.5622770018922
31
0.000000000000000
  0
LINE
  5
F10804
330
F10805
100
AcDbEntity
8
Geo
100
AcDbLine
10
-37.0209436133487
20
10.5622770018922
30
0.000000000000000
11
-36.9209436133487
21
10.5432385136371
31
0.000000000000000
  0
LINE
  5
F10806
330
F10807
100
AcDbEntity
8
Geo
100
AcDbLine
10
-36.9209436133487
20
10.5432385136371
30
0.000000000000000
11
-36.8209436133487
21
10.5238556510560
31
0.000000000000000
  0
LINE
  5
F10808
330
F10809
100
AcDbEntity
8
Geo
100
AcDbLine
10
-36.8209436133487
20
10.5238556510560
30
0.000000000000000
11
-36.7209436133487
21
10.5041292117948
31
0.000000000000000
  0
LINE
  5
F1080A
330
F1080B
100
AcDbEntity
8
Geo
100
AcDbLine
10
-36.7209436133487
20
10.5041292117948
30
0.000000000000000
11
-36.6209436133487
21
10.4840600076384
31
0.000000000000000
  0
LINE
  5
F1080C
330
F1080D
100
AcDbEntity
8
Geo
100
AcDbLine
10
-36.6209436133487
20
10.4840600076384
30
0.000000000000000
11
-36.5209436133487
21
10.4636488644771
31
0.000000000000000
  0
LINE
  5
F1080E
330
F1080F
100
AcDbEntity
8
Geo
100
AcDbLine
10
-36.5209436133487
20
10.4636488644771
30
0.000000000000000
11
-36.4209436133487
21
10.4428966222728
31
0.000000000000000
  0
LINE
  5
F10810
330
F10811
100
AcDbEntity
8
Geo
100
AcDbLine
10
-36.4209436133487
20
10.4428966222728
30
0.000000000000000
11
-36.3209436133487
21
10.4218041350242
31
0.000000000000000
  0
LINE
  5
F10812
330
F10813
100
AcDbEntity
8
Geo
100
AcDbLine
10
-36.3209436133487
20
10.4218041350242
30
0.000000000000000
11
-36.2209436133487
21
10.4003722707320
31
0.000000000000000
  0
LINE
  5
F10814
330
F10815
100
AcDbEntity
8
Geo
100
AcDbLine
10
-36.2209436133487
20
10.4003722707320
30
0.000000000000000
11
-36.1209436133487
21
10.3786019113630
31
0.000000000000000
  0
LINE
  5
F10816
330
F10817
100
AcDbEntity
8
Geo
100
AcDbLine
10
-36.1209436133487
20
10.3786019113630
30
0.000000000000000
11
-36.0209436133487
21
10.3564939528135
31
0.000000000000000
  0
LINE
  5
F10818
330
F10819
100
AcDbEntity
8
Geo
100
AcDbLine
10
-36.0209436133487
20
10.3564939528135
30
0.000000000000000
11
-35.9209436133487
21
10.3340493048730
31
0.000000000000000
  0
LINE
  5
F1081A
330
F1081B
100
AcDbEntity
8
Geo
100
AcDbLine
10
-35.9209436133487
20
10.3340493048730
30
0.000000000000000
11
-35.8209436133487
21
10.3112688911864
31
0.000000000000000
  0
LINE
  5
F1081C
330
F1081D
100
AcDbEntity
8
Geo
100
AcDbLine
10
-35.8209436133487
20
10.3112688911864
30
0.000000000000000
11
-35.7209436133487
21
10.2881536492161
31
0.000000000000000
  0
LINE
  5
F1081E
330
F1081F
100
AcDbEntity
8
Geo
100
AcDbLine
10
-35.7209436133487
20
10.2881536492161
30
0.000000000000000
11
-35.6209436133487
21
10.2647045302033
31
0.000000000000000
  0
LINE
  5
F10820
330
F10821
100
AcDbEntity
8
Geo
100
AcDbLine
10
-35.6209436133487
20
10.2647045302033
30
0.000000000000000
11
-35.5209436133487
21
10.2409224991290
31
0.000000000000000
  0
LINE
  5
F10822
330
F10823
100
AcDbEntity
8
Geo
100
AcDbLine
10
-35.5209436133487
20
10.2409224991290
30
0.000000000000000
11
-35.4209436133487
21
10.2168085346743
31
0.000000000000000
  0
LINE
  5
F10824
330
F10825
100
AcDbEntity
8
Geo
100
AcDbLine
10
-35.4209436133487
20
10.2168085346743
30
0.000000000000000
11
-35.3209436133487
21
10.1923636291800
31
0.000000000000000
  0
LINE
  5
F10826
330
F10827
100
AcDbEntity
8
Geo
100
AcDbLine
10
-35.3209436133487
20
10.1923636291800
30
0.000000000000000
11
-35.2209436133487
21
10.1675887886059
31
0.000000000000000
  0
LINE
  5
F10828
330
F10829
100
AcDbEntity
8
Geo
100
AcDbLine
10
-35.2209436133487
20
10.1675887886059
30
0.000000000000000
11
-35.1209436133487
21
10.1424850324891
31
0.000000000000000
  0
LINE
  5
F1082A
330
F1082B
100
AcDbEntity
8
Geo
100
AcDbLine
10
-35.1209436133487
20
10.1424850324891
30
0.000000000000000
11
-35.0209436133487
21
10.1170533939026
31
0.000000000000000
  0
LINE
  5
F1082C
330
F1082D
100
AcDbEntity
8
Geo
100
AcDbLine
10
-35.0209436133487
20
10.1170533939026
30
0.000000000000000
11
-34.9209436133487
21
10.0912949194123
31
0.000000000000000
  0
LINE
  5
F1082E
330
F1082F
100
AcDbEntity
8
Geo
100
AcDbLine
10
-34.9209436133487
20
10.0912949194123
30
0.000000000000000
11
-34.8209436133487
21
10.0652106690340
31
0.000000000000000
  0
LINE
  5
F10830
330
F10831
100
AcDbEntity
8
Geo
100
AcDbLine
10
-34.8209436133487
20
10.0652106690340
30
0.000000000000000
11
-34.7209436133487
21
10.0388017161899
31
0.000000000000000
  0
LINE
  5
F10832
330
F10833
100
AcDbEntity
8
Geo
100
AcDbLine
10
-34.7209436133487
20
10.0388017161899
30
0.000000000000000
11
-34.6209436133487
21
10.0120691476647
31
0.000000000000000
  0
LINE
  5
F10834
330
F10835
100
AcDbEntity
8
Geo
100
AcDbLine
10
-34.6209436133487
20
10.0120691476647
30
0.000000000000000
11
-34.5209436133487
21
9.98501406356012
31
0.000000000000000
  0
LINE
  5
F10836
330
F10837
100
AcDbEntity
8
Geo
100
AcDbLine
10
-34.5209436133487
20
9.98501406356012
30
0.000000000000000
11
-34.4209436133487
21
9.95763757725035
31
0.000000000000000
  0
LINE
  5
F10838
330
F10839
100
AcDbEntity
8
Geo
100
AcDbLine
10
-34.4209436133487
20
9.95763757725035
30
0.000000000000000
11
-34.3209436133487
21
9.92994081533591
31
0.000000000000000
  0
LINE
  5
F1083A
330
F1083B
100
AcDbEntity
8
Geo
100
AcDbLine
10
-34.3209436133487
20
9.92994081533591
30
0.000000000000000
11
-34.2209436133487
21
9.90192491759732
31
0.000000000000000
  0
LINE
  5
F1083C
330
F1083D
100
AcDbEntity
8
Geo
100
AcDbLine
10
-34.2209436133487
20
9.90192491759732
30
0.000000000000000
11
-34.1209436133487
21
9.87359103694824
31
0.000000000000000
  0
LINE
  5
F1083E
330
F1083F
100
AcDbEntity
8
Geo
100
AcDbLine
10
-34.1209436133487
20
9.87359103694824
30
0.000000000000000
11
-34.0209436133487
21
9.84494033938798
31
0.000000000000000
  0
LINE
  5
F10840
330
F10841
100
AcDbEntity
8
Geo
100
AcDbLine
10
-34.0209436133487
20
9.84494033938798
30
0.000000000000000
11
-33.9209436133487
21
9.81597400395355
31
0.000000000000000
  0
LINE
  5
F10842
330
F10843
100
AcDbEntity
8
Geo
100
AcDbLine
10
-33.9209436133487
20
9.81597400395355
30
0.000000000000000
11
-33.8209436133487
21
9.78669322267113
31
0.000000000000000
  0
LINE
  5
F10844
330
F10845
100
AcDbEntity
8
Geo
100
AcDbLine
10
-33.8209436133487
20
9.78669322267113
30
0.000000000000000
11
-33.7209436133487
21
9.75709920050702
31
0.000000000000000
  0
LINE
  5
F10846
330
F10847
100
AcDbEntity
8
Geo
100
AcDbLine
10
-33.7209436133487
20
9.75709920050702
30
0.000000000000000
11
-33.6209436133487
21
9.72719315531801
31
0.000000000000000
  0
LINE
  5
F10848
330
F10849
100
AcDbEntity
8
Geo
100
AcDbLine
10
-33.6209436133487
20
9.72719315531801
30
0.000000000000000
11
-33.5209436133487
21
9.69697631780136
31
0.000000000000000
  0
LINE
  5
F1084A
330
F1084B
100
AcDbEntity
8
Geo
100
AcDbLine
10
-33.5209436133487
20
9.69697631780136
30
0.000000000000000
11
-33.4209436133487
21
9.66644993144404
31
0.000000000000000
  0
LINE
  5
F1084C
330
F1084D
100
AcDbEntity
8
Geo
100
AcDbLine
10
-33.4209436133487
20
9.66644993144404
30
0.000000000000000
11
-33.3209436133487
21
9.63561525247164
31
0.000000000000000
  0
LINE
  5
F1084E
330
F1084F
100
AcDbEntity
8
Geo
100
AcDbLine
10
-33.3209436133487
20
9.63561525247164
30
0.000000000000000
11
-33.2209436133487
21
9.60447354979665
31
0.000000000000000
  0
LINE
  5
F10850
330
F10851
100
AcDbEntity
8
Geo
100
AcDbLine
10
-33.2209436133487
20
9.60447354979665
30
0.000000000000000
11
-33.1209436133487
21
9.57302610496620
31
0.000000000000000
  0
LINE
  5
F10852
330
F10853
100
AcDbEntity
8
Geo
100
AcDbLine
10
-33.1209436133487
20
9.57302610496620
30
0.000000000000000
11
-33.0209436133487
21
9.54127421210941
31
0.000000000000000
  0
LINE
  5
F10854
330
F10855
100
AcDbEntity
8
Geo
100
AcDbLine
10
-33.0209436133487
20
9.54127421210941
30
0.000000000000000
11
-32.9209436133487
21
9.50921917788404
31
0.000000000000000
  0
LINE
  5
F10856
330
F10857
100
AcDbEntity
8
Geo
100
AcDbLine
10
-32.9209436133487
20
9.50921917788404
30
0.000000000000000
11
-32.8209436133487
21
9.47686232142278
31
0.000000000000000
  0
LINE
  5
F10858
330
F10859
100
AcDbEntity
8
Geo
100
AcDbLine
10
-32.8209436133487
20
9.47686232142278
30
0.000000000000000
11
-32.7209436133487
21
9.44420497427894
31
0.000000000000000
  0
LINE
  5
F1085A
330
F1085B
100
AcDbEntity
8
Geo
100
AcDbLine
10
-32.7209436133487
20
9.44420497427894
30
0.000000000000000
11
-32.6209436133487
21
9.41124848037167
31
0.000000000000000
  0
LINE
  5
F1085C
330
F1085D
100
AcDbEntity
8
Geo
100
AcDbLine
10
-32.6209436133487
20
9.41124848037167
30
0.000000000000000
11
-32.5209436133487
21
9.37799419593064
31
0.000000000000000
  0
LINE
  5
F1085E
330
F1085F
100
AcDbEntity
8
Geo
100
AcDbLine
10
-32.5209436133487
20
9.37799419593064
30
0.000000000000000
11
-32.4209436133487
21
9.34444348944022
31
0.000000000000000
  0
LINE
  5
F10860
330
F10861
100
AcDbEntity
8
Geo
100
AcDbLine
10
-32.4209436133487
20
9.34444348944022
30
0.000000000000000
11
-32.3209436133487
21
9.31059774158318
31
0.000000000000000
  0
LINE
  5
F10862
330
F10863
100
AcDbEntity
8
Geo
100
AcDbLine
10
-32.3209436133487
20
9.31059774158318
30
0.000000000000000
11
-32.2209436133487
21
9.27645834518388
31
0.000000000000000
  0
LINE
  5
F10864
330
F10865
100
AcDbEntity
8
Geo
100
AcDbLine
10
-32.2209436133487
20
9.27645834518388
30
0.000000000000000
11
-32.1209436133487
21
9.24202670515094
31
0.000000000000000
  0
LINE
  5
F10866
330
F10867
100
AcDbEntity
8
Geo
100
AcDbLine
10
-32.1209436133487
20
9.24202670515094
30
0.000000000000000
11
-32.0209436133487
21
9.20730423841941
31
0.000000000000000
  0
LINE
  5
F10868
330
F10869
100
AcDbEntity
8
Geo
100
AcDbLine
10
-32.0209436133487
20
9.20730423841941
30
0.000000000000000
11
-31.9209436133487
21
9.17229237389249
31
0.000000000000000
  0
LINE
  5
F1086A
330
F1086B
100
AcDbEntity
8
Geo
100
AcDbLine
10
-31.9209436133487
20
9.17229237389249
30
0.000000000000000
11
-31.8209436133487
21
9.13699255238271
31
0.000000000000000
  0
LINE
  5
F1086C
330
F1086D
100
AcDbEntity
8
Geo
100
AcDbLine
10
-31.8209436133487
20
9.13699255238271
30
0.000000000000000
11
-31.7209436133487
21
9.10140622655264
31
0.000000000000000
  0
LINE
  5
F1086E
330
F1086F
100
AcDbEntity
8
Geo
100
AcDbLine
10
-31.7209436133487
20
9.10140622655264
30
0.000000000000000
11
-31.6209436133487
21
9.06553486085511
31
0.000000000000000
  0
LINE
  5
F10870
330
F10871
100
AcDbEntity
8
Geo
100
AcDbLine
10
-31.6209436133487
20
9.06553486085511
30
0.000000000000000
11
-31.5209436133487
21
9.02937993147294
31
0.000000000000000
  0
LINE
  5
F10872
330
F10873
100
AcDbEntity
8
Geo
100
AcDbLine
10
-31.5209436133487
20
9.02937993147294
30
0.000000000000000
11
-31.4209436133487
21
8.99294292625822
31
0.000000000000000
  0
LINE
  5
F10874
330
F10875
100
AcDbEntity
8
Geo
100
AcDbLine
10
-31.4209436133487
20
8.99294292625822
30
0.000000000000000
11
-31.3209436133487
21
8.95622534467103
31
0.000000000000000
  0
LINE
  5
F10876
330
F10877
100
AcDbEntity
8
Geo
100
AcDbLine
10
-31.3209436133487
20
8.95622534467103
30
0.000000000000000
11
-31.2209436133487
21
8.91922869771777
31
0.000000000000000
  0
LINE
  5
F10878
330
F10879
100
AcDbEntity
8
Geo
100
AcDbLine
10
-31.2209436133487
20
8.91922869771777
30
0.000000000000000
11
-31.1209436133487
21
8.88195450788900
31
0.000000000000000
  0
LINE
  5
F1087A
330
F1087B
100
AcDbEntity
8
Geo
100
AcDbLine
10
-31.1209436133487
20
8.88195450788900
30
0.000000000000000
11
-31.0209436133487
21
8.84440430909672
31
0.000000000000000
  0
LINE
  5
F1087C
330
F1087D
100
AcDbEntity
8
Geo
100
AcDbLine
10
-31.0209436133487
20
8.84440430909672
30
0.000000000000000
11
-30.9209436133487
21
8.80657964661130
31
0.000000000000000
  0
LINE
  5
F1087E
330
F1087F
100
AcDbEntity
8
Geo
100
AcDbLine
10
-30.9209436133487
20
8.80657964661130
30
0.000000000000000
11
-30.8209436133487
21
8.76848207699788
31
0.000000000000000
  0
LINE
  5
F10880
330
F10881
100
AcDbEntity
8
Geo
100
AcDbLine
10
-30.8209436133487
20
8.76848207699788
30
0.000000000000000
11
-30.7209436133487
21
8.73011316805231
31
0.000000000000000
  0
LINE
  5
F10882
330
F10883
100
AcDbEntity
8
Geo
100
AcDbLine
10
-30.7209436133487
20
8.73011316805231
30
0.000000000000000
11
-30.6209436133487
21
8.69147449873661
31
0.000000000000000
  0
LINE
  5
F10884
330
F10885
100
AcDbEntity
8
Geo
100
AcDbLine
10
-30.6209436133487
20
8.69147449873661
30
0.000000000000000
11
-30.5209436133487
21
8.65256765911402
31
0.000000000000000
  0
LINE
  5
F10886
330
F10887
100
AcDbEntity
8
Geo
100
AcDbLine
10
-30.5209436133487
20
8.65256765911402
30
0.000000000000000
11
-30.4209436133487
21
8.61339425028358
31
0.000000000000000
  0
LINE
  5
F10888
330
F10889
100
AcDbEntity
8
Geo
100
AcDbLine
10
-30.4209436133487
20
8.61339425028358
30
0.000000000000000
11
-30.3209436133487
21
8.57395588431418
31
0.000000000000000
  0
LINE
  5
F1088A
330
F1088B
100
AcDbEntity
8
Geo
100
AcDbLine
10
-30.3209436133487
20
8.57395588431418
30
0.000000000000000
11
-30.2209436133487
21
8.53425418417828
31
0.000000000000000
  0
LINE
  5
F1088C
330
F1088D
100
AcDbEntity
8
Geo
100
AcDbLine
10
-30.2209436133487
20
8.53425418417828
30
0.000000000000000
11
-30.1209436133487
21
8.49429078368511
31
0.000000000000000
  0
LINE
  5
F1088E
330
F1088F
100
AcDbEntity
8
Geo
100
AcDbLine
10
-30.1209436133487
20
8.49429078368511
30
0.000000000000000
11
-30.0209436133487
21
8.45406732741339
31
0.000000000000000
  0
LINE
  5
F10890
330
F10891
100
AcDbEntity
8
Geo
100
AcDbLine
10
-30.0209436133487
20
8.45406732741339
30
0.000000000000000
11
-29.9209436133487
21
8.41358547064374
31
0.000000000000000
  0
LINE
  5
F10892
330
F10893
100
AcDbEntity
8
Geo
100
AcDbLine
10
-29.9209436133487
20
8.41358547064374
30
0.000000000000000
11
-29.8209436133487
21
8.37284687929045
31
0.000000000000000
  0
LINE
  5
F10894
330
F10895
100
AcDbEntity
8
Geo
100
AcDbLine
10
-29.8209436133487
20
8.37284687929045
30
0.000000000000000
11
-29.7209436133487
21
8.33185322983303
31
0.000000000000000
  0
LINE
  5
F10896
330
F10897
100
AcDbEntity
8
Geo
100
AcDbLine
10
-29.7209436133487
20
8.33185322983303
30
0.000000000000000
11
-29.6209436133487
21
8.29060620924715
31
0.000000000000000
  0
LINE
  5
F10898
330
F10899
100
AcDbEntity
8
Geo
100
AcDbLine
10
-29.6209436133487
20
8.29060620924715
30
0.000000000000000
11
-29.5209436133487
21
8.24910751493524
31
0.000000000000000
  0
LINE
  5
F1089A
330
F1089B
100
AcDbEntity
8
Geo
100
AcDbLine
10
-29.5209436133487
20
8.24910751493524
30
0.000000000000000
11
-29.4209436133487
21
8.20735885465664
31
0.000000000000000
  0
LINE
  5
F1089C
330
F1089D
100
AcDbEntity
8
Geo
100
AcDbLine
10
-29.4209436133487
20
8.20735885465664
30
0.000000000000000
11
-29.3209436133487
21
8.16536194645733
31
0.000000000000000
  0
LINE
  5
F1089E
330
F1089F
100
AcDbEntity
8
Geo
100
AcDbLine
10
-29.3209436133487
20
8.16536194645733
30
0.000000000000000
11
-29.2209436133487
21
8.12311851859920
31
0.000000000000000
  0
LINE
  5
F108A0
330
F108A1
100
AcDbEntity
8
Geo
100
AcDbLine
10
-29.2209436133487
20
8.12311851859920
30
0.000000000000000
11
-29.1209436133487
21
8.08063030948896
31
0.000000000000000
  0
LINE
  5
F108A2
330
F108A3
100
AcDbEntity
8
Geo
100
AcDbLine
10
-29.1209436133487
20
8.08063030948896
30
0.000000000000000
11
-29.0209436133487
21
8.03789906760659
31
0.000000000000000
  0
LINE
  5
F108A4
330
F108A5
100
AcDbEntity
8
Geo
100
AcDbLine
10
-29.0209436133487
20
8.03789906760659
30
0.000000000000000
11
-28.9209436133487
21
7.99492655143338
31
0.000000000000000
  0
LINE
  5
F108A6
330
F108A7
100
AcDbEntity
8
Geo
100
AcDbLine
10
-28.9209436133487
20
7.99492655143338
30
0.000000000000000
11
-28.8209436133487
21
7.95171452937957
31
0.000000000000000
  0
LINE
  5
F108A8
330
F108A9
100
AcDbEntity
8
Geo
100
AcDbLine
10
-28.8209436133487
20
7.95171452937957
30
0.000000000000000
11
-28.7209436133487
21
7.90826477971156
31
0.000000000000000
  0
LINE
  5
F108AA
330
F108AB
100
AcDbEntity
8
Geo
100
AcDbLine
10
-28.7209436133487
20
7.90826477971156
30
0.000000000000000
11
-28.6209436133487
21
7.86457909047878
31
0.000000000000000
  0
LINE
  5
F108AC
330
F108AD
100
AcDbEntity
8
Geo
100
AcDbLine
10
-28.6209436133487
20
7.86457909047878
30
0.000000000000000
11
-28.5209436133487
21
7.82065925944004
31
0.000000000000000
  0
LINE
  5
F108AE
330
F108AF
100
AcDbEntity
8
Geo
100
AcDbLine
10
-28.5209436133487
20
7.82065925944004
30
0.000000000000000
11
-28.4209436133487
21
7.77650709398960
31
0.000000000000000
  0
LINE
  5
F108B0
330
F108B1
100
AcDbEntity
8
Geo
100
AcDbLine
10
-28.4209436133487
20
7.77650709398960
30
0.000000000000000
11
-28.3209436133487
21
7.73212441108277
31
0.000000000000000
  0
LINE
  5
F108B2
330
F108B3
100
AcDbEntity
8
Geo
100
AcDbLine
10
-28.3209436133487
20
7.73212441108277
30
0.000000000000000
11
-28.2209436133487
21
7.68751303716114
31
0.000000000000000
  0
LINE
  5
F108B4
330
F108B5
100
AcDbEntity
8
Geo
100
AcDbLine
10
-28.2209436133487
20
7.68751303716114
30
0.000000000000000
11
-28.1209436133487
21
7.64267480807744
31
0.000000000000000
  0
LINE
  5
F108B6
330
F108B7
100
AcDbEntity
8
Geo
100
AcDbLine
10
-28.1209436133487
20
7.64267480807744
30
0.000000000000000
11
-28.0209436133487
21
7.59761156901993
31
0.000000000000000
  0
LINE
  5
F108B8
330
F108B9
100
AcDbEntity
8
Geo
100
AcDbLine
10
-28.0209436133487
20
7.59761156901993
30
0.000000000000000
11
-27.9209436133487
21
7.55232517443655
31
0.000000000000000
  0
LINE
  5
F108BA
330
F108BB
100
AcDbEntity
8
Geo
100
AcDbLine
10
-27.9209436133487
20
7.55232517443655
30
0.000000000000000
11
-27.8209436133487
21
7.50681748795853
31
0.000000000000000
  0
LINE
  5
F108BC
330
F108BD
100
AcDbEntity
8
Geo
100
AcDbLine
10
-27.8209436133487
20
7.50681748795853
30
0.000000000000000
11
-27.7209436133487
21
7.46109038232377
31
0.000000000000000
  0
LINE
  5
F108BE
330
F108BF
100
AcDbEntity
8
Geo
100
AcDbLine
10
-27.7209436133487
20
7.46109038232377
30
0.000000000000000
11
-27.6209436133487
21
7.41514573929969
31
0.000000000000000
  0
LINE
  5
F108C0
330
F108C1
100
AcDbEntity
8
Geo
100
AcDbLine
10
-27.6209436133487
20
7.41514573929969
30
0.000000000000000
11
-27.5209436133487
21
7.36898544960587
31
0.000000000000000
  0
LINE
  5
F108C2
330
F108C3
100
AcDbEntity
8
Geo
100
AcDbLine
10
-27.5209436133487
20
7.36898544960587
30
0.000000000000000
11
-27.4209436133487
21
7.32261141283618
31
0.000000000000000
  0
LINE
  5
F108C4
330
F108C5
100
AcDbEntity
8
Geo
100
AcDbLine
10
-27.4209436133487
20
7.32261141283618
30
0.000000000000000
11
-27.3209436133487
21
7.27602553738067
31
0.000000000000000
  0
LINE
  5
F108C6
330
F108C7
100
AcDbEntity
8
Geo
100
AcDbLine
10
-27.3209436133487
20
7.27602553738067
30
0.000000000000000
11
-27.2209436133487
21
7.22922974034697
31
0.000000000000000
  0
LINE
  5
F108C8
330
F108C9
100
AcDbEntity
8
Geo
100
AcDbLine
10
-27.2209436133487
20
7.22922974034697
30
0.000000000000000
11
-27.1209436133487
21
7.18222594748144
31
0.000000000000000
  0
LINE
  5
F108CA
330
F108CB
100
AcDbEntity
8
Geo
100
AcDbLine
10
-27.1209436133487
20
7.18222594748144
30
0.000000000000000
11
-27.0209436133487
21
7.13501609308991
31
0.000000000000000
  0
LINE
  5
F108CC
330
F108CD
100
AcDbEntity
8
Geo
100
AcDbLine
10
-27.0209436133487
20
7.13501609308991
30
0.000000000000000
11
-26.9209436133487
21
7.08760211995809
31
0.000000000000000
  0
LINE
  5
F108CE
330
F108CF
100
AcDbEntity
8
Geo
100
AcDbLine
10
-26.9209436133487
20
7.08760211995809
30
0.000000000000000
11
-26.8209436133487
21
7.03998597927158
31
0.000000000000000
  0
LINE
  5
F108D0
330
F108D1
100
AcDbEntity
8
Geo
100
AcDbLine
10
-26.8209436133487
20
7.03998597927158
30
0.000000000000000
11
-26.7209436133487
21
6.99216963053564
31
0.000000000000000
  0
LINE
  5
F108D2
330
F108D3
100
AcDbEntity
8
Geo
100
AcDbLine
10
-26.7209436133487
20
6.99216963053564
30
0.000000000000000
11
-26.6209436133487
21
6.94415504149448
31
0.000000000000000
  0
LINE
  5
F108D4
330
F108D5
100
AcDbEntity
8
Geo
100
AcDbLine
10
-26.6209436133487
20
6.94415504149448
30
0.000000000000000
11
-26.5209436133487
21
6.89594418805036
31
0.000000000000000
  0
LINE
  5
F108D6
330
F108D7
100
AcDbEntity
8
Geo
100
AcDbLine
10
-26.5209436133487
20
6.89594418805036
30
0.000000000000000
11
-26.4209436133487
21
6.84753905418220
31
0.000000000000000
  0
LINE
  5
F108D8
330
F108D9
100
AcDbEntity
8
Geo
100
AcDbLine
10
-26.4209436133487
20
6.84753905418220
30
0.000000000000000
11
-26.3209436133487
21
6.79894163186399
31
0.000000000000000
  0
LINE
  5
F108DA
330
F108DB
100
AcDbEntity
8
Geo
100
AcDbLine
10
-26.3209436133487
20
6.79894163186399
30
0.000000000000000
11
-26.2209436133487
21
6.75015392098279
31
0.000000000000000
  0
LINE
  5
F108DC
330
F108DD
100
AcDbEntity
8
Geo
100
AcDbLine
10
-26.2209436133487
20
6.75015392098279
30
0.000000000000000
11
-26.1209436133487
21
6.70117792925646
31
0.000000000000000
  0
LINE
  5
F108DE
330
F108DF
100
AcDbEntity
8
Geo
100
AcDbLine
10
-26.1209436133487
20
6.70117792925646
30
0.000000000000000
11
-26.0209436133487
21
6.65201567215097
31
0.000000000000000
  0
LINE
  5
F108E0
330
F108E1
100
AcDbEntity
8
Geo
100
AcDbLine
10
-26.0209436133487
20
6.65201567215097
30
0.000000000000000
11
-25.9209436133487
21
6.60266917279756
31
0.000000000000000
  0
LINE
  5
F108E2
330
F108E3
100
AcDbEntity
8
Geo
100
AcDbLine
10
-25.9209436133487
20
6.60266917279756
30
0.000000000000000
11
-25.8209436133487
21
6.55314046190939
31
0.000000000000000
  0
LINE
  5
F108E4
330
F108E5
100
AcDbEntity
8
Geo
100
AcDbLine
10
-25.8209436133487
20
6.55314046190939
30
0.000000000000000
11
-25.7209436133487
21
6.50343157769803
31
0.000000000000000
  0
LINE
  5
F108E6
330
F108E7
100
AcDbEntity
8
Geo
100
AcDbLine
10
42.2790563866513
20
10.1749136939010
30
0.000000000000000
11
42.2790563866513
21
2.17491369390105
31
0.000000000000000
  0
LINE
  5
F108E8
330
F108E9
100
AcDbEntity
8
Geo
100
AcDbLine
10
-40.7209436133487
20
2.17491369390105
30
0.000000000000000
11
-40.7209436133487
21
-6.82508630609895
31
0.000000000000000
  0
LINE
  5
F108EA
330
F108EB
100
AcDbEntity
8
Geo
100
AcDbLine
10
-40.7209436133487
20
-6.82508630609895
30
0.000000000000000
11
-20.7209436133487
21
-6.82508630609895
31
0.000000000000000
  0
LINE
  5
F108EC
330
F108ED
100
AcDbEntity
8
Geo
100
AcDbLine
10
-20.7209436133487
20
-6.82508630609895
30
0.000000000000000
11
41.2790563866513
21
-6.82508630609895
31
0.000000000000000
  0
LINE
  5
F108EE
330
F108EF
100
AcDbEntity
8
Geo
100
AcDbLine
10
41.2790563866513
20
-6.82508630609895
30
0.000000000000000
11
42.2790563866513
21
-5.82508630609895
31
0.000000000000000
  0
LINE
  5
F108F0
330
F108F1
100
AcDbEntity
8
Geo
100
AcDbLine
10
-40.7209436133487
20
11.1749136939010
30
0.000000000000000
11
-40.7209436133487
21
-6.82508630609895
31
0.000000000000000
  0
LINE
  5
F108F2
330
F108F3
100
AcDbEntity
8
Geo
100
AcDbLine
10
-20.7209436133487
20
11.1749136939010
30
0.000000000000000
11
-20.7209436133487
21
-6.82508630609895
31
0.000000000000000
  0
LINE
  5
F108F4
330
F108F5
100
AcDbEntity
8
Geo
100
AcDbLine
10
-20.7209436133487
20
11.1749136939010
30
0.000000000000000
11
-20.7209436133487
21
-6.82508630609895
31
0.000000000000000
  0
LINE
  5
F108F6
330
F108F7
100
AcDbEntity
8
Geo
100
AcDbLine
10
41.2790563866513
20
11.1749136939010
30
0.000000000000000
11
41.2790563866513
21
-6.82508630609895
31
0.000000000000000
  0
LINE
  5
F108F8
330
F108F9
100
AcDbEntity
8
Geo
100
AcDbLine
10
42.2790563866513
20
10.1749136939010
30
0.000000000000000
11
42.2790563866513
21
-5.82508630609895
31
0.000000000000000
  0
LINE
  5
F108FA
330
F108FB
100
AcDbEntity
8
Geo
 6
Dashdot
100
AcDbLine
10
-40.7209436133487
20
2.17491369390105
30
0.000000000000000
11
42.2790563866513
21
2.17491369390105
31
0.000000000000000
  0
LWPOLYLINE
  5
F108FC
330
F108FD
100
AcDbEntity
8
Rahmen
100
AcDbPolyline
90
   4
70
   1
43
   0.0
 10
-134.602991944764
 20
99.9252013808976
 10
143.302646720368
 20
99.9252013808976
 10
143.302646720368
 20
-100.166858457998
 10
-134.602991944764
 20
-100.166858457998
  0
TEXT
  5
F108FE
330
F108FF
 100
AcDbEntity
8
Text
100
AcDbText
10
-133.636363636364
20
-99.6668584579977
30
0.000000000000000
40
1.00000000000000
1
ISBESketcher - ©ISBE GmbH      lizensiert für: Schmid Werkzeuge
100
AcDbText
  0
LWPOLYLINE
  5
F10900
330
F10901
100
AcDbEntity
8
Rahmen
100
AcDbPolyline
90
   4
70
   1
43
   0.0
 10
103.429228998849
 20
-97.0253164556962
 10
143.302646720368
 20
-97.0253164556962
 10
143.302646720368
 20
-100.166858457998
 10
103.429228998849
 20
-100.166858457998
  0
TEXT
  5
F10902
330
F10903
 100
AcDbEntity
8
Text
100
AcDbText
10
104.500000000000
20
-99.4499424626007
30
0.000000000000000
40
1.50000000000000
1
Ers. durch:
100
AcDbText
  0
TEXT
  5
F10904
330
F10905
 100
AcDbEntity
8
Text
100
AcDbText
10
0.000000000000000
20
0.500000000000000
30
0.000000000000000
40
1.50000000000000
1

100
AcDbText
  0
LWPOLYLINE
  5
F10906
330
F10907
100
AcDbEntity
8
Rahmen
100
AcDbPolyline
90
   4
70
   1
43
   0.0
 10
63.3141542002302
 20
-97.0253164556962
 10
103.429228998849
 20
-97.0253164556962
 10
103.429228998849
 20
-100.166858457998
 10
63.3141542002302
 20
-100.166858457998
  0
TEXT
  5
F10908
330
F10909
 100
AcDbEntity
8
Text
100
AcDbText
10
64.5000000000000
20
-99.4499424626007
30
0.000000000000000
40
1.50000000000000
1
Ers. für:
100
AcDbText
  0
TEXT
  5
F1090A
330
F1090B
 100
AcDbEntity
8
Text
100
AcDbText
10
0.000000000000000
20
0.500000000000000
30
0.000000000000000
40
1.50000000000000
1

100
AcDbText
  0
LWPOLYLINE
  5
F1090C
330
F1090D
100
AcDbEntity
8
Rahmen
100
AcDbPolyline
90
   4
70
   1
43
   0.0
 10
130.011507479862
 20
-94.1254315304948
 10
143.302646720368
 20
-94.1254315304948
 10
143.302646720368
 20
-97.0253164556962
 10
130.011507479862
 20
-97.0253164556962
  0
TEXT
  5
F1090E
330
F1090F
 100
AcDbEntity
8
Text
100
AcDbText
10
131.166666666667
20
-96.4499424626007
30
0.000000000000000
40
1.50000000000000
1
Blätter
100
AcDbText
  0
TEXT
  5
F10910
330
F10911
 100
AcDbEntity
8
Text
100
AcDbText
10
0.000000000000000
20
0.500000000000000
30
0.000000000000000
40
1.50000000000000
1

100
AcDbText
  0
LWPOLYLINE
  5
F10912
330
F10913
100
AcDbEntity
8
Rahmen
100
AcDbPolyline
90
   4
70
   1
43
   0.0
 10
130.011507479862
 20
-91.2255466052934
 10
143.302646720368
 20
-91.2255466052934
 10
143.302646720368
 20
-94.1254315304948
 10
130.011507479862
 20
-94.1254315304948
  0
TEXT
  5
F10914
330
F10915
 100
AcDbEntity
8
Text
100
AcDbText
10
131.166666666667
20
-93.4499424626007
30
0.000000000000000
40
1.50000000000000
1
Blatt
100
AcDbText
  0
TEXT
  5
F10916
330
F10917
 100
AcDbEntity
8
Text
100
AcDbText
10
0.000000000000000
20
0.500000000000000
30
0.000000000000000
40
1.50000000000000
1

100
AcDbText
  0
LWPOLYLINE
  5
F10918
330
F10919
100
AcDbEntity
8
Rahmen
100
AcDbPolyline
90
   4
70
   1
43
   0.0
 10
63.3141542002302
 20
-91.2255466052934
 10
130.011507479862
 20
-91.2255466052934
 10
130.011507479862
 20
-97.0253164556962
 10
63.3141542002302
 20
-97.0253164556962
  0
TEXT
  5
F1091A
330
F1091B
 100
AcDbEntity
8
Text
100
AcDbText
10
64.5000000000000
20
-93.4499424626007
30
0.000000000000000
40
1.50000000000000
1
Datum:
100
AcDbText
  0
TEXT
  5
F1091C
330
F1091D
 100
AcDbEntity
8
Text
100
AcDbText
10
91.1543920214806
20
-96.4499424626007
30
0.000000000000000
40
1.50000000000000
1
14.05.2019
100
AcDbText
  0
LWPOLYLINE
  5
F1091E
330
F1091F
100
AcDbEntity
8
Rahmen
100
AcDbPolyline
90
   4
70
   1
43
   0.0
 10
63.3141542002302
 20
-85.1841196777906
 10
143.302646720368
 20
-85.1841196777906
 10
143.302646720368
 20
-91.2255466052934
 10
63.3141542002302
 20
-91.2255466052934
  0
TEXT
  5
F10920
330
F10921
 100
AcDbEntity
8
Text
100
AcDbText
10
0.000000000000000
20
0.500000000000000
30
0.000000000000000
40
1.50000000000000
1

100
AcDbText
  0
TEXT
  5
F10922
330
F10923
 100
AcDbEntity
8
Text
100
AcDbText
10
73.0512082853855
20
-89.7040659762179
30
0.000000000000000
40
2.50000000000000
1
VHM-Schlichtfräser 0140-180-b
100
AcDbText
  0
LWPOLYLINE
  5
F10924
330
F10925
100
AcDbEntity
8
Rahmen
100
AcDbPolyline
90
   4
70
   1
43
   0.0
 10
103.429228998849
 20
-79.1426927502877
 10
143.302646720368
 20
-79.1426927502877
 10
143.302646720368
 20
-85.1841196777906
 10
103.429228998849
 20
-85.1841196777906
  0
TEXT
  5
F10926
330
F10927
 100
AcDbEntity
8
Text
100
AcDbText
10
104.500000000000
20
-81.4499424626007
30
0.000000000000000
40
1.50000000000000
1
Zu bearb. Material:
100
AcDbText
  0
TEXT
  5
F10928
330
F10929
 100
AcDbEntity
8
Text
100
AcDbText
10
0.000000000000000
20
0.500000000000000
30
0.000000000000000
40
1.50000000000000
1

100
AcDbText
  0
LWPOLYLINE
  5
F1092A
330
F1092B
100
AcDbEntity
8
Rahmen
100
AcDbPolyline
90
   4
70
   1
43
   0.0
 10
63.3141542002302
 20
-79.1426927502877
 10
103.429228998849
 20
-79.1426927502877
 10
103.429228998849
 20
-85.1841196777906
 10
63.3141542002302
 20
-85.1841196777906
  0
TEXT
  5
F1092C
330
F1092D
 100
AcDbEntity
8
Text
100
AcDbText
10
64.5000000000000
20
-81.4499424626007
30
0.000000000000000
40
1.50000000000000
1
Werkstoff:
100
AcDbText
  0
TEXT
  5
F1092E
330
F1092F
 100
AcDbEntity
8
Text
100
AcDbText
10
80.9626006904488
20
-84.4499424626007
30
0.000000000000000
40
1.50000000000000
1
VHM
100
AcDbText
  0
LWPOLYLINE
  5
F10930
330
F10931
100
AcDbEntity
8
Rahmen
100
AcDbPolyline
90
   4
70
   1
43
   0.0
 10
103.429228998849
 20
-76.0011507479862
 10
143.302646720368
 20
-76.0011507479862
 10
143.302646720368
 20
-79.1426927502877
 10
103.429228998849
 20
-79.1426927502877
  0
TEXT
  5
F10932
330
F10933
 100
AcDbEntity
8
Text
100
AcDbText
10
0.000000000000000
20
0.500000000000000
30
0.000000000000000
40
1.50000000000000
1

100
AcDbText
  0
TEXT
  5
F10934
330
F10935
 100
AcDbEntity
8
Text
100
AcDbText
10
0.000000000000000
20
0.500000000000000
30
0.000000000000000
40
1.50000000000000
1

100
AcDbText
  0
LWPOLYLINE
  5
F10936
330
F10937
100
AcDbEntity
8
Rahmen
100
AcDbPolyline
90
   4
70
   1
43
   0.0
 10
63.3141542002302
 20
-76.0011507479862
 10
103.429228998849
 20
-76.0011507479862
 10
103.429228998849
 20
-79.1426927502877
 10
63.3141542002302
 20
-79.1426927502877
  0
TEXT
  5
F10938
330
F10939
 100
AcDbEntity
8
Text
100
AcDbText
10
64.5000000000000
20
-78.4499424626007
30
0.000000000000000
40
1.50000000000000
1
Maßstab:
100
AcDbText
  0
TEXT
  5
F1093A
330
F1093B
 100
AcDbEntity
8
Text
100
AcDbText
10
89.0834292289989
20
-78.4499424626007
30
0.000000000000000
40
1.50000000000000
1
1 : 1
100
AcDbText
0
VIEWPORT
5
294
102
{ACAD_XDICTIONARY
360
58A
102
}
330
25D
100
AcDbEntity
67
1
8
0
60
1
100
AcDbViewport
10
0.0
20
0.0
30
0.0
40
10.0
41
10.0
68
-1
69
1
12
0.0
22
0.0
13
0.0
23
0.0
14
1.0
24
1.0
15
0.0
25
0.0
16
0.0
26
0.0
36
1.0
17
0.0
27
0.0
37
0.0
42
0.0
43
0.0
44
0.0
45
10.0
50
0.0
51
0.0000000000007958
72
100
90
32800
1

281
0
71
0
74
0
110
0.0
120
0.0
130
0.0
111
1.0
121
0.0
131
0.0
112
0.0
122
1.0
132
0.0
79
0
146
0.0
1001
VD_INVISIBLE_NOT_FOR_READ
1000
VD_INVISIBLE_NOT_FOR_READ
0
VIEWPORT
5
295
102
{ACAD_XDICTIONARY
360
58C
102
}
330
25D
100
AcDbEntity
67
1
8
0
60
1
100
AcDbViewport
10
0.0
20
0.0
30
0.0
40
10.0
41
10.0
68
0
69
2
12
0.0
22
0.0
13
0.0
23
0.0
14
1.0
24
1.0
15
0.0
25
0.0
16
0.0
26
0.0
36
1.0
17
0.0
27
0.0
37
0.0
42
0.0
43
0.0
44
0.0
45
10.0
50
0.0
51
0.0000000000007958
72
100
90
163872
1

281
0
71
0
74
0
110
0.0
120
0.0
130
0.0
111
1.0
121
0.0
131
0.0
112
0.0
122
1.0
132
0.0
79
0
146
0.0
1001
VD_INVISIBLE_NOT_FOR_READ
1000
VD_INVISIBLE_NOT_FOR_READ
0
ENDSEC
0
SECTION
2
OBJECTS
0
DICTIONARY
5
13
330
0
100
AcDbDictionary
281
1
3
ACAD_COLOR
350
FA7
3
ACAD_GROUP
350
14
3
ACAD_LAYOUT
350
FCF
3
ACAD_MATERIAL
350
F7A
3
ACAD_MLEADERSTYLE
350
FCD
3
ACAD_MLINESTYLE
350
16
3
ACAD_PLOTSETTINGS
350
17
3
ACAD_PLOTSTYLENAME
350
18
3
ACAD_SCALELIST
350
FAB
3
ACAD_TABLESTYLE
350
FA8
3
ACAD_VISUALSTYLE
350
F93
3
ACDB_RECOMPOSE_DATA
350
107E
3
AcDbVariableDictionary
350
FF0
3
DWGPROPS
350
107F
0
DICTIONARY
5
F1000A
330
F10009
100
AcDbDictionary
280
1
281
1
3
ACAD_MTEXT_2008_RT
360
F1000B
0
DICTIONARY
5
F1000F
330
F1000E
100
AcDbDictionary
280
1
281
1
3
ACAD_MTEXT_2008_RT
360
F10010
0
DICTIONARY
5
F10005
330
F10004
100
AcDbDictionary
280
1
281
1
3
ACAD_MTEXT_2008_RT
360
F10006
0
DICTIONARY
5
F10014
330
F10013
100
AcDbDictionary
280
1
281
1
3
ACAD_MTEXT_2008_RT
360
F10015
0
DICTIONARY
5
FA7
102
{ACAD_REACTORS
330
13
102
}
330
13
100
AcDbDictionary
281
1
0
DICTIONARY
5
14
330
13
100
AcDbDictionary
281
1
0
DICTIONARY
5
FCF
102
{ACAD_REACTORS
330
13
102
}
330
13
100
AcDbDictionary
281
1
3
Layout1
350
FD1
3
Model
350
FD0
0
DICTIONARY
5
F7A
102
{ACAD_REACTORS
330
13
102
}
330
13
100
AcDbDictionary
281
1
3
ByBlock
350
F83
3
ByLayer
350
F7B
3
Global
350
F8B
0
DICTIONARY
5
FCD
102
{ACAD_REACTORS
330
13
102
}
330
13
100
AcDbDictionary
281
1
3
Standard
350
FCE
0
DICTIONARY
5
16
330
13
100
AcDbDictionary
281
1
3
Standard
350
FAA
0
DICTIONARY
5
17
102
{ACAD_REACTORS
330
13
102
}
330
13
100
AcDbDictionary
281
1
0
ACDBDICTIONARYWDFLT
5
18
102
{ACAD_REACTORS
330
13
102
}
330
13
100
AcDbDictionary
281
1
3
Normal
350
19
100
AcDbDictionaryWithDefault
340
19
0
DICTIONARY
5
FAB
102
{ACAD_REACTORS
330
13
102
}
330
13
100
AcDbDictionary
281
1
3
A0
350
FAC
3
A1
350
FAD
3
A2
350
FAE
3
A3
350
FAF
3
A4
350
FB0
3
A5
350
FB1
3
A6
350
FB2
3
A7
350
FB3
3
A8
350
FB4
3
A9
350
FB5
3
B0
350
FB6
3
B1
350
FB7
3
B2
350
FB8
3
B3
350
FB9
3
B4
350
FBA
3
B5
350
FBB
3
B6
350
FBC
3
B7
350
FBD
3
B8
350
FBE
3
B9
350
FBF
3
C0
350
FC0
3
C1
350
FC1
3
C2
350
FC2
3
C3
350
FC3
3
C4
350
FC4
3
C5
350
FC5
3
C6
350
FC6
3
C7
350
FC7
3
C8
350
FC8
3
C9
350
FC9
3
D0
350
FCA
3
D1
350
FCB
3
D2
350
FCC
0
DICTIONARY
5
FA8
102
{ACAD_REACTORS
330
13
102
}
330
13
100
AcDbDictionary
281
1
3
Standard
350
FA9
0
DICTIONARY
5
F93
102
{ACAD_REACTORS
330
13
102
}
330
13
100
AcDbDictionary
281
1
3
2dWireframe
350
F99
3
3D Hidden
350
F9B
3
3dWireframe
350
F9A
3
Basic
350
F98
3
Brighten
350
F9F
3
ColorChange
350
FA3
3
Conceptual
350
F9C
3
Dim
350
F9E
3
EdgeColorOff
350
FA6
3
Facepattern
350
FA2
3
Flat
350
F94
3
FlatWithEdges
350
F95
3
Gouraud
350
F96
3
GouraudWithEdges
350
F97
3
JitterOff
350
FA4
3
Linepattern
350
FA1
3
OverhangOff
350
FA5
3
Realistic
350
F9D
3
Thicken
350
FA0
0
XRECORD
5
107E
102
{ACAD_REACTORS
330
13
102
}
330
13
100
AcDbXrecord
280
1
90
1
330
FA9
330
F10009
330
F1000E
330
F10004
330
F10013
0
DICTIONARY
5
FF0
102
{ACAD_REACTORS
330
13
102
}
330
13
100
AcDbDictionary
281
1
3
CANNOSCALE
350
FF3
3
CMLEADERSTYLE
350
FF2
3
CTABLESTYLE
350
FF1
3
DIMASSOC
350
FF6
3
INDEXCTL
350
FF5
3
SORTENTS
350
FF4
3
XCLIPFRAME
350
1078
0
XRECORD
5
107F
102
{ACAD_REACTORS
330
13
102
}
330
13
100
AcDbXrecord
280
1
1
DWGPROPS COOKIE
2

3

4

6

7

8

9

300
=
301
=
302
=
303
=
304
=
305
=
306
=
307
=
308
=
309
=
40
0.0
41
0.0
42
0.0
1

90
0
0
XRECORD
5
F1000B
102
{ACAD_REACTORS
330
F1000A
102
}
330
F1000A
100
AcDbXrecord
280
1
40
48458.0
1
20
0
XRECORD
5
F10010
102
{ACAD_REACTORS
330
F1000F
102
}
330
F1000F
100
AcDbXrecord
280
1
40
48458.0
1
83
0
XRECORD
5
F10006
102
{ACAD_REACTORS
330
F10005
102
}
330
F10005
100
AcDbXrecord
280
1
40
48458.0
1
Ø18
0
XRECORD
5
F10015
102
{ACAD_REACTORS
330
F10014
102
}
330
F10014
100
AcDbXrecord
280
1
40
48458.0
1
Ø18
0
LAYOUT
5
FD1
102
{ACAD_XDICTIONARY
360
10A9
102
}
102
{ACAD_REACTORS
330
FCF
102
}
330
FCF
100
AcDbPlotSettings
1

2
Microsoft XPS Document Writer
4

6

40
0.0
41
0.0
42
0.0
43
0.0
44
0.0
45
0.0
46
0.0
47
0.0
48
0.0
49
0.0
140
0.0
141
0.0
142
1.0
143
1.0
70
688
72
0
73
0
74
5
7

75
16
147
1.0
148
0.0
149
0.0
100
AcDbLayout
1
Layout1
70
1
71
1
10
0.0
20
0.0
11
12.0
21
9.0
12
0.0
22
0.0
32
0.0
14
1.000000000000000E+20
24
1.000000000000000E+20
34
1.000000000000000E+20
15
-1.000000000000000E+20
25
-1.000000000000000E+20
35
-1.000000000000000E+20
146
0.0
13
0.0
23
0.0
33
0.0
16
1.0
26
0.0
36
0.0
17
0.0
27
1.0
37
0.0
76
0
330
25D
0
LAYOUT
5
FD0
102
{ACAD_XDICTIONARY
360
10A7
102
}
102
{ACAD_REACTORS
330
FCF
102
}
330
FCF
100
AcDbPlotSettings
1

2
Microsoft XPS Document Writer
4

6

40
0.0
41
0.0
42
0.0
43
0.0
44
0.0
45
0.0
46
0.0
47
0.0
48
0.0
49
0.0
140
0.0
141
0.0
142
1.0
143
1.0
70
1712
72
0
73
0
74
0
7

75
0
147
1.0
148
0.0
149
0.0
100
AcDbLayout
1
Model
70
1
71
0
10
0.0
20
0.0
11
12.0
21
9.0
12
0.0
22
0.0
32
0.0
14
0.0
24
0.0
34
0.0
15
0.0
25
0.0
35
0.0
146
0.0
13
0.0
23
0.0
33
0.0
16
1.0
26
0.0
36
0.0
17
0.0
27
1.0
37
0.0
76
0
330
261
331
26B
0
MATERIAL
5
F83
102
{ACAD_XDICTIONARY
360
F84
102
}
102
{ACAD_REACTORS
330
F7A
102
}
330
F7A
100
AcDbMaterial
1
ByBlock
72
0
43
0.0208333333333333
43
0.0
43
0.0
43
0.0
43
0.0
43
0.0208333333333333
43
0.0
43
0.0
43
0.0
43
0.0
43
1.0
43
0.0
43
0.0
43
0.0
43
0.0
43
1.0
77
0
47
0.0208333333333333
47
0.0
47
0.0
47
0.0
47
0.0
47
0.0208333333333333
47
0.0
47
0.0
47
0.0
47
0.0
47
1.0
47
0.0
47
0.0
47
0.0
47
0.0
47
1.0
171
0
49
0.0208333333333333
49
0.0
49
0.0
49
0.0
49
0.0
49
0.0208333333333333
49
0.0
49
0.0
49
0.0
49
0.0
49
1.0
49
0.0
49
0.0
49
0.0
49
0.0
49
1.0
175
0
142
0.0208333333333333
142
0.0
142
0.0
142
0.0
142
0.0
142
0.0208333333333333
142
0.0
142
0.0
142
0.0
142
0.0
142
1.0
142
0.0
142
0.0
142
0.0
142
0.0
142
1.0
179
0
144
0.0208333333333333
144
0.0
144
0.0
144
0.0
144
0.0
144
0.0208333333333333
144
0.0
144
0.0
144
0.0
144
0.0
144
1.0
144
0.0
144
0.0
144
0.0
144
0.0
144
1.0
147
0.0208333333333333
147
0.0
147
0.0
147
0.0
147
0.0
147
0.0208333333333333
147
0.0
147
0.0
147
0.0
147
0.0
147
1.0
147
0.0
147
0.0
147
0.0
147
0.0
147
1.0
0
MATERIAL
5
F7B
102
{ACAD_XDICTIONARY
360
F7C
102
}
102
{ACAD_REACTORS
330
F7A
102
}
330
F7A
100
AcDbMaterial
1
ByLayer
72
0
43
0.0208333333333333
43
0.0
43
0.0
43
0.0
43
0.0
43
0.0208333333333333
43
0.0
43
0.0
43
0.0
43
0.0
43
1.0
43
0.0
43
0.0
43
0.0
43
0.0
43
1.0
77
0
47
0.0208333333333333
47
0.0
47
0.0
47
0.0
47
0.0
47
0.0208333333333333
47
0.0
47
0.0
47
0.0
47
0.0
47
1.0
47
0.0
47
0.0
47
0.0
47
0.0
47
1.0
171
0
49
0.0208333333333333
49
0.0
49
0.0
49
0.0
49
0.0
49
0.0208333333333333
49
0.0
49
0.0
49
0.0
49
0.0
49
1.0
49
0.0
49
0.0
49
0.0
49
0.0
49
1.0
175
0
142
0.0208333333333333
142
0.0
142
0.0
142
0.0
142
0.0
142
0.0208333333333333
142
0.0
142
0.0
142
0.0
142
0.0
142
1.0
142
0.0
142
0.0
142
0.0
142
0.0
142
1.0
179
0
144
0.0208333333333333
144
0.0
144
0.0
144
0.0
144
0.0
144
0.0208333333333333
144
0.0
144
0.0
144
0.0
144
0.0
144
1.0
144
0.0
144
0.0
144
0.0
144
0.0
144
1.0
147
0.0208333333333333
147
0.0
147
0.0
147
0.0
147
0.0
147
0.0208333333333333
147
0.0
147
0.0
147
0.0
147
0.0
147
1.0
147
0.0
147
0.0
147
0.0
147
0.0
147
1.0
0
MATERIAL
5
F8B
102
{ACAD_XDICTIONARY
360
F8C
102
}
102
{ACAD_REACTORS
330
F7A
102
}
330
F7A
100
AcDbMaterial
1
Global
72
0
43
0.0208333333333333
43
0.0
43
0.0
43
0.0
43
0.0
43
0.0208333333333333
43
0.0
43
0.0
43
0.0
43
0.0
43
1.0
43
0.0
43
0.0
43
0.0
43
0.0
43
1.0
77
0
47
0.0208333333333333
47
0.0
47
0.0
47
0.0
47
0.0
47
0.0208333333333333
47
0.0
47
0.0
47
0.0
47
0.0
47
1.0
47
0.0
47
0.0
47
0.0
47
0.0
47
1.0
171
0
49
0.0208333333333333
49
0.0
49
0.0
49
0.0
49
0.0
49
0.0208333333333333
49
0.0
49
0.0
49
0.0
49
0.0
49
1.0
49
0.0
49
0.0
49
0.0
49
0.0
49
1.0
175
0
142
0.0208333333333333
142
0.0
142
0.0
142
0.0
142
0.0
142
0.0208333333333333
142
0.0
142
0.0
142
0.0
142
0.0
142
1.0
142
0.0
142
0.0
142
0.0
142
0.0
142
1.0
179
0
144
0.0208333333333333
144
0.0
144
0.0
144
0.0
144
0.0
144
0.0208333333333333
144
0.0
144
0.0
144
0.0
144
0.0
144
1.0
144
0.0
144
0.0
144
0.0
144
0.0
144
1.0
147
0.0208333333333333
147
0.0
147
0.0
147
0.0
147
0.0
147
0.0208333333333333
147
0.0
147
0.0
147
0.0
147
0.0
147
1.0
147
0.0
147
0.0
147
0.0
147
0.0
147
1.0
0
MLEADERSTYLE
5
FCE
102
{ACAD_REACTORS
330
FCD
102
}
330
FCD
100
AcDbMLeaderStyle
170
2
171
1
172
0
90
2
40
0.0
41
0.0
173
1
91
-1056964608
340
256
92
-2
290
1
42
0.09
291
1
43
0.36
3
Standard
44
0.18
300

342
253
174
1
178
6
175
1
176
0
93
-1056964608
45
0.18
292
0
297
0
46
0.18
94
-1056964608
47
1.0
49
1.0
140
1.0
293
1
141
0.0
294
1
177
0
142
1.0
295
0
296
0
143
0.125
1001
ACAD_MLEADERVER
1070
2
0
MLINESTYLE
5
FAA
102
{ACAD_REACTORS
330
16
102
}
330
16
100
AcDbMlineStyle
2
STANDARD
70
0
3

62
256
51
90.0
52
90.0
71
2
49
0.5
62
256
6
BYLAYER
49
-0.5
62
256
6
BYLAYER
0
ACDBPLACEHOLDER
5
19
102
{ACAD_REACTORS
330
18
102
}
330
18
0
SCALE
5
FAC
102
{ACAD_REACTORS
330
FAB
102
}
330
FAB
100
AcDbScale
70
0
300
1:1
140
1.0
141
1.0
290
1
0
SCALE
5
FAD
102
{ACAD_REACTORS
330
FAB
102
}
330
FAB
100
AcDbScale
70
0
300
1:2
140
1.0
141
2.0
290
0
0
SCALE
5
FAE
102
{ACAD_REACTORS
330
FAB
102
}
330
FAB
100
AcDbScale
70
0
300
1:4
140
1.0
141
4.0
290
0
0
SCALE
5
FAF
102
{ACAD_REACTORS
330
FAB
102
}
330
FAB
100
AcDbScale
70
0
300
1:5
140
1.0
141
5.0
290
0
0
SCALE
5
FB0
102
{ACAD_REACTORS
330
FAB
102
}
330
FAB
100
AcDbScale
70
0
300
1:8
140
1.0
141
8.0
290
0
0
SCALE
5
FB1
102
{ACAD_REACTORS
330
FAB
102
}
330
FAB
100
AcDbScale
70
0
300
1:10
140
1.0
141
10.0
290
0
0
SCALE
5
FB2
102
{ACAD_REACTORS
330
FAB
102
}
330
FAB
100
AcDbScale
70
0
300
1:16
140
1.0
141
16.0
290
0
0
SCALE
5
FB3
102
{ACAD_REACTORS
330
FAB
102
}
330
FAB
100
AcDbScale
70
0
300
1:20
140
1.0
141
20.0
290
0
0
SCALE
5
FB4
102
{ACAD_REACTORS
330
FAB
102
}
330
FAB
100
AcDbScale
70
0
300
1:30
140
1.0
141
30.0
290
0
0
SCALE
5
FB5
102
{ACAD_REACTORS
330
FAB
102
}
330
FAB
100
AcDbScale
70
0
300
1:40
140
1.0
141
40.0
290
0
0
SCALE
5
FB6
102
{ACAD_REACTORS
330
FAB
102
}
330
FAB
100
AcDbScale
70
0
300
1:50
140
1.0
141
50.0
290
0
0
SCALE
5
FB7
102
{ACAD_REACTORS
330
FAB
102
}
330
FAB
100
AcDbScale
70
0
300
1:100
140
1.0
141
100.0
290
0
0
SCALE
5
FB8
102
{ACAD_REACTORS
330
FAB
102
}
330
FAB
100
AcDbScale
70
0
300
2:1
140
2.0
141
1.0
290
0
0
SCALE
5
FB9
102
{ACAD_REACTORS
330
FAB
102
}
330
FAB
100
AcDbScale
70
0
300
4:1
140
4.0
141
1.0
290
0
0
SCALE
5
FBA
102
{ACAD_REACTORS
330
FAB
102
}
330
FAB
100
AcDbScale
70
0
300
8:1
140
8.0
141
1.0
290
0
0
SCALE
5
FBB
102
{ACAD_REACTORS
330
FAB
102
}
330
FAB
100
AcDbScale
70
0
300
10:1
140
10.0
141
1.0
290
0
0
SCALE
5
FBC
102
{ACAD_REACTORS
330
FAB
102
}
330
FAB
100
AcDbScale
70
0
300
100:1
140
100.0
141
1.0
290
0
0
SCALE
5
FBD
102
{ACAD_REACTORS
330
FAB
102
}
330
FAB
100
AcDbScale
70
0
300
1/128" = 1'-0"
140
0.0078125
141
12.0
290
0
0
SCALE
5
FBE
102
{ACAD_REACTORS
330
FAB
102
}
330
FAB
100
AcDbScale
70
0
300
1/64" = 1'-0"
140
0.015625
141
12.0
290
0
0
SCALE
5
FBF
102
{ACAD_REACTORS
330
FAB
102
}
330
FAB
100
AcDbScale
70
0
300
1/32" = 1'-0"
140
0.03125
141
12.0
290
0
0
SCALE
5
FC0
102
{ACAD_REACTORS
330
FAB
102
}
330
FAB
100
AcDbScale
70
0
300
1/16" = 1'-0"
140
0.0625
141
12.0
290
0
0
SCALE
5
FC1
102
{ACAD_REACTORS
330
FAB
102
}
330
FAB
100
AcDbScale
70
0
300
3/32" = 1'-0"
140
0.09375
141
12.0
290
0
0
SCALE
5
FC2
102
{ACAD_REACTORS
330
FAB
102
}
330
FAB
100
AcDbScale
70
0
300
1/8" = 1'-0"
140
0.125
141
12.0
290
0
0
SCALE
5
FC3
102
{ACAD_REACTORS
330
FAB
102
}
330
FAB
100
AcDbScale
70
0
300
3/16" = 1'-0"
140
0.1875
141
12.0
290
0
0
SCALE
5
FC4
102
{ACAD_REACTORS
330
FAB
102
}
330
FAB
100
AcDbScale
70
0
300
1/4" = 1'-0"
140
0.25
141
12.0
290
0
0
SCALE
5
FC5
102
{ACAD_REACTORS
330
FAB
102
}
330
FAB
100
AcDbScale
70
0
300
3/8" = 1'-0"
140
0.375
141
12.0
290
0
0
SCALE
5
FC6
102
{ACAD_REACTORS
330
FAB
102
}
330
FAB
100
AcDbScale
70
0
300
1/2" = 1'-0"
140
0.5
141
12.0
290
0
0
SCALE
5
FC7
102
{ACAD_REACTORS
330
FAB
102
}
330
FAB
100
AcDbScale
70
0
300
3/4" = 1'-0"
140
0.75
141
12.0
290
0
0
SCALE
5
FC8
102
{ACAD_REACTORS
330
FAB
102
}
330
FAB
100
AcDbScale
70
0
300
1" = 1'-0"
140
1.0
141
12.0
290
0
0
SCALE
5
FC9
102
{ACAD_REACTORS
330
FAB
102
}
330
FAB
100
AcDbScale
70
0
300
1-1/2" = 1'-0"
140
1.5
141
12.0
290
0
0
SCALE
5
FCA
102
{ACAD_REACTORS
330
FAB
102
}
330
FAB
100
AcDbScale
70
0
300
3" = 1'-0"
140
3.0
141
12.0
290
0
0
SCALE
5
FCB
102
{ACAD_REACTORS
330
FAB
102
}
330
FAB
100
AcDbScale
70
0
300
6" = 1'-0"
140
6.0
141
12.0
290
0
0
SCALE
5
FCC
102
{ACAD_REACTORS
330
FAB
102
}
330
FAB
100
AcDbScale
70
0
300
1'-0" = 1'-0"
140
12.0
141
12.0
290
0
0
TABLESTYLE
5
FA9
102
{ACAD_XDICTIONARY
360
FF8
102
}
102
{ACAD_REACTORS
330
FA8
102
}
330
FA8
100
AcDbTableStyle
3
Standard
70
0
71
0
40
0.06
41
0.06
280
0
281
0
7
Standard
140
0.18
170
2
62
0
63
7
283
0
274
-2
284
1
64
0
275
-2
285
1
65
0
276
-2
286
1
66
0
277
-2
287
1
67
0
278
-2
288
1
68
0
279
-2
289
1
69
0
7
Standard
140
0.25
170
5
62
0
63
7
283
0
274
-2
284
1
64
0
275
-2
285
1
65
0
276
-2
286
1
66
0
277
-2
287
1
67
0
278
-2
288
1
68
0
279
-2
289
1
69
0
7
Standard
140
0.18
170
5
62
0
63
7
283
0
274
-2
284
1
64
0
275
-2
285
1
65
0
276
-2
286
1
66
0
277
-2
287
1
67
0
278
-2
288
1
68
0
279
-2
289
1
69
0
0
VISUALSTYLE
5
F99
102
{ACAD_XDICTIONARY
360
108A
102
}
102
{ACAD_REACTORS
330
F93
102
}
330
F93
100
AcDbVisualStyle
2

70
4
71
0
72
2
73
0
90
0
40
-0.6
41
-30.0
62
5
63
7
74
1
91
4
64
7
65
257
75
1
175
1
42
1.0
92
0
66
257
43
1.0
76
1
77
6
78
2
67
7
79
5
170
0
171
0
290
0
174
0
93
1
44
0.0
173
0
291
0
45
0.0
1001
ACAD
1000
AcDbSavedByObjectVersion
1070
0
0
VISUALSTYLE
5
F9B
102
{ACAD_XDICTIONARY
360
108E
102
}
102
{ACAD_REACTORS
330
F93
102
}
330
F93
100
AcDbVisualStyle
2

70
6
71
1
72
2
73
2
90
0
40
-0.6
41
-30.0
62
5
63
7
74
2
91
2
64
7
65
257
75
2
175
1
42
179.0
92
0
66
257
43
1.0
76
1
77
6
78
2
67
7
79
3
170
0
171
0
290
0
174
0
93
1
44
0.0
173
0
291
0
45
0.0
1001
ACAD
1000
AcDbSavedByObjectVersion
1070
0
0
VISUALSTYLE
5
F9A
102
{ACAD_XDICTIONARY
360
108C
102
}
102
{ACAD_REACTORS
330
F93
102
}
330
F93
100
AcDbVisualStyle
2

70
5
71
0
72
2
73
0
90
0
40
-0.6
41
-30.0
62
5
63
7
74
1
91
4
64
7
65
257
75
1
175
1
42
1.0
92
0
66
257
43
1.0
76
1
77
6
78
2
67
7
79
5
170
0
171
0
290
0
174
0
93
1
44
0.0
173
0
291
0
45
0.0
1001
ACAD
1000
AcDbSavedByObjectVersion
1070
0
0
VISUALSTYLE
5
F98
102
{ACAD_XDICTIONARY
360
1088
102
}
102
{ACAD_REACTORS
330
F93
102
}
330
F93
100
AcDbVisualStyle
2

70
7
71
1
72
0
73
1
90
0
40
-0.6
41
-30.0
62
5
63
7
74
0
91
4
64
7
65
257
75
1
175
1
42
1.0
92
8
66
7
43
1.0
76
1
77
6
78
2
67
7
79
5
170
0
171
0
290
0
174
0
93
1
44
0.0
173
0
291
1
45
0.0
1001
ACAD
1000
AcDbSavedByObjectVersion
1070
0
0
VISUALSTYLE
5
F9F
102
{ACAD_XDICTIONARY
360
1096
102
}
102
{ACAD_REACTORS
330
F93
102
}
330
F93
100
AcDbVisualStyle
2

70
12
71
2
72
2
73
0
90
0
40
-0.6
41
-30.0
62
5
63
7
74
1
91
4
64
7
65
257
75
1
175
1
42
1.0
92
8
66
7
43
1.0
76
1
77
6
78
2
67
7
79
5
170
0
171
0
290
0
174
0
93
1
44
50.0
173
0
291
1
45
0.0
1001
ACAD
1000
AcDbSavedByObjectVersion
1070
0
0
VISUALSTYLE
5
FA3
102
{ACAD_XDICTIONARY
360
109E
102
}
102
{ACAD_REACTORS
330
F93
102
}
330
F93
100
AcDbVisualStyle
2

70
16
71
2
72
2
73
3
90
0
40
-0.6
41
-30.0
62
5
63
8
74
1
91
4
64
7
65
257
75
1
175
1
42
1.0
92
8
66
8
43
1.0
76
1
77
6
78
2
67
7
79
5
170
0
171
0
290
0
174
0
93
1
44
0.0
173
0
291
1
45
0.0
1001
ACAD
1000
AcDbSavedByObjectVersion
1070
0
0
VISUALSTYLE
5
F9C
102
{ACAD_XDICTIONARY
360
1090
102
}
102
{ACAD_REACTORS
330
F93
102
}
330
F93
100
AcDbVisualStyle
2

70
9
71
3
72
2
73
0
90
0
40
-0.6
41
-30.0
62
5
63
7
74
2
91
2
64
7
65
257
75
1
175
1
42
179.0
92
8
66
7
43
1.0
76
1
77
6
78
2
67
7
79
3
170
0
171
0
290
0
174
0
93
1
44
0.0
173
0
291
0
45
0.0
1001
ACAD
1000
AcDbSavedByObjectVersion
1070
0
0
VISUALSTYLE
5
F9E
102
{ACAD_XDICTIONARY
360
1094
102
}
102
{ACAD_REACTORS
330
F93
102
}
330
F93
100
AcDbVisualStyle
2

70
11
71
2
72
2
73
0
90
0
40
-0.6
41
-30.0
62
5
63
7
74
1
91
4
64
7
65
257
75
1
175
1
42
1.0
92
8
66
7
43
1.0
76
1
77
6
78
2
67
7
79
5
170
0
171
0
290
0
174
0
93
1
44
-50.0
173
0
291
1
45
0.0
1001
ACAD
1000
AcDbSavedByObjectVersion
1070
0
0
VISUALSTYLE
5
FA6
102
{ACAD_XDICTIONARY
360
10A4
102
}
102
{ACAD_REACTORS
330
F93
102
}
330
F93
100
AcDbVisualStyle
2

70
22
71
2
72
2
73
0
90
0
40
-0.6
41
-30.0
62
5
63
7
74
1
91
4
64
7
65
257
75
1
175
1
42
1.0
92
8
66
7
43
1.0
76
1
77
6
78
2
67
7
79
5
170
0
171
0
290
0
174
0
93
1
44
0.0
173
0
291
1
45
0.0
1001
ACAD
1000
AcDbSavedByObjectVersion
1070
0
0
VISUALSTYLE
5
FA2
102
{ACAD_XDICTIONARY
360
109C
102
}
102
{ACAD_REACTORS
330
F93
102
}
330
F93
100
AcDbVisualStyle
2

70
15
71
2
72
2
73
0
90
0
40
-0.6
41
-30.0
62
5
63
7
74
1
91
4
64
7
65
257
75
1
175
1
42
1.0
92
8
66
7
43
1.0
76
1
77
6
78
2
67
7
79
5
170
0
171
0
290
0
174
0
93
1
44
0.0
173
0
291
1
45
0.0
1001
ACAD
1000
AcDbSavedByObjectVersion
1070
0
0
VISUALSTYLE
5
F94
102
{ACAD_XDICTIONARY
360
1080
102
}
102
{ACAD_REACTORS
330
F93
102
}
330
F93
100
AcDbVisualStyle
2

70
0
71
2
72
1
73
1
90
2
40
-0.6
41
30.0
62
5
63
7
74
0
91
4
64
7
65
257
75
1
175
1
42
1.0
92
8
66
7
43
1.0
76
1
77
6
78
2
67
7
79
5
170
0
171
0
290
0
174
0
93
13
44
0.0
173
0
291
1
45
0.0
1001
ACAD
1000
AcDbSavedByObjectVersion
1070
0
0
VISUALSTYLE
5
F95
102
{ACAD_XDICTIONARY
360
1082
102
}
102
{ACAD_REACTORS
330
F93
102
}
330
F93
100
AcDbVisualStyle
2

70
1
71
2
72
1
73
1
90
2
40
-0.6
41
30.0
62
5
63
7
74
1
91
4
64
7
65
257
75
1
175
1
42
1.0
92
0
66
257
43
1.0
76
1
77
6
78
2
67
7
79
5
170
0
171
0
290
0
174
0
93
13
44
0.0
173
0
291
1
45
0.0
1001
ACAD
1000
AcDbSavedByObjectVersion
1070
0
0
VISUALSTYLE
5
F96
102
{ACAD_XDICTIONARY
360
1084
102
}
102
{ACAD_REACTORS
330
F93
102
}
330
F93
100
AcDbVisualStyle
2

70
2
71
2
72
2
73
1
90
2
40
-0.6
41
30.0
62
5
63
7
74
0
91
4
64
7
65
257
75
1
175
1
42
1.0
92
0
66
7
43
1.0
76
1
77
6
78
2
67
7
79
5
170
0
171
0
290
0
174
0
93
13
44
0.0
173
0
291
1
45
0.0
1001
ACAD
1000
AcDbSavedByObjectVersion
1070
0
0
VISUALSTYLE
5
F97
102
{ACAD_XDICTIONARY
360
1086
102
}
102
{ACAD_REACTORS
330
F93
102
}
330
F93
100
AcDbVisualStyle
2

70
3
71
2
72
2
73
1
90
2
40
-0.6
41
30.0
62
5
63
7
74
1
91
4
64
7
65
257
75
1
175
1
42
1.0
92
0
66
257
43
1.0
76
1
77
6
78
2
67
7
79
5
170
0
171
0
290
0
174
0
93
13
44
0.0
173
0
291
1
45
0.0
1001
ACAD
1000
AcDbSavedByObjectVersion
1070
0
0
VISUALSTYLE
5
FA4
102
{ACAD_XDICTIONARY
360
10A0
102
}
102
{ACAD_REACTORS
330
F93
102
}
330
F93
100
AcDbVisualStyle
2

70
20
71
2
72
2
73
0
90
0
40
-0.6
41
-30.0
62
5
63
7
74
1
91
4
64
7
65
257
75
1
175
1
42
1.0
92
10
66
7
43
1.0
76
1
77
6
78
2
67
7
79
5
170
0
171
0
290
0
174
0
93
1
44
0.0
173
0
291
1
45
0.0
1001
ACAD
1000
AcDbSavedByObjectVersion
1070
0
0
VISUALSTYLE
5
FA1
102
{ACAD_XDICTIONARY
360
109A
102
}
102
{ACAD_REACTORS
330
F93
102
}
330
F93
100
AcDbVisualStyle
2

70
14
71
2
72
2
73
0
90
0
40
-0.6
41
-30.0
62
5
63
7
74
1
91
4
64
7
65
257
75
7
175
7
42
1.0
92
8
66
7
43
1.0
76
1
77
6
78
2
67
7
79
5
170
0
171
0
290
0
174
0
93
1
44
0.0
173
0
291
1
45
0.0
1001
ACAD
1000
AcDbSavedByObjectVersion
1070
0
0
VISUALSTYLE
5
FA5
102
{ACAD_XDICTIONARY
360
10A2
102
}
102
{ACAD_REACTORS
330
F93
102
}
330
F93
100
AcDbVisualStyle
2

70
21
71
2
72
2
73
0
90
0
40
-0.6
41
-30.0
62
5
63
7
74
1
91
4
64
7
65
257
75
1
175
1
42
1.0
92
9
66
7
43
1.0
76
1
77
6
78
2
67
7
79
5
170
0
171
0
290
0
174
0
93
1
44
0.0
173
0
291
1
45
0.0
1001
ACAD
1000
AcDbSavedByObjectVersion
1070
0
0
VISUALSTYLE
5
F9D
102
{ACAD_XDICTIONARY
360
1092
102
}
102
{ACAD_REACTORS
330
F93
102
}
330
F93
100
AcDbVisualStyle
2

70
8
71
2
72
2
73
0
90
0
40
-0.6
41
-30.0
62
5
63
7
74
1
91
0
64
7
65
257
75
1
175
1
42
1.0
92
8
66
8
43
1.0
76
1
77
6
78
2
67
7
79
5
170
0
171
0
290
0
174
0
93
13
44
0.0
173
0
291
0
45
0.0
1001
ACAD
1000
AcDbSavedByObjectVersion
1070
0
0
VISUALSTYLE
5
FA0
102
{ACAD_XDICTIONARY
360
1098
102
}
102
{ACAD_REACTORS
330
F93
102
}
330
F93
100
AcDbVisualStyle
2

70
13
71
2
72
2
73
0
90
0
40
-0.6
41
-30.0
62
5
63
7
74
1
91
4
64
7
65
257
75
1
175
1
42
1.0
92
12
66
7
43
1.0
76
1
77
6
78
2
67
7
79
5
170
0
171
0
290
0
174
0
93
1
44
0.0
173
0
291
1
45
0.0
1001
ACAD
1000
AcDbSavedByObjectVersion
1070
0
0
DICTIONARYVAR
5
FF3
102
{ACAD_REACTORS
330
FF0
102
}
330
FF0
100
DictionaryVariables
280
0
1
1:1
0
DICTIONARYVAR
5
FF2
102
{ACAD_REACTORS
330
FF0
102
}
330
FF0
100
DictionaryVariables
280
0
1
STANDARD
0
DICTIONARYVAR
5
FF1
102
{ACAD_REACTORS
330
FF0
102
}
330
FF0
100
DictionaryVariables
280
0
1
STANDARD
0
DICTIONARYVAR
5
FF6
102
{ACAD_REACTORS
330
FF0
102
}
330
FF0
100
DictionaryVariables
280
0
1
1
0
DICTIONARYVAR
5
FF5
102
{ACAD_REACTORS
330
FF0
102
}
330
FF0
100
DictionaryVariables
280
0
1
0
0
DICTIONARYVAR
5
FF4
102
{ACAD_REACTORS
330
FF0
102
}
330
FF0
100
DictionaryVariables
280
0
1
127
0
DICTIONARYVAR
5
1078
102
{ACAD_REACTORS
330
FF0
102
}
330
FF0
100
DictionaryVariables
280
0
1
2
0
DICTIONARY
5
10A9
330
FD1
100
AcDbDictionary
280
1
281
1
3
ACAD_XREC_ROUNDTRIP
360
10AA
0
DICTIONARY
5
10A7
330
FD0
100
AcDbDictionary
280
1
281
1
3
ACAD_XREC_ROUNDTRIP
360
10A8
0
DICTIONARY
5
F84
330
F83
100
AcDbDictionary
280
1
281
1
3
ACAD_XREC_ROUNDTRIP
360
FFF
3
BUMPTILE
360
F86
3
DIFFUSETILE
360
F85
3
OPACITYTILE
360
F89
3
REFLECTIONTILE
360
F88
3
REFRACTIONTILE
360
F8A
3
SPECULARTILE
360
F87
0
DICTIONARY
5
F7C
330
F7B
100
AcDbDictionary
280
1
281
1
3
ACAD_XREC_ROUNDTRIP
360
FFE
3
BUMPTILE
360
F7E
3
DIFFUSETILE
360
F7D
3
OPACITYTILE
360
F81
3
REFLECTIONTILE
360
F80
3
REFRACTIONTILE
360
F82
3
SPECULARTILE
360
F7F
0
DICTIONARY
5
F8C
330
F8B
100
AcDbDictionary
280
1
281
1
3
ACAD_XREC_ROUNDTRIP
360
1000
3
BUMPTILE
360
F8E
3
DIFFUSETILE
360
F8D
3
OPACITYTILE
360
F91
3
REFLECTIONTILE
360
F90
3
REFRACTIONTILE
360
F92
3
SPECULARTILE
360
F8F
0
DICTIONARY
5
FF8
330
FA9
100
AcDbDictionary
280
1
281
1
3
ACAD_ROUNDTRIP_2008_TABLESTYLE_CELLSTYLEMAP
360
1079
3
ACAD_XREC_ROUNDTRIP
360
10A6
0
DICTIONARY
5
108A
330
F99
100
AcDbDictionary
280
1
281
1
3
ACAD_XREC_ROUNDTRIP
360
108B
0
DICTIONARY
5
108E
330
F9B
100
AcDbDictionary
280
1
281
1
3
ACAD_XREC_ROUNDTRIP
360
108F
0
DICTIONARY
5
108C
330
F9A
100
AcDbDictionary
280
1
281
1
3
ACAD_XREC_ROUNDTRIP
360
108D
0
DICTIONARY
5
1088
330
F98
100
AcDbDictionary
280
1
281
1
3
ACAD_XREC_ROUNDTRIP
360
1089
0
DICTIONARY
5
1096
330
F9F
100
AcDbDictionary
280
1
281
1
3
ACAD_XREC_ROUNDTRIP
360
1097
0
DICTIONARY
5
109E
330
FA3
100
AcDbDictionary
280
1
281
1
3
ACAD_XREC_ROUNDTRIP
360
109F
0
DICTIONARY
5
1090
330
F9C
100
AcDbDictionary
280
1
281
1
3
ACAD_XREC_ROUNDTRIP
360
1091
0
DICTIONARY
5
1094
330
F9E
100
AcDbDictionary
280
1
281
1
3
ACAD_XREC_ROUNDTRIP
360
1095
0
DICTIONARY
5
10A4
330
FA6
100
AcDbDictionary
280
1
281
1
3
ACAD_XREC_ROUNDTRIP
360
10A5
0
DICTIONARY
5
109C
330
FA2
100
AcDbDictionary
280
1
281
1
3
ACAD_XREC_ROUNDTRIP
360
109D
0
DICTIONARY
5
1080
330
F94
100
AcDbDictionary
280
1
281
1
3
ACAD_XREC_ROUNDTRIP
360
1081
0
DICTIONARY
5
1082
330
F95
100
AcDbDictionary
280
1
281
1
3
ACAD_XREC_ROUNDTRIP
360
1083
0
DICTIONARY
5
1084
330
F96
100
AcDbDictionary
280
1
281
1
3
ACAD_XREC_ROUNDTRIP
360
1085
0
DICTIONARY
5
1086
330
F97
100
AcDbDictionary
280
1
281
1
3
ACAD_XREC_ROUNDTRIP
360
1087
0
DICTIONARY
5
10A0
330
FA4
100
AcDbDictionary
280
1
281
1
3
ACAD_XREC_ROUNDTRIP
360
10A1
0
DICTIONARY
5
109A
330
FA1
100
AcDbDictionary
280
1
281
1
3
ACAD_XREC_ROUNDTRIP
360
109B
0
DICTIONARY
5
10A2
330
FA5
100
AcDbDictionary
280
1
281
1
3
ACAD_XREC_ROUNDTRIP
360
10A3
0
DICTIONARY
5
1092
330
F9D
100
AcDbDictionary
280
1
281
1
3
ACAD_XREC_ROUNDTRIP
360
1093
0
DICTIONARY
5
1098
330
FA0
100
AcDbDictionary
280
1
281
1
3
ACAD_XREC_ROUNDTRIP
360
1099
0
XRECORD
5
10AA
102
{ACAD_REACTORS
330
10A9
102
}
330
10A9
100
AcDbXrecord
280
1
102
SHADEPLOT
70
0
102
SHADEPLOTRESLEVEL
70
2
102
SHADEPLOTCUSTOMDPI
70
300
0
XRECORD
5
10A8
102
{ACAD_REACTORS
330
10A7
102
}
330
10A7
100
AcDbXrecord
280
1
102
SHADEPLOT
70
0
102
SHADEPLOTRESLEVEL
70
2
102
SHADEPLOTCUSTOMDPI
70
300
0
XRECORD
5
FFF
102
{ACAD_REACTORS
330
F84
102
}
330
F84
100
AcDbXrecord
280
1
102
MATERIAL
148
0.0
149
0.0
149
0.0
93
0
94
127
282
0
72
0
77
0
171
0
175
0
179
0
273
0
0
XRECORD
5
F86
102
{ACAD_REACTORS
330
F84
102
}
330
F84
100
AcDbXrecord
280
1
270
1
271
1
0
XRECORD
5
F85
102
{ACAD_REACTORS
330
F84
102
}
330
F84
100
AcDbXrecord
280
1
270
1
271
1
0
XRECORD
5
F89
102
{ACAD_REACTORS
330
F84
102
}
330
F84
100
AcDbXrecord
280
1
270
1
271
1
0
XRECORD
5
F88
102
{ACAD_REACTORS
330
F84
102
}
330
F84
100
AcDbXrecord
280
1
270
1
271
1
0
XRECORD
5
F8A
102
{ACAD_REACTORS
330
F84
102
}
330
F84
100
AcDbXrecord
280
1
270
1
271
1
0
XRECORD
5
F87
102
{ACAD_REACTORS
330
F84
102
}
330
F84
100
AcDbXrecord
280
1
270
1
271
1
0
XRECORD
5
FFE
102
{ACAD_REACTORS
330
F7C
102
}
330
F7C
100
AcDbXrecord
280
1
102
MATERIAL
148
0.0
149
0.0
149
0.0
93
0
94
127
282
0
72
0
77
0
171
0
175
0
179
0
273
0
0
XRECORD
5
F7E
102
{ACAD_REACTORS
330
F7C
102
}
330
F7C
100
AcDbXrecord
280
1
270
1
271
1
0
XRECORD
5
F7D
102
{ACAD_REACTORS
330
F7C
102
}
330
F7C
100
AcDbXrecord
280
1
270
1
271
1
0
XRECORD
5
F81
102
{ACAD_REACTORS
330
F7C
102
}
330
F7C
100
AcDbXrecord
280
1
270
1
271
1
0
XRECORD
5
F80
102
{ACAD_REACTORS
330
F7C
102
}
330
F7C
100
AcDbXrecord
280
1
270
1
271
1
0
XRECORD
5
F82
102
{ACAD_REACTORS
330
F7C
102
}
330
F7C
100
AcDbXrecord
280
1
270
1
271
1
0
XRECORD
5
F7F
102
{ACAD_REACTORS
330
F7C
102
}
330
F7C
100
AcDbXrecord
280
1
270
1
271
1
0
XRECORD
5
1000
102
{ACAD_REACTORS
330
F8C
102
}
330
F8C
100
AcDbXrecord
280
1
102
MATERIAL
148
0.0
149
0.0
149
0.0
93
0
94
127
282
0
72
0
77
0
171
0
175
0
179
0
273
0
0
XRECORD
5
F8E
102
{ACAD_REACTORS
330
F8C
102
}
330
F8C
100
AcDbXrecord
280
1
270
1
271
1
0
XRECORD
5
F8D
102
{ACAD_REACTORS
330
F8C
102
}
330
F8C
100
AcDbXrecord
280
1
270
1
271
1
0
XRECORD
5
F91
102
{ACAD_REACTORS
330
F8C
102
}
330
F8C
100
AcDbXrecord
280
1
270
1
271
1
0
XRECORD
5
F90
102
{ACAD_REACTORS
330
F8C
102
}
330
F8C
100
AcDbXrecord
280
1
270
1
271
1
0
XRECORD
5
F92
102
{ACAD_REACTORS
330
F8C
102
}
330
F8C
100
AcDbXrecord
280
1
270
1
271
1
0
XRECORD
5
F8F
102
{ACAD_REACTORS
330
F8C
102
}
330
F8C
100
AcDbXrecord
280
1
270
1
271
1
0
CELLSTYLEMAP
5
1079
102
{ACAD_REACTORS
330
FF8
102
}
330
FF8
100
AcDbCellStyleMap
90
3
300
CELLSTYLE
1
TABLEFORMAT_BEGIN
90
5
170
1
91
0
92
32768
62
257
93
1
300
CONTENTFORMAT
1
CONTENTFORMAT_BEGIN
90
0
91
0
92
512
93
0
300

40
0.0
140
1.0
94
5
62
0
340
253
144
0.25
309
CONTENTFORMAT_END
171
1
301
MARGIN
1
CELLMARGIN_BEGIN
40
0.06
40
0.06
40
0.06
40
0.06
40
0.18
40
0.18
309
CELLMARGIN_END
94
6
95
1
302
GRIDFORMAT
1
GRIDFORMAT_BEGIN
90
0
91
1
62
0
92
-2
340
0
93
0
40
0.045
309
GRIDFORMAT_END
95
2
302
GRIDFORMAT
1
GRIDFORMAT_BEGIN
90
0
91
1
62
0
92
-2
340
0
93
0
40
0.045
309
GRIDFORMAT_END
95
4
302
GRIDFORMAT
1
GRIDFORMAT_BEGIN
90
0
91
1
62
0
92
-2
340
0
93
0
40
0.045
309
GRIDFORMAT_END
95
8
302
GRIDFORMAT
1
GRIDFORMAT_BEGIN
90
0
91
1
62
0
92
-2
340
0
93
0
40
0.045
309
GRIDFORMAT_END
95
16
302
GRIDFORMAT
1
GRIDFORMAT_BEGIN
90
0
91
1
62
0
92
-2
340
0
93
0
40
0.045
309
GRIDFORMAT_END
95
32
302
GRIDFORMAT
1
GRIDFORMAT_BEGIN
90
0
91
1
62
0
92
-2
340
0
93
0
40
0.045
309
GRIDFORMAT_END
309
TABLEFORMAT_END
1
CELLSTYLE_BEGIN
90
1
91
1
300
_TITLE
309
CELLSTYLE_END
300
CELLSTYLE
1
TABLEFORMAT_BEGIN
90
5
170
1
91
0
92
0
62
257
93
1
300
CONTENTFORMAT
1
CONTENTFORMAT_BEGIN
90
0
91
0
92
512
93
0
300

40
0.0
140
1.0
94
5
62
0
340
253
144
0.18
309
CONTENTFORMAT_END
171
1
301
MARGIN
1
CELLMARGIN_BEGIN
40
0.06
40
0.06
40
0.06
40
0.06
40
0.18
40
0.18
309
CELLMARGIN_END
94
6
95
1
302
GRIDFORMAT
1
GRIDFORMAT_BEGIN
90
0
91
1
62
0
92
-2
340
0
93
0
40
0.045
309
GRIDFORMAT_END
95
2
302
GRIDFORMAT
1
GRIDFORMAT_BEGIN
90
0
91
1
62
0
92
-2
340
0
93
0
40
0.045
309
GRIDFORMAT_END
95
4
302
GRIDFORMAT
1
GRIDFORMAT_BEGIN
90
0
91
1
62
0
92
-2
340
0
93
0
40
0.045
309
GRIDFORMAT_END
95
8
302
GRIDFORMAT
1
GRIDFORMAT_BEGIN
90
0
91
1
62
0
92
-2
340
0
93
0
40
0.045
309
GRIDFORMAT_END
95
16
302
GRIDFORMAT
1
GRIDFORMAT_BEGIN
90
0
91
1
62
0
92
-2
340
0
93
0
40
0.045
309
GRIDFORMAT_END
95
32
302
GRIDFORMAT
1
GRIDFORMAT_BEGIN
90
0
91
1
62
0
92
-2
340
0
93
0
40
0.045
309
GRIDFORMAT_END
309
TABLEFORMAT_END
1
CELLSTYLE_BEGIN
90
2
91
1
300
_HEADER
309
CELLSTYLE_END
300
CELLSTYLE
1
TABLEFORMAT_BEGIN
90
5
170
1
91
0
92
0
62
257
93
1
300
CONTENTFORMAT
1
CONTENTFORMAT_BEGIN
90
0
91
0
92
512
93
0
300

40
0.0
140
1.0
94
2
62
0
340
253
144
0.18
309
CONTENTFORMAT_END
171
1
301
MARGIN
1
CELLMARGIN_BEGIN
40
0.06
40
0.06
40
0.06
40
0.06
40
0.18
40
0.18
309
CELLMARGIN_END
94
6
95
1
302
GRIDFORMAT
1
GRIDFORMAT_BEGIN
90
0
91
1
62
0
92
-2
340
0
93
0
40
0.045
309
GRIDFORMAT_END
95
2
302
GRIDFORMAT
1
GRIDFORMAT_BEGIN
90
0
91
1
62
0
92
-2
340
0
93
0
40
0.045
309
GRIDFORMAT_END
95
4
302
GRIDFORMAT
1
GRIDFORMAT_BEGIN
90
0
91
1
62
0
92
-2
340
0
93
0
40
0.045
309
GRIDFORMAT_END
95
8
302
GRIDFORMAT
1
GRIDFORMAT_BEGIN
90
0
91
1
62
0
92
-2
340
0
93
0
40
0.045
309
GRIDFORMAT_END
95
16
302
GRIDFORMAT
1
GRIDFORMAT_BEGIN
90
0
91
1
62
0
92
-2
340
0
93
0
40
0.045
309
GRIDFORMAT_END
95
32
302
GRIDFORMAT
1
GRIDFORMAT_BEGIN
90
0
91
1
62
0
92
-2
340
0
93
0
40
0.045
309
GRIDFORMAT_END
309
TABLEFORMAT_END
1
CELLSTYLE_BEGIN
90
3
91
2
300
_DATA
309
CELLSTYLE_END
0
XRECORD
5
10A6
102
{ACAD_REACTORS
330
FF8
102
}
330
FF8
100
AcDbXrecord
280
1
102
ACAD_ROUNDTRIP_PRE2007_TABLESTYLE
90
512
91
0
1

92
512
93
0
2

94
512
95
0
3

0
XRECORD
5
108B
102
{ACAD_REACTORS
330
108A
102
}
330
108A
100
AcDbXrecord
280
1
102
RTVSPropertyOp0
70
1
102
RTVSPropertyOp1
70
1
102
RTVSPropertyOp2
70
1
102
RTVSPropertyOp3
70
1
102
RTVSPropertyOp4
70
1
102
RTVSPropertyOp5
70
1
102
RTVSPropertyOp6
70
1
102
RTVSPropertyOp7
70
1
102
RTVSPropertyOp8
70
1
102
RTVSPropertyOp9
70
1
102
RTVSPropertyOp10
70
1
102
RTVSPropertyOp11
70
1
102
RTVSPropertyOp12
70
1
102
RTVSPropertyOp13
70
1
102
RTVSPropertyOp14
70
1
102
RTVSPropertyOp15
70
1
102
RTVSPropertyOp16
70
1
102
RTVSPropertyOp17
70
1
102
RTVSPropertyOp18
70
1
102
RTVSPropertyOp19
70
1
102
RTVSPropertyOp20
70
1
102
RTVSPropertyOp21
70
1
102
RTVSPropertyOp22
70
1
102
RTVSPropertyOp23
70
1
102
RTVSPropertyOp24
70
1
102
RTVSPropertyOp25
70
1
102
RTVSPropertyOp26
70
1
102
RTVSPropertyOp27
70
1
0
XRECORD
5
108F
102
{ACAD_REACTORS
330
108E
102
}
330
108E
100
AcDbXrecord
280
1
102
RTVSPropertyOp0
70
1
102
RTVSPropertyOp1
70
1
102
RTVSPropertyOp2
70
1
102
RTVSPropertyOp3
70
1
102
RTVSPropertyOp4
70
1
102
RTVSPropertyOp5
70
1
102
RTVSPropertyOp6
70
1
102
RTVSPropertyOp7
70
1
102
RTVSPropertyOp8
70
1
102
RTVSPropertyOp9
70
1
102
RTVSPropertyOp10
70
1
102
RTVSPropertyOp11
70
1
102
RTVSPropertyOp12
70
1
102
RTVSPropertyOp13
70
1
102
RTVSPropertyOp14
70
1
102
RTVSPropertyOp15
70
1
102
RTVSPropertyOp16
70
1
102
RTVSPropertyOp17
70
1
102
RTVSPropertyOp18
70
1
102
RTVSPropertyOp19
70
1
102
RTVSPropertyOp20
70
1
102
RTVSPropertyOp21
70
1
102
RTVSPropertyOp22
70
1
102
RTVSPropertyOp23
70
1
102
RTVSPropertyOp24
70
1
102
RTVSPropertyOp25
70
1
102
RTVSPropertyOp26
70
1
102
RTVSPropertyOp27
70
1
0
XRECORD
5
108D
102
{ACAD_REACTORS
330
108C
102
}
330
108C
100
AcDbXrecord
280
1
102
RTVSPropertyOp0
70
1
102
RTVSPropertyOp1
70
1
102
RTVSPropertyOp2
70
1
102
RTVSPropertyOp3
70
1
102
RTVSPropertyOp4
70
1
102
RTVSPropertyOp5
70
1
102
RTVSPropertyOp6
70
1
102
RTVSPropertyOp7
70
1
102
RTVSPropertyOp8
70
1
102
RTVSPropertyOp9
70
1
102
RTVSPropertyOp10
70
1
102
RTVSPropertyOp11
70
1
102
RTVSPropertyOp12
70
1
102
RTVSPropertyOp13
70
1
102
RTVSPropertyOp14
70
1
102
RTVSPropertyOp15
70
1
102
RTVSPropertyOp16
70
1
102
RTVSPropertyOp17
70
1
102
RTVSPropertyOp18
70
1
102
RTVSPropertyOp19
70
1
102
RTVSPropertyOp20
70
1
102
RTVSPropertyOp21
70
1
102
RTVSPropertyOp22
70
1
102
RTVSPropertyOp23
70
1
102
RTVSPropertyOp24
70
1
102
RTVSPropertyOp25
70
1
102
RTVSPropertyOp26
70
1
102
RTVSPropertyOp27
70
1
0
XRECORD
5
1089
102
{ACAD_REACTORS
330
1088
102
}
330
1088
100
AcDbXrecord
280
1
102
RTVSPropertyOp0
70
1
102
RTVSPropertyOp1
70
1
102
RTVSPropertyOp2
70
1
102
RTVSPropertyOp3
70
1
102
RTVSPropertyOp4
70
1
102
RTVSPropertyOp5
70
1
102
RTVSPropertyOp6
70
1
102
RTVSPropertyOp7
70
1
102
RTVSPropertyOp8
70
1
102
RTVSPropertyOp9
70
1
102
RTVSPropertyOp10
70
1
102
RTVSPropertyOp11
70
1
102
RTVSPropertyOp12
70
1
102
RTVSPropertyOp13
70
1
102
RTVSPropertyOp14
70
1
102
RTVSPropertyOp15
70
1
102
RTVSPropertyOp16
70
1
102
RTVSPropertyOp17
70
1
102
RTVSPropertyOp18
70
1
102
RTVSPropertyOp19
70
1
102
RTVSPropertyOp20
70
1
102
RTVSPropertyOp21
70
1
102
RTVSPropertyOp22
70
1
102
RTVSPropertyOp23
70
1
102
RTVSPropertyOp24
70
1
102
RTVSPropertyOp25
70
1
102
RTVSPropertyOp26
70
1
102
RTVSPropertyOp27
70
1
0
XRECORD
5
1097
102
{ACAD_REACTORS
330
1096
102
}
330
1096
100
AcDbXrecord
280
1
102
RTVSPropertyOp0
70
1
102
RTVSPropertyOp1
70
1
102
RTVSPropertyOp2
70
1
102
RTVSPropertyOp3
70
1
102
RTVSPropertyOp4
70
1
102
RTVSPropertyOp5
70
1
102
RTVSPropertyOp6
70
1
102
RTVSPropertyOp7
70
1
102
RTVSPropertyOp8
70
1
102
RTVSPropertyOp9
70
1
102
RTVSPropertyOp10
70
1
102
RTVSPropertyOp11
70
1
102
RTVSPropertyOp12
70
1
102
RTVSPropertyOp13
70
1
102
RTVSPropertyOp14
70
1
102
RTVSPropertyOp15
70
1
102
RTVSPropertyOp16
70
1
102
RTVSPropertyOp17
70
1
102
RTVSPropertyOp18
70
1
102
RTVSPropertyOp19
70
1
102
RTVSPropertyOp20
70
1
102
RTVSPropertyOp21
70
1
102
RTVSPropertyOp22
70
1
102
RTVSPropertyOp23
70
1
102
RTVSPropertyOp24
70
1
102
RTVSPropertyOp25
70
1
102
RTVSPropertyOp26
70
1
102
RTVSPropertyOp27
70
1
0
XRECORD
5
109F
102
{ACAD_REACTORS
330
109E
102
}
330
109E
100
AcDbXrecord
280
1
102
RTVSPropertyOp0
70
1
102
RTVSPropertyOp1
70
1
102
RTVSPropertyOp2
70
1
102
RTVSPropertyOp3
70
1
102
RTVSPropertyOp4
70
1
102
RTVSPropertyOp5
70
1
102
RTVSPropertyOp6
70
1
102
RTVSPropertyOp7
70
1
102
RTVSPropertyOp8
70
1
102
RTVSPropertyOp9
70
1
102
RTVSPropertyOp10
70
1
102
RTVSPropertyOp11
70
1
102
RTVSPropertyOp12
70
1
102
RTVSPropertyOp13
70
1
102
RTVSPropertyOp14
70
1
102
RTVSPropertyOp15
70
1
102
RTVSPropertyOp16
70
1
102
RTVSPropertyOp17
70
1
102
RTVSPropertyOp18
70
1
102
RTVSPropertyOp19
70
1
102
RTVSPropertyOp20
70
1
102
RTVSPropertyOp21
70
1
102
RTVSPropertyOp22
70
1
102
RTVSPropertyOp23
70
1
102
RTVSPropertyOp24
70
1
102
RTVSPropertyOp25
70
1
102
RTVSPropertyOp26
70
1
102
RTVSPropertyOp27
70
1
0
XRECORD
5
1091
102
{ACAD_REACTORS
330
1090
102
}
330
1090
100
AcDbXrecord
280
1
102
RTVSPropertyOp0
70
1
102
RTVSPropertyOp1
70
1
102
RTVSPropertyOp2
70
1
102
RTVSPropertyOp3
70
1
102
RTVSPropertyOp4
70
1
102
RTVSPropertyOp5
70
1
102
RTVSPropertyOp6
70
1
102
RTVSPropertyOp7
70
1
102
RTVSPropertyOp8
70
1
102
RTVSPropertyOp9
70
1
102
RTVSPropertyOp10
70
1
102
RTVSPropertyOp11
70
1
102
RTVSPropertyOp12
70
1
102
RTVSPropertyOp13
70
1
102
RTVSPropertyOp14
70
1
102
RTVSPropertyOp15
70
1
102
RTVSPropertyOp16
70
1
102
RTVSPropertyOp17
70
1
102
RTVSPropertyOp18
70
1
102
RTVSPropertyOp19
70
1
102
RTVSPropertyOp20
70
1
102
RTVSPropertyOp21
70
1
102
RTVSPropertyOp22
70
1
102
RTVSPropertyOp23
70
1
102
RTVSPropertyOp24
70
1
102
RTVSPropertyOp25
70
1
102
RTVSPropertyOp26
70
1
102
RTVSPropertyOp27
70
1
0
XRECORD
5
1095
102
{ACAD_REACTORS
330
1094
102
}
330
1094
100
AcDbXrecord
280
1
102
RTVSPropertyOp0
70
1
102
RTVSPropertyOp1
70
1
102
RTVSPropertyOp2
70
1
102
RTVSPropertyOp3
70
1
102
RTVSPropertyOp4
70
1
102
RTVSPropertyOp5
70
1
102
RTVSPropertyOp6
70
1
102
RTVSPropertyOp7
70
1
102
RTVSPropertyOp8
70
1
102
RTVSPropertyOp9
70
1
102
RTVSPropertyOp10
70
1
102
RTVSPropertyOp11
70
1
102
RTVSPropertyOp12
70
1
102
RTVSPropertyOp13
70
1
102
RTVSPropertyOp14
70
1
102
RTVSPropertyOp15
70
1
102
RTVSPropertyOp16
70
1
102
RTVSPropertyOp17
70
1
102
RTVSPropertyOp18
70
1
102
RTVSPropertyOp19
70
1
102
RTVSPropertyOp20
70
1
102
RTVSPropertyOp21
70
1
102
RTVSPropertyOp22
70
1
102
RTVSPropertyOp23
70
1
102
RTVSPropertyOp24
70
1
102
RTVSPropertyOp25
70
1
102
RTVSPropertyOp26
70
1
102
RTVSPropertyOp27
70
1
0
XRECORD
5
10A5
102
{ACAD_REACTORS
330
10A4
102
}
330
10A4
100
AcDbXrecord
280
1
102
RTVSPropertyOp0
70
0
102
RTVSPropertyOp1
70
0
102
RTVSPropertyOp2
70
0
102
RTVSPropertyOp3
70
0
102
RTVSPropertyOp4
70
0
102
RTVSPropertyOp5
70
0
102
RTVSPropertyOp6
70
0
102
RTVSPropertyOp7
70
0
102
RTVSPropertyOp8
70
0
102
RTVSPropertyOp9
70
0
102
RTVSPropertyOp10
70
0
102
RTVSPropertyOp11
70
0
102
RTVSPropertyOp12
70
0
102
RTVSPropertyOp13
70
0
102
RTVSPropertyOp14
70
2
102
RTVSPropertyOp15
70
0
102
RTVSPropertyOp16
70
0
102
RTVSPropertyOp17
70
0
102
RTVSPropertyOp18
70
0
102
RTVSPropertyOp19
70
0
102
RTVSPropertyOp20
70
0
102
RTVSPropertyOp21
70
0
102
RTVSPropertyOp22
70
0
102
RTVSPropertyOp23
70
0
102
RTVSPropertyOp24
70
0
102
RTVSPropertyOp25
70
0
102
RTVSPropertyOp26
70
0
102
RTVSPropertyOp27
70
0
0
XRECORD
5
109D
102
{ACAD_REACTORS
330
109C
102
}
330
109C
100
AcDbXrecord
280
1
102
RTVSPropertyOp0
70
1
102
RTVSPropertyOp1
70
1
102
RTVSPropertyOp2
70
1
102
RTVSPropertyOp3
70
1
102
RTVSPropertyOp4
70
1
102
RTVSPropertyOp5
70
1
102
RTVSPropertyOp6
70
1
102
RTVSPropertyOp7
70
1
102
RTVSPropertyOp8
70
1
102
RTVSPropertyOp9
70
1
102
RTVSPropertyOp10
70
1
102
RTVSPropertyOp11
70
1
102
RTVSPropertyOp12
70
1
102
RTVSPropertyOp13
70
1
102
RTVSPropertyOp14
70
1
102
RTVSPropertyOp15
70
1
102
RTVSPropertyOp16
70
1
102
RTVSPropertyOp17
70
1
102
RTVSPropertyOp18
70
1
102
RTVSPropertyOp19
70
1
102
RTVSPropertyOp20
70
1
102
RTVSPropertyOp21
70
1
102
RTVSPropertyOp22
70
1
102
RTVSPropertyOp23
70
1
102
RTVSPropertyOp24
70
1
102
RTVSPropertyOp25
70
1
102
RTVSPropertyOp26
70
1
102
RTVSPropertyOp27
70
1
0
XRECORD
5
1081
102
{ACAD_REACTORS
330
1080
102
}
330
1080
100
AcDbXrecord
280
1
102
RTVSPropertyOp0
70
1
102
RTVSPropertyOp1
70
1
102
RTVSPropertyOp2
70
1
102
RTVSPropertyOp3
70
1
102
RTVSPropertyOp4
70
1
102
RTVSPropertyOp5
70
1
102
RTVSPropertyOp6
70
1
102
RTVSPropertyOp7
70
1
102
RTVSPropertyOp8
70
1
102
RTVSPropertyOp9
70
1
102
RTVSPropertyOp10
70
1
102
RTVSPropertyOp11
70
1
102
RTVSPropertyOp12
70
1
102
RTVSPropertyOp13
70
1
102
RTVSPropertyOp14
70
1
102
RTVSPropertyOp15
70
1
102
RTVSPropertyOp16
70
1
102
RTVSPropertyOp17
70
1
102
RTVSPropertyOp18
70
1
102
RTVSPropertyOp19
70
1
102
RTVSPropertyOp20
70
1
102
RTVSPropertyOp21
70
1
102
RTVSPropertyOp22
70
1
102
RTVSPropertyOp23
70
1
102
RTVSPropertyOp24
70
1
102
RTVSPropertyOp25
70
1
102
RTVSPropertyOp26
70
1
102
RTVSPropertyOp27
70
1
0
XRECORD
5
1083
102
{ACAD_REACTORS
330
1082
102
}
330
1082
100
AcDbXrecord
280
1
102
RTVSPropertyOp0
70
1
102
RTVSPropertyOp1
70
1
102
RTVSPropertyOp2
70
1
102
RTVSPropertyOp3
70
1
102
RTVSPropertyOp4
70
1
102
RTVSPropertyOp5
70
1
102
RTVSPropertyOp6
70
1
102
RTVSPropertyOp7
70
1
102
RTVSPropertyOp8
70
1
102
RTVSPropertyOp9
70
1
102
RTVSPropertyOp10
70
1
102
RTVSPropertyOp11
70
1
102
RTVSPropertyOp12
70
1
102
RTVSPropertyOp13
70
1
102
RTVSPropertyOp14
70
1
102
RTVSPropertyOp15
70
1
102
RTVSPropertyOp16
70
1
102
RTVSPropertyOp17
70
1
102
RTVSPropertyOp18
70
1
102
RTVSPropertyOp19
70
1
102
RTVSPropertyOp20
70
1
102
RTVSPropertyOp21
70
1
102
RTVSPropertyOp22
70
1
102
RTVSPropertyOp23
70
1
102
RTVSPropertyOp24
70
1
102
RTVSPropertyOp25
70
1
102
RTVSPropertyOp26
70
1
102
RTVSPropertyOp27
70
1
0
XRECORD
5
1085
102
{ACAD_REACTORS
330
1084
102
}
330
1084
100
AcDbXrecord
280
1
102
RTVSPropertyOp0
70
1
102
RTVSPropertyOp1
70
1
102
RTVSPropertyOp2
70
1
102
RTVSPropertyOp3
70
1
102
RTVSPropertyOp4
70
1
102
RTVSPropertyOp5
70
1
102
RTVSPropertyOp6
70
1
102
RTVSPropertyOp7
70
1
102
RTVSPropertyOp8
70
1
102
RTVSPropertyOp9
70
1
102
RTVSPropertyOp10
70
1
102
RTVSPropertyOp11
70
1
102
RTVSPropertyOp12
70
1
102
RTVSPropertyOp13
70
1
102
RTVSPropertyOp14
70
1
102
RTVSPropertyOp15
70
1
102
RTVSPropertyOp16
70
1
102
RTVSPropertyOp17
70
1
102
RTVSPropertyOp18
70
1
102
RTVSPropertyOp19
70
1
102
RTVSPropertyOp20
70
1
102
RTVSPropertyOp21
70
1
102
RTVSPropertyOp22
70
1
102
RTVSPropertyOp23
70
1
102
RTVSPropertyOp24
70
1
102
RTVSPropertyOp25
70
1
102
RTVSPropertyOp26
70
1
102
RTVSPropertyOp27
70
1
0
XRECORD
5
1087
102
{ACAD_REACTORS
330
1086
102
}
330
1086
100
AcDbXrecord
280
1
102
RTVSPropertyOp0
70
1
102
RTVSPropertyOp1
70
1
102
RTVSPropertyOp2
70
1
102
RTVSPropertyOp3
70
1
102
RTVSPropertyOp4
70
1
102
RTVSPropertyOp5
70
1
102
RTVSPropertyOp6
70
1
102
RTVSPropertyOp7
70
1
102
RTVSPropertyOp8
70
1
102
RTVSPropertyOp9
70
1
102
RTVSPropertyOp10
70
1
102
RTVSPropertyOp11
70
1
102
RTVSPropertyOp12
70
1
102
RTVSPropertyOp13
70
1
102
RTVSPropertyOp14
70
1
102
RTVSPropertyOp15
70
1
102
RTVSPropertyOp16
70
1
102
RTVSPropertyOp17
70
1
102
RTVSPropertyOp18
70
1
102
RTVSPropertyOp19
70
1
102
RTVSPropertyOp20
70
1
102
RTVSPropertyOp21
70
1
102
RTVSPropertyOp22
70
1
102
RTVSPropertyOp23
70
1
102
RTVSPropertyOp24
70
1
102
RTVSPropertyOp25
70
1
102
RTVSPropertyOp26
70
1
102
RTVSPropertyOp27
70
1
0
XRECORD
5
10A1
102
{ACAD_REACTORS
330
10A0
102
}
330
10A0
100
AcDbXrecord
280
1
102
RTVSPropertyOp0
70
0
102
RTVSPropertyOp1
70
0
102
RTVSPropertyOp2
70
0
102
RTVSPropertyOp3
70
0
102
RTVSPropertyOp4
70
0
102
RTVSPropertyOp5
70
0
102
RTVSPropertyOp6
70
0
102
RTVSPropertyOp7
70
0
102
RTVSPropertyOp8
70
0
102
RTVSPropertyOp9
70
0
102
RTVSPropertyOp10
70
0
102
RTVSPropertyOp11
70
0
102
RTVSPropertyOp12
70
0
102
RTVSPropertyOp13
70
0
102
RTVSPropertyOp14
70
2
102
RTVSPropertyOp15
70
0
102
RTVSPropertyOp16
70
0
102
RTVSPropertyOp17
70
0
102
RTVSPropertyOp18
70
0
102
RTVSPropertyOp19
70
0
102
RTVSPropertyOp20
70
0
102
RTVSPropertyOp21
70
0
102
RTVSPropertyOp22
70
0
102
RTVSPropertyOp23
70
0
102
RTVSPropertyOp24
70
0
102
RTVSPropertyOp25
70
0
102
RTVSPropertyOp26
70
0
102
RTVSPropertyOp27
70
0
0
XRECORD
5
109B
102
{ACAD_REACTORS
330
109A
102
}
330
109A
100
AcDbXrecord
280
1
102
RTVSPropertyOp0
70
1
102
RTVSPropertyOp1
70
1
102
RTVSPropertyOp2
70
1
102
RTVSPropertyOp3
70
1
102
RTVSPropertyOp4
70
1
102
RTVSPropertyOp5
70
1
102
RTVSPropertyOp6
70
1
102
RTVSPropertyOp7
70
1
102
RTVSPropertyOp8
70
1
102
RTVSPropertyOp9
70
1
102
RTVSPropertyOp10
70
1
102
RTVSPropertyOp11
70
1
102
RTVSPropertyOp12
70
1
102
RTVSPropertyOp13
70
1
102
RTVSPropertyOp14
70
1
102
RTVSPropertyOp15
70
1
102
RTVSPropertyOp16
70
1
102
RTVSPropertyOp17
70
1
102
RTVSPropertyOp18
70
1
102
RTVSPropertyOp19
70
1
102
RTVSPropertyOp20
70
1
102
RTVSPropertyOp21
70
1
102
RTVSPropertyOp22
70
1
102
RTVSPropertyOp23
70
1
102
RTVSPropertyOp24
70
1
102
RTVSPropertyOp25
70
1
102
RTVSPropertyOp26
70
1
102
RTVSPropertyOp27
70
1
0
XRECORD
5
10A3
102
{ACAD_REACTORS
330
10A2
102
}
330
10A2
100
AcDbXrecord
280
1
102
RTVSPropertyOp0
70
0
102
RTVSPropertyOp1
70
0
102
RTVSPropertyOp2
70
0
102
RTVSPropertyOp3
70
0
102
RTVSPropertyOp4
70
0
102
RTVSPropertyOp5
70
0
102
RTVSPropertyOp6
70
0
102
RTVSPropertyOp7
70
0
102
RTVSPropertyOp8
70
0
102
RTVSPropertyOp9
70
0
102
RTVSPropertyOp10
70
0
102
RTVSPropertyOp11
70
0
102
RTVSPropertyOp12
70
0
102
RTVSPropertyOp13
70
0
102
RTVSPropertyOp14
70
2
102
RTVSPropertyOp15
70
0
102
RTVSPropertyOp16
70
0
102
RTVSPropertyOp17
70
0
102
RTVSPropertyOp18
70
0
102
RTVSPropertyOp19
70
0
102
RTVSPropertyOp20
70
0
102
RTVSPropertyOp21
70
0
102
RTVSPropertyOp22
70
0
102
RTVSPropertyOp23
70
0
102
RTVSPropertyOp24
70
0
102
RTVSPropertyOp25
70
0
102
RTVSPropertyOp26
70
0
102
RTVSPropertyOp27
70
0
0
XRECORD
5
1093
102
{ACAD_REACTORS
330
1092
102
}
330
1092
100
AcDbXrecord
280
1
102
RTVSPropertyOp0
70
1
102
RTVSPropertyOp1
70
1
102
RTVSPropertyOp2
70
1
102
RTVSPropertyOp3
70
1
102
RTVSPropertyOp4
70
1
102
RTVSPropertyOp5
70
1
102
RTVSPropertyOp6
70
1
102
RTVSPropertyOp7
70
1
102
RTVSPropertyOp8
70
1
102
RTVSPropertyOp9
70
1
102
RTVSPropertyOp10
70
1
102
RTVSPropertyOp11
70
1
102
RTVSPropertyOp12
70
1
102
RTVSPropertyOp13
70
1
102
RTVSPropertyOp14
70
1
102
RTVSPropertyOp15
70
1
102
RTVSPropertyOp16
70
1
102
RTVSPropertyOp17
70
1
102
RTVSPropertyOp18
70
1
102
RTVSPropertyOp19
70
1
102
RTVSPropertyOp20
70
1
102
RTVSPropertyOp21
70
1
102
RTVSPropertyOp22
70
1
102
RTVSPropertyOp23
70
1
102
RTVSPropertyOp24
70
1
102
RTVSPropertyOp25
70
1
102
RTVSPropertyOp26
70
1
102
RTVSPropertyOp27
70
1
0
XRECORD
5
1099
102
{ACAD_REACTORS
330
1098
102
}
330
1098
100
AcDbXrecord
280
1
102
RTVSPropertyOp0
70
1
102
RTVSPropertyOp1
70
1
102
RTVSPropertyOp2
70
1
102
RTVSPropertyOp3
70
1
102
RTVSPropertyOp4
70
1
102
RTVSPropertyOp5
70
1
102
RTVSPropertyOp6
70
1
102
RTVSPropertyOp7
70
1
102
RTVSPropertyOp8
70
1
102
RTVSPropertyOp9
70
1
102
RTVSPropertyOp10
70
1
102
RTVSPropertyOp11
70
1
102
RTVSPropertyOp12
70
1
102
RTVSPropertyOp13
70
1
102
RTVSPropertyOp14
70
1
102
RTVSPropertyOp15
70
1
102
RTVSPropertyOp16
70
1
102
RTVSPropertyOp17
70
1
102
RTVSPropertyOp18
70
1
102
RTVSPropertyOp19
70
1
102
RTVSPropertyOp20
70
1
102
RTVSPropertyOp21
70
1
102
RTVSPropertyOp22
70
1
102
RTVSPropertyOp23
70
1
102
RTVSPropertyOp24
70
1
102
RTVSPropertyOp25
70
1
102
RTVSPropertyOp26
70
1
102
RTVSPropertyOp27
70
1
0
ENDSEC
0
EOF
