0
SECTION
2
HEADER
9
$ACADVER
1
AC1015
9
$ACADMAINTVER
70
20
9
$DWGCODEPAGE
3
ANSI_1252
9
$INSBASE
10
0.0
20
0.0
30
0.0
9
$EXTMIN
10
-150.000000000000
20
-105.000000000000
30
0.0
9
$EXTMAX
10
150.000000000000
20
105.000000000000
30
0.0
9
$LIMMIN
10
0.0
20
0.0
9
$LIMMAX
10
12.0
20
9.0
9
$ORTHOMODE
70
0
9
$REGENMODE
70
1
9
$FILLMODE
70
1
9
$QTEXTMODE
70
0
9
$MIRRTEXT
70
1
9
$LTSCALE
40
1.0
9
$ATTMODE
70
1
9
$TEXTSIZE
40
0.2
9
$TRACEWID
40
0.05
9
$TEXTSTYLE
7
Standard
9
$CLAYER
8
0
9
$CELTYPE
6
ByLayer
9
$CECOLOR
62
256
9
$CELTSCALE
40
1.0
9
$DISPSILH
70
0
9
$DIMSCALE
40
1.0
9
$DIMASZ
40
2.5
9
$DIMEXO
40
0.625
9
$DIMDLI
40
0.38
9
$DIMRND
40
0.0
9
$DIMDLE
40
0.0
9
$DIMEXE
40
1.25
9
$DIMTP
40
0.0
9
$DIMTM
40
0.000000001
9
$DIMTXT
40
2.5
9
$DIMCEN
40
0.09
9
$DIMTSZ
40
0.0
9
$DIMTOL
70
1
9
$DIMLIM
70
0
9
$DIMTIH
70
0
9
$DIMTOH
70
0
9
$DIMSE1
70
0
9
$DIMSE2
70
0
9
$DIMTAD
70
1
9
$DIMZIN
70
0
9
$DIMBLK
1
VDDIM_DEFAULT
9
$DIMASO
70
1
9
$DIMSHO
70
1
9
$DIMPOST
1

9
$DIMAPOST
1

9
$DIMALT
70
0
9
$DIMALTD
70
2
9
$DIMALTF
40
25.4
9
$DIMLFAC
40
1.00000000000000
9
$DIMTOFL
70
0
9
$DIMTVP
40
0.0
9
$DIMTIX
70
0
9
$DIMSOXD
70
0
9
$DIMSAH
70
0
9
$DIMBLK1
1

9
$DIMBLK2
1

9
$DIMSTYLE
2
BEM-ISBE
9
$DIMCLRD
70
0
9
$DIMCLRE
70
0
9
$DIMCLRT
70
0
9
$DIMTFAC
40
0.5
9
$DIMGAP
40
0.625
9
$DIMJUST
70
0
9
$DIMSD1
70
0
9
$DIMSD2
70
0
9
$DIMTOLJ
70
1
9
$DIMTZIN
70
0
9
$DIMALTZ
70
0
9
$DIMALTTZ
70
0
9
$DIMUPT
70
0
9
$DIMDEC
70
3
9
$DIMTDEC
70
3
9
$DIMALTU
70
2
9
$DIMALTTD
70
2
9
$DIMTXSTY
7
Standard
9
$DIMAUNIT
70
0
9
$DIMADEC
70
3
9
$DIMALTRND
40
0.0
9
$DIMAZIN
70
0
9
$DIMDSEP
70
46
9
$DIMATFIT
70
3
9
$DIMFRAC
70
0
9
$DIMLDRBLK
1

9
$DIMLUNIT
70
2
9
$DIMLWD
70
-2
9
$DIMLWE
70
-2
9
$DIMTMOVE
70
0
9
$LUNITS
70
2
9
$LUPREC
70
4
9
$SKETCHINC
40
0.1
9
$FILLETRAD
40
0.5
9
$AUNITS
70
0
9
$AUPREC
70
0
9
$MENU
1
.
9
$ELEVATION
40
0.0
9
$PELEVATION
40
0.0
9
$THICKNESS
40
0.0
9
$LIMCHECK
70
0
9
$CHAMFERA
40
0.5
9
$CHAMFERB
40
0.5
9
$CHAMFERC
40
1.0
9
$CHAMFERD
40
0.0
9
$SKPOLY
70
0
9
$TDCREATE
40
0.0
9
$TDUCREATE
40
0.0
9
$TDUPDATE
40
0.0
9
$TDUUPDATE
40
0.0
9
$TDINDWG
40
0.0
9
$TDUSRTIMER
40
0.0
9
$USRTIMER
70
1
9
$ANGBASE
50
0.0
9
$ANGDIR
70
0
9
$PDMODE
70
0
9
$PDSIZE
40
0.0
9
$PLINEWID
40
0.0
9
$SPLFRAME
70
0
9
$SPLINETYPE
70
6
9
$SPLINESEGS
70
8
9
$HANDSEED
5
10AB
9
$SURFTAB1
70
6
9
$SURFTAB2
70
6
9
$SURFTYPE
70
6
9
$SURFU
70
6
9
$SURFV
70
6
9
$UCSBASE
2

9
$UCSNAME
2

9
$UCSORG
10
0.0
20
0.0
30
0.0
9
$UCSXDIR
10
1.0
20
0.0
30
0.0
9
$UCSYDIR
10
0.0
20
1.0
30
0.0
9
$UCSORTHOREF
2

9
$UCSORTHOVIEW
70
0
9
$UCSORGTOP
10
0.0
20
0.0
30
0.0
9
$UCSORGBOTTOM
10
0.0
20
0.0
30
0.0
9
$UCSORGLEFT
10
0.0
20
0.0
30
0.0
9
$UCSORGRIGHT
10
0.0
20
0.0
30
0.0
9
$UCSORGFRONT
10
0.0
20
0.0
30
0.0
9
$UCSORGBACK
10
0.0
20
0.0
30
0.0
9
$PUCSBASE
2

9
$PUCSNAME
2

9
$PUCSORG
10
0.0
20
0.0
30
0.0
9
$PUCSXDIR
10
1.0
20
0.0
30
0.0
9
$PUCSYDIR
10
0.0
20
1.0
30
0.0
9
$PUCSORTHOREF
2

9
$PUCSORTHOVIEW
70
0
9
$PUCSORGTOP
10
0.0
20
0.0
30
0.0
9
$PUCSORGBOTTOM
10
0.0
20
0.0
30
0.0
9
$PUCSORGLEFT
10
0.0
20
0.0
30
0.0
9
$PUCSORGRIGHT
10
0.0
20
0.0
30
0.0
9
$PUCSORGFRONT
10
0.0
20
0.0
30
0.0
9
$PUCSORGBACK
10
0.0
20
0.0
30
0.0
9
$USERI1
70
0
9
$USERI2
70
0
9
$USERI3
70
0
9
$USERI4
70
0
9
$USERI5
70
0
9
$USERR1
40
0.0
9
$USERR2
40
0.0
9
$USERR3
40
0.0
9
$USERR4
40
0.0
9
$USERR5
40
0.0
9
$WORLDVIEW
70
1
9
$SHADEDGE
70
3
9
$SHADEDIF
70
70
9
$TILEMODE
70
1
9
$MAXACTVP
70
64
9
$PINSBASE
10
0.0
20
0.0
30
0.0
9
$PLIMCHECK
70
0
9
$PEXTMIN
10
1.000000000000000E+20
20
1.000000000000000E+20
30
1.000000000000000E+20
9
$PEXTMAX
10
-1.000000000000000E+20
20
-1.000000000000000E+20
30
-1.000000000000000E+20
9
$PLIMMIN
10
0.0
20
0.0
9
$PLIMMAX
10
12.0
20
9.0
9
$UNITMODE
70
0
9
$VISRETAIN
70
1
9
$PLINEGEN
70
0
9
$PSLTSCALE
70
1
9
$TREEDEPTH
70
3020
9
$CMLSTYLE
2
Standard
9
$CMLJUST
70
0
9
$CMLSCALE
40
1.0
9
$PROXYGRAPHICS
70
1
9
$MEASUREMENT
70
0
9
$CELWEIGHT
370
-1
9
$ENDCAPS
280
0
9
$JOINSTYLE
280
0
9
$LWDISPLAY
290
0
9
$INSUNITS
70
4
9
$HYPERLINKBASE
1

9
$STYLESHEET
1

9
$XEDIT
290
1
9
$CEPSNTYPE
380
0
9
$PSTYLEMODE
290
0
9
$FINGERPRINTGUID
2
{FAEB1C30-E019-11D5-929B-00C0DF256EC4}
9
$VERSIONGUID
2
{04C5C4E4-4947-4D90-8812-D401569E61F7}
9
$EXTNAMES
290
1
9
$PSVPSCALE
40
0.0
9
$OLESTARTUP
290
0
0
ENDSEC
0
SECTION
2
CLASSES
0
CLASS
1
ACDBDICTIONARYWDFLT
2
AcDbDictionaryWithDefault
3
ObjectDBX Classes
90
0
280
0
281
0
0
CLASS
1
ACDBPLACEHOLDER
2
AcDbPlaceHolder
3
ObjectDBX Classes
90
0
280
0
281
0
0
CLASS
1
LAYOUT
2
AcDbLayout
3
ObjectDBX Classes
90
0
280
0
281
0
0
CLASS
1
MATERIAL
2
AcDbMaterial
3
ObjectDBX Classes
90
1153
280
0
281
0
0
CLASS
1
VISUALSTYLE
2
AcDbVisualStyle
3
ObjectDBX Classes
90
4095
280
0
281
0
0
CLASS
1
TABLESTYLE
2
AcDbTableStyle
3
ObjectDBX Classes
90
4095
280
0
281
0
0
CLASS
1
SCALE
2
AcDbScale
3
ObjectDBX Classes
90
1153
280
0
281
0
0
CLASS
1
MLEADERSTYLE
2
AcDbMLeaderStyle
3
ACDB_MLEADERSTYLE_CLASS
90
4095
280
0
281
0
0
CLASS
1
DICTIONARYVAR
2
AcDbDictionaryVar
3
ObjectDBX Classes
90
0
280
0
281
0
0
CLASS
1
CELLSTYLEMAP
2
AcDbCellStyleMap
3
ObjectDBX Classes
90
1152
280
0
281
0
0
ENDSEC
0
SECTION
2
TABLES
0
TABLE
2
VPORT
5
24A
330
0
100
AcDbSymbolTable
70
1
0
VPORT
5
26B
330
24A
100
AcDbSymbolTableRecord
100
AcDbViewportTableRecord
2
*Active
70
0
10
0.0
20
0.0
11
1.0
21
1.0
12
0.000000000000000
22
0.000000000000000
13
0.0
23
0.0
14
10.0
24
10.0
15
10.0
25
10.0
16
0.0
26
0.0
36
1.0
17
0.0
27
0.0
37
0.0
40
210.000000000000
41
1.42857142857143
42
1.0
43
0.0
44
0.0
50
0.0
51
0.0000000000007958
71
0
72
100
73
1
74
3
75
0
76
0
77
0
78
1
281
0
65
1
110
0.0
120
0.0
130
0.0
111
1.0
121
0.0
131
0.0
112
0.0
122
1.0
132
0.0
79
0
146
0.0
0
ENDTAB
0
TABLE
2
LTYPE
5
247
330
0
100
AcDbSymbolTable
70
25
0
LTYPE
5
256
330
247
100
AcDbSymbolTableRecord
100
AcDbLinetypeTableRecord
2
ByBlock
70
0
3

72
65
73
0
40
0.0
0
LTYPE
5
257
330
247
100
AcDbSymbolTableRecord
100
AcDbLinetypeTableRecord
2
ByLayer
70
0
3

72
65
73
0
40
0.0
0
LTYPE
5
258
330
247
100
AcDbSymbolTableRecord
100
AcDbLinetypeTableRecord
2
Continuous
70
0
3
Solid line
72
65
73
0
40
0.0
0
LTYPE
5
273
330
247
100
AcDbSymbolTableRecord
100
AcDbLinetypeTableRecord
2
CENTER
70
0
3
Center ____ _ ____ _ ____ _ ____ _ ____ _ ____
72
65
73
4
40
2.0
49
1.25
74
0
49
-0.25
74
0
49
0.25
74
0
49
-0.25
74
0
0
LTYPE
5
274
330
247
100
AcDbSymbolTableRecord
100
AcDbLinetypeTableRecord
2
DASHDOT
70
0
3
Dashdot __ . __ . __ . __ . __ . __ . __ . __
72
65
73
4
40
1.0
49
0.5
74
0
49
-0.25
74
0
49
0.0
74
0
49
-0.25
74
0
0
LTYPE
5
275
330
247
100
AcDbSymbolTableRecord
100
AcDbLinetypeTableRecord
2
DASHED
70
0
3
Dashed __ __ __ __ __ __ __ __ __ __ __ __ __ _
72
65
73
2
40
0.75
49
0.5
74
0
49
-0.25
74
0
0
LTYPE
5
276
330
247
100
AcDbSymbolTableRecord
100
AcDbLinetypeTableRecord
2
HIDDEN
70
0
3
Hidden __ __ __ __ __ __ __ __ __ __ __ __ __ __
72
65
73
2
40
0.375
49
0.25
74
0
49
-0.125
74
0
0
LTYPE
5
277
330
247
100
AcDbSymbolTableRecord
100
AcDbLinetypeTableRecord
2
HIDDEN2
70
0
3
Hidden2 _ _ _ _ _ _ _ _ _ _ _ _ _ _ _ _ _
72
65
73
2
40
0.1875
49
0.125
74
0
49
-0.0625
74
0
0
LTYPE
5
278
330
247
100
AcDbSymbolTableRecord
100
AcDbLinetypeTableRecord
2
BORDER
70
0
3
Border __ __ . __ __ . __ __ . __ __ . __ __ .
72
65
73
6
40
1.75
49
0.5
74
0
49
-0.25
74
0
49
0.5
74
0
49
-0.25
74
0
49
0.0
74
0
49
-0.25
74
0
0
LTYPE
5
279
330
247
100
AcDbSymbolTableRecord
100
AcDbLinetypeTableRecord
2
BORDER2
70
0
3
Border2 __.__.__.__.__.__.__.__.__.__.__.
72
65
73
6
40
0.875
49
0.25
74
0
49
-0.125
74
0
49
0.25
74
0
49
-0.125
74
0
49
0.0
74
0
49
-0.125
74
0
0
LTYPE
5
27A
330
247
100
AcDbSymbolTableRecord
100
AcDbLinetypeTableRecord
2
BORDERX2
70
0
3
Borderx2  ____  ____  .  ____  ____  .  ___
72
65
73
6
40
3.5
49
1.0
74
0
49
-0.5
74
0
49
1.0
74
0
49
-0.5
74
0
49
0.0
74
0
49
-0.5
74
0
0
LTYPE
5
27B
330
247
100
AcDbSymbolTableRecord
100
AcDbLinetypeTableRecord
2
CENTER2
70
0
3
Center2  ___ _ ___ _ ___ _ ___ _ ___ _ ___
72
65
73
4
40
1.125
49
0.75
74
0
49
-0.125
74
0
49
0.125
74
0
49
-0.125
74
0
0
LTYPE
5
27C
330
247
100
AcDbSymbolTableRecord
100
AcDbLinetypeTableRecord
2
CENTERX2
70
0
3
Centerx2  ________  __  ________  __  _____
72
65
73
4
40
4.0
49
2.5
74
0
49
-0.5
74
0
49
0.5
74
0
49
-0.5
74
0
0
LTYPE
5
27D
330
247
100
AcDbSymbolTableRecord
100
AcDbLinetypeTableRecord
2
DASHDOT2
70
0
3
Dashdot2  _._._._._._._._._._._._._._._.
72
65
73
4
40
0.5
49
0.25
74
0
49
-0.125
74
0
49
0.0
74
0
49
-0.125
74
0
0
LTYPE
5
27E
330
247
100
AcDbSymbolTableRecord
100
AcDbLinetypeTableRecord
2
DASHDOTX2
70
0
3
Dashdotx2 ____  .  ____  .  ____  .  ___
72
65
73
4
40
2.0
49
1.0
74
0
49
-0.5
74
0
49
0.0
74
0
49
-0.5
74
0
0
LTYPE
5
27F
330
247
100
AcDbSymbolTableRecord
100
AcDbLinetypeTableRecord
2
DASHED2
70
0
3
Dashed2 _ _ _ _ _ _ _ _ _ _ _ _ _ _ _ _ _
72
65
73
2
40
0.375
49
0.25
74
0
49
-0.125
74
0
0
LTYPE
5
280
330
247
100
AcDbSymbolTableRecord
100
AcDbLinetypeTableRecord
2
DASHEDX2
70
0
3
Dashedx2 ____  ____  ____  ____  ____  ___
72
65
73
2
40
1.5
49
1.0
74
0
49
-0.5
74
0
0
LTYPE
5
281
330
247
100
AcDbSymbolTableRecord
100
AcDbLinetypeTableRecord
2
DIVIDE
70
0
3
Divide ____ . . ____ . . ____ . . ____ . . ____
72
65
73
6
40
1.25
49
0.5
74
0
49
-0.25
74
0
49
0.0
74
0
49
-0.25
74
0
49
0.0
74
0
49
-0.25
74
0
0
LTYPE
5
282
330
247
100
AcDbSymbolTableRecord
100
AcDbLinetypeTableRecord
2
DIVIDE2
70
0
3
Divide2 __..__..__..__..__..__..__..__.._
72
65
73
6
40
0.625
49
0.25
74
0
49
-0.125
74
0
49
0.0
74
0
49
-0.125
74
0
49
0.0
74
0
49
-0.125
74
0
0
LTYPE
5
283
330
247
100
AcDbSymbolTableRecord
100
AcDbLinetypeTableRecord
2
DIVIDEX2
70
0
3
Dividex2 ________  .  .  ________  .  .  _
72
65
73
6
40
2.5
49
1.0
74
0
49
-0.5
74
0
49
0.0
74
0
49
-0.5
74
0
49
0.0
74
0
49
-0.5
74
0
0
LTYPE
5
284
330
247
100
AcDbSymbolTableRecord
100
AcDbLinetypeTableRecord
2
DOT
70
0
3
Dot . . . . . . . . . . . . . . . . . . . . . . . .
72
65
73
2
40
0.25
49
0.0
74
0
49
-0.25
74
0
0
LTYPE
5
285
330
247
100
AcDbSymbolTableRecord
100
AcDbLinetypeTableRecord
2
DOT2
70
0
3
Dot2 ........................................
72
65
73
2
40
0.125
49
0.0
74
0
49
-0.125
74
0
0
LTYPE
5
286
330
247
100
AcDbSymbolTableRecord
100
AcDbLinetypeTableRecord
2
DOTX2
70
0
3
Dotx2 .  .  .  .  .  .  .  .  .  .  .  .  .  .
72
65
73
2
40
0.5
49
0.0
74
0
49
-0.5
74
0
0
LTYPE
5
287
330
247
100
AcDbSymbolTableRecord
100
AcDbLinetypeTableRecord
2
HIDDENX2
70
0
3
Hiddenx2 ____ ____ ____ ____ ____ ____ ____
72
65
73
2
40
0.75
49
0.5
74
0
49
-0.25
74
0
0
LTYPE
5
288
330
247
100
AcDbSymbolTableRecord
100
AcDbLinetypeTableRecord
2
PHANTOM
70
0
3
Phantom ______  __  __  ______  __  __  ______
72
65
73
6
40
2.5
49
1.25
74
0
49
-0.25
74
0
49
0.25
74
0
49
-0.25
74
0
49
0.25
74
0
49
-0.25
74
0
0
LTYPE
5
289
330
247
100
AcDbSymbolTableRecord
100
AcDbLinetypeTableRecord
2
PHANTOM2
70
0
3
Phantom2 ___ _ _ ___ _ _ ___ _ _ ___ _ _
72
65
73
6
40
1.25
49
0.625
74
0
49
-0.125
74
0
49
0.125
74
0
49
-0.125
74
0
49
0.125
74
0
49
-0.125
74
0
0
LTYPE
5
28A
330
247
100
AcDbSymbolTableRecord
100
AcDbLinetypeTableRecord
2
PHANTOMX2
70
0
3
Phantomx2 ____________    ____    ____   _
72
65
73
6
40
5.0
49
2.5
74
0
49
-0.5
74
0
49
0.5
74
0
49
-0.5
74
0
49
0.5
74
0
49
-0.5
74
0
0
ENDTAB
0
TABLE
2
LAYER
5
244
330
0
100
AcDbSymbolTable
70
6
0
LAYER
5
252
330
244
100
AcDbSymbolTableRecord
100
AcDbLayerTableRecord
2
0
70
0
62
7
6
Continuous
370
0
390
251
0
LAYER
5
23F
330
244
100
AcDbSymbolTableRecord
100
AcDbLayerTableRecord
2
Bemassung
70
0
 62
   7
6
Continuous
370
0
390
251
0
LAYER
5
240
330
244
100
AcDbSymbolTableRecord
100
AcDbLayerTableRecord
2
Rahmen
70
0
 62
   7
6
Continuous
370
0
390
251
0
LAYER
5
241
330
244
100
AcDbSymbolTableRecord
100
AcDbLayerTableRecord
2
Geo
70
0
 62
   7
6
Continuous
370
0
390
251
0
LAYER
5
33A
330
244
100
AcDbSymbolTableRecord
100
AcDbLayerTableRecord
2
Defpoints
70
0
62
7
6
Continuous
290
0
370
-3
390
251
0
LAYER
5
57E
330
244
100
AcDbSymbolTableRecord
100
AcDbLayerTableRecord
2
Text
70
0
 62
   7
6
Continuous
370
0
390
251
1001
AcAecLayerStandard
1000

1000

0
ENDTAB
0
TABLE
2
STYLE
5
245
330
0
100
AcDbSymbolTable
70
2
0
STYLE
5
253
330
245
100
AcDbSymbolTableRecord
100
AcDbTextStyleTableRecord
2
Standard
70
0
40
0.0
41
1.0
50
0.0
71
0
42
0.2
3
Arial
4

1001
ACAD
1000
Arial
1071
0
0
STYLE
5
132
330
245
100
AcDbSymbolTableRecord
100
AcDbTextStyleTableRecord
2
Beschriftung
70
0
40
0.0
41
1.0
50
0.0
71
0
42
0.2
3
Arial
4

1001
ACAD
1000
Arial
1071
0
1001
AcadAnnotative
1000
AnnotativeData
1070
1
1070
1
0
ENDTAB
0
TABLE
2
VIEW
5
248
330
0
100
AcDbSymbolTable
70
0
0
ENDTAB
0
TABLE
2
UCS
5
249
330
0
100
AcDbSymbolTable
70
0
0
ENDTAB
0
TABLE
2
APPID
5
24B
330
0
100
AcDbSymbolTable
70
13
0
APPID
5
254
330
24B
100
AcDbSymbolTableRecord
100
AcDbRegAppTableRecord
2
ACAD
70
0
0
APPID
5
26C
330
24B
100
AcDbSymbolTableRecord
100
AcDbRegAppTableRecord
2
VD_INVISIBLE_NOT_FOR_READ
70
0
0
APPID
5
26D
330
24B
100
AcDbSymbolTableRecord
100
AcDbRegAppTableRecord
2
VD_TEMPHATCH
70
0
0
APPID
5
26E
330
24B
100
AcDbSymbolTableRecord
100
AcDbRegAppTableRecord
2
VDEXTRAPARAM
70
0
0
APPID
5
26F
330
24B
100
AcDbSymbolTableRecord
100
AcDbRegAppTableRecord
2
PE_URL
70
0
0
APPID
5
270
330
24B
100
AcDbSymbolTableRecord
100
AcDbRegAppTableRecord
2
VD_UNKNOWN
70
0
0
APPID
5
28F
330
24B
100
AcDbSymbolTableRecord
100
AcDbRegAppTableRecord
2
AcadAnnotative
70
0
0
APPID
5
290
330
24B
100
AcDbSymbolTableRecord
100
AcDbRegAppTableRecord
2
ACAD_DSTYLE_DIMJAG
70
0
0
APPID
5
291
330
24B
100
AcDbSymbolTableRecord
100
AcDbRegAppTableRecord
2
ACAD_DSTYLE_DIMTALN
70
0
0
APPID
5
293
330
24B
100
AcDbSymbolTableRecord
100
AcDbRegAppTableRecord
2
ACAD_PSEXT
70
0
0
APPID
5
42A
330
24B
100
AcDbSymbolTableRecord
100
AcDbRegAppTableRecord
2
ACAD_MLEADERVER
70
0
0
APPID
5
532
330
24B
100
AcDbSymbolTableRecord
100
AcDbRegAppTableRecord
2
ACAD_EXEMPT_FROM_CAD_STANDARDS
70
0
0
APPID
5
57F
330
24B
100
AcDbSymbolTableRecord
100
AcDbRegAppTableRecord
2
AcAecLayerStandard
70
0
0
ENDTAB
0
TABLE
2
DIMSTYLE
5
24C
330
0
100
AcDbSymbolTable
70
3
100
AcDbDimStyleTable
71
2
340
27
340
269
0
DIMSTYLE
105
269
330
24C
100
AcDbSymbolTableRecord
100
AcDbDimStyleTableRecord
2
Standard
70
0
172
1
174
1
288
1
340
253
342
23C
0
DIMSTYLE
105
137
330
24C
100
AcDbSymbolTableRecord
100
AcDbDimStyleTableRecord
2
Beschriftung
70
0
41
2.5
42
0.625
44
1.25
73
0
74
0
77
1
140
2.5
147
0.625
172
1
174
1
271
2
288
1
340
253
342
23C
1001
AcadAnnotative
1000
AnnotativeData
1070
1
1070
1
1001
ACAD_DSTYLE_DIMJAG
1070
388
1040
1.5
1001
ACAD_DSTYLE_DIMTALN
1070
392
1070
0
0
DIMSTYLE
105
27
102
{ACAD_REACTORS
330
F10008
330
F1000D
330
F10003
330
F10012
102
}
330
24C
100
AcDbSymbolTableRecord
100
AcDbDimStyleTableRecord
2
BEM-ISBE
70
0
41
2.5
42
0.625
44
1.25
48
0.000000001
71
1
73
0
74
0
77
1
140
2.5
144
1.00000000000000
146
0.5
147
0.625
171
 3
172
 1
179
 3
271
 3
272
 3
274
 3
340
253
342
23C
1001
ACAD_DSTYLE_DIMJAG
1070
388
1040
1.5
1001
ACAD_DSTYLE_DIMTALN
1070
392
1070
1
0
ENDTAB
0
TABLE
2
BLOCK_RECORD
5
243
330
0
100
AcDbSymbolTable
70
5
0
BLOCK_RECORD
5
261
330
243
100
AcDbSymbolTableRecord
100
AcDbBlockTableRecord
2
*Model_Space
340
FD0
0
BLOCK_RECORD
5
25D
330
243
100
AcDbSymbolTableRecord
100
AcDbBlockTableRecord
2
*Paper_Space
340
FD1
0
BLOCK_RECORD
5
265
330
243
100
AcDbSymbolTableRecord
100
AcDbBlockTableRecord
2
*Paper_Space0
340
0
0
BLOCK_RECORD
5
23C
330
243
100
AcDbSymbolTableRecord
100
AcDbBlockTableRecord
2
VDDIM_DEFAULT
340
0
102
{BLKREFS
102
}
0
BLOCK_RECORD
5
23E
330
243
100
AcDbSymbolTableRecord
100
AcDbBlockTableRecord
2
VDDIM_NONE
340
0
0
BLOCK_RECORD
5
F10007
330
243
100
AcDbSymbolTableRecord
100
AcDbBlockTableRecord
2
*D4
340
0
0
BLOCK_RECORD
5
F1000C
330
243
100
AcDbSymbolTableRecord
100
AcDbBlockTableRecord
2
*D5
340
0
0
BLOCK_RECORD
5
F10002
330
243
100
AcDbSymbolTableRecord
100
AcDbBlockTableRecord
2
*D3
340
0
0
BLOCK_RECORD
5
F10011
330
243
100
AcDbSymbolTableRecord
100
AcDbBlockTableRecord
2
*D6
340
0
0
ENDTAB
0
ENDSEC
0
SECTION
2
BLOCKS
0
BLOCK
5
262
330
261
100
AcDbEntity
8
0
100
AcDbBlockBegin
2
*Model_Space
70
0
10
0.0
20
0.0
30
0.0
3
*Model_Space
1

0
ENDBLK
5
263
330
261
100
AcDbEntity
8
0
100
AcDbBlockEnd
0
BLOCK
5
25E
330
25D
100
AcDbEntity
67
1
8
0
100
AcDbBlockBegin
2
*Paper_Space
70
0
10
0.0
20
0.0
30
0.0
3
*Paper_Space
1

0
ENDBLK
5
25F
330
25D
100
AcDbEntity
67
1
8
0
100
AcDbBlockEnd
0
BLOCK
5
266
330
265
100
AcDbEntity
8
0
100
AcDbBlockBegin
2
*Paper_Space0
70
0
10
0.0
20
0.0
30
0.0
3
*Paper_Space0
1

0
VIEWPORT
5
296
102
{ACAD_XDICTIONARY
360
58E
102
}
330
265
100
AcDbEntity
8
0
60
1
100
AcDbViewport
10
0.0
20
0.0
30
0.0
40
10.0
41
10.0
69
0
12
0.0
22
0.0
13
0.0
23
0.0
14
1.0
24
1.0
15
0.0
25
0.0
16
0.0
26
0.0
36
1.0
17
0.0
27
0.0
37
0.0
42
0.0
43
0.0
44
0.0
45
10.0
50
0.0
51
0.0000000000007958
72
100
90
163872
1

281
0
71
0
74
0
110
0.0
120
0.0
130
0.0
111
1.0
121
0.0
131
0.0
112
0.0
122
1.0
132
0.0
79
0
146
0.0
1001
VD_INVISIBLE_NOT_FOR_READ
1000
VD_INVISIBLE_NOT_FOR_READ
0
VIEWPORT
5
297
102
{ACAD_XDICTIONARY
360
590
102
}
330
265
100
AcDbEntity
8
0
60
1
100
AcDbViewport
10
0.0
20
0.0
30
0.0
40
10.0
41
10.0
69
0
12
0.0
22
0.0
13
0.0
23
0.0
14
1.0
24
1.0
15
0.0
25
0.0
16
0.0
26
0.0
36
1.0
17
0.0
27
0.0
37
0.0
42
0.0
43
0.0
44
0.0
45
10.0
50
0.0
51
0.0000000000007958
72
100
90
163872
1

281
0
71
0
74
0
110
0.0
120
0.0
130
0.0
111
1.0
121
0.0
131
0.0
112
0.0
122
1.0
132
0.0
79
0
146
0.0
1001
VD_INVISIBLE_NOT_FOR_READ
1000
VD_INVISIBLE_NOT_FOR_READ
0
ENDBLK
5
267
330
265
100
AcDbEntity
8
0
100
AcDbBlockEnd
0
BLOCK
5
28B
330
23C
100
AcDbEntity
8
0
100
AcDbBlockBegin
2
VDDIM_DEFAULT
70
0
10
0.0
20
0.0
30
0.0
3
VDDIM_DEFAULT
1

0
LWPOLYLINE
5
23D
330
23C
100
AcDbEntity
8
0
6
Continuous
62
0
100
AcDbPolyline
90
4
70
0
43
0.0
10
0.0
20
0.0
10
-1.0
20
-0.1665
10
-1.0
20
0.1665
10
0.0
20
0.0
1001
VDEXTRAPARAM
1071
1
1071
0
1071
0
1040
1.0
1000

1000

1040
0.0
1040
0.0
0
HATCH
5
292
330
23C
100
AcDbEntity
8
0
6
Continuous
62
0
100
AcDbHatch
10
0.0
20
0.0
30
0.0
210
0.0
220
0.0
230
1.0
2
SOLID
70
1
71
0
91
1
92
2
72
0
73
1
93
3
10
0.0
20
0.0
10
-1.0
20
-0.1665
10
-1.0
20
0.1665
97
0
75
0
76
1
98
1
10
0.0
20
0.0
1001
VDEXTRAPARAM
1071
1
1071
0
1071
0
1040
1.0
1000

1000

1040
0.0
1040
0.0
1001
VD_TEMPHATCH
1000
VD_TEMPHATCH
0
ENDBLK
5
28C
330
23C
100
AcDbEntity
8
0
100
AcDbBlockEnd
0
BLOCK
5
28D
330
23E
100
AcDbEntity
8
0
100
AcDbBlockBegin
2
VDDIM_NONE
70
0
10
0.0
20
0.0
30
0.0
3
VDDIM_NONE
1

0
ENDBLK
5
28E
330
23E
100
AcDbEntity
8
0
100
AcDbBlockEnd
  0
BLOCK
  5
F10016
330
F10007
100
AcDbEntity
  8
0
100
AcDbBlockBegin
  2
*D4
 70
     1
 10
0.0
 20
0.0
 30
0.0
  3
*D4
  1

  0
LINE
  5
F10017
330
F10007
100
AcDbEntity
  8
Bemassung
 62
     0
370
    -2
100
AcDbLine
10
-23.2123130034523
20
-4.44188722669735
30
0.000000000000000
11
-23.2123130034523
21
-11.4418872266973
31
0.000000000000000
  0
LINE
  5
F10018
330
F10007
100
AcDbEntity
  8
Bemassung
 62
     0
370
    -2
100
AcDbLine
10
-48.2123130034523
20
-11.4418872266973
30
0.000000000000000
11
-48.2123130034523
21
27.5581127733027
31
0.000000000000000
  0
LINE
  5
F10019
330
F10007
100
AcDbEntity
  8
Bemassung
 62
     0
370
    -2
100
AcDbLine
10
-23.2123130034523
20
-9.44188722669735
30
0.000000000000000
11
-48.2123130034523
21
-9.44188722669735
31
0.000000000000000
  0
INSERT
  5
F1001A
330
F10007
100
AcDbEntity
  8
Bemassung
 62
     0
370
    -2
100
AcDbBlockReference
  2
VDDIM_DEFAULT
10
-23.2123130034523
20
-9.44188722669735
30
0.000000000000000
 41
2.50000000000000
 42
2.50000000000000
 43
2.50000000000000
  0
INSERT
  5
F1001B
330
F10007
100
AcDbEntity
  8
Bemassung
 62
     0
370
    -2
100
AcDbBlockReference
  2
VDDIM_DEFAULT
10
-48.2123130034523
20
-9.44188722669735
30
0.000000000000000
 41
2.50000000000000
 42
2.50000000000000
 43
2.50000000000000
 50
180.000000000000
  0
MTEXT
  5
F1001C
330
F10007
100
AcDbEntity
  8
Bemassung
 62
     0
100
AcDbMText
10
-36.0069044879168
20
-8.77522056003068
30
0.000000000000000
 40
2.50000000000000
 41
0.0
 71
     8
 72
     1
  1
25
 11
1.00000000000000
 21
0.000000000000000
 31
0.0
 73
     1
 44
1.0
1001
ACAD
1000
MTEXTBEGIN
1070
73
1070
1
1070
44
1040
1.0
1070
74
1070
0
1000
MTEXTEND
  0
POINT
  5
F1001D
330
F10007
100
AcDbEntity
  8
Bemassung
 62
     0
100
AcDbPoint
10
-23.2123130034523
20
-4.44188722669735
30
0.000000000000000
  0
POINT
  5
F1001E
330
F10007
100
AcDbEntity
  8
Bemassung
 62
     0
100
AcDbPoint
10
-48.2123130034523
20
-11.4418872266973
30
0.000000000000000
  0
ENDBLK
  5
F1001F
330
F10007
100
AcDbEntity
  8
0
100
AcDbBlockEnd
  0
BLOCK
  5
F10020
330
F1000C
100
AcDbEntity
  8
0
100
AcDbBlockBegin
  2
*D5
 70
     1
 10
0.0
 20
0.0
 30
0.0
  3
*D5
  1

  0
LINE
  5
F10021
330
F1000C
100
AcDbEntity
  8
Bemassung
 62
     0
370
    -2
100
AcDbLine
10
44.7876869965477
20
14.5581127733027
30
0.000000000000000
11
44.7876869965477
21
27.5581127733027
31
0.000000000000000
  0
LINE
  5
F10022
330
F1000C
100
AcDbEntity
  8
Bemassung
 62
     0
370
    -2
100
AcDbLine
10
-48.2123130034523
20
-11.4418872266973
30
0.000000000000000
11
-48.2123130034523
21
27.5581127733027
31
0.000000000000000
  0
LINE
  5
F10023
330
F1000C
100
AcDbEntity
  8
Bemassung
 62
     0
370
    -2
100
AcDbLine
10
44.7876869965477
20
25.5581127733027
30
0.000000000000000
11
-48.2123130034523
21
25.5581127733027
31
0.000000000000000
  0
INSERT
  5
F10024
330
F1000C
100
AcDbEntity
  8
Bemassung
 62
     0
370
    -2
100
AcDbBlockReference
  2
VDDIM_DEFAULT
10
44.7876869965477
20
25.5581127733027
30
0.000000000000000
 41
2.50000000000000
 42
2.50000000000000
 43
2.50000000000000
  0
INSERT
  5
F10025
330
F1000C
100
AcDbEntity
  8
Bemassung
 62
     0
370
    -2
100
AcDbBlockReference
  2
VDDIM_DEFAULT
10
-48.2123130034523
20
25.5581127733027
30
0.000000000000000
 41
2.50000000000000
 42
2.50000000000000
 43
2.50000000000000
 50
180.000000000000
  0
MTEXT
  5
F10026
330
F1000C
100
AcDbEntity
  8
Bemassung
 62
     0
100
AcDbMText
10
-1.71231300345228
20
26.2247794399693
30
0.000000000000000
 40
2.50000000000000
 41
0.0
 71
     8
 72
     1
  1
93
 11
1.00000000000000
 21
0.000000000000000
 31
0.0
 73
     1
 44
1.0
1001
ACAD
1000
MTEXTBEGIN
1070
73
1070
1
1070
44
1040
1.0
1070
74
1070
0
1000
MTEXTEND
  0
POINT
  5
F10027
330
F1000C
100
AcDbEntity
  8
Bemassung
 62
     0
100
AcDbPoint
10
44.7876869965477
20
14.5581127733027
30
0.000000000000000
  0
POINT
  5
F10028
330
F1000C
100
AcDbEntity
  8
Bemassung
 62
     0
100
AcDbPoint
10
-48.2123130034523
20
-11.4418872266973
30
0.000000000000000
  0
ENDBLK
  5
F10029
330
F1000C
100
AcDbEntity
  8
0
100
AcDbBlockEnd
  0
BLOCK
  5
F1002A
330
F10002
100
AcDbEntity
  8
0
100
AcDbBlockBegin
  2
*D3
 70
     1
 10
0.0
 20
0.0
 30
0.0
  3
*D3
  1

  0
LINE
  5
F1002B
330
F10002
100
AcDbEntity
  8
Bemassung
 62
     0
370
    -2
100
AcDbLine
10
-48.2123130034523
20
-4.44188722669735
30
0.000000000000000
11
-60.2123130034523
21
-4.44188722669735
31
0.000000000000000
  0
LINE
  5
F1002C
330
F10002
100
AcDbEntity
  8
Bemassung
 62
     0
370
    -2
100
AcDbLine
10
-48.2123130034523
20
15.5581127733027
30
0.000000000000000
11
-60.2123130034523
21
15.5581127733027
31
0.000000000000000
  0
LINE
  5
F1002D
330
F10002
100
AcDbEntity
  8
Bemassung
 62
     0
370
    -2
100
AcDbLine
10
-58.2123130034523
20
-4.44188722669735
30
0.000000000000000
11
-58.2123130034523
21
15.5581127733027
31
0.000000000000000
  0
INSERT
  5
F1002E
330
F10002
100
AcDbEntity
  8
Bemassung
 62
     0
370
    -2
100
AcDbBlockReference
  2
VDDIM_DEFAULT
10
-58.2123130034523
20
-4.44188722669735
30
0.000000000000000
 41
2.50000000000000
 42
2.50000000000000
 43
2.50000000000000
 50
270.000000000000
  0
INSERT
  5
F1002F
330
F10002
100
AcDbEntity
  8
Bemassung
 62
     0
370
    -2
100
AcDbBlockReference
  2
VDDIM_DEFAULT
10
-58.2123130034523
20
15.5581127733027
30
0.000000000000000
 41
2.50000000000000
 42
2.50000000000000
 43
2.50000000000000
 50
90.0000000000000
  0
MTEXT
  5
F10030
330
F10002
100
AcDbEntity
  8
Bemassung
 62
     0
100
AcDbMText
10
-58.8789796701189
20
5.55811277330265
30
0.000000000000000
 40
2.50000000000000
 41
0.0
 71
     8
 72
     1
  1
Ø20
 11
6.12323399573677e-17
 21
1.00000000000000
 31
0.0
 73
     1
 44
1.0
1001
ACAD
1000
MTEXTBEGIN
1070
73
1070
1
1070
44
1040
1.0
1070
74
1070
0
1000
MTEXTEND
  0
POINT
  5
F10031
330
F10002
100
AcDbEntity
  8
Bemassung
 62
     0
100
AcDbPoint
10
-48.2123130034523
20
-4.44188722669735
30
0.000000000000000
  0
POINT
  5
F10032
330
F10002
100
AcDbEntity
  8
Bemassung
 62
     0
100
AcDbPoint
10
-48.2123130034523
20
15.5581127733027
30
0.000000000000000
  0
ENDBLK
  5
F10033
330
F10002
100
AcDbEntity
  8
0
100
AcDbBlockEnd
  0
BLOCK
  5
F10034
330
F10011
100
AcDbEntity
  8
0
100
AcDbBlockBegin
  2
*D6
 70
     1
 10
0.0
 20
0.0
 30
0.0
  3
*D6
  1

  0
LINE
  5
F10035
330
F10011
100
AcDbEntity
  8
Bemassung
 62
     0
370
    -2
100
AcDbLine
10
43.7876869965477
20
15.5581127733027
30
0.000000000000000
11
54.4395857307253
21
15.5581127733027
31
0.000000000000000
  0
LINE
  5
F10036
330
F10011
100
AcDbEntity
  8
Bemassung
 62
     0
370
    -2
100
AcDbLine
10
43.7876869965477
20
-4.44188722669735
30
0.000000000000000
11
54.4395857307253
21
-4.44188722669735
31
0.000000000000000
  0
LINE
  5
F10037
330
F10011
100
AcDbEntity
  8
Bemassung
 62
     0
370
    -2
100
AcDbLine
10
52.4395857307253
20
15.5581127733027
30
0.000000000000000
11
52.4395857307253
21
-4.44188722669735
31
0.000000000000000
  0
INSERT
  5
F10038
330
F10011
100
AcDbEntity
  8
Bemassung
 62
     0
370
    -2
100
AcDbBlockReference
  2
VDDIM_DEFAULT
10
52.4395857307253
20
15.5581127733027
30
0.000000000000000
 41
2.50000000000000
 42
2.50000000000000
 43
2.50000000000000
 50
90.0000000000000
  0
INSERT
  5
F10039
330
F10011
100
AcDbEntity
  8
Bemassung
 62
     0
370
    -2
100
AcDbBlockReference
  2
VDDIM_DEFAULT
10
52.4395857307253
20
-4.44188722669735
30
0.000000000000000
 41
2.50000000000000
 42
2.50000000000000
 43
2.50000000000000
 50
270.000000000000
  0
MTEXT
  5
F1003A
330
F10011
100
AcDbEntity
  8
Bemassung
 62
     0
100
AcDbMText
10
51.7729190640586
20
5.55811277330265
30
0.000000000000000
 40
2.50000000000000
 41
0.0
 71
     8
 72
     1
  1
Ø20
 11
6.12323399573677e-17
 21
1.00000000000000
 31
0.0
 73
     1
 44
1.0
1001
ACAD
1000
MTEXTBEGIN
1070
73
1070
1
1070
44
1040
1.0
1070
74
1070
0
1000
MTEXTEND
  0
POINT
  5
F1003B
330
F10011
100
AcDbEntity
  8
Bemassung
 62
     0
100
AcDbPoint
10
43.7876869965477
20
15.5581127733027
30
0.000000000000000
  0
POINT
  5
F1003C
330
F10011
100
AcDbEntity
  8
Bemassung
 62
     0
100
AcDbPoint
10
43.7876869965477
20
-4.44188722669735
30
0.000000000000000
  0
ENDBLK
  5
F1003D
330
F10011
100
AcDbEntity
  8
0
100
AcDbBlockEnd
0
ENDSEC
0
SECTION
2
ENTITIES
  0
DIMENSION
  5
F10008
330
261
100
AcDbEntity
  8
Bemassung
100
AcDbDimension
  2
*D4
10
-48.2123130034523
20
-9.44188722669735
30
0.000000000000000
11
-36.0069044879168
21
-8.77522056003068
31
0.000000000000000
 70
32
 1
25
 71
     8
  3
BEM-ISBE
100
AcDbAlignedDimension
13
-23.2123130034523
23
-4.44188722669735
33
0.000000000000000
14
-48.2123130034523
24
-11.4418872266973
34
0.000000000000000
100
AcDbRotatedDimension
1001
ACAD
1000
DSTYLE
1002
{
1070
284
1070
8
1070
78
1070
8
1070
144
1040
1.00000000000000
1070
147
1040
0.625
1070
 72
1070
 0
1070
 71
1070
 0
1002
}
  0
DIMENSION
  5
F1000D
330
261
100
AcDbEntity
  8
Bemassung
100
AcDbDimension
  2
*D5
10
-48.2123130034523
20
25.5581127733027
30
0.000000000000000
11
-1.71231300345228
21
26.2247794399693
31
0.000000000000000
 70
32
 1
93
 71
     8
  3
BEM-ISBE
100
AcDbAlignedDimension
13
44.7876869965477
23
14.5581127733027
33
0.000000000000000
14
-48.2123130034523
24
-11.4418872266973
34
0.000000000000000
100
AcDbRotatedDimension
1001
ACAD
1000
DSTYLE
1002
{
1070
284
1070
8
1070
78
1070
8
1070
144
1040
1.00000000000000
1070
147
1040
0.625
1070
 72
1070
 0
1070
 71
1070
 0
1002
}
  0
DIMENSION
  5
F10003
330
261
100
AcDbEntity
  8
Bemassung
100
AcDbDimension
  2
*D3
10
-58.2123130034523
20
15.5581127733027
30
0.000000000000000
11
-58.8789796701189
21
5.55811277330265
31
0.000000000000000
 70
32
 1
Ø20
 71
     8
  3
BEM-ISBE
100
AcDbAlignedDimension
13
-48.2123130034523
23
-4.44188722669735
33
0.000000000000000
14
-48.2123130034523
24
15.5581127733027
34
0.000000000000000
50
90.0000000000000
100
AcDbRotatedDimension
1001
ACAD
1000
DSTYLE
1002
{
1070
284
1070
8
1070
78
1070
8
1070
144
1040
1.00000000000000
1070
147
1040
0.625
1070
 72
1070
 0
1070
 71
1070
 0
1002
}
  0
DIMENSION
  5
F10012
330
261
100
AcDbEntity
  8
Bemassung
100
AcDbDimension
  2
*D6
10
52.4395857307253
20
-4.44188722669735
30
0.000000000000000
11
51.7729190640586
21
5.55811277330265
31
0.000000000000000
 70
32
 1
Ø20
 71
     8
  3
BEM-ISBE
100
AcDbAlignedDimension
13
43.7876869965477
23
15.5581127733027
33
0.000000000000000
14
43.7876869965477
24
-4.44188722669735
34
0.000000000000000
50
90.0000000000000
100
AcDbRotatedDimension
1001
ACAD
1000
DSTYLE
1002
{
1070
284
1070
8
1070
78
1070
8
1070
144
1040
1.00000000000000
1070
147
1040
0.625
1070
 72
1070
 0
1070
 71
1070
 0
1002
}
  0
LINE
  5
F1003E
330
F1003F
100
AcDbEntity
8
Geo
100
AcDbLine
10
-48.2123130034523
20
5.55811277330265
30
0.000000000000000
11
-48.2123130034523
21
15.5581127733027
31
0.000000000000000
  0
LINE
  5
F10040
330
F10041
100
AcDbEntity
8
Geo
100
AcDbLine
10
-48.2123130034523
20
15.5581127733027
30
0.000000000000000
11
-23.2123130034523
21
15.5581127733027
31
0.000000000000000
  0
LINE
  5
F10042
330
F10043
100
AcDbEntity
8
Geo
100
AcDbLine
10
-23.2123130034523
20
15.5581127733027
30
0.000000000000000
11
43.7876869965477
21
15.5581127733027
31
0.000000000000000
  0
LINE
  5
F10044
330
F10045
100
AcDbEntity
8
Geo
100
AcDbLine
10
43.7876869965477
20
15.5581127733027
30
0.000000000000000
11
44.7876869965477
21
14.5581127733027
31
0.000000000000000
  0
LINE
  5
F10046
330
F10047
100
AcDbEntity
8
Geo
100
AcDbLine
10
-48.2123130034523
20
15.5581127733027
30
0.000000000000000
11
-48.1123130034523
21
15.5579461070989
31
0.000000000000000
  0
LINE
  5
F10048
330
F10049
100
AcDbEntity
8
Geo
100
AcDbLine
10
-48.1123130034523
20
15.5579461070989
30
0.000000000000000
11
-48.0123130034523
21
15.5574461140434
31
0.000000000000000
  0
LINE
  5
F1004A
330
F1004B
100
AcDbEntity
8
Geo
100
AcDbLine
10
-48.0123130034523
20
15.5574461140434
30
0.000000000000000
11
-47.9123130034523
21
15.5566128108023
31
0.000000000000000
  0
LINE
  5
F1004C
330
F1004D
100
AcDbEntity
8
Geo
100
AcDbLine
10
-47.9123130034523
20
15.5566128108023
30
0.000000000000000
11
-47.8123130034523
21
15.5554462251524
31
0.000000000000000
  0
LINE
  5
F1004E
330
F1004F
100
AcDbEntity
8
Geo
100
AcDbLine
10
-47.8123130034523
20
15.5554462251524
30
0.000000000000000
11
-47.7123130034523
21
15.5539463959798
31
0.000000000000000
  0
LINE
  5
F10050
330
F10051
100
AcDbEntity
8
Geo
100
AcDbLine
10
-47.7123130034523
20
15.5539463959798
30
0.000000000000000
11
-47.6123130034523
21
15.5521133732787
31
0.000000000000000
  0
LINE
  5
F10052
330
F10053
100
AcDbEntity
8
Geo
100
AcDbLine
10
-47.6123130034523
20
15.5521133732787
30
0.000000000000000
11
-47.5123130034523
21
15.5499472181495
31
0.000000000000000
  0
LINE
  5
F10054
330
F10055
100
AcDbEntity
8
Geo
100
AcDbLine
10
-47.5123130034523
20
15.5499472181495
30
0.000000000000000
11
-47.4123130034523
21
15.5474480027974
31
0.000000000000000
  0
LINE
  5
F10056
330
F10057
100
AcDbEntity
8
Geo
100
AcDbLine
10
-47.4123130034523
20
15.5474480027974
30
0.000000000000000
11
-47.3123130034523
21
15.5446158105293
31
0.000000000000000
  0
LINE
  5
F10058
330
F10059
100
AcDbEntity
8
Geo
100
AcDbLine
10
-47.3123130034523
20
15.5446158105293
30
0.000000000000000
11
-47.2123130034523
21
15.5414507357512
31
0.000000000000000
  0
LINE
  5
F1005A
330
F1005B
100
AcDbEntity
8
Geo
100
AcDbLine
10
-47.2123130034523
20
15.5414507357512
30
0.000000000000000
11
-47.1123130034523
21
15.5379528839655
31
0.000000000000000
  0
LINE
  5
F1005C
330
F1005D
100
AcDbEntity
8
Geo
100
AcDbLine
10
-47.1123130034523
20
15.5379528839655
30
0.000000000000000
11
-47.0123130034523
21
15.5341223717668
31
0.000000000000000
  0
LINE
  5
F1005E
330
F1005F
100
AcDbEntity
8
Geo
100
AcDbLine
10
-47.0123130034523
20
15.5341223717668
30
0.000000000000000
11
-46.9123130034523
21
15.5299593268385
31
0.000000000000000
  0
LINE
  5
F10060
330
F10061
100
AcDbEntity
8
Geo
100
AcDbLine
10
-46.9123130034523
20
15.5299593268385
30
0.000000000000000
11
-46.8123130034523
21
15.5254638879484
31
0.000000000000000
  0
LINE
  5
F10062
330
F10063
100
AcDbEntity
8
Geo
100
AcDbLine
10
-46.8123130034523
20
15.5254638879484
30
0.000000000000000
11
-46.7123130034523
21
15.5206362049441
31
0.000000000000000
  0
LINE
  5
F10064
330
F10065
100
AcDbEntity
8
Geo
100
AcDbLine
10
-46.7123130034523
20
15.5206362049441
30
0.000000000000000
11
-46.6123130034523
21
15.5154764387478
31
0.000000000000000
  0
LINE
  5
F10066
330
F10067
100
AcDbEntity
8
Geo
100
AcDbLine
10
-46.6123130034523
20
15.5154764387478
30
0.000000000000000
11
-46.5123130034523
21
15.5099847613513
31
0.000000000000000
  0
LINE
  5
F10068
330
F10069
100
AcDbEntity
8
Geo
100
AcDbLine
10
-46.5123130034523
20
15.5099847613513
30
0.000000000000000
11
-46.4123130034523
21
15.5041613558100
31
0.000000000000000
  0
LINE
  5
F1006A
330
F1006B
100
AcDbEntity
8
Geo
100
AcDbLine
10
-46.4123130034523
20
15.5041613558100
30
0.000000000000000
11
-46.3123130034523
21
15.4980064162369
31
0.000000000000000
  0
LINE
  5
F1006C
330
F1006D
100
AcDbEntity
8
Geo
100
AcDbLine
10
-46.3123130034523
20
15.4980064162369
30
0.000000000000000
11
-46.2123130034523
21
15.4915201477961
31
0.000000000000000
  0
LINE
  5
F1006E
330
F1006F
100
AcDbEntity
8
Geo
100
AcDbLine
10
-46.2123130034523
20
15.4915201477961
30
0.000000000000000
11
-46.1123130034523
21
15.4847027666959
31
0.000000000000000
  0
LINE
  5
F10070
330
F10071
100
AcDbEntity
8
Geo
100
AcDbLine
10
-46.1123130034523
20
15.4847027666959
30
0.000000000000000
11
-46.0123130034523
21
15.4775545001816
31
0.000000000000000
  0
LINE
  5
F10072
330
F10073
100
AcDbEntity
8
Geo
100
AcDbLine
10
-46.0123130034523
20
15.4775545001816
30
0.000000000000000
11
-45.9123130034523
21
15.4700755865283
31
0.000000000000000
  0
LINE
  5
F10074
330
F10075
100
AcDbEntity
8
Geo
100
AcDbLine
10
-45.9123130034523
20
15.4700755865283
30
0.000000000000000
11
-45.8123130034523
21
15.4622662750324
31
0.000000000000000
  0
LINE
  5
F10076
330
F10077
100
AcDbEntity
8
Geo
100
AcDbLine
10
-45.8123130034523
20
15.4622662750324
30
0.000000000000000
11
-45.7123130034523
21
15.4541268260034
31
0.000000000000000
  0
LINE
  5
F10078
330
F10079
100
AcDbEntity
8
Geo
100
AcDbLine
10
-45.7123130034523
20
15.4541268260034
30
0.000000000000000
11
-45.6123130034523
21
15.4456575107556
31
0.000000000000000
  0
LINE
  5
F1007A
330
F1007B
100
AcDbEntity
8
Geo
100
AcDbLine
10
-45.6123130034523
20
15.4456575107556
30
0.000000000000000
11
-45.5123130034523
21
15.4368586115987
31
0.000000000000000
  0
LINE
  5
F1007C
330
F1007D
100
AcDbEntity
8
Geo
100
AcDbLine
10
-45.5123130034523
20
15.4368586115987
30
0.000000000000000
11
-45.4123130034523
21
15.4277304218286
31
0.000000000000000
  0
LINE
  5
F1007E
330
F1007F
100
AcDbEntity
8
Geo
100
AcDbLine
10
-45.4123130034523
20
15.4277304218286
30
0.000000000000000
11
-45.3123130034523
21
15.4182732457174
31
0.000000000000000
  0
LINE
  5
F10080
330
F10081
100
AcDbEntity
8
Geo
100
AcDbLine
10
-45.3123130034523
20
15.4182732457174
30
0.000000000000000
11
-45.2123130034523
21
15.4084873985035
31
0.000000000000000
  0
LINE
  5
F10082
330
F10083
100
AcDbEntity
8
Geo
100
AcDbLine
10
-45.2123130034523
20
15.4084873985035
30
0.000000000000000
11
-45.1123130034523
21
15.3983732063807
31
0.000000000000000
  0
LINE
  5
F10084
330
F10085
100
AcDbEntity
8
Geo
100
AcDbLine
10
-45.1123130034523
20
15.3983732063807
30
0.000000000000000
11
-45.0123130034523
21
15.3879310064880
31
0.000000000000000
  0
LINE
  5
F10086
330
F10087
100
AcDbEntity
8
Geo
100
AcDbLine
10
-45.0123130034523
20
15.3879310064880
30
0.000000000000000
11
-44.9123130034523
21
15.3771611468977
31
0.000000000000000
  0
LINE
  5
F10088
330
F10089
100
AcDbEntity
8
Geo
100
AcDbLine
10
-44.9123130034523
20
15.3771611468977
30
0.000000000000000
11
-44.8123130034523
21
15.3660639866041
31
0.000000000000000
  0
LINE
  5
F1008A
330
F1008B
100
AcDbEntity
8
Geo
100
AcDbLine
10
-44.8123130034523
20
15.3660639866041
30
0.000000000000000
11
-44.7123130034523
21
15.3546398955116
31
0.000000000000000
  0
LINE
  5
F1008C
330
F1008D
100
AcDbEntity
8
Geo
100
AcDbLine
10
-44.7123130034523
20
15.3546398955116
30
0.000000000000000
11
-44.6123130034523
21
15.3428892544220
31
0.000000000000000
  0
LINE
  5
F1008E
330
F1008F
100
AcDbEntity
8
Geo
100
AcDbLine
10
-44.6123130034523
20
15.3428892544220
30
0.000000000000000
11
-44.5123130034523
21
15.3308124550225
31
0.000000000000000
  0
LINE
  5
F10090
330
F10091
100
AcDbEntity
8
Geo
100
AcDbLine
10
-44.5123130034523
20
15.3308124550225
30
0.000000000000000
11
-44.4123130034523
21
15.3184098998717
31
0.000000000000000
  0
LINE
  5
F10092
330
F10093
100
AcDbEntity
8
Geo
100
AcDbLine
10
-44.4123130034523
20
15.3184098998717
30
0.000000000000000
11
-44.3123130034523
21
15.3056820023871
31
0.000000000000000
  0
LINE
  5
F10094
330
F10095
100
AcDbEntity
8
Geo
100
AcDbLine
10
-44.3123130034523
20
15.3056820023871
30
0.000000000000000
11
-44.2123130034523
21
15.2926291868308
31
0.000000000000000
  0
LINE
  5
F10096
330
F10097
100
AcDbEntity
8
Geo
100
AcDbLine
10
-44.2123130034523
20
15.2926291868308
30
0.000000000000000
11
-44.1123130034523
21
15.2792518882953
31
0.000000000000000
  0
LINE
  5
F10098
330
F10099
100
AcDbEntity
8
Geo
100
AcDbLine
10
-44.1123130034523
20
15.2792518882953
30
0.000000000000000
11
-44.0123130034523
21
15.2655505526895
31
0.000000000000000
  0
LINE
  5
F1009A
330
F1009B
100
AcDbEntity
8
Geo
100
AcDbLine
10
-44.0123130034523
20
15.2655505526895
30
0.000000000000000
11
-43.9123130034523
21
15.2515256367232
31
0.000000000000000
  0
LINE
  5
F1009C
330
F1009D
100
AcDbEntity
8
Geo
100
AcDbLine
10
-43.9123130034523
20
15.2515256367232
30
0.000000000000000
11
-43.8123130034523
21
15.2371776078923
31
0.000000000000000
  0
LINE
  5
F1009E
330
F1009F
100
AcDbEntity
8
Geo
100
AcDbLine
10
-43.8123130034523
20
15.2371776078923
30
0.000000000000000
11
-43.7123130034523
21
15.2225069444631
31
0.000000000000000
  0
LINE
  5
F100A0
330
F100A1
100
AcDbEntity
8
Geo
100
AcDbLine
10
-43.7123130034523
20
15.2225069444631
30
0.000000000000000
11
-43.6123130034523
21
15.2075141354564
31
0.000000000000000
  0
LINE
  5
F100A2
330
F100A3
100
AcDbEntity
8
Geo
100
AcDbLine
10
-43.6123130034523
20
15.2075141354564
30
0.000000000000000
11
-43.5123130034523
21
15.1921996806311
31
0.000000000000000
  0
LINE
  5
F100A4
330
F100A5
100
AcDbEntity
8
Geo
100
AcDbLine
10
-43.5123130034523
20
15.1921996806311
30
0.000000000000000
11
-43.4123130034523
21
15.1765640904676
31
0.000000000000000
  0
LINE
  5
F100A6
330
F100A7
100
AcDbEntity
8
Geo
100
AcDbLine
10
-43.4123130034523
20
15.1765640904676
30
0.000000000000000
11
-43.3123130034523
21
15.1606078861508
31
0.000000000000000
  0
LINE
  5
F100A8
330
F100A9
100
AcDbEntity
8
Geo
100
AcDbLine
10
-43.3123130034523
20
15.1606078861508
30
0.000000000000000
11
-43.2123130034523
21
15.1443315995526
31
0.000000000000000
  0
LINE
  5
F100AA
330
F100AB
100
AcDbEntity
8
Geo
100
AcDbLine
10
-43.2123130034523
20
15.1443315995526
30
0.000000000000000
11
-43.1123130034523
21
15.1277357732146
31
0.000000000000000
  0
LINE
  5
F100AC
330
F100AD
100
AcDbEntity
8
Geo
100
AcDbLine
10
-43.1123130034523
20
15.1277357732146
30
0.000000000000000
11
-43.0123130034523
21
15.1108209603293
31
0.000000000000000
  0
LINE
  5
F100AE
330
F100AF
100
AcDbEntity
8
Geo
100
AcDbLine
10
-43.0123130034523
20
15.1108209603293
30
0.000000000000000
11
-42.9123130034523
21
15.0935877247222
31
0.000000000000000
  0
LINE
  5
F100B0
330
F100B1
100
AcDbEntity
8
Geo
100
AcDbLine
10
-42.9123130034523
20
15.0935877247222
30
0.000000000000000
11
-42.8123130034523
21
15.0760366408331
31
0.000000000000000
  0
LINE
  5
F100B2
330
F100B3
100
AcDbEntity
8
Geo
100
AcDbLine
10
-42.8123130034523
20
15.0760366408331
30
0.000000000000000
11
-42.7123130034523
21
15.0581682936963
31
0.000000000000000
  0
LINE
  5
F100B4
330
F100B5
100
AcDbEntity
8
Geo
100
AcDbLine
10
-42.7123130034523
20
15.0581682936963
30
0.000000000000000
11
-42.6123130034523
21
15.0399832789218
31
0.000000000000000
  0
LINE
  5
F100B6
330
F100B7
100
AcDbEntity
8
Geo
100
AcDbLine
10
-42.6123130034523
20
15.0399832789218
30
0.000000000000000
11
-42.5123130034523
21
15.0214822026750
31
0.000000000000000
  0
LINE
  5
F100B8
330
F100B9
100
AcDbEntity
8
Geo
100
AcDbLine
10
-42.5123130034523
20
15.0214822026750
30
0.000000000000000
11
-42.4123130034523
21
15.0026656816569
31
0.000000000000000
  0
LINE
  5
F100BA
330
F100BB
100
AcDbEntity
8
Geo
100
AcDbLine
10
-42.4123130034523
20
15.0026656816569
30
0.000000000000000
11
-42.3123130034523
21
14.9835343430829
31
0.000000000000000
  0
LINE
  5
F100BC
330
F100BD
100
AcDbEntity
8
Geo
100
AcDbLine
10
-42.3123130034523
20
14.9835343430829
30
0.000000000000000
11
-42.2123130034523
21
14.9640888246627
31
0.000000000000000
  0
LINE
  5
F100BE
330
F100BF
100
AcDbEntity
8
Geo
100
AcDbLine
10
-42.2123130034523
20
14.9640888246627
30
0.000000000000000
11
-42.1123130034523
21
14.9443297745784
31
0.000000000000000
  0
LINE
  5
F100C0
330
F100C1
100
AcDbEntity
8
Geo
100
AcDbLine
10
-42.1123130034523
20
14.9443297745784
30
0.000000000000000
11
-42.0123130034523
21
14.9242578514631
31
0.000000000000000
  0
LINE
  5
F100C2
330
F100C3
100
AcDbEntity
8
Geo
100
AcDbLine
10
-42.0123130034523
20
14.9242578514631
30
0.000000000000000
11
-41.9123130034523
21
14.9038737243791
31
0.000000000000000
  0
LINE
  5
F100C4
330
F100C5
100
AcDbEntity
8
Geo
100
AcDbLine
10
-41.9123130034523
20
14.9038737243791
30
0.000000000000000
11
-41.8123130034523
21
14.8831780727954
31
0.000000000000000
  0
LINE
  5
F100C6
330
F100C7
100
AcDbEntity
8
Geo
100
AcDbLine
10
-41.8123130034523
20
14.8831780727954
30
0.000000000000000
11
-41.7123130034523
21
14.8621715865652
31
0.000000000000000
  0
LINE
  5
F100C8
330
F100C9
100
AcDbEntity
8
Geo
100
AcDbLine
10
-41.7123130034523
20
14.8621715865652
30
0.000000000000000
11
-41.6123130034523
21
14.8408549659027
31
0.000000000000000
  0
LINE
  5
F100CA
330
F100CB
100
AcDbEntity
8
Geo
100
AcDbLine
10
-41.6123130034523
20
14.8408549659027
30
0.000000000000000
11
-41.5123130034523
21
14.8192289213599
31
0.000000000000000
  0
LINE
  5
F100CC
330
F100CD
100
AcDbEntity
8
Geo
100
AcDbLine
10
-41.5123130034523
20
14.8192289213599
30
0.000000000000000
11
-41.4123130034523
21
14.7972941738031
31
0.000000000000000
  0
LINE
  5
F100CE
330
F100CF
100
AcDbEntity
8
Geo
100
AcDbLine
10
-41.4123130034523
20
14.7972941738031
30
0.000000000000000
11
-41.3123130034523
21
14.7750514543884
31
0.000000000000000
  0
LINE
  5
F100D0
330
F100D1
100
AcDbEntity
8
Geo
100
AcDbLine
10
-41.3123130034523
20
14.7750514543884
30
0.000000000000000
11
-41.2123130034523
21
14.7525015045377
31
0.000000000000000
  0
LINE
  5
F100D2
330
F100D3
100
AcDbEntity
8
Geo
100
AcDbLine
10
-41.2123130034523
20
14.7525015045377
30
0.000000000000000
11
-41.1123130034523
21
14.7296450759140
31
0.000000000000000
  0
LINE
  5
F100D4
330
F100D5
100
AcDbEntity
8
Geo
100
AcDbLine
10
-41.1123130034523
20
14.7296450759140
30
0.000000000000000
11
-41.0123130034523
21
14.7064829303961
31
0.000000000000000
  0
LINE
  5
F100D6
330
F100D7
100
AcDbEntity
8
Geo
100
AcDbLine
10
-41.0123130034523
20
14.7064829303961
30
0.000000000000000
11
-40.9123130034523
21
14.6830158400533
31
0.000000000000000
  0
LINE
  5
F100D8
330
F100D9
100
AcDbEntity
8
Geo
100
AcDbLine
10
-40.9123130034523
20
14.6830158400533
30
0.000000000000000
11
-40.8123130034523
21
14.6592445871199
31
0.000000000000000
  0
LINE
  5
F100DA
330
F100DB
100
AcDbEntity
8
Geo
100
AcDbLine
10
-40.8123130034523
20
14.6592445871199
30
0.000000000000000
11
-40.7123130034523
21
14.6351699639687
31
0.000000000000000
  0
LINE
  5
F100DC
330
F100DD
100
AcDbEntity
8
Geo
100
AcDbLine
10
-40.7123130034523
20
14.6351699639687
30
0.000000000000000
11
-40.6123130034523
21
14.6107927730850
31
0.000000000000000
  0
LINE
  5
F100DE
330
F100DF
100
AcDbEntity
8
Geo
100
AcDbLine
10
-40.6123130034523
20
14.6107927730850
30
0.000000000000000
11
-40.5123130034523
21
14.5861138270395
31
0.000000000000000
  0
LINE
  5
F100E0
330
F100E1
100
AcDbEntity
8
Geo
100
AcDbLine
10
-40.5123130034523
20
14.5861138270395
30
0.000000000000000
11
-40.4123130034523
21
14.5611339484614
31
0.000000000000000
  0
LINE
  5
F100E2
330
F100E3
100
AcDbEntity
8
Geo
100
AcDbLine
10
-40.4123130034523
20
14.5611339484614
30
0.000000000000000
11
-40.3123130034523
21
14.5358539700112
31
0.000000000000000
  0
LINE
  5
F100E4
330
F100E5
100
AcDbEntity
8
Geo
100
AcDbLine
10
-40.3123130034523
20
14.5358539700112
30
0.000000000000000
11
-40.2123130034523
21
14.5102747343523
31
0.000000000000000
  0
LINE
  5
F100E6
330
F100E7
100
AcDbEntity
8
Geo
100
AcDbLine
10
-40.2123130034523
20
14.5102747343523
30
0.000000000000000
11
-40.1123130034523
21
14.4843970941236
31
0.000000000000000
  0
LINE
  5
F100E8
330
F100E9
100
AcDbEntity
8
Geo
100
AcDbLine
10
-40.1123130034523
20
14.4843970941236
30
0.000000000000000
11
-40.0123130034523
21
14.4582219119107
31
0.000000000000000
  0
LINE
  5
F100EA
330
F100EB
100
AcDbEntity
8
Geo
100
AcDbLine
10
-40.0123130034523
20
14.4582219119107
30
0.000000000000000
11
-39.9123130034523
21
14.4317500602173
31
0.000000000000000
  0
LINE
  5
F100EC
330
F100ED
100
AcDbEntity
8
Geo
100
AcDbLine
10
-39.9123130034523
20
14.4317500602173
30
0.000000000000000
11
-39.8123130034523
21
14.4049824214360
31
0.000000000000000
  0
LINE
  5
F100EE
330
F100EF
100
AcDbEntity
8
Geo
100
AcDbLine
10
-39.8123130034523
20
14.4049824214360
30
0.000000000000000
11
-39.7123130034523
21
14.3779198878188
31
0.000000000000000
  0
LINE
  5
F100F0
330
F100F1
100
AcDbEntity
8
Geo
100
AcDbLine
10
-39.7123130034523
20
14.3779198878188
30
0.000000000000000
11
-39.6123130034523
21
14.3505633614479
31
0.000000000000000
  0
LINE
  5
F100F2
330
F100F3
100
AcDbEntity
8
Geo
100
AcDbLine
10
-39.6123130034523
20
14.3505633614479
30
0.000000000000000
11
-39.5123130034523
21
14.3229137542047
31
0.000000000000000
  0
LINE
  5
F100F4
330
F100F5
100
AcDbEntity
8
Geo
100
AcDbLine
10
-39.5123130034523
20
14.3229137542047
30
0.000000000000000
11
-39.4123130034523
21
14.2949719877405
31
0.000000000000000
  0
LINE
  5
F100F6
330
F100F7
100
AcDbEntity
8
Geo
100
AcDbLine
10
-39.4123130034523
20
14.2949719877405
30
0.000000000000000
11
-39.3123130034523
21
14.2667389934447
31
0.000000000000000
  0
LINE
  5
F100F8
330
F100F9
100
AcDbEntity
8
Geo
100
AcDbLine
10
-39.3123130034523
20
14.2667389934447
30
0.000000000000000
11
-39.2123130034523
21
14.2382157124146
31
0.000000000000000
  0
LINE
  5
F100FA
330
F100FB
100
AcDbEntity
8
Geo
100
AcDbLine
10
-39.2123130034523
20
14.2382157124146
30
0.000000000000000
11
-39.1123130034523
21
14.2094030954236
31
0.000000000000000
  0
LINE
  5
F100FC
330
F100FD
100
AcDbEntity
8
Geo
100
AcDbLine
10
-39.1123130034523
20
14.2094030954236
30
0.000000000000000
11
-39.0123130034523
21
14.1803021028895
31
0.000000000000000
  0
LINE
  5
F100FE
330
F100FF
100
AcDbEntity
8
Geo
100
AcDbLine
10
-39.0123130034523
20
14.1803021028895
30
0.000000000000000
11
-38.9123130034523
21
14.1509137048428
31
0.000000000000000
  0
LINE
  5
F10100
330
F10101
100
AcDbEntity
8
Geo
100
AcDbLine
10
-38.9123130034523
20
14.1509137048428
30
0.000000000000000
11
-38.8123130034523
21
14.1212388808941
31
0.000000000000000
  0
LINE
  5
F10102
330
F10103
100
AcDbEntity
8
Geo
100
AcDbLine
10
-38.8123130034523
20
14.1212388808941
30
0.000000000000000
11
-38.7123130034523
21
14.0912786202013
31
0.000000000000000
  0
LINE
  5
F10104
330
F10105
100
AcDbEntity
8
Geo
100
AcDbLine
10
-38.7123130034523
20
14.0912786202013
30
0.000000000000000
11
-38.6123130034523
21
14.0610339214370
31
0.000000000000000
  0
LINE
  5
F10106
330
F10107
100
AcDbEntity
8
Geo
100
AcDbLine
10
-38.6123130034523
20
14.0610339214370
30
0.000000000000000
11
-38.5123130034523
21
14.0305057927551
31
0.000000000000000
  0
LINE
  5
F10108
330
F10109
100
AcDbEntity
8
Geo
100
AcDbLine
10
-38.5123130034523
20
14.0305057927551
30
0.000000000000000
11
-38.4123130034523
21
13.9996952517570
31
0.000000000000000
  0
LINE
  5
F1010A
330
F1010B
100
AcDbEntity
8
Geo
100
AcDbLine
10
-38.4123130034523
20
13.9996952517570
30
0.000000000000000
11
-38.3123130034523
21
13.9686033254580
31
0.000000000000000
  0
LINE
  5
F1010C
330
F1010D
100
AcDbEntity
8
Geo
100
AcDbLine
10
-38.3123130034523
20
13.9686033254580
30
0.000000000000000
11
-38.2123130034523
21
13.9372310502526
31
0.000000000000000
  0
LINE
  5
F1010E
330
F1010F
100
AcDbEntity
8
Geo
100
AcDbLine
10
-38.2123130034523
20
13.9372310502526
30
0.000000000000000
11
-38.1123130034523
21
13.9055794718805
31
0.000000000000000
  0
LINE
  5
F10110
330
F10111
100
AcDbEntity
8
Geo
100
AcDbLine
10
-38.1123130034523
20
13.9055794718805
30
0.000000000000000
11
-38.0123130034523
21
13.8736496453913
31
0.000000000000000
  0
LINE
  5
F10112
330
F10113
100
AcDbEntity
8
Geo
100
AcDbLine
10
-38.0123130034523
20
13.8736496453913
30
0.000000000000000
11
-37.9123130034523
21
13.8414426351098
31
0.000000000000000
  0
LINE
  5
F10114
330
F10115
100
AcDbEntity
8
Geo
100
AcDbLine
10
-37.9123130034523
20
13.8414426351098
30
0.000000000000000
11
-37.8123130034523
21
13.8089595145998
31
0.000000000000000
  0
LINE
  5
F10116
330
F10117
100
AcDbEntity
8
Geo
100
AcDbLine
10
-37.8123130034523
20
13.8089595145998
30
0.000000000000000
11
-37.7123130034523
21
13.7762013666290
31
0.000000000000000
  0
LINE
  5
F10118
330
F10119
100
AcDbEntity
8
Geo
100
AcDbLine
10
-37.7123130034523
20
13.7762013666290
30
0.000000000000000
11
-37.6123130034523
21
13.7431692831327
31
0.000000000000000
  0
LINE
  5
F1011A
330
F1011B
100
AcDbEntity
8
Geo
100
AcDbLine
10
-37.6123130034523
20
13.7431692831327
30
0.000000000000000
11
-37.5123130034523
21
13.7098643651774
31
0.000000000000000
  0
LINE
  5
F1011C
330
F1011D
100
AcDbEntity
8
Geo
100
AcDbLine
10
-37.5123130034523
20
13.7098643651774
30
0.000000000000000
11
-37.4123130034523
21
13.6762877229237
31
0.000000000000000
  0
LINE
  5
F1011E
330
F1011F
100
AcDbEntity
8
Geo
100
AcDbLine
10
-37.4123130034523
20
13.6762877229237
30
0.000000000000000
11
-37.3123130034523
21
13.6424404755901
31
0.000000000000000
  0
LINE
  5
F10120
330
F10121
100
AcDbEntity
8
Geo
100
AcDbLine
10
-37.3123130034523
20
13.6424404755901
30
0.000000000000000
11
-37.2123130034523
21
13.6083237514149
31
0.000000000000000
  0
LINE
  5
F10122
330
F10123
100
AcDbEntity
8
Geo
100
AcDbLine
10
-37.2123130034523
20
13.6083237514149
30
0.000000000000000
11
-37.1123130034523
21
13.5739386876192
31
0.000000000000000
  0
LINE
  5
F10124
330
F10125
100
AcDbEntity
8
Geo
100
AcDbLine
10
-37.1123130034523
20
13.5739386876192
30
0.000000000000000
11
-37.0123130034523
21
13.5392864303686
31
0.000000000000000
  0
LINE
  5
F10126
330
F10127
100
AcDbEntity
8
Geo
100
AcDbLine
10
-37.0123130034523
20
13.5392864303686
30
0.000000000000000
11
-36.9123130034523
21
13.5043681347350
31
0.000000000000000
  0
LINE
  5
F10128
330
F10129
100
AcDbEntity
8
Geo
100
AcDbLine
10
-36.9123130034523
20
13.5043681347350
30
0.000000000000000
11
-36.8123130034523
21
13.4691849646586
31
0.000000000000000
  0
LINE
  5
F1012A
330
F1012B
100
AcDbEntity
8
Geo
100
AcDbLine
10
-36.8123130034523
20
13.4691849646586
30
0.000000000000000
11
-36.7123130034523
21
13.4337380929082
31
0.000000000000000
  0
LINE
  5
F1012C
330
F1012D
100
AcDbEntity
8
Geo
100
AcDbLine
10
-36.7123130034523
20
13.4337380929082
30
0.000000000000000
11
-36.6123130034523
21
13.3980287010431
31
0.000000000000000
  0
LINE
  5
F1012E
330
F1012F
100
AcDbEntity
8
Geo
100
AcDbLine
10
-36.6123130034523
20
13.3980287010431
30
0.000000000000000
11
-36.5123130034523
21
13.3620579793729
31
0.000000000000000
  0
LINE
  5
F10130
330
F10131
100
AcDbEntity
8
Geo
100
AcDbLine
10
-36.5123130034523
20
13.3620579793729
30
0.000000000000000
11
-36.4123130034523
21
13.3258271269185
31
0.000000000000000
  0
LINE
  5
F10132
330
F10133
100
AcDbEntity
8
Geo
100
AcDbLine
10
-36.4123130034523
20
13.3258271269185
30
0.000000000000000
11
-36.3123130034523
21
13.2893373513715
31
0.000000000000000
  0
LINE
  5
F10134
330
F10135
100
AcDbEntity
8
Geo
100
AcDbLine
10
-36.3123130034523
20
13.2893373513715
30
0.000000000000000
11
-36.2123130034523
21
13.2525898690545
31
0.000000000000000
  0
LINE
  5
F10136
330
F10137
100
AcDbEntity
8
Geo
100
AcDbLine
10
-36.2123130034523
20
13.2525898690545
30
0.000000000000000
11
-36.1123130034523
21
13.2155859048800
31
0.000000000000000
  0
LINE
  5
F10138
330
F10139
100
AcDbEntity
8
Geo
100
AcDbLine
10
-36.1123130034523
20
13.2155859048800
30
0.000000000000000
11
-36.0123130034523
21
13.1783266923102
31
0.000000000000000
  0
LINE
  5
F1013A
330
F1013B
100
AcDbEntity
8
Geo
100
AcDbLine
10
-36.0123130034523
20
13.1783266923102
30
0.000000000000000
11
-35.9123130034523
21
13.1408134733153
31
0.000000000000000
  0
LINE
  5
F1013C
330
F1013D
100
AcDbEntity
8
Geo
100
AcDbLine
10
-35.9123130034523
20
13.1408134733153
30
0.000000000000000
11
-35.8123130034523
21
13.1030474983325
31
0.000000000000000
  0
LINE
  5
F1013E
330
F1013F
100
AcDbEntity
8
Geo
100
AcDbLine
10
-35.8123130034523
20
13.1030474983325
30
0.000000000000000
11
-35.7123130034523
21
13.0650300262242
31
0.000000000000000
  0
LINE
  5
F10140
330
F10141
100
AcDbEntity
8
Geo
100
AcDbLine
10
-35.7123130034523
20
13.0650300262242
30
0.000000000000000
11
-35.6123130034523
21
13.0267623242358
31
0.000000000000000
  0
LINE
  5
F10142
330
F10143
100
AcDbEntity
8
Geo
100
AcDbLine
10
-35.6123130034523
20
13.0267623242358
30
0.000000000000000
11
-35.5123130034523
21
12.9882456679539
31
0.000000000000000
  0
LINE
  5
F10144
330
F10145
100
AcDbEntity
8
Geo
100
AcDbLine
10
-35.5123130034523
20
12.9882456679539
30
0.000000000000000
11
-35.4123130034523
21
12.9494813412636
31
0.000000000000000
  0
LINE
  5
F10146
330
F10147
100
AcDbEntity
8
Geo
100
AcDbLine
10
-35.4123130034523
20
12.9494813412636
30
0.000000000000000
11
-35.3123130034523
21
12.9104706363053
31
0.000000000000000
  0
LINE
  5
F10148
330
F10149
100
AcDbEntity
8
Geo
100
AcDbLine
10
-35.3123130034523
20
12.9104706363053
30
0.000000000000000
11
-35.2123130034523
21
12.8712148534324
31
0.000000000000000
  0
LINE
  5
F1014A
330
F1014B
100
AcDbEntity
8
Geo
100
AcDbLine
10
-35.2123130034523
20
12.8712148534324
30
0.000000000000000
11
-35.1123130034523
21
12.8317153011673
31
0.000000000000000
  0
LINE
  5
F1014C
330
F1014D
100
AcDbEntity
8
Geo
100
AcDbLine
10
-35.1123130034523
20
12.8317153011673
30
0.000000000000000
11
-35.0123130034523
21
12.7919732961581
31
0.000000000000000
  0
LINE
  5
F1014E
330
F1014F
100
AcDbEntity
8
Geo
100
AcDbLine
10
-35.0123130034523
20
12.7919732961581
30
0.000000000000000
11
-34.9123130034523
21
12.7519901631346
31
0.000000000000000
  0
LINE
  5
F10150
330
F10151
100
AcDbEntity
8
Geo
100
AcDbLine
10
-34.9123130034523
20
12.7519901631346
30
0.000000000000000
11
-34.8123130034523
21
12.7117672348642
31
0.000000000000000
  0
LINE
  5
F10152
330
F10153
100
AcDbEntity
8
Geo
100
AcDbLine
10
-34.8123130034523
20
12.7117672348642
30
0.000000000000000
11
-34.7123130034523
21
12.6713058521074
31
0.000000000000000
  0
LINE
  5
F10154
330
F10155
100
AcDbEntity
8
Geo
100
AcDbLine
10
-34.7123130034523
20
12.6713058521074
30
0.000000000000000
11
-34.6123130034523
21
12.6306073635733
31
0.000000000000000
  0
LINE
  5
F10156
330
F10157
100
AcDbEntity
8
Geo
100
AcDbLine
10
-34.6123130034523
20
12.6306073635733
30
0.000000000000000
11
-34.5123130034523
21
12.5896731258744
31
0.000000000000000
  0
LINE
  5
F10158
330
F10159
100
AcDbEntity
8
Geo
100
AcDbLine
10
-34.5123130034523
20
12.5896731258744
30
0.000000000000000
11
-34.4123130034523
21
12.5485045034815
31
0.000000000000000
  0
LINE
  5
F1015A
330
F1015B
100
AcDbEntity
8
Geo
100
AcDbLine
10
-34.4123130034523
20
12.5485045034815
30
0.000000000000000
11
-34.3123130034523
21
12.5071028686782
31
0.000000000000000
  0
LINE
  5
F1015C
330
F1015D
100
AcDbEntity
8
Geo
100
AcDbLine
10
-34.3123130034523
20
12.5071028686782
30
0.000000000000000
11
-34.2123130034523
21
12.4654696015151
31
0.000000000000000
  0
LINE
  5
F1015E
330
F1015F
100
AcDbEntity
8
Geo
100
AcDbLine
10
-34.2123130034523
20
12.4654696015151
30
0.000000000000000
11
-34.1123130034523
21
12.4236060897640
31
0.000000000000000
  0
LINE
  5
F10160
330
F10161
100
AcDbEntity
8
Geo
100
AcDbLine
10
-34.1123130034523
20
12.4236060897640
30
0.000000000000000
11
-34.0123130034523
21
12.3815137288713
31
0.000000000000000
  0
LINE
  5
F10162
330
F10163
100
AcDbEntity
8
Geo
100
AcDbLine
10
-34.0123130034523
20
12.3815137288713
30
0.000000000000000
11
-33.9123130034523
21
12.3391939219119
31
0.000000000000000
  0
LINE
  5
F10164
330
F10165
100
AcDbEntity
8
Geo
100
AcDbLine
10
-33.9123130034523
20
12.3391939219119
30
0.000000000000000
11
-33.8123130034523
21
12.2966480795422
31
0.000000000000000
  0
LINE
  5
F10166
330
F10167
100
AcDbEntity
8
Geo
100
AcDbLine
10
-33.8123130034523
20
12.2966480795422
30
0.000000000000000
11
-33.7123130034523
21
12.2538776199528
31
0.000000000000000
  0
LINE
  5
F10168
330
F10169
100
AcDbEntity
8
Geo
100
AcDbLine
10
-33.7123130034523
20
12.2538776199528
30
0.000000000000000
11
-33.6123130034523
21
12.2108839688218
31
0.000000000000000
  0
LINE
  5
F1016A
330
F1016B
100
AcDbEntity
8
Geo
100
AcDbLine
10
-33.6123130034523
20
12.2108839688218
30
0.000000000000000
11
-33.5123130034523
21
12.1676685592670
31
0.000000000000000
  0
LINE
  5
F1016C
330
F1016D
100
AcDbEntity
8
Geo
100
AcDbLine
10
-33.5123130034523
20
12.1676685592670
30
0.000000000000000
11
-33.4123130034523
21
12.1242328317980
31
0.000000000000000
  0
LINE
  5
F1016E
330
F1016F
100
AcDbEntity
8
Geo
100
AcDbLine
10
-33.4123130034523
20
12.1242328317980
30
0.000000000000000
11
-33.3123130034523
21
12.0805782342683
31
0.000000000000000
  0
LINE
  5
F10170
330
F10171
100
AcDbEntity
8
Geo
100
AcDbLine
10
-33.3123130034523
20
12.0805782342683
30
0.000000000000000
11
-33.2123130034523
21
12.0367062218272
31
0.000000000000000
  0
LINE
  5
F10172
330
F10173
100
AcDbEntity
8
Geo
100
AcDbLine
10
-33.2123130034523
20
12.0367062218272
30
0.000000000000000
11
-33.1123130034523
21
11.9926182568711
31
0.000000000000000
  0
LINE
  5
F10174
330
F10175
100
AcDbEntity
8
Geo
100
AcDbLine
10
-33.1123130034523
20
11.9926182568711
30
0.000000000000000
11
-33.0123130034523
21
11.9483158089945
31
0.000000000000000
  0
LINE
  5
F10176
330
F10177
100
AcDbEntity
8
Geo
100
AcDbLine
10
-33.0123130034523
20
11.9483158089945
30
0.000000000000000
11
-32.9123130034523
21
11.9038003549419
31
0.000000000000000
  0
LINE
  5
F10178
330
F10179
100
AcDbEntity
8
Geo
100
AcDbLine
10
-32.9123130034523
20
11.9038003549419
30
0.000000000000000
11
-32.8123130034523
21
11.8590733785574
31
0.000000000000000
  0
LINE
  5
F1017A
330
F1017B
100
AcDbEntity
8
Geo
100
AcDbLine
10
-32.8123130034523
20
11.8590733785574
30
0.000000000000000
11
-32.7123130034523
21
11.8141363707361
31
0.000000000000000
  0
LINE
  5
F1017C
330
F1017D
100
AcDbEntity
8
Geo
100
AcDbLine
10
-32.7123130034523
20
11.8141363707361
30
0.000000000000000
11
-32.6123130034523
21
11.7689908293742
31
0.000000000000000
  0
LINE
  5
F1017E
330
F1017F
100
AcDbEntity
8
Geo
100
AcDbLine
10
-32.6123130034523
20
11.7689908293742
30
0.000000000000000
11
-32.5123130034523
21
11.7236382593188
31
0.000000000000000
  0
LINE
  5
F10180
330
F10181
100
AcDbEntity
8
Geo
100
AcDbLine
10
-32.5123130034523
20
11.7236382593188
30
0.000000000000000
11
-32.4123130034523
21
11.6780801723181
31
0.000000000000000
  0
LINE
  5
F10182
330
F10183
100
AcDbEntity
8
Geo
100
AcDbLine
10
-32.4123130034523
20
11.6780801723181
30
0.000000000000000
11
-32.3123130034523
21
11.6323180869708
31
0.000000000000000
  0
LINE
  5
F10184
330
F10185
100
AcDbEntity
8
Geo
100
AcDbLine
10
-32.3123130034523
20
11.6323180869708
30
0.000000000000000
11
-32.2123130034523
21
11.5863535286754
31
0.000000000000000
  0
LINE
  5
F10186
330
F10187
100
AcDbEntity
8
Geo
100
AcDbLine
10
-32.2123130034523
20
11.5863535286754
30
0.000000000000000
11
-32.1123130034523
21
11.5401880295797
31
0.000000000000000
  0
LINE
  5
F10188
330
F10189
100
AcDbEntity
8
Geo
100
AcDbLine
10
-32.1123130034523
20
11.5401880295797
30
0.000000000000000
11
-32.0123130034523
21
11.4938231285294
31
0.000000000000000
  0
LINE
  5
F1018A
330
F1018B
100
AcDbEntity
8
Geo
100
AcDbLine
10
-32.0123130034523
20
11.4938231285294
30
0.000000000000000
11
-31.9123130034523
21
11.4472603710168
31
0.000000000000000
  0
LINE
  5
F1018C
330
F1018D
100
AcDbEntity
8
Geo
100
AcDbLine
10
-31.9123130034523
20
11.4472603710168
30
0.000000000000000
11
-31.8123130034523
21
11.4005013091296
31
0.000000000000000
  0
LINE
  5
F1018E
330
F1018F
100
AcDbEntity
8
Geo
100
AcDbLine
10
-31.8123130034523
20
11.4005013091296
30
0.000000000000000
11
-31.7123130034523
21
11.3535475014988
31
0.000000000000000
  0
LINE
  5
F10190
330
F10191
100
AcDbEntity
8
Geo
100
AcDbLine
10
-31.7123130034523
20
11.3535475014988
30
0.000000000000000
11
-31.6123130034523
21
11.3064005132470
31
0.000000000000000
  0
LINE
  5
F10192
330
F10193
100
AcDbEntity
8
Geo
100
AcDbLine
10
-31.6123130034523
20
11.3064005132470
30
0.000000000000000
11
-31.5123130034523
21
11.2590619159362
31
0.000000000000000
  0
LINE
  5
F10194
330
F10195
100
AcDbEntity
8
Geo
100
AcDbLine
10
-31.5123130034523
20
11.2590619159362
30
0.000000000000000
11
-31.4123130034523
21
11.2115332875151
31
0.000000000000000
  0
LINE
  5
F10196
330
F10197
100
AcDbEntity
8
Geo
100
AcDbLine
10
-31.4123130034523
20
11.2115332875151
30
0.000000000000000
11
-31.3123130034523
21
11.1638162122670
31
0.000000000000000
  0
LINE
  5
F10198
330
F10199
100
AcDbEntity
8
Geo
100
AcDbLine
10
-31.3123130034523
20
11.1638162122670
30
0.000000000000000
11
-31.2123130034523
21
11.1159122807567
31
0.000000000000000
  0
LINE
  5
F1019A
330
F1019B
100
AcDbEntity
8
Geo
100
AcDbLine
10
-31.2123130034523
20
11.1159122807567
30
0.000000000000000
11
-31.1123130034523
21
11.0678230897773
31
0.000000000000000
  0
LINE
  5
F1019C
330
F1019D
100
AcDbEntity
8
Geo
100
AcDbLine
10
-31.1123130034523
20
11.0678230897773
30
0.000000000000000
11
-31.0123130034523
21
11.0195502422976
31
0.000000000000000
  0
LINE
  5
F1019E
330
F1019F
100
AcDbEntity
8
Geo
100
AcDbLine
10
-31.0123130034523
20
11.0195502422976
30
0.000000000000000
11
-30.9123130034523
21
10.9710953474080
31
0.000000000000000
  0
LINE
  5
F101A0
330
F101A1
100
AcDbEntity
8
Geo
100
AcDbLine
10
-30.9123130034523
20
10.9710953474080
30
0.000000000000000
11
-30.8123130034523
21
10.9224600202671
31
0.000000000000000
  0
LINE
  5
F101A2
330
F101A3
100
AcDbEntity
8
Geo
100
AcDbLine
10
-30.8123130034523
20
10.9224600202671
30
0.000000000000000
11
-30.7123130034523
21
10.8736458820479
31
0.000000000000000
  0
LINE
  5
F101A4
330
F101A5
100
AcDbEntity
8
Geo
100
AcDbLine
10
-30.7123130034523
20
10.8736458820479
30
0.000000000000000
11
-30.6123130034523
21
10.8246545598840
31
0.000000000000000
  0
LINE
  5
F101A6
330
F101A7
100
AcDbEntity
8
Geo
100
AcDbLine
10
-30.6123130034523
20
10.8246545598840
30
0.000000000000000
11
-30.5123130034523
21
10.7754876868149
31
0.000000000000000
  0
LINE
  5
F101A8
330
F101A9
100
AcDbEntity
8
Geo
100
AcDbLine
10
-30.5123130034523
20
10.7754876868149
30
0.000000000000000
11
-30.4123130034523
21
10.7261469017317
31
0.000000000000000
  0
LINE
  5
F101AA
330
F101AB
100
AcDbEntity
8
Geo
100
AcDbLine
10
-30.4123130034523
20
10.7261469017317
30
0.000000000000000
11
-30.3123130034523
21
10.6766338493228
31
0.000000000000000
  0
LINE
  5
F101AC
330
F101AD
100
AcDbEntity
8
Geo
100
AcDbLine
10
-30.3123130034523
20
10.6766338493228
30
0.000000000000000
11
-30.2123130034523
21
10.6269501800186
31
0.000000000000000
  0
LINE
  5
F101AE
330
F101AF
100
AcDbEntity
8
Geo
100
AcDbLine
10
-30.2123130034523
20
10.6269501800186
30
0.000000000000000
11
-30.1123130034523
21
10.5770975499368
31
0.000000000000000
  0
LINE
  5
F101B0
330
F101B1
100
AcDbEntity
8
Geo
100
AcDbLine
10
-30.1123130034523
20
10.5770975499368
30
0.000000000000000
11
-30.0123130034523
21
10.5270776208272
31
0.000000000000000
  0
LINE
  5
F101B2
330
F101B3
100
AcDbEntity
8
Geo
100
AcDbLine
10
-30.0123130034523
20
10.5270776208272
30
0.000000000000000
11
-29.9123130034523
21
10.4768920600162
31
0.000000000000000
  0
LINE
  5
F101B4
330
F101B5
100
AcDbEntity
8
Geo
100
AcDbLine
10
-29.9123130034523
20
10.4768920600162
30
0.000000000000000
11
-29.8123130034523
21
10.4265425403510
31
0.000000000000000
  0
LINE
  5
F101B6
330
F101B7
100
AcDbEntity
8
Geo
100
AcDbLine
10
-29.8123130034523
20
10.4265425403510
30
0.000000000000000
11
-29.7123130034523
21
10.3760307401443
31
0.000000000000000
  0
LINE
  5
F101B8
330
F101B9
100
AcDbEntity
8
Geo
100
AcDbLine
10
-29.7123130034523
20
10.3760307401443
30
0.000000000000000
11
-29.6123130034523
21
10.3253583431182
31
0.000000000000000
  0
LINE
  5
F101BA
330
F101BB
100
AcDbEntity
8
Geo
100
AcDbLine
10
-29.6123130034523
20
10.3253583431182
30
0.000000000000000
11
-29.5123130034523
21
10.2745270383479
31
0.000000000000000
  0
LINE
  5
F101BC
330
F101BD
100
AcDbEntity
8
Geo
100
AcDbLine
10
-29.5123130034523
20
10.2745270383479
30
0.000000000000000
11
-29.4123130034523
21
10.2235385202054
31
0.000000000000000
  0
LINE
  5
F101BE
330
F101BF
100
AcDbEntity
8
Geo
100
AcDbLine
10
-29.4123130034523
20
10.2235385202054
30
0.000000000000000
11
-29.3123130034523
21
10.1723944883033
31
0.000000000000000
  0
LINE
  5
F101C0
330
F101C1
100
AcDbEntity
8
Geo
100
AcDbLine
10
-29.3123130034523
20
10.1723944883033
30
0.000000000000000
11
-29.2123130034523
21
10.1210966474380
31
0.000000000000000
  0
LINE
  5
F101C2
330
F101C3
100
AcDbEntity
8
Geo
100
AcDbLine
10
-29.2123130034523
20
10.1210966474380
30
0.000000000000000
11
-29.1123130034523
21
10.0696467075327
31
0.000000000000000
  0
LINE
  5
F101C4
330
F101C5
100
AcDbEntity
8
Geo
100
AcDbLine
10
-29.1123130034523
20
10.0696467075327
30
0.000000000000000
11
-29.0123130034523
21
10.0180463835806
31
0.000000000000000
  0
LINE
  5
F101C6
330
F101C7
100
AcDbEntity
8
Geo
100
AcDbLine
10
-29.0123130034523
20
10.0180463835806
30
0.000000000000000
11
-28.9123130034523
21
9.96629739558789
31
0.000000000000000
  0
LINE
  5
F101C8
330
F101C9
100
AcDbEntity
8
Geo
100
AcDbLine
10
-28.9123130034523
20
9.96629739558789
30
0.000000000000000
11
-28.8123130034523
21
9.91440146851589
31
0.000000000000000
  0
LINE
  5
F101CA
330
F101CB
100
AcDbEntity
8
Geo
100
AcDbLine
10
-28.8123130034523
20
9.91440146851589
30
0.000000000000000
11
-28.7123130034523
21
9.86236033222408
31
0.000000000000000
  0
LINE
  5
F101CC
330
F101CD
100
AcDbEntity
8
Geo
100
AcDbLine
10
-28.7123130034523
20
9.86236033222408
30
0.000000000000000
11
-28.6123130034523
21
9.81017572141218
31
0.000000000000000
  0
LINE
  5
F101CE
330
F101CF
100
AcDbEntity
8
Geo
100
AcDbLine
10
-28.6123130034523
20
9.81017572141218
30
0.000000000000000
11
-28.5123130034523
21
9.75784937556238
31
0.000000000000000
  0
LINE
  5
F101D0
330
F101D1
100
AcDbEntity
8
Geo
100
AcDbLine
10
-28.5123130034523
20
9.75784937556238
30
0.000000000000000
11
-28.4123130034523
21
9.70538303888138
31
0.000000000000000
  0
LINE
  5
F101D2
330
F101D3
100
AcDbEntity
8
Geo
100
AcDbLine
10
-28.4123130034523
20
9.70538303888138
30
0.000000000000000
11
-28.3123130034523
21
9.65277846024219
31
0.000000000000000
  0
LINE
  5
F101D4
330
F101D5
100
AcDbEntity
8
Geo
100
AcDbLine
10
-48.2123130034523
20
5.55811277330265
30
0.000000000000000
11
-48.1123130034523
21
5.50037806713327
31
0.000000000000000
  0
LINE
  5
F101D6
330
F101D7
100
AcDbEntity
8
Geo
100
AcDbLine
10
-48.1123130034523
20
5.50037806713327
30
0.000000000000000
11
-48.0123130034523
21
5.44264528544878
31
0.000000000000000
  0
LINE
  5
F101D8
330
F101D9
100
AcDbEntity
8
Geo
100
AcDbLine
10
-48.0123130034523
20
5.44264528544878
30
0.000000000000000
11
-47.9123130034523
21
5.38491635266987
31
0.000000000000000
  0
LINE
  5
F101DA
330
F101DB
100
AcDbEntity
8
Geo
100
AcDbLine
10
-47.9123130034523
20
5.38491635266987
30
0.000000000000000
11
-47.8123130034523
21
5.32719319308893
31
0.000000000000000
  0
LINE
  5
F101DC
330
F101DD
100
AcDbEntity
8
Geo
100
AcDbLine
10
-47.8123130034523
20
5.32719319308893
30
0.000000000000000
11
-47.7123130034523
21
5.26947773080596
31
0.000000000000000
  0
LINE
  5
F101DE
330
F101DF
100
AcDbEntity
8
Geo
100
AcDbLine
10
-47.7123130034523
20
5.26947773080596
30
0.000000000000000
11
-47.6123130034523
21
5.21177188966434
31
0.000000000000000
  0
LINE
  5
F101E0
330
F101E1
100
AcDbEntity
8
Geo
100
AcDbLine
10
-47.6123130034523
20
5.21177188966434
30
0.000000000000000
11
-47.5123130034523
21
5.15407759318678
31
0.000000000000000
  0
LINE
  5
F101E2
330
F101E3
100
AcDbEntity
8
Geo
100
AcDbLine
10
-47.5123130034523
20
5.15407759318678
30
0.000000000000000
11
-47.4123130034523
21
5.09639676451114
31
0.000000000000000
  0
LINE
  5
F101E4
330
F101E5
100
AcDbEntity
8
Geo
100
AcDbLine
10
-47.4123130034523
20
5.09639676451114
30
0.000000000000000
11
-47.3123130034523
21
5.03873132632638
31
0.000000000000000
  0
LINE
  5
F101E6
330
F101E7
100
AcDbEntity
8
Geo
100
AcDbLine
10
-47.3123130034523
20
5.03873132632638
30
0.000000000000000
11
-47.2123130034523
21
4.98108320080843
31
0.000000000000000
  0
LINE
  5
F101E8
330
F101E9
100
AcDbEntity
8
Geo
100
AcDbLine
10
-47.2123130034523
20
4.98108320080843
30
0.000000000000000
11
-47.1123130034523
21
4.92345430955613
31
0.000000000000000
  0
LINE
  5
F101EA
330
F101EB
100
AcDbEntity
8
Geo
100
AcDbLine
10
-47.1123130034523
20
4.92345430955613
30
0.000000000000000
11
-47.0123130034523
21
4.86584657352719
31
0.000000000000000
  0
LINE
  5
F101EC
330
F101ED
100
AcDbEntity
8
Geo
100
AcDbLine
10
-47.0123130034523
20
4.86584657352719
30
0.000000000000000
11
-46.9123130034523
21
4.80826191297414
31
0.000000000000000
  0
LINE
  5
F101EE
330
F101EF
100
AcDbEntity
8
Geo
100
AcDbLine
10
-46.9123130034523
20
4.80826191297414
30
0.000000000000000
11
-46.8123130034523
21
4.75070224738035
31
0.000000000000000
  0
LINE
  5
F101F0
330
F101F1
100
AcDbEntity
8
Geo
100
AcDbLine
10
-46.8123130034523
20
4.75070224738035
30
0.000000000000000
11
-46.7123130034523
21
4.69316949539599
31
0.000000000000000
  0
LINE
  5
F101F2
330
F101F3
100
AcDbEntity
8
Geo
100
AcDbLine
10
-46.7123130034523
20
4.69316949539599
30
0.000000000000000
11
-46.6123130034523
21
4.63566557477414
31
0.000000000000000
  0
LINE
  5
F101F4
330
F101F5
100
AcDbEntity
8
Geo
100
AcDbLine
10
-46.6123130034523
20
4.63566557477414
30
0.000000000000000
11
-46.5123130034523
21
4.57819240230682
31
0.000000000000000
  0
LINE
  5
F101F6
330
F101F7
100
AcDbEntity
8
Geo
100
AcDbLine
10
-46.5123130034523
20
4.57819240230682
30
0.000000000000000
11
-46.4123130034523
21
4.52075189376114
31
0.000000000000000
  0
LINE
  5
F101F8
330
F101F9
100
AcDbEntity
8
Geo
100
AcDbLine
10
-46.4123130034523
20
4.52075189376114
30
0.000000000000000
11
-46.3123130034523
21
4.46334596381540
31
0.000000000000000
  0
LINE
  5
F101FA
330
F101FB
100
AcDbEntity
8
Geo
100
AcDbLine
10
-46.3123130034523
20
4.46334596381540
30
0.000000000000000
11
-46.2123130034523
21
4.40597652599527
31
0.000000000000000
  0
LINE
  5
F101FC
330
F101FD
100
AcDbEntity
8
Geo
100
AcDbLine
10
-46.2123130034523
20
4.40597652599527
30
0.000000000000000
11
-46.1123130034523
21
4.34864549261004
31
0.000000000000000
  0
LINE
  5
F101FE
330
F101FF
100
AcDbEntity
8
Geo
100
AcDbLine
10
-46.1123130034523
20
4.34864549261004
30
0.000000000000000
11
-46.0123130034523
21
4.29135477468884
31
0.000000000000000
  0
LINE
  5
F10200
330
F10201
100
AcDbEntity
8
Geo
100
AcDbLine
10
-46.0123130034523
20
4.29135477468884
30
0.000000000000000
11
-45.9123130034523
21
4.23410628191697
31
0.000000000000000
  0
LINE
  5
F10202
330
F10203
100
AcDbEntity
8
Geo
100
AcDbLine
10
-45.9123130034523
20
4.23410628191697
30
0.000000000000000
11
-45.8123130034523
21
4.17690192257222
31
0.000000000000000
  0
LINE
  5
F10204
330
F10205
100
AcDbEntity
8
Geo
100
AcDbLine
10
-45.8123130034523
20
4.17690192257222
30
0.000000000000000
11
-45.7123130034523
21
4.11974360346128
31
0.000000000000000
  0
LINE
  5
F10206
330
F10207
100
AcDbEntity
8
Geo
100
AcDbLine
10
-45.7123130034523
20
4.11974360346128
30
0.000000000000000
11
-45.6123130034523
21
4.06263322985614
31
0.000000000000000
  0
LINE
  5
F10208
330
F10209
100
AcDbEntity
8
Geo
100
AcDbLine
10
-45.6123130034523
20
4.06263322985614
30
0.000000000000000
11
-45.5123130034523
21
4.00557270543065
31
0.000000000000000
  0
LINE
  5
F1020A
330
F1020B
100
AcDbEntity
8
Geo
100
AcDbLine
10
-45.5123130034523
20
4.00557270543065
30
0.000000000000000
11
-45.4123130034523
21
3.94856393219700
31
0.000000000000000
  0
LINE
  5
F1020C
330
F1020D
100
AcDbEntity
8
Geo
100
AcDbLine
10
-45.4123130034523
20
3.94856393219700
30
0.000000000000000
11
-45.3123130034523
21
3.89160881044236
31
0.000000000000000
  0
LINE
  5
F1020E
330
F1020F
100
AcDbEntity
8
Geo
100
AcDbLine
10
-45.3123130034523
20
3.89160881044236
30
0.000000000000000
11
-45.2123130034523
21
3.83470923866551
31
0.000000000000000
  0
LINE
  5
F10210
330
F10211
100
AcDbEntity
8
Geo
100
AcDbLine
10
-45.2123130034523
20
3.83470923866551
30
0.000000000000000
11
-45.1123130034523
21
3.77786711351357
31
0.000000000000000
  0
LINE
  5
F10212
330
F10213
100
AcDbEntity
8
Geo
100
AcDbLine
10
-45.1123130034523
20
3.77786711351357
30
0.000000000000000
11
-45.0123130034523
21
3.72108432971878
31
0.000000000000000
  0
LINE
  5
F10214
330
F10215
100
AcDbEntity
8
Geo
100
AcDbLine
10
-45.0123130034523
20
3.72108432971878
30
0.000000000000000
11
-44.9123130034523
21
3.66436278003536
31
0.000000000000000
  0
LINE
  5
F10216
330
F10217
100
AcDbEntity
8
Geo
100
AcDbLine
10
-44.9123130034523
20
3.66436278003536
30
0.000000000000000
11
-44.8123130034523
21
3.60770435517636
31
0.000000000000000
  0
LINE
  5
F10218
330
F10219
100
AcDbEntity
8
Geo
100
AcDbLine
10
-44.8123130034523
20
3.60770435517636
30
0.000000000000000
11
-44.7123130034523
21
3.55111094375070
31
0.000000000000000
  0
LINE
  5
F1021A
330
F1021B
100
AcDbEntity
8
Geo
100
AcDbLine
10
-44.7123130034523
20
3.55111094375070
30
0.000000000000000
11
-44.6123130034523
21
3.49458443220020
31
0.000000000000000
  0
LINE
  5
F1021C
330
F1021D
100
AcDbEntity
8
Geo
100
AcDbLine
10
-44.6123130034523
20
3.49458443220020
30
0.000000000000000
11
-44.5123130034523
21
3.43812670473667
31
0.000000000000000
  0
LINE
  5
F1021E
330
F1021F
100
AcDbEntity
8
Geo
100
AcDbLine
10
-44.5123130034523
20
3.43812670473667
30
0.000000000000000
11
-44.4123130034523
21
3.38173964327913
31
0.000000000000000
  0
LINE
  5
F10220
330
F10221
100
AcDbEntity
8
Geo
100
AcDbLine
10
-44.4123130034523
20
3.38173964327913
30
0.000000000000000
11
-44.3123130034523
21
3.32542512739107
31
0.000000000000000
  0
LINE
  5
F10222
330
F10223
100
AcDbEntity
8
Geo
100
AcDbLine
10
-44.3123130034523
20
3.32542512739107
30
0.000000000000000
11
-44.2123130034523
21
3.26918503421781
31
0.000000000000000
  0
LINE
  5
F10224
330
F10225
100
AcDbEntity
8
Geo
100
AcDbLine
10
-44.2123130034523
20
3.26918503421781
30
0.000000000000000
11
-44.1123130034523
21
3.21302123842392
31
0.000000000000000
  0
LINE
  5
F10226
330
F10227
100
AcDbEntity
8
Geo
100
AcDbLine
10
-44.1123130034523
20
3.21302123842392
30
0.000000000000000
11
-44.0123130034523
21
3.15693561213072
31
0.000000000000000
  0
LINE
  5
F10228
330
F10229
100
AcDbEntity
8
Geo
100
AcDbLine
10
-44.0123130034523
20
3.15693561213072
30
0.000000000000000
11
-43.9123130034523
21
3.10093002485390
31
0.000000000000000
  0
LINE
  5
F1022A
330
F1022B
100
AcDbEntity
8
Geo
100
AcDbLine
10
-43.9123130034523
20
3.10093002485390
30
0.000000000000000
11
-43.8123130034523
21
3.04500634344117
31
0.000000000000000
  0
LINE
  5
F1022C
330
F1022D
100
AcDbEntity
8
Geo
100
AcDbLine
10
-43.8123130034523
20
3.04500634344117
30
0.000000000000000
11
-43.7123130034523
21
2.98916643201008
31
0.000000000000000
  0
LINE
  5
F1022E
330
F1022F
100
AcDbEntity
8
Geo
100
AcDbLine
10
-43.7123130034523
20
2.98916643201008
30
0.000000000000000
11
-43.6123130034523
21
2.93341215188583
31
0.000000000000000
  0
LINE
  5
F10230
330
F10231
100
AcDbEntity
8
Geo
100
AcDbLine
10
-43.6123130034523
20
2.93341215188583
30
0.000000000000000
11
-43.5123130034523
21
2.87774536153927
31
0.000000000000000
  0
LINE
  5
F10232
330
F10233
100
AcDbEntity
8
Geo
100
AcDbLine
10
-43.5123130034523
20
2.87774536153927
30
0.000000000000000
11
-43.4123130034523
21
2.82216791652492
31
0.000000000000000
  0
LINE
  5
F10234
330
F10235
100
AcDbEntity
8
Geo
100
AcDbLine
10
-43.4123130034523
20
2.82216791652492
30
0.000000000000000
11
-43.3123130034523
21
2.76668166941913
31
0.000000000000000
  0
LINE
  5
F10236
330
F10237
100
AcDbEntity
8
Geo
100
AcDbLine
10
-43.3123130034523
20
2.76668166941913
30
0.000000000000000
11
-43.2123130034523
21
2.71128846975834
31
0.000000000000000
  0
LINE
  5
F10238
330
F10239
100
AcDbEntity
8
Geo
100
AcDbLine
10
-43.2123130034523
20
2.71128846975834
30
0.000000000000000
11
-43.1123130034523
21
2.65599016397741
31
0.000000000000000
  0
LINE
  5
F1023A
330
F1023B
100
AcDbEntity
8
Geo
100
AcDbLine
10
-43.1123130034523
20
2.65599016397741
30
0.000000000000000
11
-43.0123130034523
21
2.60078859534807
31
0.000000000000000
  0
LINE
  5
F1023C
330
F1023D
100
AcDbEntity
8
Geo
100
AcDbLine
10
-43.0123130034523
20
2.60078859534807
30
0.000000000000000
11
-42.9123130034523
21
2.54568560391751
31
0.000000000000000
  0
LINE
  5
F1023E
330
F1023F
100
AcDbEntity
8
Geo
100
AcDbLine
10
-42.9123130034523
20
2.54568560391751
30
0.000000000000000
11
-42.8123130034523
21
2.49068302644700
31
0.000000000000000
  0
LINE
  5
F10240
330
F10241
100
AcDbEntity
8
Geo
100
AcDbLine
10
-42.8123130034523
20
2.49068302644700
30
0.000000000000000
11
-42.7123130034523
21
2.43578269635069
31
0.000000000000000
  0
LINE
  5
F10242
330
F10243
100
AcDbEntity
8
Geo
100
AcDbLine
10
-42.7123130034523
20
2.43578269635069
30
0.000000000000000
11
-42.6123130034523
21
2.38098644363451
31
0.000000000000000
  0
LINE
  5
F10244
330
F10245
100
AcDbEntity
8
Geo
100
AcDbLine
10
-42.6123130034523
20
2.38098644363451
30
0.000000000000000
11
-42.5123130034523
21
2.32629609483515
31
0.000000000000000
  0
LINE
  5
F10246
330
F10247
100
AcDbEntity
8
Geo
100
AcDbLine
10
-42.5123130034523
20
2.32629609483515
30
0.000000000000000
11
-42.4123130034523
21
2.27171347295916
31
0.000000000000000
  0
LINE
  5
F10248
330
F10249
100
AcDbEntity
8
Geo
100
AcDbLine
10
-42.4123130034523
20
2.27171347295916
30
0.000000000000000
11
-42.3123130034523
21
2.21724039742221
31
0.000000000000000
  0
LINE
  5
F1024A
330
F1024B
100
AcDbEntity
8
Geo
100
AcDbLine
10
-42.3123130034523
20
2.21724039742221
30
0.000000000000000
11
-42.2123130034523
21
2.16287868398846
31
0.000000000000000
  0
LINE
  5
F1024C
330
F1024D
100
AcDbEntity
8
Geo
100
AcDbLine
10
-42.2123130034523
20
2.16287868398846
30
0.000000000000000
11
-42.1123130034523
21
2.10863014470997
31
0.000000000000000
  0
LINE
  5
F1024E
330
F1024F
100
AcDbEntity
8
Geo
100
AcDbLine
10
-42.1123130034523
20
2.10863014470997
30
0.000000000000000
11
-42.0123130034523
21
2.05449658786638
31
0.000000000000000
  0
LINE
  5
F10250
330
F10251
100
AcDbEntity
8
Geo
100
AcDbLine
10
-42.0123130034523
20
2.05449658786638
30
0.000000000000000
11
-41.9123130034523
21
2.00047981790456
31
0.000000000000000
  0
LINE
  5
F10252
330
F10253
100
AcDbEntity
8
Geo
100
AcDbLine
10
-41.9123130034523
20
2.00047981790456
30
0.000000000000000
11
-41.8123130034523
21
1.94658163537851
31
0.000000000000000
  0
LINE
  5
F10254
330
F10255
100
AcDbEntity
8
Geo
100
AcDbLine
10
-41.8123130034523
20
1.94658163537851
30
0.000000000000000
11
-41.7123130034523
21
1.89280383688932
31
0.000000000000000
  0
LINE
  5
F10256
330
F10257
100
AcDbEntity
8
Geo
100
AcDbLine
10
-41.7123130034523
20
1.89280383688932
30
0.000000000000000
11
-41.6123130034523
21
1.83914821502530
31
0.000000000000000
  0
LINE
  5
F10258
330
F10259
100
AcDbEntity
8
Geo
100
AcDbLine
10
-41.6123130034523
20
1.83914821502530
30
0.000000000000000
11
-41.5123130034523
21
1.78561655830221
31
0.000000000000000
  0
LINE
  5
F1025A
330
F1025B
100
AcDbEntity
8
Geo
100
AcDbLine
10
-41.5123130034523
20
1.78561655830221
30
0.000000000000000
11
-41.4123130034523
21
1.73221065110364
31
0.000000000000000
  0
LINE
  5
F1025C
330
F1025D
100
AcDbEntity
8
Geo
100
AcDbLine
10
-41.4123130034523
20
1.73221065110364
30
0.000000000000000
11
-41.3123130034523
21
1.67893227362157
31
0.000000000000000
  0
LINE
  5
F1025E
330
F1025F
100
AcDbEntity
8
Geo
100
AcDbLine
10
-41.3123130034523
20
1.67893227362157
30
0.000000000000000
11
-41.2123130034523
21
1.62578320179697
31
0.000000000000000
  0
LINE
  5
F10260
330
F10261
100
AcDbEntity
8
Geo
100
AcDbLine
10
-41.2123130034523
20
1.62578320179697
30
0.000000000000000
11
-41.1123130034523
21
1.57276520726064
31
0.000000000000000
  0
LINE
  5
F10262
330
F10263
100
AcDbEntity
8
Geo
100
AcDbLine
10
-41.1123130034523
20
1.57276520726064
30
0.000000000000000
11
-41.0123130034523
21
1.51988005727418
31
0.000000000000000
  0
LINE
  5
F10264
330
F10265
100
AcDbEntity
8
Geo
100
AcDbLine
10
-41.0123130034523
20
1.51988005727418
30
0.000000000000000
11
-40.9123130034523
21
1.46712951467100
31
0.000000000000000
  0
LINE
  5
F10266
330
F10267
100
AcDbEntity
8
Geo
100
AcDbLine
10
-40.9123130034523
20
1.46712951467100
30
0.000000000000000
11
-40.8123130034523
21
1.41451533779765
31
0.000000000000000
  0
LINE
  5
F10268
330
F10269
100
AcDbEntity
8
Geo
100
AcDbLine
10
-40.8123130034523
20
1.41451533779765
30
0.000000000000000
11
-40.7123130034523
21
1.36203928045515
31
0.000000000000000
  0
LINE
  5
F1026A
330
F1026B
100
AcDbEntity
8
Geo
100
AcDbLine
10
-40.7123130034523
20
1.36203928045515
30
0.000000000000000
11
-40.6123130034523
21
1.30970309184056
31
0.000000000000000
  0
LINE
  5
F1026C
330
F1026D
100
AcDbEntity
8
Geo
100
AcDbLine
10
-40.6123130034523
20
1.30970309184056
30
0.000000000000000
11
-40.5123130034523
21
1.25750851648864
31
0.000000000000000
  0
LINE
  5
F1026E
330
F1026F
100
AcDbEntity
8
Geo
100
AcDbLine
10
-40.5123130034523
20
1.25750851648864
30
0.000000000000000
11
-40.4123130034523
21
1.20545729421375
31
0.000000000000000
  0
LINE
  5
F10270
330
F10271
100
AcDbEntity
8
Geo
100
AcDbLine
10
-40.4123130034523
20
1.20545729421375
30
0.000000000000000
11
-40.3123130034523
21
1.15355116005180
31
0.000000000000000
  0
LINE
  5
F10272
330
F10273
100
AcDbEntity
8
Geo
100
AcDbLine
10
-40.3123130034523
20
1.15355116005180
30
0.000000000000000
11
-40.2123130034523
21
1.10179184420246
31
0.000000000000000
  0
LINE
  5
F10274
330
F10275
100
AcDbEntity
8
Geo
100
AcDbLine
10
-40.2123130034523
20
1.10179184420246
30
0.000000000000000
11
-40.1123130034523
21
1.05018107197148
31
0.000000000000000
  0
LINE
  5
F10276
330
F10277
100
AcDbEntity
8
Geo
100
AcDbLine
10
-40.1123130034523
20
1.05018107197148
30
0.000000000000000
11
-40.0123130034523
21
0.998720563713134
31
0.000000000000000
  0
LINE
  5
F10278
330
F10279
100
AcDbEntity
8
Geo
100
AcDbLine
10
-40.0123130034523
20
0.998720563713134
30
0.000000000000000
11
-39.9123130034523
21
0.947412034772945
31
0.000000000000000
  0
LINE
  5
F1027A
330
F1027B
100
AcDbEntity
8
Geo
100
AcDbLine
10
-39.9123130034523
20
0.947412034772945
30
0.000000000000000
11
-39.8123130034523
21
0.896257195430458
31
0.000000000000000
  0
LINE
  5
F1027C
330
F1027D
100
AcDbEntity
8
Geo
100
AcDbLine
10
-39.8123130034523
20
0.896257195430458
30
0.000000000000000
11
-39.7123130034523
21
0.845257750842246
31
0.000000000000000
  0
LINE
  5
F1027E
330
F1027F
100
AcDbEntity
8
Geo
100
AcDbLine
10
-39.7123130034523
20
0.845257750842246
30
0.000000000000000
11
-39.6123130034523
21
0.794415400985075
31
0.000000000000000
  0
LINE
  5
F10280
330
F10281
100
AcDbEntity
8
Geo
100
AcDbLine
10
-39.6123130034523
20
0.794415400985075
30
0.000000000000000
11
-39.5123130034523
21
0.743731840599234
31
0.000000000000000
  0
LINE
  5
F10282
330
F10283
100
AcDbEntity
8
Geo
100
AcDbLine
10
-39.5123130034523
20
0.743731840599234
30
0.000000000000000
11
-39.4123130034523
21
0.693208759132038
31
0.000000000000000
  0
LINE
  5
F10284
330
F10285
100
AcDbEntity
8
Geo
100
AcDbLine
10
-39.4123130034523
20
0.693208759132038
30
0.000000000000000
11
-39.3123130034523
21
0.642847840681529
31
0.000000000000000
  0
LINE
  5
F10286
330
F10287
100
AcDbEntity
8
Geo
100
AcDbLine
10
-39.3123130034523
20
0.642847840681529
30
0.000000000000000
11
-39.2123130034523
21
0.592650763940323
31
0.000000000000000
  0
LINE
  5
F10288
330
F10289
100
AcDbEntity
8
Geo
100
AcDbLine
10
-39.2123130034523
20
0.592650763940323
30
0.000000000000000
11
-39.1123130034523
21
0.542619202139665
31
0.000000000000000
  0
LINE
  5
F1028A
330
F1028B
100
AcDbEntity
8
Geo
100
AcDbLine
10
-39.1123130034523
20
0.542619202139665
30
0.000000000000000
11
-39.0123130034523
21
0.492754822993649
31
0.000000000000000
  0
LINE
  5
F1028C
330
F1028D
100
AcDbEntity
8
Geo
100
AcDbLine
10
-39.0123130034523
20
0.492754822993649
30
0.000000000000000
11
-38.9123130034523
21
0.443059288643630
31
0.000000000000000
  0
LINE
  5
F1028E
330
F1028F
100
AcDbEntity
8
Geo
100
AcDbLine
10
-38.9123130034523
20
0.443059288643630
30
0.000000000000000
11
-38.8123130034523
21
0.393534255602816
31
0.000000000000000
  0
LINE
  5
F10290
330
F10291
100
AcDbEntity
8
Geo
100
AcDbLine
10
-38.8123130034523
20
0.393534255602816
30
0.000000000000000
11
-38.7123130034523
21
0.344181374701058
31
0.000000000000000
  0
LINE
  5
F10292
330
F10293
100
AcDbEntity
8
Geo
100
AcDbLine
10
-38.7123130034523
20
0.344181374701058
30
0.000000000000000
11
-38.6123130034523
21
0.295002291029816
31
0.000000000000000
  0
LINE
  5
F10294
330
F10295
100
AcDbEntity
8
Geo
100
AcDbLine
10
-38.6123130034523
20
0.295002291029816
30
0.000000000000000
11
-38.5123130034523
21
0.245998643887326
31
0.000000000000000
  0
LINE
  5
F10296
330
F10297
100
AcDbEntity
8
Geo
100
AcDbLine
10
-38.5123130034523
20
0.245998643887326
30
0.000000000000000
11
-38.4123130034523
21
0.197172066723952
31
0.000000000000000
  0
LINE
  5
F10298
330
F10299
100
AcDbEntity
8
Geo
100
AcDbLine
10
-38.4123130034523
20
0.197172066723952
30
0.000000000000000
11
-38.3123130034523
21
0.148524187087750
31
0.000000000000000
  0
LINE
  5
F1029A
330
F1029B
100
AcDbEntity
8
Geo
100
AcDbLine
10
-38.3123130034523
20
0.148524187087750
30
0.000000000000000
11
-38.2123130034523
21
0.100056626570201
31
0.000000000000000
  0
LINE
  5
F1029C
330
F1029D
100
AcDbEntity
8
Geo
100
AcDbLine
10
-38.2123130034523
20
0.100056626570201
30
0.000000000000000
11
-38.1123130034523
21
0.0517710007521668
31
0.000000000000000
  0
LINE
  5
F1029E
330
F1029F
100
AcDbEntity
8
Geo
100
AcDbLine
10
-38.1123130034523
20
0.0517710007521668
30
0.000000000000000
11
-38.0123130034523
21
0.00366891915003986
31
0.000000000000000
  0
LINE
  5
F102A0
330
F102A1
100
AcDbEntity
8
Geo
100
AcDbLine
10
-38.0123130034523
20
0.00366891915003986
30
0.000000000000000
11
-37.9123130034523
21
-0.0442480148379163
31
0.000000000000000
  0
LINE
  5
F102A2
330
F102A3
100
AcDbEntity
8
Geo
100
AcDbLine
10
-37.9123130034523
20
-0.0442480148379163
30
0.000000000000000
11
-37.8123130034523
21
-0.0919782039850023
31
0.000000000000000
  0
LINE
  5
F102A4
330
F102A5
100
AcDbEntity
8
Geo
100
AcDbLine
10
-37.8123130034523
20
-0.0919782039850023
30
0.000000000000000
11
-37.7123130034523
21
-0.139520057289336
31
0.000000000000000
  0
LINE
  5
F102A6
330
F102A7
100
AcDbEntity
8
Geo
100
AcDbLine
10
-37.7123130034523
20
-0.139520057289336
30
0.000000000000000
11
-37.6123130034523
21
-0.186871990026876
31
0.000000000000000
  0
LINE
  5
F102A8
330
F102A9
100
AcDbEntity
8
Geo
100
AcDbLine
10
-37.6123130034523
20
-0.186871990026876
30
0.000000000000000
11
-37.5123130034523
21
-0.234032423804246
31
0.000000000000000
  0
LINE
  5
F102AA
330
F102AB
100
AcDbEntity
8
Geo
100
AcDbLine
10
-37.5123130034523
20
-0.234032423804246
30
0.000000000000000
11
-37.4123130034523
21
-0.280999786611354
31
0.000000000000000
  0
LINE
  5
F102AC
330
F102AD
100
AcDbEntity
8
Geo
100
AcDbLine
10
-37.4123130034523
20
-0.280999786611354
30
0.000000000000000
11
-37.3123130034523
21
-0.327772512873792
31
0.000000000000000
  0
LINE
  5
F102AE
330
F102AF
100
AcDbEntity
8
Geo
100
AcDbLine
10
-37.3123130034523
20
-0.327772512873792
30
0.000000000000000
11
-37.2123130034523
21
-0.374349043505011
31
0.000000000000000
  0
LINE
  5
F102B0
330
F102B1
100
AcDbEntity
8
Geo
100
AcDbLine
10
-37.2123130034523
20
-0.374349043505011
30
0.000000000000000
11
-37.1123130034523
21
-0.420727825958305
31
0.000000000000000
  0
LINE
  5
F102B2
330
F102B3
100
AcDbEntity
8
Geo
100
AcDbLine
10
-37.1123130034523
20
-0.420727825958305
30
0.000000000000000
11
-37.0123130034523
21
-0.466907314278552
31
0.000000000000000
  0
LINE
  5
F102B4
330
F102B5
100
AcDbEntity
8
Geo
100
AcDbLine
10
-37.0123130034523
20
-0.466907314278552
30
0.000000000000000
11
-36.9123130034523
21
-0.512885969153751
31
0.000000000000000
  0
LINE
  5
F102B6
330
F102B7
100
AcDbEntity
8
Geo
100
AcDbLine
10
-36.9123130034523
20
-0.512885969153751
30
0.000000000000000
11
-36.8123130034523
21
-0.558662257966333
31
0.000000000000000
  0
LINE
  5
F102B8
330
F102B9
100
AcDbEntity
8
Geo
100
AcDbLine
10
-36.8123130034523
20
-0.558662257966333
30
0.000000000000000
11
-36.7123130034523
21
-0.604234654844238
31
0.000000000000000
  0
LINE
  5
F102BA
330
F102BB
100
AcDbEntity
8
Geo
100
AcDbLine
10
-36.7123130034523
20
-0.604234654844238
30
0.000000000000000
11
-36.6123130034523
21
-0.649601640711793
31
0.000000000000000
  0
LINE
  5
F102BC
330
F102BD
100
AcDbEntity
8
Geo
100
AcDbLine
10
-36.6123130034523
20
-0.649601640711793
30
0.000000000000000
11
-36.5123130034523
21
-0.694761703340333
31
0.000000000000000
  0
LINE
  5
F102BE
330
F102BF
100
AcDbEntity
8
Geo
100
AcDbLine
10
-36.5123130034523
20
-0.694761703340333
30
0.000000000000000
11
-36.4123130034523
21
-0.739713337398623
31
0.000000000000000
  0
LINE
  5
F102C0
330
F102C1
100
AcDbEntity
8
Geo
100
AcDbLine
10
-36.4123130034523
20
-0.739713337398623
30
0.000000000000000
11
-36.3123130034523
21
-0.784455044503019
31
0.000000000000000
  0
LINE
  5
F102C2
330
F102C3
100
AcDbEntity
8
Geo
100
AcDbLine
10
-36.3123130034523
20
-0.784455044503019
30
0.000000000000000
11
-36.2123130034523
21
-0.828985333267431
31
0.000000000000000
  0
LINE
  5
F102C4
330
F102C5
100
AcDbEntity
8
Geo
100
AcDbLine
10
-36.2123130034523
20
-0.828985333267431
30
0.000000000000000
11
-36.1123130034523
21
-0.873302719353020
31
0.000000000000000
  0
LINE
  5
F102C6
330
F102C7
100
AcDbEntity
8
Geo
100
AcDbLine
10
-36.1123130034523
20
-0.873302719353020
30
0.000000000000000
11
-36.0123130034523
21
-0.917405725517688
31
0.000000000000000
  0
LINE
  5
F102C8
330
F102C9
100
AcDbEntity
8
Geo
100
AcDbLine
10
-36.0123130034523
20
-0.917405725517688
30
0.000000000000000
11
-35.9123130034523
21
-0.961292881665314
31
0.000000000000000
  0
LINE
  5
F102CA
330
F102CB
100
AcDbEntity
8
Geo
100
AcDbLine
10
-35.9123130034523
20
-0.961292881665314
30
0.000000000000000
11
-35.8123130034523
21
-1.00496272489476
31
0.000000000000000
  0
LINE
  5
F102CC
330
F102CD
100
AcDbEntity
8
Geo
100
AcDbLine
10
-35.8123130034523
20
-1.00496272489476
30
0.000000000000000
11
-35.7123130034523
21
-1.04841379954862
31
0.000000000000000
  0
LINE
  5
F102CE
330
F102CF
100
AcDbEntity
8
Geo
100
AcDbLine
10
-35.7123130034523
20
-1.04841379954862
30
0.000000000000000
11
-35.6123130034523
21
-1.09164465726176
31
0.000000000000000
  0
LINE
  5
F102D0
330
F102D1
100
AcDbEntity
8
Geo
100
AcDbLine
10
-35.6123130034523
20
-1.09164465726176
30
0.000000000000000
11
-35.5123130034523
21
-1.13465385700960
31
0.000000000000000
  0
LINE
  5
F102D2
330
F102D3
100
AcDbEntity
8
Geo
100
AcDbLine
10
-35.5123130034523
20
-1.13465385700960
30
0.000000000000000
11
-35.4123130034523
21
-1.17743996515614
31
0.000000000000000
  0
LINE
  5
F102D4
330
F102D5
100
AcDbEntity
8
Geo
100
AcDbLine
10
-35.4123130034523
20
-1.17743996515614
30
0.000000000000000
11
-35.3123130034523
21
-1.22000155550172
31
0.000000000000000
  0
LINE
  5
F102D6
330
F102D7
100
AcDbEntity
8
Geo
100
AcDbLine
10
-35.3123130034523
20
-1.22000155550172
30
0.000000000000000
11
-35.2123130034523
21
-1.26233720933061
31
0.000000000000000
  0
LINE
  5
F102D8
330
F102D9
100
AcDbEntity
8
Geo
100
AcDbLine
10
-35.2123130034523
20
-1.26233720933061
30
0.000000000000000
11
-35.1123130034523
21
-1.30444551545827
31
0.000000000000000
  0
LINE
  5
F102DA
330
F102DB
100
AcDbEntity
8
Geo
100
AcDbLine
10
-35.1123130034523
20
-1.30444551545827
30
0.000000000000000
11
-35.0123130034523
21
-1.34632507027839
31
0.000000000000000
  0
LINE
  5
F102DC
330
F102DD
100
AcDbEntity
8
Geo
100
AcDbLine
10
-35.0123130034523
20
-1.34632507027839
30
0.000000000000000
11
-34.9123130034523
21
-1.38797447780969
31
0.000000000000000
  0
LINE
  5
F102DE
330
F102DF
100
AcDbEntity
8
Geo
100
AcDbLine
10
-34.9123130034523
20
-1.38797447780969
30
0.000000000000000
11
-34.8123130034523
21
-1.42939234974244
31
0.000000000000000
  0
LINE
  5
F102E0
330
F102E1
100
AcDbEntity
8
Geo
100
AcDbLine
10
-34.8123130034523
20
-1.42939234974244
30
0.000000000000000
11
-34.7123130034523
21
-1.47057730548475
31
0.000000000000000
  0
LINE
  5
F102E2
330
F102E3
100
AcDbEntity
8
Geo
100
AcDbLine
10
-34.7123130034523
20
-1.47057730548475
30
0.000000000000000
11
-34.6123130034523
21
-1.51152797220856
31
0.000000000000000
  0
LINE
  5
F102E4
330
F102E5
100
AcDbEntity
8
Geo
100
AcDbLine
10
-34.6123130034523
20
-1.51152797220856
30
0.000000000000000
11
-34.5123130034523
21
-1.55224298489546
31
0.000000000000000
  0
LINE
  5
F102E6
330
F102E7
100
AcDbEntity
8
Geo
100
AcDbLine
10
-34.5123130034523
20
-1.55224298489546
30
0.000000000000000
11
-34.4123130034523
21
-1.59272098638212
31
0.000000000000000
  0
LINE
  5
F102E8
330
F102E9
100
AcDbEntity
8
Geo
100
AcDbLine
10
-34.4123130034523
20
-1.59272098638212
30
0.000000000000000
11
-34.3123130034523
21
-1.63296062740556
31
0.000000000000000
  0
LINE
  5
F102EA
330
F102EB
100
AcDbEntity
8
Geo
100
AcDbLine
10
-34.3123130034523
20
-1.63296062740556
30
0.000000000000000
11
-34.2123130034523
21
-1.67296056664816
31
0.000000000000000
  0
LINE
  5
F102EC
330
F102ED
100
AcDbEntity
8
Geo
100
AcDbLine
10
-34.2123130034523
20
-1.67296056664816
30
0.000000000000000
11
-34.1123130034523
21
-1.71271947078230
31
0.000000000000000
  0
LINE
  5
F102EE
330
F102EF
100
AcDbEntity
8
Geo
100
AcDbLine
10
-34.1123130034523
20
-1.71271947078230
30
0.000000000000000
11
-34.0123130034523
21
-1.75223601451486
31
0.000000000000000
  0
LINE
  5
F102F0
330
F102F1
100
AcDbEntity
8
Geo
100
AcDbLine
10
-34.0123130034523
20
-1.75223601451486
30
0.000000000000000
11
-33.9123130034523
21
-1.79150888063138
31
0.000000000000000
  0
LINE
  5
F102F2
330
F102F3
100
AcDbEntity
8
Geo
100
AcDbLine
10
-33.9123130034523
20
-1.79150888063138
30
0.000000000000000
11
-33.8123130034523
21
-1.83053676003995
31
0.000000000000000
  0
LINE
  5
F102F4
330
F102F5
100
AcDbEntity
8
Geo
100
AcDbLine
10
-33.8123130034523
20
-1.83053676003995
30
0.000000000000000
11
-33.7123130034523
21
-1.86931835181488
31
0.000000000000000
  0
LINE
  5
F102F6
330
F102F7
100
AcDbEntity
8
Geo
100
AcDbLine
10
-33.7123130034523
20
-1.86931835181488
30
0.000000000000000
11
-33.6123130034523
21
-1.90785236324003
31
0.000000000000000
  0
LINE
  5
F102F8
330
F102F9
100
AcDbEntity
8
Geo
100
AcDbLine
10
-33.6123130034523
20
-1.90785236324003
30
0.000000000000000
11
-33.5123130034523
21
-1.94613750985192
31
0.000000000000000
  0
LINE
  5
F102FA
330
F102FB
100
AcDbEntity
8
Geo
100
AcDbLine
10
-33.5123130034523
20
-1.94613750985192
30
0.000000000000000
11
-33.4123130034523
21
-1.98417251548254
31
0.000000000000000
  0
LINE
  5
F102FC
330
F102FD
100
AcDbEntity
8
Geo
100
AcDbLine
10
-33.4123130034523
20
-1.98417251548254
30
0.000000000000000
11
-33.3123130034523
21
-2.02195611230190
31
0.000000000000000
  0
LINE
  5
F102FE
330
F102FF
100
AcDbEntity
8
Geo
100
AcDbLine
10
-33.3123130034523
20
-2.02195611230190
30
0.000000000000000
11
-33.2123130034523
21
-2.05948704086026
31
0.000000000000000
  0
LINE
  5
F10300
330
F10301
100
AcDbEntity
8
Geo
100
AcDbLine
10
-33.2123130034523
20
-2.05948704086026
30
0.000000000000000
11
-33.1123130034523
21
-2.09676405013014
31
0.000000000000000
  0
LINE
  5
F10302
330
F10303
100
AcDbEntity
8
Geo
100
AcDbLine
10
-33.1123130034523
20
-2.09676405013014
30
0.000000000000000
11
-33.0123130034523
21
-2.13378589754803
31
0.000000000000000
  0
LINE
  5
F10304
330
F10305
100
AcDbEntity
8
Geo
100
AcDbLine
10
-33.0123130034523
20
-2.13378589754803
30
0.000000000000000
11
-32.9123130034523
21
-2.17055134905577
31
0.000000000000000
  0
LINE
  5
F10306
330
F10307
100
AcDbEntity
8
Geo
100
AcDbLine
10
-32.9123130034523
20
-2.17055134905577
30
0.000000000000000
11
-32.8123130034523
21
-2.20705917914171
31
0.000000000000000
  0
LINE
  5
F10308
330
F10309
100
AcDbEntity
8
Geo
100
AcDbLine
10
-32.8123130034523
20
-2.20705917914171
30
0.000000000000000
11
-32.7123130034523
21
-2.24330817088157
31
0.000000000000000
  0
LINE
  5
F1030A
330
F1030B
100
AcDbEntity
8
Geo
100
AcDbLine
10
-32.7123130034523
20
-2.24330817088157
30
0.000000000000000
11
-32.6123130034523
21
-2.27929711597898
31
0.000000000000000
  0
LINE
  5
F1030C
330
F1030D
100
AcDbEntity
8
Geo
100
AcDbLine
10
-32.6123130034523
20
-2.27929711597898
30
0.000000000000000
11
-32.5123130034523
21
-2.31502481480576
31
0.000000000000000
  0
LINE
  5
F1030E
330
F1030F
100
AcDbEntity
8
Geo
100
AcDbLine
10
-32.5123130034523
20
-2.31502481480576
30
0.000000000000000
11
-32.4123130034523
21
-2.35049007644193
31
0.000000000000000
  0
LINE
  5
F10310
330
F10311
100
AcDbEntity
8
Geo
100
AcDbLine
10
-32.4123130034523
20
-2.35049007644193
30
0.000000000000000
11
-32.3123130034523
21
-2.38569171871539
31
0.000000000000000
  0
LINE
  5
F10312
330
F10313
100
AcDbEntity
8
Geo
100
AcDbLine
10
-32.3123130034523
20
-2.38569171871539
30
0.000000000000000
11
-32.2123130034523
21
-2.42062856824132
31
0.000000000000000
  0
LINE
  5
F10314
330
F10315
100
AcDbEntity
8
Geo
100
AcDbLine
10
-32.2123130034523
20
-2.42062856824132
30
0.000000000000000
11
-32.1123130034523
21
-2.45529946046130
31
0.000000000000000
  0
LINE
  5
F10316
330
F10317
100
AcDbEntity
8
Geo
100
AcDbLine
10
-32.1123130034523
20
-2.45529946046130
30
0.000000000000000
11
-32.0123130034523
21
-2.48970323968213
31
0.000000000000000
  0
LINE
  5
F10318
330
F10319
100
AcDbEntity
8
Geo
100
AcDbLine
10
-32.0123130034523
20
-2.48970323968213
30
0.000000000000000
11
-31.9123130034523
21
-2.52383875911437
31
0.000000000000000
  0
LINE
  5
F1031A
330
F1031B
100
AcDbEntity
8
Geo
100
AcDbLine
10
-31.9123130034523
20
-2.52383875911437
30
0.000000000000000
11
-31.8123130034523
21
-2.55770488091052
31
0.000000000000000
  0
LINE
  5
F1031C
330
F1031D
100
AcDbEntity
8
Geo
100
AcDbLine
10
-31.8123130034523
20
-2.55770488091052
30
0.000000000000000
11
-31.7123130034523
21
-2.59130047620300
31
0.000000000000000
  0
LINE
  5
F1031E
330
F1031F
100
AcDbEntity
8
Geo
100
AcDbLine
10
-31.7123130034523
20
-2.59130047620300
30
0.000000000000000
11
-31.6123130034523
21
-2.62462442514173
31
0.000000000000000
  0
LINE
  5
F10320
330
F10321
100
AcDbEntity
8
Geo
100
AcDbLine
10
-31.6123130034523
20
-2.62462442514173
30
0.000000000000000
11
-31.5123130034523
21
-2.65767561693151
31
0.000000000000000
  0
LINE
  5
F10322
330
F10323
100
AcDbEntity
8
Geo
100
AcDbLine
10
-31.5123130034523
20
-2.65767561693151
30
0.000000000000000
11
-31.4123130034523
21
-2.69045294986900
31
0.000000000000000
  0
LINE
  5
F10324
330
F10325
100
AcDbEntity
8
Geo
100
AcDbLine
10
-31.4123130034523
20
-2.69045294986900
30
0.000000000000000
11
-31.3123130034523
21
-2.72295533137947
31
0.000000000000000
  0
LINE
  5
F10326
330
F10327
100
AcDbEntity
8
Geo
100
AcDbLine
10
-31.3123130034523
20
-2.72295533137947
30
0.000000000000000
11
-31.2123130034523
21
-2.75518167805322
31
0.000000000000000
  0
LINE
  5
F10328
330
F10329
100
AcDbEntity
8
Geo
100
AcDbLine
10
-31.2123130034523
20
-2.75518167805322
30
0.000000000000000
11
-31.1123130034523
21
-2.78713091568168
31
0.000000000000000
  0
LINE
  5
F1032A
330
F1032B
100
AcDbEntity
8
Geo
100
AcDbLine
10
-31.1123130034523
20
-2.78713091568168
30
0.000000000000000
11
-31.0123130034523
21
-2.81880197929320
31
0.000000000000000
  0
LINE
  5
F1032C
330
F1032D
100
AcDbEntity
8
Geo
100
AcDbLine
10
-31.0123130034523
20
-2.81880197929320
30
0.000000000000000
11
-30.9123130034523
21
-2.85019381318861
31
0.000000000000000
  0
LINE
  5
F1032E
330
F1032F
100
AcDbEntity
8
Geo
100
AcDbLine
10
-30.9123130034523
20
-2.85019381318861
30
0.000000000000000
11
-30.8123130034523
21
-2.88130537097636
31
0.000000000000000
  0
LINE
  5
F10330
330
F10331
100
AcDbEntity
8
Geo
100
AcDbLine
10
-30.8123130034523
20
-2.88130537097636
30
0.000000000000000
11
-30.7123130034523
21
-2.91213561560738
31
0.000000000000000
  0
LINE
  5
F10332
330
F10333
100
AcDbEntity
8
Geo
100
AcDbLine
10
-30.7123130034523
20
-2.91213561560738
30
0.000000000000000
11
-30.6123130034523
21
-2.94268351940972
31
0.000000000000000
  0
LINE
  5
F10334
330
F10335
100
AcDbEntity
8
Geo
100
AcDbLine
10
-30.6123130034523
20
-2.94268351940972
30
0.000000000000000
11
-30.5123130034523
21
-2.97294806412276
31
0.000000000000000
  0
LINE
  5
F10336
330
F10337
100
AcDbEntity
8
Geo
100
AcDbLine
10
-30.5123130034523
20
-2.97294806412276
30
0.000000000000000
11
-30.4123130034523
21
-3.00292824093112
31
0.000000000000000
  0
LINE
  5
F10338
330
F10339
100
AcDbEntity
8
Geo
100
AcDbLine
10
-30.4123130034523
20
-3.00292824093112
30
0.000000000000000
11
-30.3123130034523
21
-3.03262305049836
31
0.000000000000000
  0
LINE
  5
F1033A
330
F1033B
100
AcDbEntity
8
Geo
100
AcDbLine
10
-30.3123130034523
20
-3.03262305049836
30
0.000000000000000
11
-30.2123130034523
21
-3.06203150300025
31
0.000000000000000
  0
LINE
  5
F1033C
330
F1033D
100
AcDbEntity
8
Geo
100
AcDbLine
10
-30.2123130034523
20
-3.06203150300025
30
0.000000000000000
11
-30.1123130034523
21
-3.09115261815775
31
0.000000000000000
  0
LINE
  5
F1033E
330
F1033F
100
AcDbEntity
8
Geo
100
AcDbLine
10
-30.1123130034523
20
-3.09115261815775
30
0.000000000000000
11
-30.0123130034523
21
-3.11998542526973
31
0.000000000000000
  0
LINE
  5
F10340
330
F10341
100
AcDbEntity
8
Geo
100
AcDbLine
10
-30.0123130034523
20
-3.11998542526973
30
0.000000000000000
11
-29.9123130034523
21
-3.14852896324528
31
0.000000000000000
  0
LINE
  5
F10342
330
F10343
100
AcDbEntity
8
Geo
100
AcDbLine
10
-29.9123130034523
20
-3.14852896324528
30
0.000000000000000
11
-29.8123130034523
21
-3.17678228063578
31
0.000000000000000
  0
LINE
  5
F10344
330
F10345
100
AcDbEntity
8
Geo
100
AcDbLine
10
-29.8123130034523
20
-3.17678228063578
30
0.000000000000000
11
-29.7123130034523
21
-3.20474443566661
31
0.000000000000000
  0
LINE
  5
F10346
330
F10347
100
AcDbEntity
8
Geo
100
AcDbLine
10
-29.7123130034523
20
-3.20474443566661
30
0.000000000000000
11
-29.6123130034523
21
-3.23241449626851
31
0.000000000000000
  0
LINE
  5
F10348
330
F10349
100
AcDbEntity
8
Geo
100
AcDbLine
10
-29.6123130034523
20
-3.23241449626851
30
0.000000000000000
11
-29.5123130034523
21
-3.25979154010869
31
0.000000000000000
  0
LINE
  5
F1034A
330
F1034B
100
AcDbEntity
8
Geo
100
AcDbLine
10
-29.5123130034523
20
-3.25979154010869
30
0.000000000000000
11
-29.4123130034523
21
-3.28687465462157
31
0.000000000000000
  0
LINE
  5
F1034C
330
F1034D
100
AcDbEntity
8
Geo
100
AcDbLine
10
-29.4123130034523
20
-3.28687465462157
30
0.000000000000000
11
-29.3123130034523
21
-3.31366293703916
31
0.000000000000000
  0
LINE
  5
F1034E
330
F1034F
100
AcDbEntity
8
Geo
100
AcDbLine
10
-29.3123130034523
20
-3.31366293703916
30
0.000000000000000
11
-29.2123130034523
21
-3.34015549442120
31
0.000000000000000
  0
LINE
  5
F10350
330
F10351
100
AcDbEntity
8
Geo
100
AcDbLine
10
-29.2123130034523
20
-3.34015549442120
30
0.000000000000000
11
-29.1123130034523
21
-3.36635144368490
31
0.000000000000000
  0
LINE
  5
F10352
330
F10353
100
AcDbEntity
8
Geo
100
AcDbLine
10
-29.1123130034523
20
-3.36635144368490
30
0.000000000000000
11
-29.0123130034523
21
-3.39224991163436
31
0.000000000000000
  0
LINE
  5
F10354
330
F10355
100
AcDbEntity
8
Geo
100
AcDbLine
10
-29.0123130034523
20
-3.39224991163436
30
0.000000000000000
11
-28.9123130034523
21
-3.41785003498974
31
0.000000000000000
  0
LINE
  5
F10356
330
F10357
100
AcDbEntity
8
Geo
100
AcDbLine
10
-28.9123130034523
20
-3.41785003498974
30
0.000000000000000
11
-28.8123130034523
21
-3.44315096041594
31
0.000000000000000
  0
LINE
  5
F10358
330
F10359
100
AcDbEntity
8
Geo
100
AcDbLine
10
-28.8123130034523
20
-3.44315096041594
30
0.000000000000000
11
-28.7123130034523
21
-3.46815184455113
31
0.000000000000000
  0
LINE
  5
F1035A
330
F1035B
100
AcDbEntity
8
Geo
100
AcDbLine
10
-28.7123130034523
20
-3.46815184455113
30
0.000000000000000
11
-28.6123130034523
21
-3.49285185403483
31
0.000000000000000
  0
LINE
  5
F1035C
330
F1035D
100
AcDbEntity
8
Geo
100
AcDbLine
10
-28.6123130034523
20
-3.49285185403483
30
0.000000000000000
11
-28.5123130034523
21
-3.51725016553567
31
0.000000000000000
  0
LINE
  5
F1035E
330
F1035F
100
AcDbEntity
8
Geo
100
AcDbLine
10
-28.5123130034523
20
-3.51725016553567
30
0.000000000000000
11
-28.4123130034523
21
-3.54134596577886
31
0.000000000000000
  0
LINE
  5
F10360
330
F10361
100
AcDbEntity
8
Geo
100
AcDbLine
10
-28.4123130034523
20
-3.54134596577886
30
0.000000000000000
11
-28.3123130034523
21
-3.56513845157328
31
0.000000000000000
  0
LINE
  5
F10362
330
F10363
100
AcDbEntity
8
Geo
100
AcDbLine
10
-48.2123130034523
20
-4.44188722669735
30
0.000000000000000
11
-48.2123130034523
21
-4.44188722669735
31
0.000000000000000
  0
LINE
  5
F10364
330
F10365
100
AcDbEntity
8
Geo
100
AcDbLine
10
-48.2123130034523
20
15.0686779362542
30
0.000000000000000
11
-48.1123130034523
21
15.0506784219035
31
0.000000000000000
  0
LINE
  5
F10366
330
F10367
100
AcDbEntity
8
Geo
100
AcDbLine
10
-48.1123130034523
20
15.0506784219035
30
0.000000000000000
11
-48.0123130034523
21
15.0323624895769
31
0.000000000000000
  0
LINE
  5
F10368
330
F10369
100
AcDbEntity
8
Geo
100
AcDbLine
10
-48.0123130034523
20
15.0323624895769
30
0.000000000000000
11
-47.9123130034523
21
15.0137307498036
31
0.000000000000000
  0
LINE
  5
F1036A
330
F1036B
100
AcDbEntity
8
Geo
100
AcDbLine
10
-47.9123130034523
20
15.0137307498036
30
0.000000000000000
11
-47.8123130034523
21
14.9947838236399
31
0.000000000000000
  0
LINE
  5
F1036C
330
F1036D
100
AcDbEntity
8
Geo
100
AcDbLine
10
-47.8123130034523
20
14.9947838236399
30
0.000000000000000
11
-47.7123130034523
21
14.9755223426483
31
0.000000000000000
  0
LINE
  5
F1036E
330
F1036F
100
AcDbEntity
8
Geo
100
AcDbLine
10
-47.7123130034523
20
14.9755223426483
30
0.000000000000000
11
-47.6123130034523
21
14.9559469488764
31
0.000000000000000
  0
LINE
  5
F10370
330
F10371
100
AcDbEntity
8
Geo
100
AcDbLine
10
-47.6123130034523
20
14.9559469488764
30
0.000000000000000
11
-47.5123130034523
21
14.9360582948355
31
0.000000000000000
  0
LINE
  5
F10372
330
F10373
100
AcDbEntity
8
Geo
100
AcDbLine
10
-47.5123130034523
20
14.9360582948355
30
0.000000000000000
11
-47.4123130034523
21
14.9158570434789
31
0.000000000000000
  0
LINE
  5
F10374
330
F10375
100
AcDbEntity
8
Geo
100
AcDbLine
10
-47.4123130034523
20
14.9158570434789
30
0.000000000000000
11
-47.3123130034523
21
14.8953438681797
31
0.000000000000000
  0
LINE
  5
F10376
330
F10377
100
AcDbEntity
8
Geo
100
AcDbLine
10
-47.3123130034523
20
14.8953438681797
30
0.000000000000000
11
-47.2123130034523
21
14.8745194527085
31
0.000000000000000
  0
LINE
  5
F10378
330
F10379
100
AcDbEntity
8
Geo
100
AcDbLine
10
-47.2123130034523
20
14.8745194527085
30
0.000000000000000
11
-47.1123130034523
21
14.8533844912107
31
0.000000000000000
  0
LINE
  5
F1037A
330
F1037B
100
AcDbEntity
8
Geo
100
AcDbLine
10
-47.1123130034523
20
14.8533844912107
30
0.000000000000000
11
-47.0123130034523
21
14.8319396881830
31
0.000000000000000
  0
LINE
  5
F1037C
330
F1037D
100
AcDbEntity
8
Geo
100
AcDbLine
10
-47.0123130034523
20
14.8319396881830
30
0.000000000000000
11
-46.9123130034523
21
14.8101857584501
31
0.000000000000000
  0
LINE
  5
F1037E
330
F1037F
100
AcDbEntity
8
Geo
100
AcDbLine
10
-46.9123130034523
20
14.8101857584501
30
0.000000000000000
11
-46.8123130034523
21
14.7881234271410
31
0.000000000000000
  0
LINE
  5
F10380
330
F10381
100
AcDbEntity
8
Geo
100
AcDbLine
10
-46.8123130034523
20
14.7881234271410
30
0.000000000000000
11
-46.7123130034523
21
14.7657534296648
31
0.000000000000000
  0
LINE
  5
F10382
330
F10383
100
AcDbEntity
8
Geo
100
AcDbLine
10
-46.7123130034523
20
14.7657534296648
30
0.000000000000000
11
-46.6123130034523
21
14.7430765116860
31
0.000000000000000
  0
LINE
  5
F10384
330
F10385
100
AcDbEntity
8
Geo
100
AcDbLine
10
-46.6123130034523
20
14.7430765116860
30
0.000000000000000
11
-46.5123130034523
21
14.7200934290996
31
0.000000000000000
  0
LINE
  5
F10386
330
F10387
100
AcDbEntity
8
Geo
100
AcDbLine
10
-46.5123130034523
20
14.7200934290996
30
0.000000000000000
11
-46.4123130034523
21
14.6968049480064
31
0.000000000000000
  0
LINE
  5
F10388
330
F10389
100
AcDbEntity
8
Geo
100
AcDbLine
10
-46.4123130034523
20
14.6968049480064
30
0.000000000000000
11
-46.3123130034523
21
14.6732118446869
31
0.000000000000000
  0
LINE
  5
F1038A
330
F1038B
100
AcDbEntity
8
Geo
100
AcDbLine
10
-46.3123130034523
20
14.6732118446869
30
0.000000000000000
11
-46.2123130034523
21
14.6493149055756
31
0.000000000000000
  0
LINE
  5
F1038C
330
F1038D
100
AcDbEntity
8
Geo
100
AcDbLine
10
-46.2123130034523
20
14.6493149055756
30
0.000000000000000
11
-46.1123130034523
21
14.6251149272350
31
0.000000000000000
  0
LINE
  5
F1038E
330
F1038F
100
AcDbEntity
8
Geo
100
AcDbLine
10
-46.1123130034523
20
14.6251149272350
30
0.000000000000000
11
-46.0123130034523
21
14.6006127163289
31
0.000000000000000
  0
LINE
  5
F10390
330
F10391
100
AcDbEntity
8
Geo
100
AcDbLine
10
-46.0123130034523
20
14.6006127163289
30
0.000000000000000
11
-45.9123130034523
21
14.5758090895952
31
0.000000000000000
  0
LINE
  5
F10392
330
F10393
100
AcDbEntity
8
Geo
100
AcDbLine
10
-45.9123130034523
20
14.5758090895952
30
0.000000000000000
11
-45.8123130034523
21
14.5507048738194
31
0.000000000000000
  0
LINE
  5
F10394
330
F10395
100
AcDbEntity
8
Geo
100
AcDbLine
10
-45.8123130034523
20
14.5507048738194
30
0.000000000000000
11
-45.7123130034523
21
14.5253009058061
31
0.000000000000000
  0
LINE
  5
F10396
330
F10397
100
AcDbEntity
8
Geo
100
AcDbLine
10
-45.7123130034523
20
14.5253009058061
30
0.000000000000000
11
-45.6123130034523
21
14.4995980323521
31
0.000000000000000
  0
LINE
  5
F10398
330
F10399
100
AcDbEntity
8
Geo
100
AcDbLine
10
-45.6123130034523
20
14.4995980323521
30
0.000000000000000
11
-45.5123130034523
21
14.4735971102173
31
0.000000000000000
  0
LINE
  5
F1039A
330
F1039B
100
AcDbEntity
8
Geo
100
AcDbLine
10
-45.5123130034523
20
14.4735971102173
30
0.000000000000000
11
-45.4123130034523
21
14.4472990060968
31
0.000000000000000
  0
LINE
  5
F1039C
330
F1039D
100
AcDbEntity
8
Geo
100
AcDbLine
10
-45.4123130034523
20
14.4472990060968
30
0.000000000000000
11
-45.3123130034523
21
14.4207045965916
31
0.000000000000000
  0
LINE
  5
F1039E
330
F1039F
100
AcDbEntity
8
Geo
100
AcDbLine
10
-45.3123130034523
20
14.4207045965916
30
0.000000000000000
11
-45.2123130034523
21
14.3938147681796
31
0.000000000000000
  0
LINE
  5
F103A0
330
F103A1
100
AcDbEntity
8
Geo
100
AcDbLine
10
-45.2123130034523
20
14.3938147681796
30
0.000000000000000
11
-45.1123130034523
21
14.3666304171859
31
0.000000000000000
  0
LINE
  5
F103A2
330
F103A3
100
AcDbEntity
8
Geo
100
AcDbLine
10
-45.1123130034523
20
14.3666304171859
30
0.000000000000000
11
-45.0123130034523
21
14.3391524497530
31
0.000000000000000
  0
LINE
  5
F103A4
330
F103A5
100
AcDbEntity
8
Geo
100
AcDbLine
10
-45.0123130034523
20
14.3391524497530
30
0.000000000000000
11
-44.9123130034523
21
14.3113817818105
31
0.000000000000000
  0
LINE
  5
F103A6
330
F103A7
100
AcDbEntity
8
Geo
100
AcDbLine
10
-44.9123130034523
20
14.3113817818105
30
0.000000000000000
11
-44.8123130034523
21
14.2833193390450
31
0.000000000000000
  0
LINE
  5
F103A8
330
F103A9
100
AcDbEntity
8
Geo
100
AcDbLine
10
-44.8123130034523
20
14.2833193390450
30
0.000000000000000
11
-44.7123130034523
21
14.2549660568685
31
0.000000000000000
  0
LINE
  5
F103AA
330
F103AB
100
AcDbEntity
8
Geo
100
AcDbLine
10
-44.7123130034523
20
14.2549660568685
30
0.000000000000000
11
-44.6123130034523
21
14.2263228803878
31
0.000000000000000
  0
LINE
  5
F103AC
330
F103AD
100
AcDbEntity
8
Geo
100
AcDbLine
10
-44.6123130034523
20
14.2263228803878
30
0.000000000000000
11
-44.5123130034523
21
14.1973907643728
31
0.000000000000000
  0
LINE
  5
F103AE
330
F103AF
100
AcDbEntity
8
Geo
100
AcDbLine
10
-44.5123130034523
20
14.1973907643728
30
0.000000000000000
11
-44.4123130034523
21
14.1681706732247
31
0.000000000000000
  0
LINE
  5
F103B0
330
F103B1
100
AcDbEntity
8
Geo
100
AcDbLine
10
-44.4123130034523
20
14.1681706732247
30
0.000000000000000
11
-44.3123130034523
21
14.1386635809439
31
0.000000000000000
  0
LINE
  5
F103B2
330
F103B3
100
AcDbEntity
8
Geo
100
AcDbLine
10
-44.3123130034523
20
14.1386635809439
30
0.000000000000000
11
-44.2123130034523
21
14.1088704710972
31
0.000000000000000
  0
LINE
  5
F103B4
330
F103B5
100
AcDbEntity
8
Geo
100
AcDbLine
10
-44.2123130034523
20
14.1088704710972
30
0.000000000000000
11
-44.1123130034523
21
14.0787923367858
31
0.000000000000000
  0
LINE
  5
F103B6
330
F103B7
100
AcDbEntity
8
Geo
100
AcDbLine
10
-44.1123130034523
20
14.0787923367858
30
0.000000000000000
11
-44.0123130034523
21
14.0484301806111
31
0.000000000000000
  0
LINE
  5
F103B8
330
F103B9
100
AcDbEntity
8
Geo
100
AcDbLine
10
-44.0123130034523
20
14.0484301806111
30
0.000000000000000
11
-43.9123130034523
21
14.0177850146424
31
0.000000000000000
  0
LINE
  5
F103BA
330
F103BB
100
AcDbEntity
8
Geo
100
AcDbLine
10
-43.9123130034523
20
14.0177850146424
30
0.000000000000000
11
-43.8123130034523
21
13.9868578603822
31
0.000000000000000
  0
LINE
  5
F103BC
330
F103BD
100
AcDbEntity
8
Geo
100
AcDbLine
10
-43.8123130034523
20
13.9868578603822
30
0.000000000000000
11
-43.7123130034523
21
13.9556497487329
31
0.000000000000000
  0
LINE
  5
F103BE
330
F103BF
100
AcDbEntity
8
Geo
100
AcDbLine
10
-43.7123130034523
20
13.9556497487329
30
0.000000000000000
11
-43.6123130034523
21
13.9241617199620
31
0.000000000000000
  0
LINE
  5
F103C0
330
F103C1
100
AcDbEntity
8
Geo
100
AcDbLine
10
-43.6123130034523
20
13.9241617199620
30
0.000000000000000
11
-43.5123130034523
21
13.8923948236675
31
0.000000000000000
  0
LINE
  5
F103C2
330
F103C3
100
AcDbEntity
8
Geo
100
AcDbLine
10
-43.5123130034523
20
13.8923948236675
30
0.000000000000000
11
-43.4123130034523
21
13.8603501187430
31
0.000000000000000
  0
LINE
  5
F103C4
330
F103C5
100
AcDbEntity
8
Geo
100
AcDbLine
10
-43.4123130034523
20
13.8603501187430
30
0.000000000000000
11
-43.3123130034523
21
13.8280286733424
31
0.000000000000000
  0
LINE
  5
F103C6
330
F103C7
100
AcDbEntity
8
Geo
100
AcDbLine
10
-43.3123130034523
20
13.8280286733424
30
0.000000000000000
11
-43.2123130034523
21
13.7954315648442
31
0.000000000000000
  0
LINE
  5
F103C8
330
F103C9
100
AcDbEntity
8
Geo
100
AcDbLine
10
-43.2123130034523
20
13.7954315648442
30
0.000000000000000
11
-43.1123130034523
21
13.7625598798156
31
0.000000000000000
  0
LINE
  5
F103CA
330
F103CB
100
AcDbEntity
8
Geo
100
AcDbLine
10
-43.1123130034523
20
13.7625598798156
30
0.000000000000000
11
-43.0123130034523
21
13.7294147139765
31
0.000000000000000
  0
LINE
  5
F103CC
330
F103CD
100
AcDbEntity
8
Geo
100
AcDbLine
10
-43.0123130034523
20
13.7294147139765
30
0.000000000000000
11
-42.9123130034523
21
13.6959971721626
31
0.000000000000000
  0
LINE
  5
F103CE
330
F103CF
100
AcDbEntity
8
Geo
100
AcDbLine
10
-42.9123130034523
20
13.6959971721626
30
0.000000000000000
11
-42.8123130034523
21
13.6623083682890
31
0.000000000000000
  0
LINE
  5
F103D0
330
F103D1
100
AcDbEntity
8
Geo
100
AcDbLine
10
-42.8123130034523
20
13.6623083682890
30
0.000000000000000
11
-42.7123130034523
21
13.6283494253126
31
0.000000000000000
  0
LINE
  5
F103D2
330
F103D3
100
AcDbEntity
8
Geo
100
AcDbLine
10
-42.7123130034523
20
13.6283494253126
30
0.000000000000000
11
-42.6123130034523
21
13.5941214751950
31
0.000000000000000
  0
LINE
  5
F103D4
330
F103D5
100
AcDbEntity
8
Geo
100
AcDbLine
10
-42.6123130034523
20
13.5941214751950
30
0.000000000000000
11
-42.5123130034523
21
13.5596256588647
31
0.000000000000000
  0
LINE
  5
F103D6
330
F103D7
100
AcDbEntity
8
Geo
100
AcDbLine
10
-42.5123130034523
20
13.5596256588647
30
0.000000000000000
11
-42.4123130034523
21
13.5248631261792
31
0.000000000000000
  0
LINE
  5
F103D8
330
F103D9
100
AcDbEntity
8
Geo
100
AcDbLine
10
-42.4123130034523
20
13.5248631261792
30
0.000000000000000
11
-42.3123130034523
21
13.4898350358862
31
0.000000000000000
  0
LINE
  5
F103DA
330
F103DB
100
AcDbEntity
8
Geo
100
AcDbLine
10
-42.3123130034523
20
13.4898350358862
30
0.000000000000000
11
-42.2123130034523
21
13.4545425555856
31
0.000000000000000
  0
LINE
  5
F103DC
330
F103DD
100
AcDbEntity
8
Geo
100
AcDbLine
10
-42.2123130034523
20
13.4545425555856
30
0.000000000000000
11
-42.1123130034523
21
13.4189868616900
31
0.000000000000000
  0
LINE
  5
F103DE
330
F103DF
100
AcDbEntity
8
Geo
100
AcDbLine
10
-42.1123130034523
20
13.4189868616900
30
0.000000000000000
11
-42.0123130034523
21
13.3831691393860
31
0.000000000000000
  0
LINE
  5
F103E0
330
F103E1
100
AcDbEntity
8
Geo
100
AcDbLine
10
-42.0123130034523
20
13.3831691393860
30
0.000000000000000
11
-41.9123130034523
21
13.3470905825943
31
0.000000000000000
  0
LINE
  5
F103E2
330
F103E3
100
AcDbEntity
8
Geo
100
AcDbLine
10
-41.9123130034523
20
13.3470905825943
30
0.000000000000000
11
-41.8123130034523
21
13.3107523939302
31
0.000000000000000
  0
LINE
  5
F103E4
330
F103E5
100
AcDbEntity
8
Geo
100
AcDbLine
10
-41.8123130034523
20
13.3107523939302
30
0.000000000000000
11
-41.7123130034523
21
13.2741557846633
31
0.000000000000000
  0
LINE
  5
F103E6
330
F103E7
100
AcDbEntity
8
Geo
100
AcDbLine
10
-41.7123130034523
20
13.2741557846633
30
0.000000000000000
11
-41.6123130034523
21
13.2373019746771
31
0.000000000000000
  0
LINE
  5
F103E8
330
F103E9
100
AcDbEntity
8
Geo
100
AcDbLine
10
-41.6123130034523
20
13.2373019746771
30
0.000000000000000
11
-41.5123130034523
21
13.2001921924285
31
0.000000000000000
  0
LINE
  5
F103EA
330
F103EB
100
AcDbEntity
8
Geo
100
AcDbLine
10
-41.5123130034523
20
13.2001921924285
30
0.000000000000000
11
-41.4123130034523
21
13.1628276749069
31
0.000000000000000
  0
LINE
  5
F103EC
330
F103ED
100
AcDbEntity
8
Geo
100
AcDbLine
10
-41.4123130034523
20
13.1628276749069
30
0.000000000000000
11
-41.3123130034523
21
13.1252096675927
31
0.000000000000000
  0
LINE
  5
F103EE
330
F103EF
100
AcDbEntity
8
Geo
100
AcDbLine
10
-41.3123130034523
20
13.1252096675927
30
0.000000000000000
11
-41.2123130034523
21
13.0873394244161
31
0.000000000000000
  0
LINE
  5
F103F0
330
F103F1
100
AcDbEntity
8
Geo
100
AcDbLine
10
-41.2123130034523
20
13.0873394244161
30
0.000000000000000
11
-41.1123130034523
21
13.0492182077148
31
0.000000000000000
  0
LINE
  5
F103F2
330
F103F3
100
AcDbEntity
8
Geo
100
AcDbLine
10
-41.1123130034523
20
13.0492182077148
30
0.000000000000000
11
-41.0123130034523
21
13.0108472881928
31
0.000000000000000
  0
LINE
  5
F103F4
330
F103F5
100
AcDbEntity
8
Geo
100
AcDbLine
10
-41.0123130034523
20
13.0108472881928
30
0.000000000000000
11
-40.9123130034523
21
12.9722279448769
31
0.000000000000000
  0
LINE
  5
F103F6
330
F103F7
100
AcDbEntity
8
Geo
100
AcDbLine
10
-40.9123130034523
20
12.9722279448769
30
0.000000000000000
11
-40.8123130034523
21
12.9333614650752
31
0.000000000000000
  0
LINE
  5
F103F8
330
F103F9
100
AcDbEntity
8
Geo
100
AcDbLine
10
-40.8123130034523
20
12.9333614650752
30
0.000000000000000
11
-40.7123130034523
21
12.8942491443333
31
0.000000000000000
  0
LINE
  5
F103FA
330
F103FB
100
AcDbEntity
8
Geo
100
AcDbLine
10
-40.7123130034523
20
12.8942491443333
30
0.000000000000000
11
-40.6123130034523
21
12.8548922863916
31
0.000000000000000
  0
LINE
  5
F103FC
330
F103FD
100
AcDbEntity
8
Geo
100
AcDbLine
10
-40.6123130034523
20
12.8548922863916
30
0.000000000000000
11
-40.5123130034523
21
12.8152922031418
31
0.000000000000000
  0
LINE
  5
F103FE
330
F103FF
100
AcDbEntity
8
Geo
100
AcDbLine
10
-40.5123130034523
20
12.8152922031418
30
0.000000000000000
11
-40.4123130034523
21
12.7754502145830
31
0.000000000000000
  0
LINE
  5
F10400
330
F10401
100
AcDbEntity
8
Geo
100
AcDbLine
10
-40.4123130034523
20
12.7754502145830
30
0.000000000000000
11
-40.3123130034523
21
12.7353676487777
31
0.000000000000000
  0
LINE
  5
F10402
330
F10403
100
AcDbEntity
8
Geo
100
AcDbLine
10
-40.3123130034523
20
12.7353676487777
30
0.000000000000000
11
-40.2123130034523
21
12.6950458418078
31
0.000000000000000
  0
LINE
  5
F10404
330
F10405
100
AcDbEntity
8
Geo
100
AcDbLine
10
-40.2123130034523
20
12.6950458418078
30
0.000000000000000
11
-40.1123130034523
21
12.6544861377297
31
0.000000000000000
  0
LINE
  5
F10406
330
F10407
100
AcDbEntity
8
Geo
100
AcDbLine
10
-40.1123130034523
20
12.6544861377297
30
0.000000000000000
11
-40.0123130034523
21
12.6136898885300
31
0.000000000000000
  0
LINE
  5
F10408
330
F10409
100
AcDbEntity
8
Geo
100
AcDbLine
10
-40.0123130034523
20
12.6136898885300
30
0.000000000000000
11
-39.9123130034523
21
12.5726584540797
31
0.000000000000000
  0
LINE
  5
F1040A
330
F1040B
100
AcDbEntity
8
Geo
100
AcDbLine
10
-39.9123130034523
20
12.5726584540797
30
0.000000000000000
11
-39.8123130034523
21
12.5313932020895
31
0.000000000000000
  0
LINE
  5
F1040C
330
F1040D
100
AcDbEntity
8
Geo
100
AcDbLine
10
-39.8123130034523
20
12.5313932020895
30
0.000000000000000
11
-39.7123130034523
21
12.4898955080640
31
0.000000000000000
  0
LINE
  5
F1040E
330
F1040F
100
AcDbEntity
8
Geo
100
AcDbLine
10
-39.7123130034523
20
12.4898955080640
30
0.000000000000000
11
-39.6123130034523
21
12.4481667552559
31
0.000000000000000
  0
LINE
  5
F10410
330
F10411
100
AcDbEntity
8
Geo
100
AcDbLine
10
-39.6123130034523
20
12.4481667552559
30
0.000000000000000
11
-39.5123130034523
21
12.4062083346196
31
0.000000000000000
  0
LINE
  5
F10412
330
F10413
100
AcDbEntity
8
Geo
100
AcDbLine
10
-39.5123130034523
20
12.4062083346196
30
0.000000000000000
11
-39.4123130034523
21
12.3640216447655
31
0.000000000000000
  0
LINE
  5
F10414
330
F10415
100
AcDbEntity
8
Geo
100
AcDbLine
10
-39.4123130034523
20
12.3640216447655
30
0.000000000000000
11
-39.3123130034523
21
12.3216080919124
31
0.000000000000000
  0
LINE
  5
F10416
330
F10417
100
AcDbEntity
8
Geo
100
AcDbLine
10
-39.3123130034523
20
12.3216080919124
30
0.000000000000000
11
-39.2123130034523
21
12.2789690898416
31
0.000000000000000
  0
LINE
  5
F10418
330
F10419
100
AcDbEntity
8
Geo
100
AcDbLine
10
-39.2123130034523
20
12.2789690898416
30
0.000000000000000
11
-39.1123130034523
21
12.2361060598493
31
0.000000000000000
  0
LINE
  5
F1041A
330
F1041B
100
AcDbEntity
8
Geo
100
AcDbLine
10
-39.1123130034523
20
12.2361060598493
30
0.000000000000000
11
-39.0123130034523
21
12.1930204306990
31
0.000000000000000
  0
LINE
  5
F1041C
330
F1041D
100
AcDbEntity
8
Geo
100
AcDbLine
10
-39.0123130034523
20
12.1930204306990
30
0.000000000000000
11
-38.9123130034523
21
12.1497136385746
31
0.000000000000000
  0
LINE
  5
F1041E
330
F1041F
100
AcDbEntity
8
Geo
100
AcDbLine
10
-38.9123130034523
20
12.1497136385746
30
0.000000000000000
11
-38.8123130034523
21
12.1061871270316
31
0.000000000000000
  0
LINE
  5
F10420
330
F10421
100
AcDbEntity
8
Geo
100
AcDbLine
10
-38.8123130034523
20
12.1061871270316
30
0.000000000000000
11
-38.7123130034523
21
12.0624423469498
31
0.000000000000000
  0
LINE
  5
F10422
330
F10423
100
AcDbEntity
8
Geo
100
AcDbLine
10
-38.7123130034523
20
12.0624423469498
30
0.000000000000000
11
-38.6123130034523
21
12.0184807564844
31
0.000000000000000
  0
LINE
  5
F10424
330
F10425
100
AcDbEntity
8
Geo
100
AcDbLine
10
-38.6123130034523
20
12.0184807564844
30
0.000000000000000
11
-38.5123130034523
21
11.9743038210178
31
0.000000000000000
  0
LINE
  5
F10426
330
F10427
100
AcDbEntity
8
Geo
100
AcDbLine
10
-38.5123130034523
20
11.9743038210178
30
0.000000000000000
11
-38.4123130034523
21
11.9299130131104
31
0.000000000000000
  0
LINE
  5
F10428
330
F10429
100
AcDbEntity
8
Geo
100
AcDbLine
10
-38.4123130034523
20
11.9299130131104
30
0.000000000000000
11
-38.3123130034523
21
11.8853098124516
31
0.000000000000000
  0
LINE
  5
F1042A
330
F1042B
100
AcDbEntity
8
Geo
100
AcDbLine
10
-38.3123130034523
20
11.8853098124516
30
0.000000000000000
11
-38.2123130034523
21
11.8404957058107
31
0.000000000000000
  0
LINE
  5
F1042C
330
F1042D
100
AcDbEntity
8
Geo
100
AcDbLine
10
-38.2123130034523
20
11.8404957058107
30
0.000000000000000
11
-38.1123130034523
21
11.7954721869871
31
0.000000000000000
  0
LINE
  5
F1042E
330
F1042F
100
AcDbEntity
8
Geo
100
AcDbLine
10
-38.1123130034523
20
11.7954721869871
30
0.000000000000000
11
-38.0123130034523
21
11.7502407567606
31
0.000000000000000
  0
LINE
  5
F10430
330
F10431
100
AcDbEntity
8
Geo
100
AcDbLine
10
-38.0123130034523
20
11.7502407567606
30
0.000000000000000
11
-37.9123130034523
21
11.7048029228413
31
0.000000000000000
  0
LINE
  5
F10432
330
F10433
100
AcDbEntity
8
Geo
100
AcDbLine
10
-37.9123130034523
20
11.7048029228413
30
0.000000000000000
11
-37.8123130034523
21
11.6591601998194
31
0.000000000000000
  0
LINE
  5
F10434
330
F10435
100
AcDbEntity
8
Geo
100
AcDbLine
10
-37.8123130034523
20
11.6591601998194
30
0.000000000000000
11
-37.7123130034523
21
11.6133141091150
31
0.000000000000000
  0
LINE
  5
F10436
330
F10437
100
AcDbEntity
8
Geo
100
AcDbLine
10
-37.7123130034523
20
11.6133141091150
30
0.000000000000000
11
-37.6123130034523
21
11.5672661789266
31
0.000000000000000
  0
LINE
  5
F10438
330
F10439
100
AcDbEntity
8
Geo
100
AcDbLine
10
-37.6123130034523
20
11.5672661789266
30
0.000000000000000
11
-37.5123130034523
21
11.5210179441812
31
0.000000000000000
  0
LINE
  5
F1043A
330
F1043B
100
AcDbEntity
8
Geo
100
AcDbLine
10
-37.5123130034523
20
11.5210179441812
30
0.000000000000000
11
-37.4123130034523
21
11.4745709464822
31
0.000000000000000
  0
LINE
  5
F1043C
330
F1043D
100
AcDbEntity
8
Geo
100
AcDbLine
10
-37.4123130034523
20
11.4745709464822
30
0.000000000000000
11
-37.3123130034523
21
11.4279267340585
31
0.000000000000000
  0
LINE
  5
F1043E
330
F1043F
100
AcDbEntity
8
Geo
100
AcDbLine
10
-37.3123130034523
20
11.4279267340585
30
0.000000000000000
11
-37.2123130034523
21
11.3810868617131
31
0.000000000000000
  0
LINE
  5
F10440
330
F10441
100
AcDbEntity
8
Geo
100
AcDbLine
10
-37.2123130034523
20
11.3810868617131
30
0.000000000000000
11
-37.1123130034523
21
11.3340528907704
31
0.000000000000000
  0
LINE
  5
F10442
330
F10443
100
AcDbEntity
8
Geo
100
AcDbLine
10
-37.1123130034523
20
11.3340528907704
30
0.000000000000000
11
-37.0123130034523
21
11.2868263890254
31
0.000000000000000
  0
LINE
  5
F10444
330
F10445
100
AcDbEntity
8
Geo
100
AcDbLine
10
-37.0123130034523
20
11.2868263890254
30
0.000000000000000
11
-36.9123130034523
21
11.2394089306902
31
0.000000000000000
  0
LINE
  5
F10446
330
F10447
100
AcDbEntity
8
Geo
100
AcDbLine
10
-36.9123130034523
20
11.2394089306902
30
0.000000000000000
11
-36.8123130034523
21
11.1918020963426
31
0.000000000000000
  0
LINE
  5
F10448
330
F10449
100
AcDbEntity
8
Geo
100
AcDbLine
10
-36.8123130034523
20
11.1918020963426
30
0.000000000000000
11
-36.7123130034523
21
11.1440074728724
31
0.000000000000000
  0
LINE
  5
F1044A
330
F1044B
100
AcDbEntity
8
Geo
100
AcDbLine
10
-36.7123130034523
20
11.1440074728724
30
0.000000000000000
11
-36.6123130034523
21
11.0960266534295
31
0.000000000000000
  0
LINE
  5
F1044C
330
F1044D
100
AcDbEntity
8
Geo
100
AcDbLine
10
-36.6123130034523
20
11.0960266534295
30
0.000000000000000
11
-36.5123130034523
21
11.0478612373700
31
0.000000000000000
  0
LINE
  5
F1044E
330
F1044F
100
AcDbEntity
8
Geo
100
AcDbLine
10
-36.5123130034523
20
11.0478612373700
30
0.000000000000000
11
-36.4123130034523
21
10.9995128302034
31
0.000000000000000
  0
LINE
  5
F10450
330
F10451
100
AcDbEntity
8
Geo
100
AcDbLine
10
-36.4123130034523
20
10.9995128302034
30
0.000000000000000
11
-36.3123130034523
21
10.9509830435387
31
0.000000000000000
  0
LINE
  5
F10452
330
F10453
100
AcDbEntity
8
Geo
100
AcDbLine
10
-36.3123130034523
20
10.9509830435387
30
0.000000000000000
11
-36.2123130034523
21
10.9022734950310
31
0.000000000000000
  0
LINE
  5
F10454
330
F10455
100
AcDbEntity
8
Geo
100
AcDbLine
10
-36.2123130034523
20
10.9022734950310
30
0.000000000000000
11
-36.1123130034523
21
10.8533858083274
31
0.000000000000000
  0
LINE
  5
F10456
330
F10457
100
AcDbEntity
8
Geo
100
AcDbLine
10
-36.1123130034523
20
10.8533858083274
30
0.000000000000000
11
-36.0123130034523
21
10.8043216130129
31
0.000000000000000
  0
LINE
  5
F10458
330
F10459
100
AcDbEntity
8
Geo
100
AcDbLine
10
-36.0123130034523
20
10.8043216130129
30
0.000000000000000
11
-35.9123130034523
21
10.7550825445562
31
0.000000000000000
  0
LINE
  5
F1045A
330
F1045B
100
AcDbEntity
8
Geo
100
AcDbLine
10
-35.9123130034523
20
10.7550825445562
30
0.000000000000000
11
-35.8123130034523
21
10.7056702442550
31
0.000000000000000
  0
LINE
  5
F1045C
330
F1045D
100
AcDbEntity
8
Geo
100
AcDbLine
10
-35.8123130034523
20
10.7056702442550
30
0.000000000000000
11
-35.7123130034523
21
10.6560863591814
31
0.000000000000000
  0
LINE
  5
F1045E
330
F1045F
100
AcDbEntity
8
Geo
100
AcDbLine
10
-35.7123130034523
20
10.6560863591814
30
0.000000000000000
11
-35.6123130034523
21
10.6063325421270
31
0.000000000000000
  0
LINE
  5
F10460
330
F10461
100
AcDbEntity
8
Geo
100
AcDbLine
10
-35.6123130034523
20
10.6063325421270
30
0.000000000000000
11
-35.5123130034523
21
10.5564104515477
31
0.000000000000000
  0
LINE
  5
F10462
330
F10463
100
AcDbEntity
8
Geo
100
AcDbLine
10
-35.5123130034523
20
10.5564104515477
30
0.000000000000000
11
-35.4123130034523
21
10.5063217515086
31
0.000000000000000
  0
LINE
  5
F10464
330
F10465
100
AcDbEntity
8
Geo
100
AcDbLine
10
-35.4123130034523
20
10.5063217515086
30
0.000000000000000
11
-35.3123130034523
21
10.4560681116283
31
0.000000000000000
  0
LINE
  5
F10466
330
F10467
100
AcDbEntity
8
Geo
100
AcDbLine
10
-35.3123130034523
20
10.4560681116283
30
0.000000000000000
11
-35.2123130034523
21
10.4056512070237
31
0.000000000000000
  0
LINE
  5
F10468
330
F10469
100
AcDbEntity
8
Geo
100
AcDbLine
10
-35.2123130034523
20
10.4056512070237
30
0.000000000000000
11
-35.1123130034523
21
10.3550727182534
31
0.000000000000000
  0
LINE
  5
F1046A
330
F1046B
100
AcDbEntity
8
Geo
100
AcDbLine
10
-35.1123130034523
20
10.3550727182534
30
0.000000000000000
11
-35.0123130034523
21
10.3043343312625
31
0.000000000000000
  0
LINE
  5
F1046C
330
F1046D
100
AcDbEntity
8
Geo
100
AcDbLine
10
-35.0123130034523
20
10.3043343312625
30
0.000000000000000
11
-34.9123130034523
21
10.2534377373258
31
0.000000000000000
  0
LINE
  5
F1046E
330
F1046F
100
AcDbEntity
8
Geo
100
AcDbLine
10
-34.9123130034523
20
10.2534377373258
30
0.000000000000000
11
-34.8123130034523
21
10.2023846329917
31
0.000000000000000
  0
LINE
  5
F10470
330
F10471
100
AcDbEntity
8
Geo
100
AcDbLine
10
-34.8123130034523
20
10.2023846329917
30
0.000000000000000
11
-34.7123130034523
21
10.1511767200256
31
0.000000000000000
  0
LINE
  5
F10472
330
F10473
100
AcDbEntity
8
Geo
100
AcDbLine
10
-34.7123130034523
20
10.1511767200256
30
0.000000000000000
11
-34.6123130034523
21
10.0998157053532
31
0.000000000000000
  0
LINE
  5
F10474
330
F10475
100
AcDbEntity
8
Geo
100
AcDbLine
10
-34.6123130034523
20
10.0998157053532
30
0.000000000000000
11
-34.5123130034523
21
10.0483033010037
31
0.000000000000000
  0
LINE
  5
F10476
330
F10477
100
AcDbEntity
8
Geo
100
AcDbLine
10
-34.5123130034523
20
10.0483033010037
30
0.000000000000000
11
-34.4123130034523
21
9.99664122405229
31
0.000000000000000
  0
LINE
  5
F10478
330
F10479
100
AcDbEntity
8
Geo
100
AcDbLine
10
-34.4123130034523
20
9.99664122405229
30
0.000000000000000
11
-34.3123130034523
21
9.94483119656352
31
0.000000000000000
  0
LINE
  5
F1047A
330
F1047B
100
AcDbEntity
8
Geo
100
AcDbLine
10
-34.3123130034523
20
9.94483119656352
30
0.000000000000000
11
-34.2123130034523
21
9.89287494553348
31
0.000000000000000
  0
LINE
  5
F1047C
330
F1047D
100
AcDbEntity
8
Geo
100
AcDbLine
10
-34.2123130034523
20
9.89287494553348
30
0.000000000000000
11
-34.1123130034523
21
9.84077420283240
31
0.000000000000000
  0
LINE
  5
F1047E
330
F1047F
100
AcDbEntity
8
Geo
100
AcDbLine
10
-34.1123130034523
20
9.84077420283240
30
0.000000000000000
11
-34.0123130034523
21
9.78853070514688
31
0.000000000000000
  0
LINE
  5
F10480
330
F10481
100
AcDbEntity
8
Geo
100
AcDbLine
10
-34.0123130034523
20
9.78853070514688
30
0.000000000000000
11
-33.9123130034523
21
9.73614619392200
31
0.000000000000000
  0
LINE
  5
F10482
330
F10483
100
AcDbEntity
8
Geo
100
AcDbLine
10
-33.9123130034523
20
9.73614619392200
30
0.000000000000000
11
-33.8123130034523
21
9.68362241530329
31
0.000000000000000
  0
LINE
  5
F10484
330
F10485
100
AcDbEntity
8
Geo
100
AcDbLine
10
-33.8123130034523
20
9.68362241530329
30
0.000000000000000
11
-33.7123130034523
21
9.63096112007850
31
0.000000000000000
  0
LINE
  5
F10486
330
F10487
100
AcDbEntity
8
Geo
100
AcDbLine
10
-33.7123130034523
20
9.63096112007850
30
0.000000000000000
11
-33.6123130034523
21
9.57816406361927
31
0.000000000000000
  0
LINE
  5
F10488
330
F10489
100
AcDbEntity
8
Geo
100
AcDbLine
10
-33.6123130034523
20
9.57816406361927
30
0.000000000000000
11
-33.5123130034523
21
9.52523300582259
31
0.000000000000000
  0
LINE
  5
F1048A
330
F1048B
100
AcDbEntity
8
Geo
100
AcDbLine
10
-33.5123130034523
20
9.52523300582259
30
0.000000000000000
11
-33.4123130034523
21
9.47216971105215
31
0.000000000000000
  0
LINE
  5
F1048C
330
F1048D
100
AcDbEntity
8
Geo
100
AcDbLine
10
-33.4123130034523
20
9.47216971105215
30
0.000000000000000
11
-33.3123130034523
21
9.41897594807953
31
0.000000000000000
  0
LINE
  5
F1048E
330
F1048F
100
AcDbEntity
8
Geo
100
AcDbLine
10
-33.3123130034523
20
9.41897594807953
30
0.000000000000000
11
-33.2123130034523
21
9.36565349002523
31
0.000000000000000
  0
LINE
  5
F10490
330
F10491
100
AcDbEntity
8
Geo
100
AcDbLine
10
-33.2123130034523
20
9.36565349002523
30
0.000000000000000
11
-33.1123130034523
21
9.31220411429960
31
0.000000000000000
  0
LINE
  5
F10492
330
F10493
100
AcDbEntity
8
Geo
100
AcDbLine
10
-33.1123130034523
20
9.31220411429960
30
0.000000000000000
11
-33.0123130034523
21
9.25862960254354
31
0.000000000000000
  0
LINE
  5
F10494
330
F10495
100
AcDbEntity
8
Geo
100
AcDbLine
10
-33.0123130034523
20
9.25862960254354
30
0.000000000000000
11
-32.9123130034523
21
9.20493174056914
31
0.000000000000000
  0
LINE
  5
F10496
330
F10497
100
AcDbEntity
8
Geo
100
AcDbLine
10
-32.9123130034523
20
9.20493174056914
30
0.000000000000000
11
-32.8123130034523
21
9.15111231830016
31
0.000000000000000
  0
LINE
  5
F10498
330
F10499
100
AcDbEntity
8
Geo
100
AcDbLine
10
-32.8123130034523
20
9.15111231830016
30
0.000000000000000
11
-32.7123130034523
21
9.09717312971237
31
0.000000000000000
  0
LINE
  5
F1049A
330
F1049B
100
AcDbEntity
8
Geo
100
AcDbLine
10
-32.7123130034523
20
9.09717312971237
30
0.000000000000000
11
-32.6123130034523
21
9.04311597277373
31
0.000000000000000
  0
LINE
  5
F1049C
330
F1049D
100
AcDbEntity
8
Geo
100
AcDbLine
10
-32.6123130034523
20
9.04311597277373
30
0.000000000000000
11
-32.5123130034523
21
8.98894264938445
31
0.000000000000000
  0
LINE
  5
F1049E
330
F1049F
100
AcDbEntity
8
Geo
100
AcDbLine
10
-32.5123130034523
20
8.98894264938445
30
0.000000000000000
11
-32.4123130034523
21
8.93465496531697
31
0.000000000000000
  0
LINE
  5
F104A0
330
F104A1
100
AcDbEntity
8
Geo
100
AcDbLine
10
-32.4123130034523
20
8.93465496531697
30
0.000000000000000
11
-32.3123130034523
21
8.88025473015574
31
0.000000000000000
  0
LINE
  5
F104A2
330
F104A3
100
AcDbEntity
8
Geo
100
AcDbLine
10
-32.3123130034523
20
8.88025473015574
30
0.000000000000000
11
-32.2123130034523
21
8.82574375723688
31
0.000000000000000
  0
LINE
  5
F104A4
330
F104A5
100
AcDbEntity
8
Geo
100
AcDbLine
10
-32.2123130034523
20
8.82574375723688
30
0.000000000000000
11
-32.1123130034523
21
8.77112386358779
31
0.000000000000000
  0
LINE
  5
F104A6
330
F104A7
100
AcDbEntity
8
Geo
100
AcDbLine
10
-32.1123130034523
20
8.77112386358779
30
0.000000000000000
11
-32.0123130034523
21
8.71639686986651
31
0.000000000000000
  0
LINE
  5
F104A8
330
F104A9
100
AcDbEntity
8
Geo
100
AcDbLine
10
-32.0123130034523
20
8.71639686986651
30
0.000000000000000
11
-31.9123130034523
21
8.66156460030112
31
0.000000000000000
  0
LINE
  5
F104AA
330
F104AB
100
AcDbEntity
8
Geo
100
AcDbLine
10
-31.9123130034523
20
8.66156460030112
30
0.000000000000000
11
-31.8123130034523
21
8.60662888262885
31
0.000000000000000
  0
LINE
  5
F104AC
330
F104AD
100
AcDbEntity
8
Geo
100
AcDbLine
10
-31.8123130034523
20
8.60662888262885
30
0.000000000000000
11
-31.7123130034523
21
8.55159154803520
31
0.000000000000000
  0
LINE
  5
F104AE
330
F104AF
100
AcDbEntity
8
Geo
100
AcDbLine
10
-31.7123130034523
20
8.55159154803520
30
0.000000000000000
11
-31.6123130034523
21
8.49645443109291
31
0.000000000000000
  0
LINE
  5
F104B0
330
F104B1
100
AcDbEntity
8
Geo
100
AcDbLine
10
-31.6123130034523
20
8.49645443109291
30
0.000000000000000
11
-31.5123130034523
21
8.44121936970076
31
0.000000000000000
  0
LINE
  5
F104B2
330
F104B3
100
AcDbEntity
8
Geo
100
AcDbLine
10
-31.5123130034523
20
8.44121936970076
30
0.000000000000000
11
-31.4123130034523
21
8.38588820502234
31
0.000000000000000
  0
LINE
  5
F104B4
330
F104B5
100
AcDbEntity
8
Geo
100
AcDbLine
10
-31.4123130034523
20
8.38588820502234
30
0.000000000000000
11
-31.3123130034523
21
8.33046278142470
31
0.000000000000000
  0
LINE
  5
F104B6
330
F104B7
100
AcDbEntity
8
Geo
100
AcDbLine
10
-31.3123130034523
20
8.33046278142470
30
0.000000000000000
11
-31.2123130034523
21
8.27494494641683
31
0.000000000000000
  0
LINE
  5
F104B8
330
F104B9
100
AcDbEntity
8
Geo
100
AcDbLine
10
-31.2123130034523
20
8.27494494641683
30
0.000000000000000
11
-31.1123130034523
21
8.21933655058807
31
0.000000000000000
  0
LINE
  5
F104BA
330
F104BB
100
AcDbEntity
8
Geo
100
AcDbLine
10
-31.1123130034523
20
8.21933655058807
30
0.000000000000000
11
-31.0123130034523
21
8.16363944754648
31
0.000000000000000
  0
LINE
  5
F104BC
330
F104BD
100
AcDbEntity
8
Geo
100
AcDbLine
10
-31.0123130034523
20
8.16363944754648
30
0.000000000000000
11
-30.9123130034523
21
8.10785549385700
31
0.000000000000000
  0
LINE
  5
F104BE
330
F104BF
100
AcDbEntity
8
Geo
100
AcDbLine
10
-30.9123130034523
20
8.10785549385700
30
0.000000000000000
11
-30.8123130034523
21
8.05198654897959
31
0.000000000000000
  0
LINE
  5
F104C0
330
F104C1
100
AcDbEntity
8
Geo
100
AcDbLine
10
-30.8123130034523
20
8.05198654897959
30
0.000000000000000
11
-30.7123130034523
21
7.99603447520724
31
0.000000000000000
  0
LINE
  5
F104C2
330
F104C3
100
AcDbEntity
8
Geo
100
AcDbLine
10
-30.7123130034523
20
7.99603447520724
30
0.000000000000000
11
-30.6123130034523
21
7.94000113760389
31
0.000000000000000
  0
LINE
  5
F104C4
330
F104C5
100
AcDbEntity
8
Geo
100
AcDbLine
10
-30.6123130034523
20
7.94000113760389
30
0.000000000000000
11
-30.5123130034523
21
7.88388840394228
31
0.000000000000000
  0
LINE
  5
F104C6
330
F104C7
100
AcDbEntity
8
Geo
100
AcDbLine
10
-30.5123130034523
20
7.88388840394228
30
0.000000000000000
11
-30.4123130034523
21
7.82769814464166
31
0.000000000000000
  0
LINE
  5
F104C8
330
F104C9
100
AcDbEntity
8
Geo
100
AcDbLine
10
-30.4123130034523
20
7.82769814464166
30
0.000000000000000
11
-30.3123130034523
21
7.77143223270547
31
0.000000000000000
  0
LINE
  5
F104CA
330
F104CB
100
AcDbEntity
8
Geo
100
AcDbLine
10
-30.3123130034523
20
7.77143223270547
30
0.000000000000000
11
-30.2123130034523
21
7.71509254365891
31
0.000000000000000
  0
LINE
  5
F104CC
330
F104CD
100
AcDbEntity
8
Geo
100
AcDbLine
10
-30.2123130034523
20
7.71509254365891
30
0.000000000000000
11
-30.1123130034523
21
7.65868095548639
31
0.000000000000000
  0
LINE
  5
F104CE
330
F104CF
100
AcDbEntity
8
Geo
100
AcDbLine
10
-30.1123130034523
20
7.65868095548639
30
0.000000000000000
11
-30.0123130034523
21
7.60219934856896
31
0.000000000000000
  0
LINE
  5
F104D0
330
F104D1
100
AcDbEntity
8
Geo
100
AcDbLine
10
-30.0123130034523
20
7.60219934856896
30
0.000000000000000
11
-29.9123130034523
21
7.54564960562163
31
0.000000000000000
  0
LINE
  5
F104D2
330
F104D3
100
AcDbEntity
8
Geo
100
AcDbLine
10
-29.9123130034523
20
7.54564960562163
30
0.000000000000000
11
-29.8123130034523
21
7.48903361163057
31
0.000000000000000
  0
LINE
  5
F104D4
330
F104D5
100
AcDbEntity
8
Geo
100
AcDbLine
10
-29.8123130034523
20
7.48903361163057
30
0.000000000000000
11
-29.7123130034523
21
7.43235325379037
31
0.000000000000000
  0
LINE
  5
F104D6
330
F104D7
100
AcDbEntity
8
Geo
100
AcDbLine
10
-29.7123130034523
20
7.43235325379037
30
0.000000000000000
11
-29.6123130034523
21
7.37561042144102
31
0.000000000000000
  0
LINE
  5
F104D8
330
F104D9
100
AcDbEntity
8
Geo
100
AcDbLine
10
-29.6123130034523
20
7.37561042144102
30
0.000000000000000
11
-29.5123130034523
21
7.31880700600502
31
0.000000000000000
  0
LINE
  5
F104DA
330
F104DB
100
AcDbEntity
8
Geo
100
AcDbLine
10
-29.5123130034523
20
7.31880700600502
30
0.000000000000000
11
-29.4123130034523
21
7.26194490092429
31
0.000000000000000
  0
LINE
  5
F104DC
330
F104DD
100
AcDbEntity
8
Geo
100
AcDbLine
10
-29.4123130034523
20
7.26194490092429
30
0.000000000000000
11
-29.3123130034523
21
7.20502600159707
31
0.000000000000000
  0
LINE
  5
F104DE
330
F104DF
100
AcDbEntity
8
Geo
100
AcDbLine
10
-29.3123130034523
20
7.20502600159707
30
0.000000000000000
11
-29.2123130034523
21
7.14805220531473
31
0.000000000000000
  0
LINE
  5
F104E0
330
F104E1
100
AcDbEntity
8
Geo
100
AcDbLine
10
-29.2123130034523
20
7.14805220531473
30
0.000000000000000
11
-29.1123130034523
21
7.09102541119854
31
0.000000000000000
  0
LINE
  5
F104E2
330
F104E3
100
AcDbEntity
8
Geo
100
AcDbLine
10
-29.1123130034523
20
7.09102541119854
30
0.000000000000000
11
-29.0123130034523
21
7.03394752013636
31
0.000000000000000
  0
LINE
  5
F104E4
330
F104E5
100
AcDbEntity
8
Geo
100
AcDbLine
10
-29.0123130034523
20
7.03394752013636
30
0.000000000000000
11
-28.9123130034523
21
6.97682043471927
31
0.000000000000000
  0
LINE
  5
F104E6
330
F104E7
100
AcDbEntity
8
Geo
100
AcDbLine
10
-28.9123130034523
20
6.97682043471927
30
0.000000000000000
11
-28.8123130034523
21
6.91964605917815
31
0.000000000000000
  0
LINE
  5
F104E8
330
F104E9
100
AcDbEntity
8
Geo
100
AcDbLine
10
-28.8123130034523
20
6.91964605917815
30
0.000000000000000
11
-28.7123130034523
21
6.86242629932025
31
0.000000000000000
  0
LINE
  5
F104EA
330
F104EB
100
AcDbEntity
8
Geo
100
AcDbLine
10
-28.7123130034523
20
6.86242629932025
30
0.000000000000000
11
-28.6123130034523
21
6.80516306246557
31
0.000000000000000
  0
LINE
  5
F104EC
330
F104ED
100
AcDbEntity
8
Geo
100
AcDbLine
10
-28.6123130034523
20
6.80516306246557
30
0.000000000000000
11
-28.5123130034523
21
6.74785825738340
31
0.000000000000000
  0
LINE
  5
F104EE
330
F104EF
100
AcDbEntity
8
Geo
100
AcDbLine
10
-28.5123130034523
20
6.74785825738340
30
0.000000000000000
11
-28.4123130034523
21
6.69051379422858
31
0.000000000000000
  0
LINE
  5
F104F0
330
F104F1
100
AcDbEntity
8
Geo
100
AcDbLine
10
-28.4123130034523
20
6.69051379422858
30
0.000000000000000
11
-28.3123130034523
21
6.63313158447792
31
0.000000000000000
  0
LINE
  5
F104F2
330
F104F3
100
AcDbEntity
8
Geo
100
AcDbLine
10
-48.2123130034523
20
2.46794282955321
30
0.000000000000000
11
-48.1123130034523
21
2.41308536372380
31
0.000000000000000
  0
LINE
  5
F104F4
330
F104F5
100
AcDbEntity
8
Geo
100
AcDbLine
10
-48.1123130034523
20
2.41308536372380
30
0.000000000000000
11
-48.0123130034523
21
2.35833273185017
31
0.000000000000000
  0
LINE
  5
F104F6
330
F104F7
100
AcDbEntity
8
Geo
100
AcDbLine
10
-48.0123130034523
20
2.35833273185017
30
0.000000000000000
11
-47.9123130034523
21
2.30368675901497
31
0.000000000000000
  0
LINE
  5
F104F8
330
F104F9
100
AcDbEntity
8
Geo
100
AcDbLine
10
-47.9123130034523
20
2.30368675901497
30
0.000000000000000
11
-47.8123130034523
21
2.24914926674559
31
0.000000000000000
  0
LINE
  5
F104FA
330
F104FB
100
AcDbEntity
8
Geo
100
AcDbLine
10
-47.8123130034523
20
2.24914926674559
30
0.000000000000000
11
-47.7123130034523
21
2.19472207295337
31
0.000000000000000
  0
LINE
  5
F104FC
330
F104FD
100
AcDbEntity
8
Geo
100
AcDbLine
10
-47.7123130034523
20
2.19472207295337
30
0.000000000000000
11
-47.6123130034523
21
2.14040699187307
31
0.000000000000000
  0
LINE
  5
F104FE
330
F104FF
100
AcDbEntity
8
Geo
100
AcDbLine
10
-47.6123130034523
20
2.14040699187307
30
0.000000000000000
11
-47.5123130034523
21
2.08620583400237
31
0.000000000000000
  0
LINE
  5
F10500
330
F10501
100
AcDbEntity
8
Geo
100
AcDbLine
10
-47.5123130034523
20
2.08620583400237
30
0.000000000000000
11
-47.4123130034523
21
2.03212040604150
31
0.000000000000000
  0
LINE
  5
F10502
330
F10503
100
AcDbEntity
8
Geo
100
AcDbLine
10
-47.4123130034523
20
2.03212040604150
30
0.000000000000000
11
-47.3123130034523
21
1.97815251083307
31
0.000000000000000
  0
LINE
  5
F10504
330
F10505
100
AcDbEntity
8
Geo
100
AcDbLine
10
-47.3123130034523
20
1.97815251083307
30
0.000000000000000
11
-47.2123130034523
21
1.92430394730190
31
0.000000000000000
  0
LINE
  5
F10506
330
F10507
100
AcDbEntity
8
Geo
100
AcDbLine
10
-47.2123130034523
20
1.92430394730190
30
0.000000000000000
11
-47.1123130034523
21
1.87057651039514
31
0.000000000000000
  0
LINE
  5
F10508
330
F10509
100
AcDbEntity
8
Geo
100
AcDbLine
10
-47.1123130034523
20
1.87057651039514
30
0.000000000000000
11
-47.0123130034523
21
1.81697199102237
31
0.000000000000000
  0
LINE
  5
F1050A
330
F1050B
100
AcDbEntity
8
Geo
100
AcDbLine
10
-47.0123130034523
20
1.81697199102237
30
0.000000000000000
11
-46.9123130034523
21
1.76349217599594
31
0.000000000000000
  0
LINE
  5
F1050C
330
F1050D
100
AcDbEntity
8
Geo
100
AcDbLine
10
-46.9123130034523
20
1.76349217599594
30
0.000000000000000
11
-46.8123130034523
21
1.71013884797140
31
0.000000000000000
  0
LINE
  5
F1050E
330
F1050F
100
AcDbEntity
8
Geo
100
AcDbLine
10
-46.8123130034523
20
1.71013884797140
30
0.000000000000000
11
-46.7123130034523
21
1.65691378538807
31
0.000000000000000
  0
LINE
  5
F10510
330
F10511
100
AcDbEntity
8
Geo
100
AcDbLine
10
-46.7123130034523
20
1.65691378538807
30
0.000000000000000
11
-46.6123130034523
21
1.60381876240979
31
0.000000000000000
  0
LINE
  5
F10512
330
F10513
100
AcDbEntity
8
Geo
100
AcDbLine
10
-46.6123130034523
20
1.60381876240979
30
0.000000000000000
11
-46.5123130034523
21
1.55085554886574
31
0.000000000000000
  0
LINE
  5
F10514
330
F10515
100
AcDbEntity
8
Geo
100
AcDbLine
10
-46.5123130034523
20
1.55085554886574
30
0.000000000000000
11
-46.4123130034523
21
1.49802591019146
31
0.000000000000000
  0
LINE
  5
F10516
330
F10517
100
AcDbEntity
8
Geo
100
AcDbLine
10
-46.4123130034523
20
1.49802591019146
30
0.000000000000000
11
-46.3123130034523
21
1.44533160737001
31
0.000000000000000
  0
LINE
  5
F10518
330
F10519
100
AcDbEntity
8
Geo
100
AcDbLine
10
-46.3123130034523
20
1.44533160737001
30
0.000000000000000
11
-46.2123130034523
21
1.39277439687328
31
0.000000000000000
  0
LINE
  5
F1051A
330
F1051B
100
AcDbEntity
8
Geo
100
AcDbLine
10
-46.2123130034523
20
1.39277439687328
30
0.000000000000000
11
-46.1123130034523
21
1.34035603060343
31
0.000000000000000
  0
LINE
  5
F1051C
330
F1051D
100
AcDbEntity
8
Geo
100
AcDbLine
10
-46.1123130034523
20
1.34035603060343
30
0.000000000000000
11
-46.0123130034523
21
1.28807825583446
31
0.000000000000000
  0
LINE
  5
F1051E
330
F1051F
100
AcDbEntity
8
Geo
100
AcDbLine
10
-46.0123130034523
20
1.28807825583446
30
0.000000000000000
11
-45.9123130034523
21
1.23594281515403
31
0.000000000000000
  0
LINE
  5
F10520
330
F10521
100
AcDbEntity
8
Geo
100
AcDbLine
10
-45.9123130034523
20
1.23594281515403
30
0.000000000000000
11
-45.8123130034523
21
1.18395144640535
31
0.000000000000000
  0
LINE
  5
F10522
330
F10523
100
AcDbEntity
8
Geo
100
AcDbLine
10
-45.8123130034523
20
1.18395144640535
30
0.000000000000000
11
-45.7123130034523
21
1.13210588262921
31
0.000000000000000
  0
LINE
  5
F10524
330
F10525
100
AcDbEntity
8
Geo
100
AcDbLine
10
-45.7123130034523
20
1.13210588262921
30
0.000000000000000
11
-45.6123130034523
21
1.08040785200628
31
0.000000000000000
  0
LINE
  5
F10526
330
F10527
100
AcDbEntity
8
Geo
100
AcDbLine
10
-45.6123130034523
20
1.08040785200628
30
0.000000000000000
11
-45.5123130034523
21
1.02885907779945
31
0.000000000000000
  0
LINE
  5
F10528
330
F10529
100
AcDbEntity
8
Geo
100
AcDbLine
10
-45.5123130034523
20
1.02885907779945
30
0.000000000000000
11
-45.4123130034523
21
0.977461278296437
31
0.000000000000000
  0
LINE
  5
F1052A
330
F1052B
100
AcDbEntity
8
Geo
100
AcDbLine
10
-45.4123130034523
20
0.977461278296437
30
0.000000000000000
11
-45.3123130034523
21
0.926216166752456
31
0.000000000000000
  0
LINE
  5
F1052C
330
F1052D
100
AcDbEntity
8
Geo
100
AcDbLine
10
-45.3123130034523
20
0.926216166752456
30
0.000000000000000
11
-45.2123130034523
21
0.875125451333147
31
0.000000000000000
  0
LINE
  5
F1052E
330
F1052F
100
AcDbEntity
8
Geo
100
AcDbLine
10
-45.2123130034523
20
0.875125451333147
30
0.000000000000000
11
-45.1123130034523
21
0.824190835057626
31
0.000000000000000
  0
LINE
  5
F10530
330
F10531
100
AcDbEntity
8
Geo
100
AcDbLine
10
-45.1123130034523
20
0.824190835057626
30
0.000000000000000
11
-45.0123130034523
21
0.773414015741723
31
0.000000000000000
  0
LINE
  5
F10532
330
F10533
100
AcDbEntity
8
Geo
100
AcDbLine
10
-45.0123130034523
20
0.773414015741723
30
0.000000000000000
11
-44.9123130034523
21
0.722796685941378
31
0.000000000000000
  0
LINE
  5
F10534
330
F10535
100
AcDbEntity
8
Geo
100
AcDbLine
10
-44.9123130034523
20
0.722796685941378
30
0.000000000000000
11
-44.8123130034523
21
0.672340532896230
31
0.000000000000000
  0
LINE
  5
F10536
330
F10537
100
AcDbEntity
8
Geo
100
AcDbLine
10
-44.8123130034523
20
0.672340532896230
30
0.000000000000000
11
-44.7123130034523
21
0.622047238473378
31
0.000000000000000
  0
LINE
  5
F10538
330
F10539
100
AcDbEntity
8
Geo
100
AcDbLine
10
-44.7123130034523
20
0.622047238473378
30
0.000000000000000
11
-44.6123130034523
21
0.571918479111311
31
0.000000000000000
  0
LINE
  5
F1053A
330
F1053B
100
AcDbEntity
8
Geo
100
AcDbLine
10
-44.6123130034523
20
0.571918479111311
30
0.000000000000000
11
-44.5123130034523
21
0.521955925764031
31
0.000000000000000
  0
LINE
  5
F1053C
330
F1053D
100
AcDbEntity
8
Geo
100
AcDbLine
10
-44.5123130034523
20
0.521955925764031
30
0.000000000000000
11
-44.4123130034523
21
0.472161243845360
31
0.000000000000000
  0
LINE
  5
F1053E
330
F1053F
100
AcDbEntity
8
Geo
100
AcDbLine
10
-44.4123130034523
20
0.472161243845360
30
0.000000000000000
11
-44.3123130034523
21
0.422536093173416
31
0.000000000000000
  0
LINE
  5
F10540
330
F10541
100
AcDbEntity
8
Geo
100
AcDbLine
10
-44.3123130034523
20
0.422536093173416
30
0.000000000000000
11
-44.2123130034523
21
0.373082127915295
31
0.000000000000000
  0
LINE
  5
F10542
330
F10543
100
AcDbEntity
8
Geo
100
AcDbLine
10
-44.2123130034523
20
0.373082127915295
30
0.000000000000000
11
-44.1123130034523
21
0.323800996531925
31
0.000000000000000
  0
LINE
  5
F10544
330
F10545
100
AcDbEntity
8
Geo
100
AcDbLine
10
-44.1123130034523
20
0.323800996531925
30
0.000000000000000
11
-44.0123130034523
21
0.274694341723122
31
0.000000000000000
  0
LINE
  5
F10546
330
F10547
100
AcDbEntity
8
Geo
100
AcDbLine
10
-44.0123130034523
20
0.274694341723122
30
0.000000000000000
11
-43.9123130034523
21
0.225763800372834
31
0.000000000000000
  0
LINE
  5
F10548
330
F10549
100
AcDbEntity
8
Geo
100
AcDbLine
10
-43.9123130034523
20
0.225763800372834
30
0.000000000000000
11
-43.8123130034523
21
0.177011003494575
31
0.000000000000000
  0
LINE
  5
F1054A
330
F1054B
100
AcDbEntity
8
Geo
100
AcDbLine
10
-43.8123130034523
20
0.177011003494575
30
0.000000000000000
11
-43.7123130034523
21
0.128437576177061
31
0.000000000000000
  0
LINE
  5
F1054C
330
F1054D
100
AcDbEntity
8
Geo
100
AcDbLine
10
-43.7123130034523
20
0.128437576177061
30
0.000000000000000
11
-43.6123130034523
21
0.0800451375300346
31
0.000000000000000
  0
LINE
  5
F1054E
330
F1054F
100
AcDbEntity
8
Geo
100
AcDbLine
10
-43.6123130034523
20
0.0800451375300346
30
0.000000000000000
11
-43.5123130034523
21
0.0318353006303074
31
0.000000000000000
  0
LINE
  5
F10550
330
F10551
100
AcDbEntity
8
Geo
100
AcDbLine
10
-43.5123130034523
20
0.0318353006303074
30
0.000000000000000
11
-43.4123130034523
21
-0.0161903275320228
31
0.000000000000000
  0
LINE
  5
F10552
330
F10553
100
AcDbEntity
8
Geo
100
AcDbLine
10
-43.4123130034523
20
-0.0161903275320228
30
0.000000000000000
11
-43.3123130034523
21
-0.0640301461071289
31
0.000000000000000
  0
LINE
  5
F10554
330
F10555
100
AcDbEntity
8
Geo
100
AcDbLine
10
-43.3123130034523
20
-0.0640301461071289
30
0.000000000000000
11
-43.2123130034523
21
-0.111682560438824
31
0.000000000000000
  0
LINE
  5
F10556
330
F10557
100
AcDbEntity
8
Geo
100
AcDbLine
10
-43.2123130034523
20
-0.111682560438824
30
0.000000000000000
11
-43.1123130034523
21
-0.159145982117709
31
0.000000000000000
  0
LINE
  5
F10558
330
F10559
100
AcDbEntity
8
Geo
100
AcDbLine
10
-43.1123130034523
20
-0.159145982117709
30
0.000000000000000
11
-43.0123130034523
21
-0.206418829034121
31
0.000000000000000
  0
LINE
  5
F1055A
330
F1055B
100
AcDbEntity
8
Geo
100
AcDbLine
10
-43.0123130034523
20
-0.206418829034121
30
0.000000000000000
11
-42.9123130034523
21
-0.253499525430874
31
0.000000000000000
  0
LINE
  5
F1055C
330
F1055D
100
AcDbEntity
8
Geo
100
AcDbLine
10
-42.9123130034523
20
-0.253499525430874
30
0.000000000000000
11
-42.8123130034523
21
-0.300386501955781
31
0.000000000000000
  0
LINE
  5
F1055E
330
F1055F
100
AcDbEntity
8
Geo
100
AcDbLine
10
-42.8123130034523
20
-0.300386501955781
30
0.000000000000000
11
-42.7123130034523
21
-0.347078195713965
31
0.000000000000000
  0
LINE
  5
F10560
330
F10561
100
AcDbEntity
8
Geo
100
AcDbLine
10
-42.7123130034523
20
-0.347078195713965
30
0.000000000000000
11
-42.6123130034523
21
-0.393573050319959
31
0.000000000000000
  0
LINE
  5
F10562
330
F10563
100
AcDbEntity
8
Geo
100
AcDbLine
10
-42.6123130034523
20
-0.393573050319959
30
0.000000000000000
11
-42.5123130034523
21
-0.439869515949581
31
0.000000000000000
  0
LINE
  5
F10564
330
F10565
100
AcDbEntity
8
Geo
100
AcDbLine
10
-42.5123130034523
20
-0.439869515949581
30
0.000000000000000
11
-42.4123130034523
21
-0.485966049391594
31
0.000000000000000
  0
LINE
  5
F10566
330
F10567
100
AcDbEntity
8
Geo
100
AcDbLine
10
-42.4123130034523
20
-0.485966049391594
30
0.000000000000000
11
-42.3123130034523
21
-0.531861114099155
31
0.000000000000000
  0
LINE
  5
F10568
330
F10569
100
AcDbEntity
8
Geo
100
AcDbLine
10
-42.3123130034523
20
-0.531861114099155
30
0.000000000000000
11
-42.2123130034523
21
-0.577553180241021
31
0.000000000000000
  0
LINE
  5
F1056A
330
F1056B
100
AcDbEntity
8
Geo
100
AcDbLine
10
-42.2123130034523
20
-0.577553180241021
30
0.000000000000000
11
-42.1123130034523
21
-0.623040724752553
31
0.000000000000000
  0
LINE
  5
F1056C
330
F1056D
100
AcDbEntity
8
Geo
100
AcDbLine
10
-42.1123130034523
20
-0.623040724752553
30
0.000000000000000
11
-42.0123130034523
21
-0.668322231386478
31
0.000000000000000
  0
LINE
  5
F1056E
330
F1056F
100
AcDbEntity
8
Geo
100
AcDbLine
10
-42.0123130034523
20
-0.668322231386478
30
0.000000000000000
11
-41.9123130034523
21
-0.713396190763435
31
0.000000000000000
  0
LINE
  5
F10570
330
F10571
100
AcDbEntity
8
Geo
100
AcDbLine
10
-41.9123130034523
20
-0.713396190763435
30
0.000000000000000
11
-41.8123130034523
21
-0.758261100422283
31
0.000000000000000
  0
LINE
  5
F10572
330
F10573
100
AcDbEntity
8
Geo
100
AcDbLine
10
-41.8123130034523
20
-0.758261100422283
30
0.000000000000000
11
-41.7123130034523
21
-0.802915464870189
31
0.000000000000000
  0
LINE
  5
F10574
330
F10575
100
AcDbEntity
8
Geo
100
AcDbLine
10
-41.7123130034523
20
-0.802915464870189
30
0.000000000000000
11
-41.6123130034523
21
-0.847357795632473
31
0.000000000000000
  0
LINE
  5
F10576
330
F10577
100
AcDbEntity
8
Geo
100
AcDbLine
10
-41.6123130034523
20
-0.847357795632473
30
0.000000000000000
11
-41.5123130034523
21
-0.891586611302225
31
0.000000000000000
  0
LINE
  5
F10578
330
F10579
100
AcDbEntity
8
Geo
100
AcDbLine
10
-41.5123130034523
20
-0.891586611302225
30
0.000000000000000
11
-41.4123130034523
21
-0.935600437589684
31
0.000000000000000
  0
LINE
  5
F1057A
330
F1057B
100
AcDbEntity
8
Geo
100
AcDbLine
10
-41.4123130034523
20
-0.935600437589684
30
0.000000000000000
11
-41.3123130034523
21
-0.979397807371381
31
0.000000000000000
  0
LINE
  5
F1057C
330
F1057D
100
AcDbEntity
8
Geo
100
AcDbLine
10
-41.3123130034523
20
-0.979397807371381
30
0.000000000000000
11
-41.2123130034523
21
-1.02297726073905
31
0.000000000000000
  0
LINE
  5
F1057E
330
F1057F
100
AcDbEntity
8
Geo
100
AcDbLine
10
-41.2123130034523
20
-1.02297726073905
30
0.000000000000000
11
-41.1123130034523
21
-1.06633734504827
31
0.000000000000000
  0
LINE
  5
F10580
330
F10581
100
AcDbEntity
8
Geo
100
AcDbLine
10
-41.1123130034523
20
-1.06633734504827
30
0.000000000000000
11
-41.0123130034523
21
-1.10947661496693
31
0.000000000000000
  0
LINE
  5
F10582
330
F10583
100
AcDbEntity
8
Geo
100
AcDbLine
10
-41.0123130034523
20
-1.10947661496693
30
0.000000000000000
11
-40.9123130034523
21
-1.15239363252334
31
0.000000000000000
  0
LINE
  5
F10584
330
F10585
100
AcDbEntity
8
Geo
100
AcDbLine
10
-40.9123130034523
20
-1.15239363252334
30
0.000000000000000
11
-40.8123130034523
21
-1.19508696715424
31
0.000000000000000
  0
LINE
  5
F10586
330
F10587
100
AcDbEntity
8
Geo
100
AcDbLine
10
-40.8123130034523
20
-1.19508696715424
30
0.000000000000000
11
-40.7123130034523
21
-1.23755519575241
31
0.000000000000000
  0
LINE
  5
F10588
330
F10589
100
AcDbEntity
8
Geo
100
AcDbLine
10
-40.7123130034523
20
-1.23755519575241
30
0.000000000000000
11
-40.6123130034523
21
-1.27979690271418
31
0.000000000000000
  0
LINE
  5
F1058A
330
F1058B
100
AcDbEntity
8
Geo
100
AcDbLine
10
-40.6123130034523
20
-1.27979690271418
30
0.000000000000000
11
-40.5123130034523
21
-1.32181067998655
31
0.000000000000000
  0
LINE
  5
F1058C
330
F1058D
100
AcDbEntity
8
Geo
100
AcDbLine
10
-40.5123130034523
20
-1.32181067998655
30
0.000000000000000
11
-40.4123130034523
21
-1.36359512711418
31
0.000000000000000
  0
LINE
  5
F1058E
330
F1058F
100
AcDbEntity
8
Geo
100
AcDbLine
10
-40.4123130034523
20
-1.36359512711418
30
0.000000000000000
11
-40.3123130034523
21
-1.40514885128602
31
0.000000000000000
  0
LINE
  5
F10590
330
F10591
100
AcDbEntity
8
Geo
100
AcDbLine
10
-40.3123130034523
20
-1.40514885128602
30
0.000000000000000
11
-40.2123130034523
21
-1.44647046738179
31
0.000000000000000
  0
LINE
  5
F10592
330
F10593
100
AcDbEntity
8
Geo
100
AcDbLine
10
-40.2123130034523
20
-1.44647046738179
30
0.000000000000000
11
-40.1123130034523
21
-1.48755859801811
31
0.000000000000000
  0
LINE
  5
F10594
330
F10595
100
AcDbEntity
8
Geo
100
AcDbLine
10
-40.1123130034523
20
-1.48755859801811
30
0.000000000000000
11
-40.0123130034523
21
-1.52841187359443
31
0.000000000000000
  0
LINE
  5
F10596
330
F10597
100
AcDbEntity
8
Geo
100
AcDbLine
10
-40.0123130034523
20
-1.52841187359443
30
0.000000000000000
11
-39.9123130034523
21
-1.56902893233868
31
0.000000000000000
  0
LINE
  5
F10598
330
F10599
100
AcDbEntity
8
Geo
100
AcDbLine
10
-39.9123130034523
20
-1.56902893233868
30
0.000000000000000
11
-39.8123130034523
21
-1.60940842035266
31
0.000000000000000
  0
LINE
  5
F1059A
330
F1059B
100
AcDbEntity
8
Geo
100
AcDbLine
10
-39.8123130034523
20
-1.60940842035266
30
0.000000000000000
11
-39.7123130034523
21
-1.64954899165717
31
0.000000000000000
  0
LINE
  5
F1059C
330
F1059D
100
AcDbEntity
8
Geo
100
AcDbLine
10
-39.7123130034523
20
-1.64954899165717
30
0.000000000000000
11
-39.6123130034523
21
-1.68944930823690
31
0.000000000000000
  0
LINE
  5
F1059E
330
F1059F
100
AcDbEntity
8
Geo
100
AcDbLine
10
-39.6123130034523
20
-1.68944930823690
30
0.000000000000000
11
-39.5123130034523
21
-1.72910804008497
31
0.000000000000000
  0
LINE
  5
F105A0
330
F105A1
100
AcDbEntity
8
Geo
100
AcDbLine
10
-39.5123130034523
20
-1.72910804008497
30
0.000000000000000
11
-39.4123130034523
21
-1.76852386524735
31
0.000000000000000
  0
LINE
  5
F105A2
330
F105A3
100
AcDbEntity
8
Geo
100
AcDbLine
10
-39.4123130034523
20
-1.76852386524735
30
0.000000000000000
11
-39.3123130034523
21
-1.80769546986683
31
0.000000000000000
  0
LINE
  5
F105A4
330
F105A5
100
AcDbEntity
8
Geo
100
AcDbLine
10
-39.3123130034523
20
-1.80769546986683
30
0.000000000000000
11
-39.2123130034523
21
-1.84662154822689
31
0.000000000000000
  0
LINE
  5
F105A6
330
F105A7
100
AcDbEntity
8
Geo
100
AcDbLine
10
-39.2123130034523
20
-1.84662154822689
30
0.000000000000000
11
-39.1123130034523
21
-1.88530080279518
31
0.000000000000000
  0
LINE
  5
F105A8
330
F105A9
100
AcDbEntity
8
Geo
100
AcDbLine
10
-39.1123130034523
20
-1.88530080279518
30
0.000000000000000
11
-39.0123130034523
21
-1.92373194426682
31
0.000000000000000
  0
LINE
  5
F105AA
330
F105AB
100
AcDbEntity
8
Geo
100
AcDbLine
10
-39.0123130034523
20
-1.92373194426682
30
0.000000000000000
11
-38.9123130034523
21
-1.96191369160729
31
0.000000000000000
  0
LINE
  5
F105AC
330
F105AD
100
AcDbEntity
8
Geo
100
AcDbLine
10
-38.9123130034523
20
-1.96191369160729
30
0.000000000000000
11
-38.8123130034523
21
-1.99984477209523
31
0.000000000000000
  0
LINE
  5
F105AE
330
F105AF
100
AcDbEntity
8
Geo
100
AcDbLine
10
-38.8123130034523
20
-1.99984477209523
30
0.000000000000000
11
-38.7123130034523
21
-2.03752392136481
31
0.000000000000000
  0
LINE
  5
F105B0
330
F105B1
100
AcDbEntity
8
Geo
100
AcDbLine
10
-38.7123130034523
20
-2.03752392136481
30
0.000000000000000
11
-38.6123130034523
21
-2.07494988344786
31
0.000000000000000
  0
LINE
  5
F105B2
330
F105B3
100
AcDbEntity
8
Geo
100
AcDbLine
10
-38.6123130034523
20
-2.07494988344786
30
0.000000000000000
11
-38.5123130034523
21
-2.11212141081578
31
0.000000000000000
  0
LINE
  5
F105B4
330
F105B5
100
AcDbEntity
8
Geo
100
AcDbLine
10
-38.5123130034523
20
-2.11212141081578
30
0.000000000000000
11
-38.4123130034523
21
-2.14903726442111
31
0.000000000000000
  0
LINE
  5
F105B6
330
F105B7
100
AcDbEntity
8
Geo
100
AcDbLine
10
-38.4123130034523
20
-2.14903726442111
30
0.000000000000000
11
-38.3123130034523
21
-2.18569621373880
31
0.000000000000000
  0
LINE
  5
F105B8
330
F105B9
100
AcDbEntity
8
Geo
100
AcDbLine
10
-38.3123130034523
20
-2.18569621373880
30
0.000000000000000
11
-38.2123130034523
21
-2.22209703680727
31
0.000000000000000
  0
LINE
  5
F105BA
330
F105BB
100
AcDbEntity
8
Geo
100
AcDbLine
10
-38.2123130034523
20
-2.22209703680727
30
0.000000000000000
11
-38.1123130034523
21
-2.25823852026913
31
0.000000000000000
  0
LINE
  5
F105BC
330
F105BD
100
AcDbEntity
8
Geo
100
AcDbLine
10
-38.1123130034523
20
-2.25823852026913
30
0.000000000000000
11
-38.0123130034523
21
-2.29411945941161
31
0.000000000000000
  0
LINE
  5
F105BE
330
F105BF
100
AcDbEntity
8
Geo
100
AcDbLine
10
-38.0123130034523
20
-2.29411945941161
30
0.000000000000000
11
-37.9123130034523
21
-2.32973865820672
31
0.000000000000000
  0
LINE
  5
F105C0
330
F105C1
100
AcDbEntity
8
Geo
100
AcDbLine
10
-37.9123130034523
20
-2.32973865820672
30
0.000000000000000
11
-37.8123130034523
21
-2.36509492935114
31
0.000000000000000
  0
LINE
  5
F105C2
330
F105C3
100
AcDbEntity
8
Geo
100
AcDbLine
10
-37.8123130034523
20
-2.36509492935114
30
0.000000000000000
11
-37.7123130034523
21
-2.40018709430576
31
0.000000000000000
  0
LINE
  5
F105C4
330
F105C5
100
AcDbEntity
8
Geo
100
AcDbLine
10
-37.7123130034523
20
-2.40018709430576
30
0.000000000000000
11
-37.6123130034523
21
-2.43501398333501
31
0.000000000000000
  0
LINE
  5
F105C6
330
F105C7
100
AcDbEntity
8
Geo
100
AcDbLine
10
-37.6123130034523
20
-2.43501398333501
30
0.000000000000000
11
-37.5123130034523
21
-2.46957443554581
31
0.000000000000000
  0
LINE
  5
F105C8
330
F105C9
100
AcDbEntity
8
Geo
100
AcDbLine
10
-37.5123130034523
20
-2.46957443554581
30
0.000000000000000
11
-37.4123130034523
21
-2.50386729892628
31
0.000000000000000
  0
LINE
  5
F105CA
330
F105CB
100
AcDbEntity
8
Geo
100
AcDbLine
10
-37.4123130034523
20
-2.50386729892628
30
0.000000000000000
11
-37.3123130034523
21
-2.53789143038416
31
0.000000000000000
  0
LINE
  5
F105CC
330
F105CD
100
AcDbEntity
8
Geo
100
AcDbLine
10
-37.3123130034523
20
-2.53789143038416
30
0.000000000000000
11
-37.2123130034523
21
-2.57164569578488
31
0.000000000000000
  0
LINE
  5
F105CE
330
F105CF
100
AcDbEntity
8
Geo
100
AcDbLine
10
-37.2123130034523
20
-2.57164569578488
30
0.000000000000000
11
-37.1123130034523
21
-2.60512896998938
31
0.000000000000000
  0
LINE
  5
F105D0
330
F105D1
100
AcDbEntity
8
Geo
100
AcDbLine
10
-37.1123130034523
20
-2.60512896998938
30
0.000000000000000
11
-37.0123130034523
21
-2.63834013689163
31
0.000000000000000
  0
LINE
  5
F105D2
330
F105D3
100
AcDbEntity
8
Geo
100
AcDbLine
10
-37.0123130034523
20
-2.63834013689163
30
0.000000000000000
11
-36.9123130034523
21
-2.67127808945580
31
0.000000000000000
  0
LINE
  5
F105D4
330
F105D5
100
AcDbEntity
8
Geo
100
AcDbLine
10
-36.9123130034523
20
-2.67127808945580
30
0.000000000000000
11
-36.8123130034523
21
-2.70394172975319
31
0.000000000000000
  0
LINE
  5
F105D6
330
F105D7
100
AcDbEntity
8
Geo
100
AcDbLine
10
-36.8123130034523
20
-2.70394172975319
30
0.000000000000000
11
-36.7123130034523
21
-2.73632996899882
31
0.000000000000000
  0
LINE
  5
F105D8
330
F105D9
100
AcDbEntity
8
Geo
100
AcDbLine
10
-36.7123130034523
20
-2.73632996899882
30
0.000000000000000
11
-36.6123130034523
21
-2.76844172758771
31
0.000000000000000
  0
LINE
  5
F105DA
330
F105DB
100
AcDbEntity
8
Geo
100
AcDbLine
10
-36.6123130034523
20
-2.76844172758771
30
0.000000000000000
11
-36.5123130034523
21
-2.80027593513088
31
0.000000000000000
  0
LINE
  5
F105DC
330
F105DD
100
AcDbEntity
8
Geo
100
AcDbLine
10
-36.5123130034523
20
-2.80027593513088
30
0.000000000000000
11
-36.4123130034523
21
-2.83183153049102
31
0.000000000000000
  0
LINE
  5
F105DE
330
F105DF
100
AcDbEntity
8
Geo
100
AcDbLine
10
-36.4123130034523
20
-2.83183153049102
30
0.000000000000000
11
-36.3123130034523
21
-2.86310746181788
31
0.000000000000000
  0
LINE
  5
F105E0
330
F105E1
100
AcDbEntity
8
Geo
100
AcDbLine
10
-36.3123130034523
20
-2.86310746181788
30
0.000000000000000
11
-36.2123130034523
21
-2.89410268658332
31
0.000000000000000
  0
LINE
  5
F105E2
330
F105E3
100
AcDbEntity
8
Geo
100
AcDbLine
10
-36.2123130034523
20
-2.89410268658332
30
0.000000000000000
11
-36.1123130034523
21
-2.92481617161604
31
0.000000000000000
  0
LINE
  5
F105E4
330
F105E5
100
AcDbEntity
8
Geo
100
AcDbLine
10
-36.1123130034523
20
-2.92481617161604
30
0.000000000000000
11
-36.0123130034523
21
-2.95524689313604
31
0.000000000000000
  0
LINE
  5
F105E6
330
F105E7
100
AcDbEntity
8
Geo
100
AcDbLine
10
-36.0123130034523
20
-2.95524689313604
30
0.000000000000000
11
-35.9123130034523
21
-2.98539383678878
31
0.000000000000000
  0
LINE
  5
F105E8
330
F105E9
100
AcDbEntity
8
Geo
100
AcDbLine
10
-35.9123130034523
20
-2.98539383678878
30
0.000000000000000
11
-35.8123130034523
21
-3.01525599767891
31
0.000000000000000
  0
LINE
  5
F105EA
330
F105EB
100
AcDbEntity
8
Geo
100
AcDbLine
10
-35.8123130034523
20
-3.01525599767891
30
0.000000000000000
11
-35.7123130034523
21
-3.04483238040383
31
0.000000000000000
  0
LINE
  5
F105EC
330
F105ED
100
AcDbEntity
8
Geo
100
AcDbLine
10
-35.7123130034523
20
-3.04483238040383
30
0.000000000000000
11
-35.6123130034523
21
-3.07412199908687
31
0.000000000000000
  0
LINE
  5
F105EE
330
F105EF
100
AcDbEntity
8
Geo
100
AcDbLine
10
-35.6123130034523
20
-3.07412199908687
30
0.000000000000000
11
-35.5123130034523
21
-3.10312387741010
31
0.000000000000000
  0
LINE
  5
F105F0
330
F105F1
100
AcDbEntity
8
Geo
100
AcDbLine
10
-35.5123130034523
20
-3.10312387741010
30
0.000000000000000
11
-35.4123130034523
21
-3.13183704864695
31
0.000000000000000
  0
LINE
  5
F105F2
330
F105F3
100
AcDbEntity
8
Geo
100
AcDbLine
10
-35.4123130034523
20
-3.13183704864695
30
0.000000000000000
11
-35.3123130034523
21
-3.16026055569435
31
0.000000000000000
  0
LINE
  5
F105F4
330
F105F5
100
AcDbEntity
8
Geo
100
AcDbLine
10
-35.3123130034523
20
-3.16026055569435
30
0.000000000000000
11
-35.2123130034523
21
-3.18839345110471
31
0.000000000000000
  0
LINE
  5
F105F6
330
F105F7
100
AcDbEntity
8
Geo
100
AcDbLine
10
-35.2123130034523
20
-3.18839345110471
30
0.000000000000000
11
-35.1123130034523
21
-3.21623479711745
31
0.000000000000000
  0
LINE
  5
F105F8
330
F105F9
100
AcDbEntity
8
Geo
100
AcDbLine
10
-35.1123130034523
20
-3.21623479711745
30
0.000000000000000
11
-35.0123130034523
21
-3.24378366569029
31
0.000000000000000
  0
LINE
  5
F105FA
330
F105FB
100
AcDbEntity
8
Geo
100
AcDbLine
10
-35.0123130034523
20
-3.24378366569029
30
0.000000000000000
11
-34.9123130034523
21
-3.27103913853014
31
0.000000000000000
  0
LINE
  5
F105FC
330
F105FD
100
AcDbEntity
8
Geo
100
AcDbLine
10
-34.9123130034523
20
-3.27103913853014
30
0.000000000000000
11
-34.8123130034523
21
-3.29800030712378
31
0.000000000000000
  0
LINE
  5
F105FE
330
F105FF
100
AcDbEntity
8
Geo
100
AcDbLine
10
-34.8123130034523
20
-3.29800030712378
30
0.000000000000000
11
-34.7123130034523
21
-3.32466627276809
31
0.000000000000000
  0
LINE
  5
F10600
330
F10601
100
AcDbEntity
8
Geo
100
AcDbLine
10
-34.7123130034523
20
-3.32466627276809
30
0.000000000000000
11
-34.6123130034523
21
-3.35103614660000
31
0.000000000000000
  0
LINE
  5
F10602
330
F10603
100
AcDbEntity
8
Geo
100
AcDbLine
10
-34.6123130034523
20
-3.35103614660000
30
0.000000000000000
11
-34.5123130034523
21
-3.37710904962617
31
0.000000000000000
  0
LINE
  5
F10604
330
F10605
100
AcDbEntity
8
Geo
100
AcDbLine
10
-34.5123130034523
20
-3.37710904962617
30
0.000000000000000
11
-34.4123130034523
21
-3.40288411275224
31
0.000000000000000
  0
LINE
  5
F10606
330
F10607
100
AcDbEntity
8
Geo
100
AcDbLine
10
-34.4123130034523
20
-3.40288411275224
30
0.000000000000000
11
-34.3123130034523
21
-3.42836047681183
31
0.000000000000000
  0
LINE
  5
F10608
330
F10609
100
AcDbEntity
8
Geo
100
AcDbLine
10
-34.3123130034523
20
-3.42836047681183
30
0.000000000000000
11
-34.2123130034523
21
-3.45353729259517
31
0.000000000000000
  0
LINE
  5
F1060A
330
F1060B
100
AcDbEntity
8
Geo
100
AcDbLine
10
-34.2123130034523
20
-3.45353729259517
30
0.000000000000000
11
-34.1123130034523
21
-3.47841372087738
31
0.000000000000000
  0
LINE
  5
F1060C
330
F1060D
100
AcDbEntity
8
Geo
100
AcDbLine
10
-34.1123130034523
20
-3.47841372087738
30
0.000000000000000
11
-34.0123130034523
21
-3.50298893244651
31
0.000000000000000
  0
LINE
  5
F1060E
330
F1060F
100
AcDbEntity
8
Geo
100
AcDbLine
10
-34.0123130034523
20
-3.50298893244651
30
0.000000000000000
11
-33.9123130034523
21
-3.52726210813110
31
0.000000000000000
  0
LINE
  5
F10610
330
F10611
100
AcDbEntity
8
Geo
100
AcDbLine
10
-33.9123130034523
20
-3.52726210813110
30
0.000000000000000
11
-33.8123130034523
21
-3.55123243882754
31
0.000000000000000
  0
LINE
  5
F10612
330
F10613
100
AcDbEntity
8
Geo
100
AcDbLine
10
-33.8123130034523
20
-3.55123243882754
30
0.000000000000000
11
-33.7123130034523
21
-3.57489912552704
31
0.000000000000000
  0
LINE
  5
F10614
330
F10615
100
AcDbEntity
8
Geo
100
AcDbLine
10
-33.7123130034523
20
-3.57489912552704
30
0.000000000000000
11
-33.6123130034523
21
-3.59826137934223
31
0.000000000000000
  0
LINE
  5
F10616
330
F10617
100
AcDbEntity
8
Geo
100
AcDbLine
10
-33.6123130034523
20
-3.59826137934223
30
0.000000000000000
11
-33.5123130034523
21
-3.62131842153347
31
0.000000000000000
  0
LINE
  5
F10618
330
F10619
100
AcDbEntity
8
Geo
100
AcDbLine
10
-33.5123130034523
20
-3.62131842153347
30
0.000000000000000
11
-33.4123130034523
21
-3.64406948353483
31
0.000000000000000
  0
LINE
  5
F1061A
330
F1061B
100
AcDbEntity
8
Geo
100
AcDbLine
10
-33.4123130034523
20
-3.64406948353483
30
0.000000000000000
11
-33.3123130034523
21
-3.66651380697968
31
0.000000000000000
  0
LINE
  5
F1061C
330
F1061D
100
AcDbEntity
8
Geo
100
AcDbLine
10
-33.3123130034523
20
-3.66651380697968
30
0.000000000000000
11
-33.2123130034523
21
-3.68865064372599
31
0.000000000000000
  0
LINE
  5
F1061E
330
F1061F
100
AcDbEntity
8
Geo
100
AcDbLine
10
-33.2123130034523
20
-3.68865064372599
30
0.000000000000000
11
-33.1123130034523
21
-3.71047925588124
31
0.000000000000000
  0
LINE
  5
F10620
330
F10621
100
AcDbEntity
8
Geo
100
AcDbLine
10
-33.1123130034523
20
-3.71047925588124
30
0.000000000000000
11
-33.0123130034523
21
-3.73199891582706
31
0.000000000000000
  0
LINE
  5
F10622
330
F10623
100
AcDbEntity
8
Geo
100
AcDbLine
10
-33.0123130034523
20
-3.73199891582706
30
0.000000000000000
11
-32.9123130034523
21
-3.75320890624343
31
0.000000000000000
  0
LINE
  5
F10624
330
F10625
100
AcDbEntity
8
Geo
100
AcDbLine
10
-32.9123130034523
20
-3.75320890624343
30
0.000000000000000
11
-32.8123130034523
21
-3.77410852013265
31
0.000000000000000
  0
LINE
  5
F10626
330
F10627
100
AcDbEntity
8
Geo
100
AcDbLine
10
-32.8123130034523
20
-3.77410852013265
30
0.000000000000000
11
-32.7123130034523
21
-3.79469706084284
31
0.000000000000000
  0
LINE
  5
F10628
330
F10629
100
AcDbEntity
8
Geo
100
AcDbLine
10
-32.7123130034523
20
-3.79469706084284
30
0.000000000000000
11
-32.6123130034523
21
-3.81497384209123
31
0.000000000000000
  0
LINE
  5
F1062A
330
F1062B
100
AcDbEntity
8
Geo
100
AcDbLine
10
-32.6123130034523
20
-3.81497384209123
30
0.000000000000000
11
-32.5123130034523
21
-3.83493818798698
31
0.000000000000000
  0
LINE
  5
F1062C
330
F1062D
100
AcDbEntity
8
Geo
100
AcDbLine
10
-32.5123130034523
20
-3.83493818798698
30
0.000000000000000
11
-32.4123130034523
21
-3.85458943305375
31
0.000000000000000
  0
LINE
  5
F1062E
330
F1062F
100
AcDbEntity
8
Geo
100
AcDbLine
10
-32.4123130034523
20
-3.85458943305375
30
0.000000000000000
11
-32.3123130034523
21
-3.87392692225185
31
0.000000000000000
  0
LINE
  5
F10630
330
F10631
100
AcDbEntity
8
Geo
100
AcDbLine
10
-32.3123130034523
20
-3.87392692225185
30
0.000000000000000
11
-32.2123130034523
21
-3.89295001100010
31
0.000000000000000
  0
LINE
  5
F10632
330
F10633
100
AcDbEntity
8
Geo
100
AcDbLine
10
-32.2123130034523
20
-3.89295001100010
30
0.000000000000000
11
-32.1123130034523
21
-3.91165806519731
31
0.000000000000000
  0
LINE
  5
F10634
330
F10635
100
AcDbEntity
8
Geo
100
AcDbLine
10
-32.1123130034523
20
-3.91165806519731
30
0.000000000000000
11
-32.0123130034523
21
-3.93005046124340
31
0.000000000000000
  0
LINE
  5
F10636
330
F10637
100
AcDbEntity
8
Geo
100
AcDbLine
10
-32.0123130034523
20
-3.93005046124340
30
0.000000000000000
11
-31.9123130034523
21
-3.94812658606020
31
0.000000000000000
  0
LINE
  5
F10638
330
F10639
100
AcDbEntity
8
Geo
100
AcDbLine
10
-31.9123130034523
20
-3.94812658606020
30
0.000000000000000
11
-31.8123130034523
21
-3.96588583711190
31
0.000000000000000
  0
LINE
  5
F1063A
330
F1063B
100
AcDbEntity
8
Geo
100
AcDbLine
10
-31.8123130034523
20
-3.96588583711190
30
0.000000000000000
11
-31.7123130034523
21
-3.98332762242510
31
0.000000000000000
  0
LINE
  5
F1063C
330
F1063D
100
AcDbEntity
8
Geo
100
AcDbLine
10
-31.7123130034523
20
-3.98332762242510
30
0.000000000000000
11
-31.6123130034523
21
-4.00045136060857
31
0.000000000000000
  0
LINE
  5
F1063E
330
F1063F
100
AcDbEntity
8
Geo
100
AcDbLine
10
-31.6123130034523
20
-4.00045136060857
30
0.000000000000000
11
-31.5123130034523
21
-4.01725648087263
31
0.000000000000000
  0
LINE
  5
F10640
330
F10641
100
AcDbEntity
8
Geo
100
AcDbLine
10
-31.5123130034523
20
-4.01725648087263
30
0.000000000000000
11
-31.4123130034523
21
-4.03374242304816
31
0.000000000000000
  0
LINE
  5
F10642
330
F10643
100
AcDbEntity
8
Geo
100
AcDbLine
10
-31.4123130034523
20
-4.03374242304816
30
0.000000000000000
11
-31.3123130034523
21
-4.04990863760528
31
0.000000000000000
  0
LINE
  5
F10644
330
F10645
100
AcDbEntity
8
Geo
100
AcDbLine
10
-31.3123130034523
20
-4.04990863760528
30
0.000000000000000
11
-31.2123130034523
21
-4.06575458567167
31
0.000000000000000
  0
LINE
  5
F10646
330
F10647
100
AcDbEntity
8
Geo
100
AcDbLine
10
-31.2123130034523
20
-4.06575458567167
30
0.000000000000000
11
-31.1123130034523
21
-4.08127973905052
31
0.000000000000000
  0
LINE
  5
F10648
330
F10649
100
AcDbEntity
8
Geo
100
AcDbLine
10
-31.1123130034523
20
-4.08127973905052
30
0.000000000000000
11
-31.0123130034523
21
-4.09648358023816
31
0.000000000000000
  0
LINE
  5
F1064A
330
F1064B
100
AcDbEntity
8
Geo
100
AcDbLine
10
-31.0123130034523
20
-4.09648358023816
30
0.000000000000000
11
-30.9123130034523
21
-4.11136560244129
31
0.000000000000000
  0
LINE
  5
F1064C
330
F1064D
100
AcDbEntity
8
Geo
100
AcDbLine
10
-30.9123130034523
20
-4.11136560244129
30
0.000000000000000
11
-30.8123130034523
21
-4.12592530959389
31
0.000000000000000
  0
LINE
  5
F1064E
330
F1064F
100
AcDbEntity
8
Geo
100
AcDbLine
10
-30.8123130034523
20
-4.12592530959389
30
0.000000000000000
11
-30.7123130034523
21
-4.14016221637372
31
0.000000000000000
  0
LINE
  5
F10650
330
F10651
100
AcDbEntity
8
Geo
100
AcDbLine
10
-30.7123130034523
20
-4.14016221637372
30
0.000000000000000
11
-30.6123130034523
21
-4.15407584821856
31
0.000000000000000
  0
LINE
  5
F10652
330
F10653
100
AcDbEntity
8
Geo
100
AcDbLine
10
-30.6123130034523
20
-4.15407584821856
30
0.000000000000000
11
-30.5123130034523
21
-4.16766574134195
31
0.000000000000000
  0
LINE
  5
F10654
330
F10655
100
AcDbEntity
8
Geo
100
AcDbLine
10
-30.5123130034523
20
-4.16766574134195
30
0.000000000000000
11
-30.4123130034523
21
-4.18093144274872
31
0.000000000000000
  0
LINE
  5
F10656
330
F10657
100
AcDbEntity
8
Geo
100
AcDbLine
10
-30.4123130034523
20
-4.18093144274872
30
0.000000000000000
11
-30.3123130034523
21
-4.19387251025005
31
0.000000000000000
  0
LINE
  5
F10658
330
F10659
100
AcDbEntity
8
Geo
100
AcDbLine
10
-30.3123130034523
20
-4.19387251025005
30
0.000000000000000
11
-30.2123130034523
21
-4.20648851247822
31
0.000000000000000
  0
LINE
  5
F1065A
330
F1065B
100
AcDbEntity
8
Geo
100
AcDbLine
10
-30.2123130034523
20
-4.20648851247822
30
0.000000000000000
11
-30.1123130034523
21
-4.21877902890100
31
0.000000000000000
  0
LINE
  5
F1065C
330
F1065D
100
AcDbEntity
8
Geo
100
AcDbLine
10
-30.1123130034523
20
-4.21877902890100
30
0.000000000000000
11
-30.0123130034523
21
-4.23074364983564
31
0.000000000000000
  0
LINE
  5
F1065E
330
F1065F
100
AcDbEntity
8
Geo
100
AcDbLine
10
-30.0123130034523
20
-4.23074364983564
30
0.000000000000000
11
-29.9123130034523
21
-4.24238197646254
31
0.000000000000000
  0
LINE
  5
F10660
330
F10661
100
AcDbEntity
8
Geo
100
AcDbLine
10
-29.9123130034523
20
-4.24238197646254
30
0.000000000000000
11
-29.8123130034523
21
-4.25369362083858
31
0.000000000000000
  0
LINE
  5
F10662
330
F10663
100
AcDbEntity
8
Geo
100
AcDbLine
10
-29.8123130034523
20
-4.25369362083858
30
0.000000000000000
11
-29.7123130034523
21
-4.26467820590997
31
0.000000000000000
  0
LINE
  5
F10664
330
F10665
100
AcDbEntity
8
Geo
100
AcDbLine
10
-29.7123130034523
20
-4.26467820590997
30
0.000000000000000
11
-29.6123130034523
21
-4.27533536552491
31
0.000000000000000
  0
LINE
  5
F10666
330
F10667
100
AcDbEntity
8
Geo
100
AcDbLine
10
-29.6123130034523
20
-4.27533536552491
30
0.000000000000000
11
-29.5123130034523
21
-4.28566474444572
31
0.000000000000000
  0
LINE
  5
F10668
330
F10669
100
AcDbEntity
8
Geo
100
AcDbLine
10
-29.5123130034523
20
-4.28566474444572
30
0.000000000000000
11
-29.4123130034523
21
-4.29566599836074
31
0.000000000000000
  0
LINE
  5
F1066A
330
F1066B
100
AcDbEntity
8
Geo
100
AcDbLine
10
-29.4123130034523
20
-4.29566599836074
30
0.000000000000000
11
-29.3123130034523
21
-4.30533879389575
31
0.000000000000000
  0
LINE
  5
F1066C
330
F1066D
100
AcDbEntity
8
Geo
100
AcDbLine
10
-29.3123130034523
20
-4.30533879389575
30
0.000000000000000
11
-29.2123130034523
21
-4.31468280862514
31
0.000000000000000
  0
LINE
  5
F1066E
330
F1066F
100
AcDbEntity
8
Geo
100
AcDbLine
10
-29.2123130034523
20
-4.31468280862514
30
0.000000000000000
11
-29.1123130034523
21
-4.32369773108261
31
0.000000000000000
  0
LINE
  5
F10670
330
F10671
100
AcDbEntity
8
Geo
100
AcDbLine
10
-29.1123130034523
20
-4.32369773108261
30
0.000000000000000
11
-29.0123130034523
21
-4.33238326077158
31
0.000000000000000
  0
LINE
  5
F10672
330
F10673
100
AcDbEntity
8
Geo
100
AcDbLine
10
-29.0123130034523
20
-4.33238326077158
30
0.000000000000000
11
-28.9123130034523
21
-4.34073910817520
31
0.000000000000000
  0
LINE
  5
F10674
330
F10675
100
AcDbEntity
8
Geo
100
AcDbLine
10
-28.9123130034523
20
-4.34073910817520
30
0.000000000000000
11
-28.8123130034523
21
-4.34876499476600
31
0.000000000000000
  0
LINE
  5
F10676
330
F10677
100
AcDbEntity
8
Geo
100
AcDbLine
10
-28.8123130034523
20
-4.34876499476600
30
0.000000000000000
11
-28.7123130034523
21
-4.35646065301516
31
0.000000000000000
  0
LINE
  5
F10678
330
F10679
100
AcDbEntity
8
Geo
100
AcDbLine
10
-28.7123130034523
20
-4.35646065301516
30
0.000000000000000
11
-28.6123130034523
21
-4.36382582640146
31
0.000000000000000
  0
LINE
  5
F1067A
330
F1067B
100
AcDbEntity
8
Geo
100
AcDbLine
10
-28.6123130034523
20
-4.36382582640146
30
0.000000000000000
11
-28.5123130034523
21
-4.37086026941981
31
0.000000000000000
  0
LINE
  5
F1067C
330
F1067D
100
AcDbEntity
8
Geo
100
AcDbLine
10
-28.5123130034523
20
-4.37086026941981
30
0.000000000000000
11
-28.4123130034523
21
-4.37756374758941
31
0.000000000000000
  0
LINE
  5
F1067E
330
F1067F
100
AcDbEntity
8
Geo
100
AcDbLine
10
-28.4123130034523
20
-4.37756374758941
30
0.000000000000000
11
-28.3123130034523
21
-4.38393603746161
31
0.000000000000000
  0
LINE
  5
F10680
330
F10681
100
AcDbEntity
8
Geo
100
AcDbLine
10
-28.3123130034523
20
9.65277846024219
30
0.000000000000000
11
-28.1123130034523
21
9.54716159556321
31
0.000000000000000
  0
LINE
  5
F10682
330
F10683
100
AcDbEntity
8
Geo
100
AcDbLine
10
-28.1123130034523
20
9.54716159556321
30
0.000000000000000
11
-28.0123130034523
21
9.49415283007580
31
0.000000000000000
  0
LINE
  5
F10684
330
F10685
100
AcDbEntity
8
Geo
100
AcDbLine
10
-28.0123130034523
20
9.49415283007580
30
0.000000000000000
11
-27.9123130034523
21
9.44101286361762
31
0.000000000000000
  0
LINE
  5
F10686
330
F10687
100
AcDbEntity
8
Geo
100
AcDbLine
10
-27.9123130034523
20
9.44101286361762
30
0.000000000000000
11
-27.8123130034523
21
9.38774346751624
31
0.000000000000000
  0
LINE
  5
F10688
330
F10689
100
AcDbEntity
8
Geo
100
AcDbLine
10
-27.8123130034523
20
9.38774346751624
30
0.000000000000000
11
-27.7123130034523
21
9.33434641741692
31
0.000000000000000
  0
LINE
  5
F1068A
330
F1068B
100
AcDbEntity
8
Geo
100
AcDbLine
10
-27.7123130034523
20
9.33434641741692
30
0.000000000000000
11
-27.6123130034523
21
9.28082349324423
31
0.000000000000000
  0
LINE
  5
F1068C
330
F1068D
100
AcDbEntity
8
Geo
100
AcDbLine
10
-27.6123130034523
20
9.28082349324423
30
0.000000000000000
11
-27.5123130034523
21
9.22717647924081
31
0.000000000000000
  0
LINE
  5
F1068E
330
F1068F
100
AcDbEntity
8
Geo
100
AcDbLine
10
-27.5123130034523
20
9.22717647924081
30
0.000000000000000
11
-27.4123130034523
21
9.17340716426337
31
0.000000000000000
  0
LINE
  5
F10690
330
F10691
100
AcDbEntity
8
Geo
100
AcDbLine
10
-27.4123130034523
20
9.17340716426337
30
0.000000000000000
11
-27.3123130034523
21
9.11951734279159
31
0.000000000000000
  0
LINE
  5
F10692
330
F10693
100
AcDbEntity
8
Geo
100
AcDbLine
10
-27.3123130034523
20
9.11951734279159
30
0.000000000000000
11
-27.2123130034523
21
9.06550881765352
31
0.000000000000000
  0
LINE
  5
F10694
330
F10695
100
AcDbEntity
8
Geo
100
AcDbLine
10
-27.2123130034523
20
9.06550881765352
30
0.000000000000000
11
-27.1123130034523
21
9.01138340646478
31
0.000000000000000
  0
LINE
  5
F10696
330
F10697
100
AcDbEntity
8
Geo
100
AcDbLine
10
-27.1123130034523
20
9.01138340646478
30
0.000000000000000
11
-27.0123130034522
21
8.95714295545049
31
0.000000000000000
  0
LINE
  5
F10698
330
F10699
100
AcDbEntity
8
Geo
100
AcDbLine
10
-27.0123130034522
20
8.95714295545049
30
0.000000000000000
11
-26.9123130034522
21
8.90278936697563
31
0.000000000000000
  0
LINE
  5
F1069A
330
F1069B
100
AcDbEntity
8
Geo
100
AcDbLine
10
-26.9123130034522
20
8.90278936697563
30
0.000000000000000
11
-26.8123130034522
21
8.84832465113877
31
0.000000000000000
  0
LINE
  5
F1069C
330
F1069D
100
AcDbEntity
8
Geo
100
AcDbLine
10
-26.8123130034522
20
8.84832465113877
30
0.000000000000000
11
-26.7123130034522
21
8.79375101766832
31
0.000000000000000
  0
LINE
  5
F1069E
330
F1069F
100
AcDbEntity
8
Geo
100
AcDbLine
10
-26.7123130034522
20
8.79375101766832
30
0.000000000000000
11
-26.6123130034522
21
8.73907103268274
31
0.000000000000000
  0
LINE
  5
F106A0
330
F106A1
100
AcDbEntity
8
Geo
100
AcDbLine
10
-26.6123130034522
20
8.73907103268274
30
0.000000000000000
11
-26.5123130034522
21
8.68428787633547
31
0.000000000000000
  0
LINE
  5
F106A2
330
F106A3
100
AcDbEntity
8
Geo
100
AcDbLine
10
-26.5123130034522
20
8.68428787633547
30
0.000000000000000
11
-26.4123130034522
21
8.62940575278212
31
0.000000000000000
  0
LINE
  5
F106A4
330
F106A5
100
AcDbEntity
8
Geo
100
AcDbLine
10
-26.4123130034522
20
8.62940575278212
30
0.000000000000000
11
-26.3123130034522
21
8.57443052423727
31
0.000000000000000
  0
LINE
  5
F106A6
330
F106A7
100
AcDbEntity
8
Geo
100
AcDbLine
10
-26.3123130034522
20
8.57443052423727
30
0.000000000000000
11
-26.2123130034522
21
8.51937066722832
31
0.000000000000000
  0
LINE
  5
F106A8
330
F106A9
100
AcDbEntity
8
Geo
100
AcDbLine
10
-26.2123130034522
20
8.51937066722832
30
0.000000000000000
11
-26.1123130034522
21
8.46423868275553
31
0.000000000000000
  0
LINE
  5
F106AA
330
F106AB
100
AcDbEntity
8
Geo
100
AcDbLine
10
-26.1123130034522
20
8.46423868275553
30
0.000000000000000
11
-26.0123130034522
21
8.40905313433918
31
0.000000000000000
  0
LINE
  5
F106AC
330
F106AD
100
AcDbEntity
8
Geo
100
AcDbLine
10
-26.0123130034522
20
8.40905313433918
30
0.000000000000000
11
-25.9123130034522
21
8.35384154045300
31
0.000000000000000
  0
LINE
  5
F106AE
330
F106AF
100
AcDbEntity
8
Geo
100
AcDbLine
10
-25.9123130034522
20
8.35384154045300
30
0.000000000000000
11
-25.8123130034522
21
8.29864441234991
31
0.000000000000000
  0
LINE
  5
F106B0
330
F106B1
100
AcDbEntity
8
Geo
100
AcDbLine
10
-25.8123130034522
20
8.29864441234991
30
0.000000000000000
11
-25.7123130034522
21
8.24352080668587
31
0.000000000000000
  0
LINE
  5
F106B2
330
F106B3
100
AcDbEntity
8
Geo
100
AcDbLine
10
-25.7123130034522
20
8.24352080668587
30
0.000000000000000
11
-25.6123130034522
21
8.18855585669440
31
0.000000000000000
  0
LINE
  5
F106B4
330
F106B5
100
AcDbEntity
8
Geo
100
AcDbLine
10
-25.6123130034522
20
8.18855585669440
30
0.000000000000000
11
-25.5123130034522
21
8.13387085812680
31
0.000000000000000
  0
LINE
  5
F106B6
330
F106B7
100
AcDbEntity
8
Geo
100
AcDbLine
10
-25.5123130034522
20
8.13387085812680
30
0.000000000000000
11
-25.4123130034522
21
8.07963661898087
31
0.000000000000000
  0
LINE
  5
F106B8
330
F106B9
100
AcDbEntity
8
Geo
100
AcDbLine
10
-25.4123130034522
20
8.07963661898087
30
0.000000000000000
11
-25.3123130034522
21
8.02609093738356
31
0.000000000000000
  0
LINE
  5
F106BA
330
F106BB
100
AcDbEntity
8
Geo
100
AcDbLine
10
-25.3123130034522
20
8.02609093738356
30
0.000000000000000
11
-25.2123130034522
21
7.97356125186027
31
0.000000000000000
  0
LINE
  5
F106BC
330
F106BD
100
AcDbEntity
8
Geo
100
AcDbLine
10
-25.2123130034522
20
7.97356125186027
30
0.000000000000000
11
-25.1123130034522
21
7.92249371413586
31
0.000000000000000
  0
LINE
  5
F106BE
330
F106BF
100
AcDbEntity
8
Geo
100
AcDbLine
10
-25.1123130034522
20
7.92249371413586
30
0.000000000000000
11
-25.0123130034522
21
7.87349016718987
31
0.000000000000000
  0
LINE
  5
F106C0
330
F106C1
100
AcDbEntity
8
Geo
100
AcDbLine
10
-25.0123130034522
20
7.87349016718987
30
0.000000000000000
11
-24.9123130034522
21
7.82735476951776
31
0.000000000000000
  0
LINE
  5
F106C2
330
F106C3
100
AcDbEntity
8
Geo
100
AcDbLine
10
-24.9123130034522
20
7.82735476951776
30
0.000000000000000
11
-24.8123130034522
21
7.78515228652713
31
0.000000000000000
  0
LINE
  5
F106C4
330
F106C5
100
AcDbEntity
8
Geo
100
AcDbLine
10
-24.8123130034522
20
7.78515228652713
30
0.000000000000000
11
-24.7123130034522
21
7.74828036266754
31
0.000000000000000
  0
LINE
  5
F106C6
330
F106C7
100
AcDbEntity
8
Geo
100
AcDbLine
10
-24.7123130034522
20
7.74828036266754
30
0.000000000000000
11
-24.6123130034522
21
7.71855837485170
31
0.000000000000000
  0
LINE
  5
F106C8
330
F106C9
100
AcDbEntity
8
Geo
100
AcDbLine
10
-24.6123130034522
20
7.71855837485170
30
0.000000000000000
11
-24.5123130034522
21
7.69833571320378
31
0.000000000000000
  0
LINE
  5
F106CA
330
F106CB
100
AcDbEntity
8
Geo
100
AcDbLine
10
-24.5123130034522
20
7.69833571320378
30
0.000000000000000
11
-24.4123130034522
21
7.69062247047206
31
0.000000000000000
  0
LINE
  5
F106CC
330
F106CD
100
AcDbEntity
8
Geo
100
AcDbLine
10
-24.4123130034522
20
7.69062247047206
30
0.000000000000000
11
-24.3123130034522
21
7.69924541457057
31
0.000000000000000
  0
LINE
  5
F106CE
330
F106CF
100
AcDbEntity
8
Geo
100
AcDbLine
10
-24.3123130034522
20
7.69924541457057
30
0.000000000000000
11
-24.2123130034522
21
7.72903151523043
31
0.000000000000000
  0
LINE
  5
F106D0
330
F106D1
100
AcDbEntity
8
Geo
100
AcDbLine
10
-24.2123130034522
20
7.72903151523043
30
0.000000000000000
11
-24.1123130034522
21
7.78601970469107
31
0.000000000000000
  0
LINE
  5
F106D2
330
F106D3
100
AcDbEntity
8
Geo
100
AcDbLine
10
-24.1123130034522
20
7.78601970469107
30
0.000000000000000
11
-24.0123130034522
21
7.87769802922398
31
0.000000000000000
  0
LINE
  5
F106D4
330
F106D5
100
AcDbEntity
8
Geo
100
AcDbLine
10
-24.0123130034522
20
7.87769802922398
30
0.000000000000000
11
-23.9123130034522
21
8.01325608943277
31
0.000000000000000
  0
LINE
  5
F106D6
330
F106D7
100
AcDbEntity
8
Geo
100
AcDbLine
10
-23.9123130034522
20
8.01325608943277
30
0.000000000000000
11
-23.8123130034522
21
8.20382826913626
31
0.000000000000000
  0
LINE
  5
F106D8
330
F106D9
100
AcDbEntity
8
Geo
100
AcDbLine
10
-23.8123130034522
20
8.20382826913626
30
0.000000000000000
11
-23.7123130034522
21
8.46267539743193
31
0.000000000000000
  0
LINE
  5
F106DA
330
F106DB
100
AcDbEntity
8
Geo
100
AcDbLine
10
-23.7123130034522
20
8.46267539743193
30
0.000000000000000
11
-23.6123130034522
21
8.80519970650887
31
0.000000000000000
  0
LINE
  5
F106DC
330
F106DD
100
AcDbEntity
8
Geo
100
AcDbLine
10
-23.6123130034522
20
8.80519970650887
30
0.000000000000000
11
-23.5123130034522
21
9.24859004491400
31
0.000000000000000
  0
LINE
  5
F106DE
330
F106DF
100
AcDbEntity
8
Geo
100
AcDbLine
10
-23.5123130034522
20
9.24859004491400
30
0.000000000000000
11
-23.4123130034522
21
9.81071730286313
31
0.000000000000000
  0
LINE
  5
F106E0
330
F106E1
100
AcDbEntity
8
Geo
100
AcDbLine
10
-23.4123130034522
20
9.81071730286313
30
0.000000000000000
11
-23.3123130034522
21
10.5075908274199
31
0.000000000000000
  0
LINE
  5
F106E2
330
F106E3
100
AcDbEntity
8
Geo
100
AcDbLine
10
-23.3123130034522
20
10.5075908274199
30
0.000000000000000
11
-23.2123130034523
21
11.3481735392073
31
0.000000000000000
  0
LINE
  5
F106E4
330
F106E5
100
AcDbEntity
8
Geo
100
AcDbLine
10
-23.2123130034523
20
11.3481735392073
30
0.000000000000000
11
-23.2123130034523
21
11.5512364808967
31
0.000000000000000
  0
LINE
  5
F106E6
330
F106E7
100
AcDbEntity
8
Geo
100
AcDbLine
10
-23.2123130034523
20
11.5512364808967
30
0.000000000000000
11
-23.3123130034522
21
12.2495328043801
31
0.000000000000000
  0
LINE
  5
F106E8
330
F106E9
100
AcDbEntity
8
Geo
100
AcDbLine
10
-23.3123130034522
20
12.2495328043801
30
0.000000000000000
11
-23.4123130034522
21
12.8371221218236
31
0.000000000000000
  0
LINE
  5
F106EA
330
F106EB
100
AcDbEntity
8
Geo
100
AcDbLine
10
-23.4123130034522
20
12.8371221218236
30
0.000000000000000
11
-23.5123130034522
21
13.3281870874687
31
0.000000000000000
  0
LINE
  5
F106EC
330
F106ED
100
AcDbEntity
8
Geo
100
AcDbLine
10
-23.5123130034522
20
13.3281870874687
30
0.000000000000000
11
-23.6123130034522
21
13.7361857686400
31
0.000000000000000
  0
LINE
  5
F106EE
330
F106EF
100
AcDbEntity
8
Geo
100
AcDbLine
10
-23.6123130034522
20
13.7361857686400
30
0.000000000000000
11
-23.7123130034522
21
14.0734645747238
31
0.000000000000000
  0
LINE
  5
F106F0
330
F106F1
100
AcDbEntity
8
Geo
100
AcDbLine
10
-23.7123130034522
20
14.0734645747238
30
0.000000000000000
11
-23.8123130034522
21
14.3510733973928
31
0.000000000000000
  0
LINE
  5
F106F2
330
F106F3
100
AcDbEntity
8
Geo
100
AcDbLine
10
-23.8123130034522
20
14.3510733973928
30
0.000000000000000
11
-23.9123130034522
21
14.5787165904475
31
0.000000000000000
  0
LINE
  5
F106F4
330
F106F5
100
AcDbEntity
8
Geo
100
AcDbLine
10
-23.9123130034522
20
14.5787165904475
30
0.000000000000000
11
-24.0123130034522
21
14.7647906507472
31
0.000000000000000
  0
LINE
  5
F106F6
330
F106F7
100
AcDbEntity
8
Geo
100
AcDbLine
10
-24.0123130034522
20
14.7647906507472
30
0.000000000000000
11
-24.1123130034522
21
14.9164733495128
31
0.000000000000000
  0
LINE
  5
F106F8
330
F106F9
100
AcDbEntity
8
Geo
100
AcDbLine
10
-24.1123130034522
20
14.9164733495128
30
0.000000000000000
11
-24.2123130034522
21
15.0398398070229
31
0.000000000000000
  0
LINE
  5
F106FA
330
F106FB
100
AcDbEntity
8
Geo
100
AcDbLine
10
-24.2123130034522
20
15.0398398070229
30
0.000000000000000
11
-24.3123130034522
21
15.1399890496851
31
0.000000000000000
  0
LINE
  5
F106FC
330
F106FD
100
AcDbEntity
8
Geo
100
AcDbLine
10
-24.3123130034522
20
15.1399890496851
30
0.000000000000000
11
-24.4123130034522
21
15.2211704484143
31
0.000000000000000
  0
LINE
  5
F106FE
330
F106FF
100
AcDbEntity
8
Geo
100
AcDbLine
10
-24.4123130034522
20
15.2211704484143
30
0.000000000000000
11
-24.5123130034522
21
15.2869035961244
31
0.000000000000000
  0
LINE
  5
F10700
330
F10701
100
AcDbEntity
8
Geo
100
AcDbLine
10
-24.5123130034522
20
15.2869035961244
30
0.000000000000000
11
-24.6123130034522
21
15.3400880578202
31
0.000000000000000
  0
LINE
  5
F10702
330
F10703
100
AcDbEntity
8
Geo
100
AcDbLine
10
-24.6123130034522
20
15.3400880578202
30
0.000000000000000
11
-24.7123130034522
21
15.3831013589636
31
0.000000000000000
  0
LINE
  5
F10704
330
F10705
100
AcDbEntity
8
Geo
100
AcDbLine
10
-24.7123130034522
20
15.3831013589636
30
0.000000000000000
11
-24.8123130034522
21
15.4178848317122
31
0.000000000000000
  0
LINE
  5
F10706
330
F10707
100
AcDbEntity
8
Geo
100
AcDbLine
10
-24.8123130034522
20
15.4178848317122
30
0.000000000000000
11
-24.9123130034522
21
15.4460177152035
31
0.000000000000000
  0
LINE
  5
F10708
330
F10709
100
AcDbEntity
8
Geo
100
AcDbLine
10
-24.9123130034522
20
15.4460177152035
30
0.000000000000000
11
-25.0123130034522
21
15.4687803538308
31
0.000000000000000
  0
LINE
  5
F1070A
330
F1070B
100
AcDbEntity
8
Geo
100
AcDbLine
10
-25.0123130034522
20
15.4687803538308
30
0.000000000000000
11
-25.1123130034522
21
15.4872075640353
31
0.000000000000000
  0
LINE
  5
F1070C
330
F1070D
100
AcDbEntity
8
Geo
100
AcDbLine
10
-25.1123130034522
20
15.4872075640353
30
0.000000000000000
11
-25.2123130034522
21
15.5021333220666
31
0.000000000000000
  0
LINE
  5
F1070E
330
F1070F
100
AcDbEntity
8
Geo
100
AcDbLine
10
-25.2123130034522
20
15.5021333220666
30
0.000000000000000
11
-25.3123130034522
21
15.5142279159282
31
0.000000000000000
  0
LINE
  5
F10710
330
F10711
100
AcDbEntity
8
Geo
100
AcDbLine
10
-25.3123130034522
20
15.5142279159282
30
0.000000000000000
11
-25.4123130034522
21
15.5240286410873
31
0.000000000000000
  0
LINE
  5
F10712
330
F10713
100
AcDbEntity
8
Geo
100
AcDbLine
10
-25.4123130034522
20
15.5240286410873
30
0.000000000000000
11
-25.5123130034522
21
15.5319650262469
31
0.000000000000000
  0
LINE
  5
F10714
330
F10715
100
AcDbEntity
8
Geo
100
AcDbLine
10
-25.5123130034522
20
15.5319650262469
30
0.000000000000000
11
-25.6123130034522
21
15.5383794688878
31
0.000000000000000
  0
LINE
  5
F10716
330
F10717
100
AcDbEntity
8
Geo
100
AcDbLine
10
-25.6123130034522
20
15.5383794688878
30
0.000000000000000
11
-25.7123130034522
21
15.5435440508502
31
0.000000000000000
  0
LINE
  5
F10718
330
F10719
100
AcDbEntity
8
Geo
100
AcDbLine
10
-25.7123130034522
20
15.5435440508502
30
0.000000000000000
11
-25.8123130034522
21
15.5476741983858
31
0.000000000000000
  0
LINE
  5
F1071A
330
F1071B
100
AcDbEntity
8
Geo
100
AcDbLine
10
-25.8123130034522
20
15.5476741983858
30
0.000000000000000
11
-25.9123130034522
21
15.5509397526101
31
0.000000000000000
  0
LINE
  5
F1071C
330
F1071D
100
AcDbEntity
8
Geo
100
AcDbLine
10
-25.9123130034522
20
15.5509397526101
30
0.000000000000000
11
-26.0123130034522
21
15.5534739270586
31
0.000000000000000
  0
LINE
  5
F1071E
330
F1071F
100
AcDbEntity
8
Geo
100
AcDbLine
10
-26.0123130034522
20
15.5534739270586
30
0.000000000000000
11
-26.1123130034522
21
15.5553805498566
31
0.000000000000000
  0
LINE
  5
F10720
330
F10721
100
AcDbEntity
8
Geo
100
AcDbLine
10
-26.1123130034522
20
15.5553805498566
30
0.000000000000000
11
-26.2123130034522
21
15.5567399188782
31
0.000000000000000
  0
LINE
  5
F10722
330
F10723
100
AcDbEntity
8
Geo
100
AcDbLine
10
-26.2123130034522
20
15.5567399188782
30
0.000000000000000
11
-26.3123130034522
21
15.5576135387569
31
0.000000000000000
  0
LINE
  5
F10724
330
F10725
100
AcDbEntity
8
Geo
100
AcDbLine
10
-26.3123130034522
20
15.5576135387569
30
0.000000000000000
11
-26.4123130034522
21
15.5580479580228
31
0.000000000000000
  0
LINE
  5
F10726
330
F10727
100
AcDbEntity
8
Geo
100
AcDbLine
10
-26.4123130034522
20
15.5580479580228
30
0.000000000000000
11
-26.4699930670244
21
15.5581127733027
31
0.000000000000000
  0
LINE
  5
F10728
330
F10729
100
AcDbEntity
8
Geo
100
AcDbLine
10
-28.3123130034523
20
-3.56513845157328
30
0.000000000000000
11
-28.1123130034523
21
-3.61181031763011
31
0.000000000000000
  0
LINE
  5
F1072A
330
F1072B
100
AcDbEntity
8
Geo
100
AcDbLine
10
-28.1123130034523
20
-3.61181031763011
30
0.000000000000000
11
-28.0123130034523
21
-3.63468814216797
31
0.000000000000000
  0
LINE
  5
F1072C
330
F1072D
100
AcDbEntity
8
Geo
100
AcDbLine
10
-28.0123130034523
20
-3.63468814216797
30
0.000000000000000
11
-27.9123130034523
21
-3.65725954085983
31
0.000000000000000
  0
LINE
  5
F1072E
330
F1072F
100
AcDbEntity
8
Geo
100
AcDbLine
10
-27.9123130034523
20
-3.65725954085983
30
0.000000000000000
11
-27.8123130034523
21
-3.67952376132769
31
0.000000000000000
  0
LINE
  5
F10730
330
F10731
100
AcDbEntity
8
Geo
100
AcDbLine
10
-27.8123130034523
20
-3.67952376132769
30
0.000000000000000
11
-27.7123130034523
21
-3.70148006143148
31
0.000000000000000
  0
LINE
  5
F10732
330
F10733
100
AcDbEntity
8
Geo
100
AcDbLine
10
-27.7123130034523
20
-3.70148006143148
30
0.000000000000000
11
-27.6123130034523
21
-3.72312770928545
31
0.000000000000000
  0
LINE
  5
F10734
330
F10735
100
AcDbEntity
8
Geo
100
AcDbLine
10
-27.6123130034523
20
-3.72312770928545
30
0.000000000000000
11
-27.5123130034523
21
-3.74446598324478
31
0.000000000000000
  0
LINE
  5
F10736
330
F10737
100
AcDbEntity
8
Geo
100
AcDbLine
10
-27.5123130034523
20
-3.74446598324478
30
0.000000000000000
11
-27.4123130034523
21
-3.76549417179580
31
0.000000000000000
  0
LINE
  5
F10738
330
F10739
100
AcDbEntity
8
Geo
100
AcDbLine
10
-27.4123130034523
20
-3.76549417179580
30
0.000000000000000
11
-27.3123130034523
21
-3.78621157318830
31
0.000000000000000
  0
LINE
  5
F1073A
330
F1073B
100
AcDbEntity
8
Geo
100
AcDbLine
10
-27.3123130034523
20
-3.78621157318830
30
0.000000000000000
11
-27.2123130034523
21
-3.80661749446652
31
0.000000000000000
  0
LINE
  5
F1073C
330
F1073D
100
AcDbEntity
8
Geo
100
AcDbLine
10
-27.2123130034523
20
-3.80661749446652
30
0.000000000000000
11
-27.1123130034523
21
-3.82671124924248
31
0.000000000000000
  0
LINE
  5
F1073E
330
F1073F
100
AcDbEntity
8
Geo
100
AcDbLine
10
-27.1123130034523
20
-3.82671124924248
30
0.000000000000000
11
-27.0123130034522
21
-3.84649215305381
31
0.000000000000000
  0
LINE
  5
F10740
330
F10741
100
AcDbEntity
8
Geo
100
AcDbLine
10
-27.0123130034522
20
-3.84649215305381
30
0.000000000000000
11
-26.9123130034522
21
-3.86595951439423
31
0.000000000000000
  0
LINE
  5
F10742
330
F10743
100
AcDbEntity
8
Geo
100
AcDbLine
10
-26.9123130034522
20
-3.86595951439423
30
0.000000000000000
11
-26.8123130034522
21
-3.88511261842375
31
0.000000000000000
  0
LINE
  5
F10744
330
F10745
100
AcDbEntity
8
Geo
100
AcDbLine
10
-26.8123130034522
20
-3.88511261842375
30
0.000000000000000
11
-26.7123130034522
21
-3.90395069887922
31
0.000000000000000
  0
LINE
  5
F10746
330
F10747
100
AcDbEntity
8
Geo
100
AcDbLine
10
-26.7123130034522
20
-3.90395069887922
30
0.000000000000000
11
-26.6123130034522
21
-3.92247289173312
31
0.000000000000000
  0
LINE
  5
F10748
330
F10749
100
AcDbEntity
8
Geo
100
AcDbLine
10
-26.6123130034522
20
-3.92247289173312
30
0.000000000000000
11
-26.5123130034522
21
-3.94067816160996
31
0.000000000000000
  0
LINE
  5
F1074A
330
F1074B
100
AcDbEntity
8
Geo
100
AcDbLine
10
-26.5123130034522
20
-3.94067816160996
30
0.000000000000000
11
-26.4123130034522
21
-3.95856518879107
31
0.000000000000000
  0
LINE
  5
F1074C
330
F1074D
100
AcDbEntity
8
Geo
100
AcDbLine
10
-26.4123130034522
20
-3.95856518879107
30
0.000000000000000
11
-26.3123130034522
21
-3.97613220075780
31
0.000000000000000
  0
LINE
  5
F1074E
330
F1074F
100
AcDbEntity
8
Geo
100
AcDbLine
10
-26.3123130034522
20
-3.97613220075780
30
0.000000000000000
11
-26.2123130034522
21
-3.99337672759003
31
0.000000000000000
  0
LINE
  5
F10750
330
F10751
100
AcDbEntity
8
Geo
100
AcDbLine
10
-26.2123130034522
20
-3.99337672759003
30
0.000000000000000
11
-26.1123130034522
21
-4.01029525512124
31
0.000000000000000
  0
LINE
  5
F10752
330
F10753
100
AcDbEntity
8
Geo
100
AcDbLine
10
-26.1123130034522
20
-4.01029525512124
30
0.000000000000000
11
-26.0123130034522
21
-4.02688274353579
31
0.000000000000000
  0
LINE
  5
F10754
330
F10755
100
AcDbEntity
8
Geo
100
AcDbLine
10
-26.0123130034522
20
-4.02688274353579
30
0.000000000000000
11
-25.9123130034522
21
-4.04313197206907
31
0.000000000000000
  0
LINE
  5
F10756
330
F10757
100
AcDbEntity
8
Geo
100
AcDbLine
10
-25.9123130034522
20
-4.04313197206907
30
0.000000000000000
11
-25.8123130034522
21
-4.05903266260405
31
0.000000000000000
  0
LINE
  5
F10758
330
F10759
100
AcDbEntity
8
Geo
100
AcDbLine
10
-25.8123130034522
20
-4.05903266260405
30
0.000000000000000
11
-25.7123130034522
21
-4.07457032613756
31
0.000000000000000
  0
LINE
  5
F1075A
330
F1075B
100
AcDbEntity
8
Geo
100
AcDbLine
10
-25.7123130034522
20
-4.07457032613756
30
0.000000000000000
11
-25.6123130034522
21
-4.08972476601343
31
0.000000000000000
  0
LINE
  5
F1075C
330
F1075D
100
AcDbEntity
8
Geo
100
AcDbLine
10
-25.6123130034522
20
-4.08972476601343
30
0.000000000000000
11
-25.5123130034522
21
-4.10446815978470
31
0.000000000000000
  0
LINE
  5
F1075E
330
F1075F
100
AcDbEntity
8
Geo
100
AcDbLine
10
-25.5123130034522
20
-4.10446815978470
30
0.000000000000000
11
-25.4123130034522
21
-4.11876262610579
31
0.000000000000000
  0
LINE
  5
F10760
330
F10761
100
AcDbEntity
8
Geo
100
AcDbLine
10
-25.4123130034522
20
-4.11876262610579
30
0.000000000000000
11
-25.3123130034522
21
-4.13255716131074
31
0.000000000000000
  0
LINE
  5
F10762
330
F10763
100
AcDbEntity
8
Geo
100
AcDbLine
10
-25.3123130034522
20
-4.13255716131074
30
0.000000000000000
11
-25.2123130034522
21
-4.14578379701558
31
0.000000000000000
  0
LINE
  5
F10764
330
F10765
100
AcDbEntity
8
Geo
100
AcDbLine
10
-25.2123130034522
20
-4.14578379701558
30
0.000000000000000
11
-25.1123130034522
21
-4.15835277578591
31
0.000000000000000
  0
LINE
  5
F10766
330
F10767
100
AcDbEntity
8
Geo
100
AcDbLine
10
-25.1123130034522
20
-4.15835277578591
30
0.000000000000000
11
-25.0123130034522
21
-4.17014645041647
31
0.000000000000000
  0
LINE
  5
F10768
330
F10769
100
AcDbEntity
8
Geo
100
AcDbLine
10
-25.0123130034522
20
-4.17014645041647
30
0.000000000000000
11
-24.9123130034522
21
-4.18101145645301
31
0.000000000000000
  0
LINE
  5
F1076A
330
F1076B
100
AcDbEntity
8
Geo
100
AcDbLine
10
-24.9123130034522
20
-4.18101145645301
30
0.000000000000000
11
-24.8123130034522
21
-4.19074844257980
31
0.000000000000000
  0
LINE
  5
F1076C
330
F1076D
100
AcDbEntity
8
Geo
100
AcDbLine
10
-24.8123130034522
20
-4.19074844257980
30
0.000000000000000
11
-24.7123130034522
21
-4.19909819758937
31
0.000000000000000
  0
LINE
  5
F1076E
330
F1076F
100
AcDbEntity
8
Geo
100
AcDbLine
10
-24.7123130034522
20
-4.19909819758937
30
0.000000000000000
11
-24.6123130034522
21
-4.20572227255650
31
0.000000000000000
  0
LINE
  5
F10770
330
F10771
100
AcDbEntity
8
Geo
100
AcDbLine
10
-24.6123130034522
20
-4.20572227255650
30
0.000000000000000
11
-24.5123130034522
21
-4.21017498697146
31
0.000000000000000
  0
LINE
  5
F10772
330
F10773
100
AcDbEntity
8
Geo
100
AcDbLine
10
-24.5123130034522
20
-4.21017498697146
30
0.000000000000000
11
-24.4123130034522
21
-4.21186176051669
31
0.000000000000000
  0
LINE
  5
F10774
330
F10775
100
AcDbEntity
8
Geo
100
AcDbLine
10
-24.4123130034522
20
-4.21186176051669
30
0.000000000000000
11
-24.3123130034522
21
-4.20997562783793
31
0.000000000000000
  0
LINE
  5
F10776
330
F10777
100
AcDbEntity
8
Geo
100
AcDbLine
10
-24.3123130034522
20
-4.20997562783793
30
0.000000000000000
11
-24.2123130034522
21
-4.20339898543364
31
0.000000000000000
  0
LINE
  5
F10778
330
F10779
100
AcDbEntity
8
Geo
100
AcDbLine
10
-24.2123130034522
20
-4.20339898543364
30
0.000000000000000
11
-24.1123130034522
21
-4.19055024811067
31
0.000000000000000
  0
LINE
  5
F1077A
330
F1077B
100
AcDbEntity
8
Geo
100
AcDbLine
10
-24.1123130034522
20
-4.19055024811067
30
0.000000000000000
11
-24.0123130034522
21
-4.16914399520678
31
0.000000000000000
  0
LINE
  5
F1077C
330
F1077D
100
AcDbEntity
8
Geo
100
AcDbLine
10
-24.0123130034522
20
-4.16914399520678
30
0.000000000000000
11
-23.9123130034522
21
-4.13581683740021
31
0.000000000000000
  0
LINE
  5
F1077E
330
F1077F
100
AcDbEntity
8
Geo
100
AcDbLine
10
-23.9123130034522
20
-4.13581683740021
30
0.000000000000000
11
-23.8123130034522
21
-4.08554781358582
31
0.000000000000000
  0
LINE
  5
F10780
330
F10781
100
AcDbEntity
8
Geo
100
AcDbLine
10
-23.8123130034522
20
-4.08554781358582
30
0.000000000000000
11
-23.7123130034522
21
-4.01076991813586
31
0.000000000000000
  0
LINE
  5
F10782
330
F10783
100
AcDbEntity
8
Geo
100
AcDbLine
10
-23.7123130034522
20
-4.01076991813586
30
0.000000000000000
11
-23.6123130034522
21
-3.90002797677089
31
0.000000000000000
  0
LINE
  5
F10784
330
F10785
100
AcDbEntity
8
Geo
100
AcDbLine
10
-23.6123130034522
20
-3.90002797677089
30
0.000000000000000
11
-23.5123130034522
21
-3.73599167563272
31
0.000000000000000
  0
LINE
  5
F10786
330
F10787
100
AcDbEntity
8
Geo
100
AcDbLine
10
-23.5123130034522
20
-3.73599167563272
30
0.000000000000000
11
-23.4123130034522
21
-3.49259740409017
31
0.000000000000000
  0
LINE
  5
F10788
330
F10789
100
AcDbEntity
8
Geo
100
AcDbLine
10
-23.4123130034522
20
-3.49259740409017
30
0.000000000000000
11
-23.3123130034522
21
-3.13111429196684
31
0.000000000000000
  0
LINE
  5
F1078A
330
F1078B
100
AcDbEntity
8
Geo
100
AcDbLine
10
-23.3123130034522
20
-3.13111429196684
30
0.000000000000000
11
-23.2123130034523
21
-2.59511948925017
31
0.000000000000000
  0
LINE
  5
F1078C
330
F1078D
100
AcDbEntity
8
Geo
100
AcDbLine
10
-23.2123130034523
20
-2.59511948925017
30
0.000000000000000
11
-23.2123130034523
21
-2.44703983145601
31
0.000000000000000
  0
LINE
  5
F1078E
330
F1078F
100
AcDbEntity
8
Geo
100
AcDbLine
10
-23.2123130034523
20
-2.44703983145601
30
0.000000000000000
11
-23.3123130034522
21
-1.87323286310103
31
0.000000000000000
  0
LINE
  5
F10790
330
F10791
100
AcDbEntity
8
Geo
100
AcDbLine
10
-23.3123130034522
20
-1.87323286310103
30
0.000000000000000
11
-23.4123130034522
21
-1.29871031790695
31
0.000000000000000
  0
LINE
  5
F10792
330
F10793
100
AcDbEntity
8
Geo
100
AcDbLine
10
-23.4123130034522
20
-1.29871031790695
30
0.000000000000000
11
-23.5123130034522
21
-0.736801455845877
31
0.000000000000000
  0
LINE
  5
F10794
330
F10795
100
AcDbEntity
8
Geo
100
AcDbLine
10
-23.5123130034522
20
-0.736801455845877
30
0.000000000000000
11
-23.6123130034522
21
-0.196808779849498
31
0.000000000000000
  0
LINE
  5
F10796
330
F10797
100
AcDbEntity
8
Geo
100
AcDbLine
10
-23.6123130034522
20
-0.196808779849498
30
0.000000000000000
11
-23.7123130034522
21
0.315138073951649
31
0.000000000000000
  0
LINE
  5
F10798
330
F10799
100
AcDbEntity
8
Geo
100
AcDbLine
10
-23.7123130034522
20
0.315138073951649
30
0.000000000000000
11
-23.8123130034522
21
0.795356904774361
31
0.000000000000000
  0
LINE
  5
F1079A
330
F1079B
100
AcDbEntity
8
Geo
100
AcDbLine
10
-23.8123130034522
20
0.795356904774361
30
0.000000000000000
11
-23.9123130034522
21
1.24201421394231
31
0.000000000000000
  0
LINE
  5
F1079C
330
F1079D
100
AcDbEntity
8
Geo
100
AcDbLine
10
-23.9123130034522
20
1.24201421394231
30
0.000000000000000
11
-24.0123130034522
21
1.65464220713025
31
0.000000000000000
  0
LINE
  5
F1079E
330
F1079F
100
AcDbEntity
8
Geo
100
AcDbLine
10
-24.0123130034522
20
1.65464220713025
30
0.000000000000000
11
-24.1123130034522
21
2.03375647382939
31
0.000000000000000
  0
LINE
  5
F107A0
330
F107A1
100
AcDbEntity
8
Geo
100
AcDbLine
10
-24.1123130034522
20
2.03375647382939
30
0.000000000000000
11
-24.2123130034522
21
2.38055829571781
31
0.000000000000000
  0
LINE
  5
F107A2
330
F107A3
100
AcDbEntity
8
Geo
100
AcDbLine
10
-24.2123130034522
20
2.38055829571781
30
0.000000000000000
11
-24.3123130034522
21
2.69670629674258
31
0.000000000000000
  0
LINE
  5
F107A4
330
F107A5
100
AcDbEntity
8
Geo
100
AcDbLine
10
-24.3123130034522
20
2.69670629674258
30
0.000000000000000
11
-24.4123130034522
21
2.98414378214000
31
0.000000000000000
  0
LINE
  5
F107A6
330
F107A7
100
AcDbEntity
8
Geo
100
AcDbLine
10
-24.4123130034522
20
2.98414378214000
30
0.000000000000000
11
-24.5123130034522
21
3.24497007865962
31
0.000000000000000
  0
LINE
  5
F107A8
330
F107A9
100
AcDbEntity
8
Geo
100
AcDbLine
10
-24.5123130034522
20
3.24497007865962
30
0.000000000000000
11
-24.6123130034522
21
3.48134616795489
31
0.000000000000000
  0
LINE
  5
F107AA
330
F107AB
100
AcDbEntity
8
Geo
100
AcDbLine
10
-24.6123130034522
20
3.48134616795489
30
0.000000000000000
11
-24.7123130034522
21
3.69542673114962
31
0.000000000000000
  0
LINE
  5
F107AC
330
F107AD
100
AcDbEntity
8
Geo
100
AcDbLine
10
-24.7123130034522
20
3.69542673114962
30
0.000000000000000
11
-24.8123130034522
21
3.88931231902197
31
0.000000000000000
  0
LINE
  5
F107AE
330
F107AF
100
AcDbEntity
8
Geo
100
AcDbLine
10
-24.8123130034522
20
3.88931231902197
30
0.000000000000000
11
-24.9123130034522
21
4.06501670809674
31
0.000000000000000
  0
LINE
  5
F107B0
330
F107B1
100
AcDbEntity
8
Geo
100
AcDbLine
10
-24.9123130034522
20
4.06501670809674
30
0.000000000000000
11
-25.0123130034522
21
4.22444560782651
31
0.000000000000000
  0
LINE
  5
F107B2
330
F107B3
100
AcDbEntity
8
Geo
100
AcDbLine
10
-25.0123130034522
20
4.22444560782651
30
0.000000000000000
11
-25.1123130034522
21
4.36938377279573
31
0.000000000000000
  0
LINE
  5
F107B4
330
F107B5
100
AcDbEntity
8
Geo
100
AcDbLine
10
-25.1123130034522
20
4.36938377279573
30
0.000000000000000
11
-25.2123130034522
21
4.50148827720146
31
0.000000000000000
  0
LINE
  5
F107B6
330
F107B7
100
AcDbEntity
8
Geo
100
AcDbLine
10
-25.2123130034522
20
4.50148827720146
30
0.000000000000000
11
-25.3123130034522
21
4.62228625797902
31
0.000000000000000
  0
LINE
  5
F107B8
330
F107B9
100
AcDbEntity
8
Geo
100
AcDbLine
10
-25.3123130034522
20
4.62228625797902
30
0.000000000000000
11
-25.4123130034522
21
4.73317585678236
31
0.000000000000000
  0
LINE
  5
F107BA
330
F107BB
100
AcDbEntity
8
Geo
100
AcDbLine
10
-25.4123130034522
20
4.73317585678236
30
0.000000000000000
11
-25.5123130034522
21
4.83542941495038
31
0.000000000000000
  0
LINE
  5
F107BC
330
F107BD
100
AcDbEntity
8
Geo
100
AcDbLine
10
-25.5123130034522
20
4.83542941495038
30
0.000000000000000
11
-25.6123130034522
21
4.93019822099901
31
0.000000000000000
  0
LINE
  5
F107BE
330
F107BF
100
AcDbEntity
8
Geo
100
AcDbLine
10
-25.6123130034522
20
4.93019822099901
30
0.000000000000000
11
-25.7123130034522
21
5.01851829466619
31
0.000000000000000
  0
LINE
  5
F107C0
330
F107C1
100
AcDbEntity
8
Geo
100
AcDbLine
10
-25.7123130034522
20
5.01851829466619
30
0.000000000000000
11
-25.8123130034522
21
5.10131682926311
31
0.000000000000000
  0
LINE
  5
F107C2
330
F107C3
100
AcDbEntity
8
Geo
100
AcDbLine
10
-25.8123130034522
20
5.10131682926311
30
0.000000000000000
11
-25.9123130034522
21
5.17941901625679
31
0.000000000000000
  0
LINE
  5
F107C4
330
F107C5
100
AcDbEntity
8
Geo
100
AcDbLine
10
-25.9123130034522
20
5.17941901625679
30
0.000000000000000
11
-26.0123130034522
21
5.25355505137384
31
0.000000000000000
  0
LINE
  5
F107C6
330
F107C7
100
AcDbEntity
8
Geo
100
AcDbLine
10
-26.0123130034522
20
5.25355505137384
30
0.000000000000000
11
-26.1123130034522
21
5.32436717681778
31
0.000000000000000
  0
LINE
  5
F107C8
330
F107C9
100
AcDbEntity
8
Geo
100
AcDbLine
10
-26.1123130034522
20
5.32436717681778
30
0.000000000000000
11
-26.2123130034522
21
5.39241665457989
31
0.000000000000000
  0
LINE
  5
F107CA
330
F107CB
100
AcDbEntity
8
Geo
100
AcDbLine
10
-26.2123130034522
20
5.39241665457989
30
0.000000000000000
11
-26.3123130034522
21
5.45819059518866
31
0.000000000000000
  0
LINE
  5
F107CC
330
F107CD
100
AcDbEntity
8
Geo
100
AcDbLine
10
-26.3123130034522
20
5.45819059518866
30
0.000000000000000
11
-26.4123130034522
21
5.52210858750271
31
0.000000000000000
  0
LINE
  5
F107CE
330
F107CF
100
AcDbEntity
8
Geo
100
AcDbLine
10
-26.4123130034522
20
5.52210858750271
30
0.000000000000000
11
-26.5123130034522
21
5.58452909048092
31
0.000000000000000
  0
LINE
  5
F107D0
330
F107D1
100
AcDbEntity
8
Geo
100
AcDbLine
10
-26.5123130034522
20
5.58452909048092
30
0.000000000000000
11
-26.6123130034522
21
5.64575555886998
31
0.000000000000000
  0
LINE
  5
F107D2
330
F107D3
100
AcDbEntity
8
Geo
100
AcDbLine
10
-26.6123130034522
20
5.64575555886998
30
0.000000000000000
11
-26.7123130034522
21
5.70604228261828
31
0.000000000000000
  0
LINE
  5
F107D4
330
F107D5
100
AcDbEntity
8
Geo
100
AcDbLine
10
-26.7123130034522
20
5.70604228261828
30
0.000000000000000
11
-26.8123130034522
21
5.76559992542638
31
0.000000000000000
  0
LINE
  5
F107D6
330
F107D7
100
AcDbEntity
8
Geo
100
AcDbLine
10
-26.8123130034522
20
5.76559992542638
30
0.000000000000000
11
-26.9123130034522
21
5.82460075181484
31
0.000000000000000
  0
LINE
  5
F107D8
330
F107D9
100
AcDbEntity
8
Geo
100
AcDbLine
10
-26.9123130034522
20
5.82460075181484
30
0.000000000000000
11
-27.0123130034522
21
5.88318353489491
31
0.000000000000000
  0
LINE
  5
F107DA
330
F107DB
100
AcDbEntity
8
Geo
100
AcDbLine
10
-27.0123130034522
20
5.88318353489491
30
0.000000000000000
11
-27.1123130034523
21
5.94145813900665
31
0.000000000000000
  0
LINE
  5
F107DC
330
F107DD
100
AcDbEntity
8
Geo
100
AcDbLine
10
-27.1123130034523
20
5.94145813900665
30
0.000000000000000
11
-27.2123130034523
21
5.99950977278916
31
0.000000000000000
  0
LINE
  5
F107DE
330
F107DF
100
AcDbEntity
8
Geo
100
AcDbLine
10
-27.2123130034523
20
5.99950977278916
30
0.000000000000000
11
-27.3123130034523
21
6.05740290924906
31
0.000000000000000
  0
LINE
  5
F107E0
330
F107E1
100
AcDbEntity
8
Geo
100
AcDbLine
10
-27.3123130034523
20
6.05740290924906
30
0.000000000000000
11
-27.4123130034523
21
6.11518487012550
31
0.000000000000000
  0
LINE
  5
F107E2
330
F107E3
100
AcDbEntity
8
Geo
100
AcDbLine
10
-27.4123130034523
20
6.11518487012550
30
0.000000000000000
11
-27.5123130034523
21
6.17288907240579
31
0.000000000000000
  0
LINE
  5
F107E4
330
F107E5
100
AcDbEntity
8
Geo
100
AcDbLine
10
-27.5123130034523
20
6.17288907240579
30
0.000000000000000
11
-27.6123130034523
21
6.23053793529040
31
0.000000000000000
  0
LINE
  5
F107E6
330
F107E7
100
AcDbEntity
8
Geo
100
AcDbLine
10
-27.6123130034523
20
6.23053793529040
30
0.000000000000000
11
-27.7123130034523
21
6.28814544628499
31
0.000000000000000
  0
LINE
  5
F107E8
330
F107E9
100
AcDbEntity
8
Geo
100
AcDbLine
10
-27.7123130034523
20
6.28814544628499
30
0.000000000000000
11
-27.8123130034523
21
6.34571938543881
31
0.000000000000000
  0
LINE
  5
F107EA
330
F107EB
100
AcDbEntity
8
Geo
100
AcDbLine
10
-27.8123130034523
20
6.34571938543881
30
0.000000000000000
11
-27.9123130034523
21
6.40326320707373
31
0.000000000000000
  0
LINE
  5
F107EC
330
F107ED
100
AcDbEntity
8
Geo
100
AcDbLine
10
-27.9123130034523
20
6.40326320707373
30
0.000000000000000
11
-28.0123130034523
21
6.46077757866505
31
0.000000000000000
  0
LINE
  5
F107EE
330
F107EF
100
AcDbEntity
8
Geo
100
AcDbLine
10
-28.0123130034523
20
6.46077757866505
30
0.000000000000000
11
-28.1123130034523
21
6.51826157685125
31
0.000000000000000
  0
LINE
  5
F107F0
330
F107F1
100
AcDbEntity
8
Geo
100
AcDbLine
10
-28.1123130034523
20
6.51826157685125
30
0.000000000000000
11
-28.3123130034523
21
6.63313158447792
31
0.000000000000000
  0
LINE
  5
F107F2
330
F107F3
100
AcDbEntity
8
Geo
100
AcDbLine
10
-26.4699930670244
20
-4.44188722669735
30
0.000000000000000
11
-26.5123130034522
21
-4.44185233554581
31
0.000000000000000
  0
LINE
  5
F107F4
330
F107F5
100
AcDbEntity
8
Geo
100
AcDbLine
10
-26.5123130034522
20
-4.44185233554581
30
0.000000000000000
11
-26.6123130034522
21
-4.44150315642875
31
0.000000000000000
  0
LINE
  5
F107F6
330
F107F7
100
AcDbEntity
8
Geo
100
AcDbLine
10
-26.6123130034522
20
-4.44150315642875
30
0.000000000000000
11
-26.7123130034522
21
-4.44079300984550
31
0.000000000000000
  0
LINE
  5
F107F8
330
F107F9
100
AcDbEntity
8
Geo
100
AcDbLine
10
-26.7123130034522
20
-4.44079300984550
30
0.000000000000000
11
-26.8123130034522
21
-4.43973444905995
31
0.000000000000000
  0
LINE
  5
F107FA
330
F107FB
100
AcDbEntity
8
Geo
100
AcDbLine
10
-26.8123130034522
20
-4.43973444905995
30
0.000000000000000
11
-26.9123130034522
21
-4.43833580393259
31
0.000000000000000
  0
LINE
  5
F107FC
330
F107FD
100
AcDbEntity
8
Geo
100
AcDbLine
10
-26.9123130034522
20
-4.43833580393259
30
0.000000000000000
11
-27.0123130034522
21
-4.43660228016224
31
0.000000000000000
  0
LINE
  5
F107FE
330
F107FF
100
AcDbEntity
8
Geo
100
AcDbLine
10
-27.0123130034522
20
-4.43660228016224
30
0.000000000000000
11
-27.1123130034523
21
-4.43453684181912
31
0.000000000000000
  0
LINE
  5
F10800
330
F10801
100
AcDbEntity
8
Geo
100
AcDbLine
10
-27.1123130034523
20
-4.43453684181912
30
0.000000000000000
11
-27.2123130034523
21
-4.43214091160667
31
0.000000000000000
  0
LINE
  5
F10802
330
F10803
100
AcDbEntity
8
Geo
100
AcDbLine
10
-27.2123130034523
20
-4.43214091160667
30
0.000000000000000
11
-27.3123130034523
21
-4.42941491677894
31
0.000000000000000
  0
LINE
  5
F10804
330
F10805
100
AcDbEntity
8
Geo
100
AcDbLine
10
-27.3123130034523
20
-4.42941491677894
30
0.000000000000000
11
-27.4123130034523
21
-4.42635870389339
31
0.000000000000000
  0
LINE
  5
F10806
330
F10807
100
AcDbEntity
8
Geo
100
AcDbLine
10
-27.4123130034523
20
-4.42635870389339
30
0.000000000000000
11
-27.5123130034523
21
-4.42297184221188
31
0.000000000000000
  0
LINE
  5
F10808
330
F10809
100
AcDbEntity
8
Geo
100
AcDbLine
10
-27.5123130034523
20
-4.42297184221188
30
0.000000000000000
11
-27.6123130034523
21
-4.41925383324868
31
0.000000000000000
  0
LINE
  5
F1080A
330
F1080B
100
AcDbEntity
8
Geo
100
AcDbLine
10
-27.6123130034523
20
-4.41925383324868
30
0.000000000000000
11
-27.7123130034523
21
-4.41520424243380
31
0.000000000000000
  0
LINE
  5
F1080C
330
F1080D
100
AcDbEntity
8
Geo
100
AcDbLine
10
-27.7123130034523
20
-4.41520424243380
30
0.000000000000000
11
-27.8123130034523
21
-4.41082276789327
31
0.000000000000000
  0
LINE
  5
F1080E
330
F1080F
100
AcDbEntity
8
Geo
100
AcDbLine
10
-27.8123130034523
20
-4.41082276789327
30
0.000000000000000
11
-27.9123130034523
21
-4.40610926076987
31
0.000000000000000
  0
LINE
  5
F10810
330
F10811
100
AcDbEntity
8
Geo
100
AcDbLine
10
-27.9123130034523
20
-4.40610926076987
30
0.000000000000000
11
-28.0123130034523
21
-4.40106371118440
31
0.000000000000000
  0
LINE
  5
F10812
330
F10813
100
AcDbEntity
8
Geo
100
AcDbLine
10
-28.0123130034523
20
-4.40106371118440
30
0.000000000000000
11
-28.1123130034523
21
-4.39568621376977
31
0.000000000000000
  0
LINE
  5
F10814
330
F10815
100
AcDbEntity
8
Geo
100
AcDbLine
10
-28.1123130034523
20
-4.39568621376977
30
0.000000000000000
11
-28.3123130034523
21
-4.38393603746161
31
0.000000000000000
  0
LINE
  5
F10816
330
F10817
100
AcDbEntity
8
Geo
100
AcDbLine
10
-48.2123130034523
20
4.57330502029045
30
0.000000000000000
11
-48.1123130034523
21
4.51658928018946
31
0.000000000000000
  0
LINE
  5
F10818
330
F10819
100
AcDbEntity
8
Geo
100
AcDbLine
10
-48.1123130034523
20
4.51658928018946
30
0.000000000000000
11
-48.0123130034523
21
4.45990825744185
31
0.000000000000000
  0
LINE
  5
F1081A
330
F1081B
100
AcDbEntity
8
Geo
100
AcDbLine
10
-48.0123130034523
20
4.45990825744185
30
0.000000000000000
11
-47.9123130034523
21
4.40326384140975
31
0.000000000000000
  0
LINE
  5
F1081C
330
F1081D
100
AcDbEntity
8
Geo
100
AcDbLine
10
-47.9123130034523
20
4.40326384140975
30
0.000000000000000
11
-47.8123130034523
21
4.34665792023511
31
0.000000000000000
  0
LINE
  5
F1081E
330
F1081F
100
AcDbEntity
8
Geo
100
AcDbLine
10
-47.8123130034523
20
4.34665792023511
30
0.000000000000000
11
-47.7123130034523
21
4.29009238077674
31
0.000000000000000
  0
LINE
  5
F10820
330
F10821
100
AcDbEntity
8
Geo
100
AcDbLine
10
-47.7123130034523
20
4.29009238077674
30
0.000000000000000
11
-47.6123130034523
21
4.23356910854738
31
0.000000000000000
  0
LINE
  5
F10822
330
F10823
100
AcDbEntity
8
Geo
100
AcDbLine
10
-47.6123130034523
20
4.23356910854738
30
0.000000000000000
11
-47.5123130034523
21
4.17708998765086
31
0.000000000000000
  0
LINE
  5
F10824
330
F10825
100
AcDbEntity
8
Geo
100
AcDbLine
10
-47.5123130034523
20
4.17708998765086
30
0.000000000000000
11
-47.4123130034523
21
4.12065690071933
31
0.000000000000000
  0
LINE
  5
F10826
330
F10827
100
AcDbEntity
8
Geo
100
AcDbLine
10
-47.4123130034523
20
4.12065690071933
30
0.000000000000000
11
-47.3123130034523
21
4.06427172885045
31
0.000000000000000
  0
LINE
  5
F10828
330
F10829
100
AcDbEntity
8
Geo
100
AcDbLine
10
-47.3123130034523
20
4.06427172885045
30
0.000000000000000
11
-47.2123130034523
21
4.00793635154474
31
0.000000000000000
  0
LINE
  5
F1082A
330
F1082B
100
AcDbEntity
8
Geo
100
AcDbLine
10
-47.2123130034523
20
4.00793635154474
30
0.000000000000000
11
-47.1123130034523
21
3.95165264664288
31
0.000000000000000
  0
LINE
  5
F1082C
330
F1082D
100
AcDbEntity
8
Geo
100
AcDbLine
10
-47.1123130034523
20
3.95165264664288
30
0.000000000000000
11
-47.0123130034523
21
3.89542249026316
31
0.000000000000000
  0
LINE
  5
F1082E
330
F1082F
100
AcDbEntity
8
Geo
100
AcDbLine
10
-47.0123130034523
20
3.89542249026316
30
0.000000000000000
11
-46.9123130034523
21
3.83924775673893
31
0.000000000000000
  0
LINE
  5
F10830
330
F10831
100
AcDbEntity
8
Geo
100
AcDbLine
10
-46.9123130034523
20
3.83924775673893
30
0.000000000000000
11
-46.8123130034523
21
3.78313031855610
31
0.000000000000000
  0
LINE
  5
F10832
330
F10833
100
AcDbEntity
8
Geo
100
AcDbLine
10
-46.8123130034523
20
3.78313031855610
30
0.000000000000000
11
-46.7123130034523
21
3.72707204629074
31
0.000000000000000
  0
LINE
  5
F10834
330
F10835
100
AcDbEntity
8
Geo
100
AcDbLine
10
-46.7123130034523
20
3.72707204629074
30
0.000000000000000
11
-46.6123130034523
21
3.67107480854674
31
0.000000000000000
  0
LINE
  5
F10836
330
F10837
100
AcDbEntity
8
Geo
100
AcDbLine
10
-46.6123130034523
20
3.67107480854674
30
0.000000000000000
11
-46.5123130034523
21
3.61514047189350
31
0.000000000000000
  0
LINE
  5
F10838
330
F10839
100
AcDbEntity
8
Geo
100
AcDbLine
10
-46.5123130034523
20
3.61514047189350
30
0.000000000000000
11
-46.4123130034523
21
3.55927090080375
31
0.000000000000000
  0
LINE
  5
F1083A
330
F1083B
100
AcDbEntity
8
Geo
100
AcDbLine
10
-46.4123130034523
20
3.55927090080375
30
0.000000000000000
11
-46.3123130034523
21
3.50346795759133
31
0.000000000000000
  0
LINE
  5
F1083C
330
F1083D
100
AcDbEntity
8
Geo
100
AcDbLine
10
-46.3123130034523
20
3.50346795759133
30
0.000000000000000
11
-46.2123130034523
21
3.44773350234919
31
0.000000000000000
  0
LINE
  5
F1083E
330
F1083F
100
AcDbEntity
8
Geo
100
AcDbLine
10
-46.2123130034523
20
3.44773350234919
30
0.000000000000000
11
-46.1123130034523
21
3.39206939288734
31
0.000000000000000
  0
LINE
  5
F10840
330
F10841
100
AcDbEntity
8
Geo
100
AcDbLine
10
-46.1123130034523
20
3.39206939288734
30
0.000000000000000
11
-46.0123130034523
21
3.33647748467095
31
0.000000000000000
  0
LINE
  5
F10842
330
F10843
100
AcDbEntity
8
Geo
100
AcDbLine
10
-46.0123130034523
20
3.33647748467095
30
0.000000000000000
11
-45.9123130034523
21
3.28095963075847
31
0.000000000000000
  0
LINE
  5
F10844
330
F10845
100
AcDbEntity
8
Geo
100
AcDbLine
10
-45.9123130034523
20
3.28095963075847
30
0.000000000000000
11
-45.8123130034523
21
3.22551768173990
31
0.000000000000000
  0
LINE
  5
F10846
330
F10847
100
AcDbEntity
8
Geo
100
AcDbLine
10
-45.8123130034523
20
3.22551768173990
30
0.000000000000000
11
-45.7123130034523
21
3.17015348567506
31
0.000000000000000
  0
LINE
  5
F10848
330
F10849
100
AcDbEntity
8
Geo
100
AcDbLine
10
-45.7123130034523
20
3.17015348567506
30
0.000000000000000
11
-45.6123130034523
21
3.11486888803204
31
0.000000000000000
  0
LINE
  5
F1084A
330
F1084B
100
AcDbEntity
8
Geo
100
AcDbLine
10
-45.6123130034523
20
3.11486888803204
30
0.000000000000000
11
-45.5123130034523
21
3.05966573162563
31
0.000000000000000
  0
LINE
  5
F1084C
330
F1084D
100
AcDbEntity
8
Geo
100
AcDbLine
10
-45.5123130034523
20
3.05966573162563
30
0.000000000000000
11
-45.4123130034523
21
3.00454585655594
31
0.000000000000000
  0
LINE
  5
F1084E
330
F1084F
100
AcDbEntity
8
Geo
100
AcDbLine
10
-45.4123130034523
20
3.00454585655594
30
0.000000000000000
11
-45.3123130034523
21
2.94951110014704
31
0.000000000000000
  0
LINE
  5
F10850
330
F10851
100
AcDbEntity
8
Geo
100
AcDbLine
10
-45.3123130034523
20
2.94951110014704
30
0.000000000000000
11
-45.2123130034523
21
2.89456329688571
31
0.000000000000000
  0
LINE
  5
F10852
330
F10853
100
AcDbEntity
8
Geo
100
AcDbLine
10
-45.2123130034523
20
2.89456329688571
30
0.000000000000000
11
-45.1123130034523
21
2.83970427836029
31
0.000000000000000
  0
LINE
  5
F10854
330
F10855
100
AcDbEntity
8
Geo
100
AcDbLine
10
-45.1123130034523
20
2.83970427836029
30
0.000000000000000
11
-45.0123130034523
21
2.78493587319967
31
0.000000000000000
  0
LINE
  5
F10856
330
F10857
100
AcDbEntity
8
Geo
100
AcDbLine
10
-45.0123130034523
20
2.78493587319967
30
0.000000000000000
11
-44.9123130034523
21
2.73025990701228
31
0.000000000000000
  0
LINE
  5
F10858
330
F10859
100
AcDbEntity
8
Geo
100
AcDbLine
10
-44.9123130034523
20
2.73025990701228
30
0.000000000000000
11
-44.8123130034523
21
2.67567820232526
31
0.000000000000000
  0
LINE
  5
F1085A
330
F1085B
100
AcDbEntity
8
Geo
100
AcDbLine
10
-44.8123130034523
20
2.67567820232526
30
0.000000000000000
11
-44.7123130034523
21
2.62119257852372
31
0.000000000000000
  0
LINE
  5
F1085C
330
F1085D
100
AcDbEntity
8
Geo
100
AcDbLine
10
-44.7123130034523
20
2.62119257852372
30
0.000000000000000
11
-44.6123130034523
21
2.56680485179006
31
0.000000000000000
  0
LINE
  5
F1085E
330
F1085F
100
AcDbEntity
8
Geo
100
AcDbLine
10
-44.6123130034523
20
2.56680485179006
30
0.000000000000000
11
-44.5123130034523
21
2.51251683504348
31
0.000000000000000
  0
LINE
  5
F10860
330
F10861
100
AcDbEntity
8
Geo
100
AcDbLine
10
-44.5123130034523
20
2.51251683504348
30
0.000000000000000
11
-44.4123130034523
21
2.45833033787952
31
0.000000000000000
  0
LINE
  5
F10862
330
F10863
100
AcDbEntity
8
Geo
100
AcDbLine
10
-44.4123130034523
20
2.45833033787952
30
0.000000000000000
11
-44.3123130034523
21
2.40424716650971
31
0.000000000000000
  0
LINE
  5
F10864
330
F10865
100
AcDbEntity
8
Geo
100
AcDbLine
10
-44.3123130034523
20
2.40424716650971
30
0.000000000000000
11
-44.2123130034523
21
2.35026912370144
31
0.000000000000000
  0
LINE
  5
F10866
330
F10867
100
AcDbEntity
8
Geo
100
AcDbLine
10
-44.2123130034523
20
2.35026912370144
30
0.000000000000000
11
-44.1123130034523
21
2.29639800871781
31
0.000000000000000
  0
LINE
  5
F10868
330
F10869
100
AcDbEntity
8
Geo
100
AcDbLine
10
-44.1123130034523
20
2.29639800871781
30
0.000000000000000
11
-44.0123130034523
21
2.24263561725765
31
0.000000000000000
  0
LINE
  5
F1086A
330
F1086B
100
AcDbEntity
8
Geo
100
AcDbLine
10
-44.0123130034523
20
2.24263561725765
30
0.000000000000000
11
-43.9123130034523
21
2.18898374139570
31
0.000000000000000
  0
LINE
  5
F1086C
330
F1086D
100
AcDbEntity
8
Geo
100
AcDbLine
10
-43.9123130034523
20
2.18898374139570
30
0.000000000000000
11
-43.8123130034523
21
2.13544416952286
31
0.000000000000000
  0
LINE
  5
F1086E
330
F1086F
100
AcDbEntity
8
Geo
100
AcDbLine
10
-43.8123130034523
20
2.13544416952286
30
0.000000000000000
11
-43.7123130034523
21
2.08201868628656
31
0.000000000000000
  0
LINE
  5
F10870
330
F10871
100
AcDbEntity
8
Geo
100
AcDbLine
10
-43.7123130034523
20
2.08201868628656
30
0.000000000000000
11
-43.6123130034523
21
2.02870907253131
31
0.000000000000000
  0
LINE
  5
F10872
330
F10873
100
AcDbEntity
8
Geo
100
AcDbLine
10
-43.6123130034523
20
2.02870907253131
30
0.000000000000000
11
-43.5123130034523
21
1.97551710523928
31
0.000000000000000
  0
LINE
  5
F10874
330
F10875
100
AcDbEntity
8
Geo
100
AcDbLine
10
-43.5123130034523
20
1.97551710523928
30
0.000000000000000
11
-43.4123130034523
21
1.92244455747114
31
0.000000000000000
  0
LINE
  5
F10876
330
F10877
100
AcDbEntity
8
Geo
100
AcDbLine
10
-43.4123130034523
20
1.92244455747114
30
0.000000000000000
11
-43.3123130034523
21
1.86949319830688
31
0.000000000000000
  0
LINE
  5
F10878
330
F10879
100
AcDbEntity
8
Geo
100
AcDbLine
10
-43.3123130034523
20
1.86949319830688
30
0.000000000000000
11
-43.2123130034523
21
1.81666479278693
31
0.000000000000000
  0
LINE
  5
F1087A
330
F1087B
100
AcDbEntity
8
Geo
100
AcDbLine
10
-43.2123130034523
20
1.81666479278693
30
0.000000000000000
11
-43.1123130034523
21
1.76396110185322
31
0.000000000000000
  0
LINE
  5
F1087C
330
F1087D
100
AcDbEntity
8
Geo
100
AcDbLine
10
-43.1123130034523
20
1.76396110185322
30
0.000000000000000
11
-43.0123130034523
21
1.71138388229059
31
0.000000000000000
  0
LINE
  5
F1087E
330
F1087F
100
AcDbEntity
8
Geo
100
AcDbLine
10
-43.0123130034523
20
1.71138388229059
30
0.000000000000000
11
-42.9123130034523
21
1.65893488666815
31
0.000000000000000
  0
LINE
  5
F10880
330
F10881
100
AcDbEntity
8
Geo
100
AcDbLine
10
-42.9123130034523
20
1.65893488666815
30
0.000000000000000
11
-42.8123130034523
21
1.60661586328089
31
0.000000000000000
  0
LINE
  5
F10882
330
F10883
100
AcDbEntity
8
Geo
100
AcDbLine
10
-42.8123130034523
20
1.60661586328089
30
0.000000000000000
11
-42.7123130034523
21
1.55442855609142
31
0.000000000000000
  0
LINE
  5
F10884
330
F10885
100
AcDbEntity
8
Geo
100
AcDbLine
10
-42.7123130034523
20
1.55442855609142
30
0.000000000000000
11
-42.6123130034523
21
1.50237470467182
31
0.000000000000000
  0
LINE
  5
F10886
330
F10887
100
AcDbEntity
8
Geo
100
AcDbLine
10
-42.6123130034523
20
1.50237470467182
30
0.000000000000000
11
-42.5123130034523
21
1.45045604414563
31
0.000000000000000
  0
LINE
  5
F10888
330
F10889
100
AcDbEntity
8
Geo
100
AcDbLine
10
-42.5123130034523
20
1.45045604414563
30
0.000000000000000
11
-42.4123130034523
21
1.39867430513009
31
0.000000000000000
  0
LINE
  5
F1088A
330
F1088B
100
AcDbEntity
8
Geo
100
AcDbLine
10
-42.4123130034523
20
1.39867430513009
30
0.000000000000000
11
-42.3123130034523
21
1.34703121367834
31
0.000000000000000
  0
LINE
  5
F1088C
330
F1088D
100
AcDbEntity
8
Geo
100
AcDbLine
10
-42.3123130034523
20
1.34703121367834
30
0.000000000000000
11
-42.2123130034523
21
1.29552849122201
31
0.000000000000000
  0
LINE
  5
F1088E
330
F1088F
100
AcDbEntity
8
Geo
100
AcDbLine
10
-42.2123130034523
20
1.29552849122201
30
0.000000000000000
11
-42.1123130034523
21
1.24416785451372
31
0.000000000000000
  0
LINE
  5
F10890
330
F10891
100
AcDbEntity
8
Geo
100
AcDbLine
10
-42.1123130034523
20
1.24416785451372
30
0.000000000000000
11
-42.0123130034523
21
1.19295101556996
31
0.000000000000000
  0
LINE
  5
F10892
330
F10893
100
AcDbEntity
8
Geo
100
AcDbLine
10
-42.0123130034523
20
1.19295101556996
30
0.000000000000000
11
-41.9123130034523
21
1.14187968161395
31
0.000000000000000
  0
LINE
  5
F10894
330
F10895
100
AcDbEntity
8
Geo
100
AcDbLine
10
-41.9123130034523
20
1.14187968161395
30
0.000000000000000
11
-41.8123130034523
21
1.09095555501874
31
0.000000000000000
  0
LINE
  5
F10896
330
F10897
100
AcDbEntity
8
Geo
100
AcDbLine
10
-41.8123130034523
20
1.09095555501874
30
0.000000000000000
11
-41.7123130034523
21
1.04018033325051
31
0.000000000000000
  0
LINE
  5
F10898
330
F10899
100
AcDbEntity
8
Geo
100
AcDbLine
10
-41.7123130034523
20
1.04018033325051
30
0.000000000000000
11
-41.6123130034523
21
0.989555708811969
31
0.000000000000000
  0
LINE
  5
F1089A
330
F1089B
100
AcDbEntity
8
Geo
100
AcDbLine
10
-41.6123130034523
20
0.989555708811969
30
0.000000000000000
11
-41.5123130034523
21
0.939083369185891
31
0.000000000000000
  0
LINE
  5
F1089C
330
F1089D
100
AcDbEntity
8
Geo
100
AcDbLine
10
-41.5123130034523
20
0.939083369185891
30
0.000000000000000
11
-41.4123130034523
21
0.888764996778929
31
0.000000000000000
  0
LINE
  5
F1089E
330
F1089F
100
AcDbEntity
8
Geo
100
AcDbLine
10
-41.4123130034523
20
0.888764996778929
30
0.000000000000000
11
-41.3123130034523
21
0.838602268865506
31
0.000000000000000
  0
LINE
  5
F108A0
330
F108A1
100
AcDbEntity
8
Geo
100
AcDbLine
10
-41.3123130034523
20
0.838602268865506
30
0.000000000000000
11
-41.2123130034523
21
0.788596857531907
31
0.000000000000000
  0
LINE
  5
F108A2
330
F108A3
100
AcDbEntity
8
Geo
100
AcDbLine
10
-41.2123130034523
20
0.788596857531907
30
0.000000000000000
11
-41.1123130034523
21
0.738750429620543
31
0.000000000000000
  0
LINE
  5
F108A4
330
F108A5
100
AcDbEntity
8
Geo
100
AcDbLine
10
-41.1123130034523
20
0.738750429620543
30
0.000000000000000
11
-41.0123130034523
21
0.689064646674399
31
0.000000000000000
  0
LINE
  5
F108A6
330
F108A7
100
AcDbEntity
8
Geo
100
AcDbLine
10
-41.0123130034523
20
0.689064646674399
30
0.000000000000000
11
-40.9123130034523
21
0.639541164881638
31
0.000000000000000
  0
LINE
  5
F108A8
330
F108A9
100
AcDbEntity
8
Geo
100
AcDbLine
10
-40.9123130034523
20
0.639541164881638
30
0.000000000000000
11
-40.8123130034523
21
0.590181635020405
31
0.000000000000000
  0
LINE
  5
F108AA
330
F108AB
100
AcDbEntity
8
Geo
100
AcDbLine
10
-40.8123130034523
20
0.590181635020405
30
0.000000000000000
11
-40.7123130034523
21
0.540987702403786
31
0.000000000000000
  0
LINE
  5
F108AC
330
F108AD
100
AcDbEntity
8
Geo
100
AcDbLine
10
-40.7123130034523
20
0.540987702403786
30
0.000000000000000
11
-40.6123130034523
21
0.491961006824984
31
0.000000000000000
  0
LINE
  5
F108AE
330
F108AF
100
AcDbEntity
8
Geo
100
AcDbLine
10
-40.6123130034523
20
0.491961006824984
30
0.000000000000000
11
-40.5123130034523
21
0.443103182502638
31
0.000000000000000
  0
LINE
  5
F108B0
330
F108B1
100
AcDbEntity
8
Geo
100
AcDbLine
10
-40.5123130034523
20
0.443103182502638
30
0.000000000000000
11
-40.4123130034523
21
0.394415858026379
31
0.000000000000000
  0
LINE
  5
F108B2
330
F108B3
100
AcDbEntity
8
Geo
100
AcDbLine
10
-40.4123130034523
20
0.394415858026379
30
0.000000000000000
11
-40.3123130034523
21
0.345900656302511
31
0.000000000000000
  0
LINE
  5
F108B4
330
F108B5
100
AcDbEntity
8
Geo
100
AcDbLine
10
-40.3123130034523
20
0.345900656302511
30
0.000000000000000
11
-40.2123130034523
21
0.297559194499925
31
0.000000000000000
  0
LINE
  5
F108B6
330
F108B7
100
AcDbEntity
8
Geo
100
AcDbLine
10
-40.2123130034523
20
0.297559194499925
30
0.000000000000000
11
-40.1123130034523
21
0.249393083996216
31
0.000000000000000
  0
LINE
  5
F108B8
330
F108B9
100
AcDbEntity
8
Geo
100
AcDbLine
10
-40.1123130034523
20
0.249393083996216
30
0.000000000000000
11
-40.0123130034523
21
0.201403930323936
31
0.000000000000000
  0
LINE
  5
F108BA
330
F108BB
100
AcDbEntity
8
Geo
100
AcDbLine
10
-40.0123130034523
20
0.201403930323936
30
0.000000000000000
11
-39.9123130034523
21
0.153593333117094
31
0.000000000000000
  0
LINE
  5
F108BC
330
F108BD
100
AcDbEntity
8
Geo
100
AcDbLine
10
-39.9123130034523
20
0.153593333117094
30
0.000000000000000
11
-39.8123130034523
21
0.105962886057845
31
0.000000000000000
  0
LINE
  5
F108BE
330
F108BF
100
AcDbEntity
8
Geo
100
AcDbLine
10
-39.8123130034523
20
0.105962886057845
30
0.000000000000000
11
-39.7123130034523
21
0.0585141768233406
31
0.000000000000000
  0
LINE
  5
F108C0
330
F108C1
100
AcDbEntity
8
Geo
100
AcDbLine
10
-39.7123130034523
20
0.0585141768233406
30
0.000000000000000
11
-39.6123130034523
21
0.0112487870328319
31
0.000000000000000
  0
LINE
  5
F108C2
330
F108C3
100
AcDbEntity
8
Geo
100
AcDbLine
10
-39.6123130034523
20
0.0112487870328319
30
0.000000000000000
11
-39.5123130034523
21
-0.0358317078050643
31
0.000000000000000
  0
LINE
  5
F108C4
330
F108C5
100
AcDbEntity
8
Geo
100
AcDbLine
10
-39.5123130034523
20
-0.0358317078050643
30
0.000000000000000
11
-39.4123130034523
21
-0.0827257383448856
31
0.000000000000000
  0
LINE
  5
F108C6
330
F108C7
100
AcDbEntity
8
Geo
100
AcDbLine
10
-39.4123130034523
20
-0.0827257383448856
30
0.000000000000000
11
-39.3123130034523
21
-0.129431741456612
31
0.000000000000000
  0
LINE
  5
F108C8
330
F108C9
100
AcDbEntity
8
Geo
100
AcDbLine
10
-39.3123130034523
20
-0.129431741456612
30
0.000000000000000
11
-39.2123130034523
21
-0.175948160277810
31
0.000000000000000
  0
LINE
  5
F108CA
330
F108CB
100
AcDbEntity
8
Geo
100
AcDbLine
10
-39.2123130034523
20
-0.175948160277810
30
0.000000000000000
11
-39.1123130034523
21
-0.222273444265486
31
0.000000000000000
  0
LINE
  5
F108CC
330
F108CD
100
AcDbEntity
8
Geo
100
AcDbLine
10
-39.1123130034523
20
-0.222273444265486
30
0.000000000000000
11
-39.0123130034523
21
-0.268406049247790
31
0.000000000000000
  0
LINE
  5
F108CE
330
F108CF
100
AcDbEntity
8
Geo
100
AcDbLine
10
-39.0123130034523
20
-0.268406049247790
30
0.000000000000000
11
-38.9123130034523
21
-0.314344437475508
31
0.000000000000000
  0
LINE
  5
F108D0
330
F108D1
100
AcDbEntity
8
Geo
100
AcDbLine
10
-38.9123130034523
20
-0.314344437475508
30
0.000000000000000
11
-38.8123130034523
21
-0.360087077673274
31
0.000000000000000
  0
LINE
  5
F108D2
330
F108D3
100
AcDbEntity
8
Geo
100
AcDbLine
10
-38.8123130034523
20
-0.360087077673274
30
0.000000000000000
11
-38.7123130034523
21
-0.405632445090657
31
0.000000000000000
  0
LINE
  5
F108D4
330
F108D5
100
AcDbEntity
8
Geo
100
AcDbLine
10
-38.7123130034523
20
-0.405632445090657
30
0.000000000000000
11
-38.6123130034523
21
-0.450979021552960
31
0.000000000000000
  0
LINE
  5
F108D6
330
F108D7
100
AcDbEntity
8
Geo
100
AcDbLine
10
-38.6123130034523
20
-0.450979021552960
30
0.000000000000000
11
-38.5123130034523
21
-0.496125295511826
31
0.000000000000000
  0
LINE
  5
F108D8
330
F108D9
100
AcDbEntity
8
Geo
100
AcDbLine
10
-38.5123130034523
20
-0.496125295511826
30
0.000000000000000
11
-38.4123130034523
21
-0.541069762095646
31
0.000000000000000
  0
LINE
  5
F108DA
330
F108DB
100
AcDbEntity
8
Geo
100
AcDbLine
10
-38.4123130034523
20
-0.541069762095646
30
0.000000000000000
11
-38.3123130034523
21
-0.585810923159695
31
0.000000000000000
  0
LINE
  5
F108DC
330
F108DD
100
AcDbEntity
8
Geo
100
AcDbLine
10
-38.3123130034523
20
-0.585810923159695
30
0.000000000000000
11
-38.2123130034523
21
-0.630347287336066
31
0.000000000000000
  0
LINE
  5
F108DE
330
F108DF
100
AcDbEntity
8
Geo
100
AcDbLine
10
-38.2123130034523
20
-0.630347287336066
30
0.000000000000000
11
-38.1123130034523
21
-0.674677370083431
31
0.000000000000000
  0
LINE
  5
F108E0
330
F108E1
100
AcDbEntity
8
Geo
100
AcDbLine
10
-38.1123130034523
20
-0.674677370083431
30
0.000000000000000
11
-38.0123130034523
21
-0.718799693736452
31
0.000000000000000
  0
LINE
  5
F108E2
330
F108E3
100
AcDbEntity
8
Geo
100
AcDbLine
10
-38.0123130034523
20
-0.718799693736452
30
0.000000000000000
11
-37.9123130034523
21
-0.762712787555103
31
0.000000000000000
  0
LINE
  5
F108E4
330
F108E5
100
AcDbEntity
8
Geo
100
AcDbLine
10
-37.9123130034523
20
-0.762712787555103
30
0.000000000000000
11
-37.8123130034523
21
-0.806415187773657
31
0.000000000000000
  0
LINE
  5
F108E6
330
F108E7
100
AcDbEntity
8
Geo
100
AcDbLine
10
-37.8123130034523
20
-0.806415187773657
30
0.000000000000000
11
-37.7123130034523
21
-0.849905437649476
31
0.000000000000000
  0
LINE
  5
F108E8
330
F108E9
100
AcDbEntity
8
Geo
100
AcDbLine
10
-37.7123130034523
20
-0.849905437649476
30
0.000000000000000
11
-37.6123130034523
21
-0.893182087511599
31
0.000000000000000
  0
LINE
  5
F108EA
330
F108EB
100
AcDbEntity
8
Geo
100
AcDbLine
10
-37.6123130034523
20
-0.893182087511599
30
0.000000000000000
11
-37.5123130034523
21
-0.936243694809038
31
0.000000000000000
  0
LINE
  5
F108EC
330
F108ED
100
AcDbEntity
8
Geo
100
AcDbLine
10
-37.5123130034523
20
-0.936243694809038
30
0.000000000000000
11
-37.4123130034523
21
-0.979088824158866
31
0.000000000000000
  0
LINE
  5
F108EE
330
F108EF
100
AcDbEntity
8
Geo
100
AcDbLine
10
-37.4123130034523
20
-0.979088824158866
30
0.000000000000000
11
-37.3123130034523
21
-1.02171604739408
31
0.000000000000000
  0
LINE
  5
F108F0
330
F108F1
100
AcDbEntity
8
Geo
100
AcDbLine
10
-37.3123130034523
20
-1.02171604739408
30
0.000000000000000
11
-37.2123130034523
21
-1.06412394361118
31
0.000000000000000
  0
LINE
  5
F108F2
330
F108F3
100
AcDbEntity
8
Geo
100
AcDbLine
10
-37.2123130034523
20
-1.06412394361118
30
0.000000000000000
11
-37.1123130034523
21
-1.10631109921754
31
0.000000000000000
  0
LINE
  5
F108F4
330
F108F5
100
AcDbEntity
8
Geo
100
AcDbLine
10
-37.1123130034523
20
-1.10631109921754
30
0.000000000000000
11
-37.0123130034523
21
-1.14827610797857
31
0.000000000000000
  0
LINE
  5
F108F6
330
F108F7
100
AcDbEntity
8
Geo
100
AcDbLine
10
-37.0123130034523
20
-1.14827610797857
30
0.000000000000000
11
-36.9123130034523
21
-1.19001757106451
31
0.000000000000000
  0
LINE
  5
F108F8
330
F108F9
100
AcDbEntity
8
Geo
100
AcDbLine
10
-36.9123130034523
20
-1.19001757106451
30
0.000000000000000
11
-36.8123130034523
21
-1.23153409709714
31
0.000000000000000
  0
LINE
  5
F108FA
330
F108FB
100
AcDbEntity
8
Geo
100
AcDbLine
10
-36.8123130034523
20
-1.23153409709714
30
0.000000000000000
11
-36.7123130034523
21
-1.27282430219609
31
0.000000000000000
  0
LINE
  5
F108FC
330
F108FD
100
AcDbEntity
8
Geo
100
AcDbLine
10
-36.7123130034523
20
-1.27282430219609
30
0.000000000000000
11
-36.6123130034523
21
-1.31388681002502
31
0.000000000000000
  0
LINE
  5
F108FE
330
F108FF
100
AcDbEntity
8
Geo
100
AcDbLine
10
-36.6123130034523
20
-1.31388681002502
30
0.000000000000000
11
-36.5123130034523
21
-1.35472025183747
31
0.000000000000000
  0
LINE
  5
F10900
330
F10901
100
AcDbEntity
8
Geo
100
AcDbLine
10
-36.5123130034523
20
-1.35472025183747
30
0.000000000000000
11
-36.4123130034523
21
-1.39532326652248
31
0.000000000000000
  0
LINE
  5
F10902
330
F10903
100
AcDbEntity
8
Geo
100
AcDbLine
10
-36.4123130034523
20
-1.39532326652248
30
0.000000000000000
11
-36.3123130034523
21
-1.43569450065001
31
0.000000000000000
  0
LINE
  5
F10904
330
F10905
100
AcDbEntity
8
Geo
100
AcDbLine
10
-36.3123130034523
20
-1.43569450065001
30
0.000000000000000
11
-36.2123130034523
21
-1.47583260851597
31
0.000000000000000
  0
LINE
  5
F10906
330
F10907
100
AcDbEntity
8
Geo
100
AcDbLine
10
-36.2123130034523
20
-1.47583260851597
30
0.000000000000000
11
-36.1123130034523
21
-1.51573625218717
31
0.000000000000000
  0
LINE
  5
F10908
330
F10909
100
AcDbEntity
8
Geo
100
AcDbLine
10
-36.1123130034523
20
-1.51573625218717
30
0.000000000000000
11
-36.0123130034523
21
-1.55540410154584
31
0.000000000000000
  0
LINE
  5
F1090A
330
F1090B
100
AcDbEntity
8
Geo
100
AcDbLine
10
-36.0123130034523
20
-1.55540410154584
30
0.000000000000000
11
-35.9123130034523
21
-1.59483483433400
31
0.000000000000000
  0
LINE
  5
F1090C
330
F1090D
100
AcDbEntity
8
Geo
100
AcDbLine
10
-35.9123130034523
20
-1.59483483433400
30
0.000000000000000
11
-35.8123130034523
21
-1.63402713619755
31
0.000000000000000
  0
LINE
  5
F1090E
330
F1090F
100
AcDbEntity
8
Geo
100
AcDbLine
10
-35.8123130034523
20
-1.63402713619755
30
0.000000000000000
11
-35.7123130034523
21
-1.67297970073006
31
0.000000000000000
  0
LINE
  5
F10910
330
F10911
100
AcDbEntity
8
Geo
100
AcDbLine
10
-35.7123130034523
20
-1.67297970073006
30
0.000000000000000
11
-35.6123130034523
21
-1.71169122951630
31
0.000000000000000
  0
LINE
  5
F10912
330
F10913
100
AcDbEntity
8
Geo
100
AcDbLine
10
-35.6123130034523
20
-1.71169122951630
30
0.000000000000000
11
-35.5123130034523
21
-1.75016043217559
31
0.000000000000000
  0
LINE
  5
F10914
330
F10915
100
AcDbEntity
8
Geo
100
AcDbLine
10
-35.5123130034523
20
-1.75016043217559
30
0.000000000000000
11
-35.4123130034523
21
-1.78838602640472
31
0.000000000000000
  0
LINE
  5
F10916
330
F10917
100
AcDbEntity
8
Geo
100
AcDbLine
10
-35.4123130034523
20
-1.78838602640472
30
0.000000000000000
11
-35.3123130034523
21
-1.82636673802075
31
0.000000000000000
  0
LINE
  5
F10918
330
F10919
100
AcDbEntity
8
Geo
100
AcDbLine
10
-35.3123130034523
20
-1.82636673802075
30
0.000000000000000
11
-35.2123130034523
21
-1.86410130100349
31
0.000000000000000
  0
LINE
  5
F1091A
330
F1091B
100
AcDbEntity
8
Geo
100
AcDbLine
10
-35.2123130034523
20
-1.86410130100349
30
0.000000000000000
11
-35.1123130034523
21
-1.90158845753765
31
0.000000000000000
  0
LINE
  5
F1091C
330
F1091D
100
AcDbEntity
8
Geo
100
AcDbLine
10
-35.1123130034523
20
-1.90158845753765
30
0.000000000000000
11
-35.0123130034523
21
-1.93882695805484
31
0.000000000000000
  0
LINE
  5
F1091E
330
F1091F
100
AcDbEntity
8
Geo
100
AcDbLine
10
-35.0123130034523
20
-1.93882695805484
30
0.000000000000000
11
-34.9123130034523
21
-1.97581556127514
31
0.000000000000000
  0
LINE
  5
F10920
330
F10921
100
AcDbEntity
8
Geo
100
AcDbLine
10
-34.9123130034523
20
-1.97581556127514
30
0.000000000000000
11
-34.8123130034523
21
-2.01255303424854
31
0.000000000000000
  0
LINE
  5
F10922
330
F10923
100
AcDbEntity
8
Geo
100
AcDbLine
10
-34.8123130034523
20
-2.01255303424854
30
0.000000000000000
11
-34.7123130034523
21
-2.04903815239601
31
0.000000000000000
  0
LINE
  5
F10924
330
F10925
100
AcDbEntity
8
Geo
100
AcDbLine
10
-34.7123130034523
20
-2.04903815239601
30
0.000000000000000
11
-34.6123130034523
21
-2.08526969955032
31
0.000000000000000
  0
LINE
  5
F10926
330
F10927
100
AcDbEntity
8
Geo
100
AcDbLine
10
-34.6123130034523
20
-2.08526969955032
30
0.000000000000000
11
-34.5123130034523
21
-2.12124646799659
31
0.000000000000000
  0
LINE
  5
F10928
330
F10929
100
AcDbEntity
8
Geo
100
AcDbLine
10
-34.5123130034523
20
-2.12124646799659
30
0.000000000000000
11
-34.4123130034523
21
-2.15696725851253
31
0.000000000000000
  0
LINE
  5
F1092A
330
F1092B
100
AcDbEntity
8
Geo
100
AcDbLine
10
-34.4123130034523
20
-2.15696725851253
30
0.000000000000000
11
-34.3123130034523
21
-2.19243088040843
31
0.000000000000000
  0
LINE
  5
F1092C
330
F1092D
100
AcDbEntity
8
Geo
100
AcDbLine
10
-34.3123130034523
20
-2.19243088040843
30
0.000000000000000
11
-34.2123130034523
21
-2.22763615156686
31
0.000000000000000
  0
LINE
  5
F1092E
330
F1092F
100
AcDbEntity
8
Geo
100
AcDbLine
10
-34.2123130034523
20
-2.22763615156686
30
0.000000000000000
11
-34.1123130034523
21
-2.26258189848203
31
0.000000000000000
  0
LINE
  5
F10930
330
F10931
100
AcDbEntity
8
Geo
100
AcDbLine
10
-34.1123130034523
20
-2.26258189848203
30
0.000000000000000
11
-34.0123130034523
21
-2.29726695629893
31
0.000000000000000
  0
LINE
  5
F10932
330
F10933
100
AcDbEntity
8
Geo
100
AcDbLine
10
-34.0123130034523
20
-2.29726695629893
30
0.000000000000000
11
-33.9123130034523
21
-2.33169016885221
31
0.000000000000000
  0
LINE
  5
F10934
330
F10935
100
AcDbEntity
8
Geo
100
AcDbLine
10
-33.9123130034523
20
-2.33169016885221
30
0.000000000000000
11
-33.8123130034523
21
-2.36585038870461
31
0.000000000000000
  0
LINE
  5
F10936
330
F10937
100
AcDbEntity
8
Geo
100
AcDbLine
10
-33.8123130034523
20
-2.36585038870461
30
0.000000000000000
11
-33.7123130034523
21
-2.39974647718531
31
0.000000000000000
  0
LINE
  5
F10938
330
F10939
100
AcDbEntity
8
Geo
100
AcDbLine
10
-33.7123130034523
20
-2.39974647718531
30
0.000000000000000
11
-33.6123130034523
21
-2.43337730442784
31
0.000000000000000
  0
LINE
  5
F1093A
330
F1093B
100
AcDbEntity
8
Geo
100
AcDbLine
10
-33.6123130034523
20
-2.43337730442784
30
0.000000000000000
11
-33.5123130034523
21
-2.46674174940773
31
0.000000000000000
  0
LINE
  5
F1093C
330
F1093D
100
AcDbEntity
8
Geo
100
AcDbLine
10
-33.5123130034523
20
-2.46674174940773
30
0.000000000000000
11
-33.4123130034523
21
-2.49983869997989
31
0.000000000000000
  0
LINE
  5
F1093E
330
F1093F
100
AcDbEntity
8
Geo
100
AcDbLine
10
-33.4123130034523
20
-2.49983869997989
30
0.000000000000000
11
-33.3123130034523
21
-2.53266705291573
31
0.000000000000000
  0
LINE
  5
F10940
330
F10941
100
AcDbEntity
8
Geo
100
AcDbLine
10
-33.3123130034523
20
-2.53266705291573
30
0.000000000000000
11
-33.2123130034523
21
-2.56522571393983
31
0.000000000000000
  0
LINE
  5
F10942
330
F10943
100
AcDbEntity
8
Geo
100
AcDbLine
10
-33.2123130034523
20
-2.56522571393983
30
0.000000000000000
11
-33.1123130034523
21
-2.59751359776652
31
0.000000000000000
  0
LINE
  5
F10944
330
F10945
100
AcDbEntity
8
Geo
100
AcDbLine
10
-33.1123130034523
20
-2.59751359776652
30
0.000000000000000
11
-33.0123130034523
21
-2.62952962813599
31
0.000000000000000
  0
LINE
  5
F10946
330
F10947
100
AcDbEntity
8
Geo
100
AcDbLine
10
-33.0123130034523
20
-2.62952962813599
30
0.000000000000000
11
-32.9123130034523
21
-2.66127273785019
31
0.000000000000000
  0
LINE
  5
F10948
330
F10949
100
AcDbEntity
8
Geo
100
AcDbLine
10
-32.9123130034523
20
-2.66127273785019
30
0.000000000000000
11
-32.8123130034523
21
-2.69274186880841
31
0.000000000000000
  0
LINE
  5
F1094A
330
F1094B
100
AcDbEntity
8
Geo
100
AcDbLine
10
-32.8123130034523
20
-2.69274186880841
30
0.000000000000000
11
-32.7123130034523
21
-2.72393597204253
31
0.000000000000000
  0
LINE
  5
F1094C
330
F1094D
100
AcDbEntity
8
Geo
100
AcDbLine
10
-32.7123130034523
20
-2.72393597204253
30
0.000000000000000
11
-32.6123130034523
21
-2.75485400775199
31
0.000000000000000
  0
LINE
  5
F1094E
330
F1094F
100
AcDbEntity
8
Geo
100
AcDbLine
10
-32.6123130034523
20
-2.75485400775199
30
0.000000000000000
11
-32.5123130034523
21
-2.78549494533846
31
0.000000000000000
  0
LINE
  5
F10950
330
F10951
100
AcDbEntity
8
Geo
100
AcDbLine
10
-32.5123130034523
20
-2.78549494533846
30
0.000000000000000
11
-32.4123130034523
21
-2.81585776344020
31
0.000000000000000
  0
LINE
  5
F10952
330
F10953
100
AcDbEntity
8
Geo
100
AcDbLine
10
-32.4123130034523
20
-2.81585776344020
30
0.000000000000000
11
-32.3123130034523
21
-2.84594144996609
31
0.000000000000000
  0
LINE
  5
F10954
330
F10955
100
AcDbEntity
8
Geo
100
AcDbLine
10
-32.3123130034523
20
-2.84594144996609
30
0.000000000000000
11
-32.2123130034523
21
-2.87574500212935
31
0.000000000000000
  0
LINE
  5
F10956
330
F10957
100
AcDbEntity
8
Geo
100
AcDbLine
10
-32.2123130034523
20
-2.87574500212935
30
0.000000000000000
11
-32.1123130034523
21
-2.90526742648101
31
0.000000000000000
  0
LINE
  5
F10958
330
F10959
100
AcDbEntity
8
Geo
100
AcDbLine
10
-32.1123130034523
20
-2.90526742648101
30
0.000000000000000
11
-32.0123130034523
21
-2.93450773894299
31
0.000000000000000
  0
LINE
  5
F1095A
330
F1095B
100
AcDbEntity
8
Geo
100
AcDbLine
10
-32.0123130034523
20
-2.93450773894299
30
0.000000000000000
11
-31.9123130034523
21
-2.96346496484091
31
0.000000000000000
  0
LINE
  5
F1095C
330
F1095D
100
AcDbEntity
8
Geo
100
AcDbLine
10
-31.9123130034523
20
-2.96346496484091
30
0.000000000000000
11
-31.8123130034523
21
-2.99213813893660
31
0.000000000000000
  0
LINE
  5
F1095E
330
F1095F
100
AcDbEntity
8
Geo
100
AcDbLine
10
-31.8123130034523
20
-2.99213813893660
30
0.000000000000000
11
-31.7123130034523
21
-3.02052630546023
31
0.000000000000000
  0
LINE
  5
F10960
330
F10961
100
AcDbEntity
8
Geo
100
AcDbLine
10
-31.7123130034523
20
-3.02052630546023
30
0.000000000000000
11
-31.6123130034523
21
-3.04862851814223
31
0.000000000000000
  0
LINE
  5
F10962
330
F10963
100
AcDbEntity
8
Geo
100
AcDbLine
10
-31.6123130034523
20
-3.04862851814223
30
0.000000000000000
11
-31.5123130034523
21
-3.07644384024476
31
0.000000000000000
  0
LINE
  5
F10964
330
F10965
100
AcDbEntity
8
Geo
100
AcDbLine
10
-31.5123130034523
20
-3.07644384024476
30
0.000000000000000
11
-31.4123130034523
21
-3.10397134459300
31
0.000000000000000
  0
LINE
  5
F10966
330
F10967
100
AcDbEntity
8
Geo
100
AcDbLine
10
-31.4123130034523
20
-3.10397134459300
30
0.000000000000000
11
-31.3123130034523
21
-3.13121011360602
31
0.000000000000000
  0
LINE
  5
F10968
330
F10969
100
AcDbEntity
8
Geo
100
AcDbLine
10
-31.3123130034523
20
-3.13121011360602
30
0.000000000000000
11
-31.2123130034523
21
-3.15815923932738
31
0.000000000000000
  0
LINE
  5
F1096A
330
F1096B
100
AcDbEntity
8
Geo
100
AcDbLine
10
-31.2123130034523
20
-3.15815923932738
30
0.000000000000000
11
-31.1123130034523
21
-3.18481782345538
31
0.000000000000000
  0
LINE
  5
F1096C
330
F1096D
100
AcDbEntity
8
Geo
100
AcDbLine
10
-31.1123130034523
20
-3.18481782345538
30
0.000000000000000
11
-31.0123130034523
21
-3.21118497737301
31
0.000000000000000
  0
LINE
  5
F1096E
330
F1096F
100
AcDbEntity
8
Geo
100
AcDbLine
10
-31.0123130034523
20
-3.21118497737301
30
0.000000000000000
11
-30.9123130034523
21
-3.23725982217760
31
0.000000000000000
  0
LINE
  5
F10970
330
F10971
100
AcDbEntity
8
Geo
100
AcDbLine
10
-30.9123130034523
20
-3.23725982217760
30
0.000000000000000
11
-30.8123130034523
21
-3.26304148871005
31
0.000000000000000
  0
LINE
  5
F10972
330
F10973
100
AcDbEntity
8
Geo
100
AcDbLine
10
-30.8123130034523
20
-3.26304148871005
30
0.000000000000000
11
-30.7123130034523
21
-3.28852911758387
31
0.000000000000000
  0
LINE
  5
F10974
330
F10975
100
AcDbEntity
8
Geo
100
AcDbLine
10
-30.7123130034523
20
-3.28852911758387
30
0.000000000000000
11
-30.6123130034523
21
-3.31372185921380
31
0.000000000000000
  0
LINE
  5
F10976
330
F10977
100
AcDbEntity
8
Geo
100
AcDbLine
10
-30.6123130034523
20
-3.31372185921380
30
0.000000000000000
11
-30.5123130034523
21
-3.33861887384411
31
0.000000000000000
  0
LINE
  5
F10978
330
F10979
100
AcDbEntity
8
Geo
100
AcDbLine
10
-30.5123130034523
20
-3.33861887384411
30
0.000000000000000
11
-30.4123130034523
21
-3.36321933157662
31
0.000000000000000
  0
LINE
  5
F1097A
330
F1097B
100
AcDbEntity
8
Geo
100
AcDbLine
10
-30.4123130034523
20
-3.36321933157662
30
0.000000000000000
11
-30.3123130034523
21
-3.38752241239835
31
0.000000000000000
  0
LINE
  5
F1097C
330
F1097D
100
AcDbEntity
8
Geo
100
AcDbLine
10
-30.3123130034523
20
-3.38752241239835
30
0.000000000000000
11
-30.2123130034523
21
-3.41152730620886
31
0.000000000000000
  0
LINE
  5
F1097E
330
F1097F
100
AcDbEntity
8
Geo
100
AcDbLine
10
-30.2123130034523
20
-3.41152730620886
30
0.000000000000000
11
-30.1123130034523
21
-3.43523321284723
31
0.000000000000000
  0
LINE
  5
F10980
330
F10981
100
AcDbEntity
8
Geo
100
AcDbLine
10
-30.1123130034523
20
-3.43523321284723
30
0.000000000000000
11
-30.0123130034523
21
-3.45863934211878
31
0.000000000000000
  0
LINE
  5
F10982
330
F10983
100
AcDbEntity
8
Geo
100
AcDbLine
10
-30.0123130034523
20
-3.45863934211878
30
0.000000000000000
11
-29.9123130034523
21
-3.48174491382137
31
0.000000000000000
  0
LINE
  5
F10984
330
F10985
100
AcDbEntity
8
Geo
100
AcDbLine
10
-29.9123130034523
20
-3.48174491382137
30
0.000000000000000
11
-29.8123130034523
21
-3.50454915777141
31
0.000000000000000
  0
LINE
  5
F10986
330
F10987
100
AcDbEntity
8
Geo
100
AcDbLine
10
-29.8123130034523
20
-3.50454915777141
30
0.000000000000000
11
-29.7123130034523
21
-3.52705131382955
31
0.000000000000000
  0
LINE
  5
F10988
330
F10989
100
AcDbEntity
8
Geo
100
AcDbLine
10
-29.7123130034523
20
-3.52705131382955
30
0.000000000000000
11
-29.6123130034523
21
-3.54925063192600
31
0.000000000000000
  0
LINE
  5
F1098A
330
F1098B
100
AcDbEntity
8
Geo
100
AcDbLine
10
-29.6123130034523
20
-3.54925063192600
30
0.000000000000000
11
-29.5123130034523
21
-3.57114637208555
31
0.000000000000000
  0
LINE
  5
F1098C
330
F1098D
100
AcDbEntity
8
Geo
100
AcDbLine
10
-29.5123130034523
20
-3.57114637208555
30
0.000000000000000
11
-29.4123130034523
21
-3.59273780445223
31
0.000000000000000
  0
LINE
  5
F1098E
330
F1098F
100
AcDbEntity
8
Geo
100
AcDbLine
10
-29.4123130034523
20
-3.59273780445223
30
0.000000000000000
11
-29.3123130034523
21
-3.61402420931361
31
0.000000000000000
  0
LINE
  5
F10990
330
F10991
100
AcDbEntity
8
Geo
100
AcDbLine
10
-29.3123130034523
20
-3.61402420931361
30
0.000000000000000
11
-29.2123130034523
21
-3.63500487712484
31
0.000000000000000
  0
LINE
  5
F10992
330
F10993
100
AcDbEntity
8
Geo
100
AcDbLine
10
-29.2123130034523
20
-3.63500487712484
30
0.000000000000000
11
-29.1123130034523
21
-3.65567910853227
31
0.000000000000000
  0
LINE
  5
F10994
330
F10995
100
AcDbEntity
8
Geo
100
AcDbLine
10
-29.1123130034523
20
-3.65567910853227
30
0.000000000000000
11
-29.0123130034523
21
-3.67604621439677
31
0.000000000000000
  0
LINE
  5
F10996
330
F10997
100
AcDbEntity
8
Geo
100
AcDbLine
10
-29.0123130034523
20
-3.67604621439677
30
0.000000000000000
11
-28.9123130034523
21
-3.69610551581669
31
0.000000000000000
  0
LINE
  5
F10998
330
F10999
100
AcDbEntity
8
Geo
100
AcDbLine
10
-28.9123130034523
20
-3.69610551581669
30
0.000000000000000
11
-28.8123130034523
21
-3.71585634415051
31
0.000000000000000
  0
LINE
  5
F1099A
330
F1099B
100
AcDbEntity
8
Geo
100
AcDbLine
10
-28.8123130034523
20
-3.71585634415051
30
0.000000000000000
11
-28.7123130034523
21
-3.73529804103912
31
0.000000000000000
  0
LINE
  5
F1099C
330
F1099D
100
AcDbEntity
8
Geo
100
AcDbLine
10
-28.7123130034523
20
-3.73529804103912
30
0.000000000000000
11
-28.6123130034523
21
-3.75442995842775
31
0.000000000000000
  0
LINE
  5
F1099E
330
F1099F
100
AcDbEntity
8
Geo
100
AcDbLine
10
-28.6123130034523
20
-3.75442995842775
30
0.000000000000000
11
-28.5123130034523
21
-3.77325145858759
31
0.000000000000000
  0
LINE
  5
F109A0
330
F109A1
100
AcDbEntity
8
Geo
100
AcDbLine
10
-28.5123130034523
20
-3.77325145858759
30
0.000000000000000
11
-28.4123130034523
21
-3.79176191413705
31
0.000000000000000
  0
LINE
  5
F109A2
330
F109A3
100
AcDbEntity
8
Geo
100
AcDbLine
10
-28.4123130034523
20
-3.79176191413705
30
0.000000000000000
11
-28.3123130034523
21
-3.80996070806266
31
0.000000000000000
  0
LINE
  5
F109A4
330
F109A5
100
AcDbEntity
8
Geo
100
AcDbLine
10
-48.2123130034523
20
15.3844645956357
30
0.000000000000000
11
-48.1123130034523
21
15.3786150649349
31
0.000000000000000
  0
LINE
  5
F109A6
330
F109A7
100
AcDbEntity
8
Geo
100
AcDbLine
10
-48.1123130034523
20
15.3786150649349
30
0.000000000000000
11
-48.0123130034523
21
15.3724381850671
31
0.000000000000000
  0
LINE
  5
F109A8
330
F109A9
100
AcDbEntity
8
Geo
100
AcDbLine
10
-48.0123130034523
20
15.3724381850671
30
0.000000000000000
11
-47.9123130034523
21
15.3659341619275
31
0.000000000000000
  0
LINE
  5
F109AA
330
F109AB
100
AcDbEntity
8
Geo
100
AcDbLine
10
-47.9123130034523
20
15.3659341619275
30
0.000000000000000
11
-47.8123130034523
21
15.3591032123165
31
0.000000000000000
  0
LINE
  5
F109AC
330
F109AD
100
AcDbEntity
8
Geo
100
AcDbLine
10
-47.8123130034523
20
15.3591032123165
30
0.000000000000000
11
-47.7123130034523
21
15.3519455639317
31
0.000000000000000
  0
LINE
  5
F109AE
330
F109AF
100
AcDbEntity
8
Geo
100
AcDbLine
10
-47.7123130034523
20
15.3519455639317
30
0.000000000000000
11
-47.6123130034523
21
15.3444614553606
31
0.000000000000000
  0
LINE
  5
F109B0
330
F109B1
100
AcDbEntity
8
Geo
100
AcDbLine
10
-47.6123130034523
20
15.3444614553606
30
0.000000000000000
11
-47.5123130034523
21
15.3366511360730
31
0.000000000000000
  0
LINE
  5
F109B2
330
F109B3
100
AcDbEntity
8
Geo
100
AcDbLine
10
-47.5123130034523
20
15.3366511360730
30
0.000000000000000
11
-47.4123130034523
21
15.3285148664121
31
0.000000000000000
  0
LINE
  5
F109B4
330
F109B5
100
AcDbEntity
8
Geo
100
AcDbLine
10
-47.4123130034523
20
15.3285148664121
30
0.000000000000000
11
-47.3123130034523
21
15.3200529175860
31
0.000000000000000
  0
LINE
  5
F109B6
330
F109B7
100
AcDbEntity
8
Geo
100
AcDbLine
10
-47.3123130034523
20
15.3200529175860
30
0.000000000000000
11
-47.2123130034523
21
15.3112655716591
31
0.000000000000000
  0
LINE
  5
F109B8
330
F109B9
100
AcDbEntity
8
Geo
100
AcDbLine
10
-47.2123130034523
20
15.3112655716591
30
0.000000000000000
11
-47.1123130034523
21
15.3021531215419
31
0.000000000000000
  0
LINE
  5
F109BA
330
F109BB
100
AcDbEntity
8
Geo
100
AcDbLine
10
-47.1123130034523
20
15.3021531215419
30
0.000000000000000
11
-47.0123130034523
21
15.2927158709820
31
0.000000000000000
  0
LINE
  5
F109BC
330
F109BD
100
AcDbEntity
8
Geo
100
AcDbLine
10
-47.0123130034523
20
15.2927158709820
30
0.000000000000000
11
-46.9123130034523
21
15.2829541345535
31
0.000000000000000
  0
LINE
  5
F109BE
330
F109BF
100
AcDbEntity
8
Geo
100
AcDbLine
10
-46.9123130034523
20
15.2829541345535
30
0.000000000000000
11
-46.8123130034523
21
15.2728682376467
31
0.000000000000000
  0
LINE
  5
F109C0
330
F109C1
100
AcDbEntity
8
Geo
100
AcDbLine
10
-46.8123130034523
20
15.2728682376467
30
0.000000000000000
11
-46.7123130034523
21
15.2624585164574
31
0.000000000000000
  0
LINE
  5
F109C2
330
F109C3
100
AcDbEntity
8
Geo
100
AcDbLine
10
-46.7123130034523
20
15.2624585164574
30
0.000000000000000
11
-46.6123130034523
21
15.2517253179751
31
0.000000000000000
  0
LINE
  5
F109C4
330
F109C5
100
AcDbEntity
8
Geo
100
AcDbLine
10
-46.6123130034523
20
15.2517253179751
30
0.000000000000000
11
-46.5123130034523
21
15.2406689999723
31
0.000000000000000
  0
LINE
  5
F109C6
330
F109C7
100
AcDbEntity
8
Geo
100
AcDbLine
10
-46.5123130034523
20
15.2406689999723
30
0.000000000000000
11
-46.4123130034523
21
15.2292899309917
31
0.000000000000000
  0
LINE
  5
F109C8
330
F109C9
100
AcDbEntity
8
Geo
100
AcDbLine
10
-46.4123130034523
20
15.2292899309917
30
0.000000000000000
11
-46.3123130034523
21
15.2175884903347
31
0.000000000000000
  0
LINE
  5
F109CA
330
F109CB
100
AcDbEntity
8
Geo
100
AcDbLine
10
-46.3123130034523
20
15.2175884903347
30
0.000000000000000
11
-46.2123130034523
21
15.2055650680482
31
0.000000000000000
  0
LINE
  5
F109CC
330
F109CD
100
AcDbEntity
8
Geo
100
AcDbLine
10
-46.2123130034523
20
15.2055650680482
30
0.000000000000000
11
-46.1123130034523
21
15.1932200649118
31
0.000000000000000
  0
LINE
  5
F109CE
330
F109CF
100
AcDbEntity
8
Geo
100
AcDbLine
10
-46.1123130034523
20
15.1932200649118
30
0.000000000000000
11
-46.0123130034523
21
15.1805538924245
31
0.000000000000000
  0
LINE
  5
F109D0
330
F109D1
100
AcDbEntity
8
Geo
100
AcDbLine
10
-46.0123130034523
20
15.1805538924245
30
0.000000000000000
11
-45.9123130034523
21
15.1675669727909
31
0.000000000000000
  0
LINE
  5
F109D2
330
F109D3
100
AcDbEntity
8
Geo
100
AcDbLine
10
-45.9123130034523
20
15.1675669727909
30
0.000000000000000
11
-45.8123130034523
21
15.1542597389071
31
0.000000000000000
  0
LINE
  5
F109D4
330
F109D5
100
AcDbEntity
8
Geo
100
AcDbLine
10
-45.8123130034523
20
15.1542597389071
30
0.000000000000000
11
-45.7123130034523
21
15.1406326343462
31
0.000000000000000
  0
LINE
  5
F109D6
330
F109D7
100
AcDbEntity
8
Geo
100
AcDbLine
10
-45.7123130034523
20
15.1406326343462
30
0.000000000000000
11
-45.6123130034523
21
15.1266861133440
31
0.000000000000000
  0
LINE
  5
F109D8
330
F109D9
100
AcDbEntity
8
Geo
100
AcDbLine
10
-45.6123130034523
20
15.1266861133440
30
0.000000000000000
11
-45.5123130034523
21
15.1124206407830
31
0.000000000000000
  0
LINE
  5
F109DA
330
F109DB
100
AcDbEntity
8
Geo
100
AcDbLine
10
-45.5123130034523
20
15.1124206407830
30
0.000000000000000
11
-45.4123130034523
21
15.0978366921778
31
0.000000000000000
  0
LINE
  5
F109DC
330
F109DD
100
AcDbEntity
8
Geo
100
AcDbLine
10
-45.4123130034523
20
15.0978366921778
30
0.000000000000000
11
-45.3123130034523
21
15.0829347536586
31
0.000000000000000
  0
LINE
  5
F109DE
330
F109DF
100
AcDbEntity
8
Geo
100
AcDbLine
10
-45.3123130034523
20
15.0829347536586
30
0.000000000000000
11
-45.2123130034523
21
15.0677153219553
31
0.000000000000000
  0
LINE
  5
F109E0
330
F109E1
100
AcDbEntity
8
Geo
100
AcDbLine
10
-45.2123130034523
20
15.0677153219553
30
0.000000000000000
11
-45.1123130034523
21
15.0521789043809
31
0.000000000000000
  0
LINE
  5
F109E2
330
F109E3
100
AcDbEntity
8
Geo
100
AcDbLine
10
-45.1123130034523
20
15.0521789043809
30
0.000000000000000
11
-45.0123130034523
21
15.0363260188145
31
0.000000000000000
  0
LINE
  5
F109E4
330
F109E5
100
AcDbEntity
8
Geo
100
AcDbLine
10
-45.0123130034523
20
15.0363260188145
30
0.000000000000000
11
-44.9123130034523
21
15.0201571936843
31
0.000000000000000
  0
LINE
  5
F109E6
330
F109E7
100
AcDbEntity
8
Geo
100
AcDbLine
10
-44.9123130034523
20
15.0201571936843
30
0.000000000000000
11
-44.8123130034523
21
15.0036729679494
31
0.000000000000000
  0
LINE
  5
F109E8
330
F109E9
100
AcDbEntity
8
Geo
100
AcDbLine
10
-44.8123130034523
20
15.0036729679494
30
0.000000000000000
11
-44.7123130034523
21
14.9868738910827
31
0.000000000000000
  0
LINE
  5
F109EA
330
F109EB
100
AcDbEntity
8
Geo
100
AcDbLine
10
-44.7123130034523
20
14.9868738910827
30
0.000000000000000
11
-44.6123130034523
21
14.9697605230518
31
0.000000000000000
  0
LINE
  5
F109EC
330
F109ED
100
AcDbEntity
8
Geo
100
AcDbLine
10
-44.6123130034523
20
14.9697605230518
30
0.000000000000000
11
-44.5123130034523
21
14.9523334343006
31
0.000000000000000
  0
LINE
  5
F109EE
330
F109EF
100
AcDbEntity
8
Geo
100
AcDbLine
10
-44.5123130034523
20
14.9523334343006
30
0.000000000000000
11
-44.4123130034523
21
14.9345932057306
31
0.000000000000000
  0
LINE
  5
F109F0
330
F109F1
100
AcDbEntity
8
Geo
100
AcDbLine
10
-44.4123130034523
20
14.9345932057306
30
0.000000000000000
11
-44.3123130034523
21
14.9165404286810
31
0.000000000000000
  0
LINE
  5
F109F2
330
F109F3
100
AcDbEntity
8
Geo
100
AcDbLine
10
-44.3123130034523
20
14.9165404286810
30
0.000000000000000
11
-44.2123130034523
21
14.8981757049094
31
0.000000000000000
  0
LINE
  5
F109F4
330
F109F5
100
AcDbEntity
8
Geo
100
AcDbLine
10
-44.2123130034523
20
14.8981757049094
30
0.000000000000000
11
-44.1123130034523
21
14.8794996465716
31
0.000000000000000
  0
LINE
  5
F109F6
330
F109F7
100
AcDbEntity
8
Geo
100
AcDbLine
10
-44.1123130034523
20
14.8794996465716
30
0.000000000000000
11
-44.0123130034523
21
14.8605128762011
31
0.000000000000000
  0
LINE
  5
F109F8
330
F109F9
100
AcDbEntity
8
Geo
100
AcDbLine
10
-44.0123130034523
20
14.8605128762011
30
0.000000000000000
11
-43.9123130034523
21
14.8412160266885
31
0.000000000000000
  0
LINE
  5
F109FA
330
F109FB
100
AcDbEntity
8
Geo
100
AcDbLine
10
-43.9123130034523
20
14.8412160266885
30
0.000000000000000
11
-43.8123130034523
21
14.8216097412604
31
0.000000000000000
  0
LINE
  5
F109FC
330
F109FD
100
AcDbEntity
8
Geo
100
AcDbLine
10
-43.8123130034523
20
14.8216097412604
30
0.000000000000000
11
-43.7123130034523
21
14.8016946734577
31
0.000000000000000
  0
LINE
  5
F109FE
330
F109FF
100
AcDbEntity
8
Geo
100
AcDbLine
10
-43.7123130034523
20
14.8016946734577
30
0.000000000000000
11
-43.6123130034523
21
14.7814714871142
31
0.000000000000000
  0
LINE
  5
F10A00
330
F10A01
100
AcDbEntity
8
Geo
100
AcDbLine
10
-43.6123130034523
20
14.7814714871142
30
0.000000000000000
11
-43.5123130034523
21
14.7609408563343
31
0.000000000000000
  0
LINE
  5
F10A02
330
F10A03
100
AcDbEntity
8
Geo
100
AcDbLine
10
-43.5123130034523
20
14.7609408563343
30
0.000000000000000
11
-43.4123130034523
21
14.7401034654703
31
0.000000000000000
  0
LINE
  5
F10A04
330
F10A05
100
AcDbEntity
8
Geo
100
AcDbLine
10
-43.4123130034523
20
14.7401034654703
30
0.000000000000000
11
-43.3123130034523
21
14.7189600091002
31
0.000000000000000
  0
LINE
  5
F10A06
330
F10A07
100
AcDbEntity
8
Geo
100
AcDbLine
10
-43.3123130034523
20
14.7189600091002
30
0.000000000000000
11
-43.2123130034523
21
14.6975111920038
31
0.000000000000000
  0
LINE
  5
F10A08
330
F10A09
100
AcDbEntity
8
Geo
100
AcDbLine
10
-43.2123130034523
20
14.6975111920038
30
0.000000000000000
11
-43.1123130034523
21
14.6757577291396
31
0.000000000000000
  0
LINE
  5
F10A0A
330
F10A0B
100
AcDbEntity
8
Geo
100
AcDbLine
10
-43.1123130034523
20
14.6757577291396
30
0.000000000000000
11
-43.0123130034523
21
14.6537003456212
31
0.000000000000000
  0
LINE
  5
F10A0C
330
F10A0D
100
AcDbEntity
8
Geo
100
AcDbLine
10
-43.0123130034523
20
14.6537003456212
30
0.000000000000000
11
-42.9123130034523
21
14.6313397766925
31
0.000000000000000
  0
LINE
  5
F10A0E
330
F10A0F
100
AcDbEntity
8
Geo
100
AcDbLine
10
-42.9123130034523
20
14.6313397766925
30
0.000000000000000
11
-42.8123130034523
21
14.6086767677038
31
0.000000000000000
  0
LINE
  5
F10A10
330
F10A11
100
AcDbEntity
8
Geo
100
AcDbLine
10
-42.8123130034523
20
14.6086767677038
30
0.000000000000000
11
-42.7123130034523
21
14.5857120740866
31
0.000000000000000
  0
LINE
  5
F10A12
330
F10A13
100
AcDbEntity
8
Geo
100
AcDbLine
10
-42.7123130034523
20
14.5857120740866
30
0.000000000000000
11
-42.6123130034523
21
14.5624464613287
31
0.000000000000000
  0
LINE
  5
F10A14
330
F10A15
100
AcDbEntity
8
Geo
100
AcDbLine
10
-42.6123130034523
20
14.5624464613287
30
0.000000000000000
11
-42.5123130034523
21
14.5388807049482
31
0.000000000000000
  0
LINE
  5
F10A16
330
F10A17
100
AcDbEntity
8
Geo
100
AcDbLine
10
-42.5123130034523
20
14.5388807049482
30
0.000000000000000
11
-42.4123130034523
21
14.5150155904682
31
0.000000000000000
  0
LINE
  5
F10A18
330
F10A19
100
AcDbEntity
8
Geo
100
AcDbLine
10
-42.4123130034523
20
14.5150155904682
30
0.000000000000000
11
-42.3123130034523
21
14.4908519133903
31
0.000000000000000
  0
LINE
  5
F10A1A
330
F10A1B
100
AcDbEntity
8
Geo
100
AcDbLine
10
-42.3123130034523
20
14.4908519133903
30
0.000000000000000
11
-42.2123130034523
21
14.4663904791682
31
0.000000000000000
  0
LINE
  5
F10A1C
330
F10A1D
100
AcDbEntity
8
Geo
100
AcDbLine
10
-42.2123130034523
20
14.4663904791682
30
0.000000000000000
11
-42.1123130034523
21
14.4416321031807
31
0.000000000000000
  0
LINE
  5
F10A1E
330
F10A1F
100
AcDbEntity
8
Geo
100
AcDbLine
10
-42.1123130034523
20
14.4416321031807
30
0.000000000000000
11
-42.0123130034523
21
14.4165776107048
31
0.000000000000000
  0
LINE
  5
F10A20
330
F10A21
100
AcDbEntity
8
Geo
100
AcDbLine
10
-42.0123130034523
20
14.4165776107048
30
0.000000000000000
11
-41.9123130034523
21
14.3912278368878
31
0.000000000000000
  0
LINE
  5
F10A22
330
F10A23
100
AcDbEntity
8
Geo
100
AcDbLine
10
-41.9123130034523
20
14.3912278368878
30
0.000000000000000
11
-41.8123130034523
21
14.3655836267200
31
0.000000000000000
  0
LINE
  5
F10A24
330
F10A25
100
AcDbEntity
8
Geo
100
AcDbLine
10
-41.8123130034523
20
14.3655836267200
30
0.000000000000000
11
-41.7123130034523
21
14.3396458350058
31
0.000000000000000
  0
LINE
  5
F10A26
330
F10A27
100
AcDbEntity
8
Geo
100
AcDbLine
10
-41.7123130034523
20
14.3396458350058
30
0.000000000000000
11
-41.6123130034523
21
14.3134153263361
31
0.000000000000000
  0
LINE
  5
F10A28
330
F10A29
100
AcDbEntity
8
Geo
100
AcDbLine
10
-41.6123130034523
20
14.3134153263361
30
0.000000000000000
11
-41.5123130034523
21
14.2868929750586
31
0.000000000000000
  0
LINE
  5
F10A2A
330
F10A2B
100
AcDbEntity
8
Geo
100
AcDbLine
10
-41.5123130034523
20
14.2868929750586
30
0.000000000000000
11
-41.4123130034523
21
14.2600796652492
31
0.000000000000000
  0
LINE
  5
F10A2C
330
F10A2D
100
AcDbEntity
8
Geo
100
AcDbLine
10
-41.4123130034523
20
14.2600796652492
30
0.000000000000000
11
-41.3123130034523
21
14.2329762906826
31
0.000000000000000
  0
LINE
  5
F10A2E
330
F10A2F
100
AcDbEntity
8
Geo
100
AcDbLine
10
-41.3123130034523
20
14.2329762906826
30
0.000000000000000
11
-41.2123130034523
21
14.2055837548019
31
0.000000000000000
  0
LINE
  5
F10A30
330
F10A31
100
AcDbEntity
8
Geo
100
AcDbLine
10
-41.2123130034523
20
14.2055837548019
30
0.000000000000000
11
-41.1123130034523
21
14.1779029706892
31
0.000000000000000
  0
LINE
  5
F10A32
330
F10A33
100
AcDbEntity
8
Geo
100
AcDbLine
10
-41.1123130034523
20
14.1779029706892
30
0.000000000000000
11
-41.0123130034523
21
14.1499348610347
31
0.000000000000000
  0
LINE
  5
F10A34
330
F10A35
100
AcDbEntity
8
Geo
100
AcDbLine
10
-41.0123130034523
20
14.1499348610347
30
0.000000000000000
11
-40.9123130034523
21
14.1216803581061
31
0.000000000000000
  0
LINE
  5
F10A36
330
F10A37
100
AcDbEntity
8
Geo
100
AcDbLine
10
-40.9123130034523
20
14.1216803581061
30
0.000000000000000
11
-40.8123130034523
21
14.0931404037176
31
0.000000000000000
  0
LINE
  5
F10A38
330
F10A39
100
AcDbEntity
8
Geo
100
AcDbLine
10
-40.8123130034523
20
14.0931404037176
30
0.000000000000000
11
-40.7123130034523
21
14.0643159491985
31
0.000000000000000
  0
LINE
  5
F10A3A
330
F10A3B
100
AcDbEntity
8
Geo
100
AcDbLine
10
-40.7123130034523
20
14.0643159491985
30
0.000000000000000
11
-40.6123130034523
21
14.0352079553610
31
0.000000000000000
  0
LINE
  5
F10A3C
330
F10A3D
100
AcDbEntity
8
Geo
100
AcDbLine
10
-40.6123130034523
20
14.0352079553610
30
0.000000000000000
11
-40.5123130034523
21
14.0058173924691
31
0.000000000000000
  0
LINE
  5
F10A3E
330
F10A3F
100
AcDbEntity
8
Geo
100
AcDbLine
10
-40.5123130034523
20
14.0058173924691
30
0.000000000000000
11
-40.4123130034523
21
13.9761452402054
31
0.000000000000000
  0
LINE
  5
F10A40
330
F10A41
100
AcDbEntity
8
Geo
100
AcDbLine
10
-40.4123130034523
20
13.9761452402054
30
0.000000000000000
11
-40.3123130034523
21
13.9461924876389
31
0.000000000000000
  0
LINE
  5
F10A42
330
F10A43
100
AcDbEntity
8
Geo
100
AcDbLine
10
-40.3123130034523
20
13.9461924876389
30
0.000000000000000
11
-40.2123130034523
21
13.9159601331919
31
0.000000000000000
  0
LINE
  5
F10A44
330
F10A45
100
AcDbEntity
8
Geo
100
AcDbLine
10
-40.2123130034523
20
13.9159601331919
30
0.000000000000000
11
-40.1123130034523
21
13.8854491846068
31
0.000000000000000
  0
LINE
  5
F10A46
330
F10A47
100
AcDbEntity
8
Geo
100
AcDbLine
10
-40.1123130034523
20
13.8854491846068
30
0.000000000000000
11
-40.0123130034523
21
13.8546606589124
31
0.000000000000000
  0
LINE
  5
F10A48
330
F10A49
100
AcDbEntity
8
Geo
100
AcDbLine
10
-40.0123130034523
20
13.8546606589124
30
0.000000000000000
11
-39.9123130034523
21
13.8235955823900
31
0.000000000000000
  0
LINE
  5
F10A4A
330
F10A4B
100
AcDbEntity
8
Geo
100
AcDbLine
10
-39.9123130034523
20
13.8235955823900
30
0.000000000000000
11
-39.8123130034523
21
13.7922549905393
31
0.000000000000000
  0
LINE
  5
F10A4C
330
F10A4D
100
AcDbEntity
8
Geo
100
AcDbLine
10
-39.8123130034523
20
13.7922549905393
30
0.000000000000000
11
-39.7123130034523
21
13.7606399280437
31
0.000000000000000
  0
LINE
  5
F10A4E
330
F10A4F
100
AcDbEntity
8
Geo
100
AcDbLine
10
-39.7123130034523
20
13.7606399280437
30
0.000000000000000
11
-39.6123130034523
21
13.7287514487358
31
0.000000000000000
  0
LINE
  5
F10A50
330
F10A51
100
AcDbEntity
8
Geo
100
AcDbLine
10
-39.6123130034523
20
13.7287514487358
30
0.000000000000000
11
-39.5123130034523
21
13.6965906155620
31
0.000000000000000
  0
LINE
  5
F10A52
330
F10A53
100
AcDbEntity
8
Geo
100
AcDbLine
10
-39.5123130034523
20
13.6965906155620
30
0.000000000000000
11
-39.4123130034523
21
13.6641585005470
31
0.000000000000000
  0
LINE
  5
F10A54
330
F10A55
100
AcDbEntity
8
Geo
100
AcDbLine
10
-39.4123130034523
20
13.6641585005470
30
0.000000000000000
11
-39.3123130034523
21
13.6314561847582
31
0.000000000000000
  0
LINE
  5
F10A56
330
F10A57
100
AcDbEntity
8
Geo
100
AcDbLine
10
-39.3123130034523
20
13.6314561847582
30
0.000000000000000
11
-39.2123130034523
21
13.5984847582700
31
0.000000000000000
  0
LINE
  5
F10A58
330
F10A59
100
AcDbEntity
8
Geo
100
AcDbLine
10
-39.2123130034523
20
13.5984847582700
30
0.000000000000000
11
-39.1123130034523
21
13.5652453201268
31
0.000000000000000
  0
LINE
  5
F10A5A
330
F10A5B
100
AcDbEntity
8
Geo
100
AcDbLine
10
-39.1123130034523
20
13.5652453201268
30
0.000000000000000
11
-39.0123130034523
21
13.5317389783067
31
0.000000000000000
  0
LINE
  5
F10A5C
330
F10A5D
100
AcDbEntity
8
Geo
100
AcDbLine
10
-39.0123130034523
20
13.5317389783067
30
0.000000000000000
11
-38.9123130034523
21
13.4979668496847
31
0.000000000000000
  0
LINE
  5
F10A5E
330
F10A5F
100
AcDbEntity
8
Geo
100
AcDbLine
10
-38.9123130034523
20
13.4979668496847
30
0.000000000000000
11
-38.8123130034523
21
13.4639300599954
31
0.000000000000000
  0
LINE
  5
F10A60
330
F10A61
100
AcDbEntity
8
Geo
100
AcDbLine
10
-38.8123130034523
20
13.4639300599954
30
0.000000000000000
11
-38.7123130034523
21
13.4296297437952
31
0.000000000000000
  0
LINE
  5
F10A62
330
F10A63
100
AcDbEntity
8
Geo
100
AcDbLine
10
-38.7123130034523
20
13.4296297437952
30
0.000000000000000
11
-38.6123130034523
21
13.3950670444249
31
0.000000000000000
  0
LINE
  5
F10A64
330
F10A65
100
AcDbEntity
8
Geo
100
AcDbLine
10
-38.6123130034523
20
13.3950670444249
30
0.000000000000000
11
-38.5123130034523
21
13.3602431139711
31
0.000000000000000
  0
LINE
  5
F10A66
330
F10A67
100
AcDbEntity
8
Geo
100
AcDbLine
10
-38.5123130034523
20
13.3602431139711
30
0.000000000000000
11
-38.4123130034523
21
13.3251591132284
31
0.000000000000000
  0
LINE
  5
F10A68
330
F10A69
100
AcDbEntity
8
Geo
100
AcDbLine
10
-38.4123130034523
20
13.3251591132284
30
0.000000000000000
11
-38.3123130034523
21
13.2898162116602
31
0.000000000000000
  0
LINE
  5
F10A6A
330
F10A6B
100
AcDbEntity
8
Geo
100
AcDbLine
10
-38.3123130034523
20
13.2898162116602
30
0.000000000000000
11
-38.2123130034523
21
13.2542155873600
31
0.000000000000000
  0
LINE
  5
F10A6C
330
F10A6D
100
AcDbEntity
8
Geo
100
AcDbLine
10
-38.2123130034523
20
13.2542155873600
30
0.000000000000000
11
-38.1123130034523
21
13.2183584270119
31
0.000000000000000
  0
LINE
  5
F10A6E
330
F10A6F
100
AcDbEntity
8
Geo
100
AcDbLine
10
-38.1123130034523
20
13.2183584270119
30
0.000000000000000
11
-38.0123130034523
21
13.1822459258513
31
0.000000000000000
  0
LINE
  5
F10A70
330
F10A71
100
AcDbEntity
8
Geo
100
AcDbLine
10
-38.0123130034523
20
13.1822459258513
30
0.000000000000000
11
-37.9123130034523
21
13.1458792876248
31
0.000000000000000
  0
LINE
  5
F10A72
330
F10A73
100
AcDbEntity
8
Geo
100
AcDbLine
10
-37.9123130034523
20
13.1458792876248
30
0.000000000000000
11
-37.8123130034523
21
13.1092597245505
31
0.000000000000000
  0
LINE
  5
F10A74
330
F10A75
100
AcDbEntity
8
Geo
100
AcDbLine
10
-37.8123130034523
20
13.1092597245505
30
0.000000000000000
11
-37.7123130034523
21
13.0723884572770
31
0.000000000000000
  0
LINE
  5
F10A76
330
F10A77
100
AcDbEntity
8
Geo
100
AcDbLine
10
-37.7123130034523
20
13.0723884572770
30
0.000000000000000
11
-37.6123130034523
21
13.0352667148431
31
0.000000000000000
  0
LINE
  5
F10A78
330
F10A79
100
AcDbEntity
8
Geo
100
AcDbLine
10
-37.6123130034523
20
13.0352667148431
30
0.000000000000000
11
-37.5123130034523
21
12.9978957346368
31
0.000000000000000
  0
LINE
  5
F10A7A
330
F10A7B
100
AcDbEntity
8
Geo
100
AcDbLine
10
-37.5123130034523
20
12.9978957346368
30
0.000000000000000
11
-37.4123130034523
21
12.9602767623540
31
0.000000000000000
  0
LINE
  5
F10A7C
330
F10A7D
100
AcDbEntity
8
Geo
100
AcDbLine
10
-37.4123130034523
20
12.9602767623540
30
0.000000000000000
11
-37.3123130034523
21
12.9224110519569
31
0.000000000000000
  0
LINE
  5
F10A7E
330
F10A7F
100
AcDbEntity
8
Geo
100
AcDbLine
10
-37.3123130034523
20
12.9224110519569
30
0.000000000000000
11
-37.2123130034523
21
12.8842998656325
31
0.000000000000000
  0
LINE
  5
F10A80
330
F10A81
100
AcDbEntity
8
Geo
100
AcDbLine
10
-37.2123130034523
20
12.8842998656325
30
0.000000000000000
11
-37.1123130034523
21
12.8459444737500
31
0.000000000000000
  0
LINE
  5
F10A82
330
F10A83
100
AcDbEntity
8
Geo
100
AcDbLine
10
-37.1123130034523
20
12.8459444737500
30
0.000000000000000
11
-37.0123130034523
21
12.8073461548189
31
0.000000000000000
  0
LINE
  5
F10A84
330
F10A85
100
AcDbEntity
8
Geo
100
AcDbLine
10
-37.0123130034523
20
12.8073461548189
30
0.000000000000000
11
-36.9123130034523
21
12.7685061954463
31
0.000000000000000
  0
LINE
  5
F10A86
330
F10A87
100
AcDbEntity
8
Geo
100
AcDbLine
10
-36.9123130034523
20
12.7685061954463
30
0.000000000000000
11
-36.8123130034523
21
12.7294258902940
31
0.000000000000000
  0
LINE
  5
F10A88
330
F10A89
100
AcDbEntity
8
Geo
100
AcDbLine
10
-36.8123130034523
20
12.7294258902940
30
0.000000000000000
11
-36.7123130034523
21
12.6901065420351
31
0.000000000000000
  0
LINE
  5
F10A8A
330
F10A8B
100
AcDbEntity
8
Geo
100
AcDbLine
10
-36.7123130034523
20
12.6901065420351
30
0.000000000000000
11
-36.6123130034523
21
12.6505494613109
31
0.000000000000000
  0
LINE
  5
F10A8C
330
F10A8D
100
AcDbEntity
8
Geo
100
AcDbLine
10
-36.6123130034523
20
12.6505494613109
30
0.000000000000000
11
-36.5123130034523
21
12.6107559666872
31
0.000000000000000
  0
LINE
  5
F10A8E
330
F10A8F
100
AcDbEntity
8
Geo
100
AcDbLine
10
-36.5123130034523
20
12.6107559666872
30
0.000000000000000
11
-36.4123130034523
21
12.5707273846101
31
0.000000000000000
  0
LINE
  5
F10A90
330
F10A91
100
AcDbEntity
8
Geo
100
AcDbLine
10
-36.4123130034523
20
12.5707273846101
30
0.000000000000000
11
-36.3123130034523
21
12.5304650493619
31
0.000000000000000
  0
LINE
  5
F10A92
330
F10A93
100
AcDbEntity
8
Geo
100
AcDbLine
10
-36.3123130034523
20
12.5304650493619
30
0.000000000000000
11
-36.2123130034523
21
12.4899703030168
31
0.000000000000000
  0
LINE
  5
F10A94
330
F10A95
100
AcDbEntity
8
Geo
100
AcDbLine
10
-36.2123130034523
20
12.4899703030168
30
0.000000000000000
11
-36.1123130034523
21
12.4492444953958
31
0.000000000000000
  0
LINE
  5
F10A96
330
F10A97
100
AcDbEntity
8
Geo
100
AcDbLine
10
-36.1123130034523
20
12.4492444953958
30
0.000000000000000
11
-36.0123130034523
21
12.4082889840222
31
0.000000000000000
  0
LINE
  5
F10A98
330
F10A99
100
AcDbEntity
8
Geo
100
AcDbLine
10
-36.0123130034523
20
12.4082889840222
30
0.000000000000000
11
-35.9123130034523
21
12.3671051340758
31
0.000000000000000
  0
LINE
  5
F10A9A
330
F10A9B
100
AcDbEntity
8
Geo
100
AcDbLine
10
-35.9123130034523
20
12.3671051340758
30
0.000000000000000
11
-35.8123130034523
21
12.3256943183478
31
0.000000000000000
  0
LINE
  5
F10A9C
330
F10A9D
100
AcDbEntity
8
Geo
100
AcDbLine
10
-35.8123130034523
20
12.3256943183478
30
0.000000000000000
11
-35.7123130034523
21
12.2840579171950
31
0.000000000000000
  0
LINE
  5
F10A9E
330
F10A9F
100
AcDbEntity
8
Geo
100
AcDbLine
10
-35.7123130034523
20
12.2840579171950
30
0.000000000000000
11
-35.6123130034523
21
12.2421973184935
31
0.000000000000000
  0
LINE
  5
F10AA0
330
F10AA1
100
AcDbEntity
8
Geo
100
AcDbLine
10
-35.6123130034523
20
12.2421973184935
30
0.000000000000000
11
-35.5123130034523
21
12.2001139175927
31
0.000000000000000
  0
LINE
  5
F10AA2
330
F10AA3
100
AcDbEntity
8
Geo
100
AcDbLine
10
-35.5123130034523
20
12.2001139175927
30
0.000000000000000
11
-35.4123130034523
21
12.1578091172688
31
0.000000000000000
  0
LINE
  5
F10AA4
330
F10AA5
100
AcDbEntity
8
Geo
100
AcDbLine
10
-35.4123130034523
20
12.1578091172688
30
0.000000000000000
11
-35.3123130034523
21
12.1152843276778
31
0.000000000000000
  0
LINE
  5
F10AA6
330
F10AA7
100
AcDbEntity
8
Geo
100
AcDbLine
10
-35.3123130034523
20
12.1152843276778
30
0.000000000000000
11
-35.2123130034523
21
12.0725409663088
31
0.000000000000000
  0
LINE
  5
F10AA8
330
F10AA9
100
AcDbEntity
8
Geo
100
AcDbLine
10
-35.2123130034523
20
12.0725409663088
30
0.000000000000000
11
-35.1123130034523
21
12.0295804579366
31
0.000000000000000
  0
LINE
  5
F10AAA
330
F10AAB
100
AcDbEntity
8
Geo
100
AcDbLine
10
-35.1123130034523
20
12.0295804579366
30
0.000000000000000
11
-35.0123130034523
21
11.9864042345741
31
0.000000000000000
  0
LINE
  5
F10AAC
330
F10AAD
100
AcDbEntity
8
Geo
100
AcDbLine
10
-35.0123130034523
20
11.9864042345741
30
0.000000000000000
11
-34.9123130034523
21
11.9430137354247
31
0.000000000000000
  0
LINE
  5
F10AAE
330
F10AAF
100
AcDbEntity
8
Geo
100
AcDbLine
10
-34.9123130034523
20
11.9430137354247
30
0.000000000000000
11
-34.8123130034523
21
11.8994104068345
31
0.000000000000000
  0
LINE
  5
F10AB0
330
F10AB1
100
AcDbEntity
8
Geo
100
AcDbLine
10
-34.8123130034523
20
11.8994104068345
30
0.000000000000000
11
-34.7123130034523
21
11.8555957022437
31
0.000000000000000
  0
LINE
  5
F10AB2
330
F10AB3
100
AcDbEntity
8
Geo
100
AcDbLine
10
-34.7123130034523
20
11.8555957022437
30
0.000000000000000
11
-34.6123130034523
21
11.8115710821383
31
0.000000000000000
  0
LINE
  5
F10AB4
330
F10AB5
100
AcDbEntity
8
Geo
100
AcDbLine
10
-34.6123130034523
20
11.8115710821383
30
0.000000000000000
11
-34.5123130034523
21
11.7673380140017
31
0.000000000000000
  0
LINE
  5
F10AB6
330
F10AB7
100
AcDbEntity
8
Geo
100
AcDbLine
10
-34.5123130034523
20
11.7673380140017
30
0.000000000000000
11
-34.4123130034523
21
11.7228979722653
31
0.000000000000000
  0
LINE
  5
F10AB8
330
F10AB9
100
AcDbEntity
8
Geo
100
AcDbLine
10
-34.4123130034523
20
11.7228979722653
30
0.000000000000000
11
-34.3123130034523
21
11.6782524382597
31
0.000000000000000
  0
LINE
  5
F10ABA
330
F10ABB
100
AcDbEntity
8
Geo
100
AcDbLine
10
-34.3123130034523
20
11.6782524382597
30
0.000000000000000
11
-34.2123130034523
21
11.6334029001653
31
0.000000000000000
  0
LINE
  5
F10ABC
330
F10ABD
100
AcDbEntity
8
Geo
100
AcDbLine
10
-34.2123130034523
20
11.6334029001653
30
0.000000000000000
11
-34.1123130034523
21
11.5883508529626
31
0.000000000000000
  0
LINE
  5
F10ABE
330
F10ABF
100
AcDbEntity
8
Geo
100
AcDbLine
10
-34.1123130034523
20
11.5883508529626
30
0.000000000000000
11
-34.0123130034523
21
11.5430977983822
31
0.000000000000000
  0
LINE
  5
F10AC0
330
F10AC1
100
AcDbEntity
8
Geo
100
AcDbLine
10
-34.0123130034523
20
11.5430977983822
30
0.000000000000000
11
-33.9123130034523
21
11.4976452448551
31
0.000000000000000
  0
LINE
  5
F10AC2
330
F10AC3
100
AcDbEntity
8
Geo
100
AcDbLine
10
-33.9123130034523
20
11.4976452448551
30
0.000000000000000
11
-33.8123130034523
21
11.4519947074623
31
0.000000000000000
  0
LINE
  5
F10AC4
330
F10AC5
100
AcDbEntity
8
Geo
100
AcDbLine
10
-33.8123130034523
20
11.4519947074623
30
0.000000000000000
11
-33.7123130034523
21
11.4061477078841
31
0.000000000000000
  0
LINE
  5
F10AC6
330
F10AC7
100
AcDbEntity
8
Geo
100
AcDbLine
10
-33.7123130034523
20
11.4061477078841
30
0.000000000000000
11
-33.6123130034523
21
11.3601057743495
31
0.000000000000000
  0
LINE
  5
F10AC8
330
F10AC9
100
AcDbEntity
8
Geo
100
AcDbLine
10
-33.6123130034523
20
11.3601057743495
30
0.000000000000000
11
-33.5123130034523
21
11.3138704415855
31
0.000000000000000
  0
LINE
  5
F10ACA
330
F10ACB
100
AcDbEntity
8
Geo
100
AcDbLine
10
-33.5123130034523
20
11.3138704415855
30
0.000000000000000
11
-33.4123130034523
21
11.2674432507654
31
0.000000000000000
  0
LINE
  5
F10ACC
330
F10ACD
100
AcDbEntity
8
Geo
100
AcDbLine
10
-33.4123130034523
20
11.2674432507654
30
0.000000000000000
11
-33.3123130034523
21
11.2208257494581
31
0.000000000000000
  0
LINE
  5
F10ACE
330
F10ACF
100
AcDbEntity
8
Geo
100
AcDbLine
10
-33.3123130034523
20
11.2208257494581
30
0.000000000000000
11
-33.2123130034523
21
11.1740194915759
31
0.000000000000000
  0
LINE
  5
F10AD0
330
F10AD1
100
AcDbEntity
8
Geo
100
AcDbLine
10
-33.2123130034523
20
11.1740194915759
30
0.000000000000000
11
-33.1123130034523
21
11.1270260373231
31
0.000000000000000
  0
LINE
  5
F10AD2
330
F10AD3
100
AcDbEntity
8
Geo
100
AcDbLine
10
-33.1123130034523
20
11.1270260373231
30
0.000000000000000
11
-33.0123130034523
21
11.0798469531438
31
0.000000000000000
  0
LINE
  5
F10AD4
330
F10AD5
100
AcDbEntity
8
Geo
100
AcDbLine
10
-33.0123130034523
20
11.0798469531438
30
0.000000000000000
11
-32.9123130034523
21
11.0324838116697
31
0.000000000000000
  0
LINE
  5
F10AD6
330
F10AD7
100
AcDbEntity
8
Geo
100
AcDbLine
10
-32.9123130034523
20
11.0324838116697
30
0.000000000000000
11
-32.8123130034523
21
10.9849381916680
31
0.000000000000000
  0
LINE
  5
F10AD8
330
F10AD9
100
AcDbEntity
8
Geo
100
AcDbLine
10
-32.8123130034523
20
10.9849381916680
30
0.000000000000000
11
-32.7123130034523
21
10.9372116779881
31
0.000000000000000
  0
LINE
  5
F10ADA
330
F10ADB
100
AcDbEntity
8
Geo
100
AcDbLine
10
-32.7123130034523
20
10.9372116779881
30
0.000000000000000
11
-32.6123130034523
21
10.8893058615094
31
0.000000000000000
  0
LINE
  5
F10ADC
330
F10ADD
100
AcDbEntity
8
Geo
100
AcDbLine
10
-32.6123130034523
20
10.8893058615094
30
0.000000000000000
11
-32.5123130034523
21
10.8412223390881
31
0.000000000000000
  0
LINE
  5
F10ADE
330
F10ADF
100
AcDbEntity
8
Geo
100
AcDbLine
10
-32.5123130034523
20
10.8412223390881
30
0.000000000000000
11
-32.4123130034523
21
10.7929627135038
31
0.000000000000000
  0
LINE
  5
F10AE0
330
F10AE1
100
AcDbEntity
8
Geo
100
AcDbLine
10
-32.4123130034523
20
10.7929627135038
30
0.000000000000000
11
-32.3123130034523
21
10.7445285934062
31
0.000000000000000
  0
LINE
  5
F10AE2
330
F10AE3
100
AcDbEntity
8
Geo
100
AcDbLine
10
-32.3123130034523
20
10.7445285934062
30
0.000000000000000
11
-32.2123130034523
21
10.6959215932615
31
0.000000000000000
  0
LINE
  5
F10AE4
330
F10AE5
100
AcDbEntity
8
Geo
100
AcDbLine
10
-32.2123130034523
20
10.6959215932615
30
0.000000000000000
11
-32.1123130034523
21
10.6471433332985
31
0.000000000000000
  0
LINE
  5
F10AE6
330
F10AE7
100
AcDbEntity
8
Geo
100
AcDbLine
10
-32.1123130034523
20
10.6471433332985
30
0.000000000000000
11
-32.0123130034523
21
10.5981954394547
31
0.000000000000000
  0
LINE
  5
F10AE8
330
F10AE9
100
AcDbEntity
8
Geo
100
AcDbLine
10
-32.0123130034523
20
10.5981954394547
30
0.000000000000000
11
-31.9123130034523
21
10.5490795433220
31
0.000000000000000
  0
LINE
  5
F10AEA
330
F10AEB
100
AcDbEntity
8
Geo
100
AcDbLine
10
-31.9123130034523
20
10.5490795433220
30
0.000000000000000
11
-31.8123130034523
21
10.4997972820925
31
0.000000000000000
  0
LINE
  5
F10AEC
330
F10AED
100
AcDbEntity
8
Geo
100
AcDbLine
10
-31.8123130034523
20
10.4997972820925
30
0.000000000000000
11
-31.7123130034523
21
10.4503502985036
31
0.000000000000000
  0
LINE
  5
F10AEE
330
F10AEF
100
AcDbEntity
8
Geo
100
AcDbLine
10
-31.7123130034523
20
10.4503502985036
30
0.000000000000000
11
-31.6123130034523
21
10.4007402407834
31
0.000000000000000
  0
LINE
  5
F10AF0
330
F10AF1
100
AcDbEntity
8
Geo
100
AcDbLine
10
-31.6123130034523
20
10.4007402407834
30
0.000000000000000
11
-31.5123130034523
21
10.3509687625961
31
0.000000000000000
  0
LINE
  5
F10AF2
330
F10AF3
100
AcDbEntity
8
Geo
100
AcDbLine
10
-31.5123130034523
20
10.3509687625961
30
0.000000000000000
11
-31.4123130034523
21
10.3010375229863
31
0.000000000000000
  0
LINE
  5
F10AF4
330
F10AF5
100
AcDbEntity
8
Geo
100
AcDbLine
10
-31.4123130034523
20
10.3010375229863
30
0.000000000000000
11
-31.3123130034523
21
10.2509481863240
31
0.000000000000000
  0
LINE
  5
F10AF6
330
F10AF7
100
AcDbEntity
8
Geo
100
AcDbLine
10
-31.3123130034523
20
10.2509481863240
30
0.000000000000000
11
-31.2123130034523
21
10.2007024222490
31
0.000000000000000
  0
LINE
  5
F10AF8
330
F10AF9
100
AcDbEntity
8
Geo
100
AcDbLine
10
-31.2123130034523
20
10.2007024222490
30
0.000000000000000
11
-31.1123130034523
21
10.1503019056157
31
0.000000000000000
  0
LINE
  5
F10AFA
330
F10AFB
100
AcDbEntity
8
Geo
100
AcDbLine
10
-31.1123130034523
20
10.1503019056157
30
0.000000000000000
11
-31.0123130034523
21
10.0997483164365
31
0.000000000000000
  0
LINE
  5
F10AFC
330
F10AFD
100
AcDbEntity
8
Geo
100
AcDbLine
10
-31.0123130034523
20
10.0997483164365
30
0.000000000000000
11
-30.9123130034523
21
10.0490433398263
31
0.000000000000000
  0
LINE
  5
F10AFE
330
F10AFF
100
AcDbEntity
8
Geo
100
AcDbLine
10
-30.9123130034523
20
10.0490433398263
30
0.000000000000000
11
-30.8123130034523
21
9.99818866594647
31
0.000000000000000
  0
LINE
  5
F10B00
330
F10B01
100
AcDbEntity
8
Geo
100
AcDbLine
10
-30.8123130034523
20
9.99818866594647
30
0.000000000000000
11
-30.7123130034523
21
9.94718598994797
31
0.000000000000000
  0
LINE
  5
F10B02
330
F10B03
100
AcDbEntity
8
Geo
100
AcDbLine
10
-30.7123130034523
20
9.94718598994797
30
0.000000000000000
11
-30.6123130034523
21
9.89603701191532
31
0.000000000000000
  0
LINE
  5
F10B04
330
F10B05
100
AcDbEntity
8
Geo
100
AcDbLine
10
-30.6123130034523
20
9.89603701191532
30
0.000000000000000
11
-30.5123130034523
21
9.84474343680970
31
0.000000000000000
  0
LINE
  5
F10B06
330
F10B07
100
AcDbEntity
8
Geo
100
AcDbLine
10
-30.5123130034523
20
9.84474343680970
30
0.000000000000000
11
-30.4123130034523
21
9.79330697441220
31
0.000000000000000
  0
LINE
  5
F10B08
330
F10B09
100
AcDbEntity
8
Geo
100
AcDbLine
10
-30.4123130034523
20
9.79330697441220
30
0.000000000000000
11
-30.3123130034523
21
9.74172933926682
31
0.000000000000000
  0
LINE
  5
F10B0A
330
F10B0B
100
AcDbEntity
8
Geo
100
AcDbLine
10
-30.3123130034523
20
9.74172933926682
30
0.000000000000000
11
-30.2123130034523
21
9.69001225062328
31
0.000000000000000
  0
LINE
  5
F10B0C
330
F10B0D
100
AcDbEntity
8
Geo
100
AcDbLine
10
-30.2123130034523
20
9.69001225062328
30
0.000000000000000
11
-30.1123130034523
21
9.63815743237974
31
0.000000000000000
  0
LINE
  5
F10B0E
330
F10B0F
100
AcDbEntity
8
Geo
100
AcDbLine
10
-30.1123130034523
20
9.63815743237974
30
0.000000000000000
11
-30.0123130034523
21
9.58616661302535
31
0.000000000000000
  0
LINE
  5
F10B10
330
F10B11
100
AcDbEntity
8
Geo
100
AcDbLine
10
-30.0123130034523
20
9.58616661302535
30
0.000000000000000
11
-29.9123130034523
21
9.53404152558260
31
0.000000000000000
  0
LINE
  5
F10B12
330
F10B13
100
AcDbEntity
8
Geo
100
AcDbLine
10
-29.9123130034523
20
9.53404152558260
30
0.000000000000000
11
-29.8123130034523
21
9.48178390754958
31
0.000000000000000
  0
LINE
  5
F10B14
330
F10B15
100
AcDbEntity
8
Geo
100
AcDbLine
10
-29.8123130034523
20
9.48178390754958
30
0.000000000000000
11
-29.7123130034523
21
9.42939550084206
31
0.000000000000000
  0
LINE
  5
F10B16
330
F10B17
100
AcDbEntity
8
Geo
100
AcDbLine
10
-29.7123130034523
20
9.42939550084206
30
0.000000000000000
11
-29.6123130034523
21
9.37687805173540
31
0.000000000000000
  0
LINE
  5
F10B18
330
F10B19
100
AcDbEntity
8
Geo
100
AcDbLine
10
-29.6123130034523
20
9.37687805173540
30
0.000000000000000
11
-29.5123130034523
21
9.32423331080639
31
0.000000000000000
  0
LINE
  5
F10B1A
330
F10B1B
100
AcDbEntity
8
Geo
100
AcDbLine
10
-29.5123130034523
20
9.32423331080639
30
0.000000000000000
11
-29.4123130034523
21
9.27146303287484
31
0.000000000000000
  0
LINE
  5
F10B1C
330
F10B1D
100
AcDbEntity
8
Geo
100
AcDbLine
10
-29.4123130034523
20
9.27146303287484
30
0.000000000000000
11
-29.3123130034523
21
9.21856897694513
31
0.000000000000000
  0
LINE
  5
F10B1E
330
F10B1F
100
AcDbEntity
8
Geo
100
AcDbLine
10
-29.3123130034523
20
9.21856897694513
30
0.000000000000000
11
-29.2123130034523
21
9.16555290614756
31
0.000000000000000
  0
LINE
  5
F10B20
330
F10B21
100
AcDbEntity
8
Geo
100
AcDbLine
10
-29.2123130034523
20
9.16555290614756
30
0.000000000000000
11
-29.1123130034523
21
9.11241658767959
31
0.000000000000000
  0
LINE
  5
F10B22
330
F10B23
100
AcDbEntity
8
Geo
100
AcDbLine
10
-29.1123130034523
20
9.11241658767959
30
0.000000000000000
11
-29.0123130034523
21
9.05916179274691
31
0.000000000000000
  0
LINE
  5
F10B24
330
F10B25
100
AcDbEntity
8
Geo
100
AcDbLine
10
-29.0123130034523
20
9.05916179274691
30
0.000000000000000
11
-28.9123130034523
21
9.00579029650442
31
0.000000000000000
  0
LINE
  5
F10B26
330
F10B27
100
AcDbEntity
8
Geo
100
AcDbLine
10
-28.9123130034523
20
9.00579029650442
30
0.000000000000000
11
-28.8123130034523
21
8.95230387799705
31
0.000000000000000
  0
LINE
  5
F10B28
330
F10B29
100
AcDbEntity
8
Geo
100
AcDbLine
10
-28.8123130034523
20
8.95230387799705
30
0.000000000000000
11
-28.7123130034523
21
8.89870432010046
31
0.000000000000000
  0
LINE
  5
F10B2A
330
F10B2B
100
AcDbEntity
8
Geo
100
AcDbLine
10
-28.7123130034523
20
8.89870432010046
30
0.000000000000000
11
-28.6123130034523
21
8.84499340946163
31
0.000000000000000
  0
LINE
  5
F10B2C
330
F10B2D
100
AcDbEntity
8
Geo
100
AcDbLine
10
-28.6123130034523
20
8.84499340946163
30
0.000000000000000
11
-28.5123130034523
21
8.79117293643927
31
0.000000000000000
  0
LINE
  5
F10B2E
330
F10B2F
100
AcDbEntity
8
Geo
100
AcDbLine
10
-28.5123130034523
20
8.79117293643927
30
0.000000000000000
11
-28.4123130034523
21
8.73724469504416
31
0.000000000000000
  0
LINE
  5
F10B30
330
F10B31
100
AcDbEntity
8
Geo
100
AcDbLine
10
-28.4123130034523
20
8.73724469504416
30
0.000000000000000
11
-28.3123130034523
21
8.68321048287936
31
0.000000000000000
  0
LINE
  5
F10B32
330
F10B33
100
AcDbEntity
8
Geo
100
AcDbLine
10
44.7876869965477
20
14.5581127733027
30
0.000000000000000
11
44.7876869965477
21
5.55811277330265
31
0.000000000000000
  0
LINE
  5
F10B34
330
F10B35
100
AcDbEntity
8
Geo
100
AcDbLine
10
-48.2123130034523
20
5.55811277330265
30
0.000000000000000
11
-48.2123130034523
21
-4.44188722669735
31
0.000000000000000
  0
LINE
  5
F10B36
330
F10B37
100
AcDbEntity
8
Geo
100
AcDbLine
10
-48.2123130034523
20
-4.44188722669735
30
0.000000000000000
11
-23.2123130034523
21
-4.44188722669735
31
0.000000000000000
  0
LINE
  5
F10B38
330
F10B39
100
AcDbEntity
8
Geo
100
AcDbLine
10
-23.2123130034523
20
-4.44188722669735
30
0.000000000000000
11
43.7876869965477
21
-4.44188722669735
31
0.000000000000000
  0
LINE
  5
F10B3A
330
F10B3B
100
AcDbEntity
8
Geo
100
AcDbLine
10
43.7876869965477
20
-4.44188722669735
30
0.000000000000000
11
44.7876869965477
21
-3.44188722669735
31
0.000000000000000
  0
LINE
  5
F10B3C
330
F10B3D
100
AcDbEntity
8
Geo
100
AcDbLine
10
-48.2123130034523
20
15.5581127733027
30
0.000000000000000
11
-48.2123130034523
21
-4.44188722669735
31
0.000000000000000
  0
LINE
  5
F10B3E
330
F10B3F
100
AcDbEntity
8
Geo
100
AcDbLine
10
-23.2123130034523
20
15.5581127733027
30
0.000000000000000
11
-23.2123130034523
21
-4.44188722669735
31
0.000000000000000
  0
LINE
  5
F10B40
330
F10B41
100
AcDbEntity
8
Geo
100
AcDbLine
10
-23.2123130034523
20
15.5581127733027
30
0.000000000000000
11
-23.2123130034523
21
-4.44188722669735
31
0.000000000000000
  0
LINE
  5
F10B42
330
F10B43
100
AcDbEntity
8
Geo
100
AcDbLine
10
43.7876869965477
20
15.5581127733027
30
0.000000000000000
11
43.7876869965477
21
-4.44188722669735
31
0.000000000000000
  0
LINE
  5
F10B44
330
F10B45
100
AcDbEntity
8
Geo
100
AcDbLine
10
44.7876869965477
20
14.5581127733027
30
0.000000000000000
11
44.7876869965477
21
-3.44188722669735
31
0.000000000000000
  0
LINE
  5
F10B46
330
F10B47
100
AcDbEntity
8
Geo
 6
Dashdot
100
AcDbLine
10
-48.2123130034523
20
5.55811277330265
30
0.000000000000000
11
44.7876869965477
21
5.55811277330265
31
0.000000000000000
  0
LWPOLYLINE
  5
F10B48
330
F10B49
100
AcDbEntity
8
Rahmen
100
AcDbPolyline
90
   4
70
   1
43
   0.0
 10
-134.602991944764
 20
99.9252013808976
 10
143.302646720368
 20
99.9252013808976
 10
143.302646720368
 20
-100.166858457998
 10
-134.602991944764
 20
-100.166858457998
  0
TEXT
  5
F10B4A
330
F10B4B
 100
AcDbEntity
8
Text
100
AcDbText
10
-133.636363636364
20
-99.6668584579977
30
0.000000000000000
40
1.00000000000000
1
ISBESketcher - ©ISBE GmbH      lizensiert für: Schmid Werkzeuge
100
AcDbText
  0
LWPOLYLINE
  5
F10B4C
330
F10B4D
100
AcDbEntity
8
Rahmen
100
AcDbPolyline
90
   4
70
   1
43
   0.0
 10
103.429228998849
 20
-97.0253164556962
 10
143.302646720368
 20
-97.0253164556962
 10
143.302646720368
 20
-100.166858457998
 10
103.429228998849
 20
-100.166858457998
  0
TEXT
  5
F10B4E
330
F10B4F
 100
AcDbEntity
8
Text
100
AcDbText
10
104.500000000000
20
-99.4499424626007
30
0.000000000000000
40
1.50000000000000
1
Ers. durch:
100
AcDbText
  0
TEXT
  5
F10B50
330
F10B51
 100
AcDbEntity
8
Text
100
AcDbText
10
0.000000000000000
20
0.500000000000000
30
0.000000000000000
40
1.50000000000000
1

100
AcDbText
  0
LWPOLYLINE
  5
F10B52
330
F10B53
100
AcDbEntity
8
Rahmen
100
AcDbPolyline
90
   4
70
   1
43
   0.0
 10
63.3141542002302
 20
-97.0253164556962
 10
103.429228998849
 20
-97.0253164556962
 10
103.429228998849
 20
-100.166858457998
 10
63.3141542002302
 20
-100.166858457998
  0
TEXT
  5
F10B54
330
F10B55
 100
AcDbEntity
8
Text
100
AcDbText
10
64.5000000000000
20
-99.4499424626007
30
0.000000000000000
40
1.50000000000000
1
Ers. für:
100
AcDbText
  0
TEXT
  5
F10B56
330
F10B57
 100
AcDbEntity
8
Text
100
AcDbText
10
0.000000000000000
20
0.500000000000000
30
0.000000000000000
40
1.50000000000000
1

100
AcDbText
  0
LWPOLYLINE
  5
F10B58
330
F10B59
100
AcDbEntity
8
Rahmen
100
AcDbPolyline
90
   4
70
   1
43
   0.0
 10
130.011507479862
 20
-94.1254315304948
 10
143.302646720368
 20
-94.1254315304948
 10
143.302646720368
 20
-97.0253164556962
 10
130.011507479862
 20
-97.0253164556962
  0
TEXT
  5
F10B5A
330
F10B5B
 100
AcDbEntity
8
Text
100
AcDbText
10
131.166666666667
20
-96.4499424626007
30
0.000000000000000
40
1.50000000000000
1
Blätter
100
AcDbText
  0
TEXT
  5
F10B5C
330
F10B5D
 100
AcDbEntity
8
Text
100
AcDbText
10
0.000000000000000
20
0.500000000000000
30
0.000000000000000
40
1.50000000000000
1

100
AcDbText
  0
LWPOLYLINE
  5
F10B5E
330
F10B5F
100
AcDbEntity
8
Rahmen
100
AcDbPolyline
90
   4
70
   1
43
   0.0
 10
130.011507479862
 20
-91.2255466052934
 10
143.302646720368
 20
-91.2255466052934
 10
143.302646720368
 20
-94.1254315304948
 10
130.011507479862
 20
-94.1254315304948
  0
TEXT
  5
F10B60
330
F10B61
 100
AcDbEntity
8
Text
100
AcDbText
10
131.166666666667
20
-93.4499424626007
30
0.000000000000000
40
1.50000000000000
1
Blatt
100
AcDbText
  0
TEXT
  5
F10B62
330
F10B63
 100
AcDbEntity
8
Text
100
AcDbText
10
0.000000000000000
20
0.500000000000000
30
0.000000000000000
40
1.50000000000000
1

100
AcDbText
  0
LWPOLYLINE
  5
F10B64
330
F10B65
100
AcDbEntity
8
Rahmen
100
AcDbPolyline
90
   4
70
   1
43
   0.0
 10
63.3141542002302
 20
-91.2255466052934
 10
130.011507479862
 20
-91.2255466052934
 10
130.011507479862
 20
-97.0253164556962
 10
63.3141542002302
 20
-97.0253164556962
  0
TEXT
  5
F10B66
330
F10B67
 100
AcDbEntity
8
Text
100
AcDbText
10
64.5000000000000
20
-93.4499424626007
30
0.000000000000000
40
1.50000000000000
1
Datum:
100
AcDbText
  0
TEXT
  5
F10B68
330
F10B69
 100
AcDbEntity
8
Text
100
AcDbText
10
91.1543920214806
20
-96.4499424626007
30
0.000000000000000
40
1.50000000000000
1
14.05.2019
100
AcDbText
  0
LWPOLYLINE
  5
F10B6A
330
F10B6B
100
AcDbEntity
8
Rahmen
100
AcDbPolyline
90
   4
70
   1
43
   0.0
 10
63.3141542002302
 20
-85.1841196777906
 10
143.302646720368
 20
-85.1841196777906
 10
143.302646720368
 20
-91.2255466052934
 10
63.3141542002302
 20
-91.2255466052934
  0
TEXT
  5
F10B6C
330
F10B6D
 100
AcDbEntity
8
Text
100
AcDbText
10
0.000000000000000
20
0.500000000000000
30
0.000000000000000
40
1.50000000000000
1

100
AcDbText
  0
TEXT
  5
F10B6E
330
F10B6F
 100
AcDbEntity
8
Text
100
AcDbText
10
73.0512082853855
20
-89.7040659762179
30
0.000000000000000
40
2.50000000000000
1
VHM-Schlichtfräser 0140-200-b
100
AcDbText
  0
LWPOLYLINE
  5
F10B70
330
F10B71
100
AcDbEntity
8
Rahmen
100
AcDbPolyline
90
   4
70
   1
43
   0.0
 10
103.429228998849
 20
-79.1426927502877
 10
143.302646720368
 20
-79.1426927502877
 10
143.302646720368
 20
-85.1841196777906
 10
103.429228998849
 20
-85.1841196777906
  0
TEXT
  5
F10B72
330
F10B73
 100
AcDbEntity
8
Text
100
AcDbText
10
104.500000000000
20
-81.4499424626007
30
0.000000000000000
40
1.50000000000000
1
Zu bearb. Material:
100
AcDbText
  0
TEXT
  5
F10B74
330
F10B75
 100
AcDbEntity
8
Text
100
AcDbText
10
0.000000000000000
20
0.500000000000000
30
0.000000000000000
40
1.50000000000000
1

100
AcDbText
  0
LWPOLYLINE
  5
F10B76
330
F10B77
100
AcDbEntity
8
Rahmen
100
AcDbPolyline
90
   4
70
   1
43
   0.0
 10
63.3141542002302
 20
-79.1426927502877
 10
103.429228998849
 20
-79.1426927502877
 10
103.429228998849
 20
-85.1841196777906
 10
63.3141542002302
 20
-85.1841196777906
  0
TEXT
  5
F10B78
330
F10B79
 100
AcDbEntity
8
Text
100
AcDbText
10
64.5000000000000
20
-81.4499424626007
30
0.000000000000000
40
1.50000000000000
1
Werkstoff:
100
AcDbText
  0
TEXT
  5
F10B7A
330
F10B7B
 100
AcDbEntity
8
Text
100
AcDbText
10
80.9626006904488
20
-84.4499424626007
30
0.000000000000000
40
1.50000000000000
1
VHM
100
AcDbText
  0
LWPOLYLINE
  5
F10B7C
330
F10B7D
100
AcDbEntity
8
Rahmen
100
AcDbPolyline
90
   4
70
   1
43
   0.0
 10
103.429228998849
 20
-76.0011507479862
 10
143.302646720368
 20
-76.0011507479862
 10
143.302646720368
 20
-79.1426927502877
 10
103.429228998849
 20
-79.1426927502877
  0
TEXT
  5
F10B7E
330
F10B7F
 100
AcDbEntity
8
Text
100
AcDbText
10
0.000000000000000
20
0.500000000000000
30
0.000000000000000
40
1.50000000000000
1

100
AcDbText
  0
TEXT
  5
F10B80
330
F10B81
 100
AcDbEntity
8
Text
100
AcDbText
10
0.000000000000000
20
0.500000000000000
30
0.000000000000000
40
1.50000000000000
1

100
AcDbText
  0
LWPOLYLINE
  5
F10B82
330
F10B83
100
AcDbEntity
8
Rahmen
100
AcDbPolyline
90
   4
70
   1
43
   0.0
 10
63.3141542002302
 20
-76.0011507479862
 10
103.429228998849
 20
-76.0011507479862
 10
103.429228998849
 20
-79.1426927502877
 10
63.3141542002302
 20
-79.1426927502877
  0
TEXT
  5
F10B84
330
F10B85
 100
AcDbEntity
8
Text
100
AcDbText
10
64.5000000000000
20
-78.4499424626007
30
0.000000000000000
40
1.50000000000000
1
Maßstab:
100
AcDbText
  0
TEXT
  5
F10B86
330
F10B87
 100
AcDbEntity
8
Text
100
AcDbText
10
89.0834292289989
20
-78.4499424626007
30
0.000000000000000
40
1.50000000000000
1
1 : 1
100
AcDbText
0
VIEWPORT
5
294
102
{ACAD_XDICTIONARY
360
58A
102
}
330
25D
100
AcDbEntity
67
1
8
0
60
1
100
AcDbViewport
10
0.0
20
0.0
30
0.0
40
10.0
41
10.0
68
-1
69
1
12
0.0
22
0.0
13
0.0
23
0.0
14
1.0
24
1.0
15
0.0
25
0.0
16
0.0
26
0.0
36
1.0
17
0.0
27
0.0
37
0.0
42
0.0
43
0.0
44
0.0
45
10.0
50
0.0
51
0.0000000000007958
72
100
90
32800
1

281
0
71
0
74
0
110
0.0
120
0.0
130
0.0
111
1.0
121
0.0
131
0.0
112
0.0
122
1.0
132
0.0
79
0
146
0.0
1001
VD_INVISIBLE_NOT_FOR_READ
1000
VD_INVISIBLE_NOT_FOR_READ
0
VIEWPORT
5
295
102
{ACAD_XDICTIONARY
360
58C
102
}
330
25D
100
AcDbEntity
67
1
8
0
60
1
100
AcDbViewport
10
0.0
20
0.0
30
0.0
40
10.0
41
10.0
68
0
69
2
12
0.0
22
0.0
13
0.0
23
0.0
14
1.0
24
1.0
15
0.0
25
0.0
16
0.0
26
0.0
36
1.0
17
0.0
27
0.0
37
0.0
42
0.0
43
0.0
44
0.0
45
10.0
50
0.0
51
0.0000000000007958
72
100
90
163872
1

281
0
71
0
74
0
110
0.0
120
0.0
130
0.0
111
1.0
121
0.0
131
0.0
112
0.0
122
1.0
132
0.0
79
0
146
0.0
1001
VD_INVISIBLE_NOT_FOR_READ
1000
VD_INVISIBLE_NOT_FOR_READ
0
ENDSEC
0
SECTION
2
OBJECTS
0
DICTIONARY
5
13
330
0
100
AcDbDictionary
281
1
3
ACAD_COLOR
350
FA7
3
ACAD_GROUP
350
14
3
ACAD_LAYOUT
350
FCF
3
ACAD_MATERIAL
350
F7A
3
ACAD_MLEADERSTYLE
350
FCD
3
ACAD_MLINESTYLE
350
16
3
ACAD_PLOTSETTINGS
350
17
3
ACAD_PLOTSTYLENAME
350
18
3
ACAD_SCALELIST
350
FAB
3
ACAD_TABLESTYLE
350
FA8
3
ACAD_VISUALSTYLE
350
F93
3
ACDB_RECOMPOSE_DATA
350
107E
3
AcDbVariableDictionary
350
FF0
3
DWGPROPS
350
107F
0
DICTIONARY
5
F1000A
330
F10009
100
AcDbDictionary
280
1
281
1
3
ACAD_MTEXT_2008_RT
360
F1000B
0
DICTIONARY
5
F1000F
330
F1000E
100
AcDbDictionary
280
1
281
1
3
ACAD_MTEXT_2008_RT
360
F10010
0
DICTIONARY
5
F10005
330
F10004
100
AcDbDictionary
280
1
281
1
3
ACAD_MTEXT_2008_RT
360
F10006
0
DICTIONARY
5
F10014
330
F10013
100
AcDbDictionary
280
1
281
1
3
ACAD_MTEXT_2008_RT
360
F10015
0
DICTIONARY
5
FA7
102
{ACAD_REACTORS
330
13
102
}
330
13
100
AcDbDictionary
281
1
0
DICTIONARY
5
14
330
13
100
AcDbDictionary
281
1
0
DICTIONARY
5
FCF
102
{ACAD_REACTORS
330
13
102
}
330
13
100
AcDbDictionary
281
1
3
Layout1
350
FD1
3
Model
350
FD0
0
DICTIONARY
5
F7A
102
{ACAD_REACTORS
330
13
102
}
330
13
100
AcDbDictionary
281
1
3
ByBlock
350
F83
3
ByLayer
350
F7B
3
Global
350
F8B
0
DICTIONARY
5
FCD
102
{ACAD_REACTORS
330
13
102
}
330
13
100
AcDbDictionary
281
1
3
Standard
350
FCE
0
DICTIONARY
5
16
330
13
100
AcDbDictionary
281
1
3
Standard
350
FAA
0
DICTIONARY
5
17
102
{ACAD_REACTORS
330
13
102
}
330
13
100
AcDbDictionary
281
1
0
ACDBDICTIONARYWDFLT
5
18
102
{ACAD_REACTORS
330
13
102
}
330
13
100
AcDbDictionary
281
1
3
Normal
350
19
100
AcDbDictionaryWithDefault
340
19
0
DICTIONARY
5
FAB
102
{ACAD_REACTORS
330
13
102
}
330
13
100
AcDbDictionary
281
1
3
A0
350
FAC
3
A1
350
FAD
3
A2
350
FAE
3
A3
350
FAF
3
A4
350
FB0
3
A5
350
FB1
3
A6
350
FB2
3
A7
350
FB3
3
A8
350
FB4
3
A9
350
FB5
3
B0
350
FB6
3
B1
350
FB7
3
B2
350
FB8
3
B3
350
FB9
3
B4
350
FBA
3
B5
350
FBB
3
B6
350
FBC
3
B7
350
FBD
3
B8
350
FBE
3
B9
350
FBF
3
C0
350
FC0
3
C1
350
FC1
3
C2
350
FC2
3
C3
350
FC3
3
C4
350
FC4
3
C5
350
FC5
3
C6
350
FC6
3
C7
350
FC7
3
C8
350
FC8
3
C9
350
FC9
3
D0
350
FCA
3
D1
350
FCB
3
D2
350
FCC
0
DICTIONARY
5
FA8
102
{ACAD_REACTORS
330
13
102
}
330
13
100
AcDbDictionary
281
1
3
Standard
350
FA9
0
DICTIONARY
5
F93
102
{ACAD_REACTORS
330
13
102
}
330
13
100
AcDbDictionary
281
1
3
2dWireframe
350
F99
3
3D Hidden
350
F9B
3
3dWireframe
350
F9A
3
Basic
350
F98
3
Brighten
350
F9F
3
ColorChange
350
FA3
3
Conceptual
350
F9C
3
Dim
350
F9E
3
EdgeColorOff
350
FA6
3
Facepattern
350
FA2
3
Flat
350
F94
3
FlatWithEdges
350
F95
3
Gouraud
350
F96
3
GouraudWithEdges
350
F97
3
JitterOff
350
FA4
3
Linepattern
350
FA1
3
OverhangOff
350
FA5
3
Realistic
350
F9D
3
Thicken
350
FA0
0
XRECORD
5
107E
102
{ACAD_REACTORS
330
13
102
}
330
13
100
AcDbXrecord
280
1
90
1
330
FA9
330
F10009
330
F1000E
330
F10004
330
F10013
0
DICTIONARY
5
FF0
102
{ACAD_REACTORS
330
13
102
}
330
13
100
AcDbDictionary
281
1
3
CANNOSCALE
350
FF3
3
CMLEADERSTYLE
350
FF2
3
CTABLESTYLE
350
FF1
3
DIMASSOC
350
FF6
3
INDEXCTL
350
FF5
3
SORTENTS
350
FF4
3
XCLIPFRAME
350
1078
0
XRECORD
5
107F
102
{ACAD_REACTORS
330
13
102
}
330
13
100
AcDbXrecord
280
1
1
DWGPROPS COOKIE
2

3

4

6

7

8

9

300
=
301
=
302
=
303
=
304
=
305
=
306
=
307
=
308
=
309
=
40
0.0
41
0.0
42
0.0
1

90
0
0
XRECORD
5
F1000B
102
{ACAD_REACTORS
330
F1000A
102
}
330
F1000A
100
AcDbXrecord
280
1
40
48458.0
1
25
0
XRECORD
5
F10010
102
{ACAD_REACTORS
330
F1000F
102
}
330
F1000F
100
AcDbXrecord
280
1
40
48458.0
1
93
0
XRECORD
5
F10006
102
{ACAD_REACTORS
330
F10005
102
}
330
F10005
100
AcDbXrecord
280
1
40
48458.0
1
Ø20
0
XRECORD
5
F10015
102
{ACAD_REACTORS
330
F10014
102
}
330
F10014
100
AcDbXrecord
280
1
40
48458.0
1
Ø20
0
LAYOUT
5
FD1
102
{ACAD_XDICTIONARY
360
10A9
102
}
102
{ACAD_REACTORS
330
FCF
102
}
330
FCF
100
AcDbPlotSettings
1

2
Microsoft XPS Document Writer
4

6

40
0.0
41
0.0
42
0.0
43
0.0
44
0.0
45
0.0
46
0.0
47
0.0
48
0.0
49
0.0
140
0.0
141
0.0
142
1.0
143
1.0
70
688
72
0
73
0
74
5
7

75
16
147
1.0
148
0.0
149
0.0
100
AcDbLayout
1
Layout1
70
1
71
1
10
0.0
20
0.0
11
12.0
21
9.0
12
0.0
22
0.0
32
0.0
14
1.000000000000000E+20
24
1.000000000000000E+20
34
1.000000000000000E+20
15
-1.000000000000000E+20
25
-1.000000000000000E+20
35
-1.000000000000000E+20
146
0.0
13
0.0
23
0.0
33
0.0
16
1.0
26
0.0
36
0.0
17
0.0
27
1.0
37
0.0
76
0
330
25D
0
LAYOUT
5
FD0
102
{ACAD_XDICTIONARY
360
10A7
102
}
102
{ACAD_REACTORS
330
FCF
102
}
330
FCF
100
AcDbPlotSettings
1

2
Microsoft XPS Document Writer
4

6

40
0.0
41
0.0
42
0.0
43
0.0
44
0.0
45
0.0
46
0.0
47
0.0
48
0.0
49
0.0
140
0.0
141
0.0
142
1.0
143
1.0
70
1712
72
0
73
0
74
0
7

75
0
147
1.0
148
0.0
149
0.0
100
AcDbLayout
1
Model
70
1
71
0
10
0.0
20
0.0
11
12.0
21
9.0
12
0.0
22
0.0
32
0.0
14
0.0
24
0.0
34
0.0
15
0.0
25
0.0
35
0.0
146
0.0
13
0.0
23
0.0
33
0.0
16
1.0
26
0.0
36
0.0
17
0.0
27
1.0
37
0.0
76
0
330
261
331
26B
0
MATERIAL
5
F83
102
{ACAD_XDICTIONARY
360
F84
102
}
102
{ACAD_REACTORS
330
F7A
102
}
330
F7A
100
AcDbMaterial
1
ByBlock
72
0
43
0.0208333333333333
43
0.0
43
0.0
43
0.0
43
0.0
43
0.0208333333333333
43
0.0
43
0.0
43
0.0
43
0.0
43
1.0
43
0.0
43
0.0
43
0.0
43
0.0
43
1.0
77
0
47
0.0208333333333333
47
0.0
47
0.0
47
0.0
47
0.0
47
0.0208333333333333
47
0.0
47
0.0
47
0.0
47
0.0
47
1.0
47
0.0
47
0.0
47
0.0
47
0.0
47
1.0
171
0
49
0.0208333333333333
49
0.0
49
0.0
49
0.0
49
0.0
49
0.0208333333333333
49
0.0
49
0.0
49
0.0
49
0.0
49
1.0
49
0.0
49
0.0
49
0.0
49
0.0
49
1.0
175
0
142
0.0208333333333333
142
0.0
142
0.0
142
0.0
142
0.0
142
0.0208333333333333
142
0.0
142
0.0
142
0.0
142
0.0
142
1.0
142
0.0
142
0.0
142
0.0
142
0.0
142
1.0
179
0
144
0.0208333333333333
144
0.0
144
0.0
144
0.0
144
0.0
144
0.0208333333333333
144
0.0
144
0.0
144
0.0
144
0.0
144
1.0
144
0.0
144
0.0
144
0.0
144
0.0
144
1.0
147
0.0208333333333333
147
0.0
147
0.0
147
0.0
147
0.0
147
0.0208333333333333
147
0.0
147
0.0
147
0.0
147
0.0
147
1.0
147
0.0
147
0.0
147
0.0
147
0.0
147
1.0
0
MATERIAL
5
F7B
102
{ACAD_XDICTIONARY
360
F7C
102
}
102
{ACAD_REACTORS
330
F7A
102
}
330
F7A
100
AcDbMaterial
1
ByLayer
72
0
43
0.0208333333333333
43
0.0
43
0.0
43
0.0
43
0.0
43
0.0208333333333333
43
0.0
43
0.0
43
0.0
43
0.0
43
1.0
43
0.0
43
0.0
43
0.0
43
0.0
43
1.0
77
0
47
0.0208333333333333
47
0.0
47
0.0
47
0.0
47
0.0
47
0.0208333333333333
47
0.0
47
0.0
47
0.0
47
0.0
47
1.0
47
0.0
47
0.0
47
0.0
47
0.0
47
1.0
171
0
49
0.0208333333333333
49
0.0
49
0.0
49
0.0
49
0.0
49
0.0208333333333333
49
0.0
49
0.0
49
0.0
49
0.0
49
1.0
49
0.0
49
0.0
49
0.0
49
0.0
49
1.0
175
0
142
0.0208333333333333
142
0.0
142
0.0
142
0.0
142
0.0
142
0.0208333333333333
142
0.0
142
0.0
142
0.0
142
0.0
142
1.0
142
0.0
142
0.0
142
0.0
142
0.0
142
1.0
179
0
144
0.0208333333333333
144
0.0
144
0.0
144
0.0
144
0.0
144
0.0208333333333333
144
0.0
144
0.0
144
0.0
144
0.0
144
1.0
144
0.0
144
0.0
144
0.0
144
0.0
144
1.0
147
0.0208333333333333
147
0.0
147
0.0
147
0.0
147
0.0
147
0.0208333333333333
147
0.0
147
0.0
147
0.0
147
0.0
147
1.0
147
0.0
147
0.0
147
0.0
147
0.0
147
1.0
0
MATERIAL
5
F8B
102
{ACAD_XDICTIONARY
360
F8C
102
}
102
{ACAD_REACTORS
330
F7A
102
}
330
F7A
100
AcDbMaterial
1
Global
72
0
43
0.0208333333333333
43
0.0
43
0.0
43
0.0
43
0.0
43
0.0208333333333333
43
0.0
43
0.0
43
0.0
43
0.0
43
1.0
43
0.0
43
0.0
43
0.0
43
0.0
43
1.0
77
0
47
0.0208333333333333
47
0.0
47
0.0
47
0.0
47
0.0
47
0.0208333333333333
47
0.0
47
0.0
47
0.0
47
0.0
47
1.0
47
0.0
47
0.0
47
0.0
47
0.0
47
1.0
171
0
49
0.0208333333333333
49
0.0
49
0.0
49
0.0
49
0.0
49
0.0208333333333333
49
0.0
49
0.0
49
0.0
49
0.0
49
1.0
49
0.0
49
0.0
49
0.0
49
0.0
49
1.0
175
0
142
0.0208333333333333
142
0.0
142
0.0
142
0.0
142
0.0
142
0.0208333333333333
142
0.0
142
0.0
142
0.0
142
0.0
142
1.0
142
0.0
142
0.0
142
0.0
142
0.0
142
1.0
179
0
144
0.0208333333333333
144
0.0
144
0.0
144
0.0
144
0.0
144
0.0208333333333333
144
0.0
144
0.0
144
0.0
144
0.0
144
1.0
144
0.0
144
0.0
144
0.0
144
0.0
144
1.0
147
0.0208333333333333
147
0.0
147
0.0
147
0.0
147
0.0
147
0.0208333333333333
147
0.0
147
0.0
147
0.0
147
0.0
147
1.0
147
0.0
147
0.0
147
0.0
147
0.0
147
1.0
0
MLEADERSTYLE
5
FCE
102
{ACAD_REACTORS
330
FCD
102
}
330
FCD
100
AcDbMLeaderStyle
170
2
171
1
172
0
90
2
40
0.0
41
0.0
173
1
91
-1056964608
340
256
92
-2
290
1
42
0.09
291
1
43
0.36
3
Standard
44
0.18
300

342
253
174
1
178
6
175
1
176
0
93
-1056964608
45
0.18
292
0
297
0
46
0.18
94
-1056964608
47
1.0
49
1.0
140
1.0
293
1
141
0.0
294
1
177
0
142
1.0
295
0
296
0
143
0.125
1001
ACAD_MLEADERVER
1070
2
0
MLINESTYLE
5
FAA
102
{ACAD_REACTORS
330
16
102
}
330
16
100
AcDbMlineStyle
2
STANDARD
70
0
3

62
256
51
90.0
52
90.0
71
2
49
0.5
62
256
6
BYLAYER
49
-0.5
62
256
6
BYLAYER
0
ACDBPLACEHOLDER
5
19
102
{ACAD_REACTORS
330
18
102
}
330
18
0
SCALE
5
FAC
102
{ACAD_REACTORS
330
FAB
102
}
330
FAB
100
AcDbScale
70
0
300
1:1
140
1.0
141
1.0
290
1
0
SCALE
5
FAD
102
{ACAD_REACTORS
330
FAB
102
}
330
FAB
100
AcDbScale
70
0
300
1:2
140
1.0
141
2.0
290
0
0
SCALE
5
FAE
102
{ACAD_REACTORS
330
FAB
102
}
330
FAB
100
AcDbScale
70
0
300
1:4
140
1.0
141
4.0
290
0
0
SCALE
5
FAF
102
{ACAD_REACTORS
330
FAB
102
}
330
FAB
100
AcDbScale
70
0
300
1:5
140
1.0
141
5.0
290
0
0
SCALE
5
FB0
102
{ACAD_REACTORS
330
FAB
102
}
330
FAB
100
AcDbScale
70
0
300
1:8
140
1.0
141
8.0
290
0
0
SCALE
5
FB1
102
{ACAD_REACTORS
330
FAB
102
}
330
FAB
100
AcDbScale
70
0
300
1:10
140
1.0
141
10.0
290
0
0
SCALE
5
FB2
102
{ACAD_REACTORS
330
FAB
102
}
330
FAB
100
AcDbScale
70
0
300
1:16
140
1.0
141
16.0
290
0
0
SCALE
5
FB3
102
{ACAD_REACTORS
330
FAB
102
}
330
FAB
100
AcDbScale
70
0
300
1:20
140
1.0
141
20.0
290
0
0
SCALE
5
FB4
102
{ACAD_REACTORS
330
FAB
102
}
330
FAB
100
AcDbScale
70
0
300
1:30
140
1.0
141
30.0
290
0
0
SCALE
5
FB5
102
{ACAD_REACTORS
330
FAB
102
}
330
FAB
100
AcDbScale
70
0
300
1:40
140
1.0
141
40.0
290
0
0
SCALE
5
FB6
102
{ACAD_REACTORS
330
FAB
102
}
330
FAB
100
AcDbScale
70
0
300
1:50
140
1.0
141
50.0
290
0
0
SCALE
5
FB7
102
{ACAD_REACTORS
330
FAB
102
}
330
FAB
100
AcDbScale
70
0
300
1:100
140
1.0
141
100.0
290
0
0
SCALE
5
FB8
102
{ACAD_REACTORS
330
FAB
102
}
330
FAB
100
AcDbScale
70
0
300
2:1
140
2.0
141
1.0
290
0
0
SCALE
5
FB9
102
{ACAD_REACTORS
330
FAB
102
}
330
FAB
100
AcDbScale
70
0
300
4:1
140
4.0
141
1.0
290
0
0
SCALE
5
FBA
102
{ACAD_REACTORS
330
FAB
102
}
330
FAB
100
AcDbScale
70
0
300
8:1
140
8.0
141
1.0
290
0
0
SCALE
5
FBB
102
{ACAD_REACTORS
330
FAB
102
}
330
FAB
100
AcDbScale
70
0
300
10:1
140
10.0
141
1.0
290
0
0
SCALE
5
FBC
102
{ACAD_REACTORS
330
FAB
102
}
330
FAB
100
AcDbScale
70
0
300
100:1
140
100.0
141
1.0
290
0
0
SCALE
5
FBD
102
{ACAD_REACTORS
330
FAB
102
}
330
FAB
100
AcDbScale
70
0
300
1/128" = 1'-0"
140
0.0078125
141
12.0
290
0
0
SCALE
5
FBE
102
{ACAD_REACTORS
330
FAB
102
}
330
FAB
100
AcDbScale
70
0
300
1/64" = 1'-0"
140
0.015625
141
12.0
290
0
0
SCALE
5
FBF
102
{ACAD_REACTORS
330
FAB
102
}
330
FAB
100
AcDbScale
70
0
300
1/32" = 1'-0"
140
0.03125
141
12.0
290
0
0
SCALE
5
FC0
102
{ACAD_REACTORS
330
FAB
102
}
330
FAB
100
AcDbScale
70
0
300
1/16" = 1'-0"
140
0.0625
141
12.0
290
0
0
SCALE
5
FC1
102
{ACAD_REACTORS
330
FAB
102
}
330
FAB
100
AcDbScale
70
0
300
3/32" = 1'-0"
140
0.09375
141
12.0
290
0
0
SCALE
5
FC2
102
{ACAD_REACTORS
330
FAB
102
}
330
FAB
100
AcDbScale
70
0
300
1/8" = 1'-0"
140
0.125
141
12.0
290
0
0
SCALE
5
FC3
102
{ACAD_REACTORS
330
FAB
102
}
330
FAB
100
AcDbScale
70
0
300
3/16" = 1'-0"
140
0.1875
141
12.0
290
0
0
SCALE
5
FC4
102
{ACAD_REACTORS
330
FAB
102
}
330
FAB
100
AcDbScale
70
0
300
1/4" = 1'-0"
140
0.25
141
12.0
290
0
0
SCALE
5
FC5
102
{ACAD_REACTORS
330
FAB
102
}
330
FAB
100
AcDbScale
70
0
300
3/8" = 1'-0"
140
0.375
141
12.0
290
0
0
SCALE
5
FC6
102
{ACAD_REACTORS
330
FAB
102
}
330
FAB
100
AcDbScale
70
0
300
1/2" = 1'-0"
140
0.5
141
12.0
290
0
0
SCALE
5
FC7
102
{ACAD_REACTORS
330
FAB
102
}
330
FAB
100
AcDbScale
70
0
300
3/4" = 1'-0"
140
0.75
141
12.0
290
0
0
SCALE
5
FC8
102
{ACAD_REACTORS
330
FAB
102
}
330
FAB
100
AcDbScale
70
0
300
1" = 1'-0"
140
1.0
141
12.0
290
0
0
SCALE
5
FC9
102
{ACAD_REACTORS
330
FAB
102
}
330
FAB
100
AcDbScale
70
0
300
1-1/2" = 1'-0"
140
1.5
141
12.0
290
0
0
SCALE
5
FCA
102
{ACAD_REACTORS
330
FAB
102
}
330
FAB
100
AcDbScale
70
0
300
3" = 1'-0"
140
3.0
141
12.0
290
0
0
SCALE
5
FCB
102
{ACAD_REACTORS
330
FAB
102
}
330
FAB
100
AcDbScale
70
0
300
6" = 1'-0"
140
6.0
141
12.0
290
0
0
SCALE
5
FCC
102
{ACAD_REACTORS
330
FAB
102
}
330
FAB
100
AcDbScale
70
0
300
1'-0" = 1'-0"
140
12.0
141
12.0
290
0
0
TABLESTYLE
5
FA9
102
{ACAD_XDICTIONARY
360
FF8
102
}
102
{ACAD_REACTORS
330
FA8
102
}
330
FA8
100
AcDbTableStyle
3
Standard
70
0
71
0
40
0.06
41
0.06
280
0
281
0
7
Standard
140
0.18
170
2
62
0
63
7
283
0
274
-2
284
1
64
0
275
-2
285
1
65
0
276
-2
286
1
66
0
277
-2
287
1
67
0
278
-2
288
1
68
0
279
-2
289
1
69
0
7
Standard
140
0.25
170
5
62
0
63
7
283
0
274
-2
284
1
64
0
275
-2
285
1
65
0
276
-2
286
1
66
0
277
-2
287
1
67
0
278
-2
288
1
68
0
279
-2
289
1
69
0
7
Standard
140
0.18
170
5
62
0
63
7
283
0
274
-2
284
1
64
0
275
-2
285
1
65
0
276
-2
286
1
66
0
277
-2
287
1
67
0
278
-2
288
1
68
0
279
-2
289
1
69
0
0
VISUALSTYLE
5
F99
102
{ACAD_XDICTIONARY
360
108A
102
}
102
{ACAD_REACTORS
330
F93
102
}
330
F93
100
AcDbVisualStyle
2

70
4
71
0
72
2
73
0
90
0
40
-0.6
41
-30.0
62
5
63
7
74
1
91
4
64
7
65
257
75
1
175
1
42
1.0
92
0
66
257
43
1.0
76
1
77
6
78
2
67
7
79
5
170
0
171
0
290
0
174
0
93
1
44
0.0
173
0
291
0
45
0.0
1001
ACAD
1000
AcDbSavedByObjectVersion
1070
0
0
VISUALSTYLE
5
F9B
102
{ACAD_XDICTIONARY
360
108E
102
}
102
{ACAD_REACTORS
330
F93
102
}
330
F93
100
AcDbVisualStyle
2

70
6
71
1
72
2
73
2
90
0
40
-0.6
41
-30.0
62
5
63
7
74
2
91
2
64
7
65
257
75
2
175
1
42
179.0
92
0
66
257
43
1.0
76
1
77
6
78
2
67
7
79
3
170
0
171
0
290
0
174
0
93
1
44
0.0
173
0
291
0
45
0.0
1001
ACAD
1000
AcDbSavedByObjectVersion
1070
0
0
VISUALSTYLE
5
F9A
102
{ACAD_XDICTIONARY
360
108C
102
}
102
{ACAD_REACTORS
330
F93
102
}
330
F93
100
AcDbVisualStyle
2

70
5
71
0
72
2
73
0
90
0
40
-0.6
41
-30.0
62
5
63
7
74
1
91
4
64
7
65
257
75
1
175
1
42
1.0
92
0
66
257
43
1.0
76
1
77
6
78
2
67
7
79
5
170
0
171
0
290
0
174
0
93
1
44
0.0
173
0
291
0
45
0.0
1001
ACAD
1000
AcDbSavedByObjectVersion
1070
0
0
VISUALSTYLE
5
F98
102
{ACAD_XDICTIONARY
360
1088
102
}
102
{ACAD_REACTORS
330
F93
102
}
330
F93
100
AcDbVisualStyle
2

70
7
71
1
72
0
73
1
90
0
40
-0.6
41
-30.0
62
5
63
7
74
0
91
4
64
7
65
257
75
1
175
1
42
1.0
92
8
66
7
43
1.0
76
1
77
6
78
2
67
7
79
5
170
0
171
0
290
0
174
0
93
1
44
0.0
173
0
291
1
45
0.0
1001
ACAD
1000
AcDbSavedByObjectVersion
1070
0
0
VISUALSTYLE
5
F9F
102
{ACAD_XDICTIONARY
360
1096
102
}
102
{ACAD_REACTORS
330
F93
102
}
330
F93
100
AcDbVisualStyle
2

70
12
71
2
72
2
73
0
90
0
40
-0.6
41
-30.0
62
5
63
7
74
1
91
4
64
7
65
257
75
1
175
1
42
1.0
92
8
66
7
43
1.0
76
1
77
6
78
2
67
7
79
5
170
0
171
0
290
0
174
0
93
1
44
50.0
173
0
291
1
45
0.0
1001
ACAD
1000
AcDbSavedByObjectVersion
1070
0
0
VISUALSTYLE
5
FA3
102
{ACAD_XDICTIONARY
360
109E
102
}
102
{ACAD_REACTORS
330
F93
102
}
330
F93
100
AcDbVisualStyle
2

70
16
71
2
72
2
73
3
90
0
40
-0.6
41
-30.0
62
5
63
8
74
1
91
4
64
7
65
257
75
1
175
1
42
1.0
92
8
66
8
43
1.0
76
1
77
6
78
2
67
7
79
5
170
0
171
0
290
0
174
0
93
1
44
0.0
173
0
291
1
45
0.0
1001
ACAD
1000
AcDbSavedByObjectVersion
1070
0
0
VISUALSTYLE
5
F9C
102
{ACAD_XDICTIONARY
360
1090
102
}
102
{ACAD_REACTORS
330
F93
102
}
330
F93
100
AcDbVisualStyle
2

70
9
71
3
72
2
73
0
90
0
40
-0.6
41
-30.0
62
5
63
7
74
2
91
2
64
7
65
257
75
1
175
1
42
179.0
92
8
66
7
43
1.0
76
1
77
6
78
2
67
7
79
3
170
0
171
0
290
0
174
0
93
1
44
0.0
173
0
291
0
45
0.0
1001
ACAD
1000
AcDbSavedByObjectVersion
1070
0
0
VISUALSTYLE
5
F9E
102
{ACAD_XDICTIONARY
360
1094
102
}
102
{ACAD_REACTORS
330
F93
102
}
330
F93
100
AcDbVisualStyle
2

70
11
71
2
72
2
73
0
90
0
40
-0.6
41
-30.0
62
5
63
7
74
1
91
4
64
7
65
257
75
1
175
1
42
1.0
92
8
66
7
43
1.0
76
1
77
6
78
2
67
7
79
5
170
0
171
0
290
0
174
0
93
1
44
-50.0
173
0
291
1
45
0.0
1001
ACAD
1000
AcDbSavedByObjectVersion
1070
0
0
VISUALSTYLE
5
FA6
102
{ACAD_XDICTIONARY
360
10A4
102
}
102
{ACAD_REACTORS
330
F93
102
}
330
F93
100
AcDbVisualStyle
2

70
22
71
2
72
2
73
0
90
0
40
-0.6
41
-30.0
62
5
63
7
74
1
91
4
64
7
65
257
75
1
175
1
42
1.0
92
8
66
7
43
1.0
76
1
77
6
78
2
67
7
79
5
170
0
171
0
290
0
174
0
93
1
44
0.0
173
0
291
1
45
0.0
1001
ACAD
1000
AcDbSavedByObjectVersion
1070
0
0
VISUALSTYLE
5
FA2
102
{ACAD_XDICTIONARY
360
109C
102
}
102
{ACAD_REACTORS
330
F93
102
}
330
F93
100
AcDbVisualStyle
2

70
15
71
2
72
2
73
0
90
0
40
-0.6
41
-30.0
62
5
63
7
74
1
91
4
64
7
65
257
75
1
175
1
42
1.0
92
8
66
7
43
1.0
76
1
77
6
78
2
67
7
79
5
170
0
171
0
290
0
174
0
93
1
44
0.0
173
0
291
1
45
0.0
1001
ACAD
1000
AcDbSavedByObjectVersion
1070
0
0
VISUALSTYLE
5
F94
102
{ACAD_XDICTIONARY
360
1080
102
}
102
{ACAD_REACTORS
330
F93
102
}
330
F93
100
AcDbVisualStyle
2

70
0
71
2
72
1
73
1
90
2
40
-0.6
41
30.0
62
5
63
7
74
0
91
4
64
7
65
257
75
1
175
1
42
1.0
92
8
66
7
43
1.0
76
1
77
6
78
2
67
7
79
5
170
0
171
0
290
0
174
0
93
13
44
0.0
173
0
291
1
45
0.0
1001
ACAD
1000
AcDbSavedByObjectVersion
1070
0
0
VISUALSTYLE
5
F95
102
{ACAD_XDICTIONARY
360
1082
102
}
102
{ACAD_REACTORS
330
F93
102
}
330
F93
100
AcDbVisualStyle
2

70
1
71
2
72
1
73
1
90
2
40
-0.6
41
30.0
62
5
63
7
74
1
91
4
64
7
65
257
75
1
175
1
42
1.0
92
0
66
257
43
1.0
76
1
77
6
78
2
67
7
79
5
170
0
171
0
290
0
174
0
93
13
44
0.0
173
0
291
1
45
0.0
1001
ACAD
1000
AcDbSavedByObjectVersion
1070
0
0
VISUALSTYLE
5
F96
102
{ACAD_XDICTIONARY
360
1084
102
}
102
{ACAD_REACTORS
330
F93
102
}
330
F93
100
AcDbVisualStyle
2

70
2
71
2
72
2
73
1
90
2
40
-0.6
41
30.0
62
5
63
7
74
0
91
4
64
7
65
257
75
1
175
1
42
1.0
92
0
66
7
43
1.0
76
1
77
6
78
2
67
7
79
5
170
0
171
0
290
0
174
0
93
13
44
0.0
173
0
291
1
45
0.0
1001
ACAD
1000
AcDbSavedByObjectVersion
1070
0
0
VISUALSTYLE
5
F97
102
{ACAD_XDICTIONARY
360
1086
102
}
102
{ACAD_REACTORS
330
F93
102
}
330
F93
100
AcDbVisualStyle
2

70
3
71
2
72
2
73
1
90
2
40
-0.6
41
30.0
62
5
63
7
74
1
91
4
64
7
65
257
75
1
175
1
42
1.0
92
0
66
257
43
1.0
76
1
77
6
78
2
67
7
79
5
170
0
171
0
290
0
174
0
93
13
44
0.0
173
0
291
1
45
0.0
1001
ACAD
1000
AcDbSavedByObjectVersion
1070
0
0
VISUALSTYLE
5
FA4
102
{ACAD_XDICTIONARY
360
10A0
102
}
102
{ACAD_REACTORS
330
F93
102
}
330
F93
100
AcDbVisualStyle
2

70
20
71
2
72
2
73
0
90
0
40
-0.6
41
-30.0
62
5
63
7
74
1
91
4
64
7
65
257
75
1
175
1
42
1.0
92
10
66
7
43
1.0
76
1
77
6
78
2
67
7
79
5
170
0
171
0
290
0
174
0
93
1
44
0.0
173
0
291
1
45
0.0
1001
ACAD
1000
AcDbSavedByObjectVersion
1070
0
0
VISUALSTYLE
5
FA1
102
{ACAD_XDICTIONARY
360
109A
102
}
102
{ACAD_REACTORS
330
F93
102
}
330
F93
100
AcDbVisualStyle
2

70
14
71
2
72
2
73
0
90
0
40
-0.6
41
-30.0
62
5
63
7
74
1
91
4
64
7
65
257
75
7
175
7
42
1.0
92
8
66
7
43
1.0
76
1
77
6
78
2
67
7
79
5
170
0
171
0
290
0
174
0
93
1
44
0.0
173
0
291
1
45
0.0
1001
ACAD
1000
AcDbSavedByObjectVersion
1070
0
0
VISUALSTYLE
5
FA5
102
{ACAD_XDICTIONARY
360
10A2
102
}
102
{ACAD_REACTORS
330
F93
102
}
330
F93
100
AcDbVisualStyle
2

70
21
71
2
72
2
73
0
90
0
40
-0.6
41
-30.0
62
5
63
7
74
1
91
4
64
7
65
257
75
1
175
1
42
1.0
92
9
66
7
43
1.0
76
1
77
6
78
2
67
7
79
5
170
0
171
0
290
0
174
0
93
1
44
0.0
173
0
291
1
45
0.0
1001
ACAD
1000
AcDbSavedByObjectVersion
1070
0
0
VISUALSTYLE
5
F9D
102
{ACAD_XDICTIONARY
360
1092
102
}
102
{ACAD_REACTORS
330
F93
102
}
330
F93
100
AcDbVisualStyle
2

70
8
71
2
72
2
73
0
90
0
40
-0.6
41
-30.0
62
5
63
7
74
1
91
0
64
7
65
257
75
1
175
1
42
1.0
92
8
66
8
43
1.0
76
1
77
6
78
2
67
7
79
5
170
0
171
0
290
0
174
0
93
13
44
0.0
173
0
291
0
45
0.0
1001
ACAD
1000
AcDbSavedByObjectVersion
1070
0
0
VISUALSTYLE
5
FA0
102
{ACAD_XDICTIONARY
360
1098
102
}
102
{ACAD_REACTORS
330
F93
102
}
330
F93
100
AcDbVisualStyle
2

70
13
71
2
72
2
73
0
90
0
40
-0.6
41
-30.0
62
5
63
7
74
1
91
4
64
7
65
257
75
1
175
1
42
1.0
92
12
66
7
43
1.0
76
1
77
6
78
2
67
7
79
5
170
0
171
0
290
0
174
0
93
1
44
0.0
173
0
291
1
45
0.0
1001
ACAD
1000
AcDbSavedByObjectVersion
1070
0
0
DICTIONARYVAR
5
FF3
102
{ACAD_REACTORS
330
FF0
102
}
330
FF0
100
DictionaryVariables
280
0
1
1:1
0
DICTIONARYVAR
5
FF2
102
{ACAD_REACTORS
330
FF0
102
}
330
FF0
100
DictionaryVariables
280
0
1
STANDARD
0
DICTIONARYVAR
5
FF1
102
{ACAD_REACTORS
330
FF0
102
}
330
FF0
100
DictionaryVariables
280
0
1
STANDARD
0
DICTIONARYVAR
5
FF6
102
{ACAD_REACTORS
330
FF0
102
}
330
FF0
100
DictionaryVariables
280
0
1
1
0
DICTIONARYVAR
5
FF5
102
{ACAD_REACTORS
330
FF0
102
}
330
FF0
100
DictionaryVariables
280
0
1
0
0
DICTIONARYVAR
5
FF4
102
{ACAD_REACTORS
330
FF0
102
}
330
FF0
100
DictionaryVariables
280
0
1
127
0
DICTIONARYVAR
5
1078
102
{ACAD_REACTORS
330
FF0
102
}
330
FF0
100
DictionaryVariables
280
0
1
2
0
DICTIONARY
5
10A9
330
FD1
100
AcDbDictionary
280
1
281
1
3
ACAD_XREC_ROUNDTRIP
360
10AA
0
DICTIONARY
5
10A7
330
FD0
100
AcDbDictionary
280
1
281
1
3
ACAD_XREC_ROUNDTRIP
360
10A8
0
DICTIONARY
5
F84
330
F83
100
AcDbDictionary
280
1
281
1
3
ACAD_XREC_ROUNDTRIP
360
FFF
3
BUMPTILE
360
F86
3
DIFFUSETILE
360
F85
3
OPACITYTILE
360
F89
3
REFLECTIONTILE
360
F88
3
REFRACTIONTILE
360
F8A
3
SPECULARTILE
360
F87
0
DICTIONARY
5
F7C
330
F7B
100
AcDbDictionary
280
1
281
1
3
ACAD_XREC_ROUNDTRIP
360
FFE
3
BUMPTILE
360
F7E
3
DIFFUSETILE
360
F7D
3
OPACITYTILE
360
F81
3
REFLECTIONTILE
360
F80
3
REFRACTIONTILE
360
F82
3
SPECULARTILE
360
F7F
0
DICTIONARY
5
F8C
330
F8B
100
AcDbDictionary
280
1
281
1
3
ACAD_XREC_ROUNDTRIP
360
1000
3
BUMPTILE
360
F8E
3
DIFFUSETILE
360
F8D
3
OPACITYTILE
360
F91
3
REFLECTIONTILE
360
F90
3
REFRACTIONTILE
360
F92
3
SPECULARTILE
360
F8F
0
DICTIONARY
5
FF8
330
FA9
100
AcDbDictionary
280
1
281
1
3
ACAD_ROUNDTRIP_2008_TABLESTYLE_CELLSTYLEMAP
360
1079
3
ACAD_XREC_ROUNDTRIP
360
10A6
0
DICTIONARY
5
108A
330
F99
100
AcDbDictionary
280
1
281
1
3
ACAD_XREC_ROUNDTRIP
360
108B
0
DICTIONARY
5
108E
330
F9B
100
AcDbDictionary
280
1
281
1
3
ACAD_XREC_ROUNDTRIP
360
108F
0
DICTIONARY
5
108C
330
F9A
100
AcDbDictionary
280
1
281
1
3
ACAD_XREC_ROUNDTRIP
360
108D
0
DICTIONARY
5
1088
330
F98
100
AcDbDictionary
280
1
281
1
3
ACAD_XREC_ROUNDTRIP
360
1089
0
DICTIONARY
5
1096
330
F9F
100
AcDbDictionary
280
1
281
1
3
ACAD_XREC_ROUNDTRIP
360
1097
0
DICTIONARY
5
109E
330
FA3
100
AcDbDictionary
280
1
281
1
3
ACAD_XREC_ROUNDTRIP
360
109F
0
DICTIONARY
5
1090
330
F9C
100
AcDbDictionary
280
1
281
1
3
ACAD_XREC_ROUNDTRIP
360
1091
0
DICTIONARY
5
1094
330
F9E
100
AcDbDictionary
280
1
281
1
3
ACAD_XREC_ROUNDTRIP
360
1095
0
DICTIONARY
5
10A4
330
FA6
100
AcDbDictionary
280
1
281
1
3
ACAD_XREC_ROUNDTRIP
360
10A5
0
DICTIONARY
5
109C
330
FA2
100
AcDbDictionary
280
1
281
1
3
ACAD_XREC_ROUNDTRIP
360
109D
0
DICTIONARY
5
1080
330
F94
100
AcDbDictionary
280
1
281
1
3
ACAD_XREC_ROUNDTRIP
360
1081
0
DICTIONARY
5
1082
330
F95
100
AcDbDictionary
280
1
281
1
3
ACAD_XREC_ROUNDTRIP
360
1083
0
DICTIONARY
5
1084
330
F96
100
AcDbDictionary
280
1
281
1
3
ACAD_XREC_ROUNDTRIP
360
1085
0
DICTIONARY
5
1086
330
F97
100
AcDbDictionary
280
1
281
1
3
ACAD_XREC_ROUNDTRIP
360
1087
0
DICTIONARY
5
10A0
330
FA4
100
AcDbDictionary
280
1
281
1
3
ACAD_XREC_ROUNDTRIP
360
10A1
0
DICTIONARY
5
109A
330
FA1
100
AcDbDictionary
280
1
281
1
3
ACAD_XREC_ROUNDTRIP
360
109B
0
DICTIONARY
5
10A2
330
FA5
100
AcDbDictionary
280
1
281
1
3
ACAD_XREC_ROUNDTRIP
360
10A3
0
DICTIONARY
5
1092
330
F9D
100
AcDbDictionary
280
1
281
1
3
ACAD_XREC_ROUNDTRIP
360
1093
0
DICTIONARY
5
1098
330
FA0
100
AcDbDictionary
280
1
281
1
3
ACAD_XREC_ROUNDTRIP
360
1099
0
XRECORD
5
10AA
102
{ACAD_REACTORS
330
10A9
102
}
330
10A9
100
AcDbXrecord
280
1
102
SHADEPLOT
70
0
102
SHADEPLOTRESLEVEL
70
2
102
SHADEPLOTCUSTOMDPI
70
300
0
XRECORD
5
10A8
102
{ACAD_REACTORS
330
10A7
102
}
330
10A7
100
AcDbXrecord
280
1
102
SHADEPLOT
70
0
102
SHADEPLOTRESLEVEL
70
2
102
SHADEPLOTCUSTOMDPI
70
300
0
XRECORD
5
FFF
102
{ACAD_REACTORS
330
F84
102
}
330
F84
100
AcDbXrecord
280
1
102
MATERIAL
148
0.0
149
0.0
149
0.0
93
0
94
127
282
0
72
0
77
0
171
0
175
0
179
0
273
0
0
XRECORD
5
F86
102
{ACAD_REACTORS
330
F84
102
}
330
F84
100
AcDbXrecord
280
1
270
1
271
1
0
XRECORD
5
F85
102
{ACAD_REACTORS
330
F84
102
}
330
F84
100
AcDbXrecord
280
1
270
1
271
1
0
XRECORD
5
F89
102
{ACAD_REACTORS
330
F84
102
}
330
F84
100
AcDbXrecord
280
1
270
1
271
1
0
XRECORD
5
F88
102
{ACAD_REACTORS
330
F84
102
}
330
F84
100
AcDbXrecord
280
1
270
1
271
1
0
XRECORD
5
F8A
102
{ACAD_REACTORS
330
F84
102
}
330
F84
100
AcDbXrecord
280
1
270
1
271
1
0
XRECORD
5
F87
102
{ACAD_REACTORS
330
F84
102
}
330
F84
100
AcDbXrecord
280
1
270
1
271
1
0
XRECORD
5
FFE
102
{ACAD_REACTORS
330
F7C
102
}
330
F7C
100
AcDbXrecord
280
1
102
MATERIAL
148
0.0
149
0.0
149
0.0
93
0
94
127
282
0
72
0
77
0
171
0
175
0
179
0
273
0
0
XRECORD
5
F7E
102
{ACAD_REACTORS
330
F7C
102
}
330
F7C
100
AcDbXrecord
280
1
270
1
271
1
0
XRECORD
5
F7D
102
{ACAD_REACTORS
330
F7C
102
}
330
F7C
100
AcDbXrecord
280
1
270
1
271
1
0
XRECORD
5
F81
102
{ACAD_REACTORS
330
F7C
102
}
330
F7C
100
AcDbXrecord
280
1
270
1
271
1
0
XRECORD
5
F80
102
{ACAD_REACTORS
330
F7C
102
}
330
F7C
100
AcDbXrecord
280
1
270
1
271
1
0
XRECORD
5
F82
102
{ACAD_REACTORS
330
F7C
102
}
330
F7C
100
AcDbXrecord
280
1
270
1
271
1
0
XRECORD
5
F7F
102
{ACAD_REACTORS
330
F7C
102
}
330
F7C
100
AcDbXrecord
280
1
270
1
271
1
0
XRECORD
5
1000
102
{ACAD_REACTORS
330
F8C
102
}
330
F8C
100
AcDbXrecord
280
1
102
MATERIAL
148
0.0
149
0.0
149
0.0
93
0
94
127
282
0
72
0
77
0
171
0
175
0
179
0
273
0
0
XRECORD
5
F8E
102
{ACAD_REACTORS
330
F8C
102
}
330
F8C
100
AcDbXrecord
280
1
270
1
271
1
0
XRECORD
5
F8D
102
{ACAD_REACTORS
330
F8C
102
}
330
F8C
100
AcDbXrecord
280
1
270
1
271
1
0
XRECORD
5
F91
102
{ACAD_REACTORS
330
F8C
102
}
330
F8C
100
AcDbXrecord
280
1
270
1
271
1
0
XRECORD
5
F90
102
{ACAD_REACTORS
330
F8C
102
}
330
F8C
100
AcDbXrecord
280
1
270
1
271
1
0
XRECORD
5
F92
102
{ACAD_REACTORS
330
F8C
102
}
330
F8C
100
AcDbXrecord
280
1
270
1
271
1
0
XRECORD
5
F8F
102
{ACAD_REACTORS
330
F8C
102
}
330
F8C
100
AcDbXrecord
280
1
270
1
271
1
0
CELLSTYLEMAP
5
1079
102
{ACAD_REACTORS
330
FF8
102
}
330
FF8
100
AcDbCellStyleMap
90
3
300
CELLSTYLE
1
TABLEFORMAT_BEGIN
90
5
170
1
91
0
92
32768
62
257
93
1
300
CONTENTFORMAT
1
CONTENTFORMAT_BEGIN
90
0
91
0
92
512
93
0
300

40
0.0
140
1.0
94
5
62
0
340
253
144
0.25
309
CONTENTFORMAT_END
171
1
301
MARGIN
1
CELLMARGIN_BEGIN
40
0.06
40
0.06
40
0.06
40
0.06
40
0.18
40
0.18
309
CELLMARGIN_END
94
6
95
1
302
GRIDFORMAT
1
GRIDFORMAT_BEGIN
90
0
91
1
62
0
92
-2
340
0
93
0
40
0.045
309
GRIDFORMAT_END
95
2
302
GRIDFORMAT
1
GRIDFORMAT_BEGIN
90
0
91
1
62
0
92
-2
340
0
93
0
40
0.045
309
GRIDFORMAT_END
95
4
302
GRIDFORMAT
1
GRIDFORMAT_BEGIN
90
0
91
1
62
0
92
-2
340
0
93
0
40
0.045
309
GRIDFORMAT_END
95
8
302
GRIDFORMAT
1
GRIDFORMAT_BEGIN
90
0
91
1
62
0
92
-2
340
0
93
0
40
0.045
309
GRIDFORMAT_END
95
16
302
GRIDFORMAT
1
GRIDFORMAT_BEGIN
90
0
91
1
62
0
92
-2
340
0
93
0
40
0.045
309
GRIDFORMAT_END
95
32
302
GRIDFORMAT
1
GRIDFORMAT_BEGIN
90
0
91
1
62
0
92
-2
340
0
93
0
40
0.045
309
GRIDFORMAT_END
309
TABLEFORMAT_END
1
CELLSTYLE_BEGIN
90
1
91
1
300
_TITLE
309
CELLSTYLE_END
300
CELLSTYLE
1
TABLEFORMAT_BEGIN
90
5
170
1
91
0
92
0
62
257
93
1
300
CONTENTFORMAT
1
CONTENTFORMAT_BEGIN
90
0
91
0
92
512
93
0
300

40
0.0
140
1.0
94
5
62
0
340
253
144
0.18
309
CONTENTFORMAT_END
171
1
301
MARGIN
1
CELLMARGIN_BEGIN
40
0.06
40
0.06
40
0.06
40
0.06
40
0.18
40
0.18
309
CELLMARGIN_END
94
6
95
1
302
GRIDFORMAT
1
GRIDFORMAT_BEGIN
90
0
91
1
62
0
92
-2
340
0
93
0
40
0.045
309
GRIDFORMAT_END
95
2
302
GRIDFORMAT
1
GRIDFORMAT_BEGIN
90
0
91
1
62
0
92
-2
340
0
93
0
40
0.045
309
GRIDFORMAT_END
95
4
302
GRIDFORMAT
1
GRIDFORMAT_BEGIN
90
0
91
1
62
0
92
-2
340
0
93
0
40
0.045
309
GRIDFORMAT_END
95
8
302
GRIDFORMAT
1
GRIDFORMAT_BEGIN
90
0
91
1
62
0
92
-2
340
0
93
0
40
0.045
309
GRIDFORMAT_END
95
16
302
GRIDFORMAT
1
GRIDFORMAT_BEGIN
90
0
91
1
62
0
92
-2
340
0
93
0
40
0.045
309
GRIDFORMAT_END
95
32
302
GRIDFORMAT
1
GRIDFORMAT_BEGIN
90
0
91
1
62
0
92
-2
340
0
93
0
40
0.045
309
GRIDFORMAT_END
309
TABLEFORMAT_END
1
CELLSTYLE_BEGIN
90
2
91
1
300
_HEADER
309
CELLSTYLE_END
300
CELLSTYLE
1
TABLEFORMAT_BEGIN
90
5
170
1
91
0
92
0
62
257
93
1
300
CONTENTFORMAT
1
CONTENTFORMAT_BEGIN
90
0
91
0
92
512
93
0
300

40
0.0
140
1.0
94
2
62
0
340
253
144
0.18
309
CONTENTFORMAT_END
171
1
301
MARGIN
1
CELLMARGIN_BEGIN
40
0.06
40
0.06
40
0.06
40
0.06
40
0.18
40
0.18
309
CELLMARGIN_END
94
6
95
1
302
GRIDFORMAT
1
GRIDFORMAT_BEGIN
90
0
91
1
62
0
92
-2
340
0
93
0
40
0.045
309
GRIDFORMAT_END
95
2
302
GRIDFORMAT
1
GRIDFORMAT_BEGIN
90
0
91
1
62
0
92
-2
340
0
93
0
40
0.045
309
GRIDFORMAT_END
95
4
302
GRIDFORMAT
1
GRIDFORMAT_BEGIN
90
0
91
1
62
0
92
-2
340
0
93
0
40
0.045
309
GRIDFORMAT_END
95
8
302
GRIDFORMAT
1
GRIDFORMAT_BEGIN
90
0
91
1
62
0
92
-2
340
0
93
0
40
0.045
309
GRIDFORMAT_END
95
16
302
GRIDFORMAT
1
GRIDFORMAT_BEGIN
90
0
91
1
62
0
92
-2
340
0
93
0
40
0.045
309
GRIDFORMAT_END
95
32
302
GRIDFORMAT
1
GRIDFORMAT_BEGIN
90
0
91
1
62
0
92
-2
340
0
93
0
40
0.045
309
GRIDFORMAT_END
309
TABLEFORMAT_END
1
CELLSTYLE_BEGIN
90
3
91
2
300
_DATA
309
CELLSTYLE_END
0
XRECORD
5
10A6
102
{ACAD_REACTORS
330
FF8
102
}
330
FF8
100
AcDbXrecord
280
1
102
ACAD_ROUNDTRIP_PRE2007_TABLESTYLE
90
512
91
0
1

92
512
93
0
2

94
512
95
0
3

0
XRECORD
5
108B
102
{ACAD_REACTORS
330
108A
102
}
330
108A
100
AcDbXrecord
280
1
102
RTVSPropertyOp0
70
1
102
RTVSPropertyOp1
70
1
102
RTVSPropertyOp2
70
1
102
RTVSPropertyOp3
70
1
102
RTVSPropertyOp4
70
1
102
RTVSPropertyOp5
70
1
102
RTVSPropertyOp6
70
1
102
RTVSPropertyOp7
70
1
102
RTVSPropertyOp8
70
1
102
RTVSPropertyOp9
70
1
102
RTVSPropertyOp10
70
1
102
RTVSPropertyOp11
70
1
102
RTVSPropertyOp12
70
1
102
RTVSPropertyOp13
70
1
102
RTVSPropertyOp14
70
1
102
RTVSPropertyOp15
70
1
102
RTVSPropertyOp16
70
1
102
RTVSPropertyOp17
70
1
102
RTVSPropertyOp18
70
1
102
RTVSPropertyOp19
70
1
102
RTVSPropertyOp20
70
1
102
RTVSPropertyOp21
70
1
102
RTVSPropertyOp22
70
1
102
RTVSPropertyOp23
70
1
102
RTVSPropertyOp24
70
1
102
RTVSPropertyOp25
70
1
102
RTVSPropertyOp26
70
1
102
RTVSPropertyOp27
70
1
0
XRECORD
5
108F
102
{ACAD_REACTORS
330
108E
102
}
330
108E
100
AcDbXrecord
280
1
102
RTVSPropertyOp0
70
1
102
RTVSPropertyOp1
70
1
102
RTVSPropertyOp2
70
1
102
RTVSPropertyOp3
70
1
102
RTVSPropertyOp4
70
1
102
RTVSPropertyOp5
70
1
102
RTVSPropertyOp6
70
1
102
RTVSPropertyOp7
70
1
102
RTVSPropertyOp8
70
1
102
RTVSPropertyOp9
70
1
102
RTVSPropertyOp10
70
1
102
RTVSPropertyOp11
70
1
102
RTVSPropertyOp12
70
1
102
RTVSPropertyOp13
70
1
102
RTVSPropertyOp14
70
1
102
RTVSPropertyOp15
70
1
102
RTVSPropertyOp16
70
1
102
RTVSPropertyOp17
70
1
102
RTVSPropertyOp18
70
1
102
RTVSPropertyOp19
70
1
102
RTVSPropertyOp20
70
1
102
RTVSPropertyOp21
70
1
102
RTVSPropertyOp22
70
1
102
RTVSPropertyOp23
70
1
102
RTVSPropertyOp24
70
1
102
RTVSPropertyOp25
70
1
102
RTVSPropertyOp26
70
1
102
RTVSPropertyOp27
70
1
0
XRECORD
5
108D
102
{ACAD_REACTORS
330
108C
102
}
330
108C
100
AcDbXrecord
280
1
102
RTVSPropertyOp0
70
1
102
RTVSPropertyOp1
70
1
102
RTVSPropertyOp2
70
1
102
RTVSPropertyOp3
70
1
102
RTVSPropertyOp4
70
1
102
RTVSPropertyOp5
70
1
102
RTVSPropertyOp6
70
1
102
RTVSPropertyOp7
70
1
102
RTVSPropertyOp8
70
1
102
RTVSPropertyOp9
70
1
102
RTVSPropertyOp10
70
1
102
RTVSPropertyOp11
70
1
102
RTVSPropertyOp12
70
1
102
RTVSPropertyOp13
70
1
102
RTVSPropertyOp14
70
1
102
RTVSPropertyOp15
70
1
102
RTVSPropertyOp16
70
1
102
RTVSPropertyOp17
70
1
102
RTVSPropertyOp18
70
1
102
RTVSPropertyOp19
70
1
102
RTVSPropertyOp20
70
1
102
RTVSPropertyOp21
70
1
102
RTVSPropertyOp22
70
1
102
RTVSPropertyOp23
70
1
102
RTVSPropertyOp24
70
1
102
RTVSPropertyOp25
70
1
102
RTVSPropertyOp26
70
1
102
RTVSPropertyOp27
70
1
0
XRECORD
5
1089
102
{ACAD_REACTORS
330
1088
102
}
330
1088
100
AcDbXrecord
280
1
102
RTVSPropertyOp0
70
1
102
RTVSPropertyOp1
70
1
102
RTVSPropertyOp2
70
1
102
RTVSPropertyOp3
70
1
102
RTVSPropertyOp4
70
1
102
RTVSPropertyOp5
70
1
102
RTVSPropertyOp6
70
1
102
RTVSPropertyOp7
70
1
102
RTVSPropertyOp8
70
1
102
RTVSPropertyOp9
70
1
102
RTVSPropertyOp10
70
1
102
RTVSPropertyOp11
70
1
102
RTVSPropertyOp12
70
1
102
RTVSPropertyOp13
70
1
102
RTVSPropertyOp14
70
1
102
RTVSPropertyOp15
70
1
102
RTVSPropertyOp16
70
1
102
RTVSPropertyOp17
70
1
102
RTVSPropertyOp18
70
1
102
RTVSPropertyOp19
70
1
102
RTVSPropertyOp20
70
1
102
RTVSPropertyOp21
70
1
102
RTVSPropertyOp22
70
1
102
RTVSPropertyOp23
70
1
102
RTVSPropertyOp24
70
1
102
RTVSPropertyOp25
70
1
102
RTVSPropertyOp26
70
1
102
RTVSPropertyOp27
70
1
0
XRECORD
5
1097
102
{ACAD_REACTORS
330
1096
102
}
330
1096
100
AcDbXrecord
280
1
102
RTVSPropertyOp0
70
1
102
RTVSPropertyOp1
70
1
102
RTVSPropertyOp2
70
1
102
RTVSPropertyOp3
70
1
102
RTVSPropertyOp4
70
1
102
RTVSPropertyOp5
70
1
102
RTVSPropertyOp6
70
1
102
RTVSPropertyOp7
70
1
102
RTVSPropertyOp8
70
1
102
RTVSPropertyOp9
70
1
102
RTVSPropertyOp10
70
1
102
RTVSPropertyOp11
70
1
102
RTVSPropertyOp12
70
1
102
RTVSPropertyOp13
70
1
102
RTVSPropertyOp14
70
1
102
RTVSPropertyOp15
70
1
102
RTVSPropertyOp16
70
1
102
RTVSPropertyOp17
70
1
102
RTVSPropertyOp18
70
1
102
RTVSPropertyOp19
70
1
102
RTVSPropertyOp20
70
1
102
RTVSPropertyOp21
70
1
102
RTVSPropertyOp22
70
1
102
RTVSPropertyOp23
70
1
102
RTVSPropertyOp24
70
1
102
RTVSPropertyOp25
70
1
102
RTVSPropertyOp26
70
1
102
RTVSPropertyOp27
70
1
0
XRECORD
5
109F
102
{ACAD_REACTORS
330
109E
102
}
330
109E
100
AcDbXrecord
280
1
102
RTVSPropertyOp0
70
1
102
RTVSPropertyOp1
70
1
102
RTVSPropertyOp2
70
1
102
RTVSPropertyOp3
70
1
102
RTVSPropertyOp4
70
1
102
RTVSPropertyOp5
70
1
102
RTVSPropertyOp6
70
1
102
RTVSPropertyOp7
70
1
102
RTVSPropertyOp8
70
1
102
RTVSPropertyOp9
70
1
102
RTVSPropertyOp10
70
1
102
RTVSPropertyOp11
70
1
102
RTVSPropertyOp12
70
1
102
RTVSPropertyOp13
70
1
102
RTVSPropertyOp14
70
1
102
RTVSPropertyOp15
70
1
102
RTVSPropertyOp16
70
1
102
RTVSPropertyOp17
70
1
102
RTVSPropertyOp18
70
1
102
RTVSPropertyOp19
70
1
102
RTVSPropertyOp20
70
1
102
RTVSPropertyOp21
70
1
102
RTVSPropertyOp22
70
1
102
RTVSPropertyOp23
70
1
102
RTVSPropertyOp24
70
1
102
RTVSPropertyOp25
70
1
102
RTVSPropertyOp26
70
1
102
RTVSPropertyOp27
70
1
0
XRECORD
5
1091
102
{ACAD_REACTORS
330
1090
102
}
330
1090
100
AcDbXrecord
280
1
102
RTVSPropertyOp0
70
1
102
RTVSPropertyOp1
70
1
102
RTVSPropertyOp2
70
1
102
RTVSPropertyOp3
70
1
102
RTVSPropertyOp4
70
1
102
RTVSPropertyOp5
70
1
102
RTVSPropertyOp6
70
1
102
RTVSPropertyOp7
70
1
102
RTVSPropertyOp8
70
1
102
RTVSPropertyOp9
70
1
102
RTVSPropertyOp10
70
1
102
RTVSPropertyOp11
70
1
102
RTVSPropertyOp12
70
1
102
RTVSPropertyOp13
70
1
102
RTVSPropertyOp14
70
1
102
RTVSPropertyOp15
70
1
102
RTVSPropertyOp16
70
1
102
RTVSPropertyOp17
70
1
102
RTVSPropertyOp18
70
1
102
RTVSPropertyOp19
70
1
102
RTVSPropertyOp20
70
1
102
RTVSPropertyOp21
70
1
102
RTVSPropertyOp22
70
1
102
RTVSPropertyOp23
70
1
102
RTVSPropertyOp24
70
1
102
RTVSPropertyOp25
70
1
102
RTVSPropertyOp26
70
1
102
RTVSPropertyOp27
70
1
0
XRECORD
5
1095
102
{ACAD_REACTORS
330
1094
102
}
330
1094
100
AcDbXrecord
280
1
102
RTVSPropertyOp0
70
1
102
RTVSPropertyOp1
70
1
102
RTVSPropertyOp2
70
1
102
RTVSPropertyOp3
70
1
102
RTVSPropertyOp4
70
1
102
RTVSPropertyOp5
70
1
102
RTVSPropertyOp6
70
1
102
RTVSPropertyOp7
70
1
102
RTVSPropertyOp8
70
1
102
RTVSPropertyOp9
70
1
102
RTVSPropertyOp10
70
1
102
RTVSPropertyOp11
70
1
102
RTVSPropertyOp12
70
1
102
RTVSPropertyOp13
70
1
102
RTVSPropertyOp14
70
1
102
RTVSPropertyOp15
70
1
102
RTVSPropertyOp16
70
1
102
RTVSPropertyOp17
70
1
102
RTVSPropertyOp18
70
1
102
RTVSPropertyOp19
70
1
102
RTVSPropertyOp20
70
1
102
RTVSPropertyOp21
70
1
102
RTVSPropertyOp22
70
1
102
RTVSPropertyOp23
70
1
102
RTVSPropertyOp24
70
1
102
RTVSPropertyOp25
70
1
102
RTVSPropertyOp26
70
1
102
RTVSPropertyOp27
70
1
0
XRECORD
5
10A5
102
{ACAD_REACTORS
330
10A4
102
}
330
10A4
100
AcDbXrecord
280
1
102
RTVSPropertyOp0
70
0
102
RTVSPropertyOp1
70
0
102
RTVSPropertyOp2
70
0
102
RTVSPropertyOp3
70
0
102
RTVSPropertyOp4
70
0
102
RTVSPropertyOp5
70
0
102
RTVSPropertyOp6
70
0
102
RTVSPropertyOp7
70
0
102
RTVSPropertyOp8
70
0
102
RTVSPropertyOp9
70
0
102
RTVSPropertyOp10
70
0
102
RTVSPropertyOp11
70
0
102
RTVSPropertyOp12
70
0
102
RTVSPropertyOp13
70
0
102
RTVSPropertyOp14
70
2
102
RTVSPropertyOp15
70
0
102
RTVSPropertyOp16
70
0
102
RTVSPropertyOp17
70
0
102
RTVSPropertyOp18
70
0
102
RTVSPropertyOp19
70
0
102
RTVSPropertyOp20
70
0
102
RTVSPropertyOp21
70
0
102
RTVSPropertyOp22
70
0
102
RTVSPropertyOp23
70
0
102
RTVSPropertyOp24
70
0
102
RTVSPropertyOp25
70
0
102
RTVSPropertyOp26
70
0
102
RTVSPropertyOp27
70
0
0
XRECORD
5
109D
102
{ACAD_REACTORS
330
109C
102
}
330
109C
100
AcDbXrecord
280
1
102
RTVSPropertyOp0
70
1
102
RTVSPropertyOp1
70
1
102
RTVSPropertyOp2
70
1
102
RTVSPropertyOp3
70
1
102
RTVSPropertyOp4
70
1
102
RTVSPropertyOp5
70
1
102
RTVSPropertyOp6
70
1
102
RTVSPropertyOp7
70
1
102
RTVSPropertyOp8
70
1
102
RTVSPropertyOp9
70
1
102
RTVSPropertyOp10
70
1
102
RTVSPropertyOp11
70
1
102
RTVSPropertyOp12
70
1
102
RTVSPropertyOp13
70
1
102
RTVSPropertyOp14
70
1
102
RTVSPropertyOp15
70
1
102
RTVSPropertyOp16
70
1
102
RTVSPropertyOp17
70
1
102
RTVSPropertyOp18
70
1
102
RTVSPropertyOp19
70
1
102
RTVSPropertyOp20
70
1
102
RTVSPropertyOp21
70
1
102
RTVSPropertyOp22
70
1
102
RTVSPropertyOp23
70
1
102
RTVSPropertyOp24
70
1
102
RTVSPropertyOp25
70
1
102
RTVSPropertyOp26
70
1
102
RTVSPropertyOp27
70
1
0
XRECORD
5
1081
102
{ACAD_REACTORS
330
1080
102
}
330
1080
100
AcDbXrecord
280
1
102
RTVSPropertyOp0
70
1
102
RTVSPropertyOp1
70
1
102
RTVSPropertyOp2
70
1
102
RTVSPropertyOp3
70
1
102
RTVSPropertyOp4
70
1
102
RTVSPropertyOp5
70
1
102
RTVSPropertyOp6
70
1
102
RTVSPropertyOp7
70
1
102
RTVSPropertyOp8
70
1
102
RTVSPropertyOp9
70
1
102
RTVSPropertyOp10
70
1
102
RTVSPropertyOp11
70
1
102
RTVSPropertyOp12
70
1
102
RTVSPropertyOp13
70
1
102
RTVSPropertyOp14
70
1
102
RTVSPropertyOp15
70
1
102
RTVSPropertyOp16
70
1
102
RTVSPropertyOp17
70
1
102
RTVSPropertyOp18
70
1
102
RTVSPropertyOp19
70
1
102
RTVSPropertyOp20
70
1
102
RTVSPropertyOp21
70
1
102
RTVSPropertyOp22
70
1
102
RTVSPropertyOp23
70
1
102
RTVSPropertyOp24
70
1
102
RTVSPropertyOp25
70
1
102
RTVSPropertyOp26
70
1
102
RTVSPropertyOp27
70
1
0
XRECORD
5
1083
102
{ACAD_REACTORS
330
1082
102
}
330
1082
100
AcDbXrecord
280
1
102
RTVSPropertyOp0
70
1
102
RTVSPropertyOp1
70
1
102
RTVSPropertyOp2
70
1
102
RTVSPropertyOp3
70
1
102
RTVSPropertyOp4
70
1
102
RTVSPropertyOp5
70
1
102
RTVSPropertyOp6
70
1
102
RTVSPropertyOp7
70
1
102
RTVSPropertyOp8
70
1
102
RTVSPropertyOp9
70
1
102
RTVSPropertyOp10
70
1
102
RTVSPropertyOp11
70
1
102
RTVSPropertyOp12
70
1
102
RTVSPropertyOp13
70
1
102
RTVSPropertyOp14
70
1
102
RTVSPropertyOp15
70
1
102
RTVSPropertyOp16
70
1
102
RTVSPropertyOp17
70
1
102
RTVSPropertyOp18
70
1
102
RTVSPropertyOp19
70
1
102
RTVSPropertyOp20
70
1
102
RTVSPropertyOp21
70
1
102
RTVSPropertyOp22
70
1
102
RTVSPropertyOp23
70
1
102
RTVSPropertyOp24
70
1
102
RTVSPropertyOp25
70
1
102
RTVSPropertyOp26
70
1
102
RTVSPropertyOp27
70
1
0
XRECORD
5
1085
102
{ACAD_REACTORS
330
1084
102
}
330
1084
100
AcDbXrecord
280
1
102
RTVSPropertyOp0
70
1
102
RTVSPropertyOp1
70
1
102
RTVSPropertyOp2
70
1
102
RTVSPropertyOp3
70
1
102
RTVSPropertyOp4
70
1
102
RTVSPropertyOp5
70
1
102
RTVSPropertyOp6
70
1
102
RTVSPropertyOp7
70
1
102
RTVSPropertyOp8
70
1
102
RTVSPropertyOp9
70
1
102
RTVSPropertyOp10
70
1
102
RTVSPropertyOp11
70
1
102
RTVSPropertyOp12
70
1
102
RTVSPropertyOp13
70
1
102
RTVSPropertyOp14
70
1
102
RTVSPropertyOp15
70
1
102
RTVSPropertyOp16
70
1
102
RTVSPropertyOp17
70
1
102
RTVSPropertyOp18
70
1
102
RTVSPropertyOp19
70
1
102
RTVSPropertyOp20
70
1
102
RTVSPropertyOp21
70
1
102
RTVSPropertyOp22
70
1
102
RTVSPropertyOp23
70
1
102
RTVSPropertyOp24
70
1
102
RTVSPropertyOp25
70
1
102
RTVSPropertyOp26
70
1
102
RTVSPropertyOp27
70
1
0
XRECORD
5
1087
102
{ACAD_REACTORS
330
1086
102
}
330
1086
100
AcDbXrecord
280
1
102
RTVSPropertyOp0
70
1
102
RTVSPropertyOp1
70
1
102
RTVSPropertyOp2
70
1
102
RTVSPropertyOp3
70
1
102
RTVSPropertyOp4
70
1
102
RTVSPropertyOp5
70
1
102
RTVSPropertyOp6
70
1
102
RTVSPropertyOp7
70
1
102
RTVSPropertyOp8
70
1
102
RTVSPropertyOp9
70
1
102
RTVSPropertyOp10
70
1
102
RTVSPropertyOp11
70
1
102
RTVSPropertyOp12
70
1
102
RTVSPropertyOp13
70
1
102
RTVSPropertyOp14
70
1
102
RTVSPropertyOp15
70
1
102
RTVSPropertyOp16
70
1
102
RTVSPropertyOp17
70
1
102
RTVSPropertyOp18
70
1
102
RTVSPropertyOp19
70
1
102
RTVSPropertyOp20
70
1
102
RTVSPropertyOp21
70
1
102
RTVSPropertyOp22
70
1
102
RTVSPropertyOp23
70
1
102
RTVSPropertyOp24
70
1
102
RTVSPropertyOp25
70
1
102
RTVSPropertyOp26
70
1
102
RTVSPropertyOp27
70
1
0
XRECORD
5
10A1
102
{ACAD_REACTORS
330
10A0
102
}
330
10A0
100
AcDbXrecord
280
1
102
RTVSPropertyOp0
70
0
102
RTVSPropertyOp1
70
0
102
RTVSPropertyOp2
70
0
102
RTVSPropertyOp3
70
0
102
RTVSPropertyOp4
70
0
102
RTVSPropertyOp5
70
0
102
RTVSPropertyOp6
70
0
102
RTVSPropertyOp7
70
0
102
RTVSPropertyOp8
70
0
102
RTVSPropertyOp9
70
0
102
RTVSPropertyOp10
70
0
102
RTVSPropertyOp11
70
0
102
RTVSPropertyOp12
70
0
102
RTVSPropertyOp13
70
0
102
RTVSPropertyOp14
70
2
102
RTVSPropertyOp15
70
0
102
RTVSPropertyOp16
70
0
102
RTVSPropertyOp17
70
0
102
RTVSPropertyOp18
70
0
102
RTVSPropertyOp19
70
0
102
RTVSPropertyOp20
70
0
102
RTVSPropertyOp21
70
0
102
RTVSPropertyOp22
70
0
102
RTVSPropertyOp23
70
0
102
RTVSPropertyOp24
70
0
102
RTVSPropertyOp25
70
0
102
RTVSPropertyOp26
70
0
102
RTVSPropertyOp27
70
0
0
XRECORD
5
109B
102
{ACAD_REACTORS
330
109A
102
}
330
109A
100
AcDbXrecord
280
1
102
RTVSPropertyOp0
70
1
102
RTVSPropertyOp1
70
1
102
RTVSPropertyOp2
70
1
102
RTVSPropertyOp3
70
1
102
RTVSPropertyOp4
70
1
102
RTVSPropertyOp5
70
1
102
RTVSPropertyOp6
70
1
102
RTVSPropertyOp7
70
1
102
RTVSPropertyOp8
70
1
102
RTVSPropertyOp9
70
1
102
RTVSPropertyOp10
70
1
102
RTVSPropertyOp11
70
1
102
RTVSPropertyOp12
70
1
102
RTVSPropertyOp13
70
1
102
RTVSPropertyOp14
70
1
102
RTVSPropertyOp15
70
1
102
RTVSPropertyOp16
70
1
102
RTVSPropertyOp17
70
1
102
RTVSPropertyOp18
70
1
102
RTVSPropertyOp19
70
1
102
RTVSPropertyOp20
70
1
102
RTVSPropertyOp21
70
1
102
RTVSPropertyOp22
70
1
102
RTVSPropertyOp23
70
1
102
RTVSPropertyOp24
70
1
102
RTVSPropertyOp25
70
1
102
RTVSPropertyOp26
70
1
102
RTVSPropertyOp27
70
1
0
XRECORD
5
10A3
102
{ACAD_REACTORS
330
10A2
102
}
330
10A2
100
AcDbXrecord
280
1
102
RTVSPropertyOp0
70
0
102
RTVSPropertyOp1
70
0
102
RTVSPropertyOp2
70
0
102
RTVSPropertyOp3
70
0
102
RTVSPropertyOp4
70
0
102
RTVSPropertyOp5
70
0
102
RTVSPropertyOp6
70
0
102
RTVSPropertyOp7
70
0
102
RTVSPropertyOp8
70
0
102
RTVSPropertyOp9
70
0
102
RTVSPropertyOp10
70
0
102
RTVSPropertyOp11
70
0
102
RTVSPropertyOp12
70
0
102
RTVSPropertyOp13
70
0
102
RTVSPropertyOp14
70
2
102
RTVSPropertyOp15
70
0
102
RTVSPropertyOp16
70
0
102
RTVSPropertyOp17
70
0
102
RTVSPropertyOp18
70
0
102
RTVSPropertyOp19
70
0
102
RTVSPropertyOp20
70
0
102
RTVSPropertyOp21
70
0
102
RTVSPropertyOp22
70
0
102
RTVSPropertyOp23
70
0
102
RTVSPropertyOp24
70
0
102
RTVSPropertyOp25
70
0
102
RTVSPropertyOp26
70
0
102
RTVSPropertyOp27
70
0
0
XRECORD
5
1093
102
{ACAD_REACTORS
330
1092
102
}
330
1092
100
AcDbXrecord
280
1
102
RTVSPropertyOp0
70
1
102
RTVSPropertyOp1
70
1
102
RTVSPropertyOp2
70
1
102
RTVSPropertyOp3
70
1
102
RTVSPropertyOp4
70
1
102
RTVSPropertyOp5
70
1
102
RTVSPropertyOp6
70
1
102
RTVSPropertyOp7
70
1
102
RTVSPropertyOp8
70
1
102
RTVSPropertyOp9
70
1
102
RTVSPropertyOp10
70
1
102
RTVSPropertyOp11
70
1
102
RTVSPropertyOp12
70
1
102
RTVSPropertyOp13
70
1
102
RTVSPropertyOp14
70
1
102
RTVSPropertyOp15
70
1
102
RTVSPropertyOp16
70
1
102
RTVSPropertyOp17
70
1
102
RTVSPropertyOp18
70
1
102
RTVSPropertyOp19
70
1
102
RTVSPropertyOp20
70
1
102
RTVSPropertyOp21
70
1
102
RTVSPropertyOp22
70
1
102
RTVSPropertyOp23
70
1
102
RTVSPropertyOp24
70
1
102
RTVSPropertyOp25
70
1
102
RTVSPropertyOp26
70
1
102
RTVSPropertyOp27
70
1
0
XRECORD
5
1099
102
{ACAD_REACTORS
330
1098
102
}
330
1098
100
AcDbXrecord
280
1
102
RTVSPropertyOp0
70
1
102
RTVSPropertyOp1
70
1
102
RTVSPropertyOp2
70
1
102
RTVSPropertyOp3
70
1
102
RTVSPropertyOp4
70
1
102
RTVSPropertyOp5
70
1
102
RTVSPropertyOp6
70
1
102
RTVSPropertyOp7
70
1
102
RTVSPropertyOp8
70
1
102
RTVSPropertyOp9
70
1
102
RTVSPropertyOp10
70
1
102
RTVSPropertyOp11
70
1
102
RTVSPropertyOp12
70
1
102
RTVSPropertyOp13
70
1
102
RTVSPropertyOp14
70
1
102
RTVSPropertyOp15
70
1
102
RTVSPropertyOp16
70
1
102
RTVSPropertyOp17
70
1
102
RTVSPropertyOp18
70
1
102
RTVSPropertyOp19
70
1
102
RTVSPropertyOp20
70
1
102
RTVSPropertyOp21
70
1
102
RTVSPropertyOp22
70
1
102
RTVSPropertyOp23
70
1
102
RTVSPropertyOp24
70
1
102
RTVSPropertyOp25
70
1
102
RTVSPropertyOp26
70
1
102
RTVSPropertyOp27
70
1
0
ENDSEC
0
EOF
