0
SECTION
2
HEADER
9
$ACADVER
1
AC1015
9
$ACADMAINTVER
70
20
9
$DWGCODEPAGE
3
ANSI_1252
9
$INSBASE
10
0.0
20
0.0
30
0.0
9
$EXTMIN
10
-150.000000000000
20
-105.000000000000
30
0.0
9
$EXTMAX
10
150.000000000000
20
105.000000000000
30
0.0
9
$LIMMIN
10
0.0
20
0.0
9
$LIMMAX
10
12.0
20
9.0
9
$ORTHOMODE
70
0
9
$REGENMODE
70
1
9
$FILLMODE
70
1
9
$QTEXTMODE
70
0
9
$MIRRTEXT
70
1
9
$LTSCALE
40
1.0
9
$ATTMODE
70
1
9
$TEXTSIZE
40
0.2
9
$TRACEWID
40
0.05
9
$TEXTSTYLE
7
Standard
9
$CLAYER
8
0
9
$CELTYPE
6
ByLayer
9
$CECOLOR
62
256
9
$CELTSCALE
40
1.0
9
$DISPSILH
70
0
9
$DIMSCALE
40
1.0
9
$DIMASZ
40
2.5
9
$DIMEXO
40
0.625
9
$DIMDLI
40
0.38
9
$DIMRND
40
0.0
9
$DIMDLE
40
0.0
9
$DIMEXE
40
1.25
9
$DIMTP
40
0.0
9
$DIMTM
40
0.000000001
9
$DIMTXT
40
2.5
9
$DIMCEN
40
0.09
9
$DIMTSZ
40
0.0
9
$DIMTOL
70
1
9
$DIMLIM
70
0
9
$DIMTIH
70
0
9
$DIMTOH
70
0
9
$DIMSE1
70
0
9
$DIMSE2
70
0
9
$DIMTAD
70
1
9
$DIMZIN
70
0
9
$DIMBLK
1
VDDIM_DEFAULT
9
$DIMASO
70
1
9
$DIMSHO
70
1
9
$DIMPOST
1

9
$DIMAPOST
1

9
$DIMALT
70
0
9
$DIMALTD
70
2
9
$DIMALTF
40
25.4
9
$DIMLFAC
40
1.00000000000000
9
$DIMTOFL
70
0
9
$DIMTVP
40
0.0
9
$DIMTIX
70
0
9
$DIMSOXD
70
0
9
$DIMSAH
70
0
9
$DIMBLK1
1

9
$DIMBLK2
1

9
$DIMSTYLE
2
BEM-ISBE
9
$DIMCLRD
70
0
9
$DIMCLRE
70
0
9
$DIMCLRT
70
0
9
$DIMTFAC
40
0.5
9
$DIMGAP
40
0.625
9
$DIMJUST
70
0
9
$DIMSD1
70
0
9
$DIMSD2
70
0
9
$DIMTOLJ
70
1
9
$DIMTZIN
70
0
9
$DIMALTZ
70
0
9
$DIMALTTZ
70
0
9
$DIMUPT
70
0
9
$DIMDEC
70
3
9
$DIMTDEC
70
3
9
$DIMALTU
70
2
9
$DIMALTTD
70
2
9
$DIMTXSTY
7
Standard
9
$DIMAUNIT
70
0
9
$DIMADEC
70
3
9
$DIMALTRND
40
0.0
9
$DIMAZIN
70
0
9
$DIMDSEP
70
46
9
$DIMATFIT
70
3
9
$DIMFRAC
70
0
9
$DIMLDRBLK
1

9
$DIMLUNIT
70
2
9
$DIMLWD
70
-2
9
$DIMLWE
70
-2
9
$DIMTMOVE
70
0
9
$LUNITS
70
2
9
$LUPREC
70
4
9
$SKETCHINC
40
0.1
9
$FILLETRAD
40
0.5
9
$AUNITS
70
0
9
$AUPREC
70
0
9
$MENU
1
.
9
$ELEVATION
40
0.0
9
$PELEVATION
40
0.0
9
$THICKNESS
40
0.0
9
$LIMCHECK
70
0
9
$CHAMFERA
40
0.5
9
$CHAMFERB
40
0.5
9
$CHAMFERC
40
1.0
9
$CHAMFERD
40
0.0
9
$SKPOLY
70
0
9
$TDCREATE
40
0.0
9
$TDUCREATE
40
0.0
9
$TDUPDATE
40
0.0
9
$TDUUPDATE
40
0.0
9
$TDINDWG
40
0.0
9
$TDUSRTIMER
40
0.0
9
$USRTIMER
70
1
9
$ANGBASE
50
0.0
9
$ANGDIR
70
0
9
$PDMODE
70
0
9
$PDSIZE
40
0.0
9
$PLINEWID
40
0.0
9
$SPLFRAME
70
0
9
$SPLINETYPE
70
6
9
$SPLINESEGS
70
8
9
$HANDSEED
5
10AB
9
$SURFTAB1
70
6
9
$SURFTAB2
70
6
9
$SURFTYPE
70
6
9
$SURFU
70
6
9
$SURFV
70
6
9
$UCSBASE
2

9
$UCSNAME
2

9
$UCSORG
10
0.0
20
0.0
30
0.0
9
$UCSXDIR
10
1.0
20
0.0
30
0.0
9
$UCSYDIR
10
0.0
20
1.0
30
0.0
9
$UCSORTHOREF
2

9
$UCSORTHOVIEW
70
0
9
$UCSORGTOP
10
0.0
20
0.0
30
0.0
9
$UCSORGBOTTOM
10
0.0
20
0.0
30
0.0
9
$UCSORGLEFT
10
0.0
20
0.0
30
0.0
9
$UCSORGRIGHT
10
0.0
20
0.0
30
0.0
9
$UCSORGFRONT
10
0.0
20
0.0
30
0.0
9
$UCSORGBACK
10
0.0
20
0.0
30
0.0
9
$PUCSBASE
2

9
$PUCSNAME
2

9
$PUCSORG
10
0.0
20
0.0
30
0.0
9
$PUCSXDIR
10
1.0
20
0.0
30
0.0
9
$PUCSYDIR
10
0.0
20
1.0
30
0.0
9
$PUCSORTHOREF
2

9
$PUCSORTHOVIEW
70
0
9
$PUCSORGTOP
10
0.0
20
0.0
30
0.0
9
$PUCSORGBOTTOM
10
0.0
20
0.0
30
0.0
9
$PUCSORGLEFT
10
0.0
20
0.0
30
0.0
9
$PUCSORGRIGHT
10
0.0
20
0.0
30
0.0
9
$PUCSORGFRONT
10
0.0
20
0.0
30
0.0
9
$PUCSORGBACK
10
0.0
20
0.0
30
0.0
9
$USERI1
70
0
9
$USERI2
70
0
9
$USERI3
70
0
9
$USERI4
70
0
9
$USERI5
70
0
9
$USERR1
40
0.0
9
$USERR2
40
0.0
9
$USERR3
40
0.0
9
$USERR4
40
0.0
9
$USERR5
40
0.0
9
$WORLDVIEW
70
1
9
$SHADEDGE
70
3
9
$SHADEDIF
70
70
9
$TILEMODE
70
1
9
$MAXACTVP
70
64
9
$PINSBASE
10
0.0
20
0.0
30
0.0
9
$PLIMCHECK
70
0
9
$PEXTMIN
10
1.000000000000000E+20
20
1.000000000000000E+20
30
1.000000000000000E+20
9
$PEXTMAX
10
-1.000000000000000E+20
20
-1.000000000000000E+20
30
-1.000000000000000E+20
9
$PLIMMIN
10
0.0
20
0.0
9
$PLIMMAX
10
12.0
20
9.0
9
$UNITMODE
70
0
9
$VISRETAIN
70
1
9
$PLINEGEN
70
0
9
$PSLTSCALE
70
1
9
$TREEDEPTH
70
3020
9
$CMLSTYLE
2
Standard
9
$CMLJUST
70
0
9
$CMLSCALE
40
1.0
9
$PROXYGRAPHICS
70
1
9
$MEASUREMENT
70
0
9
$CELWEIGHT
370
-1
9
$ENDCAPS
280
0
9
$JOINSTYLE
280
0
9
$LWDISPLAY
290
0
9
$INSUNITS
70
4
9
$HYPERLINKBASE
1

9
$STYLESHEET
1

9
$XEDIT
290
1
9
$CEPSNTYPE
380
0
9
$PSTYLEMODE
290
0
9
$FINGERPRINTGUID
2
{FAEB1C30-E019-11D5-929B-00C0DF256EC4}
9
$VERSIONGUID
2
{04C5C4E4-4947-4D90-8812-D401569E61F7}
9
$EXTNAMES
290
1
9
$PSVPSCALE
40
0.0
9
$OLESTARTUP
290
0
0
ENDSEC
0
SECTION
2
CLASSES
0
CLASS
1
ACDBDICTIONARYWDFLT
2
AcDbDictionaryWithDefault
3
ObjectDBX Classes
90
0
280
0
281
0
0
CLASS
1
ACDBPLACEHOLDER
2
AcDbPlaceHolder
3
ObjectDBX Classes
90
0
280
0
281
0
0
CLASS
1
LAYOUT
2
AcDbLayout
3
ObjectDBX Classes
90
0
280
0
281
0
0
CLASS
1
MATERIAL
2
AcDbMaterial
3
ObjectDBX Classes
90
1153
280
0
281
0
0
CLASS
1
VISUALSTYLE
2
AcDbVisualStyle
3
ObjectDBX Classes
90
4095
280
0
281
0
0
CLASS
1
TABLESTYLE
2
AcDbTableStyle
3
ObjectDBX Classes
90
4095
280
0
281
0
0
CLASS
1
SCALE
2
AcDbScale
3
ObjectDBX Classes
90
1153
280
0
281
0
0
CLASS
1
MLEADERSTYLE
2
AcDbMLeaderStyle
3
ACDB_MLEADERSTYLE_CLASS
90
4095
280
0
281
0
0
CLASS
1
DICTIONARYVAR
2
AcDbDictionaryVar
3
ObjectDBX Classes
90
0
280
0
281
0
0
CLASS
1
CELLSTYLEMAP
2
AcDbCellStyleMap
3
ObjectDBX Classes
90
1152
280
0
281
0
0
ENDSEC
0
SECTION
2
TABLES
0
TABLE
2
VPORT
5
24A
330
0
100
AcDbSymbolTable
70
1
0
VPORT
5
26B
330
24A
100
AcDbSymbolTableRecord
100
AcDbViewportTableRecord
2
*Active
70
0
10
0.0
20
0.0
11
1.0
21
1.0
12
0.000000000000000
22
0.000000000000000
13
0.0
23
0.0
14
10.0
24
10.0
15
10.0
25
10.0
16
0.0
26
0.0
36
1.0
17
0.0
27
0.0
37
0.0
40
210.000000000000
41
1.42857142857143
42
1.0
43
0.0
44
0.0
50
0.0
51
0.0000000000007958
71
0
72
100
73
1
74
3
75
0
76
0
77
0
78
1
281
0
65
1
110
0.0
120
0.0
130
0.0
111
1.0
121
0.0
131
0.0
112
0.0
122
1.0
132
0.0
79
0
146
0.0
0
ENDTAB
0
TABLE
2
LTYPE
5
247
330
0
100
AcDbSymbolTable
70
25
0
LTYPE
5
256
330
247
100
AcDbSymbolTableRecord
100
AcDbLinetypeTableRecord
2
ByBlock
70
0
3

72
65
73
0
40
0.0
0
LTYPE
5
257
330
247
100
AcDbSymbolTableRecord
100
AcDbLinetypeTableRecord
2
ByLayer
70
0
3

72
65
73
0
40
0.0
0
LTYPE
5
258
330
247
100
AcDbSymbolTableRecord
100
AcDbLinetypeTableRecord
2
Continuous
70
0
3
Solid line
72
65
73
0
40
0.0
0
LTYPE
5
273
330
247
100
AcDbSymbolTableRecord
100
AcDbLinetypeTableRecord
2
CENTER
70
0
3
Center ____ _ ____ _ ____ _ ____ _ ____ _ ____
72
65
73
4
40
2.0
49
1.25
74
0
49
-0.25
74
0
49
0.25
74
0
49
-0.25
74
0
0
LTYPE
5
274
330
247
100
AcDbSymbolTableRecord
100
AcDbLinetypeTableRecord
2
DASHDOT
70
0
3
Dashdot __ . __ . __ . __ . __ . __ . __ . __
72
65
73
4
40
1.0
49
0.5
74
0
49
-0.25
74
0
49
0.0
74
0
49
-0.25
74
0
0
LTYPE
5
275
330
247
100
AcDbSymbolTableRecord
100
AcDbLinetypeTableRecord
2
DASHED
70
0
3
Dashed __ __ __ __ __ __ __ __ __ __ __ __ __ _
72
65
73
2
40
0.75
49
0.5
74
0
49
-0.25
74
0
0
LTYPE
5
276
330
247
100
AcDbSymbolTableRecord
100
AcDbLinetypeTableRecord
2
HIDDEN
70
0
3
Hidden __ __ __ __ __ __ __ __ __ __ __ __ __ __
72
65
73
2
40
0.375
49
0.25
74
0
49
-0.125
74
0
0
LTYPE
5
277
330
247
100
AcDbSymbolTableRecord
100
AcDbLinetypeTableRecord
2
HIDDEN2
70
0
3
Hidden2 _ _ _ _ _ _ _ _ _ _ _ _ _ _ _ _ _
72
65
73
2
40
0.1875
49
0.125
74
0
49
-0.0625
74
0
0
LTYPE
5
278
330
247
100
AcDbSymbolTableRecord
100
AcDbLinetypeTableRecord
2
BORDER
70
0
3
Border __ __ . __ __ . __ __ . __ __ . __ __ .
72
65
73
6
40
1.75
49
0.5
74
0
49
-0.25
74
0
49
0.5
74
0
49
-0.25
74
0
49
0.0
74
0
49
-0.25
74
0
0
LTYPE
5
279
330
247
100
AcDbSymbolTableRecord
100
AcDbLinetypeTableRecord
2
BORDER2
70
0
3
Border2 __.__.__.__.__.__.__.__.__.__.__.
72
65
73
6
40
0.875
49
0.25
74
0
49
-0.125
74
0
49
0.25
74
0
49
-0.125
74
0
49
0.0
74
0
49
-0.125
74
0
0
LTYPE
5
27A
330
247
100
AcDbSymbolTableRecord
100
AcDbLinetypeTableRecord
2
BORDERX2
70
0
3
Borderx2  ____  ____  .  ____  ____  .  ___
72
65
73
6
40
3.5
49
1.0
74
0
49
-0.5
74
0
49
1.0
74
0
49
-0.5
74
0
49
0.0
74
0
49
-0.5
74
0
0
LTYPE
5
27B
330
247
100
AcDbSymbolTableRecord
100
AcDbLinetypeTableRecord
2
CENTER2
70
0
3
Center2  ___ _ ___ _ ___ _ ___ _ ___ _ ___
72
65
73
4
40
1.125
49
0.75
74
0
49
-0.125
74
0
49
0.125
74
0
49
-0.125
74
0
0
LTYPE
5
27C
330
247
100
AcDbSymbolTableRecord
100
AcDbLinetypeTableRecord
2
CENTERX2
70
0
3
Centerx2  ________  __  ________  __  _____
72
65
73
4
40
4.0
49
2.5
74
0
49
-0.5
74
0
49
0.5
74
0
49
-0.5
74
0
0
LTYPE
5
27D
330
247
100
AcDbSymbolTableRecord
100
AcDbLinetypeTableRecord
2
DASHDOT2
70
0
3
Dashdot2  _._._._._._._._._._._._._._._.
72
65
73
4
40
0.5
49
0.25
74
0
49
-0.125
74
0
49
0.0
74
0
49
-0.125
74
0
0
LTYPE
5
27E
330
247
100
AcDbSymbolTableRecord
100
AcDbLinetypeTableRecord
2
DASHDOTX2
70
0
3
Dashdotx2 ____  .  ____  .  ____  .  ___
72
65
73
4
40
2.0
49
1.0
74
0
49
-0.5
74
0
49
0.0
74
0
49
-0.5
74
0
0
LTYPE
5
27F
330
247
100
AcDbSymbolTableRecord
100
AcDbLinetypeTableRecord
2
DASHED2
70
0
3
Dashed2 _ _ _ _ _ _ _ _ _ _ _ _ _ _ _ _ _
72
65
73
2
40
0.375
49
0.25
74
0
49
-0.125
74
0
0
LTYPE
5
280
330
247
100
AcDbSymbolTableRecord
100
AcDbLinetypeTableRecord
2
DASHEDX2
70
0
3
Dashedx2 ____  ____  ____  ____  ____  ___
72
65
73
2
40
1.5
49
1.0
74
0
49
-0.5
74
0
0
LTYPE
5
281
330
247
100
AcDbSymbolTableRecord
100
AcDbLinetypeTableRecord
2
DIVIDE
70
0
3
Divide ____ . . ____ . . ____ . . ____ . . ____
72
65
73
6
40
1.25
49
0.5
74
0
49
-0.25
74
0
49
0.0
74
0
49
-0.25
74
0
49
0.0
74
0
49
-0.25
74
0
0
LTYPE
5
282
330
247
100
AcDbSymbolTableRecord
100
AcDbLinetypeTableRecord
2
DIVIDE2
70
0
3
Divide2 __..__..__..__..__..__..__..__.._
72
65
73
6
40
0.625
49
0.25
74
0
49
-0.125
74
0
49
0.0
74
0
49
-0.125
74
0
49
0.0
74
0
49
-0.125
74
0
0
LTYPE
5
283
330
247
100
AcDbSymbolTableRecord
100
AcDbLinetypeTableRecord
2
DIVIDEX2
70
0
3
Dividex2 ________  .  .  ________  .  .  _
72
65
73
6
40
2.5
49
1.0
74
0
49
-0.5
74
0
49
0.0
74
0
49
-0.5
74
0
49
0.0
74
0
49
-0.5
74
0
0
LTYPE
5
284
330
247
100
AcDbSymbolTableRecord
100
AcDbLinetypeTableRecord
2
DOT
70
0
3
Dot . . . . . . . . . . . . . . . . . . . . . . . .
72
65
73
2
40
0.25
49
0.0
74
0
49
-0.25
74
0
0
LTYPE
5
285
330
247
100
AcDbSymbolTableRecord
100
AcDbLinetypeTableRecord
2
DOT2
70
0
3
Dot2 ........................................
72
65
73
2
40
0.125
49
0.0
74
0
49
-0.125
74
0
0
LTYPE
5
286
330
247
100
AcDbSymbolTableRecord
100
AcDbLinetypeTableRecord
2
DOTX2
70
0
3
Dotx2 .  .  .  .  .  .  .  .  .  .  .  .  .  .
72
65
73
2
40
0.5
49
0.0
74
0
49
-0.5
74
0
0
LTYPE
5
287
330
247
100
AcDbSymbolTableRecord
100
AcDbLinetypeTableRecord
2
HIDDENX2
70
0
3
Hiddenx2 ____ ____ ____ ____ ____ ____ ____
72
65
73
2
40
0.75
49
0.5
74
0
49
-0.25
74
0
0
LTYPE
5
288
330
247
100
AcDbSymbolTableRecord
100
AcDbLinetypeTableRecord
2
PHANTOM
70
0
3
Phantom ______  __  __  ______  __  __  ______
72
65
73
6
40
2.5
49
1.25
74
0
49
-0.25
74
0
49
0.25
74
0
49
-0.25
74
0
49
0.25
74
0
49
-0.25
74
0
0
LTYPE
5
289
330
247
100
AcDbSymbolTableRecord
100
AcDbLinetypeTableRecord
2
PHANTOM2
70
0
3
Phantom2 ___ _ _ ___ _ _ ___ _ _ ___ _ _
72
65
73
6
40
1.25
49
0.625
74
0
49
-0.125
74
0
49
0.125
74
0
49
-0.125
74
0
49
0.125
74
0
49
-0.125
74
0
0
LTYPE
5
28A
330
247
100
AcDbSymbolTableRecord
100
AcDbLinetypeTableRecord
2
PHANTOMX2
70
0
3
Phantomx2 ____________    ____    ____   _
72
65
73
6
40
5.0
49
2.5
74
0
49
-0.5
74
0
49
0.5
74
0
49
-0.5
74
0
49
0.5
74
0
49
-0.5
74
0
0
ENDTAB
0
TABLE
2
LAYER
5
244
330
0
100
AcDbSymbolTable
70
6
0
LAYER
5
252
330
244
100
AcDbSymbolTableRecord
100
AcDbLayerTableRecord
2
0
70
0
62
7
6
Continuous
370
0
390
251
0
LAYER
5
23F
330
244
100
AcDbSymbolTableRecord
100
AcDbLayerTableRecord
2
Bemassung
70
0
 62
   7
6
Continuous
370
0
390
251
0
LAYER
5
240
330
244
100
AcDbSymbolTableRecord
100
AcDbLayerTableRecord
2
Rahmen
70
0
 62
   7
6
Continuous
370
0
390
251
0
LAYER
5
241
330
244
100
AcDbSymbolTableRecord
100
AcDbLayerTableRecord
2
Geo
70
0
 62
   7
6
Continuous
370
0
390
251
0
LAYER
5
33A
330
244
100
AcDbSymbolTableRecord
100
AcDbLayerTableRecord
2
Defpoints
70
0
62
7
6
Continuous
290
0
370
-3
390
251
0
LAYER
5
57E
330
244
100
AcDbSymbolTableRecord
100
AcDbLayerTableRecord
2
Text
70
0
 62
   7
6
Continuous
370
0
390
251
1001
AcAecLayerStandard
1000

1000

0
ENDTAB
0
TABLE
2
STYLE
5
245
330
0
100
AcDbSymbolTable
70
2
0
STYLE
5
253
330
245
100
AcDbSymbolTableRecord
100
AcDbTextStyleTableRecord
2
Standard
70
0
40
0.0
41
1.0
50
0.0
71
0
42
0.2
3
Arial
4

1001
ACAD
1000
Arial
1071
0
0
STYLE
5
132
330
245
100
AcDbSymbolTableRecord
100
AcDbTextStyleTableRecord
2
Beschriftung
70
0
40
0.0
41
1.0
50
0.0
71
0
42
0.2
3
Arial
4

1001
ACAD
1000
Arial
1071
0
1001
AcadAnnotative
1000
AnnotativeData
1070
1
1070
1
0
ENDTAB
0
TABLE
2
VIEW
5
248
330
0
100
AcDbSymbolTable
70
0
0
ENDTAB
0
TABLE
2
UCS
5
249
330
0
100
AcDbSymbolTable
70
0
0
ENDTAB
0
TABLE
2
APPID
5
24B
330
0
100
AcDbSymbolTable
70
13
0
APPID
5
254
330
24B
100
AcDbSymbolTableRecord
100
AcDbRegAppTableRecord
2
ACAD
70
0
0
APPID
5
26C
330
24B
100
AcDbSymbolTableRecord
100
AcDbRegAppTableRecord
2
VD_INVISIBLE_NOT_FOR_READ
70
0
0
APPID
5
26D
330
24B
100
AcDbSymbolTableRecord
100
AcDbRegAppTableRecord
2
VD_TEMPHATCH
70
0
0
APPID
5
26E
330
24B
100
AcDbSymbolTableRecord
100
AcDbRegAppTableRecord
2
VDEXTRAPARAM
70
0
0
APPID
5
26F
330
24B
100
AcDbSymbolTableRecord
100
AcDbRegAppTableRecord
2
PE_URL
70
0
0
APPID
5
270
330
24B
100
AcDbSymbolTableRecord
100
AcDbRegAppTableRecord
2
VD_UNKNOWN
70
0
0
APPID
5
28F
330
24B
100
AcDbSymbolTableRecord
100
AcDbRegAppTableRecord
2
AcadAnnotative
70
0
0
APPID
5
290
330
24B
100
AcDbSymbolTableRecord
100
AcDbRegAppTableRecord
2
ACAD_DSTYLE_DIMJAG
70
0
0
APPID
5
291
330
24B
100
AcDbSymbolTableRecord
100
AcDbRegAppTableRecord
2
ACAD_DSTYLE_DIMTALN
70
0
0
APPID
5
293
330
24B
100
AcDbSymbolTableRecord
100
AcDbRegAppTableRecord
2
ACAD_PSEXT
70
0
0
APPID
5
42A
330
24B
100
AcDbSymbolTableRecord
100
AcDbRegAppTableRecord
2
ACAD_MLEADERVER
70
0
0
APPID
5
532
330
24B
100
AcDbSymbolTableRecord
100
AcDbRegAppTableRecord
2
ACAD_EXEMPT_FROM_CAD_STANDARDS
70
0
0
APPID
5
57F
330
24B
100
AcDbSymbolTableRecord
100
AcDbRegAppTableRecord
2
AcAecLayerStandard
70
0
0
ENDTAB
0
TABLE
2
DIMSTYLE
5
24C
330
0
100
AcDbSymbolTable
70
3
100
AcDbDimStyleTable
71
2
340
27
340
269
0
DIMSTYLE
105
269
330
24C
100
AcDbSymbolTableRecord
100
AcDbDimStyleTableRecord
2
Standard
70
0
172
1
174
1
288
1
340
253
342
23C
0
DIMSTYLE
105
137
330
24C
100
AcDbSymbolTableRecord
100
AcDbDimStyleTableRecord
2
Beschriftung
70
0
41
2.5
42
0.625
44
1.25
73
0
74
0
77
1
140
2.5
147
0.625
172
1
174
1
271
2
288
1
340
253
342
23C
1001
AcadAnnotative
1000
AnnotativeData
1070
1
1070
1
1001
ACAD_DSTYLE_DIMJAG
1070
388
1040
1.5
1001
ACAD_DSTYLE_DIMTALN
1070
392
1070
0
0
DIMSTYLE
105
27
102
{ACAD_REACTORS
330
F10003
330
F10012
330
F10017
330
F1001C
330
F10021
330
F10008
330
F1000D
330
F10026
102
}
330
24C
100
AcDbSymbolTableRecord
100
AcDbDimStyleTableRecord
2
BEM-ISBE
70
0
41
2.5
42
0.625
44
1.25
48
0.000000001
71
1
73
0
74
0
77
1
140
2.5
144
1.00000000000000
146
0.5
147
0.625
171
 3
172
 1
179
 3
271
 3
272
 3
274
 3
340
253
342
23C
1001
ACAD_DSTYLE_DIMJAG
1070
388
1040
1.5
1001
ACAD_DSTYLE_DIMTALN
1070
392
1070
1
0
ENDTAB
0
TABLE
2
BLOCK_RECORD
5
243
330
0
100
AcDbSymbolTable
70
5
0
BLOCK_RECORD
5
261
330
243
100
AcDbSymbolTableRecord
100
AcDbBlockTableRecord
2
*Model_Space
340
FD0
0
BLOCK_RECORD
5
25D
330
243
100
AcDbSymbolTableRecord
100
AcDbBlockTableRecord
2
*Paper_Space
340
FD1
0
BLOCK_RECORD
5
265
330
243
100
AcDbSymbolTableRecord
100
AcDbBlockTableRecord
2
*Paper_Space0
340
0
0
BLOCK_RECORD
5
23C
330
243
100
AcDbSymbolTableRecord
100
AcDbBlockTableRecord
2
VDDIM_DEFAULT
340
0
102
{BLKREFS
102
}
0
BLOCK_RECORD
5
23E
330
243
100
AcDbSymbolTableRecord
100
AcDbBlockTableRecord
2
VDDIM_NONE
340
0
0
BLOCK_RECORD
5
F10002
330
243
100
AcDbSymbolTableRecord
100
AcDbBlockTableRecord
2
*D3
340
0
0
BLOCK_RECORD
5
F10011
330
243
100
AcDbSymbolTableRecord
100
AcDbBlockTableRecord
2
*D6
340
0
0
BLOCK_RECORD
5
F10016
330
243
100
AcDbSymbolTableRecord
100
AcDbBlockTableRecord
2
*D7
340
0
0
BLOCK_RECORD
5
F1001B
330
243
100
AcDbSymbolTableRecord
100
AcDbBlockTableRecord
2
*D8
340
0
0
BLOCK_RECORD
5
F10020
330
243
100
AcDbSymbolTableRecord
100
AcDbBlockTableRecord
2
*D9
340
0
0
BLOCK_RECORD
5
F10007
330
243
100
AcDbSymbolTableRecord
100
AcDbBlockTableRecord
2
*D4
340
0
0
BLOCK_RECORD
5
F1000C
330
243
100
AcDbSymbolTableRecord
100
AcDbBlockTableRecord
2
*D5
340
0
0
BLOCK_RECORD
5
F10025
330
243
100
AcDbSymbolTableRecord
100
AcDbBlockTableRecord
2
*D10
340
0
0
ENDTAB
0
ENDSEC
0
SECTION
2
BLOCKS
0
BLOCK
5
262
330
261
100
AcDbEntity
8
0
100
AcDbBlockBegin
2
*Model_Space
70
0
10
0.0
20
0.0
30
0.0
3
*Model_Space
1

0
ENDBLK
5
263
330
261
100
AcDbEntity
8
0
100
AcDbBlockEnd
0
BLOCK
5
25E
330
25D
100
AcDbEntity
67
1
8
0
100
AcDbBlockBegin
2
*Paper_Space
70
0
10
0.0
20
0.0
30
0.0
3
*Paper_Space
1

0
ENDBLK
5
25F
330
25D
100
AcDbEntity
67
1
8
0
100
AcDbBlockEnd
0
BLOCK
5
266
330
265
100
AcDbEntity
8
0
100
AcDbBlockBegin
2
*Paper_Space0
70
0
10
0.0
20
0.0
30
0.0
3
*Paper_Space0
1

0
VIEWPORT
5
296
102
{ACAD_XDICTIONARY
360
58E
102
}
330
265
100
AcDbEntity
8
0
60
1
100
AcDbViewport
10
0.0
20
0.0
30
0.0
40
10.0
41
10.0
69
0
12
0.0
22
0.0
13
0.0
23
0.0
14
1.0
24
1.0
15
0.0
25
0.0
16
0.0
26
0.0
36
1.0
17
0.0
27
0.0
37
0.0
42
0.0
43
0.0
44
0.0
45
10.0
50
0.0
51
0.0000000000007958
72
100
90
163872
1

281
0
71
0
74
0
110
0.0
120
0.0
130
0.0
111
1.0
121
0.0
131
0.0
112
0.0
122
1.0
132
0.0
79
0
146
0.0
1001
VD_INVISIBLE_NOT_FOR_READ
1000
VD_INVISIBLE_NOT_FOR_READ
0
VIEWPORT
5
297
102
{ACAD_XDICTIONARY
360
590
102
}
330
265
100
AcDbEntity
8
0
60
1
100
AcDbViewport
10
0.0
20
0.0
30
0.0
40
10.0
41
10.0
69
0
12
0.0
22
0.0
13
0.0
23
0.0
14
1.0
24
1.0
15
0.0
25
0.0
16
0.0
26
0.0
36
1.0
17
0.0
27
0.0
37
0.0
42
0.0
43
0.0
44
0.0
45
10.0
50
0.0
51
0.0000000000007958
72
100
90
163872
1

281
0
71
0
74
0
110
0.0
120
0.0
130
0.0
111
1.0
121
0.0
131
0.0
112
0.0
122
1.0
132
0.0
79
0
146
0.0
1001
VD_INVISIBLE_NOT_FOR_READ
1000
VD_INVISIBLE_NOT_FOR_READ
0
ENDBLK
5
267
330
265
100
AcDbEntity
8
0
100
AcDbBlockEnd
0
BLOCK
5
28B
330
23C
100
AcDbEntity
8
0
100
AcDbBlockBegin
2
VDDIM_DEFAULT
70
0
10
0.0
20
0.0
30
0.0
3
VDDIM_DEFAULT
1

0
LWPOLYLINE
5
23D
330
23C
100
AcDbEntity
8
0
6
Continuous
62
0
100
AcDbPolyline
90
4
70
0
43
0.0
10
0.0
20
0.0
10
-1.0
20
-0.1665
10
-1.0
20
0.1665
10
0.0
20
0.0
1001
VDEXTRAPARAM
1071
1
1071
0
1071
0
1040
1.0
1000

1000

1040
0.0
1040
0.0
0
HATCH
5
292
330
23C
100
AcDbEntity
8
0
6
Continuous
62
0
100
AcDbHatch
10
0.0
20
0.0
30
0.0
210
0.0
220
0.0
230
1.0
2
SOLID
70
1
71
0
91
1
92
2
72
0
73
1
93
3
10
0.0
20
0.0
10
-1.0
20
-0.1665
10
-1.0
20
0.1665
97
0
75
0
76
1
98
1
10
0.0
20
0.0
1001
VDEXTRAPARAM
1071
1
1071
0
1071
0
1040
1.0
1000

1000

1040
0.0
1040
0.0
1001
VD_TEMPHATCH
1000
VD_TEMPHATCH
0
ENDBLK
5
28C
330
23C
100
AcDbEntity
8
0
100
AcDbBlockEnd
0
BLOCK
5
28D
330
23E
100
AcDbEntity
8
0
100
AcDbBlockBegin
2
VDDIM_NONE
70
0
10
0.0
20
0.0
30
0.0
3
VDDIM_NONE
1

0
ENDBLK
5
28E
330
23E
100
AcDbEntity
8
0
100
AcDbBlockEnd
  0
BLOCK
  5
F1002A
330
F10002
100
AcDbEntity
  8
0
100
AcDbBlockBegin
  2
*D3
 70
     1
 10
0.0
 20
0.0
 30
0.0
  3
*D3
  1

  0
LINE
  5
F1002B
330
F10002
100
AcDbEntity
  8
Bemassung
 62
     0
370
    -2
100
AcDbLine
10
-51.3538550057538
20
-14.0333716915995
30
0.000000000000000
11
-51.3538550057538
21
35.9666283084005
31
0.000000000000000
  0
LINE
  5
F1002C
330
F10002
100
AcDbEntity
  8
Bemassung
 62
     0
370
    -2
100
AcDbLine
10
-51.2038550057538
20
6.96662830840049
30
0.000000000000000
11
-51.2038550057538
21
10.9666283084005
31
0.000000000000000
  0
LINE
  5
F1002D
330
F10002
100
AcDbEntity
  8
Bemassung
 62
     0
370
    -2
100
AcDbLine
10
-79.2635212888378
20
8.96662830840049
30
0.000000000000000
11
-51.2038550057538
21
8.96662830840049
31
0.000000000000000
  0
INSERT
  5
F1002E
330
F10002
100
AcDbEntity
  8
Bemassung
 62
     0
370
    -2
100
AcDbBlockReference
  2
VDDIM_DEFAULT
10
-51.3538550057538
20
8.96662830840049
30
0.000000000000000
 41
2.50000000000000
 42
2.50000000000000
 43
2.50000000000000
  0
INSERT
  5
F1002F
330
F10002
100
AcDbEntity
  8
Bemassung
 62
     0
370
    -2
100
AcDbBlockReference
  2
VDDIM_DEFAULT
10
-51.2038550057538
20
8.96662830840049
30
0.000000000000000
 41
2.50000000000000
 42
2.50000000000000
 43
2.50000000000000
 50
180.000000000000
  0
MTEXT
  5
F10030
330
F10002
100
AcDbEntity
  8
Bemassung
 62
     0
100
AcDbMText
10
-63.5558112773302
20
9.63329497506715
30
0.000000000000000
 40
2.50000000000000
 41
0.0
 71
     8
 72
     1
  1
0.15 x 45°
 11
1.00000000000000
 21
0.000000000000000
 31
0.0
 73
     1
 44
1.0
1001
ACAD
1000
MTEXTBEGIN
1070
73
1070
1
1070
44
1040
1.0
1070
74
1070
0
1000
MTEXTEND
  0
POINT
  5
F10031
330
F10002
100
AcDbEntity
  8
Bemassung
 62
     0
100
AcDbPoint
10
-51.3538550057538
20
-14.0333716915995
30
0.000000000000000
  0
POINT
  5
F10032
330
F10002
100
AcDbEntity
  8
Bemassung
 62
     0
100
AcDbPoint
10
-51.2038550057538
20
6.96662830840049
30
0.000000000000000
  0
ENDBLK
  5
F10033
330
F10002
100
AcDbEntity
  8
0
100
AcDbBlockEnd
  0
BLOCK
  5
F10034
330
F10011
100
AcDbEntity
  8
0
100
AcDbBlockBegin
  2
*D6
 70
     1
 10
0.0
 20
0.0
 30
0.0
  3
*D6
  1

  0
LINE
  5
F10035
330
F10011
100
AcDbEntity
  8
Bemassung
 62
     0
370
    -2
100
AcDbLine
10
-51.3538550057538
20
-14.0333716915995
30
0.000000000000000
11
-51.3538550057538
21
35.9666283084005
31
0.000000000000000
  0
LINE
  5
F10036
330
F10011
100
AcDbEntity
  8
Bemassung
 62
     0
370
    -2
100
AcDbLine
10
-1.35385500575377
20
6.66662830840049
30
0.000000000000000
11
-1.35385500575377
21
15.9666283084005
31
0.000000000000000
  0
LINE
  5
F10037
330
F10011
100
AcDbEntity
  8
Bemassung
 62
     0
370
    -2
100
AcDbLine
10
-51.3538550057538
20
13.9666283084005
30
0.000000000000000
11
-1.35385500575377
21
13.9666283084005
31
0.000000000000000
  0
INSERT
  5
F10038
330
F10011
100
AcDbEntity
  8
Bemassung
 62
     0
370
    -2
100
AcDbBlockReference
  2
VDDIM_DEFAULT
10
-51.3538550057538
20
13.9666283084005
30
0.000000000000000
 41
2.50000000000000
 42
2.50000000000000
 43
2.50000000000000
 50
180.000000000000
  0
INSERT
  5
F10039
330
F10011
100
AcDbEntity
  8
Bemassung
 62
     0
370
    -2
100
AcDbBlockReference
  2
VDDIM_DEFAULT
10
-1.35385500575377
20
13.9666283084005
30
0.000000000000000
 41
2.50000000000000
 42
2.50000000000000
 43
2.50000000000000
  0
MTEXT
  5
F1003A
330
F10011
100
AcDbEntity
  8
Bemassung
 62
     0
100
AcDbMText
10
-26.3538550057538
20
14.6332949750672
30
0.000000000000000
 40
2.50000000000000
 41
0.0
 71
     8
 72
     1
  1
50
 11
1.00000000000000
 21
0.000000000000000
 31
0.0
 73
     1
 44
1.0
1001
ACAD
1000
MTEXTBEGIN
1070
73
1070
1
1070
44
1040
1.0
1070
74
1070
0
1000
MTEXTEND
  0
POINT
  5
F1003B
330
F10011
100
AcDbEntity
  8
Bemassung
 62
     0
100
AcDbPoint
10
-51.3538550057538
20
-14.0333716915995
30
0.000000000000000
  0
POINT
  5
F1003C
330
F10011
100
AcDbEntity
  8
Bemassung
 62
     0
100
AcDbPoint
10
-1.35385500575377
20
6.66662830840049
30
0.000000000000000
  0
ENDBLK
  5
F1003D
330
F10011
100
AcDbEntity
  8
0
100
AcDbBlockEnd
  0
BLOCK
  5
F1003E
330
F10016
100
AcDbEntity
  8
0
100
AcDbBlockBegin
  2
*D7
 70
     1
 10
0.0
 20
0.0
 30
0.0
  3
*D7
  1

  0
LINE
  5
F1003F
330
F10016
100
AcDbEntity
  8
Bemassung
 62
     0
370
    -2
100
AcDbLine
10
-51.3538550057538
20
-14.0333716915995
30
0.000000000000000
11
-51.3538550057538
21
35.9666283084005
31
0.000000000000000
  0
LINE
  5
F10040
330
F10016
100
AcDbEntity
  8
Bemassung
 62
     0
370
    -2
100
AcDbLine
10
-0.653855005753769
20
6.96662830840049
30
0.000000000000000
11
-0.653855005753769
21
25.9666283084005
31
0.000000000000000
  0
LINE
  5
F10041
330
F10016
100
AcDbEntity
  8
Bemassung
 62
     0
370
    -2
100
AcDbLine
10
-51.3538550057538
20
23.9666283084005
30
0.000000000000000
11
-0.653855005753769
21
23.9666283084005
31
0.000000000000000
  0
INSERT
  5
F10042
330
F10016
100
AcDbEntity
  8
Bemassung
 62
     0
370
    -2
100
AcDbBlockReference
  2
VDDIM_DEFAULT
10
-51.3538550057538
20
23.9666283084005
30
0.000000000000000
 41
2.50000000000000
 42
2.50000000000000
 43
2.50000000000000
 50
180.000000000000
  0
INSERT
  5
F10043
330
F10016
100
AcDbEntity
  8
Bemassung
 62
     0
370
    -2
100
AcDbBlockReference
  2
VDDIM_DEFAULT
10
-0.653855005753769
20
23.9666283084005
30
0.000000000000000
 41
2.50000000000000
 42
2.50000000000000
 43
2.50000000000000
  0
MTEXT
  5
F10044
330
F10016
100
AcDbEntity
  8
Bemassung
 62
     0
100
AcDbMText
10
-26.0038550057538
20
24.6332949750672
30
0.000000000000000
 40
2.50000000000000
 41
0.0
 71
     8
 72
     1
  1
50.7
 11
1.00000000000000
 21
0.000000000000000
 31
0.0
 73
     1
 44
1.0
1001
ACAD
1000
MTEXTBEGIN
1070
73
1070
1
1070
44
1040
1.0
1070
74
1070
0
1000
MTEXTEND
  0
POINT
  5
F10045
330
F10016
100
AcDbEntity
  8
Bemassung
 62
     0
100
AcDbPoint
10
-51.3538550057538
20
-14.0333716915995
30
0.000000000000000
  0
POINT
  5
F10046
330
F10016
100
AcDbEntity
  8
Bemassung
 62
     0
100
AcDbPoint
10
-0.653855005753769
20
6.96662830840049
30
0.000000000000000
  0
ENDBLK
  5
F10047
330
F10016
100
AcDbEntity
  8
0
100
AcDbBlockEnd
  0
BLOCK
  5
F10048
330
F1001B
100
AcDbEntity
  8
0
100
AcDbBlockBegin
  2
*D8
 70
     1
 10
0.0
 20
0.0
 30
0.0
  3
*D8
  1

  0
LINE
  5
F10049
330
F1001B
100
AcDbEntity
  8
Bemassung
 62
     0
370
    -2
100
AcDbLine
10
-32.3538550057538
20
-4.73337169159951
30
0.000000000000000
11
-32.3538550057538
21
-14.0333716915995
31
0.000000000000000
  0
LINE
  5
F1004A
330
F1001B
100
AcDbEntity
  8
Bemassung
 62
     0
370
    -2
100
AcDbLine
10
-51.3538550057538
20
-14.0333716915995
30
0.000000000000000
11
-51.3538550057538
21
35.9666283084005
31
0.000000000000000
  0
LINE
  5
F1004B
330
F1001B
100
AcDbEntity
  8
Bemassung
 62
     0
370
    -2
100
AcDbLine
10
-32.3538550057538
20
-12.0333716915995
30
0.000000000000000
11
-51.3538550057538
21
-12.0333716915995
31
0.000000000000000
  0
INSERT
  5
F1004C
330
F1001B
100
AcDbEntity
  8
Bemassung
 62
     0
370
    -2
100
AcDbBlockReference
  2
VDDIM_DEFAULT
10
-32.3538550057538
20
-12.0333716915995
30
0.000000000000000
 41
2.50000000000000
 42
2.50000000000000
 43
2.50000000000000
  0
INSERT
  5
F1004D
330
F1001B
100
AcDbEntity
  8
Bemassung
 62
     0
370
    -2
100
AcDbBlockReference
  2
VDDIM_DEFAULT
10
-51.3538550057538
20
-12.0333716915995
30
0.000000000000000
 41
2.50000000000000
 42
2.50000000000000
 43
2.50000000000000
 50
180.000000000000
  0
MTEXT
  5
F1004E
330
F1001B
100
AcDbEntity
  8
Bemassung
 62
     0
100
AcDbMText
10
-41.8538550057538
20
-11.3667050249328
30
0.000000000000000
 40
2.50000000000000
 41
0.0
 71
     8
 72
     1
  1
19
 11
1.00000000000000
 21
0.000000000000000
 31
0.0
 73
     1
 44
1.0
1001
ACAD
1000
MTEXTBEGIN
1070
73
1070
1
1070
44
1040
1.0
1070
74
1070
0
1000
MTEXTEND
  0
POINT
  5
F1004F
330
F1001B
100
AcDbEntity
  8
Bemassung
 62
     0
100
AcDbPoint
10
-32.3538550057538
20
-4.73337169159951
30
0.000000000000000
  0
POINT
  5
F10050
330
F1001B
100
AcDbEntity
  8
Bemassung
 62
     0
100
AcDbPoint
10
-51.3538550057538
20
-14.0333716915995
30
0.000000000000000
  0
ENDBLK
  5
F10051
330
F1001B
100
AcDbEntity
  8
0
100
AcDbBlockEnd
  0
BLOCK
  5
F10052
330
F10020
100
AcDbEntity
  8
0
100
AcDbBlockBegin
  2
*D9
 70
     1
 10
0.0
 20
0.0
 30
0.0
  3
*D9
  1

  0
LINE
  5
F10053
330
F10020
100
AcDbEntity
  8
Bemassung
 62
     0
370
    -2
100
AcDbLine
10
68.6461449942462
20
6.71662830840049
30
0.000000000000000
11
68.6461449942462
21
35.9666283084005
31
0.000000000000000
  0
LINE
  5
F10054
330
F10020
100
AcDbEntity
  8
Bemassung
 62
     0
370
    -2
100
AcDbLine
10
-51.3538550057538
20
-14.0333716915995
30
0.000000000000000
11
-51.3538550057538
21
35.9666283084005
31
0.000000000000000
  0
LINE
  5
F10055
330
F10020
100
AcDbEntity
  8
Bemassung
 62
     0
370
    -2
100
AcDbLine
10
68.6461449942462
20
33.9666283084005
30
0.000000000000000
11
-51.3538550057538
21
33.9666283084005
31
0.000000000000000
  0
INSERT
  5
F10056
330
F10020
100
AcDbEntity
  8
Bemassung
 62
     0
370
    -2
100
AcDbBlockReference
  2
VDDIM_DEFAULT
10
68.6461449942462
20
33.9666283084005
30
0.000000000000000
 41
2.50000000000000
 42
2.50000000000000
 43
2.50000000000000
  0
INSERT
  5
F10057
330
F10020
100
AcDbEntity
  8
Bemassung
 62
     0
370
    -2
100
AcDbBlockReference
  2
VDDIM_DEFAULT
10
-51.3538550057538
20
33.9666283084005
30
0.000000000000000
 41
2.50000000000000
 42
2.50000000000000
 43
2.50000000000000
 50
180.000000000000
  0
MTEXT
  5
F10058
330
F10020
100
AcDbEntity
  8
Bemassung
 62
     0
100
AcDbMText
10
8.64614499424623
20
34.6332949750672
30
0.000000000000000
 40
2.50000000000000
 41
0.0
 71
     8
 72
     1
  1
120
 11
1.00000000000000
 21
0.000000000000000
 31
0.0
 73
     1
 44
1.0
1001
ACAD
1000
MTEXTBEGIN
1070
73
1070
1
1070
44
1040
1.0
1070
74
1070
0
1000
MTEXTEND
  0
POINT
  5
F10059
330
F10020
100
AcDbEntity
  8
Bemassung
 62
     0
100
AcDbPoint
10
68.6461449942462
20
6.71662830840049
30
0.000000000000000
  0
POINT
  5
F1005A
330
F10020
100
AcDbEntity
  8
Bemassung
 62
     0
100
AcDbPoint
10
-51.3538550057538
20
-14.0333716915995
30
0.000000000000000
  0
ENDBLK
  5
F1005B
330
F10020
100
AcDbEntity
  8
0
100
AcDbBlockEnd
  0
BLOCK
  5
F1005C
330
F10007
100
AcDbEntity
  8
0
100
AcDbBlockBegin
  2
*D4
 70
     1
 10
0.0
 20
0.0
 30
0.0
  3
*D4
  1

  0
LINE
  5
F1005D
330
F10007
100
AcDbEntity
  8
Bemassung
 62
     0
370
    -2
100
AcDbLine
10
-51.2038550057538
20
-5.03337169159951
30
0.000000000000000
11
-63.3538550057538
21
-5.03337169159951
31
0.000000000000000
  0
LINE
  5
F1005E
330
F10007
100
AcDbEntity
  8
Bemassung
 62
     0
370
    -2
100
AcDbLine
10
-51.2038550057538
20
6.96662830840049
30
0.000000000000000
11
-63.3538550057538
21
6.96662830840049
31
0.000000000000000
  0
LINE
  5
F1005F
330
F10007
100
AcDbEntity
  8
Bemassung
 62
     0
370
    -2
100
AcDbLine
10
-61.3538550057538
20
-5.03337169159951
30
0.000000000000000
11
-61.3538550057538
21
6.96662830840049
31
0.000000000000000
  0
INSERT
  5
F10060
330
F10007
100
AcDbEntity
  8
Bemassung
 62
     0
370
    -2
100
AcDbBlockReference
  2
VDDIM_DEFAULT
10
-61.3538550057538
20
-5.03337169159951
30
0.000000000000000
 41
2.50000000000000
 42
2.50000000000000
 43
2.50000000000000
 50
90.0000000000000
  0
INSERT
  5
F10061
330
F10007
100
AcDbEntity
  8
Bemassung
 62
     0
370
    -2
100
AcDbBlockReference
  2
VDDIM_DEFAULT
10
-61.3538550057538
20
6.96662830840049
30
0.000000000000000
 41
2.50000000000000
 42
2.50000000000000
 43
2.50000000000000
 50
270.000000000000
  0
MTEXT
  5
F10062
330
F10007
100
AcDbEntity
  8
Bemassung
 62
     0
100
AcDbMText
10
-62.0205216724204
20
0.604142692750301
30
0.000000000000000
 40
2.50000000000000
 41
0.0
 71
     8
 72
     1
  1
Ø12
 11
6.12323399573677e-17
 21
1.00000000000000
 31
0.0
 73
     1
 44
1.0
1001
ACAD
1000
MTEXTBEGIN
1070
73
1070
1
1070
44
1040
1.0
1070
74
1070
0
1000
MTEXTEND
  0
POINT
  5
F10063
330
F10007
100
AcDbEntity
  8
Bemassung
 62
     0
100
AcDbPoint
10
-51.2038550057538
20
-5.03337169159951
30
0.000000000000000
  0
POINT
  5
F10064
330
F10007
100
AcDbEntity
  8
Bemassung
 62
     0
100
AcDbPoint
10
-51.2038550057538
20
6.96662830840049
30
0.000000000000000
  0
ENDBLK
  5
F10065
330
F10007
100
AcDbEntity
  8
0
100
AcDbBlockEnd
  0
BLOCK
  5
F10066
330
F1000C
100
AcDbEntity
  8
0
100
AcDbBlockBegin
  2
*D5
 70
     1
 10
0.0
 20
0.0
 30
0.0
  3
*D5
  1

  0
LINE
  5
F10067
330
F1000C
100
AcDbEntity
  8
Bemassung
 62
     0
370
    -2
100
AcDbLine
10
-32.3538550057538
20
-4.73337169159951
30
0.000000000000000
11
-16.3538550057538
21
-4.73337169159951
31
0.000000000000000
  0
LINE
  5
F10068
330
F1000C
100
AcDbEntity
  8
Bemassung
 62
     0
370
    -2
100
AcDbLine
10
-32.3538550057538
20
6.66662830840049
30
0.000000000000000
11
-16.3538550057538
21
6.66662830840049
31
0.000000000000000
  0
LINE
  5
F10069
330
F1000C
100
AcDbEntity
  8
Bemassung
 62
     0
370
    -2
100
AcDbLine
10
-18.3538550057538
20
-18.7284234752589
30
0.000000000000000
11
-18.3538550057538
21
6.66662830840049
31
0.000000000000000
  0
INSERT
  5
F1006A
330
F1000C
100
AcDbEntity
  8
Bemassung
 62
     0
370
    -2
100
AcDbBlockReference
  2
VDDIM_DEFAULT
10
-18.3538550057538
20
-4.73337169159951
30
0.000000000000000
 41
2.50000000000000
 42
2.50000000000000
 43
2.50000000000000
 50
90.0000000000000
  0
INSERT
  5
F1006B
330
F1000C
100
AcDbEntity
  8
Bemassung
 62
     0
370
    -2
100
AcDbBlockReference
  2
VDDIM_DEFAULT
10
-18.3538550057538
20
6.66662830840049
30
0.000000000000000
 41
2.50000000000000
 42
2.50000000000000
 43
2.50000000000000
 50
270.000000000000
  0
MTEXT
  5
F1006C
330
F1000C
100
AcDbEntity
  8
Bemassung
 62
     0
100
AcDbMText
10
-19.0205216724204
20
-8.83734177215187
30
0.000000000000000
 40
2.50000000000000
 41
0.0
 71
     8
 72
     1
  1
Ø11.4
 11
6.12323399573677e-17
 21
1.00000000000000
 31
0.0
 73
     1
 44
1.0
1001
ACAD
1000
MTEXTBEGIN
1070
73
1070
1
1070
44
1040
1.0
1070
74
1070
0
1000
MTEXTEND
  0
POINT
  5
F1006D
330
F1000C
100
AcDbEntity
  8
Bemassung
 62
     0
100
AcDbPoint
10
-32.3538550057538
20
-4.73337169159951
30
0.000000000000000
  0
POINT
  5
F1006E
330
F1000C
100
AcDbEntity
  8
Bemassung
 62
     0
100
AcDbPoint
10
-32.3538550057538
20
6.66662830840049
30
0.000000000000000
  0
ENDBLK
  5
F1006F
330
F1000C
100
AcDbEntity
  8
0
100
AcDbBlockEnd
  0
BLOCK
  5
F10070
330
F10025
100
AcDbEntity
  8
0
100
AcDbBlockBegin
  2
*D10
 70
     1
 10
0.0
 20
0.0
 30
0.0
  3
*D10
  1

  0
LINE
  5
F10071
330
F10025
100
AcDbEntity
  8
Bemassung
 62
     0
370
    -2
100
AcDbLine
10
-0.653855005753769
20
6.96662830840049
30
0.000000000000000
11
83.7203682393554
21
6.96662830840049
31
0.000000000000000
  0
LINE
  5
F10072
330
F10025
100
AcDbEntity
  8
Bemassung
 62
     0
370
    -2
100
AcDbLine
10
-0.653855005753769
20
-5.03337169159951
30
0.000000000000000
11
83.7203682393554
21
-5.03337169159951
31
0.000000000000000
  0
LINE
  5
F10073
330
F10025
100
AcDbEntity
  8
Bemassung
 62
     0
370
    -2
100
AcDbLine
10
81.7203682393554
20
6.96662830840049
30
0.000000000000000
11
81.7203682393554
21
-5.03337169159951
31
0.000000000000000
  0
INSERT
  5
F10074
330
F10025
100
AcDbEntity
  8
Bemassung
 62
     0
370
    -2
100
AcDbBlockReference
  2
VDDIM_DEFAULT
10
81.7203682393554
20
6.96662830840049
30
0.000000000000000
 41
2.50000000000000
 42
2.50000000000000
 43
2.50000000000000
 50
270.000000000000
  0
INSERT
  5
F10075
330
F10025
100
AcDbEntity
  8
Bemassung
 62
     0
370
    -2
100
AcDbBlockReference
  2
VDDIM_DEFAULT
10
81.7203682393554
20
-5.03337169159951
30
0.000000000000000
 41
2.50000000000000
 42
2.50000000000000
 43
2.50000000000000
 50
90.0000000000000
  0
MTEXT
  5
F10076
330
F10025
100
AcDbEntity
  8
Bemassung
 62
     0
100
AcDbMText
10
81.0537015726888
20
0.120828538550072
30
0.000000000000000
 40
2.50000000000000
 41
0.0
 71
     8
 72
     1
  1
Ø12
 11
6.12323399573677e-17
 21
1.00000000000000
 31
0.0
 73
     1
 44
1.0
1001
ACAD
1000
MTEXTBEGIN
1070
73
1070
1
1070
44
1040
1.0
1070
74
1070
0
1000
MTEXTEND
  0
POINT
  5
F10077
330
F10025
100
AcDbEntity
  8
Bemassung
 62
     0
100
AcDbPoint
10
-0.653855005753769
20
6.96662830840049
30
0.000000000000000
  0
POINT
  5
F10078
330
F10025
100
AcDbEntity
  8
Bemassung
 62
     0
100
AcDbPoint
10
-0.653855005753769
20
-5.03337169159951
30
0.000000000000000
  0
ENDBLK
  5
F10079
330
F10025
100
AcDbEntity
  8
0
100
AcDbBlockEnd
0
ENDSEC
0
SECTION
2
ENTITIES
  0
DIMENSION
  5
F10003
330
261
100
AcDbEntity
  8
Bemassung
100
AcDbDimension
  2
*D3
10
-51.2038550057538
20
8.96662830840049
30
0.000000000000000
11
-63.5558112773302
21
9.63329497506715
31
0.000000000000000
 70
32
 1
0.15 x 45°
 71
     8
  3
BEM-ISBE
100
AcDbAlignedDimension
13
-51.3538550057538
23
-14.0333716915995
33
0.000000000000000
14
-51.2038550057538
24
6.96662830840049
34
0.000000000000000
100
AcDbRotatedDimension
1001
ACAD
1000
DSTYLE
1002
{
1070
284
1070
8
1070
78
1070
8
1070
144
1040
1.00000000000000
1070
147
1040
0.625
1070
 72
1070
 0
1070
 71
1070
 0
1002
}
  0
DIMENSION
  5
F10012
330
261
100
AcDbEntity
  8
Bemassung
100
AcDbDimension
  2
*D6
10
-1.35385500575377
20
13.9666283084005
30
0.000000000000000
11
-26.3538550057538
21
14.6332949750672
31
0.000000000000000
 70
32
 1
50
 71
     8
  3
BEM-ISBE
100
AcDbAlignedDimension
13
-51.3538550057538
23
-14.0333716915995
33
0.000000000000000
14
-1.35385500575377
24
6.66662830840049
34
0.000000000000000
100
AcDbRotatedDimension
1001
ACAD
1000
DSTYLE
1002
{
1070
284
1070
8
1070
78
1070
8
1070
144
1040
1.00000000000000
1070
147
1040
0.625
1070
 72
1070
 0
1070
 71
1070
 0
1002
}
  0
DIMENSION
  5
F10017
330
261
100
AcDbEntity
  8
Bemassung
100
AcDbDimension
  2
*D7
10
-0.653855005753769
20
23.9666283084005
30
0.000000000000000
11
-26.0038550057538
21
24.6332949750672
31
0.000000000000000
 70
32
 1
50.7
 71
     8
  3
BEM-ISBE
100
AcDbAlignedDimension
13
-51.3538550057538
23
-14.0333716915995
33
0.000000000000000
14
-0.653855005753769
24
6.96662830840049
34
0.000000000000000
100
AcDbRotatedDimension
1001
ACAD
1000
DSTYLE
1002
{
1070
284
1070
8
1070
78
1070
8
1070
144
1040
1.00000000000000
1070
147
1040
0.625
1070
 72
1070
 0
1070
 71
1070
 0
1002
}
  0
DIMENSION
  5
F1001C
330
261
100
AcDbEntity
  8
Bemassung
100
AcDbDimension
  2
*D8
10
-51.3538550057538
20
-12.0333716915995
30
0.000000000000000
11
-41.8538550057538
21
-11.3667050249328
31
0.000000000000000
 70
32
 1
19
 71
     8
  3
BEM-ISBE
100
AcDbAlignedDimension
13
-32.3538550057538
23
-4.73337169159951
33
0.000000000000000
14
-51.3538550057538
24
-14.0333716915995
34
0.000000000000000
100
AcDbRotatedDimension
1001
ACAD
1000
DSTYLE
1002
{
1070
284
1070
8
1070
78
1070
8
1070
144
1040
1.00000000000000
1070
147
1040
0.625
1070
 72
1070
 0
1070
 71
1070
 0
1002
}
  0
DIMENSION
  5
F10021
330
261
100
AcDbEntity
  8
Bemassung
100
AcDbDimension
  2
*D9
10
-51.3538550057538
20
33.9666283084005
30
0.000000000000000
11
8.64614499424623
21
34.6332949750672
31
0.000000000000000
 70
32
 1
120
 71
     8
  3
BEM-ISBE
100
AcDbAlignedDimension
13
68.6461449942462
23
6.71662830840049
33
0.000000000000000
14
-51.3538550057538
24
-14.0333716915995
34
0.000000000000000
100
AcDbRotatedDimension
1001
ACAD
1000
DSTYLE
1002
{
1070
284
1070
8
1070
78
1070
8
1070
144
1040
1.00000000000000
1070
147
1040
0.625
1070
 72
1070
 0
1070
 71
1070
 0
1002
}
  0
DIMENSION
  5
F10008
330
261
100
AcDbEntity
  8
Bemassung
100
AcDbDimension
  2
*D4
10
-61.3538550057538
20
6.96662830840049
30
0.000000000000000
11
-62.0205216724204
21
0.604142692750301
31
0.000000000000000
 70
32
 1
Ø12
 71
     8
  3
BEM-ISBE
100
AcDbAlignedDimension
13
-51.2038550057538
23
-5.03337169159951
33
0.000000000000000
14
-51.2038550057538
24
6.96662830840049
34
0.000000000000000
50
90.0000000000000
100
AcDbRotatedDimension
1001
ACAD
1000
DSTYLE
1002
{
1070
284
1070
8
1070
78
1070
8
1070
144
1040
1.00000000000000
1070
147
1040
0.625
1070
 72
1070
 0
1070
 71
1070
 0
1002
}
  0
DIMENSION
  5
F1000D
330
261
100
AcDbEntity
  8
Bemassung
100
AcDbDimension
  2
*D5
10
-18.3538550057538
20
6.66662830840049
30
0.000000000000000
11
-19.0205216724204
21
-8.83734177215187
31
0.000000000000000
 70
32
 1
Ø11.4
 71
     8
  3
BEM-ISBE
100
AcDbAlignedDimension
13
-32.3538550057538
23
-4.73337169159951
33
0.000000000000000
14
-32.3538550057538
24
6.66662830840049
34
0.000000000000000
50
90.0000000000000
100
AcDbRotatedDimension
1001
ACAD
1000
DSTYLE
1002
{
1070
284
1070
8
1070
78
1070
8
1070
144
1040
1.00000000000000
1070
147
1040
0.625
1070
 72
1070
 0
1070
 71
1070
 0
1002
}
  0
DIMENSION
  5
F10026
330
261
100
AcDbEntity
  8
Bemassung
100
AcDbDimension
  2
*D10
10
81.7203682393554
20
-5.03337169159951
30
0.000000000000000
11
81.0537015726888
21
0.120828538550072
31
0.000000000000000
 70
32
 1
Ø12
 71
     8
  3
BEM-ISBE
100
AcDbAlignedDimension
13
-0.653855005753769
23
6.96662830840049
33
0.000000000000000
14
-0.653855005753769
24
-5.03337169159951
34
0.000000000000000
50
90.0000000000000
100
AcDbRotatedDimension
1001
ACAD
1000
DSTYLE
1002
{
1070
284
1070
8
1070
78
1070
8
1070
144
1040
1.00000000000000
1070
147
1040
0.625
1070
 72
1070
 0
1070
 71
1070
 0
1002
}
  0
LINE
  5
F1007A
330
F1007B
100
AcDbEntity
8
Geo
100
AcDbLine
10
-51.3538550057538
20
0.966628308400487
30
0.000000000000000
11
-51.3538550057538
21
6.81662830840049
31
0.000000000000000
  0
LINE
  5
F1007C
330
F1007D
100
AcDbEntity
8
Geo
100
AcDbLine
10
-51.3538550057538
20
6.81662830840049
30
0.000000000000000
11
-51.2038550057538
21
6.96662830840049
31
0.000000000000000
  0
LINE
  5
F1007E
330
F1007F
100
AcDbEntity
8
Geo
100
AcDbLine
10
-51.2038550057538
20
6.96662830840049
30
0.000000000000000
11
-32.3538550057538
21
6.96662830840049
31
0.000000000000000
  0
LINE
  5
F10080
330
F10081
100
AcDbEntity
8
Geo
100
AcDbLine
10
-32.3538550057538
20
6.96662830840049
30
0.000000000000000
11
-32.3538550057538
21
6.66662830840049
31
0.000000000000000
  0
LINE
  5
F10082
330
F10083
100
AcDbEntity
8
Geo
100
AcDbLine
10
-32.3538550057538
20
6.66662830840049
30
0.000000000000000
11
-1.35385500575377
21
6.66662830840049
31
0.000000000000000
  0
LINE
  5
F10084
330
F10085
100
AcDbEntity
8
Geo
100
AcDbLine
10
-1.35385500575377
20
6.66662830840049
30
0.000000000000000
11
-0.653855005753769
21
6.96662830840049
31
0.000000000000000
  0
LINE
  5
F10086
330
F10087
100
AcDbEntity
8
Geo
100
AcDbLine
10
-0.653855005753769
20
6.96662830840049
30
0.000000000000000
11
68.3961449942462
21
6.96662830840049
31
0.000000000000000
  0
LINE
  5
F10088
330
F10089
100
AcDbEntity
8
Geo
100
AcDbLine
10
68.3961449942462
20
6.96662830840049
30
0.000000000000000
11
68.6461449942462
21
6.71662830840049
31
0.000000000000000
  0
LINE
  5
F1008A
330
F1008B
100
AcDbEntity
8
Geo
100
AcDbLine
10
-51.3538550057538
20
6.81659030493870
30
0.000000000000000
11
-51.2538550057538
21
6.91594403933000
31
0.000000000000000
  0
LINE
  5
F1008C
330
F1008D
100
AcDbEntity
8
Geo
100
AcDbLine
10
-51.2538550057538
20
6.91594403933000
30
0.000000000000000
11
-51.2538550057538
21
6.91594403933000
31
0.000000000000000
  0
LINE
  5
F1008E
330
F1008F
100
AcDbEntity
8
Geo
100
AcDbLine
10
-51.2538550057538
20
6.91594403933000
30
0.000000000000000
11
-51.1538550057538
21
6.96428150076592
31
0.000000000000000
  0
LINE
  5
F10090
330
F10091
100
AcDbEntity
8
Geo
100
AcDbLine
10
-51.1538550057538
20
6.96428150076592
30
0.000000000000000
11
-51.0538550057538
21
6.96134842151626
31
0.000000000000000
  0
LINE
  5
F10092
330
F10093
100
AcDbEntity
8
Geo
100
AcDbLine
10
-51.0538550057538
20
6.96134842151626
30
0.000000000000000
11
-50.9538550057538
21
6.95724291369758
31
0.000000000000000
  0
LINE
  5
F10094
330
F10095
100
AcDbEntity
8
Geo
100
AcDbLine
10
-50.9538550057538
20
6.95724291369758
30
0.000000000000000
11
-50.8538550057538
21
6.95196578025222
31
0.000000000000000
  0
LINE
  5
F10096
330
F10097
100
AcDbEntity
8
Geo
100
AcDbLine
10
-50.8538550057538
20
6.95196578025222
30
0.000000000000000
11
-50.7538550057538
21
6.94551805326541
31
0.000000000000000
  0
LINE
  5
F10098
330
F10099
100
AcDbEntity
8
Geo
100
AcDbLine
10
-50.7538550057538
20
6.94551805326541
30
0.000000000000000
11
-50.6538550057538
21
6.93790099376338
31
0.000000000000000
  0
LINE
  5
F1009A
330
F1009B
100
AcDbEntity
8
Geo
100
AcDbLine
10
-50.6538550057538
20
6.93790099376338
30
0.000000000000000
11
-50.5538550057538
21
6.92911609146675
31
0.000000000000000
  0
LINE
  5
F1009C
330
F1009D
100
AcDbEntity
8
Geo
100
AcDbLine
10
-50.5538550057538
20
6.92911609146675
30
0.000000000000000
11
-50.4538550057538
21
6.91916506449917
31
0.000000000000000
  0
LINE
  5
F1009E
330
F1009F
100
AcDbEntity
8
Geo
100
AcDbLine
10
-50.4538550057538
20
6.91916506449917
30
0.000000000000000
11
-50.3538550057538
21
6.90804985905132
31
0.000000000000000
  0
LINE
  5
F100A0
330
F100A1
100
AcDbEntity
8
Geo
100
AcDbLine
10
-50.3538550057538
20
6.90804985905132
30
0.000000000000000
11
-50.2538550057538
21
6.89577264900022
31
0.000000000000000
  0
LINE
  5
F100A2
330
F100A3
100
AcDbEntity
8
Geo
100
AcDbLine
10
-50.2538550057538
20
6.89577264900022
30
0.000000000000000
11
-50.1538550057538
21
6.88233583548413
31
0.000000000000000
  0
LINE
  5
F100A4
330
F100A5
100
AcDbEntity
8
Geo
100
AcDbLine
10
-50.1538550057538
20
6.88233583548413
30
0.000000000000000
11
-50.0538550057538
21
6.86774204643294
31
0.000000000000000
  0
LINE
  5
F100A6
330
F100A7
100
AcDbEntity
8
Geo
100
AcDbLine
10
-50.0538550057538
20
6.86774204643294
30
0.000000000000000
11
-49.9538550057538
21
6.85199413605414
31
0.000000000000000
  0
LINE
  5
F100A8
330
F100A9
100
AcDbEntity
8
Geo
100
AcDbLine
10
-49.9538550057538
20
6.85199413605414
30
0.000000000000000
11
-49.8538550057538
21
6.83509518427470
31
0.000000000000000
  0
LINE
  5
F100AA
330
F100AB
100
AcDbEntity
8
Geo
100
AcDbLine
10
-49.8538550057538
20
6.83509518427470
30
0.000000000000000
11
-49.7538550057538
21
6.81704849613863
31
0.000000000000000
  0
LINE
  5
F100AC
330
F100AD
100
AcDbEntity
8
Geo
100
AcDbLine
10
-49.7538550057538
20
6.81704849613863
30
0.000000000000000
11
-49.6538550057538
21
6.79785760116063
31
0.000000000000000
  0
LINE
  5
F100AE
330
F100AF
100
AcDbEntity
8
Geo
100
AcDbLine
10
-49.6538550057538
20
6.79785760116063
30
0.000000000000000
11
-49.5538550057538
21
6.77752625263578
31
0.000000000000000
  0
LINE
  5
F100B0
330
F100B1
100
AcDbEntity
8
Geo
100
AcDbLine
10
-49.5538550057538
20
6.77752625263578
30
0.000000000000000
11
-49.4538550057538
21
6.75605842690550
31
0.000000000000000
  0
LINE
  5
F100B2
330
F100B3
100
AcDbEntity
8
Geo
100
AcDbLine
10
-49.4538550057538
20
6.75605842690550
30
0.000000000000000
11
-49.3538550057538
21
6.73345832257986
31
0.000000000000000
  0
LINE
  5
F100B4
330
F100B5
100
AcDbEntity
8
Geo
100
AcDbLine
10
-49.3538550057538
20
6.73345832257986
30
0.000000000000000
11
-49.2538550057538
21
6.70973035971641
31
0.000000000000000
  0
LINE
  5
F100B6
330
F100B7
100
AcDbEntity
8
Geo
100
AcDbLine
10
-49.2538550057538
20
6.70973035971641
30
0.000000000000000
11
-49.1538550057538
21
6.68487917895576
31
0.000000000000000
  0
LINE
  5
F100B8
330
F100B9
100
AcDbEntity
8
Geo
100
AcDbLine
10
-49.1538550057538
20
6.68487917895576
30
0.000000000000000
11
-49.0538550057538
21
6.65890964061394
31
0.000000000000000
  0
LINE
  5
F100BA
330
F100BB
100
AcDbEntity
8
Geo
100
AcDbLine
10
-49.0538550057538
20
6.65890964061394
30
0.000000000000000
11
-48.9538550057538
21
6.63182682373186
31
0.000000000000000
  0
LINE
  5
F100BC
330
F100BD
100
AcDbEntity
8
Geo
100
AcDbLine
10
-48.9538550057538
20
6.63182682373186
30
0.000000000000000
11
-48.8538550057538
21
6.60363602508195
31
0.000000000000000
  0
LINE
  5
F100BE
330
F100BF
100
AcDbEntity
8
Geo
100
AcDbLine
10
-48.8538550057538
20
6.60363602508195
30
0.000000000000000
11
-48.7538550057538
21
6.57434275813225
31
0.000000000000000
  0
LINE
  5
F100C0
330
F100C1
100
AcDbEntity
8
Geo
100
AcDbLine
10
-48.7538550057538
20
6.57434275813225
30
0.000000000000000
11
-48.6538550057538
21
6.54395275196809
31
0.000000000000000
  0
LINE
  5
F100C2
330
F100C3
100
AcDbEntity
8
Geo
100
AcDbLine
10
-48.6538550057538
20
6.54395275196809
30
0.000000000000000
11
-48.5538550057538
21
6.51247195017161
31
0.000000000000000
  0
LINE
  5
F100C4
330
F100C5
100
AcDbEntity
8
Geo
100
AcDbLine
10
-48.5538550057538
20
6.51247195017161
30
0.000000000000000
11
-48.4538550057538
21
6.47990650965936
31
0.000000000000000
  0
LINE
  5
F100C6
330
F100C7
100
AcDbEntity
8
Geo
100
AcDbLine
10
-48.4538550057538
20
6.47990650965936
30
0.000000000000000
11
-48.3538550057538
21
6.44626279947810
31
0.000000000000000
  0
LINE
  5
F100C8
330
F100C9
100
AcDbEntity
8
Geo
100
AcDbLine
10
-48.3538550057538
20
6.44626279947810
30
0.000000000000000
11
-48.2538550057538
21
6.41154739955922
31
0.000000000000000
  0
LINE
  5
F100CA
330
F100CB
100
AcDbEntity
8
Geo
100
AcDbLine
10
-48.2538550057538
20
6.41154739955922
30
0.000000000000000
11
-48.1538550057538
21
6.37576709943182
31
0.000000000000000
  0
LINE
  5
F100CC
330
F100CD
100
AcDbEntity
8
Geo
100
AcDbLine
10
-48.1538550057538
20
6.37576709943182
30
0.000000000000000
11
-48.0538550057538
21
6.33892889689484
31
0.000000000000000
  0
LINE
  5
F100CE
330
F100CF
100
AcDbEntity
8
Geo
100
AcDbLine
10
-48.0538550057538
20
6.33892889689484
30
0.000000000000000
11
-47.9538550057538
21
6.30103999664846
31
0.000000000000000
  0
LINE
  5
F100D0
330
F100D1
100
AcDbEntity
8
Geo
100
AcDbLine
10
-47.9538550057538
20
6.30103999664846
30
0.000000000000000
11
-47.8538550057538
21
6.26210780888503
31
0.000000000000000
  0
LINE
  5
F100D2
330
F100D3
100
AcDbEntity
8
Geo
100
AcDbLine
10
-47.8538550057538
20
6.26210780888503
30
0.000000000000000
11
-47.7538550057538
21
6.22213994783980
31
0.000000000000000
  0
LINE
  5
F100D4
330
F100D5
100
AcDbEntity
8
Geo
100
AcDbLine
10
-47.7538550057538
20
6.22213994783980
30
0.000000000000000
11
-47.6538550057538
21
6.18114423030175
31
0.000000000000000
  0
LINE
  5
F100D6
330
F100D7
100
AcDbEntity
8
Geo
100
AcDbLine
10
-47.6538550057538
20
6.18114423030175
30
0.000000000000000
11
-47.5538550057538
21
6.13912867408481
31
0.000000000000000
  0
LINE
  5
F100D8
330
F100D9
100
AcDbEntity
8
Geo
100
AcDbLine
10
-47.5538550057538
20
6.13912867408481
30
0.000000000000000
11
-47.4538550057538
21
6.09610149645977
31
0.000000000000000
  0
LINE
  5
F100DA
330
F100DB
100
AcDbEntity
8
Geo
100
AcDbLine
10
-47.4538550057538
20
6.09610149645977
30
0.000000000000000
11
-47.3538550057538
21
6.05207111254716
31
0.000000000000000
  0
LINE
  5
F100DC
330
F100DD
100
AcDbEntity
8
Geo
100
AcDbLine
10
-47.3538550057538
20
6.05207111254716
30
0.000000000000000
11
-47.2538550057538
21
6.00704613367144
31
0.000000000000000
  0
LINE
  5
F100DE
330
F100DF
100
AcDbEntity
8
Geo
100
AcDbLine
10
-47.2538550057538
20
6.00704613367144
30
0.000000000000000
11
-47.1538550057538
21
5.96103536567686
31
0.000000000000000
  0
LINE
  5
F100E0
330
F100E1
100
AcDbEntity
8
Geo
100
AcDbLine
10
-47.1538550057538
20
5.96103536567686
30
0.000000000000000
11
-47.0538550057538
21
5.91404780720520
31
0.000000000000000
  0
LINE
  5
F100E2
330
F100E3
100
AcDbEntity
8
Geo
100
AcDbLine
10
-47.0538550057538
20
5.91404780720520
30
0.000000000000000
11
-46.9538550057538
21
5.86609264793585
31
0.000000000000000
  0
LINE
  5
F100E4
330
F100E5
100
AcDbEntity
8
Geo
100
AcDbLine
10
-46.9538550057538
20
5.86609264793585
30
0.000000000000000
11
-46.8538550057538
21
5.81717926678855
31
0.000000000000000
  0
LINE
  5
F100E6
330
F100E7
100
AcDbEntity
8
Geo
100
AcDbLine
10
-46.8538550057538
20
5.81717926678855
30
0.000000000000000
11
-46.7538550057538
21
5.76731723008906
31
0.000000000000000
  0
LINE
  5
F100E8
330
F100E9
100
AcDbEntity
8
Geo
100
AcDbLine
10
-46.7538550057538
20
5.76731723008906
30
0.000000000000000
11
-46.6538550057538
21
5.71651628969823
31
0.000000000000000
  0
LINE
  5
F100EA
330
F100EB
100
AcDbEntity
8
Geo
100
AcDbLine
10
-46.6538550057538
20
5.71651628969823
30
0.000000000000000
11
-46.5538550057538
21
5.66478638110474
31
0.000000000000000
  0
LINE
  5
F100EC
330
F100ED
100
AcDbEntity
8
Geo
100
AcDbLine
10
-46.5538550057538
20
5.66478638110474
30
0.000000000000000
11
-46.4538550057538
21
5.61213762148197
31
0.000000000000000
  0
LINE
  5
F100EE
330
F100EF
100
AcDbEntity
8
Geo
100
AcDbLine
10
-46.4538550057538
20
5.61213762148197
30
0.000000000000000
11
-46.3538550057538
21
5.55858030770928
31
0.000000000000000
  0
LINE
  5
F100F0
330
F100F1
100
AcDbEntity
8
Geo
100
AcDbLine
10
-46.3538550057538
20
5.55858030770928
30
0.000000000000000
11
-46.2538550057538
21
5.50412491435824
31
0.000000000000000
  0
LINE
  5
F100F2
330
F100F3
100
AcDbEntity
8
Geo
100
AcDbLine
10
-46.2538550057538
20
5.50412491435824
30
0.000000000000000
11
-46.1538550057538
21
5.44878209164397
31
0.000000000000000
  0
LINE
  5
F100F4
330
F100F5
100
AcDbEntity
8
Geo
100
AcDbLine
10
-46.1538550057538
20
5.44878209164397
30
0.000000000000000
11
-46.0538550057538
21
5.39256266334228
31
0.000000000000000
  0
LINE
  5
F100F6
330
F100F7
100
AcDbEntity
8
Geo
100
AcDbLine
10
-46.0538550057538
20
5.39256266334228
30
0.000000000000000
11
-45.9538550057538
21
5.33547762467272
31
0.000000000000000
  0
LINE
  5
F100F8
330
F100F9
100
AcDbEntity
8
Geo
100
AcDbLine
10
-45.9538550057538
20
5.33547762467272
30
0.000000000000000
11
-45.8538550057538
21
5.27753814014823
31
0.000000000000000
  0
LINE
  5
F100FA
330
F100FB
100
AcDbEntity
8
Geo
100
AcDbLine
10
-45.8538550057538
20
5.27753814014823
30
0.000000000000000
11
-45.7538550057538
21
5.21875554139157
31
0.000000000000000
  0
LINE
  5
F100FC
330
F100FD
100
AcDbEntity
8
Geo
100
AcDbLine
10
-45.7538550057538
20
5.21875554139157
30
0.000000000000000
11
-45.6538550057538
21
5.15914132491916
31
0.000000000000000
  0
LINE
  5
F100FE
330
F100FF
100
AcDbEntity
8
Geo
100
AcDbLine
10
-45.6538550057538
20
5.15914132491916
30
0.000000000000000
11
-45.5538550057538
21
5.09870714989258
31
0.000000000000000
  0
LINE
  5
F10100
330
F10101
100
AcDbEntity
8
Geo
100
AcDbLine
10
-45.5538550057538
20
5.09870714989258
30
0.000000000000000
11
-45.4538550057538
21
5.03746483583835
31
0.000000000000000
  0
LINE
  5
F10102
330
F10103
100
AcDbEntity
8
Geo
100
AcDbLine
10
-45.4538550057538
20
5.03746483583835
30
0.000000000000000
11
-45.3538550057538
21
4.97542636033630
31
0.000000000000000
  0
LINE
  5
F10104
330
F10105
100
AcDbEntity
8
Geo
100
AcDbLine
10
-45.3538550057538
20
4.97542636033630
30
0.000000000000000
11
-45.2538550057538
21
4.91260385667699
31
0.000000000000000
  0
LINE
  5
F10106
330
F10107
100
AcDbEntity
8
Geo
100
AcDbLine
10
-45.2538550057538
20
4.91260385667699
30
0.000000000000000
11
-45.1538550057538
21
4.84900961148878
31
0.000000000000000
  0
LINE
  5
F10108
330
F10109
100
AcDbEntity
8
Geo
100
AcDbLine
10
-45.1538550057538
20
4.84900961148878
30
0.000000000000000
11
-45.0538550057538
21
4.78465606233479
31
0.000000000000000
  0
LINE
  5
F1010A
330
F1010B
100
AcDbEntity
8
Geo
100
AcDbLine
10
-45.0538550057538
20
4.78465606233479
30
0.000000000000000
11
-44.9538550057538
21
4.71955579528046
31
0.000000000000000
  0
LINE
  5
F1010C
330
F1010D
100
AcDbEntity
8
Geo
100
AcDbLine
10
-44.9538550057538
20
4.71955579528046
30
0.000000000000000
11
-44.8538550057538
21
4.65372154243195
31
0.000000000000000
  0
LINE
  5
F1010E
330
F1010F
100
AcDbEntity
8
Geo
100
AcDbLine
10
-44.8538550057538
20
4.65372154243195
30
0.000000000000000
11
-44.7538550057538
21
4.58716617944608
31
0.000000000000000
  0
LINE
  5
F10110
330
F10111
100
AcDbEntity
8
Geo
100
AcDbLine
10
-44.7538550057538
20
4.58716617944608
30
0.000000000000000
11
-44.6538550057538
21
4.51990272301212
31
0.000000000000000
  0
LINE
  5
F10112
330
F10113
100
AcDbEntity
8
Geo
100
AcDbLine
10
-44.6538550057538
20
4.51990272301212
30
0.000000000000000
11
-44.5538550057538
21
4.45194432830603
31
0.000000000000000
  0
LINE
  5
F10114
330
F10115
100
AcDbEntity
8
Geo
100
AcDbLine
10
-44.5538550057538
20
4.45194432830603
30
0.000000000000000
11
-44.4538550057538
21
4.38330428641764
31
0.000000000000000
  0
LINE
  5
F10116
330
F10117
100
AcDbEntity
8
Geo
100
AcDbLine
10
-44.4538550057538
20
4.38330428641764
30
0.000000000000000
11
-44.3538550057538
21
4.31399602175119
31
0.000000000000000
  0
LINE
  5
F10118
330
F10119
100
AcDbEntity
8
Geo
100
AcDbLine
10
-44.3538550057538
20
4.31399602175119
30
0.000000000000000
11
-44.2538550057538
21
4.24403308939982
31
0.000000000000000
  0
LINE
  5
F1011A
330
F1011B
100
AcDbEntity
8
Geo
100
AcDbLine
10
-44.2538550057538
20
4.24403308939982
30
0.000000000000000
11
-44.1538550057538
21
4.17342917249454
31
0.000000000000000
  0
LINE
  5
F1011C
330
F1011D
100
AcDbEntity
8
Geo
100
AcDbLine
10
-44.1538550057538
20
4.17342917249454
30
0.000000000000000
11
-44.0538550057538
21
4.10219807952812
31
0.000000000000000
  0
LINE
  5
F1011E
330
F1011F
100
AcDbEntity
8
Geo
100
AcDbLine
10
-44.0538550057538
20
4.10219807952812
30
0.000000000000000
11
-43.9538550057538
21
4.03035374165443
31
0.000000000000000
  0
LINE
  5
F10120
330
F10121
100
AcDbEntity
8
Geo
100
AcDbLine
10
-43.9538550057538
20
4.03035374165443
30
0.000000000000000
11
-43.8538550057538
21
3.95791020996388
31
0.000000000000000
  0
LINE
  5
F10122
330
F10123
100
AcDbEntity
8
Geo
100
AcDbLine
10
-43.8538550057538
20
3.95791020996388
30
0.000000000000000
11
-43.7538550057538
21
3.88488165273533
31
0.000000000000000
  0
LINE
  5
F10124
330
F10125
100
AcDbEntity
8
Geo
100
AcDbLine
10
-43.7538550057538
20
3.88488165273533
30
0.000000000000000
11
-43.6538550057538
21
3.81128235266507
31
0.000000000000000
  0
LINE
  5
F10126
330
F10127
100
AcDbEntity
8
Geo
100
AcDbLine
10
-43.6538550057538
20
3.81128235266507
30
0.000000000000000
11
-43.5538550057538
21
3.73712670407353
31
0.000000000000000
  0
LINE
  5
F10128
330
F10129
100
AcDbEntity
8
Geo
100
AcDbLine
10
-43.5538550057538
20
3.73712670407353
30
0.000000000000000
11
-43.4538550057538
21
3.66242921009000
31
0.000000000000000
  0
LINE
  5
F1012A
330
F1012B
100
AcDbEntity
8
Geo
100
AcDbLine
10
-43.4538550057538
20
3.66242921009000
30
0.000000000000000
11
-43.3538550057538
21
3.58720447981622
31
0.000000000000000
  0
LINE
  5
F1012C
330
F1012D
100
AcDbEntity
8
Geo
100
AcDbLine
10
-43.3538550057538
20
3.58720447981622
30
0.000000000000000
11
-43.2538550057538
21
3.51146722546914
31
0.000000000000000
  0
LINE
  5
F1012E
330
F1012F
100
AcDbEntity
8
Geo
100
AcDbLine
10
-43.2538550057538
20
3.51146722546914
30
0.000000000000000
11
-43.1538550057538
21
3.43523225950357
31
0.000000000000000
  0
LINE
  5
F10130
330
F10131
100
AcDbEntity
8
Geo
100
AcDbLine
10
-43.1538550057538
20
3.43523225950357
30
0.000000000000000
11
-43.0538550057538
21
3.35851449171518
31
0.000000000000000
  0
LINE
  5
F10132
330
F10133
100
AcDbEntity
8
Geo
100
AcDbLine
10
-43.0538550057538
20
3.35851449171518
30
0.000000000000000
11
-42.9538550057538
21
3.28132892632452
31
0.000000000000000
  0
LINE
  5
F10134
330
F10135
100
AcDbEntity
8
Geo
100
AcDbLine
10
-42.9538550057538
20
3.28132892632452
30
0.000000000000000
11
-42.8538550057538
21
3.20369065904254
31
0.000000000000000
  0
LINE
  5
F10136
330
F10137
100
AcDbEntity
8
Geo
100
AcDbLine
10
-42.8538550057538
20
3.20369065904254
30
0.000000000000000
11
-42.7538550057538
21
3.12561487411819
31
0.000000000000000
  0
LINE
  5
F10138
330
F10139
100
AcDbEntity
8
Geo
100
AcDbLine
10
-42.7538550057538
20
3.12561487411819
30
0.000000000000000
11
-42.6538550057538
21
3.04711684136874
31
0.000000000000000
  0
LINE
  5
F1013A
330
F1013B
100
AcDbEntity
8
Geo
100
AcDbLine
10
-42.6538550057538
20
3.04711684136874
30
0.000000000000000
11
-42.5538550057538
21
2.96821191319340
31
0.000000000000000
  0
LINE
  5
F1013C
330
F1013D
100
AcDbEntity
8
Geo
100
AcDbLine
10
-42.5538550057538
20
2.96821191319340
30
0.000000000000000
11
-42.4538550057538
21
2.88891552157067
31
0.000000000000000
  0
LINE
  5
F1013E
330
F1013F
100
AcDbEntity
8
Geo
100
AcDbLine
10
-42.4538550057538
20
2.88891552157067
30
0.000000000000000
11
-42.3538550057538
21
2.80924317504029
31
0.000000000000000
  0
LINE
  5
F10140
330
F10141
100
AcDbEntity
8
Geo
100
AcDbLine
10
-42.3538550057538
20
2.80924317504029
30
0.000000000000000
11
-42.2538550057538
21
2.72921045567004
31
0.000000000000000
  0
LINE
  5
F10142
330
F10143
100
AcDbEntity
8
Geo
100
AcDbLine
10
-42.2538550057538
20
2.72921045567004
30
0.000000000000000
11
-42.1538550057538
21
2.64883301600831
31
0.000000000000000
  0
LINE
  5
F10144
330
F10145
100
AcDbEntity
8
Geo
100
AcDbLine
10
-42.1538550057538
20
2.64883301600831
30
0.000000000000000
11
-42.0538550057538
21
2.56812657602282
31
0.000000000000000
  0
LINE
  5
F10146
330
F10147
100
AcDbEntity
8
Geo
100
AcDbLine
10
-42.0538550057538
20
2.56812657602282
30
0.000000000000000
11
-41.9538550057538
21
2.48710692002610
31
0.000000000000000
  0
LINE
  5
F10148
330
F10149
100
AcDbEntity
8
Geo
100
AcDbLine
10
-41.9538550057538
20
2.48710692002610
30
0.000000000000000
11
-41.8538550057538
21
2.40578989358853
31
0.000000000000000
  0
LINE
  5
F1014A
330
F1014B
100
AcDbEntity
8
Geo
100
AcDbLine
10
-41.8538550057538
20
2.40578989358853
30
0.000000000000000
11
-41.7538550057538
21
2.32419140043923
31
0.000000000000000
  0
LINE
  5
F1014C
330
F1014D
100
AcDbEntity
8
Geo
100
AcDbLine
10
-41.7538550057538
20
2.32419140043923
30
0.000000000000000
11
-41.6538550057538
21
2.24232739935574
31
0.000000000000000
  0
LINE
  5
F1014E
330
F1014F
100
AcDbEntity
8
Geo
100
AcDbLine
10
-41.6538550057538
20
2.24232739935574
30
0.000000000000000
11
-41.5538550057538
21
2.16021390104276
31
0.000000000000000
  0
LINE
  5
F10150
330
F10151
100
AcDbEntity
8
Geo
100
AcDbLine
10
-41.5538550057538
20
2.16021390104276
30
0.000000000000000
11
-41.4538550057538
21
2.07786696500093
31
0.000000000000000
  0
LINE
  5
F10152
330
F10153
100
AcDbEntity
8
Geo
100
AcDbLine
10
-41.4538550057538
20
2.07786696500093
30
0.000000000000000
11
-41.3538550057538
21
1.99530269638586
31
0.000000000000000
  0
LINE
  5
F10154
330
F10155
100
AcDbEntity
8
Geo
100
AcDbLine
10
-41.3538550057538
20
1.99530269638586
30
0.000000000000000
11
-41.2538550057538
21
1.91253724285840
31
0.000000000000000
  0
LINE
  5
F10156
330
F10157
100
AcDbEntity
8
Geo
100
AcDbLine
10
-41.2538550057538
20
1.91253724285840
30
0.000000000000000
11
-41.1538550057538
21
1.82958679142654
31
0.000000000000000
  0
LINE
  5
F10158
330
F10159
100
AcDbEntity
8
Geo
100
AcDbLine
10
-41.1538550057538
20
1.82958679142654
30
0.000000000000000
11
-41.0538550057538
21
1.74646756527955
31
0.000000000000000
  0
LINE
  5
F1015A
330
F1015B
100
AcDbEntity
8
Geo
100
AcDbLine
10
-41.0538550057538
20
1.74646756527955
30
0.000000000000000
11
-40.9538550057538
21
1.66319582061514
31
0.000000000000000
  0
LINE
  5
F1015C
330
F1015D
100
AcDbEntity
8
Geo
100
AcDbLine
10
-40.9538550057538
20
1.66319582061514
30
0.000000000000000
11
-40.8538550057538
21
1.57978784346011
31
0.000000000000000
  0
LINE
  5
F1015E
330
F1015F
100
AcDbEntity
8
Geo
100
AcDbLine
10
-40.8538550057538
20
1.57978784346011
30
0.000000000000000
11
-40.7538550057538
21
1.49625994648518
31
0.000000000000000
  0
LINE
  5
F10160
330
F10161
100
AcDbEntity
8
Geo
100
AcDbLine
10
-40.7538550057538
20
1.49625994648518
30
0.000000000000000
11
-40.6538550057538
21
1.41262846581463
31
0.000000000000000
  0
LINE
  5
F10162
330
F10163
100
AcDbEntity
8
Geo
100
AcDbLine
10
-40.6538550057538
20
1.41262846581463
30
0.000000000000000
11
-40.5538550057538
21
1.32890975783130
31
0.000000000000000
  0
LINE
  5
F10164
330
F10165
100
AcDbEntity
8
Geo
100
AcDbLine
10
-40.5538550057538
20
1.32890975783130
30
0.000000000000000
11
-40.4538550057538
21
1.24512019597768
31
0.000000000000000
  0
LINE
  5
F10166
330
F10167
100
AcDbEntity
8
Geo
100
AcDbLine
10
-40.4538550057538
20
1.24512019597768
30
0.000000000000000
11
-40.3538550057538
21
1.16127616755363
31
0.000000000000000
  0
LINE
  5
F10168
330
F10169
100
AcDbEntity
8
Geo
100
AcDbLine
10
-40.3538550057538
20
1.16127616755363
30
0.000000000000000
11
-40.2538550057538
21
1.07739407051141
31
0.000000000000000
  0
LINE
  5
F1016A
330
F1016B
100
AcDbEntity
8
Geo
100
AcDbLine
10
-40.2538550057538
20
1.07739407051141
30
0.000000000000000
11
-40.1538550057538
21
0.993490310248648
31
0.000000000000000
  0
LINE
  5
F1016C
330
F1016D
100
AcDbEntity
8
Geo
100
AcDbLine
10
-40.1538550057538
20
0.993490310248648
30
0.000000000000000
11
-40.0538550057538
21
0.909581296399760
31
0.000000000000000
  0
LINE
  5
F1016E
330
F1016F
100
AcDbEntity
8
Geo
100
AcDbLine
10
-40.0538550057538
20
0.909581296399760
30
0.000000000000000
11
-39.9538550057538
21
0.825683439626663
31
0.000000000000000
  0
LINE
  5
F10170
330
F10171
100
AcDbEntity
8
Geo
100
AcDbLine
10
-39.9538550057538
20
0.825683439626663
30
0.000000000000000
11
-39.8538550057538
21
0.741813148409204
31
0.000000000000000
  0
LINE
  5
F10172
330
F10173
100
AcDbEntity
8
Geo
100
AcDbLine
10
-39.8538550057538
20
0.741813148409204
30
0.000000000000000
11
-39.7538550057538
21
0.657986825836042
31
0.000000000000000
  0
LINE
  5
F10174
330
F10175
100
AcDbEntity
8
Geo
100
AcDbLine
10
-39.7538550057538
20
0.657986825836042
30
0.000000000000000
11
-39.6538550057538
21
0.574220866396592
31
0.000000000000000
  0
LINE
  5
F10176
330
F10177
100
AcDbEntity
8
Geo
100
AcDbLine
10
-39.6538550057538
20
0.574220866396592
30
0.000000000000000
11
-39.5538550057538
21
0.490531652774630
31
0.000000000000000
  0
LINE
  5
F10178
330
F10179
100
AcDbEntity
8
Geo
100
AcDbLine
10
-39.5538550057538
20
0.490531652774630
30
0.000000000000000
11
-39.4538550057538
21
0.406935552644232
31
0.000000000000000
  0
LINE
  5
F1017A
330
F1017B
100
AcDbEntity
8
Geo
100
AcDbLine
10
-39.4538550057538
20
0.406935552644232
30
0.000000000000000
11
-39.3538550057538
21
0.323448915468623
31
0.000000000000000
  0
LINE
  5
F1017C
330
F1017D
100
AcDbEntity
8
Geo
100
AcDbLine
10
-39.3538550057538
20
0.323448915468623
30
0.000000000000000
11
-39.2538550057538
21
0.240088069302612
31
0.000000000000000
  0
LINE
  5
F1017E
330
F1017F
100
AcDbEntity
8
Geo
100
AcDbLine
10
-39.2538550057538
20
0.240088069302612
30
0.000000000000000
11
-39.1538550057538
21
0.156869317599192
31
0.000000000000000
  0
LINE
  5
F10180
330
F10181
100
AcDbEntity
8
Geo
100
AcDbLine
10
-39.1538550057538
20
0.156869317599192
30
0.000000000000000
11
-39.0538550057538
21
0.0738089360209706
31
0.000000000000000
  0
LINE
  5
F10182
330
F10183
100
AcDbEntity
8
Geo
100
AcDbLine
10
-39.0538550057538
20
0.0738089360209706
30
0.000000000000000
11
-38.9538550057538
21
-0.00907683074298093
31
0.000000000000000
  0
LINE
  5
F10184
330
F10185
100
AcDbEntity
8
Geo
100
AcDbLine
10
-38.9538550057538
20
-0.00907683074298093
30
0.000000000000000
11
-38.8538550057538
21
-0.0917717721542075
31
0.000000000000000
  0
LINE
  5
F10186
330
F10187
100
AcDbEntity
8
Geo
100
AcDbLine
10
-38.8538550057538
20
-0.0917717721542075
30
0.000000000000000
11
-38.7538550057538
21
-0.174259714995278
31
0.000000000000000
  0
LINE
  5
F10188
330
F10189
100
AcDbEntity
8
Geo
100
AcDbLine
10
-38.7538550057538
20
-0.174259714995278
30
0.000000000000000
11
-38.6538550057538
21
-0.256524526532895
31
0.000000000000000
  0
LINE
  5
F1018A
330
F1018B
100
AcDbEntity
8
Geo
100
AcDbLine
10
-38.6538550057538
20
-0.256524526532895
30
0.000000000000000
11
-38.5538550057538
21
-0.338550117673078
31
0.000000000000000
  0
LINE
  5
F1018C
330
F1018D
100
AcDbEntity
8
Geo
100
AcDbLine
10
-38.5538550057538
20
-0.338550117673078
30
0.000000000000000
11
-38.4538550057538
21
-0.420320446107827
31
0.000000000000000
  0
LINE
  5
F1018E
330
F1018F
100
AcDbEntity
8
Geo
100
AcDbLine
10
-38.4538550057538
20
-0.420320446107827
30
0.000000000000000
11
-38.3538550057538
21
-0.501819519452618
31
0.000000000000000
  0
LINE
  5
F10190
330
F10191
100
AcDbEntity
8
Geo
100
AcDbLine
10
-38.3538550057538
20
-0.501819519452618
30
0.000000000000000
11
-38.2538550057538
21
-0.583031398374148
31
0.000000000000000
  0
LINE
  5
F10192
330
F10193
100
AcDbEntity
8
Geo
100
AcDbLine
10
-38.2538550057538
20
-0.583031398374148
30
0.000000000000000
11
-38.1538550057538
21
-0.663940199707700
31
0.000000000000000
  0
LINE
  5
F10194
330
F10195
100
AcDbEntity
8
Geo
100
AcDbLine
10
-38.1538550057538
20
-0.663940199707700
30
0.000000000000000
11
-38.0538550057538
21
-0.744530099563522
31
0.000000000000000
  0
LINE
  5
F10196
330
F10197
100
AcDbEntity
8
Geo
100
AcDbLine
10
-38.0538550057538
20
-0.744530099563522
30
0.000000000000000
11
-37.9538550057538
21
-0.824785336421612
31
0.000000000000000
  0
LINE
  5
F10198
330
F10199
100
AcDbEntity
8
Geo
100
AcDbLine
10
-37.9538550057538
20
-0.824785336421612
30
0.000000000000000
11
-37.8538550057538
21
-0.904690214214308
31
0.000000000000000
  0
LINE
  5
F1019A
330
F1019B
100
AcDbEntity
8
Geo
100
AcDbLine
10
-37.8538550057538
20
-0.904690214214308
30
0.000000000000000
11
-37.7538550057538
21
-0.984229105396078
31
0.000000000000000
  0
LINE
  5
F1019C
330
F1019D
100
AcDbEntity
8
Geo
100
AcDbLine
10
-37.7538550057538
20
-0.984229105396078
30
0.000000000000000
11
-37.6538550057538
21
-1.06338645399990
31
0.000000000000000
  0
LINE
  5
F1019E
330
F1019F
100
AcDbEntity
8
Geo
100
AcDbLine
10
-37.6538550057538
20
-1.06338645399990
30
0.000000000000000
11
-37.5538550057538
21
-1.14214677867966
31
0.000000000000000
  0
LINE
  5
F101A0
330
F101A1
100
AcDbEntity
8
Geo
100
AcDbLine
10
-37.5538550057538
20
-1.14214677867966
30
0.000000000000000
11
-37.4538550057538
21
-1.22049467573793
31
0.000000000000000
  0
LINE
  5
F101A2
330
F101A3
100
AcDbEntity
8
Geo
100
AcDbLine
10
-37.4538550057538
20
-1.22049467573793
30
0.000000000000000
11
-37.3538550057538
21
-1.29841482213859
31
0.000000000000000
  0
LINE
  5
F101A4
330
F101A5
100
AcDbEntity
8
Geo
100
AcDbLine
10
-51.3538550057538
20
0.945541842156867
30
0.000000000000000
11
-51.2538550057538
21
0.876393427591259
31
0.000000000000000
  0
LINE
  5
F101A6
330
F101A7
100
AcDbEntity
8
Geo
100
AcDbLine
10
-51.2538550057538
20
0.876393427591259
30
0.000000000000000
11
-51.2538550057538
21
0.876393427591259
31
0.000000000000000
  0
LINE
  5
F101A8
330
F101A9
100
AcDbEntity
8
Geo
100
AcDbLine
10
-51.2538550057538
20
0.876393427591259
30
0.000000000000000
11
-51.1538550057538
21
0.798830262795829
31
0.000000000000000
  0
LINE
  5
F101AA
330
F101AB
100
AcDbEntity
8
Geo
100
AcDbLine
10
-51.1538550057538
20
0.798830262795829
30
0.000000000000000
11
-51.0538550057538
21
0.714972262565617
31
0.000000000000000
  0
LINE
  5
F101AC
330
F101AD
100
AcDbEntity
8
Geo
100
AcDbLine
10
-51.0538550057538
20
0.714972262565617
30
0.000000000000000
11
-50.9538550057538
21
0.631163480436022
31
0.000000000000000
  0
LINE
  5
F101AE
330
F101AF
100
AcDbEntity
8
Geo
100
AcDbLine
10
-50.9538550057538
20
0.631163480436022
30
0.000000000000000
11
-50.8538550057538
21
0.547420307465952
31
0.000000000000000
  0
LINE
  5
F101B0
330
F101B1
100
AcDbEntity
8
Geo
100
AcDbLine
10
-50.8538550057538
20
0.547420307465952
30
0.000000000000000
11
-50.7538550057538
21
0.463759121882680
31
0.000000000000000
  0
LINE
  5
F101B2
330
F101B3
100
AcDbEntity
8
Geo
100
AcDbLine
10
-50.7538550057538
20
0.463759121882680
30
0.000000000000000
11
-50.6538550057538
21
0.380196285878643
31
0.000000000000000
  0
LINE
  5
F101B4
330
F101B5
100
AcDbEntity
8
Geo
100
AcDbLine
10
-50.6538550057538
20
0.380196285878643
30
0.000000000000000
11
-50.5538550057538
21
0.296748142411374
31
0.000000000000000
  0
LINE
  5
F101B6
330
F101B7
100
AcDbEntity
8
Geo
100
AcDbLine
10
-50.5538550057538
20
0.296748142411374
30
0.000000000000000
11
-50.4538550057538
21
0.213431012007203
31
0.000000000000000
  0
LINE
  5
F101B8
330
F101B9
100
AcDbEntity
8
Geo
100
AcDbLine
10
-50.4538550057538
20
0.213431012007203
30
0.000000000000000
11
-50.3538550057538
21
0.130261189569332
31
0.000000000000000
  0
LINE
  5
F101BA
330
F101BB
100
AcDbEntity
8
Geo
100
AcDbLine
10
-50.3538550057538
20
0.130261189569332
30
0.000000000000000
11
-50.2538550057538
21
0.0472549411909335
31
0.000000000000000
  0
LINE
  5
F101BC
330
F101BD
100
AcDbEntity
8
Geo
100
AcDbLine
10
-50.2538550057538
20
0.0472549411909335
30
0.000000000000000
11
-50.1538550057538
21
-0.0355714990261198
31
0.000000000000000
  0
LINE
  5
F101BE
330
F101BF
100
AcDbEntity
8
Geo
100
AcDbLine
10
-50.1538550057538
20
-0.0355714990261198
30
0.000000000000000
11
-50.0538550057538
21
-0.118201932146274
31
0.000000000000000
  0
LINE
  5
F101C0
330
F101C1
100
AcDbEntity
8
Geo
100
AcDbLine
10
-50.0538550057538
20
-0.118201932146274
30
0.000000000000000
11
-49.9538550057538
21
-0.200620197568428
31
0.000000000000000
  0
LINE
  5
F101C2
330
F101C3
100
AcDbEntity
8
Geo
100
AcDbLine
10
-49.9538550057538
20
-0.200620197568428
30
0.000000000000000
11
-49.8538550057538
21
-0.282810176186573
31
0.000000000000000
  0
LINE
  5
F101C4
330
F101C5
100
AcDbEntity
8
Geo
100
AcDbLine
10
-49.8538550057538
20
-0.282810176186573
30
0.000000000000000
11
-49.7538550057538
21
-0.364755793542320
31
0.000000000000000
  0
LINE
  5
F101C6
330
F101C7
100
AcDbEntity
8
Geo
100
AcDbLine
10
-49.7538550057538
20
-0.364755793542320
30
0.000000000000000
11
-49.6538550057538
21
-0.446441022968689
31
0.000000000000000
  0
LINE
  5
F101C8
330
F101C9
100
AcDbEntity
8
Geo
100
AcDbLine
10
-49.6538550057538
20
-0.446441022968689
30
0.000000000000000
11
-49.5538550057538
21
-0.527849888724553
31
0.000000000000000
  0
LINE
  5
F101CA
330
F101CB
100
AcDbEntity
8
Geo
100
AcDbLine
10
-49.5538550057538
20
-0.527849888724553
30
0.000000000000000
11
-49.4538550057538
21
-0.608966469119128
31
0.000000000000000
  0
LINE
  5
F101CC
330
F101CD
100
AcDbEntity
8
Geo
100
AcDbLine
10
-49.4538550057538
20
-0.608966469119128
30
0.000000000000000
11
-49.3538550057538
21
-0.689774899625883
31
0.000000000000000
  0
LINE
  5
F101CE
330
F101CF
100
AcDbEntity
8
Geo
100
AcDbLine
10
-49.3538550057538
20
-0.689774899625883
30
0.000000000000000
11
-49.2538550057538
21
-0.770259375985277
31
0.000000000000000
  0
LINE
  5
F101D0
330
F101D1
100
AcDbEntity
8
Geo
100
AcDbLine
10
-49.2538550057538
20
-0.770259375985277
30
0.000000000000000
11
-49.1538550057538
21
-0.850404157295707
31
0.000000000000000
  0
LINE
  5
F101D2
330
F101D3
100
AcDbEntity
8
Geo
100
AcDbLine
10
-49.1538550057538
20
-0.850404157295707
30
0.000000000000000
11
-49.0538550057538
21
-0.930193569092060
31
0.000000000000000
  0
LINE
  5
F101D4
330
F101D5
100
AcDbEntity
8
Geo
100
AcDbLine
10
-49.0538550057538
20
-0.930193569092060
30
0.000000000000000
11
-48.9538550057538
21
-1.00961200641128
31
0.000000000000000
  0
LINE
  5
F101D6
330
F101D7
100
AcDbEntity
8
Geo
100
AcDbLine
10
-48.9538550057538
20
-1.00961200641128
30
0.000000000000000
11
-48.8538550057538
21
-1.08864393684434
31
0.000000000000000
  0
LINE
  5
F101D8
330
F101D9
100
AcDbEntity
8
Geo
100
AcDbLine
10
-48.8538550057538
20
-1.08864393684434
30
0.000000000000000
11
-48.7538550057538
21
-1.16727390357401
31
0.000000000000000
  0
LINE
  5
F101DA
330
F101DB
100
AcDbEntity
8
Geo
100
AcDbLine
10
-48.7538550057538
20
-1.16727390357401
30
0.000000000000000
11
-48.6538550057538
21
-1.24548652839786
31
0.000000000000000
  0
LINE
  5
F101DC
330
F101DD
100
AcDbEntity
8
Geo
100
AcDbLine
10
-48.6538550057538
20
-1.24548652839786
30
0.000000000000000
11
-48.5538550057538
21
-1.32326651473591
31
0.000000000000000
  0
LINE
  5
F101DE
330
F101DF
100
AcDbEntity
8
Geo
100
AcDbLine
10
-48.5538550057538
20
-1.32326651473591
30
0.000000000000000
11
-48.4538550057538
21
-1.40059865062221
31
0.000000000000000
  0
LINE
  5
F101E0
330
F101E1
100
AcDbEntity
8
Geo
100
AcDbLine
10
-48.4538550057538
20
-1.40059865062221
30
0.000000000000000
11
-48.3538550057538
21
-1.47746781168004
31
0.000000000000000
  0
LINE
  5
F101E2
330
F101E3
100
AcDbEntity
8
Geo
100
AcDbLine
10
-48.3538550057538
20
-1.47746781168004
30
0.000000000000000
11
-48.2538550057538
21
-1.55385896407983
31
0.000000000000000
  0
LINE
  5
F101E4
330
F101E5
100
AcDbEntity
8
Geo
100
AcDbLine
10
-48.2538550057538
20
-1.55385896407983
30
0.000000000000000
11
-48.1538550057538
21
-1.62975716747943
31
0.000000000000000
  0
LINE
  5
F101E6
330
F101E7
100
AcDbEntity
8
Geo
100
AcDbLine
10
-48.1538550057538
20
-1.62975716747943
30
0.000000000000000
11
-48.0538550057538
21
-1.70514757794615
31
0.000000000000000
  0
LINE
  5
F101E8
330
F101E9
100
AcDbEntity
8
Geo
100
AcDbLine
10
-48.0538550057538
20
-1.70514757794615
30
0.000000000000000
11
-47.9538550057538
21
-1.78001545085980
31
0.000000000000000
  0
LINE
  5
F101EA
330
F101EB
100
AcDbEntity
8
Geo
100
AcDbLine
10
-47.9538550057538
20
-1.78001545085980
30
0.000000000000000
11
-47.8538550057538
21
-1.85434614379649
31
0.000000000000000
  0
LINE
  5
F101EC
330
F101ED
100
AcDbEntity
8
Geo
100
AcDbLine
10
-47.8538550057538
20
-1.85434614379649
30
0.000000000000000
11
-47.7538550057538
21
-1.92812511939228
31
0.000000000000000
  0
LINE
  5
F101EE
330
F101EF
100
AcDbEntity
8
Geo
100
AcDbLine
10
-47.7538550057538
20
-1.92812511939228
30
0.000000000000000
11
-47.6538550057538
21
-2.00133794818639
31
0.000000000000000
  0
LINE
  5
F101F0
330
F101F1
100
AcDbEntity
8
Geo
100
AcDbLine
10
-47.6538550057538
20
-2.00133794818639
30
0.000000000000000
11
-47.5538550057538
21
-2.07397031144325
31
0.000000000000000
  0
LINE
  5
F101F2
330
F101F3
100
AcDbEntity
8
Geo
100
AcDbLine
10
-47.5538550057538
20
-2.07397031144325
30
0.000000000000000
11
-47.4538550057538
21
-2.14600800395292
31
0.000000000000000
  0
LINE
  5
F101F4
330
F101F5
100
AcDbEntity
8
Geo
100
AcDbLine
10
-47.4538550057538
20
-2.14600800395292
30
0.000000000000000
11
-47.3538550057538
21
-2.21743693680932
31
0.000000000000000
  0
LINE
  5
F101F6
330
F101F7
100
AcDbEntity
8
Geo
100
AcDbLine
10
-47.3538550057538
20
-2.21743693680932
30
0.000000000000000
11
-47.2538550057538
21
-2.28824314016564
31
0.000000000000000
  0
LINE
  5
F101F8
330
F101F9
100
AcDbEntity
8
Geo
100
AcDbLine
10
-47.2538550057538
20
-2.28824314016564
30
0.000000000000000
11
-47.1538550057538
21
-2.35841276596657
31
0.000000000000000
  0
LINE
  5
F101FA
330
F101FB
100
AcDbEntity
8
Geo
100
AcDbLine
10
-47.1538550057538
20
-2.35841276596657
30
0.000000000000000
11
-47.0538550057538
21
-2.42793209065667
31
0.000000000000000
  0
LINE
  5
F101FC
330
F101FD
100
AcDbEntity
8
Geo
100
AcDbLine
10
-47.0538550057538
20
-2.42793209065667
30
0.000000000000000
11
-46.9538550057538
21
-2.49678751786431
31
0.000000000000000
  0
LINE
  5
F101FE
330
F101FF
100
AcDbEntity
8
Geo
100
AcDbLine
10
-46.9538550057538
20
-2.49678751786431
30
0.000000000000000
11
-46.8538550057538
21
-2.56496558106087
31
0.000000000000000
  0
LINE
  5
F10200
330
F10201
100
AcDbEntity
8
Geo
100
AcDbLine
10
-46.8538550057538
20
-2.56496558106087
30
0.000000000000000
11
-46.7538550057538
21
-2.63245294619446
31
0.000000000000000
  0
LINE
  5
F10202
330
F10203
100
AcDbEntity
8
Geo
100
AcDbLine
10
-46.7538550057538
20
-2.63245294619446
30
0.000000000000000
11
-46.6538550057538
21
-2.69923641429774
31
0.000000000000000
  0
LINE
  5
F10204
330
F10205
100
AcDbEntity
8
Geo
100
AcDbLine
10
-46.6538550057538
20
-2.69923641429774
30
0.000000000000000
11
-46.5538550057538
21
-2.76530292406936
31
0.000000000000000
  0
LINE
  5
F10206
330
F10207
100
AcDbEntity
8
Geo
100
AcDbLine
10
-46.5538550057538
20
-2.76530292406936
30
0.000000000000000
11
-46.4538550057538
21
-2.83063955442844
31
0.000000000000000
  0
LINE
  5
F10208
330
F10209
100
AcDbEntity
8
Geo
100
AcDbLine
10
-46.4538550057538
20
-2.83063955442844
30
0.000000000000000
11
-46.3538550057538
21
-2.89523352704159
31
0.000000000000000
  0
LINE
  5
F1020A
330
F1020B
100
AcDbEntity
8
Geo
100
AcDbLine
10
-46.3538550057538
20
-2.89523352704159
30
0.000000000000000
11
-46.2538550057538
21
-2.95907220882214
31
0.000000000000000
  0
LINE
  5
F1020C
330
F1020D
100
AcDbEntity
8
Geo
100
AcDbLine
10
-46.2538550057538
20
-2.95907220882214
30
0.000000000000000
11
-46.1538550057538
21
-3.02214311440080
31
0.000000000000000
  0
LINE
  5
F1020E
330
F1020F
100
AcDbEntity
8
Geo
100
AcDbLine
10
-46.1538550057538
20
-3.02214311440080
30
0.000000000000000
11
-46.0538550057538
21
-3.08443390856756
31
0.000000000000000
  0
LINE
  5
F10210
330
F10211
100
AcDbEntity
8
Geo
100
AcDbLine
10
-46.0538550057538
20
-3.08443390856756
30
0.000000000000000
11
-45.9538550057538
21
-3.14593240868415
31
0.000000000000000
  0
LINE
  5
F10212
330
F10213
100
AcDbEntity
8
Geo
100
AcDbLine
10
-45.9538550057538
20
-3.14593240868415
30
0.000000000000000
11
-45.8538550057538
21
-3.20662658706669
31
0.000000000000000
  0
LINE
  5
F10214
330
F10215
100
AcDbEntity
8
Geo
100
AcDbLine
10
-45.8538550057538
20
-3.20662658706669
30
0.000000000000000
11
-45.7538550057538
21
-3.26650457333801
31
0.000000000000000
  0
LINE
  5
F10216
330
F10217
100
AcDbEntity
8
Geo
100
AcDbLine
10
-45.7538550057538
20
-3.26650457333801
30
0.000000000000000
11
-45.6538550057538
21
-3.32555465674926
31
0.000000000000000
  0
LINE
  5
F10218
330
F10219
100
AcDbEntity
8
Geo
100
AcDbLine
10
-45.6538550057538
20
-3.32555465674926
30
0.000000000000000
11
-45.5538550057538
21
-3.38376528847021
31
0.000000000000000
  0
LINE
  5
F1021A
330
F1021B
100
AcDbEntity
8
Geo
100
AcDbLine
10
-45.5538550057538
20
-3.38376528847021
30
0.000000000000000
11
-45.4538550057538
21
-3.44112508384797
31
0.000000000000000
  0
LINE
  5
F1021C
330
F1021D
100
AcDbEntity
8
Geo
100
AcDbLine
10
-45.4538550057538
20
-3.44112508384797
30
0.000000000000000
11
-45.3538550057538
21
-3.49762282463356
31
0.000000000000000
  0
LINE
  5
F1021E
330
F1021F
100
AcDbEntity
8
Geo
100
AcDbLine
10
-45.3538550057538
20
-3.49762282463356
30
0.000000000000000
11
-45.2538550057538
21
-3.55324746117594
31
0.000000000000000
  0
LINE
  5
F10220
330
F10221
100
AcDbEntity
8
Geo
100
AcDbLine
10
-45.2538550057538
20
-3.55324746117594
30
0.000000000000000
11
-45.1538550057538
21
-3.60798811458304
31
0.000000000000000
  0
LINE
  5
F10222
330
F10223
100
AcDbEntity
8
Geo
100
AcDbLine
10
-45.1538550057538
20
-3.60798811458304
30
0.000000000000000
11
-45.0538550057538
21
-3.66183407884946
31
0.000000000000000
  0
LINE
  5
F10224
330
F10225
100
AcDbEntity
8
Geo
100
AcDbLine
10
-45.0538550057538
20
-3.66183407884946
30
0.000000000000000
11
-44.9538550057538
21
-3.71477482295029
31
0.000000000000000
  0
LINE
  5
F10226
330
F10227
100
AcDbEntity
8
Geo
100
AcDbLine
10
-44.9538550057538
20
-3.71477482295029
30
0.000000000000000
11
-44.8538550057538
21
-3.76679999290075
31
0.000000000000000
  0
LINE
  5
F10228
330
F10229
100
AcDbEntity
8
Geo
100
AcDbLine
10
-44.8538550057538
20
-3.76679999290075
30
0.000000000000000
11
-44.7538550057538
21
-3.81789941378116
31
0.000000000000000
  0
LINE
  5
F1022A
330
F1022B
100
AcDbEntity
8
Geo
100
AcDbLine
10
-44.7538550057538
20
-3.81789941378116
30
0.000000000000000
11
-44.6538550057538
21
-3.86806309172698
31
0.000000000000000
  0
LINE
  5
F1022C
330
F1022D
100
AcDbEntity
8
Geo
100
AcDbLine
10
-44.6538550057538
20
-3.86806309172698
30
0.000000000000000
11
-44.5538550057538
21
-3.91728121588330
31
0.000000000000000
  0
LINE
  5
F1022E
330
F1022F
100
AcDbEntity
8
Geo
100
AcDbLine
10
-44.5538550057538
20
-3.91728121588330
30
0.000000000000000
11
-44.4538550057538
21
-3.96554416032368
31
0.000000000000000
  0
LINE
  5
F10230
330
F10231
100
AcDbEntity
8
Geo
100
AcDbLine
10
-44.4538550057538
20
-3.96554416032368
30
0.000000000000000
11
-44.3538550057538
21
-4.01284248593272
31
0.000000000000000
  0
LINE
  5
F10232
330
F10233
100
AcDbEntity
8
Geo
100
AcDbLine
10
-44.3538550057538
20
-4.01284248593272
30
0.000000000000000
11
-44.2538550057538
21
-4.05916694225217
31
0.000000000000000
  0
LINE
  5
F10234
330
F10235
100
AcDbEntity
8
Geo
100
AcDbLine
10
-44.2538550057538
20
-4.05916694225217
30
0.000000000000000
11
-44.1538550057538
21
-4.10450846929007
31
0.000000000000000
  0
LINE
  5
F10236
330
F10237
100
AcDbEntity
8
Geo
100
AcDbLine
10
-44.1538550057538
20
-4.10450846929007
30
0.000000000000000
11
-44.0538550057538
21
-4.14885819929267
31
0.000000000000000
  0
LINE
  5
F10238
330
F10239
100
AcDbEntity
8
Geo
100
AcDbLine
10
-44.0538550057538
20
-4.14885819929267
30
0.000000000000000
11
-43.9538550057538
21
-4.19220745847880
31
0.000000000000000
  0
LINE
  5
F1023A
330
F1023B
100
AcDbEntity
8
Geo
100
AcDbLine
10
-43.9538550057538
20
-4.19220745847880
30
0.000000000000000
11
-43.8538550057538
21
-4.23454776873624
31
0.000000000000000
  0
LINE
  5
F1023C
330
F1023D
100
AcDbEntity
8
Geo
100
AcDbLine
10
-43.8538550057538
20
-4.23454776873624
30
0.000000000000000
11
-43.7538550057538
21
-4.27587084927981
31
0.000000000000000
  0
LINE
  5
F1023E
330
F1023F
100
AcDbEntity
8
Geo
100
AcDbLine
10
-43.7538550057538
20
-4.27587084927981
30
0.000000000000000
11
-43.6538550057538
21
-4.31616861827095
31
0.000000000000000
  0
LINE
  5
F10240
330
F10241
100
AcDbEntity
8
Geo
100
AcDbLine
10
-43.6538550057538
20
-4.31616861827095
30
0.000000000000000
11
-43.5538550057538
21
-4.35543319439833
31
0.000000000000000
  0
LINE
  5
F10242
330
F10243
100
AcDbEntity
8
Geo
100
AcDbLine
10
-43.5538550057538
20
-4.35543319439833
30
0.000000000000000
11
-43.4538550057538
21
-4.39365689841921
31
0.000000000000000
  0
LINE
  5
F10244
330
F10245
100
AcDbEntity
8
Geo
100
AcDbLine
10
-43.4538550057538
20
-4.39365689841921
30
0.000000000000000
11
-43.3538550057538
21
-4.43083225466138
31
0.000000000000000
  0
LINE
  5
F10246
330
F10247
100
AcDbEntity
8
Geo
100
AcDbLine
10
-43.3538550057538
20
-4.43083225466138
30
0.000000000000000
11
-43.2538550057538
21
-4.46695199248519
31
0.000000000000000
  0
LINE
  5
F10248
330
F10249
100
AcDbEntity
8
Geo
100
AcDbLine
10
-43.2538550057538
20
-4.46695199248519
30
0.000000000000000
11
-43.1538550057538
21
-4.50200904770554
31
0.000000000000000
  0
LINE
  5
F1024A
330
F1024B
100
AcDbEntity
8
Geo
100
AcDbLine
10
-43.1538550057538
20
-4.50200904770554
30
0.000000000000000
11
-43.0538550057538
21
-4.53599656397346
31
0.000000000000000
  0
LINE
  5
F1024C
330
F1024D
100
AcDbEntity
8
Geo
100
AcDbLine
10
-43.0538550057538
20
-4.53599656397346
30
0.000000000000000
11
-42.9538550057538
21
-4.56890789411704
31
0.000000000000000
  0
LINE
  5
F1024E
330
F1024F
100
AcDbEntity
8
Geo
100
AcDbLine
10
-42.9538550057538
20
-4.56890789411704
30
0.000000000000000
11
-42.8538550057538
21
-4.60073660144150
31
0.000000000000000
  0
LINE
  5
F10250
330
F10251
100
AcDbEntity
8
Geo
100
AcDbLine
10
-42.8538550057538
20
-4.60073660144150
30
0.000000000000000
11
-42.7538550057538
21
-4.63147646098804
31
0.000000000000000
  0
LINE
  5
F10252
330
F10253
100
AcDbEntity
8
Geo
100
AcDbLine
10
-42.7538550057538
20
-4.63147646098804
30
0.000000000000000
11
-42.6538550057538
21
-4.66112146075127
31
0.000000000000000
  0
LINE
  5
F10254
330
F10255
100
AcDbEntity
8
Geo
100
AcDbLine
10
-42.6538550057538
20
-4.66112146075127
30
0.000000000000000
11
-42.5538550057538
21
-4.68966580285507
31
0.000000000000000
  0
LINE
  5
F10256
330
F10257
100
AcDbEntity
8
Geo
100
AcDbLine
10
-42.5538550057538
20
-4.68966580285507
30
0.000000000000000
11
-42.4538550057538
21
-4.71710390468648
31
0.000000000000000
  0
LINE
  5
F10258
330
F10259
100
AcDbEntity
8
Geo
100
AcDbLine
10
-42.4538550057538
20
-4.71710390468648
30
0.000000000000000
11
-42.3538550057538
21
-4.74343039998755
31
0.000000000000000
  0
LINE
  5
F1025A
330
F1025B
100
AcDbEntity
8
Geo
100
AcDbLine
10
-42.3538550057538
20
-4.74343039998755
30
0.000000000000000
11
-42.2538550057538
21
-4.76864013990485
31
0.000000000000000
  0
LINE
  5
F1025C
330
F1025D
100
AcDbEntity
8
Geo
100
AcDbLine
10
-42.2538550057538
20
-4.76864013990485
30
0.000000000000000
11
-42.1538550057538
21
-4.79272819399647
31
0.000000000000000
  0
LINE
  5
F1025E
330
F1025F
100
AcDbEntity
8
Geo
100
AcDbLine
10
-42.1538550057538
20
-4.79272819399647
30
0.000000000000000
11
-42.0538550057538
21
-4.81568985119630
31
0.000000000000000
  0
LINE
  5
F10260
330
F10261
100
AcDbEntity
8
Geo
100
AcDbLine
10
-42.0538550057538
20
-4.81568985119630
30
0.000000000000000
11
-41.9538550057538
21
-4.83752062073539
31
0.000000000000000
  0
LINE
  5
F10262
330
F10263
100
AcDbEntity
8
Geo
100
AcDbLine
10
-41.9538550057538
20
-4.83752062073539
30
0.000000000000000
11
-41.8538550057538
21
-4.85821623302026
31
0.000000000000000
  0
LINE
  5
F10264
330
F10265
100
AcDbEntity
8
Geo
100
AcDbLine
10
-41.8538550057538
20
-4.85821623302026
30
0.000000000000000
11
-41.7538550057538
21
-4.87777264046795
31
0.000000000000000
  0
LINE
  5
F10266
330
F10267
100
AcDbEntity
8
Geo
100
AcDbLine
10
-41.7538550057538
20
-4.87777264046795
30
0.000000000000000
11
-41.6538550057538
21
-4.89618601829757
31
0.000000000000000
  0
LINE
  5
F10268
330
F10269
100
AcDbEntity
8
Geo
100
AcDbLine
10
-41.6538550057538
20
-4.89618601829757
30
0.000000000000000
11
-41.5538550057538
21
-4.91345276527842
31
0.000000000000000
  0
LINE
  5
F1026A
330
F1026B
100
AcDbEntity
8
Geo
100
AcDbLine
10
-41.5538550057538
20
-4.91345276527842
30
0.000000000000000
11
-41.4538550057538
21
-4.92956950443423
31
0.000000000000000
  0
LINE
  5
F1026C
330
F1026D
100
AcDbEntity
8
Geo
100
AcDbLine
10
-41.4538550057538
20
-4.92956950443423
30
0.000000000000000
11
-41.3538550057538
21
-4.94453308370369
31
0.000000000000000
  0
LINE
  5
F1026E
330
F1026F
100
AcDbEntity
8
Geo
100
AcDbLine
10
-41.3538550057538
20
-4.94453308370369
30
0.000000000000000
11
-41.2538550057538
21
-4.95834057655686
31
0.000000000000000
  0
LINE
  5
F10270
330
F10271
100
AcDbEntity
8
Geo
100
AcDbLine
10
-41.2538550057538
20
-4.95834057655686
30
0.000000000000000
11
-41.1538550057538
21
-4.97098928256758
31
0.000000000000000
  0
LINE
  5
F10272
330
F10273
100
AcDbEntity
8
Geo
100
AcDbLine
10
-41.1538550057538
20
-4.97098928256758
30
0.000000000000000
11
-41.0538550057538
21
-4.98247672794156
31
0.000000000000000
  0
LINE
  5
F10274
330
F10275
100
AcDbEntity
8
Geo
100
AcDbLine
10
-41.0538550057538
20
-4.98247672794156
30
0.000000000000000
11
-40.9538550057538
21
-4.99280066600026
31
0.000000000000000
  0
LINE
  5
F10276
330
F10277
100
AcDbEntity
8
Geo
100
AcDbLine
10
-40.9538550057538
20
-4.99280066600026
30
0.000000000000000
11
-40.8538550057538
21
-5.00195907762022
31
0.000000000000000
  0
LINE
  5
F10278
330
F10279
100
AcDbEntity
8
Geo
100
AcDbLine
10
-40.8538550057538
20
-5.00195907762022
30
0.000000000000000
11
-40.7538550057538
21
-5.00995017162801
31
0.000000000000000
  0
LINE
  5
F1027A
330
F1027B
100
AcDbEntity
8
Geo
100
AcDbLine
10
-40.7538550057538
20
-5.00995017162801
30
0.000000000000000
11
-40.6538550057538
21
-5.01677238515051
31
0.000000000000000
  0
LINE
  5
F1027C
330
F1027D
100
AcDbEntity
8
Geo
100
AcDbLine
10
-40.6538550057538
20
-5.01677238515051
30
0.000000000000000
11
-40.5538550057538
21
-5.02242438392059
31
0.000000000000000
  0
LINE
  5
F1027E
330
F1027F
100
AcDbEntity
8
Geo
100
AcDbLine
10
-40.5538550057538
20
-5.02242438392059
30
0.000000000000000
11
-40.4538550057538
21
-5.02690506253804
31
0.000000000000000
  0
LINE
  5
F10280
330
F10281
100
AcDbEntity
8
Geo
100
AcDbLine
10
-40.4538550057538
20
-5.02690506253804
30
0.000000000000000
11
-40.3538550057538
21
-5.03021354468578
31
0.000000000000000
  0
LINE
  5
F10282
330
F10283
100
AcDbEntity
8
Geo
100
AcDbLine
10
-40.3538550057538
20
-5.03021354468578
30
0.000000000000000
11
-40.2538550057538
21
-5.03234918330124
31
0.000000000000000
  0
LINE
  5
F10284
330
F10285
100
AcDbEntity
8
Geo
100
AcDbLine
10
-40.2538550057538
20
-5.03234918330124
30
0.000000000000000
11
-40.1538550057538
21
-5.03331156070293
31
0.000000000000000
  0
LINE
  5
F10286
330
F10287
100
AcDbEntity
8
Geo
100
AcDbLine
10
-40.1538550057538
20
-5.03331156070293
30
0.000000000000000
11
-40.1218417563829
21
-5.03337169159951
31
0.000000000000000
  0
LINE
  5
F10288
330
F10289
100
AcDbEntity
8
Geo
100
AcDbLine
10
-40.1218417563828
20
6.96662830840049
30
0.000000000000000
11
-40.0538550057538
21
6.96635710547305
31
0.000000000000000
  0
LINE
  5
F1028A
330
F1028B
100
AcDbEntity
8
Geo
100
AcDbLine
10
-40.0538550057538
20
6.96635710547305
30
0.000000000000000
11
-39.9538550057538
21
6.96497262529047
31
0.000000000000000
  0
LINE
  5
F1028C
330
F1028D
100
AcDbEntity
8
Geo
100
AcDbLine
10
-39.9538550057538
20
6.96497262529047
30
0.000000000000000
11
-39.8538550057538
21
6.96241500772845
31
0.000000000000000
  0
LINE
  5
F1028E
330
F1028F
100
AcDbEntity
8
Geo
100
AcDbLine
10
-39.8538550057538
20
6.96241500772845
30
0.000000000000000
11
-39.7538550057538
21
6.95868475299782
31
0.000000000000000
  0
LINE
  5
F10290
330
F10291
100
AcDbEntity
8
Geo
100
AcDbLine
10
-39.7538550057538
20
6.95868475299782
30
0.000000000000000
11
-39.6538550057538
21
6.95378259065011
31
0.000000000000000
  0
LINE
  5
F10292
330
F10293
100
AcDbEntity
8
Geo
100
AcDbLine
10
-39.6538550057538
20
6.95378259065011
30
0.000000000000000
11
-39.5538550057538
21
6.94770947943486
31
0.000000000000000
  0
LINE
  5
F10294
330
F10295
100
AcDbEntity
8
Geo
100
AcDbLine
10
-39.5538550057538
20
6.94770947943486
30
0.000000000000000
11
-39.4538550057538
21
6.94046660711213
31
0.000000000000000
  0
LINE
  5
F10296
330
F10297
100
AcDbEntity
8
Geo
100
AcDbLine
10
-39.4538550057538
20
6.94046660711213
30
0.000000000000000
11
-39.3538550057538
21
6.93205539022018
31
0.000000000000000
  0
LINE
  5
F10298
330
F10299
100
AcDbEntity
8
Geo
100
AcDbLine
10
-39.3538550057538
20
6.93205539022018
30
0.000000000000000
11
-39.2538550057538
21
6.92247747379845
31
0.000000000000000
  0
LINE
  5
F1029A
330
F1029B
100
AcDbEntity
8
Geo
100
AcDbLine
10
-39.2538550057538
20
6.92247747379845
30
0.000000000000000
11
-39.1538550057538
21
6.91173473106581
31
0.000000000000000
  0
LINE
  5
F1029C
330
F1029D
100
AcDbEntity
8
Geo
100
AcDbLine
10
-39.1538550057538
20
6.91173473106581
30
0.000000000000000
11
-39.0538550057538
21
6.89982926305421
31
0.000000000000000
  0
LINE
  5
F1029E
330
F1029F
100
AcDbEntity
8
Geo
100
AcDbLine
10
-39.0538550057538
20
6.89982926305421
30
0.000000000000000
11
-38.9538550057538
21
6.88676339819777
31
0.000000000000000
  0
LINE
  5
F102A0
330
F102A1
100
AcDbEntity
8
Geo
100
AcDbLine
10
-38.9538550057538
20
6.88676339819777
30
0.000000000000000
11
-38.8538550057538
21
6.87253969187737
31
0.000000000000000
  0
LINE
  5
F102A2
330
F102A3
100
AcDbEntity
8
Geo
100
AcDbLine
10
-38.8538550057538
20
6.87253969187737
30
0.000000000000000
11
-38.7538550057538
21
6.85716092592092
31
0.000000000000000
  0
LINE
  5
F102A4
330
F102A5
100
AcDbEntity
8
Geo
100
AcDbLine
10
-38.7538550057538
20
6.85716092592092
30
0.000000000000000
11
-38.6538550057538
21
6.84063010805925
31
0.000000000000000
  0
LINE
  5
F102A6
330
F102A7
100
AcDbEntity
8
Geo
100
AcDbLine
10
-38.6538550057538
20
6.84063010805925
30
0.000000000000000
11
-38.5538550057538
21
6.82295047133792
31
0.000000000000000
  0
LINE
  5
F102A8
330
F102A9
100
AcDbEntity
8
Geo
100
AcDbLine
10
-38.5538550057538
20
6.82295047133792
30
0.000000000000000
11
-38.4538550057538
21
6.80412547348484
31
0.000000000000000
  0
LINE
  5
F102AA
330
F102AB
100
AcDbEntity
8
Geo
100
AcDbLine
10
-38.4538550057538
20
6.80412547348484
30
0.000000000000000
11
-38.3538550057538
21
6.78415879623409
31
0.000000000000000
  0
LINE
  5
F102AC
330
F102AD
100
AcDbEntity
8
Geo
100
AcDbLine
10
-38.3538550057538
20
6.78415879623409
30
0.000000000000000
11
-38.2538550057538
21
6.76305434460583
31
0.000000000000000
  0
LINE
  5
F102AE
330
F102AF
100
AcDbEntity
8
Geo
100
AcDbLine
10
-38.2538550057538
20
6.76305434460583
30
0.000000000000000
11
-38.1538550057538
21
6.74081624614254
31
0.000000000000000
  0
LINE
  5
F102B0
330
F102B1
100
AcDbEntity
8
Geo
100
AcDbLine
10
-38.1538550057538
20
6.74081624614254
30
0.000000000000000
11
-38.0538550057538
21
6.71744885010183
31
0.000000000000000
  0
LINE
  5
F102B2
330
F102B3
100
AcDbEntity
8
Geo
100
AcDbLine
10
-38.0538550057538
20
6.71744885010183
30
0.000000000000000
11
-37.9538550057538
21
6.69295672660575
31
0.000000000000000
  0
LINE
  5
F102B4
330
F102B5
100
AcDbEntity
8
Geo
100
AcDbLine
10
-37.9538550057538
20
6.69295672660575
30
0.000000000000000
11
-37.8538550057538
21
6.66734466574706
31
0.000000000000000
  0
LINE
  5
F102B6
330
F102B7
100
AcDbEntity
8
Geo
100
AcDbLine
10
-37.8538550057538
20
6.66734466574706
30
0.000000000000000
11
-37.7538550057538
21
6.64061767665233
31
0.000000000000000
  0
LINE
  5
F102B8
330
F102B9
100
AcDbEntity
8
Geo
100
AcDbLine
10
-37.7538550057538
20
6.64061767665233
30
0.000000000000000
11
-37.6538550057538
21
6.61278098650232
31
0.000000000000000
  0
LINE
  5
F102BA
330
F102BB
100
AcDbEntity
8
Geo
100
AcDbLine
10
-37.6538550057538
20
6.61278098650232
30
0.000000000000000
11
-37.5538550057538
21
6.58384003950963
31
0.000000000000000
  0
LINE
  5
F102BC
330
F102BD
100
AcDbEntity
8
Geo
100
AcDbLine
10
-37.5538550057538
20
6.58384003950963
30
0.000000000000000
11
-37.4538550057538
21
6.55380049585395
31
0.000000000000000
  0
LINE
  5
F102BE
330
F102BF
100
AcDbEntity
8
Geo
100
AcDbLine
10
-37.4538550057538
20
6.55380049585395
30
0.000000000000000
11
-37.3538550057538
21
6.52266823057507
31
0.000000000000000
  0
LINE
  5
F102C0
330
F102C1
100
AcDbEntity
8
Geo
100
AcDbLine
10
-42.3682448964309
20
6.96662830840049
30
0.000000000000000
11
-42.3538550057538
21
6.96661615932044
31
0.000000000000000
  0
LINE
  5
F102C2
330
F102C3
100
AcDbEntity
8
Geo
100
AcDbLine
10
-42.3538550057538
20
6.96661615932044
30
0.000000000000000
11
-42.2538550057538
21
6.96586057635145
31
0.000000000000000
  0
LINE
  5
F102C4
330
F102C5
100
AcDbEntity
8
Geo
100
AcDbLine
10
-42.2538550057538
20
6.96586057635145
30
0.000000000000000
11
-42.1538550057538
21
6.96393168234033
31
0.000000000000000
  0
LINE
  5
F102C6
330
F102C7
100
AcDbEntity
8
Geo
100
AcDbLine
10
-42.1538550057538
20
6.96393168234033
30
0.000000000000000
11
-42.0538550057538
21
6.96082985453414
31
0.000000000000000
  0
LINE
  5
F102C8
330
F102C9
100
AcDbEntity
8
Geo
100
AcDbLine
10
-42.0538550057538
20
6.96082985453414
30
0.000000000000000
11
-41.9538550057538
21
6.95655569957863
31
0.000000000000000
  0
LINE
  5
F102CA
330
F102CB
100
AcDbEntity
8
Geo
100
AcDbLine
10
-41.9538550057538
20
6.95655569957863
30
0.000000000000000
11
-41.8538550057538
21
6.95111005339964
31
0.000000000000000
  0
LINE
  5
F102CC
330
F102CD
100
AcDbEntity
8
Geo
100
AcDbLine
10
-41.8538550057538
20
6.95111005339964
30
0.000000000000000
11
-41.7538550057538
21
6.94449398103956
31
0.000000000000000
  0
LINE
  5
F102CE
330
F102CF
100
AcDbEntity
8
Geo
100
AcDbLine
10
-41.7538550057538
20
6.94449398103956
30
0.000000000000000
11
-41.6538550057538
21
6.93670877644910
31
0.000000000000000
  0
LINE
  5
F102D0
330
F102D1
100
AcDbEntity
8
Geo
100
AcDbLine
10
-41.6538550057538
20
6.93670877644910
30
0.000000000000000
11
-41.5538550057538
21
6.92775596223416
31
0.000000000000000
  0
LINE
  5
F102D2
330
F102D3
100
AcDbEntity
8
Geo
100
AcDbLine
10
-41.5538550057538
20
6.92775596223416
30
0.000000000000000
11
-41.4538550057538
21
6.91763728935810
31
0.000000000000000
  0
LINE
  5
F102D4
330
F102D5
100
AcDbEntity
8
Geo
100
AcDbLine
10
-41.4538550057538
20
6.91763728935810
30
0.000000000000000
11
-41.3538550057538
21
6.90635473679922
31
0.000000000000000
  0
LINE
  5
F102D6
330
F102D7
100
AcDbEntity
8
Geo
100
AcDbLine
10
-41.3538550057538
20
6.90635473679922
30
0.000000000000000
11
-41.2538550057538
21
6.89391051116380
31
0.000000000000000
  0
LINE
  5
F102D8
330
F102D9
100
AcDbEntity
8
Geo
100
AcDbLine
10
-41.2538550057538
20
6.89391051116380
30
0.000000000000000
11
-41.1538550057538
21
6.88030704625447
31
0.000000000000000
  0
LINE
  5
F102DA
330
F102DB
100
AcDbEntity
8
Geo
100
AcDbLine
10
-41.1538550057538
20
6.88030704625447
30
0.000000000000000
11
-41.0538550057538
21
6.86554700259427
31
0.000000000000000
  0
LINE
  5
F102DC
330
F102DD
100
AcDbEntity
8
Geo
100
AcDbLine
10
-41.0538550057538
20
6.86554700259427
30
0.000000000000000
11
-40.9538550057538
21
6.84963326690626
31
0.000000000000000
  0
LINE
  5
F102DE
330
F102DF
100
AcDbEntity
8
Geo
100
AcDbLine
10
-40.9538550057538
20
6.84963326690626
30
0.000000000000000
11
-40.8538550057538
21
6.83256895154900
31
0.000000000000000
  0
LINE
  5
F102E0
330
F102E1
100
AcDbEntity
8
Geo
100
AcDbLine
10
-40.8538550057538
20
6.83256895154900
30
0.000000000000000
11
-40.7538550057538
21
6.81435739390778
31
0.000000000000000
  0
LINE
  5
F102E2
330
F102E3
100
AcDbEntity
8
Geo
100
AcDbLine
10
-40.7538550057538
20
6.81435739390778
30
0.000000000000000
11
-40.6538550057538
21
6.79500215574198
31
0.000000000000000
  0
LINE
  5
F102E4
330
F102E5
100
AcDbEntity
8
Geo
100
AcDbLine
10
-40.6538550057538
20
6.79500215574198
30
0.000000000000000
11
-40.5538550057538
21
6.77450702248839
31
0.000000000000000
  0
LINE
  5
F102E6
330
F102E7
100
AcDbEntity
8
Geo
100
AcDbLine
10
-40.5538550057538
20
6.77450702248839
30
0.000000000000000
11
-40.4538550057538
21
6.75287600252094
31
0.000000000000000
  0
LINE
  5
F102E8
330
F102E9
100
AcDbEntity
8
Geo
100
AcDbLine
10
-40.4538550057538
20
6.75287600252094
30
0.000000000000000
11
-40.3538550057538
21
6.73011332636670
31
0.000000000000000
  0
LINE
  5
F102EA
330
F102EB
100
AcDbEntity
8
Geo
100
AcDbLine
10
-40.3538550057538
20
6.73011332636670
30
0.000000000000000
11
-40.2538550057538
21
6.70622344587854
31
0.000000000000000
  0
LINE
  5
F102EC
330
F102ED
100
AcDbEntity
8
Geo
100
AcDbLine
10
-40.2538550057538
20
6.70622344587854
30
0.000000000000000
11
-40.1538550057538
21
6.68121103336440
31
0.000000000000000
  0
LINE
  5
F102EE
330
F102EF
100
AcDbEntity
8
Geo
100
AcDbLine
10
-40.1538550057538
20
6.68121103336440
30
0.000000000000000
11
-40.0538550057538
21
6.65508098067350
31
0.000000000000000
  0
LINE
  5
F102F0
330
F102F1
100
AcDbEntity
8
Geo
100
AcDbLine
10
-40.0538550057538
20
6.65508098067350
30
0.000000000000000
11
-39.9538550057538
21
6.62783839823965
31
0.000000000000000
  0
LINE
  5
F102F2
330
F102F3
100
AcDbEntity
8
Geo
100
AcDbLine
10
-39.9538550057538
20
6.62783839823965
30
0.000000000000000
11
-39.8538550057538
21
6.59948861408173
31
0.000000000000000
  0
LINE
  5
F102F4
330
F102F5
100
AcDbEntity
8
Geo
100
AcDbLine
10
-39.8538550057538
20
6.59948861408173
30
0.000000000000000
11
-39.7538550057538
21
6.57003717276166
31
0.000000000000000
  0
LINE
  5
F102F6
330
F102F7
100
AcDbEntity
8
Geo
100
AcDbLine
10
-39.7538550057538
20
6.57003717276166
30
0.000000000000000
11
-39.6538550057538
21
6.53948983430002
31
0.000000000000000
  0
LINE
  5
F102F8
330
F102F9
100
AcDbEntity
8
Geo
100
AcDbLine
10
-39.6538550057538
20
6.53948983430002
30
0.000000000000000
11
-39.5538550057538
21
6.50785257304951
31
0.000000000000000
  0
LINE
  5
F102FA
330
F102FB
100
AcDbEntity
8
Geo
100
AcDbLine
10
-39.5538550057538
20
6.50785257304951
30
0.000000000000000
11
-39.4538550057538
21
6.47513157652652
31
0.000000000000000
  0
LINE
  5
F102FC
330
F102FD
100
AcDbEntity
8
Geo
100
AcDbLine
10
-39.4538550057538
20
6.47513157652652
30
0.000000000000000
11
-39.3538550057538
21
6.44133324420098
31
0.000000000000000
  0
LINE
  5
F102FE
330
F102FF
100
AcDbEntity
8
Geo
100
AcDbLine
10
-39.3538550057538
20
6.44133324420098
30
0.000000000000000
11
-39.2538550057538
21
6.40646418624479
31
0.000000000000000
  0
LINE
  5
F10300
330
F10301
100
AcDbEntity
8
Geo
100
AcDbLine
10
-39.2538550057538
20
6.40646418624479
30
0.000000000000000
11
-39.1538550057538
21
6.37053122223901
31
0.000000000000000
  0
LINE
  5
F10302
330
F10303
100
AcDbEntity
8
Geo
100
AcDbLine
10
-39.1538550057538
20
6.37053122223901
30
0.000000000000000
11
-39.0538550057538
21
6.33354137984009
31
0.000000000000000
  0
LINE
  5
F10304
330
F10305
100
AcDbEntity
8
Geo
100
AcDbLine
10
-39.0538550057538
20
6.33354137984009
30
0.000000000000000
11
-38.9538550057538
21
6.29550189340548
31
0.000000000000000
  0
LINE
  5
F10306
330
F10307
100
AcDbEntity
8
Geo
100
AcDbLine
10
-38.9538550057538
20
6.29550189340548
30
0.000000000000000
11
-38.8538550057538
21
6.25642020257869
31
0.000000000000000
  0
LINE
  5
F10308
330
F10309
100
AcDbEntity
8
Geo
100
AcDbLine
10
-38.8538550057538
20
6.25642020257869
30
0.000000000000000
11
-38.7538550057538
21
6.21630395083431
31
0.000000000000000
  0
LINE
  5
F1030A
330
F1030B
100
AcDbEntity
8
Geo
100
AcDbLine
10
-38.7538550057538
20
6.21630395083431
30
0.000000000000000
11
-38.6538550057538
21
6.17516098398311
31
0.000000000000000
  0
LINE
  5
F1030C
330
F1030D
100
AcDbEntity
8
Geo
100
AcDbLine
10
-38.6538550057538
20
6.17516098398311
30
0.000000000000000
11
-38.5538550057538
21
6.13299934863758
31
0.000000000000000
  0
LINE
  5
F1030E
330
F1030F
100
AcDbEntity
8
Geo
100
AcDbLine
10
-38.5538550057538
20
6.13299934863758
30
0.000000000000000
11
-38.4538550057538
21
6.08982729063821
31
0.000000000000000
  0
LINE
  5
F10310
330
F10311
100
AcDbEntity
8
Geo
100
AcDbLine
10
-38.4538550057538
20
6.08982729063821
30
0.000000000000000
11
-38.3538550057538
21
6.04565325344077
31
0.000000000000000
  0
LINE
  5
F10312
330
F10313
100
AcDbEntity
8
Geo
100
AcDbLine
10
-38.3538550057538
20
6.04565325344077
30
0.000000000000000
11
-38.2538550057538
21
6.00048587646500
31
0.000000000000000
  0
LINE
  5
F10314
330
F10315
100
AcDbEntity
8
Geo
100
AcDbLine
10
-38.2538550057538
20
6.00048587646500
30
0.000000000000000
11
-38.1538550057538
21
5.95433399340491
31
0.000000000000000
  0
LINE
  5
F10316
330
F10317
100
AcDbEntity
8
Geo
100
AcDbLine
10
-38.1538550057538
20
5.95433399340491
30
0.000000000000000
11
-38.0538550057538
21
5.90720663050111
31
0.000000000000000
  0
LINE
  5
F10318
330
F10319
100
AcDbEntity
8
Geo
100
AcDbLine
10
-38.0538550057538
20
5.90720663050111
30
0.000000000000000
11
-37.9538550057538
21
5.85911300477553
31
0.000000000000000
  0
LINE
  5
F1031A
330
F1031B
100
AcDbEntity
8
Geo
100
AcDbLine
10
-37.9538550057538
20
5.85911300477553
30
0.000000000000000
11
-37.8538550057538
21
5.81006252222873
31
0.000000000000000
  0
LINE
  5
F1031C
330
F1031D
100
AcDbEntity
8
Geo
100
AcDbLine
10
-37.8538550057538
20
5.81006252222873
30
0.000000000000000
11
-37.7538550057538
21
5.76006477600033
31
0.000000000000000
  0
LINE
  5
F1031E
330
F1031F
100
AcDbEntity
8
Geo
100
AcDbLine
10
-37.7538550057538
20
5.76006477600033
30
0.000000000000000
11
-37.6538550057538
21
5.70912954449283
31
0.000000000000000
  0
LINE
  5
F10320
330
F10321
100
AcDbEntity
8
Geo
100
AcDbLine
10
-37.6538550057538
20
5.70912954449283
30
0.000000000000000
11
-37.5538550057538
21
5.65726678945914
31
0.000000000000000
  0
LINE
  5
F10322
330
F10323
100
AcDbEntity
8
Geo
100
AcDbLine
10
-37.5538550057538
20
5.65726678945914
30
0.000000000000000
11
-37.4538550057538
21
5.60448665405433
31
0.000000000000000
  0
LINE
  5
F10324
330
F10325
100
AcDbEntity
8
Geo
100
AcDbLine
10
-37.4538550057538
20
5.60448665405433
30
0.000000000000000
11
-37.3538550057538
21
5.55079946085183
31
0.000000000000000
  0
LINE
  5
F10326
330
F10327
100
AcDbEntity
8
Geo
100
AcDbLine
10
-51.3538550057538
20
6.50282488887482
30
0.000000000000000
11
-51.2538550057538
21
6.58976801538123
31
0.000000000000000
  0
LINE
  5
F10328
330
F10329
100
AcDbEntity
8
Geo
100
AcDbLine
10
-51.2538550057538
20
6.58976801538123
30
0.000000000000000
11
-51.2538550057538
21
6.58976801538123
31
0.000000000000000
  0
LINE
  5
F1032A
330
F1032B
100
AcDbEntity
8
Geo
100
AcDbLine
10
-51.2538550057538
20
6.58976801538123
30
0.000000000000000
11
-51.1538550057538
21
6.61888301176332
31
0.000000000000000
  0
LINE
  5
F1032C
330
F1032D
100
AcDbEntity
8
Geo
100
AcDbLine
10
-51.1538550057538
20
6.61888301176332
30
0.000000000000000
11
-51.0538550057538
21
6.59017994044469
31
0.000000000000000
  0
LINE
  5
F1032E
330
F1032F
100
AcDbEntity
8
Geo
100
AcDbLine
10
-51.0538550057538
20
6.59017994044469
30
0.000000000000000
11
-50.9538550057538
21
6.56037703252511
31
0.000000000000000
  0
LINE
  5
F10330
330
F10331
100
AcDbEntity
8
Geo
100
AcDbLine
10
-50.9538550057538
20
6.56037703252511
30
0.000000000000000
11
-50.8538550057538
21
6.52948011676392
31
0.000000000000000
  0
LINE
  5
F10332
330
F10333
100
AcDbEntity
8
Geo
100
AcDbLine
10
-50.8538550057538
20
6.52948011676392
30
0.000000000000000
11
-50.7538550057538
21
6.49749523588303
31
0.000000000000000
  0
LINE
  5
F10334
330
F10335
100
AcDbEntity
8
Geo
100
AcDbLine
10
-50.7538550057538
20
6.49749523588303
30
0.000000000000000
11
-50.6538550057538
21
6.46442864538520
31
0.000000000000000
  0
LINE
  5
F10336
330
F10337
100
AcDbEntity
8
Geo
100
AcDbLine
10
-50.6538550057538
20
6.46442864538520
30
0.000000000000000
11
-50.5538550057538
21
6.43028681233055
31
0.000000000000000
  0
LINE
  5
F10338
330
F10339
100
AcDbEntity
8
Geo
100
AcDbLine
10
-50.5538550057538
20
6.43028681233055
30
0.000000000000000
11
-50.4538550057538
21
6.39507641407177
31
0.000000000000000
  0
LINE
  5
F1033A
330
F1033B
100
AcDbEntity
8
Geo
100
AcDbLine
10
-50.4538550057538
20
6.39507641407177
30
0.000000000000000
11
-50.3538550057538
21
6.35880433694817
31
0.000000000000000
  0
LINE
  5
F1033C
330
F1033D
100
AcDbEntity
8
Geo
100
AcDbLine
10
-50.3538550057538
20
6.35880433694817
30
0.000000000000000
11
-50.2538550057538
21
6.32147767493892
31
0.000000000000000
  0
LINE
  5
F1033E
330
F1033F
100
AcDbEntity
8
Geo
100
AcDbLine
10
-50.2538550057538
20
6.32147767493892
30
0.000000000000000
11
-50.1538550057538
21
6.28310372827555
31
0.000000000000000
  0
LINE
  5
F10340
330
F10341
100
AcDbEntity
8
Geo
100
AcDbLine
10
-50.1538550057538
20
6.28310372827555
30
0.000000000000000
11
-50.0538550057538
21
6.24369000201428
31
0.000000000000000
  0
LINE
  5
F10342
330
F10343
100
AcDbEntity
8
Geo
100
AcDbLine
10
-50.0538550057538
20
6.24369000201428
30
0.000000000000000
11
-49.9538550057538
21
6.20324420456815
31
0.000000000000000
  0
LINE
  5
F10344
330
F10345
100
AcDbEntity
8
Geo
100
AcDbLine
10
-49.9538550057538
20
6.20324420456815
30
0.000000000000000
11
-49.8538550057538
21
6.16177424619943
31
0.000000000000000
  0
LINE
  5
F10346
330
F10347
100
AcDbEntity
8
Geo
100
AcDbLine
10
-49.8538550057538
20
6.16177424619943
30
0.000000000000000
11
-49.7538550057538
21
6.11928823747260
31
0.000000000000000
  0
LINE
  5
F10348
330
F10349
100
AcDbEntity
8
Geo
100
AcDbLine
10
-49.7538550057538
20
6.11928823747260
30
0.000000000000000
11
-49.6538550057538
21
6.07579448766807
31
0.000000000000000
  0
LINE
  5
F1034A
330
F1034B
100
AcDbEntity
8
Geo
100
AcDbLine
10
-49.6538550057538
20
6.07579448766807
30
0.000000000000000
11
-49.5538550057538
21
6.03130150315710
31
0.000000000000000
  0
LINE
  5
F1034C
330
F1034D
100
AcDbEntity
8
Geo
100
AcDbLine
10
-49.5538550057538
20
6.03130150315710
30
0.000000000000000
11
-49.4538550057538
21
5.98581798573812
31
0.000000000000000
  0
LINE
  5
F1034E
330
F1034F
100
AcDbEntity
8
Geo
100
AcDbLine
10
-49.4538550057538
20
5.98581798573812
30
0.000000000000000
11
-49.3538550057538
21
5.93935283093491
31
0.000000000000000
  0
LINE
  5
F10350
330
F10351
100
AcDbEntity
8
Geo
100
AcDbLine
10
-49.3538550057538
20
5.93935283093491
30
0.000000000000000
11
-49.2538550057538
21
5.89191512625680
31
0.000000000000000
  0
LINE
  5
F10352
330
F10353
100
AcDbEntity
8
Geo
100
AcDbLine
10
-49.2538550057538
20
5.89191512625680
30
0.000000000000000
11
-49.1538550057538
21
5.84351414942137
31
0.000000000000000
  0
LINE
  5
F10354
330
F10355
100
AcDbEntity
8
Geo
100
AcDbLine
10
-49.1538550057538
20
5.84351414942137
30
0.000000000000000
11
-49.0538550057538
21
5.79415936653995
31
0.000000000000000
  0
LINE
  5
F10356
330
F10357
100
AcDbEntity
8
Geo
100
AcDbLine
10
-49.0538550057538
20
5.79415936653995
30
0.000000000000000
11
-48.9538550057538
21
5.74386043026628
31
0.000000000000000
  0
LINE
  5
F10358
330
F10359
100
AcDbEntity
8
Geo
100
AcDbLine
10
-48.9538550057538
20
5.74386043026628
30
0.000000000000000
11
-48.8538550057538
21
5.69262717790865
31
0.000000000000000
  0
LINE
  5
F1035A
330
F1035B
100
AcDbEntity
8
Geo
100
AcDbLine
10
-48.8538550057538
20
5.69262717790865
30
0.000000000000000
11
-48.7538550057538
21
5.64046962950596
31
0.000000000000000
  0
LINE
  5
F1035C
330
F1035D
100
AcDbEntity
8
Geo
100
AcDbLine
10
-48.7538550057538
20
5.64046962950596
30
0.000000000000000
11
-48.6538550057538
21
5.58739798586804
31
0.000000000000000
  0
LINE
  5
F1035E
330
F1035F
100
AcDbEntity
8
Geo
100
AcDbLine
10
-48.6538550057538
20
5.58739798586804
30
0.000000000000000
11
-48.5538550057538
21
5.53342262658060
31
0.000000000000000
  0
LINE
  5
F10360
330
F10361
100
AcDbEntity
8
Geo
100
AcDbLine
10
-48.5538550057538
20
5.53342262658060
30
0.000000000000000
11
-48.4538550057538
21
5.47855410797521
31
0.000000000000000
  0
LINE
  5
F10362
330
F10363
100
AcDbEntity
8
Geo
100
AcDbLine
10
-48.4538550057538
20
5.47855410797521
30
0.000000000000000
11
-48.3538550057538
21
5.42280316106477
31
0.000000000000000
  0
LINE
  5
F10364
330
F10365
100
AcDbEntity
8
Geo
100
AcDbLine
10
-48.3538550057538
20
5.42280316106477
30
0.000000000000000
11
-48.2538550057538
21
5.36618068944470
31
0.000000000000000
  0
LINE
  5
F10366
330
F10367
100
AcDbEntity
8
Geo
100
AcDbLine
10
-48.2538550057538
20
5.36618068944470
30
0.000000000000000
11
-48.1538550057538
21
5.30869776716053
31
0.000000000000000
  0
LINE
  5
F10368
330
F10369
100
AcDbEntity
8
Geo
100
AcDbLine
10
-48.1538550057538
20
5.30869776716053
30
0.000000000000000
11
-48.0538550057538
21
5.25036563654202
31
0.000000000000000
  0
LINE
  5
F1036A
330
F1036B
100
AcDbEntity
8
Geo
100
AcDbLine
10
-48.0538550057538
20
5.25036563654202
30
0.000000000000000
11
-47.9538550057538
21
5.19119570600442
31
0.000000000000000
  0
LINE
  5
F1036C
330
F1036D
100
AcDbEntity
8
Geo
100
AcDbLine
10
-47.9538550057538
20
5.19119570600442
30
0.000000000000000
11
-47.8538550057538
21
5.13119954781729
31
0.000000000000000
  0
LINE
  5
F1036E
330
F1036F
100
AcDbEntity
8
Geo
100
AcDbLine
10
-47.8538550057538
20
5.13119954781729
30
0.000000000000000
11
-47.7538550057538
21
5.07038889584117
31
0.000000000000000
  0
LINE
  5
F10370
330
F10371
100
AcDbEntity
8
Geo
100
AcDbLine
10
-47.7538550057538
20
5.07038889584117
30
0.000000000000000
11
-47.6538550057538
21
5.00877564323276
31
0.000000000000000
  0
LINE
  5
F10372
330
F10373
100
AcDbEntity
8
Geo
100
AcDbLine
10
-47.6538550057538
20
5.00877564323276
30
0.000000000000000
11
-47.5538550057538
21
4.94637184011889
31
0.000000000000000
  0
LINE
  5
F10374
330
F10375
100
AcDbEntity
8
Geo
100
AcDbLine
10
-47.5538550057538
20
4.94637184011889
30
0.000000000000000
11
-47.4538550057538
21
4.88318969123976
31
0.000000000000000
  0
LINE
  5
F10376
330
F10377
100
AcDbEntity
8
Geo
100
AcDbLine
10
-47.4538550057538
20
4.88318969123976
30
0.000000000000000
11
-47.3538550057538
21
4.81924155356200
31
0.000000000000000
  0
LINE
  5
F10378
330
F10379
100
AcDbEntity
8
Geo
100
AcDbLine
10
-47.3538550057538
20
4.81924155356200
30
0.000000000000000
11
-47.2538550057538
21
4.75453993386193
31
0.000000000000000
  0
LINE
  5
F1037A
330
F1037B
100
AcDbEntity
8
Geo
100
AcDbLine
10
-47.2538550057538
20
4.75453993386193
30
0.000000000000000
11
-47.1538550057538
21
4.68909748627952
31
0.000000000000000
  0
LINE
  5
F1037C
330
F1037D
100
AcDbEntity
8
Geo
100
AcDbLine
10
-47.1538550057538
20
4.68909748627952
30
0.000000000000000
11
-47.0538550057538
21
4.62292700984353
31
0.000000000000000
  0
LINE
  5
F1037E
330
F1037F
100
AcDbEntity
8
Geo
100
AcDbLine
10
-47.0538550057538
20
4.62292700984353
30
0.000000000000000
11
-46.9538550057538
21
4.55604144596834
31
0.000000000000000
  0
LINE
  5
F10380
330
F10381
100
AcDbEntity
8
Geo
100
AcDbLine
10
-46.9538550057538
20
4.55604144596834
30
0.000000000000000
11
-46.8538550057538
21
4.48845387592287
31
0.000000000000000
  0
LINE
  5
F10382
330
F10383
100
AcDbEntity
8
Geo
100
AcDbLine
10
-46.8538550057538
20
4.48845387592287
30
0.000000000000000
11
-46.7538550057538
21
4.42017751827221
31
0.000000000000000
  0
LINE
  5
F10384
330
F10385
100
AcDbEntity
8
Geo
100
AcDbLine
10
-46.7538550057538
20
4.42017751827221
30
0.000000000000000
11
-46.6538550057538
21
4.35122572629237
31
0.000000000000000
  0
LINE
  5
F10386
330
F10387
100
AcDbEntity
8
Geo
100
AcDbLine
10
-46.6538550057538
20
4.35122572629237
30
0.000000000000000
11
-46.5538550057538
21
4.28161198535871
31
0.000000000000000
  0
LINE
  5
F10388
330
F10389
100
AcDbEntity
8
Geo
100
AcDbLine
10
-46.5538550057538
20
4.28161198535871
30
0.000000000000000
11
-46.4538550057538
21
4.21134991030847
31
0.000000000000000
  0
LINE
  5
F1038A
330
F1038B
100
AcDbEntity
8
Geo
100
AcDbLine
10
-46.4538550057538
20
4.21134991030847
30
0.000000000000000
11
-46.3538550057538
21
4.14045324277803
31
0.000000000000000
  0
LINE
  5
F1038C
330
F1038D
100
AcDbEntity
8
Geo
100
AcDbLine
10
-46.3538550057538
20
4.14045324277803
30
0.000000000000000
11
-46.2538550057538
21
4.06893584851542
31
0.000000000000000
  0
LINE
  5
F1038E
330
F1038F
100
AcDbEntity
8
Geo
100
AcDbLine
10
-46.2538550057538
20
4.06893584851542
30
0.000000000000000
11
-46.1538550057538
21
3.99681171466843
31
0.000000000000000
  0
LINE
  5
F10390
330
F10391
100
AcDbEntity
8
Geo
100
AcDbLine
10
-46.1538550057538
20
3.99681171466843
30
0.000000000000000
11
-46.0538550057538
21
3.92409494704907
31
0.000000000000000
  0
LINE
  5
F10392
330
F10393
100
AcDbEntity
8
Geo
100
AcDbLine
10
-46.0538550057538
20
3.92409494704907
30
0.000000000000000
11
-45.9538550057538
21
3.85079976737484
31
0.000000000000000
  0
LINE
  5
F10394
330
F10395
100
AcDbEntity
8
Geo
100
AcDbLine
10
-45.9538550057538
20
3.85079976737484
30
0.000000000000000
11
-45.8538550057538
21
3.77694051048721
31
0.000000000000000
  0
LINE
  5
F10396
330
F10397
100
AcDbEntity
8
Geo
100
AcDbLine
10
-45.8538550057538
20
3.77694051048721
30
0.000000000000000
11
-45.7538550057538
21
3.70253162154813
31
0.000000000000000
  0
LINE
  5
F10398
330
F10399
100
AcDbEntity
8
Geo
100
AcDbLine
10
-45.7538550057538
20
3.70253162154813
30
0.000000000000000
11
-45.6538550057538
21
3.62758765321488
31
0.000000000000000
  0
LINE
  5
F1039A
330
F1039B
100
AcDbEntity
8
Geo
100
AcDbLine
10
-45.6538550057538
20
3.62758765321488
30
0.000000000000000
11
-45.5538550057538
21
3.55212326279386
31
0.000000000000000
  0
LINE
  5
F1039C
330
F1039D
100
AcDbEntity
8
Geo
100
AcDbLine
10
-45.5538550057538
20
3.55212326279386
30
0.000000000000000
11
-45.4538550057538
21
3.47615320937399
31
0.000000000000000
  0
LINE
  5
F1039E
330
F1039F
100
AcDbEntity
8
Geo
100
AcDbLine
10
-45.4538550057538
20
3.47615320937399
30
0.000000000000000
11
-45.3538550057538
21
3.39969235094021
31
0.000000000000000
  0
LINE
  5
F103A0
330
F103A1
100
AcDbEntity
8
Geo
100
AcDbLine
10
-45.3538550057538
20
3.39969235094021
30
0.000000000000000
11
-45.2538550057538
21
3.32275564146752
31
0.000000000000000
  0
LINE
  5
F103A2
330
F103A3
100
AcDbEntity
8
Geo
100
AcDbLine
10
-45.2538550057538
20
3.32275564146752
30
0.000000000000000
11
-45.1538550057538
21
3.24535812799642
31
0.000000000000000
  0
LINE
  5
F103A4
330
F103A5
100
AcDbEntity
8
Geo
100
AcDbLine
10
-45.1538550057538
20
3.24535812799642
30
0.000000000000000
11
-45.0538550057538
21
3.16751494768997
31
0.000000000000000
  0
LINE
  5
F103A6
330
F103A7
100
AcDbEntity
8
Geo
100
AcDbLine
10
-45.0538550057538
20
3.16751494768997
30
0.000000000000000
11
-44.9538550057538
21
3.08924132487338
31
0.000000000000000
  0
LINE
  5
F103A8
330
F103A9
100
AcDbEntity
8
Geo
100
AcDbLine
10
-44.9538550057538
20
3.08924132487338
30
0.000000000000000
11
-44.8538550057538
21
3.01055256805645
31
0.000000000000000
  0
LINE
  5
F103AA
330
F103AB
100
AcDbEntity
8
Geo
100
AcDbLine
10
-44.8538550057538
20
3.01055256805645
30
0.000000000000000
11
-44.7538550057538
21
2.93146406693958
31
0.000000000000000
  0
LINE
  5
F103AC
330
F103AD
100
AcDbEntity
8
Geo
100
AcDbLine
10
-44.7538550057538
20
2.93146406693958
30
0.000000000000000
11
-44.6538550057538
21
2.85199128940392
31
0.000000000000000
  0
LINE
  5
F103AE
330
F103AF
100
AcDbEntity
8
Geo
100
AcDbLine
10
-44.6538550057538
20
2.85199128940392
30
0.000000000000000
11
-44.5538550057538
21
2.77214977848618
31
0.000000000000000
  0
LINE
  5
F103B0
330
F103B1
100
AcDbEntity
8
Geo
100
AcDbLine
10
-44.5538550057538
20
2.77214977848618
30
0.000000000000000
11
-44.4538550057538
21
2.69195514933880
31
0.000000000000000
  0
LINE
  5
F103B2
330
F103B3
100
AcDbEntity
8
Geo
100
AcDbLine
10
-44.4538550057538
20
2.69195514933880
30
0.000000000000000
11
-44.3538550057538
21
2.61142308617598
31
0.000000000000000
  0
LINE
  5
F103B4
330
F103B5
100
AcDbEntity
8
Geo
100
AcDbLine
10
-44.3538550057538
20
2.61142308617598
30
0.000000000000000
11
-44.2538550057538
21
2.53056933920620
31
0.000000000000000
  0
LINE
  5
F103B6
330
F103B7
100
AcDbEntity
8
Geo
100
AcDbLine
10
-44.2538550057538
20
2.53056933920620
30
0.000000000000000
11
-44.1538550057538
21
2.44940972155186
31
0.000000000000000
  0
LINE
  5
F103B8
330
F103B9
100
AcDbEntity
8
Geo
100
AcDbLine
10
-44.1538550057538
20
2.44940972155186
30
0.000000000000000
11
-44.0538550057538
21
2.36796010615657
31
0.000000000000000
  0
LINE
  5
F103BA
330
F103BB
100
AcDbEntity
8
Geo
100
AcDbLine
10
-44.0538550057538
20
2.36796010615657
30
0.000000000000000
11
-43.9538550057538
21
2.28623642268081
31
0.000000000000000
  0
LINE
  5
F103BC
330
F103BD
100
AcDbEntity
8
Geo
100
AcDbLine
10
-43.9538550057538
20
2.28623642268081
30
0.000000000000000
11
-43.8538550057538
21
2.20425465438643
31
0.000000000000000
  0
LINE
  5
F103BE
330
F103BF
100
AcDbEntity
8
Geo
100
AcDbLine
10
-43.8538550057538
20
2.20425465438643
30
0.000000000000000
11
-43.7538550057538
21
2.12203083501069
31
0.000000000000000
  0
LINE
  5
F103C0
330
F103C1
100
AcDbEntity
8
Geo
100
AcDbLine
10
-43.7538550057538
20
2.12203083501069
30
0.000000000000000
11
-43.6538550057538
21
2.03958104563045
31
0.000000000000000
  0
LINE
  5
F103C2
330
F103C3
100
AcDbEntity
8
Geo
100
AcDbLine
10
-43.6538550057538
20
2.03958104563045
30
0.000000000000000
11
-43.5538550057538
21
1.95692141151708
31
0.000000000000000
  0
LINE
  5
F103C4
330
F103C5
100
AcDbEntity
8
Geo
100
AcDbLine
10
-43.5538550057538
20
1.95692141151708
30
0.000000000000000
11
-43.4538550057538
21
1.87406809898272
31
0.000000000000000
  0
LINE
  5
F103C6
330
F103C7
100
AcDbEntity
8
Geo
100
AcDbLine
10
-43.4538550057538
20
1.87406809898272
30
0.000000000000000
11
-43.3538550057538
21
1.79103731221852
31
0.000000000000000
  0
LINE
  5
F103C8
330
F103C9
100
AcDbEntity
8
Geo
100
AcDbLine
10
-43.3538550057538
20
1.79103731221852
30
0.000000000000000
11
-43.2538550057538
21
1.70784529012550
31
0.000000000000000
  0
LINE
  5
F103CA
330
F103CB
100
AcDbEntity
8
Geo
100
AcDbLine
10
-43.2538550057538
20
1.70784529012550
30
0.000000000000000
11
-43.1538550057538
21
1.62450830313857
31
0.000000000000000
  0
LINE
  5
F103CC
330
F103CD
100
AcDbEntity
8
Geo
100
AcDbLine
10
-43.1538550057538
20
1.62450830313857
30
0.000000000000000
11
-43.0538550057538
21
1.54104265004443
31
0.000000000000000
  0
LINE
  5
F103CE
330
F103CF
100
AcDbEntity
8
Geo
100
AcDbLine
10
-43.0538550057538
20
1.54104265004443
30
0.000000000000000
11
-42.9538550057538
21
1.45746465479387
31
0.000000000000000
  0
LINE
  5
F103D0
330
F103D1
100
AcDbEntity
8
Geo
100
AcDbLine
10
-42.9538550057538
20
1.45746465479387
30
0.000000000000000
11
-42.8538550057538
21
1.37379066330923
31
0.000000000000000
  0
LINE
  5
F103D2
330
F103D3
100
AcDbEntity
8
Geo
100
AcDbLine
10
-42.8538550057538
20
1.37379066330923
30
0.000000000000000
11
-42.7538550057538
21
1.29003704028748
31
0.000000000000000
  0
LINE
  5
F103D4
330
F103D5
100
AcDbEntity
8
Geo
100
AcDbLine
10
-42.7538550057538
20
1.29003704028748
30
0.000000000000000
11
-42.6538550057538
21
1.20622016599969
31
0.000000000000000
  0
LINE
  5
F103D6
330
F103D7
100
AcDbEntity
8
Geo
100
AcDbLine
10
-42.6538550057538
20
1.20622016599969
30
0.000000000000000
11
-42.5538550057538
21
1.12235643308740
31
0.000000000000000
  0
LINE
  5
F103D8
330
F103D9
100
AcDbEntity
8
Geo
100
AcDbLine
10
-42.5538550057538
20
1.12235643308740
30
0.000000000000000
11
-42.4538550057538
21
1.03846224335662
31
0.000000000000000
  0
LINE
  5
F103DA
330
F103DB
100
AcDbEntity
8
Geo
100
AcDbLine
10
-42.4538550057538
20
1.03846224335662
30
0.000000000000000
11
-42.3538550057538
21
0.954554004570010
31
0.000000000000000
  0
LINE
  5
F103DC
330
F103DD
100
AcDbEntity
8
Geo
100
AcDbLine
10
-42.3538550057538
20
0.954554004570010
30
0.000000000000000
11
-42.2538550057538
21
0.870648127237894
31
0.000000000000000
  0
LINE
  5
F103DE
330
F103DF
100
AcDbEntity
8
Geo
100
AcDbLine
10
-42.2538550057538
20
0.870648127237894
30
0.000000000000000
11
-42.1538550057538
21
0.786761021408757
31
0.000000000000000
  0
LINE
  5
F103E0
330
F103E1
100
AcDbEntity
8
Geo
100
AcDbLine
10
-42.1538550057538
20
0.786761021408757
30
0.000000000000000
11
-42.0538550057538
21
0.702909093459807
31
0.000000000000000
  0
LINE
  5
F103E2
330
F103E3
100
AcDbEntity
8
Geo
100
AcDbLine
10
-42.0538550057538
20
0.702909093459807
30
0.000000000000000
11
-41.9538550057538
21
0.619108742888278
31
0.000000000000000
  0
LINE
  5
F103E4
330
F103E5
100
AcDbEntity
8
Geo
100
AcDbLine
10
-41.9538550057538
20
0.619108742888278
30
0.000000000000000
11
-41.8538550057538
21
0.535376359104056
31
0.000000000000000
  0
LINE
  5
F103E6
330
F103E7
100
AcDbEntity
8
Geo
100
AcDbLine
10
-41.8538550057538
20
0.535376359104056
30
0.000000000000000
11
-41.7538550057538
21
0.451728318224299
31
0.000000000000000
  0
LINE
  5
F103E8
330
F103E9
100
AcDbEntity
8
Geo
100
AcDbLine
10
-41.7538550057538
20
0.451728318224299
30
0.000000000000000
11
-41.6538550057538
21
0.368180979870647
31
0.000000000000000
  0
LINE
  5
F103EA
330
F103EB
100
AcDbEntity
8
Geo
100
AcDbLine
10
-41.6538550057538
20
0.368180979870647
30
0.000000000000000
11
-41.5538550057538
21
0.284750683969650
31
0.000000000000000
  0
LINE
  5
F103EC
330
F103ED
100
AcDbEntity
8
Geo
100
AcDbLine
10
-41.5538550057538
20
0.284750683969650
30
0.000000000000000
11
-41.4538550057538
21
0.201453747557066
31
0.000000000000000
  0
LINE
  5
F103EE
330
F103EF
100
AcDbEntity
8
Geo
100
AcDbLine
10
-41.4538550057538
20
0.201453747557066
30
0.000000000000000
11
-41.3538550057538
21
0.118306461586619
31
0.000000000000000
  0
LINE
  5
F103F0
330
F103F1
100
AcDbEntity
8
Geo
100
AcDbLine
10
-41.3538550057538
20
0.118306461586619
30
0.000000000000000
11
-41.2538550057538
21
0.0353250877438721
31
0.000000000000000
  0
LINE
  5
F103F2
330
F103F3
100
AcDbEntity
8
Geo
100
AcDbLine
10
-41.2538550057538
20
0.0353250877438721
30
0.000000000000000
11
-41.1538550057538
21
-0.0474741447341882
31
0.000000000000000
  0
LINE
  5
F103F4
330
F103F5
100
AcDbEntity
8
Geo
100
AcDbLine
10
-41.1538550057538
20
-0.0474741447341882
30
0.000000000000000
11
-41.0538550057538
21
-0.130075042233210
31
0.000000000000000
  0
LINE
  5
F103F6
330
F103F7
100
AcDbEntity
8
Geo
100
AcDbLine
10
-41.0538550057538
20
-0.130075042233210
30
0.000000000000000
11
-40.9538550057538
21
-0.212461449928578
31
0.000000000000000
  0
LINE
  5
F103F8
330
F103F9
100
AcDbEntity
8
Geo
100
AcDbLine
10
-40.9538550057538
20
-0.212461449928578
30
0.000000000000000
11
-40.8538550057538
21
-0.294617254944918
31
0.000000000000000
  0
LINE
  5
F103FA
330
F103FB
100
AcDbEntity
8
Geo
100
AcDbLine
10
-40.8538550057538
20
-0.294617254944918
30
0.000000000000000
11
-40.7538550057538
21
-0.376526389507406
31
0.000000000000000
  0
LINE
  5
F103FC
330
F103FD
100
AcDbEntity
8
Geo
100
AcDbLine
10
-40.7538550057538
20
-0.376526389507406
30
0.000000000000000
11
-40.6538550057538
21
-0.458172834084252
31
0.000000000000000
  0
LINE
  5
F103FE
330
F103FF
100
AcDbEntity
8
Geo
100
AcDbLine
10
-40.6538550057538
20
-0.458172834084252
30
0.000000000000000
11
-40.5538550057538
21
-0.539540620519749
31
0.000000000000000
  0
LINE
  5
F10400
330
F10401
100
AcDbEntity
8
Geo
100
AcDbLine
10
-40.5538550057538
20
-0.539540620519749
30
0.000000000000000
11
-40.4538550057538
21
-0.620613835157277
31
0.000000000000000
  0
LINE
  5
F10402
330
F10403
100
AcDbEntity
8
Geo
100
AcDbLine
10
-40.4538550057538
20
-0.620613835157277
30
0.000000000000000
11
-40.3538550057538
21
-0.701376621951646
31
0.000000000000000
  0
LINE
  5
F10404
330
F10405
100
AcDbEntity
8
Geo
100
AcDbLine
10
-40.3538550057538
20
-0.701376621951646
30
0.000000000000000
11
-40.2538550057538
21
-0.781813185570166
31
0.000000000000000
  0
LINE
  5
F10406
330
F10407
100
AcDbEntity
8
Geo
100
AcDbLine
10
-40.2538550057538
20
-0.781813185570166
30
0.000000000000000
11
-40.1538550057538
21
-0.861907794481860
31
0.000000000000000
  0
LINE
  5
F10408
330
F10409
100
AcDbEntity
8
Geo
100
AcDbLine
10
-40.1538550057538
20
-0.861907794481860
30
0.000000000000000
11
-40.0538550057538
21
-0.941644784034174
31
0.000000000000000
  0
LINE
  5
F1040A
330
F1040B
100
AcDbEntity
8
Geo
100
AcDbLine
10
-40.0538550057538
20
-0.941644784034174
30
0.000000000000000
11
-39.9538550057538
21
-1.02100855951663
31
0.000000000000000
  0
LINE
  5
F1040C
330
F1040D
100
AcDbEntity
8
Geo
100
AcDbLine
10
-39.9538550057538
20
-1.02100855951663
30
0.000000000000000
11
-39.8538550057538
21
-1.09998359921079
31
0.000000000000000
  0
LINE
  5
F1040E
330
F1040F
100
AcDbEntity
8
Geo
100
AcDbLine
10
-39.8538550057538
20
-1.09998359921079
30
0.000000000000000
11
-39.7538550057538
21
-1.17855445742595
31
0.000000000000000
  0
LINE
  5
F10410
330
F10411
100
AcDbEntity
8
Geo
100
AcDbLine
10
-39.7538550057538
20
-1.17855445742595
30
0.000000000000000
11
-39.6538550057538
21
-1.25670576751992
31
0.000000000000000
  0
LINE
  5
F10412
330
F10413
100
AcDbEntity
8
Geo
100
AcDbLine
10
-39.6538550057538
20
-1.25670576751992
30
0.000000000000000
11
-39.5538550057538
21
-1.33442224490447
31
0.000000000000000
  0
LINE
  5
F10414
330
F10415
100
AcDbEntity
8
Geo
100
AcDbLine
10
-39.5538550057538
20
-1.33442224490447
30
0.000000000000000
11
-39.4538550057538
21
-1.41168869003453
31
0.000000000000000
  0
LINE
  5
F10416
330
F10417
100
AcDbEntity
8
Geo
100
AcDbLine
10
-39.4538550057538
20
-1.41168869003453
30
0.000000000000000
11
-39.3538550057538
21
-1.48848999138098
31
0.000000000000000
  0
LINE
  5
F10418
330
F10419
100
AcDbEntity
8
Geo
100
AcDbLine
10
-39.3538550057538
20
-1.48848999138098
30
0.000000000000000
11
-39.2538550057538
21
-1.56481112838602
31
0.000000000000000
  0
LINE
  5
F1041A
330
F1041B
100
AcDbEntity
8
Geo
100
AcDbLine
10
-39.2538550057538
20
-1.56481112838602
30
0.000000000000000
11
-39.1538550057538
21
-1.64063717440092
31
0.000000000000000
  0
LINE
  5
F1041C
330
F1041D
100
AcDbEntity
8
Geo
100
AcDbLine
10
-39.1538550057538
20
-1.64063717440092
30
0.000000000000000
11
-39.0538550057538
21
-1.71595329960528
31
0.000000000000000
  0
LINE
  5
F1041E
330
F1041F
100
AcDbEntity
8
Geo
100
AcDbLine
10
-39.0538550057538
20
-1.71595329960528
30
0.000000000000000
11
-38.9538550057538
21
-1.79074477390741
31
0.000000000000000
  0
LINE
  5
F10420
330
F10421
100
AcDbEntity
8
Geo
100
AcDbLine
10
-38.9538550057538
20
-1.79074477390741
30
0.000000000000000
11
-38.8538550057538
21
-1.86499696982520
31
0.000000000000000
  0
LINE
  5
F10422
330
F10423
100
AcDbEntity
8
Geo
100
AcDbLine
10
-38.8538550057538
20
-1.86499696982520
30
0.000000000000000
11
-38.7538550057538
21
-1.93869536534693
31
0.000000000000000
  0
LINE
  5
F10424
330
F10425
100
AcDbEntity
8
Geo
100
AcDbLine
10
-38.7538550057538
20
-1.93869536534693
30
0.000000000000000
11
-38.6538550057538
21
-2.01182554677140
31
0.000000000000000
  0
LINE
  5
F10426
330
F10427
100
AcDbEntity
8
Geo
100
AcDbLine
10
-38.6538550057538
20
-2.01182554677140
30
0.000000000000000
11
-38.5538550057538
21
-2.08437321152696
31
0.000000000000000
  0
LINE
  5
F10428
330
F10429
100
AcDbEntity
8
Geo
100
AcDbLine
10
-38.5538550057538
20
-2.08437321152696
30
0.000000000000000
11
-38.4538550057538
21
-2.15632417096875
31
0.000000000000000
  0
LINE
  5
F1042A
330
F1042B
100
AcDbEntity
8
Geo
100
AcDbLine
10
-38.4538550057538
20
-2.15632417096875
30
0.000000000000000
11
-38.3538550057538
21
-2.22766435315365
31
0.000000000000000
  0
LINE
  5
F1042C
330
F1042D
100
AcDbEntity
8
Geo
100
AcDbLine
10
-38.3538550057538
20
-2.22766435315365
30
0.000000000000000
11
-38.2538550057538
21
-2.29837980559245
31
0.000000000000000
  0
LINE
  5
F1042E
330
F1042F
100
AcDbEntity
8
Geo
100
AcDbLine
10
-38.2538550057538
20
-2.29837980559245
30
0.000000000000000
11
-38.1538550057538
21
-2.36845669797861
31
0.000000000000000
  0
LINE
  5
F10430
330
F10431
100
AcDbEntity
8
Geo
100
AcDbLine
10
-38.1538550057538
20
-2.36845669797861
30
0.000000000000000
11
-38.0538550057538
21
-2.43788132489320
31
0.000000000000000
  0
LINE
  5
F10432
330
F10433
100
AcDbEntity
8
Geo
100
AcDbLine
10
-38.0538550057538
20
-2.43788132489320
30
0.000000000000000
11
-37.9538550057538
21
-2.50664010848528
31
0.000000000000000
  0
LINE
  5
F10434
330
F10435
100
AcDbEntity
8
Geo
100
AcDbLine
10
-37.9538550057538
20
-2.50664010848528
30
0.000000000000000
11
-37.8538550057538
21
-2.57471960112749
31
0.000000000000000
  0
LINE
  5
F10436
330
F10437
100
AcDbEntity
8
Geo
100
AcDbLine
10
-37.8538550057538
20
-2.57471960112749
30
0.000000000000000
11
-37.7538550057538
21
-2.64210648804606
31
0.000000000000000
  0
LINE
  5
F10438
330
F10439
100
AcDbEntity
8
Geo
100
AcDbLine
10
-37.7538550057538
20
-2.64210648804606
30
0.000000000000000
11
-37.6538550057538
21
-2.70878758992487
31
0.000000000000000
  0
LINE
  5
F1043A
330
F1043B
100
AcDbEntity
8
Geo
100
AcDbLine
10
-37.6538550057538
20
-2.70878758992487
30
0.000000000000000
11
-37.5538550057538
21
-2.77474986548302
31
0.000000000000000
  0
LINE
  5
F1043C
330
F1043D
100
AcDbEntity
8
Geo
100
AcDbLine
10
-37.5538550057538
20
-2.77474986548302
30
0.000000000000000
11
-37.4538550057538
21
-2.83998041402544
31
0.000000000000000
  0
LINE
  5
F1043E
330
F1043F
100
AcDbEntity
8
Geo
100
AcDbLine
10
-37.4538550057538
20
-2.83998041402544
30
0.000000000000000
11
-37.3538550057538
21
-2.90446647796590
31
0.000000000000000
  0
LINE
  5
F10440
330
F10441
100
AcDbEntity
8
Geo
100
AcDbLine
10
-51.3538550057538
20
-0.923617025503064
30
0.000000000000000
11
-51.2538550057538
21
-0.978313807904358
31
0.000000000000000
  0
LINE
  5
F10442
330
F10443
100
AcDbEntity
8
Geo
100
AcDbLine
10
-51.2538550057538
20
-0.978313807904358
30
0.000000000000000
11
-51.2538550057538
21
-0.978313807904358
31
0.000000000000000
  0
LINE
  5
F10444
330
F10445
100
AcDbEntity
8
Geo
100
AcDbLine
10
-51.2538550057538
20
-0.978313807904358
30
0.000000000000000
11
-51.1538550057538
21
-1.04633387910145
31
0.000000000000000
  0
LINE
  5
F10446
330
F10447
100
AcDbEntity
8
Geo
100
AcDbLine
10
-51.1538550057538
20
-1.04633387910145
30
0.000000000000000
11
-51.0538550057538
21
-1.12518120532988
31
0.000000000000000
  0
LINE
  5
F10448
330
F10449
100
AcDbEntity
8
Geo
100
AcDbLine
10
-51.0538550057538
20
-1.12518120532988
30
0.000000000000000
11
-50.9538550057538
21
-1.20361942201048
31
0.000000000000000
  0
LINE
  5
F1044A
330
F1044B
100
AcDbEntity
8
Geo
100
AcDbLine
10
-50.9538550057538
20
-1.20361942201048
30
0.000000000000000
11
-50.8538550057538
21
-1.28163318844270
31
0.000000000000000
  0
LINE
  5
F1044C
330
F1044D
100
AcDbEntity
8
Geo
100
AcDbLine
10
-50.8538550057538
20
-1.28163318844270
30
0.000000000000000
11
-50.7538550057538
21
-1.35920724693863
31
0.000000000000000
  0
LINE
  5
F1044E
330
F1044F
100
AcDbEntity
8
Geo
100
AcDbLine
10
-50.7538550057538
20
-1.35920724693863
30
0.000000000000000
11
-50.6538550057538
21
-1.43632642580708
31
0.000000000000000
  0
LINE
  5
F10450
330
F10451
100
AcDbEntity
8
Geo
100
AcDbLine
10
-50.6538550057538
20
-1.43632642580708
30
0.000000000000000
11
-50.5538550057538
21
-1.51297564232078
31
0.000000000000000
  0
LINE
  5
F10452
330
F10453
100
AcDbEntity
8
Geo
100
AcDbLine
10
-50.5538550057538
20
-1.51297564232078
30
0.000000000000000
11
-50.4538550057538
21
-1.58913990566622
31
0.000000000000000
  0
LINE
  5
F10454
330
F10455
100
AcDbEntity
8
Geo
100
AcDbLine
10
-50.4538550057538
20
-1.58913990566622
30
0.000000000000000
11
-50.3538550057538
21
-1.66480431987551
31
0.000000000000000
  0
LINE
  5
F10456
330
F10457
100
AcDbEntity
8
Geo
100
AcDbLine
10
-50.3538550057538
20
-1.66480431987551
30
0.000000000000000
11
-50.2538550057538
21
-1.73995408673970
31
0.000000000000000
  0
LINE
  5
F10458
330
F10459
100
AcDbEntity
8
Geo
100
AcDbLine
10
-50.2538550057538
20
-1.73995408673970
30
0.000000000000000
11
-50.1538550057538
21
-1.81457450870294
31
0.000000000000000
  0
LINE
  5
F1045A
330
F1045B
100
AcDbEntity
8
Geo
100
AcDbLine
10
-50.1538550057538
20
-1.81457450870294
30
0.000000000000000
11
-50.0538550057538
21
-1.88865099173701
31
0.000000000000000
  0
LINE
  5
F1045C
330
F1045D
100
AcDbEntity
8
Geo
100
AcDbLine
10
-50.0538550057538
20
-1.88865099173701
30
0.000000000000000
11
-49.9538550057538
21
-1.96216904819555
31
0.000000000000000
  0
LINE
  5
F1045E
330
F1045F
100
AcDbEntity
8
Geo
100
AcDbLine
10
-49.9538550057538
20
-1.96216904819555
30
0.000000000000000
11
-49.8538550057538
21
-2.03511429964753
31
0.000000000000000
  0
LINE
  5
F10460
330
F10461
100
AcDbEntity
8
Geo
100
AcDbLine
10
-49.8538550057538
20
-2.03511429964753
30
0.000000000000000
11
-49.7538550057538
21
-2.10747247968931
31
0.000000000000000
  0
LINE
  5
F10462
330
F10463
100
AcDbEntity
8
Geo
100
AcDbLine
10
-49.7538550057538
20
-2.10747247968931
30
0.000000000000000
11
-49.6538550057538
21
-2.17922943673486
31
0.000000000000000
  0
LINE
  5
F10464
330
F10465
100
AcDbEntity
8
Geo
100
AcDbLine
10
-49.6538550057538
20
-2.17922943673486
30
0.000000000000000
11
-49.5538550057538
21
-2.25037113678343
31
0.000000000000000
  0
LINE
  5
F10466
330
F10467
100
AcDbEntity
8
Geo
100
AcDbLine
10
-49.5538550057538
20
-2.25037113678343
30
0.000000000000000
11
-49.4538550057538
21
-2.32088366616434
31
0.000000000000000
  0
LINE
  5
F10468
330
F10469
100
AcDbEntity
8
Geo
100
AcDbLine
10
-49.4538550057538
20
-2.32088366616434
30
0.000000000000000
11
-49.3538550057538
21
-2.39075323425810
31
0.000000000000000
  0
LINE
  5
F1046A
330
F1046B
100
AcDbEntity
8
Geo
100
AcDbLine
10
-49.3538550057538
20
-2.39075323425810
30
0.000000000000000
11
-49.2538550057538
21
-2.45996617619360
31
0.000000000000000
  0
LINE
  5
F1046C
330
F1046D
100
AcDbEntity
8
Geo
100
AcDbLine
10
-49.2538550057538
20
-2.45996617619360
30
0.000000000000000
11
-49.1538550057538
21
-2.52850895552061
31
0.000000000000000
  0
LINE
  5
F1046E
330
F1046F
100
AcDbEntity
8
Geo
100
AcDbLine
10
-49.1538550057538
20
-2.52850895552061
30
0.000000000000000
11
-49.0538550057538
21
-2.59636816685719
31
0.000000000000000
  0
LINE
  5
F10470
330
F10471
100
AcDbEntity
8
Geo
100
AcDbLine
10
-49.0538550057538
20
-2.59636816685719
30
0.000000000000000
11
-48.9538550057538
21
-2.66353053851151
31
0.000000000000000
  0
LINE
  5
F10472
330
F10473
100
AcDbEntity
8
Geo
100
AcDbLine
10
-48.9538550057538
20
-2.66353053851151
30
0.000000000000000
11
-48.8538550057538
21
-2.72998293507743
31
0.000000000000000
  0
LINE
  5
F10474
330
F10475
100
AcDbEntity
8
Geo
100
AcDbLine
10
-48.8538550057538
20
-2.72998293507743
30
0.000000000000000
11
-48.7538550057538
21
-2.79571236000354
31
0.000000000000000
  0
LINE
  5
F10476
330
F10477
100
AcDbEntity
8
Geo
100
AcDbLine
10
-48.7538550057538
20
-2.79571236000354
30
0.000000000000000
11
-48.6538550057538
21
-2.86070595813493
31
0.000000000000000
  0
LINE
  5
F10478
330
F10479
100
AcDbEntity
8
Geo
100
AcDbLine
10
-48.6538550057538
20
-2.86070595813493
30
0.000000000000000
11
-48.5538550057538
21
-2.92495101822741
31
0.000000000000000
  0
LINE
  5
F1047A
330
F1047B
100
AcDbEntity
8
Geo
100
AcDbLine
10
-48.5538550057538
20
-2.92495101822741
30
0.000000000000000
11
-48.4538550057538
21
-2.98843497543351
31
0.000000000000000
  0
LINE
  5
F1047C
330
F1047D
100
AcDbEntity
8
Geo
100
AcDbLine
10
-48.4538550057538
20
-2.98843497543351
30
0.000000000000000
11
-48.3538550057538
21
-3.05114541375987
31
0.000000000000000
  0
LINE
  5
F1047E
330
F1047F
100
AcDbEntity
8
Geo
100
AcDbLine
10
-48.3538550057538
20
-3.05114541375987
30
0.000000000000000
11
-48.2538550057538
21
-3.11307006849552
31
0.000000000000000
  0
LINE
  5
F10480
330
F10481
100
AcDbEntity
8
Geo
100
AcDbLine
10
-48.2538550057538
20
-3.11307006849552
30
0.000000000000000
11
-48.1538550057538
21
-3.17419682861061
31
0.000000000000000
  0
LINE
  5
F10482
330
F10483
100
AcDbEntity
8
Geo
100
AcDbLine
10
-48.1538550057538
20
-3.17419682861061
30
0.000000000000000
11
-48.0538550057538
21
-3.23451373912499
31
0.000000000000000
  0
LINE
  5
F10484
330
F10485
100
AcDbEntity
8
Geo
100
AcDbLine
10
-48.0538550057538
20
-3.23451373912499
30
0.000000000000000
11
-47.9538550057538
21
-3.29400900344638
31
0.000000000000000
  0
LINE
  5
F10486
330
F10487
100
AcDbEntity
8
Geo
100
AcDbLine
10
-47.9538550057538
20
-3.29400900344638
30
0.000000000000000
11
-47.8538550057538
21
-3.35267098567745
31
0.000000000000000
  0
LINE
  5
F10488
330
F10489
100
AcDbEntity
8
Geo
100
AcDbLine
10
-47.8538550057538
20
-3.35267098567745
30
0.000000000000000
11
-47.7538550057538
21
-3.41048821289162
31
0.000000000000000
  0
LINE
  5
F1048A
330
F1048B
100
AcDbEntity
8
Geo
100
AcDbLine
10
-47.7538550057538
20
-3.41048821289162
30
0.000000000000000
11
-47.6538550057538
21
-3.46744937737680
31
0.000000000000000
  0
LINE
  5
F1048C
330
F1048D
100
AcDbEntity
8
Geo
100
AcDbLine
10
-47.6538550057538
20
-3.46744937737680
30
0.000000000000000
11
-47.5538550057538
21
-3.52354333884701
31
0.000000000000000
  0
LINE
  5
F1048E
330
F1048F
100
AcDbEntity
8
Geo
100
AcDbLine
10
-47.5538550057538
20
-3.52354333884701
30
0.000000000000000
11
-47.4538550057538
21
-3.57875912662107
31
0.000000000000000
  0
LINE
  5
F10490
330
F10491
100
AcDbEntity
8
Geo
100
AcDbLine
10
-47.4538550057538
20
-3.57875912662107
30
0.000000000000000
11
-47.3538550057538
21
-3.63308594176830
31
0.000000000000000
  0
LINE
  5
F10492
330
F10493
100
AcDbEntity
8
Geo
100
AcDbLine
10
-47.3538550057538
20
-3.63308594176830
30
0.000000000000000
11
-47.2538550057538
21
-3.68651315922048
31
0.000000000000000
  0
LINE
  5
F10494
330
F10495
100
AcDbEntity
8
Geo
100
AcDbLine
10
-47.2538550057538
20
-3.68651315922048
30
0.000000000000000
11
-47.1538550057538
21
-3.73903032984989
31
0.000000000000000
  0
LINE
  5
F10496
330
F10497
100
AcDbEntity
8
Geo
100
AcDbLine
10
-47.1538550057538
20
-3.73903032984989
30
0.000000000000000
11
-47.0538550057538
21
-3.79062718251291
31
0.000000000000000
  0
LINE
  5
F10498
330
F10499
100
AcDbEntity
8
Geo
100
AcDbLine
10
-47.0538550057538
20
-3.79062718251291
30
0.000000000000000
11
-46.9538550057538
21
-3.84129362605884
31
0.000000000000000
  0
LINE
  5
F1049A
330
F1049B
100
AcDbEntity
8
Geo
100
AcDbLine
10
-46.9538550057538
20
-3.84129362605884
30
0.000000000000000
11
-46.8538550057538
21
-3.89101975130345
31
0.000000000000000
  0
LINE
  5
F1049C
330
F1049D
100
AcDbEntity
8
Geo
100
AcDbLine
10
-46.8538550057538
20
-3.89101975130345
30
0.000000000000000
11
-46.7538550057538
21
-3.93979583296705
31
0.000000000000000
  0
LINE
  5
F1049E
330
F1049F
100
AcDbEntity
8
Geo
100
AcDbLine
10
-46.7538550057538
20
-3.93979583296705
30
0.000000000000000
11
-46.6538550057538
21
-3.98761233157648
31
0.000000000000000
  0
LINE
  5
F104A0
330
F104A1
100
AcDbEntity
8
Geo
100
AcDbLine
10
-46.6538550057538
20
-3.98761233157648
30
0.000000000000000
11
-46.5538550057538
21
-4.03445989533081
31
0.000000000000000
  0
LINE
  5
F104A2
330
F104A3
100
AcDbEntity
8
Geo
100
AcDbLine
10
-46.5538550057538
20
-4.03445989533081
30
0.000000000000000
11
-46.4538550057538
21
-4.08032936193037
31
0.000000000000000
  0
LINE
  5
F104A4
330
F104A5
100
AcDbEntity
8
Geo
100
AcDbLine
10
-46.4538550057538
20
-4.08032936193037
30
0.000000000000000
11
-46.3538550057538
21
-4.12521176036867
31
0.000000000000000
  0
LINE
  5
F104A6
330
F104A7
100
AcDbEntity
8
Geo
100
AcDbLine
10
-46.3538550057538
20
-4.12521176036867
30
0.000000000000000
11
-46.2538550057538
21
-4.16909831268691
31
0.000000000000000
  0
LINE
  5
F104A8
330
F104A9
100
AcDbEntity
8
Geo
100
AcDbLine
10
-46.2538550057538
20
-4.16909831268691
30
0.000000000000000
11
-46.1538550057538
21
-4.21198043569075
31
0.000000000000000
  0
LINE
  5
F104AA
330
F104AB
100
AcDbEntity
8
Geo
100
AcDbLine
10
-46.1538550057538
20
-4.21198043569075
30
0.000000000000000
11
-46.0538550057538
21
-4.25384974262898
31
0.000000000000000
  0
LINE
  5
F104AC
330
F104AD
100
AcDbEntity
8
Geo
100
AcDbLine
10
-46.0538550057538
20
-4.25384974262898
30
0.000000000000000
11
-45.9538550057538
21
-4.29469804483380
31
0.000000000000000
  0
LINE
  5
F104AE
330
F104AF
100
AcDbEntity
8
Geo
100
AcDbLine
10
-45.9538550057538
20
-4.29469804483380
30
0.000000000000000
11
-45.8538550057538
21
-4.33451735332230
31
0.000000000000000
  0
LINE
  5
F104B0
330
F104B1
100
AcDbEntity
8
Geo
100
AcDbLine
10
-45.8538550057538
20
-4.33451735332230
30
0.000000000000000
11
-45.7538550057538
21
-4.37329988035894
31
0.000000000000000
  0
LINE
  5
F104B2
330
F104B3
100
AcDbEntity
8
Geo
100
AcDbLine
10
-45.7538550057538
20
-4.37329988035894
30
0.000000000000000
11
-45.6538550057538
21
-4.41103804097865
31
0.000000000000000
  0
LINE
  5
F104B4
330
F104B5
100
AcDbEntity
8
Geo
100
AcDbLine
10
-45.6538550057538
20
-4.41103804097865
30
0.000000000000000
11
-45.5538550057538
21
-4.44772445447027
31
0.000000000000000
  0
LINE
  5
F104B6
330
F104B7
100
AcDbEntity
8
Geo
100
AcDbLine
10
-45.5538550057538
20
-4.44772445447027
30
0.000000000000000
11
-45.4538550057538
21
-4.48335194582005
31
0.000000000000000
  0
LINE
  5
F104B8
330
F104B9
100
AcDbEntity
8
Geo
100
AcDbLine
10
-45.4538550057538
20
-4.48335194582005
30
0.000000000000000
11
-45.3538550057538
21
-4.51791354711489
31
0.000000000000000
  0
LINE
  5
F104BA
330
F104BB
100
AcDbEntity
8
Geo
100
AcDbLine
10
-45.3538550057538
20
-4.51791354711489
30
0.000000000000000
11
-45.2538550057538
21
-4.55140249890516
31
0.000000000000000
  0
LINE
  5
F104BC
330
F104BD
100
AcDbEntity
8
Geo
100
AcDbLine
10
-45.2538550057538
20
-4.55140249890516
30
0.000000000000000
11
-45.1538550057538
21
-4.58381225152664
31
0.000000000000000
  0
LINE
  5
F104BE
330
F104BF
100
AcDbEntity
8
Geo
100
AcDbLine
10
-45.1538550057538
20
-4.58381225152664
30
0.000000000000000
11
-45.0538550057538
21
-4.61513646638149
31
0.000000000000000
  0
LINE
  5
F104C0
330
F104C1
100
AcDbEntity
8
Geo
100
AcDbLine
10
-45.0538550057538
20
-4.61513646638149
30
0.000000000000000
11
-44.9538550057538
21
-4.64536901717796
31
0.000000000000000
  0
LINE
  5
F104C2
330
F104C3
100
AcDbEntity
8
Geo
100
AcDbLine
10
-44.9538550057538
20
-4.64536901717796
30
0.000000000000000
11
-44.8538550057538
21
-4.67450399112854
31
0.000000000000000
  0
LINE
  5
F104C4
330
F104C5
100
AcDbEntity
8
Geo
100
AcDbLine
10
-44.8538550057538
20
-4.67450399112854
30
0.000000000000000
11
-44.7538550057538
21
-4.70253569010634
31
0.000000000000000
  0
LINE
  5
F104C6
330
F104C7
100
AcDbEntity
8
Geo
100
AcDbLine
10
-44.7538550057538
20
-4.70253569010634
30
0.000000000000000
11
-44.6538550057538
21
-4.72945863175955
31
0.000000000000000
  0
LINE
  5
F104C8
330
F104C9
100
AcDbEntity
8
Geo
100
AcDbLine
10
-44.6538550057538
20
-4.72945863175955
30
0.000000000000000
11
-44.5538550057538
21
-4.75526755058362
31
0.000000000000000
  0
LINE
  5
F104CA
330
F104CB
100
AcDbEntity
8
Geo
100
AcDbLine
10
-44.5538550057538
20
-4.75526755058362
30
0.000000000000000
11
-44.4538550057538
21
-4.77995739895111
31
0.000000000000000
  0
LINE
  5
F104CC
330
F104CD
100
AcDbEntity
8
Geo
100
AcDbLine
10
-44.4538550057538
20
-4.77995739895111
30
0.000000000000000
11
-44.3538550057538
21
-4.80352334809888
31
0.000000000000000
  0
LINE
  5
F104CE
330
F104CF
100
AcDbEntity
8
Geo
100
AcDbLine
10
-44.3538550057538
20
-4.80352334809888
30
0.000000000000000
11
-44.2538550057538
21
-4.82596078907244
31
0.000000000000000
  0
LINE
  5
F104D0
330
F104D1
100
AcDbEntity
8
Geo
100
AcDbLine
10
-44.2538550057538
20
-4.82596078907244
30
0.000000000000000
11
-44.1538550057538
21
-4.84726533362744
31
0.000000000000000
  0
LINE
  5
F104D2
330
F104D3
100
AcDbEntity
8
Geo
100
AcDbLine
10
-44.1538550057538
20
-4.84726533362744
30
0.000000000000000
11
-44.0538550057538
21
-4.86743281508782
31
0.000000000000000
  0
LINE
  5
F104D4
330
F104D5
100
AcDbEntity
8
Geo
100
AcDbLine
10
-44.0538550057538
20
-4.86743281508782
30
0.000000000000000
11
-43.9538550057538
21
-4.88645928916077
31
0.000000000000000
  0
LINE
  5
F104D6
330
F104D7
100
AcDbEntity
8
Geo
100
AcDbLine
10
-43.9538550057538
20
-4.88645928916077
30
0.000000000000000
11
-43.8538550057538
21
-4.90434103470814
31
0.000000000000000
  0
LINE
  5
F104D8
330
F104D9
100
AcDbEntity
8
Geo
100
AcDbLine
10
-43.8538550057538
20
-4.90434103470814
30
0.000000000000000
11
-43.7538550057538
21
-4.92107455447419
31
0.000000000000000
  0
LINE
  5
F104DA
330
F104DB
100
AcDbEntity
8
Geo
100
AcDbLine
10
-43.7538550057538
20
-4.92107455447419
30
0.000000000000000
11
-43.6538550057538
21
-4.93665657576957
31
0.000000000000000
  0
LINE
  5
F104DC
330
F104DD
100
AcDbEntity
8
Geo
100
AcDbLine
10
-43.6538550057538
20
-4.93665657576957
30
0.000000000000000
11
-43.5538550057538
21
-4.95108405111139
31
0.000000000000000
  0
LINE
  5
F104DE
330
F104DF
100
AcDbEntity
8
Geo
100
AcDbLine
10
-43.5538550057538
20
-4.95108405111139
30
0.000000000000000
11
-43.4538550057538
21
-4.96435415881926
31
0.000000000000000
  0
LINE
  5
F104E0
330
F104E1
100
AcDbEntity
8
Geo
100
AcDbLine
10
-43.4538550057538
20
-4.96435415881926
30
0.000000000000000
11
-43.3538550057538
21
-4.97646430356710
31
0.000000000000000
  0
LINE
  5
F104E2
330
F104E3
100
AcDbEntity
8
Geo
100
AcDbLine
10
-43.3538550057538
20
-4.97646430356710
30
0.000000000000000
11
-43.2538550057538
21
-4.98741211689076
31
0.000000000000000
  0
LINE
  5
F104E4
330
F104E5
100
AcDbEntity
8
Geo
100
AcDbLine
10
-43.2538550057538
20
-4.98741211689076
30
0.000000000000000
11
-43.1538550057538
21
-4.99719545765124
31
0.000000000000000
  0
LINE
  5
F104E6
330
F104E7
100
AcDbEntity
8
Geo
100
AcDbLine
10
-43.1538550057538
20
-4.99719545765124
30
0.000000000000000
11
-43.0538550057538
21
-5.00581241245340
31
0.000000000000000
  0
LINE
  5
F104E8
330
F104E9
100
AcDbEntity
8
Geo
100
AcDbLine
10
-43.0538550057538
20
-5.00581241245340
30
0.000000000000000
11
-42.9538550057538
21
-5.01326129602025
31
0.000000000000000
  0
LINE
  5
F104EA
330
F104EB
100
AcDbEntity
8
Geo
100
AcDbLine
10
-42.9538550057538
20
-5.01326129602025
30
0.000000000000000
11
-42.8538550057538
21
-5.01954065152247
31
0.000000000000000
  0
LINE
  5
F104EC
330
F104ED
100
AcDbEntity
8
Geo
100
AcDbLine
10
-42.8538550057538
20
-5.01954065152247
30
0.000000000000000
11
-42.7538550057538
21
-5.02464925086341
31
0.000000000000000
  0
LINE
  5
F104EE
330
F104EF
100
AcDbEntity
8
Geo
100
AcDbLine
10
-42.7538550057538
20
-5.02464925086341
30
0.000000000000000
11
-42.6538550057538
21
-5.02858609491923
31
0.000000000000000
  0
LINE
  5
F104F0
330
F104F1
100
AcDbEntity
8
Geo
100
AcDbLine
10
-42.6538550057538
20
-5.02858609491923
30
0.000000000000000
11
-42.5538550057538
21
-5.03135041373428
31
0.000000000000000
  0
LINE
  5
F104F2
330
F104F3
100
AcDbEntity
8
Geo
100
AcDbLine
10
-42.5538550057538
20
-5.03135041373428
30
0.000000000000000
11
-42.4538550057538
21
-5.03294166667179
31
0.000000000000000
  0
LINE
  5
F104F4
330
F104F5
100
AcDbEntity
8
Geo
100
AcDbLine
10
-42.4538550057538
20
-5.03294166667179
30
0.000000000000000
11
-42.3682448964308
21
-5.03337169159951
31
0.000000000000000
  0
LINE
  5
F104F6
330
F104F7
100
AcDbEntity
8
Geo
100
AcDbLine
10
-37.3538550057538
20
-1.29841482213859
30
0.000000000000000
11
-37.2538550057538
21
-1.37589197850366
31
0.000000000000000
  0
LINE
  5
F104F8
330
F104F9
100
AcDbEntity
8
Geo
100
AcDbLine
10
-37.2538550057538
20
-1.37589197850366
30
0.000000000000000
11
-37.1538550057538
21
-1.45291099209374
31
0.000000000000000
  0
LINE
  5
F104FA
330
F104FB
100
AcDbEntity
8
Geo
100
AcDbLine
10
-37.1538550057538
20
-1.45291099209374
30
0.000000000000000
11
-37.0538550057538
21
-1.52945679977157
31
0.000000000000000
  0
LINE
  5
F104FC
330
F104FD
100
AcDbEntity
8
Geo
100
AcDbLine
10
-37.0538550057538
20
-1.52945679977157
30
0.000000000000000
11
-36.9538550057538
21
-1.60551443094785
31
0.000000000000000
  0
LINE
  5
F104FE
330
F104FF
100
AcDbEntity
8
Geo
100
AcDbLine
10
-36.9538550057538
20
-1.60551443094785
30
0.000000000000000
11
-36.8538550057538
21
-1.68106901050739
31
0.000000000000000
  0
LINE
  5
F10500
330
F10501
100
AcDbEntity
8
Geo
100
AcDbLine
10
-36.8538550057538
20
-1.68106901050739
30
0.000000000000000
11
-36.7538550057538
21
-1.75610576170634
31
0.000000000000000
  0
LINE
  5
F10502
330
F10503
100
AcDbEntity
8
Geo
100
AcDbLine
10
-36.7538550057538
20
-1.75610576170634
30
0.000000000000000
11
-36.6538550057538
21
-1.83061000900698
31
0.000000000000000
  0
LINE
  5
F10504
330
F10505
100
AcDbEntity
8
Geo
100
AcDbLine
10
-36.6538550057538
20
-1.83061000900698
30
0.000000000000000
11
-36.5538550057538
21
-1.90456718075038
31
0.000000000000000
  0
LINE
  5
F10506
330
F10507
100
AcDbEntity
8
Geo
100
AcDbLine
10
-36.5538550057538
20
-1.90456718075038
30
0.000000000000000
11
-36.4538550057538
21
-1.97796281142192
31
0.000000000000000
  0
LINE
  5
F10508
330
F10509
100
AcDbEntity
8
Geo
100
AcDbLine
10
-36.4538550057538
20
-1.97796281142192
30
0.000000000000000
11
-36.3538550057538
21
-2.05078254298208
31
0.000000000000000
  0
LINE
  5
F1050A
330
F1050B
100
AcDbEntity
8
Geo
100
AcDbLine
10
-36.3538550057538
20
-2.05078254298208
30
0.000000000000000
11
-36.2538550057538
21
-2.12301212423763
31
0.000000000000000
  0
LINE
  5
F1050C
330
F1050D
100
AcDbEntity
8
Geo
100
AcDbLine
10
-36.2538550057538
20
-2.12301212423763
30
0.000000000000000
11
-36.1538550057538
21
-2.19463740641784
31
0.000000000000000
  0
LINE
  5
F1050E
330
F1050F
100
AcDbEntity
8
Geo
100
AcDbLine
10
-36.1538550057538
20
-2.19463740641784
30
0.000000000000000
11
-36.0538550057538
21
-2.26564433187362
31
0.000000000000000
  0
LINE
  5
F10510
330
F10511
100
AcDbEntity
8
Geo
100
AcDbLine
10
-36.0538550057538
20
-2.26564433187362
30
0.000000000000000
11
-35.9538550057538
21
-2.33601891099313
31
0.000000000000000
  0
LINE
  5
F10512
330
F10513
100
AcDbEntity
8
Geo
100
AcDbLine
10
-35.9538550057538
20
-2.33601891099313
30
0.000000000000000
11
-35.8538550057538
21
-2.40574717986035
31
0.000000000000000
  0
LINE
  5
F10514
330
F10515
100
AcDbEntity
8
Geo
100
AcDbLine
10
-35.8538550057538
20
-2.40574717986035
30
0.000000000000000
11
-35.7538550057538
21
-2.47481512769492
31
0.000000000000000
  0
LINE
  5
F10516
330
F10517
100
AcDbEntity
8
Geo
100
AcDbLine
10
-35.7538550057538
20
-2.47481512769492
30
0.000000000000000
11
-35.6538550057538
21
-2.54320857850729
31
0.000000000000000
  0
LINE
  5
F10518
330
F10519
100
AcDbEntity
8
Geo
100
AcDbLine
10
-35.6538550057538
20
-2.54320857850729
30
0.000000000000000
11
-35.5538550057538
21
-2.61091300548213
31
0.000000000000000
  0
LINE
  5
F1051A
330
F1051B
100
AcDbEntity
8
Geo
100
AcDbLine
10
-35.5538550057538
20
-2.61091300548213
30
0.000000000000000
11
-35.4538550057538
21
-2.67791324916041
31
0.000000000000000
  0
LINE
  5
F1051C
330
F1051D
100
AcDbEntity
8
Geo
100
AcDbLine
10
-35.4538550057538
20
-2.67791324916041
30
0.000000000000000
11
-35.3538550057538
21
-2.74419310132816
31
0.000000000000000
  0
LINE
  5
F1051E
330
F1051F
100
AcDbEntity
8
Geo
100
AcDbLine
10
-35.3538550057538
20
-2.74419310132816
30
0.000000000000000
11
-35.2538550057538
21
-2.80973470545029
31
0.000000000000000
  0
LINE
  5
F10520
330
F10521
100
AcDbEntity
8
Geo
100
AcDbLine
10
-35.2538550057538
20
-2.80973470545029
30
0.000000000000000
11
-35.1538550057538
21
-2.87451771134093
31
0.000000000000000
  0
LINE
  5
F10522
330
F10523
100
AcDbEntity
8
Geo
100
AcDbLine
10
-35.1538550057538
20
-2.87451771134093
30
0.000000000000000
11
-35.0538550057538
21
-2.93851810639143
31
0.000000000000000
  0
LINE
  5
F10524
330
F10525
100
AcDbEntity
8
Geo
100
AcDbLine
10
-35.0538550057538
20
-2.93851810639143
30
0.000000000000000
11
-34.9538550057538
21
-3.00170662794969
31
0.000000000000000
  0
LINE
  5
F10526
330
F10527
100
AcDbEntity
8
Geo
100
AcDbLine
10
-34.9538550057538
20
-3.00170662794969
30
0.000000000000000
11
-34.8538550057538
21
-3.06404664123017
31
0.000000000000000
  0
LINE
  5
F10528
330
F10529
100
AcDbEntity
8
Geo
100
AcDbLine
10
-34.8538550057538
20
-3.06404664123017
30
0.000000000000000
11
-34.7538550057538
21
-3.12549134425055
31
0.000000000000000
  0
LINE
  5
F1052A
330
F1052B
100
AcDbEntity
8
Geo
100
AcDbLine
10
-34.7538550057538
20
-3.12549134425055
30
0.000000000000000
11
-34.6538550057538
21
-3.18598013542225
31
0.000000000000000
  0
LINE
  5
F1052C
330
F1052D
100
AcDbEntity
8
Geo
100
AcDbLine
10
-34.6538550057538
20
-3.18598013542225
30
0.000000000000000
11
-34.5538550057538
21
-3.24543394993241
31
0.000000000000000
  0
LINE
  5
F1052E
330
F1052F
100
AcDbEntity
8
Geo
100
AcDbLine
10
-34.5538550057538
20
-3.24543394993241
30
0.000000000000000
11
-34.4538550057538
21
-3.30374933668780
31
0.000000000000000
  0
LINE
  5
F10530
330
F10531
100
AcDbEntity
8
Geo
100
AcDbLine
10
-34.4538550057538
20
-3.30374933668780
30
0.000000000000000
11
-34.3538550057538
21
-3.36079100593353
31
0.000000000000000
  0
LINE
  5
F10532
330
F10533
100
AcDbEntity
8
Geo
100
AcDbLine
10
-34.3538550057538
20
-3.36079100593353
30
0.000000000000000
11
-34.2538550057538
21
-3.41638252426468
31
0.000000000000000
  0
LINE
  5
F10534
330
F10535
100
AcDbEntity
8
Geo
100
AcDbLine
10
-34.2538550057538
20
-3.41638252426468
30
0.000000000000000
11
-34.1538550057538
21
-3.47029476072354
31
0.000000000000000
  0
LINE
  5
F10536
330
F10537
100
AcDbEntity
8
Geo
100
AcDbLine
10
-34.1538550057538
20
-3.47029476072354
30
0.000000000000000
11
-34.0538550057538
21
-3.52223158145169
31
0.000000000000000
  0
LINE
  5
F10538
330
F10539
100
AcDbEntity
8
Geo
100
AcDbLine
10
-34.0538550057538
20
-3.52223158145169
30
0.000000000000000
11
-33.9538550057538
21
-3.57181212829640
31
0.000000000000000
  0
LINE
  5
F1053A
330
F1053B
100
AcDbEntity
8
Geo
100
AcDbLine
10
-33.9538550057538
20
-3.57181212829640
30
0.000000000000000
11
-33.8538550057538
21
-3.61854876201942
31
0.000000000000000
  0
LINE
  5
F1053C
330
F1053D
100
AcDbEntity
8
Geo
100
AcDbLine
10
-33.8538550057538
20
-3.61854876201942
30
0.000000000000000
11
-33.7538550057538
21
-3.66181934488169
31
0.000000000000000
  0
LINE
  5
F1053E
330
F1053F
100
AcDbEntity
8
Geo
100
AcDbLine
10
-33.7538550057538
20
-3.66181934488169
30
0.000000000000000
11
-33.6538550057538
21
-3.70083188987325
31
0.000000000000000
  0
LINE
  5
F10540
330
F10541
100
AcDbEntity
8
Geo
100
AcDbLine
10
-33.6538550057538
20
-3.70083188987325
30
0.000000000000000
11
-33.5538550057538
21
-3.73457857803593
31
0.000000000000000
  0
LINE
  5
F10542
330
F10543
100
AcDbEntity
8
Geo
100
AcDbLine
10
-33.5538550057538
20
-3.73457857803593
30
0.000000000000000
11
-33.4538550057538
21
-3.76177454041341
31
0.000000000000000
  0
LINE
  5
F10544
330
F10545
100
AcDbEntity
8
Geo
100
AcDbLine
10
-33.4538550057538
20
-3.76177454041341
30
0.000000000000000
11
-33.3538550057538
21
-3.78077433191851
31
0.000000000000000
  0
LINE
  5
F10546
330
F10547
100
AcDbEntity
8
Geo
100
AcDbLine
10
-33.3538550057538
20
-3.78077433191851
30
0.000000000000000
11
-33.2538550057538
21
-3.78945530318666
31
0.000000000000000
  0
LINE
  5
F10548
330
F10549
100
AcDbEntity
8
Geo
100
AcDbLine
10
-33.2538550057538
20
-3.78945530318666
30
0.000000000000000
11
-33.1538550057538
21
-3.78505161081256
31
0.000000000000000
  0
LINE
  5
F1054A
330
F1054B
100
AcDbEntity
8
Geo
100
AcDbLine
10
-33.1538550057538
20
-3.78505161081256
30
0.000000000000000
11
-33.0538550057538
21
-3.76391484328456
31
0.000000000000000
  0
LINE
  5
F1054C
330
F1054D
100
AcDbEntity
8
Geo
100
AcDbLine
10
-33.0538550057538
20
-3.76391484328456
30
0.000000000000000
11
-32.9538550057538
21
-3.72116672767533
31
0.000000000000000
  0
LINE
  5
F1054E
330
F1054F
100
AcDbEntity
8
Geo
100
AcDbLine
10
-32.9538550057538
20
-3.72116672767533
30
0.000000000000000
11
-32.8538550057538
21
-3.65019620378182
31
0.000000000000000
  0
LINE
  5
F10550
330
F10551
100
AcDbEntity
8
Geo
100
AcDbLine
10
-32.8538550057538
20
-3.65019620378182
30
0.000000000000000
11
-32.7538550057538
21
-3.54193896156118
31
0.000000000000000
  0
LINE
  5
F10552
330
F10553
100
AcDbEntity
8
Geo
100
AcDbLine
10
-32.7538550057538
20
-3.54193896156118
30
0.000000000000000
11
-32.6538550057538
21
-3.38386788227008
31
0.000000000000000
  0
LINE
  5
F10554
330
F10555
100
AcDbEntity
8
Geo
100
AcDbLine
10
-32.6538550057538
20
-3.38386788227008
30
0.000000000000000
11
-32.5538550057538
21
-3.15863212781005
31
0.000000000000000
  0
LINE
  5
F10556
330
F10557
100
AcDbEntity
8
Geo
100
AcDbLine
10
-32.5538550057538
20
-3.15863212781005
30
0.000000000000000
11
-32.4538550057538
21
-2.84234439845570
31
0.000000000000000
  0
LINE
  5
F10558
330
F10559
100
AcDbEntity
8
Geo
100
AcDbLine
10
-32.4538550057538
20
-2.84234439845570
30
0.000000000000000
11
-32.3538550057538
21
-2.40270246328533
31
0.000000000000000
  0
LINE
  5
F1055A
330
F1055B
100
AcDbEntity
8
Geo
100
AcDbLine
10
-32.3538550057538
20
-2.40270246328533
30
0.000000000000000
11
-32.3538550057538
21
-2.26905312309046
31
0.000000000000000
  0
LINE
  5
F1055C
330
F1055D
100
AcDbEntity
8
Geo
100
AcDbLine
10
-32.3538550057538
20
-2.26905312309046
30
0.000000000000000
11
-32.3538550057538
21
-2.26022901553387
31
0.000000000000000
  0
LINE
  5
F1055E
330
F1055F
100
AcDbEntity
8
Geo
100
AcDbLine
10
-32.3538550057538
20
-2.26022901553387
30
0.000000000000000
11
-32.3538550057538
21
-2.27687661716617
31
0.000000000000000
  0
LINE
  5
F10560
330
F10561
100
AcDbEntity
8
Geo
100
AcDbLine
10
-32.3538550057538
20
-2.27687661716617
30
0.000000000000000
11
-32.4538550057538
21
-1.76409740989301
31
0.000000000000000
  0
LINE
  5
F10562
330
F10563
100
AcDbEntity
8
Geo
100
AcDbLine
10
-32.4538550057538
20
-1.76409740989301
30
0.000000000000000
11
-32.5538550057538
21
-1.27056015105719
31
0.000000000000000
  0
LINE
  5
F10564
330
F10565
100
AcDbEntity
8
Geo
100
AcDbLine
10
-32.5538550057538
20
-1.27056015105719
30
0.000000000000000
11
-32.6538550057538
21
-0.802141036801322
31
0.000000000000000
  0
LINE
  5
F10566
330
F10567
100
AcDbEntity
8
Geo
100
AcDbLine
10
-32.6538550057538
20
-0.802141036801322
30
0.000000000000000
11
-32.7538550057538
21
-0.362279690829663
31
0.000000000000000
  0
LINE
  5
F10568
330
F10569
100
AcDbEntity
8
Geo
100
AcDbLine
10
-32.7538550057538
20
-0.362279690829663
30
0.000000000000000
11
-32.8538550057538
21
0.0474071333939879
31
0.000000000000000
  0
LINE
  5
F1056A
330
F1056B
100
AcDbEntity
8
Geo
100
AcDbLine
10
-32.8538550057538
20
0.0474071333939879
30
0.000000000000000
11
-32.9538550057538
21
0.426627746749445
31
0.000000000000000
  0
LINE
  5
F1056C
330
F1056D
100
AcDbEntity
8
Geo
100
AcDbLine
10
-32.9538550057538
20
0.426627746749445
30
0.000000000000000
11
-33.0538550057538
21
0.776022058815103
31
0.000000000000000
  0
LINE
  5
F1056E
330
F1056F
100
AcDbEntity
8
Geo
100
AcDbLine
10
-33.0538550057538
20
0.776022058815103
30
0.000000000000000
11
-33.1538550057538
21
1.09685751647010
31
0.000000000000000
  0
LINE
  5
F10570
330
F10571
100
AcDbEntity
8
Geo
100
AcDbLine
10
-33.1538550057538
20
1.09685751647010
30
0.000000000000000
11
-33.2538550057538
21
1.39079897870628
31
0.000000000000000
  0
LINE
  5
F10572
330
F10573
100
AcDbEntity
8
Geo
100
AcDbLine
10
-33.2538550057538
20
1.39079897870628
30
0.000000000000000
11
-33.3538550057538
21
1.65973808918178
31
0.000000000000000
  0
LINE
  5
F10574
330
F10575
100
AcDbEntity
8
Geo
100
AcDbLine
10
-33.3538550057538
20
1.65973808918178
30
0.000000000000000
11
-33.4538550057538
21
1.90566947456588
31
0.000000000000000
  0
LINE
  5
F10576
330
F10577
100
AcDbEntity
8
Geo
100
AcDbLine
10
-33.4538550057538
20
1.90566947456588
30
0.000000000000000
11
-33.5538550057538
21
2.13060309929581
31
0.000000000000000
  0
LINE
  5
F10578
330
F10579
100
AcDbEntity
8
Geo
100
AcDbLine
10
-33.5538550057538
20
2.13060309929581
30
0.000000000000000
11
-33.6538550057538
21
2.33650406229844
31
0.000000000000000
  0
LINE
  5
F1057A
330
F1057B
100
AcDbEntity
8
Geo
100
AcDbLine
10
-33.6538550057538
20
2.33650406229844
30
0.000000000000000
11
-33.7538550057538
21
2.52525288445394
31
0.000000000000000
  0
LINE
  5
F1057C
330
F1057D
100
AcDbEntity
8
Geo
100
AcDbLine
10
-33.7538550057538
20
2.52525288445394
30
0.000000000000000
11
-33.8538550057538
21
2.69862084870701
31
0.000000000000000
  0
LINE
  5
F1057E
330
F1057F
100
AcDbEntity
8
Geo
100
AcDbLine
10
-33.8538550057538
20
2.69862084870701
30
0.000000000000000
11
-33.9538550057538
21
2.85825620900089
31
0.000000000000000
  0
LINE
  5
F10580
330
F10581
100
AcDbEntity
8
Geo
100
AcDbLine
10
-33.9538550057538
20
2.85825620900089
30
0.000000000000000
11
-34.0538550057538
21
3.00567809727768
31
0.000000000000000
  0
LINE
  5
F10582
330
F10583
100
AcDbEntity
8
Geo
100
AcDbLine
10
-34.0538550057538
20
3.00567809727768
30
0.000000000000000
11
-34.1538550057538
21
3.14227575939608
31
0.000000000000000
  0
LINE
  5
F10584
330
F10585
100
AcDbEntity
8
Geo
100
AcDbLine
10
-34.1538550057538
20
3.14227575939608
30
0.000000000000000
11
-34.2538550057538
21
3.26931137434394
31
0.000000000000000
  0
LINE
  5
F10586
330
F10587
100
AcDbEntity
8
Geo
100
AcDbLine
10
-34.2538550057538
20
3.26931137434394
30
0.000000000000000
11
-34.3538550057538
21
3.38792518894735
31
0.000000000000000
  0
LINE
  5
F10588
330
F10589
100
AcDbEntity
8
Geo
100
AcDbLine
10
-34.3538550057538
20
3.38792518894735
30
0.000000000000000
11
-34.4538550057538
21
3.49914206149373
31
0.000000000000000
  0
LINE
  5
F1058A
330
F1058B
100
AcDbEntity
8
Geo
100
AcDbLine
10
-34.4538550057538
20
3.49914206149373
30
0.000000000000000
11
-34.5538550057538
21
3.60387877721755
31
0.000000000000000
  0
LINE
  5
F1058C
330
F1058D
100
AcDbEntity
8
Geo
100
AcDbLine
10
-34.5538550057538
20
3.60387877721755
30
0.000000000000000
11
-34.6538550057538
21
3.70295169711515
31
0.000000000000000
  0
LINE
  5
F1058E
330
F1058F
100
AcDbEntity
8
Geo
100
AcDbLine
10
-34.6538550057538
20
3.70295169711515
30
0.000000000000000
11
-34.7538550057538
21
3.79708444579082
31
0.000000000000000
  0
LINE
  5
F10590
330
F10591
100
AcDbEntity
8
Geo
100
AcDbLine
10
-34.7538550057538
20
3.79708444579082
30
0.000000000000000
11
-34.8538550057538
21
3.88691544728634
31
0.000000000000000
  0
LINE
  5
F10592
330
F10593
100
AcDbEntity
8
Geo
100
AcDbLine
10
-34.8538550057538
20
3.88691544728634
30
0.000000000000000
11
-34.9538550057538
21
3.97300519051260
31
0.000000000000000
  0
LINE
  5
F10594
330
F10595
100
AcDbEntity
8
Geo
100
AcDbLine
10
-34.9538550057538
20
3.97300519051260
30
0.000000000000000
11
-35.0538550057538
21
4.05584315602301
31
0.000000000000000
  0
LINE
  5
F10596
330
F10597
100
AcDbEntity
8
Geo
100
AcDbLine
10
-35.0538550057538
20
4.05584315602301
30
0.000000000000000
11
-35.1538550057538
21
4.13585436957997
31
0.000000000000000
  0
LINE
  5
F10598
330
F10599
100
AcDbEntity
8
Geo
100
AcDbLine
10
-35.1538550057538
20
4.13585436957997
30
0.000000000000000
11
-35.2538550057538
21
4.21340556990511
31
0.000000000000000
  0
LINE
  5
F1059A
330
F1059B
100
AcDbEntity
8
Geo
100
AcDbLine
10
-35.2538550057538
20
4.21340556990511
30
0.000000000000000
11
-35.3538550057538
21
4.28881099163878
31
0.000000000000000
  0
LINE
  5
F1059C
330
F1059D
100
AcDbEntity
8
Geo
100
AcDbLine
10
-35.3538550057538
20
4.28881099163878
30
0.000000000000000
11
-35.4538550057538
21
4.36233777243064
31
0.000000000000000
  0
LINE
  5
F1059E
330
F1059F
100
AcDbEntity
8
Geo
100
AcDbLine
10
-35.4538550057538
20
4.36233777243064
30
0.000000000000000
11
-35.5538550057538
21
4.43421099712100
31
0.000000000000000
  0
LINE
  5
F105A0
330
F105A1
100
AcDbEntity
8
Geo
100
AcDbLine
10
-35.5538550057538
20
4.43421099712100
30
0.000000000000000
11
-35.6538550057538
21
4.50461839350877
31
0.000000000000000
  0
LINE
  5
F105A2
330
F105A3
100
AcDbEntity
8
Geo
100
AcDbLine
10
-35.6538550057538
20
4.50461839350877
30
0.000000000000000
11
-35.7538550057538
21
4.57371469420720
31
0.000000000000000
  0
LINE
  5
F105A4
330
F105A5
100
AcDbEntity
8
Geo
100
AcDbLine
10
-35.7538550057538
20
4.57371469420720
30
0.000000000000000
11
-35.8538550057538
21
4.64162567824066
31
0.000000000000000
  0
LINE
  5
F105A6
330
F105A7
100
AcDbEntity
8
Geo
100
AcDbLine
10
-35.8538550057538
20
4.64162567824066
30
0.000000000000000
11
-35.9538550057538
21
4.70845190479881
31
0.000000000000000
  0
LINE
  5
F105A8
330
F105A9
100
AcDbEntity
8
Geo
100
AcDbLine
10
-35.9538550057538
20
4.70845190479881
30
0.000000000000000
11
-36.0538550057538
21
4.77427215024765
31
0.000000000000000
  0
LINE
  5
F105AA
330
F105AB
100
AcDbEntity
8
Geo
100
AcDbLine
10
-36.0538550057538
20
4.77427215024765
30
0.000000000000000
11
-36.1538550057538
21
4.83914655829262
31
0.000000000000000
  0
LINE
  5
F105AC
330
F105AD
100
AcDbEntity
8
Geo
100
AcDbLine
10
-36.1538550057538
20
4.83914655829262
30
0.000000000000000
11
-36.2538550057538
21
4.90311951221133
31
0.000000000000000
  0
LINE
  5
F105AE
330
F105AF
100
AcDbEntity
8
Geo
100
AcDbLine
10
-36.2538550057538
20
4.90311951221133
30
0.000000000000000
11
-36.3538550057538
21
4.96622223737576
31
0.000000000000000
  0
LINE
  5
F105B0
330
F105B1
100
AcDbEntity
8
Geo
100
AcDbLine
10
-36.3538550057538
20
4.96622223737576
30
0.000000000000000
11
-36.4538550057538
21
5.02847514188271
31
0.000000000000000
  0
LINE
  5
F105B2
330
F105B3
100
AcDbEntity
8
Geo
100
AcDbLine
10
-36.4538550057538
20
5.02847514188271
30
0.000000000000000
11
-36.5538550057538
21
5.08988990299306
31
0.000000000000000
  0
LINE
  5
F105B4
330
F105B5
100
AcDbEntity
8
Geo
100
AcDbLine
10
-36.5538550057538
20
5.08988990299306
30
0.000000000000000
11
-36.6538550057538
21
5.15047130721787
31
0.000000000000000
  0
LINE
  5
F105B6
330
F105B7
100
AcDbEntity
8
Geo
100
AcDbLine
10
-36.6538550057538
20
5.15047130721787
30
0.000000000000000
11
-36.7538550057538
21
5.21021885224297
31
0.000000000000000
  0
LINE
  5
F105B8
330
F105B9
100
AcDbEntity
8
Geo
100
AcDbLine
10
-36.7538550057538
20
5.21021885224297
30
0.000000000000000
11
-36.8538550057538
21
5.26912811941093
31
0.000000000000000
  0
LINE
  5
F105BA
330
F105BB
100
AcDbEntity
8
Geo
100
AcDbLine
10
-36.8538550057538
20
5.26912811941093
30
0.000000000000000
11
-36.9538550057538
21
5.32719192613770
31
0.000000000000000
  0
LINE
  5
F105BC
330
F105BD
100
AcDbEntity
8
Geo
100
AcDbLine
10
-36.9538550057538
20
5.32719192613770
30
0.000000000000000
11
-37.0538550057538
21
5.38440126838975
31
0.000000000000000
  0
LINE
  5
F105BE
330
F105BF
100
AcDbEntity
8
Geo
100
AcDbLine
10
-37.0538550057538
20
5.38440126838975
30
0.000000000000000
11
-37.1538550057538
21
5.44074606415099
31
0.000000000000000
  0
LINE
  5
F105C0
330
F105C1
100
AcDbEntity
8
Geo
100
AcDbLine
10
-37.1538550057538
20
5.44074606415099
30
0.000000000000000
11
-37.2538550057538
21
5.49621570963791
31
0.000000000000000
  0
LINE
  5
F105C2
330
F105C3
100
AcDbEntity
8
Geo
100
AcDbLine
10
-37.2538550057538
20
5.49621570963791
30
0.000000000000000
11
-37.3538550057538
21
5.55079946085183
31
0.000000000000000
  0
LINE
  5
F105C4
330
F105C5
100
AcDbEntity
8
Geo
100
AcDbLine
10
-33.1132643525194
20
-5.03337169159951
30
0.000000000000000
11
-33.1538550057538
21
-5.03195822122177
31
0.000000000000000
  0
LINE
  5
F105C6
330
F105C7
100
AcDbEntity
8
Geo
100
AcDbLine
10
-33.1538550057538
20
-5.03195822122177
30
0.000000000000000
11
-33.2538550057538
21
-5.01835951468256
31
0.000000000000000
  0
LINE
  5
F105C8
330
F105C9
100
AcDbEntity
8
Geo
100
AcDbLine
10
-33.2538550057538
20
-5.01835951468256
30
0.000000000000000
11
-33.3538550057538
21
-4.99320380599547
31
0.000000000000000
  0
LINE
  5
F105CA
330
F105CB
100
AcDbEntity
8
Geo
100
AcDbLine
10
-33.3538550057538
20
-4.99320380599547
30
0.000000000000000
11
-33.4538550057538
21
-4.95943292046366
31
0.000000000000000
  0
LINE
  5
F105CC
330
F105CD
100
AcDbEntity
8
Geo
100
AcDbLine
10
-33.4538550057538
20
-4.95943292046366
30
0.000000000000000
11
-33.5538550057538
21
-4.91938585112719
31
0.000000000000000
  0
LINE
  5
F105CE
330
F105CF
100
AcDbEntity
8
Geo
100
AcDbLine
10
-33.5538550057538
20
-4.91938585112719
30
0.000000000000000
11
-33.6538550057538
21
-4.87489892502765
31
0.000000000000000
  0
LINE
  5
F105D0
330
F105D1
100
AcDbEntity
8
Geo
100
AcDbLine
10
-33.6538550057538
20
-4.87489892502765
30
0.000000000000000
11
-33.7538550057538
21
-4.82739356167580
31
0.000000000000000
  0
LINE
  5
F105D2
330
F105D3
100
AcDbEntity
8
Geo
100
AcDbLine
10
-33.7538550057538
20
-4.82739356167580
30
0.000000000000000
11
-33.8538550057538
21
-4.77795190605580
31
0.000000000000000
  0
LINE
  5
F105D4
330
F105D5
100
AcDbEntity
8
Geo
100
AcDbLine
10
-33.8538550057538
20
-4.77795190605580
30
0.000000000000000
11
-33.9538550057538
21
-4.72738116521915
31
0.000000000000000
  0
LINE
  5
F105D6
330
F105D7
100
AcDbEntity
8
Geo
100
AcDbLine
10
-33.9538550057538
20
-4.72738116521915
30
0.000000000000000
11
-34.0538550057538
21
-4.67626775288577
31
0.000000000000000
  0
LINE
  5
F105D8
330
F105D9
100
AcDbEntity
8
Geo
100
AcDbLine
10
-34.0538550057538
20
-4.67626775288577
30
0.000000000000000
11
-34.1538550057538
21
-4.62502244687532
31
0.000000000000000
  0
LINE
  5
F105DA
330
F105DB
100
AcDbEntity
8
Geo
100
AcDbLine
10
-34.1538550057538
20
-4.62502244687532
30
0.000000000000000
11
-34.2538550057538
21
-4.57391775654811
31
0.000000000000000
  0
LINE
  5
F105DC
330
F105DD
100
AcDbEntity
8
Geo
100
AcDbLine
10
-34.2538550057538
20
-4.57391775654811
30
0.000000000000000
11
-34.3538550057538
21
-4.52311862713800
31
0.000000000000000
  0
LINE
  5
F105DE
330
F105DF
100
AcDbEntity
8
Geo
100
AcDbLine
10
-34.3538550057538
20
-4.52311862713800
30
0.000000000000000
11
-34.4538550057538
21
-4.47270750494968
31
0.000000000000000
  0
LINE
  5
F105E0
330
F105E1
100
AcDbEntity
8
Geo
100
AcDbLine
10
-34.4538550057538
20
-4.47270750494968
30
0.000000000000000
11
-34.5538550057538
21
-4.42270467117354
31
0.000000000000000
  0
LINE
  5
F105E2
330
F105E3
100
AcDbEntity
8
Geo
100
AcDbLine
10
-34.5538550057538
20
-4.42270467117354
30
0.000000000000000
11
-34.6538550057538
21
-4.37308463448073
31
0.000000000000000
  0
LINE
  5
F105E4
330
F105E5
100
AcDbEntity
8
Geo
100
AcDbLine
10
-34.6538550057538
20
-4.37308463448073
30
0.000000000000000
11
-34.7538550057538
21
-4.32378926059249
31
0.000000000000000
  0
LINE
  5
F105E6
330
F105E7
100
AcDbEntity
8
Geo
100
AcDbLine
10
-34.7538550057538
20
-4.32378926059249
30
0.000000000000000
11
-34.8538550057538
21
-4.27473821441186
31
0.000000000000000
  0
LINE
  5
F105E8
330
F105E9
100
AcDbEntity
8
Geo
100
AcDbLine
10
-34.8538550057538
20
-4.27473821441186
30
0.000000000000000
11
-34.9538550057538
21
-4.22583719872635
31
0.000000000000000
  0
LINE
  5
F105EA
330
F105EB
100
AcDbEntity
8
Geo
100
AcDbLine
10
-34.9538550057538
20
-4.22583719872635
30
0.000000000000000
11
-35.0538550057538
21
-4.17698439331303
31
0.000000000000000
  0
LINE
  5
F105EC
330
F105ED
100
AcDbEntity
8
Geo
100
AcDbLine
10
-35.0538550057538
20
-4.17698439331303
30
0.000000000000000
11
-35.1538550057538
21
-4.12807542912350
31
0.000000000000000
  0
LINE
  5
F105EE
330
F105EF
100
AcDbEntity
8
Geo
100
AcDbLine
10
-35.1538550057538
20
-4.12807542912350
30
0.000000000000000
11
-35.2538550057538
21
-4.07900717329819
31
0.000000000000000
  0
LINE
  5
F105F0
330
F105F1
100
AcDbEntity
8
Geo
100
AcDbLine
10
-35.2538550057538
20
-4.07900717329819
30
0.000000000000000
11
-35.3538550057538
21
-4.02968055106685
31
0.000000000000000
  0
LINE
  5
F105F2
330
F105F3
100
AcDbEntity
8
Geo
100
AcDbLine
10
-35.3538550057538
20
-4.02968055106685
30
0.000000000000000
11
-35.4538550057538
21
-3.98000258907875
31
0.000000000000000
  0
LINE
  5
F105F4
330
F105F5
100
AcDbEntity
8
Geo
100
AcDbLine
10
-35.4538550057538
20
-3.98000258907875
30
0.000000000000000
11
-35.5538550057538
21
-3.92988783033386
31
0.000000000000000
  0
LINE
  5
F105F6
330
F105F7
100
AcDbEntity
8
Geo
100
AcDbLine
10
-35.5538550057538
20
-3.92988783033386
30
0.000000000000000
11
-35.6538550057538
21
-3.87925924267575
31
0.000000000000000
  0
LINE
  5
F105F8
330
F105F9
100
AcDbEntity
8
Geo
100
AcDbLine
10
-35.6538550057538
20
-3.87925924267575
30
0.000000000000000
11
-35.7538550057538
21
-3.82804871985991
31
0.000000000000000
  0
LINE
  5
F105FA
330
F105FB
100
AcDbEntity
8
Geo
100
AcDbLine
10
-35.7538550057538
20
-3.82804871985991
30
0.000000000000000
11
-35.8538550057538
21
-3.77619725571927
31
0.000000000000000
  0
LINE
  5
F105FC
330
F105FD
100
AcDbEntity
8
Geo
100
AcDbLine
10
-35.8538550057538
20
-3.77619725571927
30
0.000000000000000
11
-35.9538550057538
21
-3.72365485719163
31
0.000000000000000
  0
LINE
  5
F105FE
330
F105FF
100
AcDbEntity
8
Geo
100
AcDbLine
10
-35.9538550057538
20
-3.72365485719163
30
0.000000000000000
11
-36.0538550057538
21
-3.67038025031962
31
0.000000000000000
  0
LINE
  5
F10600
330
F10601
100
AcDbEntity
8
Geo
100
AcDbLine
10
-36.0538550057538
20
-3.67038025031962
30
0.000000000000000
11
-36.1538550057538
21
-3.61634042422823
31
0.000000000000000
  0
LINE
  5
F10602
330
F10603
100
AcDbEntity
8
Geo
100
AcDbLine
10
-36.1538550057538
20
-3.61634042422823
30
0.000000000000000
11
-36.2538550057538
21
-3.56151005104923
31
0.000000000000000
  0
LINE
  5
F10604
330
F10605
100
AcDbEntity
8
Geo
100
AcDbLine
10
-36.2538550057538
20
-3.56151005104923
30
0.000000000000000
11
-36.3538550057538
21
-3.50587081438358
31
0.000000000000000
  0
LINE
  5
F10606
330
F10607
100
AcDbEntity
8
Geo
100
AcDbLine
10
-36.3538550057538
20
-3.50587081438358
30
0.000000000000000
11
-36.4538550057538
21
-3.44941067482085
31
0.000000000000000
  0
LINE
  5
F10608
330
F10609
100
AcDbEntity
8
Geo
100
AcDbLine
10
-36.4538550057538
20
-3.44941067482085
30
0.000000000000000
11
-36.5538550057538
21
-3.39212309797245
31
0.000000000000000
  0
LINE
  5
F1060A
330
F1060B
100
AcDbEntity
8
Geo
100
AcDbLine
10
-36.5538550057538
20
-3.39212309797245
30
0.000000000000000
11
-36.6538550057538
21
-3.33400626817619
31
0.000000000000000
  0
LINE
  5
F1060C
330
F1060D
100
AcDbEntity
8
Geo
100
AcDbLine
10
-36.6538550057538
20
-3.33400626817619
30
0.000000000000000
11
-36.7538550057538
21
-3.27506230929086
31
0.000000000000000
  0
LINE
  5
F1060E
330
F1060F
100
AcDbEntity
8
Geo
100
AcDbLine
10
-36.7538550057538
20
-3.27506230929086
30
0.000000000000000
11
-36.8538550057538
21
-3.21529653265719
31
0.000000000000000
  0
LINE
  5
F10610
330
F10611
100
AcDbEntity
8
Geo
100
AcDbLine
10
-36.8538550057538
20
-3.21529653265719
30
0.000000000000000
11
-36.9538550057538
21
-3.15471673122756
31
0.000000000000000
  0
LINE
  5
F10612
330
F10613
100
AcDbEntity
8
Geo
100
AcDbLine
10
-36.9538550057538
20
-3.15471673122756
30
0.000000000000000
11
-37.0538550057538
21
-3.09333253796095
31
0.000000000000000
  0
LINE
  5
F10614
330
F10615
100
AcDbEntity
8
Geo
100
AcDbLine
10
-37.0538550057538
20
-3.09333253796095
30
0.000000000000000
11
-37.1538550057538
21
-3.03115486576970
31
0.000000000000000
  0
LINE
  5
F10616
330
F10617
100
AcDbEntity
8
Geo
100
AcDbLine
10
-37.1538550057538
20
-3.03115486576970
30
0.000000000000000
11
-37.2538550057538
21
-2.96819544553709
31
0.000000000000000
  0
LINE
  5
F10618
330
F10619
100
AcDbEntity
8
Geo
100
AcDbLine
10
-37.2538550057538
20
-2.96819544553709
30
0.000000000000000
11
-37.3538550057538
21
-2.90446647796590
31
0.000000000000000
  0
LINE
  5
F1061A
330
F1061B
100
AcDbEntity
8
Geo
100
AcDbLine
10
-37.3538550057538
20
6.52266823057507
30
0.000000000000000
11
-37.2538550057538
21
6.49044933242385
31
0.000000000000000
  0
LINE
  5
F1061C
330
F1061D
100
AcDbEntity
8
Geo
100
AcDbLine
10
-37.2538550057538
20
6.49044933242385
30
0.000000000000000
11
-37.1538550057538
21
6.45715010267140
31
0.000000000000000
  0
LINE
  5
F1061E
330
F1061F
100
AcDbEntity
8
Geo
100
AcDbLine
10
-37.1538550057538
20
6.45715010267140
30
0.000000000000000
11
-37.0538550057538
21
6.42277705387671
31
0.000000000000000
  0
LINE
  5
F10620
330
F10621
100
AcDbEntity
8
Geo
100
AcDbLine
10
-37.0538550057538
20
6.42277705387671
30
0.000000000000000
11
-36.9538550057538
21
6.38733690861298
31
0.000000000000000
  0
LINE
  5
F10622
330
F10623
100
AcDbEntity
8
Geo
100
AcDbLine
10
-36.9538550057538
20
6.38733690861298
30
0.000000000000000
11
-36.8538550057538
21
6.35083659815378
31
0.000000000000000
  0
LINE
  5
F10624
330
F10625
100
AcDbEntity
8
Geo
100
AcDbLine
10
-36.8538550057538
20
6.35083659815378
30
0.000000000000000
11
-36.7538550057538
21
6.31328326112369
31
0.000000000000000
  0
LINE
  5
F10626
330
F10627
100
AcDbEntity
8
Geo
100
AcDbLine
10
-36.7538550057538
20
6.31328326112369
30
0.000000000000000
11
-36.6538550057538
21
6.27468424213248
31
0.000000000000000
  0
LINE
  5
F10628
330
F10629
100
AcDbEntity
8
Geo
100
AcDbLine
10
-36.6538550057538
20
6.27468424213248
30
0.000000000000000
11
-36.5538550057538
21
6.23504709045263
31
0.000000000000000
  0
LINE
  5
F1062A
330
F1062B
100
AcDbEntity
8
Geo
100
AcDbLine
10
-36.5538550057538
20
6.23504709045263
30
0.000000000000000
11
-36.4538550057538
21
6.19437955889654
31
0.000000000000000
  0
LINE
  5
F1062C
330
F1062D
100
AcDbEntity
8
Geo
100
AcDbLine
10
-36.4538550057538
20
6.19437955889654
30
0.000000000000000
11
-36.3538550057538
21
6.15268960325217
31
0.000000000000000
  0
LINE
  5
F1062E
330
F1062F
100
AcDbEntity
8
Geo
100
AcDbLine
10
-36.3538550057538
20
6.15268960325217
30
0.000000000000000
11
-36.2538550057538
21
6.10998538301700
31
0.000000000000000
  0
LINE
  5
F10630
330
F10631
100
AcDbEntity
8
Geo
100
AcDbLine
10
-36.2538550057538
20
6.10998538301700
30
0.000000000000000
11
-36.1538550057538
21
6.06627526483916
31
0.000000000000000
  0
LINE
  5
F10632
330
F10633
100
AcDbEntity
8
Geo
100
AcDbLine
10
-36.1538550057538
20
6.06627526483916
30
0.000000000000000
11
-36.0538550057538
21
6.02156783117774
31
0.000000000000000
  0
LINE
  5
F10634
330
F10635
100
AcDbEntity
8
Geo
100
AcDbLine
10
-36.0538550057538
20
6.02156783117774
30
0.000000000000000
11
-35.9538550057538
21
5.97587189842799
31
0.000000000000000
  0
LINE
  5
F10636
330
F10637
100
AcDbEntity
8
Geo
100
AcDbLine
10
-35.9538550057538
20
5.97587189842799
30
0.000000000000000
11
-35.8538550057538
21
5.92919655137483
31
0.000000000000000
  0
LINE
  5
F10638
330
F10639
100
AcDbEntity
8
Geo
100
AcDbLine
10
-35.8538550057538
20
5.92919655137483
30
0.000000000000000
11
-35.7538550057538
21
5.88155120465795
31
0.000000000000000
  0
LINE
  5
F1063A
330
F1063B
100
AcDbEntity
8
Geo
100
AcDbLine
10
-35.7538550057538
20
5.88155120465795
30
0.000000000000000
11
-35.6538550057538
21
5.83294570734823
31
0.000000000000000
  0
LINE
  5
F1063C
330
F1063D
100
AcDbEntity
8
Geo
100
AcDbLine
10
-35.6538550057538
20
5.83294570734823
30
0.000000000000000
11
-35.5538550057538
21
5.78339051422537
31
0.000000000000000
  0
LINE
  5
F1063E
330
F1063F
100
AcDbEntity
8
Geo
100
AcDbLine
10
-35.5538550057538
20
5.78339051422537
30
0.000000000000000
11
-35.4538550057538
21
5.73289695748140
31
0.000000000000000
  0
LINE
  5
F10640
330
F10641
100
AcDbEntity
8
Geo
100
AcDbLine
10
-35.4538550057538
20
5.73289695748140
30
0.000000000000000
11
-35.3538550057538
21
5.68147766602576
31
0.000000000000000
  0
LINE
  5
F10642
330
F10643
100
AcDbEntity
8
Geo
100
AcDbLine
10
-35.3538550057538
20
5.68147766602576
30
0.000000000000000
11
-35.2538550057538
21
5.62914719711503
31
0.000000000000000
  0
LINE
  5
F10644
330
F10645
100
AcDbEntity
8
Geo
100
AcDbLine
10
-35.2538550057538
20
5.62914719711503
30
0.000000000000000
11
-35.1538550057538
21
5.57592296756740
31
0.000000000000000
  0
LINE
  5
F10646
330
F10647
100
AcDbEntity
8
Geo
100
AcDbLine
10
-35.1538550057538
20
5.57592296756740
30
0.000000000000000
11
-35.0538550057538
21
5.52182660035638
31
0.000000000000000
  0
LINE
  5
F10648
330
F10649
100
AcDbEntity
8
Geo
100
AcDbLine
10
-35.0538550057538
20
5.52182660035638
30
0.000000000000000
11
-34.9538550057538
21
5.46688583802506
31
0.000000000000000
  0
LINE
  5
F1064A
330
F1064B
100
AcDbEntity
8
Geo
100
AcDbLine
10
-34.9538550057538
20
5.46688583802506
30
0.000000000000000
11
-34.8538550057538
21
5.41113721832742
31
0.000000000000000
  0
LINE
  5
F1064C
330
F1064D
100
AcDbEntity
8
Geo
100
AcDbLine
10
-34.8538550057538
20
5.41113721832742
30
0.000000000000000
11
-34.7538550057538
21
5.35462976104236
31
0.000000000000000
  0
LINE
  5
F1064E
330
F1064F
100
AcDbEntity
8
Geo
100
AcDbLine
10
-34.7538550057538
20
5.35462976104236
30
0.000000000000000
11
-34.6538550057538
21
5.29742997925683
31
0.000000000000000
  0
LINE
  5
F10650
330
F10651
100
AcDbEntity
8
Geo
100
AcDbLine
10
-34.6538550057538
20
5.29742997925683
30
0.000000000000000
11
-34.5538550057538
21
5.23962860467096
31
0.000000000000000
  0
LINE
  5
F10652
330
F10653
100
AcDbEntity
8
Geo
100
AcDbLine
10
-34.5538550057538
20
5.23962860467096
30
0.000000000000000
11
-34.4538550057538
21
5.18134950538733
31
0.000000000000000
  0
LINE
  5
F10654
330
F10655
100
AcDbEntity
8
Geo
100
AcDbLine
10
-34.4538550057538
20
5.18134950538733
30
0.000000000000000
11
-34.3538550057538
21
5.12276137628089
31
0.000000000000000
  0
LINE
  5
F10656
330
F10657
100
AcDbEntity
8
Geo
100
AcDbLine
10
-34.3538550057538
20
5.12276137628089
30
0.000000000000000
11
-34.2538550057538
21
5.06409289528098
31
0.000000000000000
  0
LINE
  5
F10658
330
F10659
100
AcDbEntity
8
Geo
100
AcDbLine
10
-34.2538550057538
20
5.06409289528098
30
0.000000000000000
11
-34.1538550057538
21
5.00565216060475
31
0.000000000000000
  0
LINE
  5
F1065A
330
F1065B
100
AcDbEntity
8
Geo
100
AcDbLine
10
-34.1538550057538
20
5.00565216060475
30
0.000000000000000
11
-34.0538550057538
21
4.94785134777876
31
0.000000000000000
  0
LINE
  5
F1065C
330
F1065D
100
AcDbEntity
8
Geo
100
AcDbLine
10
-34.0538550057538
20
4.94785134777876
30
0.000000000000000
11
-33.9538550057538
21
4.89123763960208
31
0.000000000000000
  0
LINE
  5
F1065E
330
F1065F
100
AcDbEntity
8
Geo
100
AcDbLine
10
-33.9538550057538
20
4.89123763960208
30
0.000000000000000
11
-33.8538550057538
21
4.83653156725536
31
0.000000000000000
  0
LINE
  5
F10660
330
F10661
100
AcDbEntity
8
Geo
100
AcDbLine
10
-33.8538550057538
20
4.83653156725536
30
0.000000000000000
11
-33.7538550057538
21
4.78467392374175
31
0.000000000000000
  0
LINE
  5
F10662
330
F10663
100
AcDbEntity
8
Geo
100
AcDbLine
10
-33.7538550057538
20
4.78467392374175
30
0.000000000000000
11
-33.6538550057538
21
4.73688231808346
31
0.000000000000000
  0
LINE
  5
F10664
330
F10665
100
AcDbEntity
8
Geo
100
AcDbLine
10
-33.6538550057538
20
4.73688231808346
30
0.000000000000000
11
-33.5538550057538
21
4.69471814247408
31
0.000000000000000
  0
LINE
  5
F10666
330
F10667
100
AcDbEntity
8
Geo
100
AcDbLine
10
-33.5538550057538
20
4.69471814247408
30
0.000000000000000
11
-33.4538550057538
21
4.66016408043907
31
0.000000000000000
  0
LINE
  5
F10668
330
F10669
100
AcDbEntity
8
Geo
100
AcDbLine
10
-33.4538550057538
20
4.66016408043907
30
0.000000000000000
11
-33.3538550057538
21
4.63571105081612
31
0.000000000000000
  0
LINE
  5
F1066A
330
F1066B
100
AcDbEntity
8
Geo
100
AcDbLine
10
-33.3538550057538
20
4.63571105081612
30
0.000000000000000
11
-33.2538550057538
21
4.62445125102526
31
0.000000000000000
  0
LINE
  5
F1066C
330
F1066D
100
AcDbEntity
8
Geo
100
AcDbLine
10
-33.2538550057538
20
4.62445125102526
30
0.000000000000000
11
-33.1538550057538
21
4.63017002992455
31
0.000000000000000
  0
LINE
  5
F1066E
330
F1066F
100
AcDbEntity
8
Geo
100
AcDbLine
10
-33.1538550057538
20
4.63017002992455
30
0.000000000000000
11
-33.0538550057538
21
4.65742246278592
31
0.000000000000000
  0
LINE
  5
F10670
330
F10671
100
AcDbEntity
8
Geo
100
AcDbLine
10
-33.0538550057538
20
4.65742246278592
30
0.000000000000000
11
-32.9538550057538
21
4.71156858826383
31
0.000000000000000
  0
LINE
  5
F10672
330
F10673
100
AcDbEntity
8
Geo
100
AcDbLine
10
-32.9538550057538
20
4.71156858826383
30
0.000000000000000
11
-32.8538550057538
21
4.79872061205297
31
0.000000000000000
  0
LINE
  5
F10674
330
F10675
100
AcDbEntity
8
Geo
100
AcDbLine
10
-32.8538550057538
20
4.79872061205297
30
0.000000000000000
11
-32.7538550057538
21
4.92551971537673
31
0.000000000000000
  0
LINE
  5
F10676
330
F10677
100
AcDbEntity
8
Geo
100
AcDbLine
10
-32.7538550057538
20
4.92551971537673
30
0.000000000000000
11
-32.6538550057538
21
5.09859913295393
31
0.000000000000000
  0
LINE
  5
F10678
330
F10679
100
AcDbEntity
8
Geo
100
AcDbLine
10
-32.6538550057538
20
5.09859913295393
30
0.000000000000000
11
-32.5538550057538
21
5.32348799554168
31
0.000000000000000
  0
LINE
  5
F1067A
330
F1067B
100
AcDbEntity
8
Geo
100
AcDbLine
10
-32.5538550057538
20
5.32348799554168
30
0.000000000000000
11
-32.4538550057538
21
5.60254536098292
31
0.000000000000000
  0
LINE
  5
F1067C
330
F1067D
100
AcDbEntity
8
Geo
100
AcDbLine
10
-32.4538550057538
20
5.60254536098292
30
0.000000000000000
11
-32.3538550057538
21
5.93126426191924
31
0.000000000000000
  0
LINE
  5
F1067E
330
F1067F
100
AcDbEntity
8
Geo
100
AcDbLine
10
-32.3538550057538
20
5.93126426191924
30
0.000000000000000
11
-32.3538550057538
21
5.65921455416142
31
0.000000000000000
  0
LINE
  5
F10680
330
F10681
100
AcDbEntity
8
Geo
100
AcDbLine
10
-32.3538550057538
20
5.65921455416142
30
0.000000000000000
11
-32.3538550057538
21
5.66528682024950
31
0.000000000000000
  0
LINE
  5
F10682
330
F10683
100
AcDbEntity
8
Geo
100
AcDbLine
10
-32.3538550057538
20
5.66528682024950
30
0.000000000000000
11
-32.3538550057538
21
6.01436798055324
31
0.000000000000000
  0
LINE
  5
F10684
330
F10685
100
AcDbEntity
8
Geo
100
AcDbLine
10
-32.3538550057538
20
6.01436798055324
30
0.000000000000000
11
-32.4538550057538
21
6.30920606183099
31
0.000000000000000
  0
LINE
  5
F10686
330
F10687
100
AcDbEntity
8
Geo
100
AcDbLine
10
-32.4538550057538
20
6.30920606183099
30
0.000000000000000
11
-32.5538550057538
21
6.53394254390663
31
0.000000000000000
  0
LINE
  5
F10688
330
F10689
100
AcDbEntity
8
Geo
100
AcDbLine
10
-32.5538550057538
20
6.53394254390663
30
0.000000000000000
11
-32.6538550057538
21
6.69999163226846
31
0.000000000000000
  0
LINE
  5
F1068A
330
F1068B
100
AcDbEntity
8
Geo
100
AcDbLine
10
-32.6538550057538
20
6.69999163226846
30
0.000000000000000
11
-32.7538550057538
21
6.81761143344726
31
0.000000000000000
  0
LINE
  5
F1068C
330
F1068D
100
AcDbEntity
8
Geo
100
AcDbLine
10
-32.7538550057538
20
6.81761143344726
30
0.000000000000000
11
-32.8538550057538
21
6.89579624592930
31
0.000000000000000
  0
LINE
  5
F1068E
330
F1068F
100
AcDbEntity
8
Geo
100
AcDbLine
10
-32.8538550057538
20
6.89579624592930
30
0.000000000000000
11
-32.9538550057538
21
6.94227884984086
31
0.000000000000000
  0
LINE
  5
F10690
330
F10691
100
AcDbEntity
8
Geo
100
AcDbLine
10
-32.9538550057538
20
6.94227884984086
30
0.000000000000000
11
-33.0538550057538
21
6.96359998230549
31
0.000000000000000
  0
LINE
  5
F10692
330
F10693
100
AcDbEntity
8
Geo
100
AcDbLine
10
-33.0538550057538
20
6.96359998230549
30
0.000000000000000
11
-33.1132643525194
21
6.96662830840049
31
0.000000000000000
  0
LINE
  5
F10694
330
F10695
100
AcDbEntity
8
Geo
100
AcDbLine
10
-51.3538550057538
20
0.355036580353691
30
0.000000000000000
11
-51.2538550057538
21
0.287156809004131
31
0.000000000000000
  0
LINE
  5
F10696
330
F10697
100
AcDbEntity
8
Geo
100
AcDbLine
10
-51.2538550057538
20
0.287156809004131
30
0.000000000000000
11
-51.2538550057538
21
0.287156809004131
31
0.000000000000000
  0
LINE
  5
F10698
330
F10699
100
AcDbEntity
8
Geo
100
AcDbLine
10
-51.2538550057538
20
0.287156809004131
30
0.000000000000000
11
-51.1538550057538
21
0.211090508907371
31
0.000000000000000
  0
LINE
  5
F1069A
330
F1069B
100
AcDbEntity
8
Geo
100
AcDbLine
10
-51.1538550057538
20
0.211090508907371
30
0.000000000000000
11
-51.0538550057538
21
0.128977539487963
31
0.000000000000000
  0
LINE
  5
F1069C
330
F1069D
100
AcDbEntity
8
Geo
100
AcDbLine
10
-51.0538550057538
20
0.128977539487963
30
0.000000000000000
11
-50.9538550057538
21
0.0470283951802865
31
0.000000000000000
  0
LINE
  5
F1069E
330
F1069F
100
AcDbEntity
8
Geo
100
AcDbLine
10
-50.9538550057538
20
0.0470283951802865
30
0.000000000000000
11
-50.8538550057538
21
-0.0347408966588876
31
0.000000000000000
  0
LINE
  5
F106A0
330
F106A1
100
AcDbEntity
8
Geo
100
AcDbLine
10
-50.8538550057538
20
-0.0347408966588876
30
0.000000000000000
11
-50.7538550057538
21
-0.116314343847769
31
0.000000000000000
  0
LINE
  5
F106A2
330
F106A3
100
AcDbEntity
8
Geo
100
AcDbLine
10
-50.7538550057538
20
-0.116314343847769
30
0.000000000000000
11
-50.6538550057538
21
-0.197675992507252
31
0.000000000000000
  0
LINE
  5
F106A4
330
F106A5
100
AcDbEntity
8
Geo
100
AcDbLine
10
-50.6538550057538
20
-0.197675992507252
30
0.000000000000000
11
-50.5538550057538
21
-0.278809930181125
31
0.000000000000000
  0
LINE
  5
F106A6
330
F106A7
100
AcDbEntity
8
Geo
100
AcDbLine
10
-50.5538550057538
20
-0.278809930181125
30
0.000000000000000
11
-50.4538550057538
21
-0.359700288948174
31
0.000000000000000
  0
LINE
  5
F106A8
330
F106A9
100
AcDbEntity
8
Geo
100
AcDbLine
10
-50.4538550057538
20
-0.359700288948174
30
0.000000000000000
11
-50.3538550057538
21
-0.440331248525586
31
0.000000000000000
  0
LINE
  5
F106AA
330
F106AB
100
AcDbEntity
8
Geo
100
AcDbLine
10
-50.3538550057538
20
-0.440331248525586
30
0.000000000000000
11
-50.2538550057538
21
-0.520687039363028
31
0.000000000000000
  0
LINE
  5
F106AC
330
F106AD
100
AcDbEntity
8
Geo
100
AcDbLine
10
-50.2538550057538
20
-0.520687039363028
30
0.000000000000000
11
-50.1538550057538
21
-0.600751945726806
31
0.000000000000000
  0
LINE
  5
F106AE
330
F106AF
100
AcDbEntity
8
Geo
100
AcDbLine
10
-50.1538550057538
20
-0.600751945726806
30
0.000000000000000
11
-50.0538550057538
21
-0.680510308773502
31
0.000000000000000
  0
LINE
  5
F106B0
330
F106B1
100
AcDbEntity
8
Geo
100
AcDbLine
10
-50.0538550057538
20
-0.680510308773502
30
0.000000000000000
11
-49.9538550057538
21
-0.759946529612475
31
0.000000000000000
  0
LINE
  5
F106B2
330
F106B3
100
AcDbEntity
8
Geo
100
AcDbLine
10
-49.9538550057538
20
-0.759946529612475
30
0.000000000000000
11
-49.8538550057538
21
-0.839045072356650
31
0.000000000000000
  0
LINE
  5
F106B4
330
F106B5
100
AcDbEntity
8
Geo
100
AcDbLine
10
-49.8538550057538
20
-0.839045072356650
30
0.000000000000000
11
-49.7538550057538
21
-0.917790467160977
31
0.000000000000000
  0
LINE
  5
F106B6
330
F106B7
100
AcDbEntity
8
Geo
100
AcDbLine
10
-49.7538550057538
20
-0.917790467160977
30
0.000000000000000
11
-49.6538550057538
21
-0.996167313247968
31
0.000000000000000
  0
LINE
  5
F106B8
330
F106B9
100
AcDbEntity
8
Geo
100
AcDbLine
10
-49.6538550057538
20
-0.996167313247968
30
0.000000000000000
11
-49.5538550057538
21
-1.07416028191974
31
0.000000000000000
  0
LINE
  5
F106BA
330
F106BB
100
AcDbEntity
8
Geo
100
AcDbLine
10
-49.5538550057538
20
-1.07416028191974
30
0.000000000000000
11
-49.4538550057538
21
-1.15175411955596
31
0.000000000000000
  0
LINE
  5
F106BC
330
F106BD
100
AcDbEntity
8
Geo
100
AcDbLine
10
-49.4538550057538
20
-1.15175411955596
30
0.000000000000000
11
-49.3538550057538
21
-1.22893365059707
31
0.000000000000000
  0
LINE
  5
F106BE
330
F106BF
100
AcDbEntity
8
Geo
100
AcDbLine
10
-49.3538550057538
20
-1.22893365059707
30
0.000000000000000
11
-49.2538550057538
21
-1.30568378051233
31
0.000000000000000
  0
LINE
  5
F106C0
330
F106C1
100
AcDbEntity
8
Geo
100
AcDbLine
10
-49.2538550057538
20
-1.30568378051233
30
0.000000000000000
11
-49.1538550057538
21
-1.38198949875189
31
0.000000000000000
  0
LINE
  5
F106C2
330
F106C3
100
AcDbEntity
8
Geo
100
AcDbLine
10
-49.1538550057538
20
-1.38198949875189
30
0.000000000000000
11
-49.0538550057538
21
-1.45783588168257
31
0.000000000000000
  0
LINE
  5
F106C4
330
F106C5
100
AcDbEntity
8
Geo
100
AcDbLine
10
-49.0538550057538
20
-1.45783588168257
30
0.000000000000000
11
-48.9538550057538
21
-1.53320809550654
31
0.000000000000000
  0
LINE
  5
F106C6
330
F106C7
100
AcDbEntity
8
Geo
100
AcDbLine
10
-48.9538550057538
20
-1.53320809550654
30
0.000000000000000
11
-48.8538550057538
21
-1.60809139916247
31
0.000000000000000
  0
LINE
  5
F106C8
330
F106C9
100
AcDbEntity
8
Geo
100
AcDbLine
10
-48.8538550057538
20
-1.60809139916247
30
0.000000000000000
11
-48.7538550057538
21
-1.68247114720857
31
0.000000000000000
  0
LINE
  5
F106CA
330
F106CB
100
AcDbEntity
8
Geo
100
AcDbLine
10
-48.7538550057538
20
-1.68247114720857
30
0.000000000000000
11
-48.6538550057538
21
-1.75633279268685
31
0.000000000000000
  0
LINE
  5
F106CC
330
F106CD
100
AcDbEntity
8
Geo
100
AcDbLine
10
-48.6538550057538
20
-1.75633279268685
30
0.000000000000000
11
-48.5538550057538
21
-1.82966188996821
31
0.000000000000000
  0
LINE
  5
F106CE
330
F106CF
100
AcDbEntity
8
Geo
100
AcDbLine
10
-48.5538550057538
20
-1.82966188996821
30
0.000000000000000
11
-48.4538550057538
21
-1.90244409757767
31
0.000000000000000
  0
LINE
  5
F106D0
330
F106D1
100
AcDbEntity
8
Geo
100
AcDbLine
10
-48.4538550057538
20
-1.90244409757767
30
0.000000000000000
11
-48.3538550057538
21
-1.97466518099919
31
0.000000000000000
  0
LINE
  5
F106D2
330
F106D3
100
AcDbEntity
8
Geo
100
AcDbLine
10
-48.3538550057538
20
-1.97466518099919
30
0.000000000000000
11
-48.2538550057538
21
-2.04631101545967
31
0.000000000000000
  0
LINE
  5
F106D4
330
F106D5
100
AcDbEntity
8
Geo
100
AcDbLine
10
-48.2538550057538
20
-2.04631101545967
30
0.000000000000000
11
-48.1538550057538
21
-2.11736758869136
31
0.000000000000000
  0
LINE
  5
F106D6
330
F106D7
100
AcDbEntity
8
Geo
100
AcDbLine
10
-48.1538550057538
20
-2.11736758869136
30
0.000000000000000
11
-48.0538550057538
21
-2.18782100367242
31
0.000000000000000
  0
LINE
  5
F106D8
330
F106D9
100
AcDbEntity
8
Geo
100
AcDbLine
10
-48.0538550057538
20
-2.18782100367242
30
0.000000000000000
11
-47.9538550057538
21
-2.25765748134478
31
0.000000000000000
  0
LINE
  5
F106DA
330
F106DB
100
AcDbEntity
8
Geo
100
AcDbLine
10
-47.9538550057538
20
-2.25765748134478
30
0.000000000000000
11
-47.8538550057538
21
-2.32686336330903
31
0.000000000000000
  0
LINE
  5
F106DC
330
F106DD
100
AcDbEntity
8
Geo
100
AcDbLine
10
-47.8538550057538
20
-2.32686336330903
30
0.000000000000000
11
-47.7538550057538
21
-2.39542511449572
31
0.000000000000000
  0
LINE
  5
F106DE
330
F106DF
100
AcDbEntity
8
Geo
100
AcDbLine
10
-47.7538550057538
20
-2.39542511449572
30
0.000000000000000
11
-47.6538550057538
21
-2.46332932581246
31
0.000000000000000
  0
LINE
  5
F106E0
330
F106E1
100
AcDbEntity
8
Geo
100
AcDbLine
10
-47.6538550057538
20
-2.46332932581246
30
0.000000000000000
11
-47.5538550057538
21
-2.53056271676644
31
0.000000000000000
  0
LINE
  5
F106E2
330
F106E3
100
AcDbEntity
8
Geo
100
AcDbLine
10
-47.5538550057538
20
-2.53056271676644
30
0.000000000000000
11
-47.4538550057538
21
-2.59711213806182
31
0.000000000000000
  0
LINE
  5
F106E4
330
F106E5
100
AcDbEntity
8
Geo
100
AcDbLine
10
-47.4538550057538
20
-2.59711213806182
30
0.000000000000000
11
-47.3538550057538
21
-2.66296457417136
31
0.000000000000000
  0
LINE
  5
F106E6
330
F106E7
100
AcDbEntity
8
Geo
100
AcDbLine
10
-47.3538550057538
20
-2.66296457417136
30
0.000000000000000
11
-47.2538550057538
21
-2.72810714588205
31
0.000000000000000
  0
LINE
  5
F106E8
330
F106E9
100
AcDbEntity
8
Geo
100
AcDbLine
10
-47.2538550057538
20
-2.72810714588205
30
0.000000000000000
11
-47.1538550057538
21
-2.79252711281388
31
0.000000000000000
  0
LINE
  5
F106EA
330
F106EB
100
AcDbEntity
8
Geo
100
AcDbLine
10
-47.1538550057538
20
-2.79252711281388
30
0.000000000000000
11
-47.0538550057538
21
-2.85621187591167
31
0.000000000000000
  0
LINE
  5
F106EC
330
F106ED
100
AcDbEntity
8
Geo
100
AcDbLine
10
-47.0538550057538
20
-2.85621187591167
30
0.000000000000000
11
-46.9538550057538
21
-2.91914897990906
31
0.000000000000000
  0
LINE
  5
F106EE
330
F106EF
100
AcDbEntity
8
Geo
100
AcDbLine
10
-46.9538550057538
20
-2.91914897990906
30
0.000000000000000
11
-46.8538550057538
21
-2.98132611576454
31
0.000000000000000
  0
LINE
  5
F106F0
330
F106F1
100
AcDbEntity
8
Geo
100
AcDbLine
10
-46.8538550057538
20
-2.98132611576454
30
0.000000000000000
11
-46.7538550057538
21
-3.04273112306876
31
0.000000000000000
  0
LINE
  5
F106F2
330
F106F3
100
AcDbEntity
8
Geo
100
AcDbLine
10
-46.7538550057538
20
-3.04273112306876
30
0.000000000000000
11
-46.6538550057538
21
-3.10335199242289
31
0.000000000000000
  0
LINE
  5
F106F4
330
F106F5
100
AcDbEntity
8
Geo
100
AcDbLine
10
-46.6538550057538
20
-3.10335199242289
30
0.000000000000000
11
-46.5538550057538
21
-3.16317686778730
31
0.000000000000000
  0
LINE
  5
F106F6
330
F106F7
100
AcDbEntity
8
Geo
100
AcDbLine
10
-46.5538550057538
20
-3.16317686778730
30
0.000000000000000
11
-46.4538550057538
21
-3.22219404880040
31
0.000000000000000
  0
LINE
  5
F106F8
330
F106F9
100
AcDbEntity
8
Geo
100
AcDbLine
10
-46.4538550057538
20
-3.22219404880040
30
0.000000000000000
11
-46.3538550057538
21
-3.28039199306692
31
0.000000000000000
  0
LINE
  5
F106FA
330
F106FB
100
AcDbEntity
8
Geo
100
AcDbLine
10
-46.3538550057538
20
-3.28039199306692
30
0.000000000000000
11
-46.2538550057538
21
-3.33775931841534
31
0.000000000000000
  0
LINE
  5
F106FC
330
F106FD
100
AcDbEntity
8
Geo
100
AcDbLine
10
-46.2538550057538
20
-3.33775931841534
30
0.000000000000000
11
-46.1538550057538
21
-3.39428480512398
31
0.000000000000000
  0
LINE
  5
F106FE
330
F106FF
100
AcDbEntity
8
Geo
100
AcDbLine
10
-46.1538550057538
20
-3.39428480512398
30
0.000000000000000
11
-46.0538550057538
21
-3.44995739811535
31
0.000000000000000
  0
LINE
  5
F10700
330
F10701
100
AcDbEntity
8
Geo
100
AcDbLine
10
-46.0538550057538
20
-3.44995739811535
30
0.000000000000000
11
-45.9538550057538
21
-3.50476620911822
31
0.000000000000000
  0
LINE
  5
F10702
330
F10703
100
AcDbEntity
8
Geo
100
AcDbLine
10
-45.9538550057538
20
-3.50476620911822
30
0.000000000000000
11
-45.8538550057538
21
-3.55870051879712
31
0.000000000000000
  0
LINE
  5
F10704
330
F10705
100
AcDbEntity
8
Geo
100
AcDbLine
10
-45.8538550057538
20
-3.55870051879712
30
0.000000000000000
11
-45.7538550057538
21
-3.61174977884882
31
0.000000000000000
  0
LINE
  5
F10706
330
F10707
100
AcDbEntity
8
Geo
100
AcDbLine
10
-45.7538550057538
20
-3.61174977884882
30
0.000000000000000
11
-45.6538550057538
21
-3.66390361406534
31
0.000000000000000
  0
LINE
  5
F10708
330
F10709
100
AcDbEntity
8
Geo
100
AcDbLine
10
-45.6538550057538
20
-3.66390361406534
30
0.000000000000000
11
-45.5538550057538
21
-3.71515182436307
31
0.000000000000000
  0
LINE
  5
F1070A
330
F1070B
100
AcDbEntity
8
Geo
100
AcDbLine
10
-45.5538550057538
20
-3.71515182436307
30
0.000000000000000
11
-45.4538550057538
21
-3.76548438677766
31
0.000000000000000
  0
LINE
  5
F1070C
330
F1070D
100
AcDbEntity
8
Geo
100
AcDbLine
10
-45.4538550057538
20
-3.76548438677766
30
0.000000000000000
11
-45.3538550057538
21
-3.81489145742433
31
0.000000000000000
  0
LINE
  5
F1070E
330
F1070F
100
AcDbEntity
8
Geo
100
AcDbLine
10
-45.3538550057538
20
-3.81489145742433
30
0.000000000000000
11
-45.2538550057538
21
-3.86336337342308
31
0.000000000000000
  0
LINE
  5
F10710
330
F10711
100
AcDbEntity
8
Geo
100
AcDbLine
10
-45.2538550057538
20
-3.86336337342308
30
0.000000000000000
11
-45.1538550057538
21
-3.91089065478850
31
0.000000000000000
  0
LINE
  5
F10712
330
F10713
100
AcDbEntity
8
Geo
100
AcDbLine
10
-45.1538550057538
20
-3.91089065478850
30
0.000000000000000
11
-45.0538550057538
21
-3.95746400628390
31
0.000000000000000
  0
LINE
  5
F10714
330
F10715
100
AcDbEntity
8
Geo
100
AcDbLine
10
-45.0538550057538
20
-3.95746400628390
30
0.000000000000000
11
-44.9538550057538
21
-4.00307431923916
31
0.000000000000000
  0
LINE
  5
F10716
330
F10717
100
AcDbEntity
8
Geo
100
AcDbLine
10
-44.9538550057538
20
-4.00307431923916
30
0.000000000000000
11
-44.8538550057538
21
-4.04771267333225
31
0.000000000000000
  0
LINE
  5
F10718
330
F10719
100
AcDbEntity
8
Geo
100
AcDbLine
10
-44.8538550057538
20
-4.04771267333225
30
0.000000000000000
11
-44.7538550057538
21
-4.09137033833379
31
0.000000000000000
  0
LINE
  5
F1071A
330
F1071B
100
AcDbEntity
8
Geo
100
AcDbLine
10
-44.7538550057538
20
-4.09137033833379
30
0.000000000000000
11
-44.6538550057538
21
-4.13403877581451
31
0.000000000000000
  0
LINE
  5
F1071C
330
F1071D
100
AcDbEntity
8
Geo
100
AcDbLine
10
-44.6538550057538
20
-4.13403877581451
30
0.000000000000000
11
-44.5538550057538
21
-4.17570964081516
31
0.000000000000000
  0
LINE
  5
F1071E
330
F1071F
100
AcDbEntity
8
Geo
100
AcDbLine
10
-44.5538550057538
20
-4.17570964081516
30
0.000000000000000
11
-44.4538550057538
21
-4.21637478347857
31
0.000000000000000
  0
LINE
  5
F10720
330
F10721
100
AcDbEntity
8
Geo
100
AcDbLine
10
-44.4538550057538
20
-4.21637478347857
30
0.000000000000000
11
-44.3538550057538
21
-4.25602625064361
31
0.000000000000000
  0
LINE
  5
F10722
330
F10723
100
AcDbEntity
8
Geo
100
AcDbLine
10
-44.3538550057538
20
-4.25602625064361
30
0.000000000000000
11
-44.2538550057538
21
-4.29465628740062
31
0.000000000000000
  0
LINE
  5
F10724
330
F10725
100
AcDbEntity
8
Geo
100
AcDbLine
10
-44.2538550057538
20
-4.29465628740062
30
0.000000000000000
11
-44.1538550057538
21
-4.33225733860810
31
0.000000000000000
  0
LINE
  5
F10726
330
F10727
100
AcDbEntity
8
Geo
100
AcDbLine
10
-44.1538550057538
20
-4.33225733860810
30
0.000000000000000
11
-44.0538550057538
21
-4.36882205037032
31
0.000000000000000
  0
LINE
  5
F10728
330
F10729
100
AcDbEntity
8
Geo
100
AcDbLine
10
-44.0538550057538
20
-4.36882205037032
30
0.000000000000000
11
-43.9538550057538
21
-4.40434327147556
31
0.000000000000000
  0
LINE
  5
F1072A
330
F1072B
100
AcDbEntity
8
Geo
100
AcDbLine
10
-43.9538550057538
20
-4.40434327147556
30
0.000000000000000
11
-43.8538550057538
21
-4.43881405479475
31
0.000000000000000
  0
LINE
  5
F1072C
330
F1072D
100
AcDbEntity
8
Geo
100
AcDbLine
10
-43.8538550057538
20
-4.43881405479475
30
0.000000000000000
11
-43.7538550057538
21
-4.47222765864012
31
0.000000000000000
  0
LINE
  5
F1072E
330
F1072F
100
AcDbEntity
8
Geo
100
AcDbLine
10
-43.7538550057538
20
-4.47222765864012
30
0.000000000000000
11
-43.6538550057538
21
-4.50457754808379
31
0.000000000000000
  0
LINE
  5
F10730
330
F10731
100
AcDbEntity
8
Geo
100
AcDbLine
10
-43.6538550057538
20
-4.50457754808379
30
0.000000000000000
11
-43.5538550057538
21
-4.53585739623576
31
0.000000000000000
  0
LINE
  5
F10732
330
F10733
100
AcDbEntity
8
Geo
100
AcDbLine
10
-43.5538550057538
20
-4.53585739623576
30
0.000000000000000
11
-43.4538550057538
21
-4.56606108548140
31
0.000000000000000
  0
LINE
  5
F10734
330
F10735
100
AcDbEntity
8
Geo
100
AcDbLine
10
-43.4538550057538
20
-4.56606108548140
30
0.000000000000000
11
-43.3538550057538
21
-4.59518270867782
31
0.000000000000000
  0
LINE
  5
F10736
330
F10737
100
AcDbEntity
8
Geo
100
AcDbLine
10
-43.3538550057538
20
-4.59518270867782
30
0.000000000000000
11
-43.2538550057538
21
-4.62321657030926
31
0.000000000000000
  0
LINE
  5
F10738
330
F10739
100
AcDbEntity
8
Geo
100
AcDbLine
10
-43.2538550057538
20
-4.62321657030926
30
0.000000000000000
11
-43.1538550057538
21
-4.65015718760092
31
0.000000000000000
  0
LINE
  5
F1073A
330
F1073B
100
AcDbEntity
8
Geo
100
AcDbLine
10
-43.1538550057538
20
-4.65015718760092
30
0.000000000000000
11
-43.0538550057538
21
-4.67599929159132
31
0.000000000000000
  0
LINE
  5
F1073C
330
F1073D
100
AcDbEntity
8
Geo
100
AcDbLine
10
-43.0538550057538
20
-4.67599929159132
30
0.000000000000000
11
-42.9538550057538
21
-4.70073782816276
31
0.000000000000000
  0
LINE
  5
F1073E
330
F1073F
100
AcDbEntity
8
Geo
100
AcDbLine
10
-42.9538550057538
20
-4.70073782816276
30
0.000000000000000
11
-42.8538550057538
21
-4.72436795902982
31
0.000000000000000
  0
LINE
  5
F10740
330
F10741
100
AcDbEntity
8
Geo
100
AcDbLine
10
-42.8538550057538
20
-4.72436795902982
30
0.000000000000000
11
-42.7538550057538
21
-4.74688506268555
31
0.000000000000000
  0
LINE
  5
F10742
330
F10743
100
AcDbEntity
8
Geo
100
AcDbLine
10
-42.7538550057538
20
-4.74688506268555
30
0.000000000000000
11
-42.6538550057538
21
-4.76828473530541
31
0.000000000000000
  0
LINE
  5
F10744
330
F10745
100
AcDbEntity
8
Geo
100
AcDbLine
10
-42.6538550057538
20
-4.76828473530541
30
0.000000000000000
11
-42.5538550057538
21
-4.78856279160851
31
0.000000000000000
  0
LINE
  5
F10746
330
F10747
100
AcDbEntity
8
Geo
100
AcDbLine
10
-42.5538550057538
20
-4.78856279160851
30
0.000000000000000
11
-42.4538550057538
21
-4.80771526567616
31
0.000000000000000
  0
LINE
  5
F10748
330
F10749
100
AcDbEntity
8
Geo
100
AcDbLine
10
-42.4538550057538
20
-4.80771526567616
30
0.000000000000000
11
-42.3538550057538
21
-4.82573841172752
31
0.000000000000000
  0
LINE
  5
F1074A
330
F1074B
100
AcDbEntity
8
Geo
100
AcDbLine
10
-42.3538550057538
20
-4.82573841172752
30
0.000000000000000
11
-42.2538550057538
21
-4.84262870485216
31
0.000000000000000
  0
LINE
  5
F1074C
330
F1074D
100
AcDbEntity
8
Geo
100
AcDbLine
10
-42.2538550057538
20
-4.84262870485216
30
0.000000000000000
11
-42.1538550057538
21
-4.85838284169951
31
0.000000000000000
  0
LINE
  5
F1074E
330
F1074F
100
AcDbEntity
8
Geo
100
AcDbLine
10
-42.1538550057538
20
-4.85838284169951
30
0.000000000000000
11
-42.0538550057538
21
-4.87299774112487
31
0.000000000000000
  0
LINE
  5
F10750
330
F10751
100
AcDbEntity
8
Geo
100
AcDbLine
10
-42.0538550057538
20
-4.87299774112487
30
0.000000000000000
11
-41.9538550057538
21
-4.88647054479201
31
0.000000000000000
  0
LINE
  5
F10752
330
F10753
100
AcDbEntity
8
Geo
100
AcDbLine
10
-41.9538550057538
20
-4.88647054479201
30
0.000000000000000
11
-41.8538550057538
21
-4.89879861773222
31
0.000000000000000
  0
LINE
  5
F10754
330
F10755
100
AcDbEntity
8
Geo
100
AcDbLine
10
-41.8538550057538
20
-4.89879861773222
30
0.000000000000000
11
-41.7538550057538
21
-4.90997954885965
31
0.000000000000000
  0
LINE
  5
F10756
330
F10757
100
AcDbEntity
8
Geo
100
AcDbLine
10
-41.7538550057538
20
-4.90997954885965
30
0.000000000000000
11
-41.6538550057538
21
-4.92001115144283
31
0.000000000000000
  0
LINE
  5
F10758
330
F10759
100
AcDbEntity
8
Geo
100
AcDbLine
10
-41.6538550057538
20
-4.92001115144283
30
0.000000000000000
11
-41.5538550057538
21
-4.92889146353238
31
0.000000000000000
  0
LINE
  5
F1075A
330
F1075B
100
AcDbEntity
8
Geo
100
AcDbLine
10
-41.5538550057538
20
-4.92889146353238
30
0.000000000000000
11
-41.4538550057538
21
-4.93661874834468
31
0.000000000000000
  0
LINE
  5
F1075C
330
F1075D
100
AcDbEntity
8
Geo
100
AcDbLine
10
-41.4538550057538
20
-4.93661874834468
30
0.000000000000000
11
-41.3538550057538
21
-4.94319149460159
31
0.000000000000000
  0
LINE
  5
F1075E
330
F1075F
100
AcDbEntity
8
Geo
100
AcDbLine
10
-41.3538550057538
20
-4.94319149460159
30
0.000000000000000
11
-41.2538550057538
21
-4.94860841682602
31
0.000000000000000
  0
LINE
  5
F10760
330
F10761
100
AcDbEntity
8
Geo
100
AcDbLine
10
-41.2538550057538
20
-4.94860841682602
30
0.000000000000000
11
-41.1538550057538
21
-4.95286845559327
31
0.000000000000000
  0
LINE
  5
F10762
330
F10763
100
AcDbEntity
8
Geo
100
AcDbLine
10
-41.1538550057538
20
-4.95286845559327
30
0.000000000000000
11
-41.0538550057538
21
-4.95597077773834
31
0.000000000000000
  0
LINE
  5
F10764
330
F10765
100
AcDbEntity
8
Geo
100
AcDbLine
10
-41.0538550057538
20
-4.95597077773834
30
0.000000000000000
11
-40.9538550057538
21
-4.95791477651878
31
0.000000000000000
  0
LINE
  5
F10766
330
F10767
100
AcDbEntity
8
Geo
100
AcDbLine
10
-40.9538550057538
20
-4.95791477651878
30
0.000000000000000
11
-40.8538550057538
21
-4.95870007173339
31
0.000000000000000
  0
LINE
  5
F10768
330
F10769
100
AcDbEntity
8
Geo
100
AcDbLine
10
-40.8538550057538
20
-4.95870007173339
30
0.000000000000000
11
-40.8360898197430
21
-5.03337169159951
31
0.000000000000000
  0
LINE
  5
F1076A
330
F1076B
100
AcDbEntity
8
Geo
100
AcDbLine
10
-40.8360898197430
20
6.96662830840049
30
0.000000000000000
11
-40.7538550057538
21
6.89158312659758
31
0.000000000000000
  0
LINE
  5
F1076C
330
F1076D
100
AcDbEntity
8
Geo
100
AcDbLine
10
-40.7538550057538
20
6.89158312659758
30
0.000000000000000
11
-40.6538550057538
21
6.89005078056948
31
0.000000000000000
  0
LINE
  5
F1076E
330
F1076F
100
AcDbEntity
8
Geo
100
AcDbLine
10
-40.6538550057538
20
6.89005078056948
30
0.000000000000000
11
-40.5538550057538
21
6.88735995014148
31
0.000000000000000
  0
LINE
  5
F10770
330
F10771
100
AcDbEntity
8
Geo
100
AcDbLine
10
-40.5538550057538
20
6.88735995014148
30
0.000000000000000
11
-40.4538550057538
21
6.88351116157777
31
0.000000000000000
  0
LINE
  5
F10772
330
F10773
100
AcDbEntity
8
Geo
100
AcDbLine
10
-40.4538550057538
20
6.88351116157777
30
0.000000000000000
11
-40.3538550057538
21
6.87850516761236
31
0.000000000000000
  0
LINE
  5
F10774
330
F10775
100
AcDbEntity
8
Geo
100
AcDbLine
10
-40.3538550057538
20
6.87850516761236
30
0.000000000000000
11
-40.2538550057538
21
6.87234294730184
31
0.000000000000000
  0
LINE
  5
F10776
330
F10777
100
AcDbEntity
8
Geo
100
AcDbLine
10
-40.2538550057538
20
6.87234294730184
30
0.000000000000000
11
-40.1538550057538
21
6.86502570583396
31
0.000000000000000
  0
LINE
  5
F10778
330
F10779
100
AcDbEntity
8
Geo
100
AcDbLine
10
-40.1538550057538
20
6.86502570583396
30
0.000000000000000
11
-40.0538550057538
21
6.85655487429186
31
0.000000000000000
  0
LINE
  5
F1077A
330
F1077B
100
AcDbEntity
8
Geo
100
AcDbLine
10
-40.0538550057538
20
6.85655487429186
30
0.000000000000000
11
-39.9538550057538
21
6.84693210937422
31
0.000000000000000
  0
LINE
  5
F1077C
330
F1077D
100
AcDbEntity
8
Geo
100
AcDbLine
10
-39.9538550057538
20
6.84693210937422
30
0.000000000000000
11
-39.8538550057538
21
6.83615929307125
31
0.000000000000000
  0
LINE
  5
F1077E
330
F1077F
100
AcDbEntity
8
Geo
100
AcDbLine
10
-39.8538550057538
20
6.83615929307125
30
0.000000000000000
11
-39.7538550057538
21
6.82423853229658
31
0.000000000000000
  0
LINE
  5
F10780
330
F10781
100
AcDbEntity
8
Geo
100
AcDbLine
10
-39.7538550057538
20
6.82423853229658
30
0.000000000000000
11
-39.6538550057538
21
6.81117215847526
31
0.000000000000000
  0
LINE
  5
F10782
330
F10783
100
AcDbEntity
8
Geo
100
AcDbLine
10
-39.6538550057538
20
6.81117215847526
30
0.000000000000000
11
-39.5538550057538
21
6.79696272708769
31
0.000000000000000
  0
LINE
  5
F10784
330
F10785
100
AcDbEntity
8
Geo
100
AcDbLine
10
-39.5538550057538
20
6.79696272708769
30
0.000000000000000
11
-39.4538550057538
21
6.78161301716995
31
0.000000000000000
  0
LINE
  5
F10786
330
F10787
100
AcDbEntity
8
Geo
100
AcDbLine
10
-39.4538550057538
20
6.78161301716995
30
0.000000000000000
11
-39.3538550057538
21
6.76512603077019
31
0.000000000000000
  0
LINE
  5
F10788
330
F10789
100
AcDbEntity
8
Geo
100
AcDbLine
10
-39.3538550057538
20
6.76512603077019
30
0.000000000000000
11
-39.2538550057538
21
6.74750499236151
31
0.000000000000000
  0
LINE
  5
F1078A
330
F1078B
100
AcDbEntity
8
Geo
100
AcDbLine
10
-39.2538550057538
20
6.74750499236151
30
0.000000000000000
11
-39.1538550057538
21
6.72875334821138
31
0.000000000000000
  0
LINE
  5
F1078C
330
F1078D
100
AcDbEntity
8
Geo
100
AcDbLine
10
-39.1538550057538
20
6.72875334821138
30
0.000000000000000
11
-39.0538550057538
21
6.70887476570760
31
0.000000000000000
  0
LINE
  5
F1078E
330
F1078F
100
AcDbEntity
8
Geo
100
AcDbLine
10
-39.0538550057538
20
6.70887476570760
30
0.000000000000000
11
-38.9538550057538
21
6.68787313264100
31
0.000000000000000
  0
LINE
  5
F10790
330
F10791
100
AcDbEntity
8
Geo
100
AcDbLine
10
-38.9538550057538
20
6.68787313264100
30
0.000000000000000
11
-38.8538550057538
21
6.66575255644515
31
0.000000000000000
  0
LINE
  5
F10792
330
F10793
100
AcDbEntity
8
Geo
100
AcDbLine
10
-38.8538550057538
20
6.66575255644515
30
0.000000000000000
11
-38.7538550057538
21
6.64251736339302
31
0.000000000000000
  0
LINE
  5
F10794
330
F10795
100
AcDbEntity
8
Geo
100
AcDbLine
10
-38.7538550057538
20
6.64251736339302
30
0.000000000000000
11
-38.6538550057538
21
6.61817209775083
31
0.000000000000000
  0
LINE
  5
F10796
330
F10797
100
AcDbEntity
8
Geo
100
AcDbLine
10
-38.6538550057538
20
6.61817209775083
30
0.000000000000000
11
-38.5538550057538
21
6.59272152088931
31
0.000000000000000
  0
LINE
  5
F10798
330
F10799
100
AcDbEntity
8
Geo
100
AcDbLine
10
-38.5538550057538
20
6.59272152088931
30
0.000000000000000
11
-38.4538550057538
21
6.56617061035252
31
0.000000000000000
  0
LINE
  5
F1079A
330
F1079B
100
AcDbEntity
8
Geo
100
AcDbLine
10
-38.4538550057538
20
6.56617061035252
30
0.000000000000000
11
-38.3538550057538
21
6.53852455888431
31
0.000000000000000
  0
LINE
  5
F1079C
330
F1079D
100
AcDbEntity
8
Geo
100
AcDbLine
10
-38.3538550057538
20
6.53852455888431
30
0.000000000000000
11
-38.2538550057538
21
6.50978877341278
31
0.000000000000000
  0
LINE
  5
F1079E
330
F1079F
100
AcDbEntity
8
Geo
100
AcDbLine
10
-38.2538550057538
20
6.50978877341278
30
0.000000000000000
11
-38.1538550057538
21
6.47996887399276
31
0.000000000000000
  0
LINE
  5
F107A0
330
F107A1
100
AcDbEntity
8
Geo
100
AcDbLine
10
-38.1538550057538
20
6.47996887399276
30
0.000000000000000
11
-38.0538550057538
21
6.44907069270673
31
0.000000000000000
  0
LINE
  5
F107A2
330
F107A3
100
AcDbEntity
8
Geo
100
AcDbLine
10
-38.0538550057538
20
6.44907069270673
30
0.000000000000000
11
-37.9538550057538
21
6.41710027252412
31
0.000000000000000
  0
LINE
  5
F107A4
330
F107A5
100
AcDbEntity
8
Geo
100
AcDbLine
10
-37.9538550057538
20
6.41710027252412
30
0.000000000000000
11
-37.8538550057538
21
6.38406386611949
31
0.000000000000000
  0
LINE
  5
F107A6
330
F107A7
100
AcDbEntity
8
Geo
100
AcDbLine
10
-37.8538550057538
20
6.38406386611949
30
0.000000000000000
11
-37.7538550057538
21
6.34996793464966
31
0.000000000000000
  0
LINE
  5
F107A8
330
F107A9
100
AcDbEntity
8
Geo
100
AcDbLine
10
-37.7538550057538
20
6.34996793464966
30
0.000000000000000
11
-37.6538550057538
21
6.31481914649004
31
0.000000000000000
  0
LINE
  5
F107AA
330
F107AB
100
AcDbEntity
8
Geo
100
AcDbLine
10
-37.6538550057538
20
6.31481914649004
30
0.000000000000000
11
-37.5538550057538
21
6.27862437593043
31
0.000000000000000
  0
LINE
  5
F107AC
330
F107AD
100
AcDbEntity
8
Geo
100
AcDbLine
10
-37.5538550057538
20
6.27862437593043
30
0.000000000000000
11
-37.4538550057538
21
6.24139070183061
31
0.000000000000000
  0
LINE
  5
F107AE
330
F107AF
100
AcDbEntity
8
Geo
100
AcDbLine
10
-37.4538550057538
20
6.24139070183061
30
0.000000000000000
11
-37.3538550057538
21
6.20312540623584
31
0.000000000000000
  0
LINE
  5
F107B0
330
F107B1
100
AcDbEntity
8
Geo
100
AcDbLine
10
-51.3538550057538
20
6.71027221718895
30
0.000000000000000
11
-51.2538550057538
21
6.80280603812790
31
0.000000000000000
  0
LINE
  5
F107B2
330
F107B3
100
AcDbEntity
8
Geo
100
AcDbLine
10
-51.2538550057538
20
6.80280603812790
30
0.000000000000000
11
-51.2538550057538
21
6.80280603812790
31
0.000000000000000
  0
LINE
  5
F107B4
330
F107B5
100
AcDbEntity
8
Geo
100
AcDbLine
10
-51.2538550057538
20
6.80280603812790
30
0.000000000000000
11
-51.1538550057538
21
6.84360846442750
31
0.000000000000000
  0
LINE
  5
F107B6
330
F107B7
100
AcDbEntity
8
Geo
100
AcDbLine
10
-51.1538550057538
20
6.84360846442750
30
0.000000000000000
11
-51.0538550057538
21
6.83246791668662
31
0.000000000000000
  0
LINE
  5
F107B8
330
F107B9
100
AcDbEntity
8
Geo
100
AcDbLine
10
-51.0538550057538
20
6.83246791668662
30
0.000000000000000
11
-50.9538550057538
21
6.82018014642187
31
0.000000000000000
  0
LINE
  5
F107BA
330
F107BB
100
AcDbEntity
8
Geo
100
AcDbLine
10
-50.9538550057538
20
6.82018014642187
30
0.000000000000000
11
-50.8538550057538
21
6.80674755683685
31
0.000000000000000
  0
LINE
  5
F107BC
330
F107BD
100
AcDbEntity
8
Geo
100
AcDbLine
10
-50.8538550057538
20
6.80674755683685
30
0.000000000000000
11
-50.7538550057538
21
6.79217277503532
31
0.000000000000000
  0
LINE
  5
F107BE
330
F107BF
100
AcDbEntity
8
Geo
100
AcDbLine
10
-50.7538550057538
20
6.79217277503532
30
0.000000000000000
11
-50.6538550057538
21
6.77645865150741
31
0.000000000000000
  0
LINE
  5
F107C0
330
F107C1
100
AcDbEntity
8
Geo
100
AcDbLine
10
-50.6538550057538
20
6.77645865150741
30
0.000000000000000
11
-50.5538550057538
21
6.75960825957215
31
0.000000000000000
  0
LINE
  5
F107C2
330
F107C3
100
AcDbEntity
8
Geo
100
AcDbLine
10
-50.5538550057538
20
6.75960825957215
30
0.000000000000000
11
-50.4538550057538
21
6.74162489477639
31
0.000000000000000
  0
LINE
  5
F107C4
330
F107C5
100
AcDbEntity
8
Geo
100
AcDbLine
10
-50.4538550057538
20
6.74162489477639
30
0.000000000000000
11
-50.3538550057538
21
6.72251207425022
31
0.000000000000000
  0
LINE
  5
F107C6
330
F107C7
100
AcDbEntity
8
Geo
100
AcDbLine
10
-50.3538550057538
20
6.72251207425022
30
0.000000000000000
11
-50.2538550057538
21
6.70227353601919
31
0.000000000000000
  0
LINE
  5
F107C8
330
F107C9
100
AcDbEntity
8
Geo
100
AcDbLine
10
-50.2538550057538
20
6.70227353601919
30
0.000000000000000
11
-50.1538550057538
21
6.68091323827317
31
0.000000000000000
  0
LINE
  5
F107CA
330
F107CB
100
AcDbEntity
8
Geo
100
AcDbLine
10
-50.1538550057538
20
6.68091323827317
30
0.000000000000000
11
-50.0538550057538
21
6.65843535859222
31
0.000000000000000
  0
LINE
  5
F107CC
330
F107CD
100
AcDbEntity
8
Geo
100
AcDbLine
10
-50.0538550057538
20
6.65843535859222
30
0.000000000000000
11
-49.9538550057538
21
6.63484429312961
31
0.000000000000000
  0
LINE
  5
F107CE
330
F107CF
100
AcDbEntity
8
Geo
100
AcDbLine
10
-49.9538550057538
20
6.63484429312961
30
0.000000000000000
11
-49.8538550057538
21
6.61014465575196
31
0.000000000000000
  0
LINE
  5
F107D0
330
F107D1
100
AcDbEntity
8
Geo
100
AcDbLine
10
-49.8538550057538
20
6.61014465575196
30
0.000000000000000
11
-49.7538550057538
21
6.58434127713693
31
0.000000000000000
  0
LINE
  5
F107D2
330
F107D3
100
AcDbEntity
8
Geo
100
AcDbLine
10
-49.7538550057538
20
6.58434127713693
30
0.000000000000000
11
-49.6538550057538
21
6.55743920382843
31
0.000000000000000
  0
LINE
  5
F107D4
330
F107D5
100
AcDbEntity
8
Geo
100
AcDbLine
10
-49.6538550057538
20
6.55743920382843
30
0.000000000000000
11
-49.5538550057538
21
6.52944369724964
31
0.000000000000000
  0
LINE
  5
F107D6
330
F107D7
100
AcDbEntity
8
Geo
100
AcDbLine
10
-49.5538550057538
20
6.52944369724964
30
0.000000000000000
11
-49.4538550057538
21
6.50036023267397
31
0.000000000000000
  0
LINE
  5
F107D8
330
F107D9
100
AcDbEntity
8
Geo
100
AcDbLine
10
-49.4538550057538
20
6.50036023267397
30
0.000000000000000
11
-49.3538550057538
21
6.47019449815427
31
0.000000000000000
  0
LINE
  5
F107DA
330
F107DB
100
AcDbEntity
8
Geo
100
AcDbLine
10
-49.3538550057538
20
6.47019449815427
30
0.000000000000000
11
-49.2538550057538
21
6.43895239341033
31
0.000000000000000
  0
LINE
  5
F107DC
330
F107DD
100
AcDbEntity
8
Geo
100
AcDbLine
10
-49.2538550057538
20
6.43895239341033
30
0.000000000000000
11
-49.1538550057538
21
6.40664002867508
31
0.000000000000000
  0
LINE
  5
F107DE
330
F107DF
100
AcDbEntity
8
Geo
100
AcDbLine
10
-49.1538550057538
20
6.40664002867508
30
0.000000000000000
11
-49.0538550057538
21
6.37326372349952
31
0.000000000000000
  0
LINE
  5
F107E0
330
F107E1
100
AcDbEntity
8
Geo
100
AcDbLine
10
-49.0538550057538
20
6.37326372349952
30
0.000000000000000
11
-48.9538550057538
21
6.33883000551680
31
0.000000000000000
  0
LINE
  5
F107E2
330
F107E3
100
AcDbEntity
8
Geo
100
AcDbLine
10
-48.9538550057538
20
6.33883000551680
30
0.000000000000000
11
-48.8538550057538
21
6.30334560916555
31
0.000000000000000
  0
LINE
  5
F107E4
330
F107E5
100
AcDbEntity
8
Geo
100
AcDbLine
10
-48.8538550057538
20
6.30334560916555
30
0.000000000000000
11
-48.7538550057538
21
6.26681747437277
31
0.000000000000000
  0
LINE
  5
F107E6
330
F107E7
100
AcDbEntity
8
Geo
100
AcDbLine
10
-48.7538550057538
20
6.26681747437277
30
0.000000000000000
11
-48.6538550057538
21
6.22925274519658
31
0.000000000000000
  0
LINE
  5
F107E8
330
F107E9
100
AcDbEntity
8
Geo
100
AcDbLine
10
-48.6538550057538
20
6.22925274519658
30
0.000000000000000
11
-48.5538550057538
21
6.19065876842896
31
0.000000000000000
  0
LINE
  5
F107EA
330
F107EB
100
AcDbEntity
8
Geo
100
AcDbLine
10
-48.5538550057538
20
6.19065876842896
30
0.000000000000000
11
-48.4538550057538
21
6.15104309215891
31
0.000000000000000
  0
LINE
  5
F107EC
330
F107ED
100
AcDbEntity
8
Geo
100
AcDbLine
10
-48.4538550057538
20
6.15104309215891
30
0.000000000000000
11
-48.3538550057538
21
6.11041346429622
31
0.000000000000000
  0
LINE
  5
F107EE
330
F107EF
100
AcDbEntity
8
Geo
100
AcDbLine
10
-48.3538550057538
20
6.11041346429622
30
0.000000000000000
11
-48.2538550057538
21
6.06877783105614
31
0.000000000000000
  0
LINE
  5
F107F0
330
F107F1
100
AcDbEntity
8
Geo
100
AcDbLine
10
-48.2538550057538
20
6.06877783105614
30
0.000000000000000
11
-48.1538550057538
21
6.02614433540533
31
0.000000000000000
  0
LINE
  5
F107F2
330
F107F3
100
AcDbEntity
8
Geo
100
AcDbLine
10
-48.1538550057538
20
6.02614433540533
30
0.000000000000000
11
-48.0538550057538
21
5.98252131546922
31
0.000000000000000
  0
LINE
  5
F107F4
330
F107F5
100
AcDbEntity
8
Geo
100
AcDbLine
10
-48.0538550057538
20
5.98252131546922
30
0.000000000000000
11
-47.9538550057538
21
5.93791730290131
31
0.000000000000000
  0
LINE
  5
F107F6
330
F107F7
100
AcDbEntity
8
Geo
100
AcDbLine
10
-47.9538550057538
20
5.93791730290131
30
0.000000000000000
11
-47.8538550057538
21
5.89234102121457
31
0.000000000000000
  0
LINE
  5
F107F8
330
F107F9
100
AcDbEntity
8
Geo
100
AcDbLine
10
-47.8538550057538
20
5.89234102121457
30
0.000000000000000
11
-47.7538550057538
21
5.84580138407531
31
0.000000000000000
  0
LINE
  5
F107FA
330
F107FB
100
AcDbEntity
8
Geo
100
AcDbLine
10
-47.7538550057538
20
5.84580138407531
30
0.000000000000000
11
-47.6538550057538
21
5.79830749355988
31
0.000000000000000
  0
LINE
  5
F107FC
330
F107FD
100
AcDbEntity
8
Geo
100
AcDbLine
10
-47.6538550057538
20
5.79830749355988
30
0.000000000000000
11
-47.5538550057538
21
5.74986863837452
31
0.000000000000000
  0
LINE
  5
F107FE
330
F107FF
100
AcDbEntity
8
Geo
100
AcDbLine
10
-47.5538550057538
20
5.74986863837452
30
0.000000000000000
11
-47.4538550057538
21
5.70049429203869
31
0.000000000000000
  0
LINE
  5
F10800
330
F10801
100
AcDbEntity
8
Geo
100
AcDbLine
10
-47.4538550057538
20
5.70049429203869
30
0.000000000000000
11
-47.3538550057538
21
5.65019411103228
31
0.000000000000000
  0
LINE
  5
F10802
330
F10803
100
AcDbEntity
8
Geo
100
AcDbLine
10
-47.3538550057538
20
5.65019411103228
30
0.000000000000000
11
-47.2538550057538
21
5.59897793290702
31
0.000000000000000
  0
LINE
  5
F10804
330
F10805
100
AcDbEntity
8
Geo
100
AcDbLine
10
-47.2538550057538
20
5.59897793290702
30
0.000000000000000
11
-47.1538550057538
21
5.54685577436250
31
0.000000000000000
  0
LINE
  5
F10806
330
F10807
100
AcDbEntity
8
Geo
100
AcDbLine
10
-47.1538550057538
20
5.54685577436250
30
0.000000000000000
11
-47.0538550057538
21
5.49383782928710
31
0.000000000000000
  0
LINE
  5
F10808
330
F10809
100
AcDbEntity
8
Geo
100
AcDbLine
10
-47.0538550057538
20
5.49383782928710
30
0.000000000000000
11
-46.9538550057538
21
5.43993446676433
31
0.000000000000000
  0
LINE
  5
F1080A
330
F1080B
100
AcDbEntity
8
Geo
100
AcDbLine
10
-46.9538550057538
20
5.43993446676433
30
0.000000000000000
11
-46.8538550057538
21
5.38515622904487
31
0.000000000000000
  0
LINE
  5
F1080C
330
F1080D
100
AcDbEntity
8
Geo
100
AcDbLine
10
-46.8538550057538
20
5.38515622904487
30
0.000000000000000
11
-46.7538550057538
21
5.32951382948476
31
0.000000000000000
  0
LINE
  5
F1080E
330
F1080F
100
AcDbEntity
8
Geo
100
AcDbLine
10
-46.7538550057538
20
5.32951382948476
30
0.000000000000000
11
-46.6538550057538
21
5.27301815045008
31
0.000000000000000
  0
LINE
  5
F10810
330
F10811
100
AcDbEntity
8
Geo
100
AcDbLine
10
-46.6538550057538
20
5.27301815045008
30
0.000000000000000
11
-46.5538550057538
21
5.21568024118865
31
0.000000000000000
  0
LINE
  5
F10812
330
F10813
100
AcDbEntity
8
Geo
100
AcDbLine
10
-46.5538550057538
20
5.21568024118865
30
0.000000000000000
11
-46.4538550057538
21
5.15751131566903
31
0.000000000000000
  0
LINE
  5
F10814
330
F10815
100
AcDbEntity
8
Geo
100
AcDbLine
10
-46.4538550057538
20
5.15751131566903
30
0.000000000000000
11
-46.3538550057538
21
5.09852275038735
31
0.000000000000000
  0
LINE
  5
F10816
330
F10817
100
AcDbEntity
8
Geo
100
AcDbLine
10
-46.3538550057538
20
5.09852275038735
30
0.000000000000000
11
-46.2538550057538
21
5.03872608214231
31
0.000000000000000
  0
LINE
  5
F10818
330
F10819
100
AcDbEntity
8
Geo
100
AcDbLine
10
-46.2538550057538
20
5.03872608214231
30
0.000000000000000
11
-46.1538550057538
21
4.97813300577883
31
0.000000000000000
  0
LINE
  5
F1081A
330
F1081B
100
AcDbEntity
8
Geo
100
AcDbLine
10
-46.1538550057538
20
4.97813300577883
30
0.000000000000000
11
-46.0538550057538
21
4.91675537190087
31
0.000000000000000
  0
LINE
  5
F1081C
330
F1081D
100
AcDbEntity
8
Geo
100
AcDbLine
10
-46.0538550057538
20
4.91675537190087
30
0.000000000000000
11
-45.9538550057538
21
4.85460518455367
31
0.000000000000000
  0
LINE
  5
F1081E
330
F1081F
100
AcDbEntity
8
Geo
100
AcDbLine
10
-45.9538550057538
20
4.85460518455367
30
0.000000000000000
11
-45.8538550057538
21
4.79169459887606
31
0.000000000000000
  0
LINE
  5
F10820
330
F10821
100
AcDbEntity
8
Geo
100
AcDbLine
10
-45.8538550057538
20
4.79169459887606
30
0.000000000000000
11
-45.7538550057538
21
4.72803591872319
31
0.000000000000000
  0
LINE
  5
F10822
330
F10823
100
AcDbEntity
8
Geo
100
AcDbLine
10
-45.7538550057538
20
4.72803591872319
30
0.000000000000000
11
-45.6538550057538
21
4.66364159426018
31
0.000000000000000
  0
LINE
  5
F10824
330
F10825
100
AcDbEntity
8
Geo
100
AcDbLine
10
-45.6538550057538
20
4.66364159426018
30
0.000000000000000
11
-45.5538550057538
21
4.59852421952717
31
0.000000000000000
  0
LINE
  5
F10826
330
F10827
100
AcDbEntity
8
Geo
100
AcDbLine
10
-45.5538550057538
20
4.59852421952717
30
0.000000000000000
11
-45.4538550057538
21
4.53269652997618
31
0.000000000000000
  0
LINE
  5
F10828
330
F10829
100
AcDbEntity
8
Geo
100
AcDbLine
10
-45.4538550057538
20
4.53269652997618
30
0.000000000000000
11
-45.3538550057538
21
4.46617139998041
31
0.000000000000000
  0
LINE
  5
F1082A
330
F1082B
100
AcDbEntity
8
Geo
100
AcDbLine
10
-45.3538550057538
20
4.46617139998041
30
0.000000000000000
11
-45.2538550057538
21
4.39896184031626
31
0.000000000000000
  0
LINE
  5
F1082C
330
F1082D
100
AcDbEntity
8
Geo
100
AcDbLine
10
-45.2538550057538
20
4.39896184031626
30
0.000000000000000
11
-45.1538550057538
21
4.33108099561872
31
0.000000000000000
  0
LINE
  5
F1082E
330
F1082F
100
AcDbEntity
8
Geo
100
AcDbLine
10
-45.1538550057538
20
4.33108099561872
30
0.000000000000000
11
-45.0538550057538
21
4.26254214181064
31
0.000000000000000
  0
LINE
  5
F10830
330
F10831
100
AcDbEntity
8
Geo
100
AcDbLine
10
-45.0538550057538
20
4.26254214181064
30
0.000000000000000
11
-44.9538550057538
21
4.19335868350619
31
0.000000000000000
  0
LINE
  5
F10832
330
F10833
100
AcDbEntity
8
Geo
100
AcDbLine
10
-44.9538550057538
20
4.19335868350619
30
0.000000000000000
11
-44.8538550057538
21
4.12354415138931
31
0.000000000000000
  0
LINE
  5
F10834
330
F10835
100
AcDbEntity
8
Geo
100
AcDbLine
10
-44.8538550057538
20
4.12354415138931
30
0.000000000000000
11
-44.7538550057538
21
4.05311219956733
31
0.000000000000000
  0
LINE
  5
F10836
330
F10837
100
AcDbEntity
8
Geo
100
AcDbLine
10
-44.7538550057538
20
4.05311219956733
30
0.000000000000000
11
-44.6538550057538
21
3.98207660290064
31
0.000000000000000
  0
LINE
  5
F10838
330
F10839
100
AcDbEntity
8
Geo
100
AcDbLine
10
-44.6538550057538
20
3.98207660290064
30
0.000000000000000
11
-44.5538550057538
21
3.91045125430856
31
0.000000000000000
  0
LINE
  5
F1083A
330
F1083B
100
AcDbEntity
8
Geo
100
AcDbLine
10
-44.5538550057538
20
3.91045125430856
30
0.000000000000000
11
-44.4538550057538
21
3.83825016205225
31
0.000000000000000
  0
LINE
  5
F1083C
330
F1083D
100
AcDbEntity
8
Geo
100
AcDbLine
10
-44.4538550057538
20
3.83825016205225
30
0.000000000000000
11
-44.3538550057538
21
3.76548744699502
31
0.000000000000000
  0
LINE
  5
F1083E
330
F1083F
100
AcDbEntity
8
Geo
100
AcDbLine
10
-44.3538550057538
20
3.76548744699502
30
0.000000000000000
11
-44.2538550057538
21
3.69217733984061
31
0.000000000000000
  0
LINE
  5
F10840
330
F10841
100
AcDbEntity
8
Geo
100
AcDbLine
10
-44.2538550057538
20
3.69217733984061
30
0.000000000000000
11
-44.1538550057538
21
3.61833417834998
31
0.000000000000000
  0
LINE
  5
F10842
330
F10843
100
AcDbEntity
8
Geo
100
AcDbLine
10
-44.1538550057538
20
3.61833417834998
30
0.000000000000000
11
-44.0538550057538
21
3.54397240453718
31
0.000000000000000
  0
LINE
  5
F10844
330
F10845
100
AcDbEntity
8
Geo
100
AcDbLine
10
-44.0538550057538
20
3.54397240453718
30
0.000000000000000
11
-43.9538550057538
21
3.46910656184485
31
0.000000000000000
  0
LINE
  5
F10846
330
F10847
100
AcDbEntity
8
Geo
100
AcDbLine
10
-43.9538550057538
20
3.46910656184485
30
0.000000000000000
11
-43.8538550057538
21
3.39375129229984
31
0.000000000000000
  0
LINE
  5
F10848
330
F10849
100
AcDbEntity
8
Geo
100
AcDbLine
10
-43.8538550057538
20
3.39375129229984
30
0.000000000000000
11
-43.7538550057538
21
3.31792133364956
31
0.000000000000000
  0
LINE
  5
F1084A
330
F1084B
100
AcDbEntity
8
Geo
100
AcDbLine
10
-43.7538550057538
20
3.31792133364956
30
0.000000000000000
11
-43.6538550057538
21
3.24163151647962
31
0.000000000000000
  0
LINE
  5
F1084C
330
F1084D
100
AcDbEntity
8
Geo
100
AcDbLine
10
-43.6538550057538
20
3.24163151647962
30
0.000000000000000
11
-43.5538550057538
21
3.16489676131335
31
0.000000000000000
  0
LINE
  5
F1084E
330
F1084F
100
AcDbEntity
8
Geo
100
AcDbLine
10
-43.5538550057538
20
3.16489676131335
30
0.000000000000000
11
-43.4538550057538
21
3.08773207569361
31
0.000000000000000
  0
LINE
  5
F10850
330
F10851
100
AcDbEntity
8
Geo
100
AcDbLine
10
-43.4538550057538
20
3.08773207569361
30
0.000000000000000
11
-43.3538550057538
21
3.01015255124776
31
0.000000000000000
  0
LINE
  5
F10852
330
F10853
100
AcDbEntity
8
Geo
100
AcDbLine
10
-43.3538550057538
20
3.01015255124776
30
0.000000000000000
11
-43.2538550057538
21
2.93217336073600
31
0.000000000000000
  0
LINE
  5
F10854
330
F10855
100
AcDbEntity
8
Geo
100
AcDbLine
10
-43.2538550057538
20
2.93217336073600
30
0.000000000000000
11
-43.1538550057538
21
2.85380975508399
31
0.000000000000000
  0
LINE
  5
F10856
330
F10857
100
AcDbEntity
8
Geo
100
AcDbLine
10
-43.1538550057538
20
2.85380975508399
30
0.000000000000000
11
-43.0538550057538
21
2.77507706040008
31
0.000000000000000
  0
LINE
  5
F10858
330
F10859
100
AcDbEntity
8
Geo
100
AcDbLine
10
-43.0538550057538
20
2.77507706040008
30
0.000000000000000
11
-42.9538550057538
21
2.69599067497792
31
0.000000000000000
  0
LINE
  5
F1085A
330
F1085B
100
AcDbEntity
8
Geo
100
AcDbLine
10
-42.9538550057538
20
2.69599067497792
30
0.000000000000000
11
-42.8538550057538
21
2.61656606628486
31
0.000000000000000
  0
LINE
  5
F1085C
330
F1085D
100
AcDbEntity
8
Geo
100
AcDbLine
10
-42.8538550057538
20
2.61656606628486
30
0.000000000000000
11
-42.7538550057538
21
2.53681876793692
31
0.000000000000000
  0
LINE
  5
F1085E
330
F1085F
100
AcDbEntity
8
Geo
100
AcDbLine
10
-42.7538550057538
20
2.53681876793692
30
0.000000000000000
11
-42.6538550057538
21
2.45676437666072
31
0.000000000000000
  0
LINE
  5
F10860
330
F10861
100
AcDbEntity
8
Geo
100
AcDbLine
10
-42.6538550057538
20
2.45676437666072
30
0.000000000000000
11
-42.5538550057538
21
2.37641854924319
31
0.000000000000000
  0
LINE
  5
F10862
330
F10863
100
AcDbEntity
8
Geo
100
AcDbLine
10
-42.5538550057538
20
2.37641854924319
30
0.000000000000000
11
-42.4538550057538
21
2.29579699946940
31
0.000000000000000
  0
LINE
  5
F10864
330
F10865
100
AcDbEntity
8
Geo
100
AcDbLine
10
-42.4538550057538
20
2.29579699946940
30
0.000000000000000
11
-42.3538550057538
21
2.21491549504935
31
0.000000000000000
  0
LINE
  5
F10866
330
F10867
100
AcDbEntity
8
Geo
100
AcDbLine
10
-42.3538550057538
20
2.21491549504935
30
0.000000000000000
11
-42.2538550057538
21
2.13378985453414
31
0.000000000000000
  0
LINE
  5
F10868
330
F10869
100
AcDbEntity
8
Geo
100
AcDbLine
10
-42.2538550057538
20
2.13378985453414
30
0.000000000000000
11
-42.1538550057538
21
2.05243594422225
31
0.000000000000000
  0
LINE
  5
F1086A
330
F1086B
100
AcDbEntity
8
Geo
100
AcDbLine
10
-42.1538550057538
20
2.05243594422225
30
0.000000000000000
11
-42.0538550057538
21
1.97086967505646
31
0.000000000000000
  0
LINE
  5
F1086C
330
F1086D
100
AcDbEntity
8
Geo
100
AcDbLine
10
-42.0538550057538
20
1.97086967505646
30
0.000000000000000
11
-41.9538550057538
21
1.88910699951202
31
0.000000000000000
  0
LINE
  5
F1086E
330
F1086F
100
AcDbEntity
8
Geo
100
AcDbLine
10
-41.9538550057538
20
1.88910699951202
30
0.000000000000000
11
-41.8538550057538
21
1.80716390847671
31
0.000000000000000
  0
LINE
  5
F10870
330
F10871
100
AcDbEntity
8
Geo
100
AcDbLine
10
-41.8538550057538
20
1.80716390847671
30
0.000000000000000
11
-41.7538550057538
21
1.72505642812344
31
0.000000000000000
  0
LINE
  5
F10872
330
F10873
100
AcDbEntity
8
Geo
100
AcDbLine
10
-41.7538550057538
20
1.72505642812344
30
0.000000000000000
11
-41.6538550057538
21
1.64280061677583
31
0.000000000000000
  0
LINE
  5
F10874
330
F10875
100
AcDbEntity
8
Geo
100
AcDbLine
10
-41.6538550057538
20
1.64280061677583
30
0.000000000000000
11
-41.5538550057538
21
1.56041256176765
31
0.000000000000000
  0
LINE
  5
F10876
330
F10877
100
AcDbEntity
8
Geo
100
AcDbLine
10
-41.5538550057538
20
1.56041256176765
30
0.000000000000000
11
-41.4538550057538
21
1.47790837629643
31
0.000000000000000
  0
LINE
  5
F10878
330
F10879
100
AcDbEntity
8
Geo
100
AcDbLine
10
-41.4538550057538
20
1.47790837629643
30
0.000000000000000
11
-41.3538550057538
21
1.39530419627216
31
0.000000000000000
  0
LINE
  5
F1087A
330
F1087B
100
AcDbEntity
8
Geo
100
AcDbLine
10
-41.3538550057538
20
1.39530419627216
30
0.000000000000000
11
-41.2538550057538
21
1.31261617716145
31
0.000000000000000
  0
LINE
  5
F1087C
330
F1087D
100
AcDbEntity
8
Geo
100
AcDbLine
10
-41.2538550057538
20
1.31261617716145
30
0.000000000000000
11
-41.1538550057538
21
1.22986049082787
31
0.000000000000000
  0
LINE
  5
F1087E
330
F1087F
100
AcDbEntity
8
Geo
100
AcDbLine
10
-41.1538550057538
20
1.22986049082787
30
0.000000000000000
11
-41.0538550057538
21
1.14705332236917
31
0.000000000000000
  0
LINE
  5
F10880
330
F10881
100
AcDbEntity
8
Geo
100
AcDbLine
10
-41.0538550057538
20
1.14705332236917
30
0.000000000000000
11
-40.9538550057538
21
1.06421086695179
31
0.000000000000000
  0
LINE
  5
F10882
330
F10883
100
AcDbEntity
8
Geo
100
AcDbLine
10
-40.9538550057538
20
1.06421086695179
30
0.000000000000000
11
-40.8538550057538
21
0.981349326643480
31
0.000000000000000
  0
LINE
  5
F10884
330
F10885
100
AcDbEntity
8
Geo
100
AcDbLine
10
-40.8538550057538
20
0.981349326643480
30
0.000000000000000
11
-40.7538550057538
21
0.898484907244567
31
0.000000000000000
  0
LINE
  5
F10886
330
F10887
100
AcDbEntity
8
Geo
100
AcDbLine
10
-40.7538550057538
20
0.898484907244567
30
0.000000000000000
11
-40.6538550057538
21
0.815633815118455
31
0.000000000000000
  0
LINE
  5
F10888
330
F10889
100
AcDbEntity
8
Geo
100
AcDbLine
10
-40.6538550057538
20
0.815633815118455
30
0.000000000000000
11
-40.5538550057538
21
0.732812254022039
31
0.000000000000000
  0
LINE
  5
F1088A
330
F1088B
100
AcDbEntity
8
Geo
100
AcDbLine
10
-40.5538550057538
20
0.732812254022039
30
0.000000000000000
11
-40.4538550057538
21
0.650036421936633
31
0.000000000000000
  0
LINE
  5
F1088C
330
F1088D
100
AcDbEntity
8
Geo
100
AcDbLine
10
-40.4538550057538
20
0.650036421936633
30
0.000000000000000
11
-40.3538550057538
21
0.567322507900011
31
0.000000000000000
  0
LINE
  5
F1088E
330
F1088F
100
AcDbEntity
8
Geo
100
AcDbLine
10
-40.3538550057538
20
0.567322507900011
30
0.000000000000000
11
-40.2538550057538
21
0.484686688840210
31
0.000000000000000
  0
LINE
  5
F10890
330
F10891
100
AcDbEntity
8
Geo
100
AcDbLine
10
-40.2538550057538
20
0.484686688840210
30
0.000000000000000
11
-40.1538550057538
21
0.402145126411697
31
0.000000000000000
  0
LINE
  5
F10892
330
F10893
100
AcDbEntity
8
Geo
100
AcDbLine
10
-40.1538550057538
20
0.402145126411697
30
0.000000000000000
11
-40.0538550057538
21
0.319713963834521
31
0.000000000000000
  0
LINE
  5
F10894
330
F10895
100
AcDbEntity
8
Geo
100
AcDbLine
10
-40.0538550057538
20
0.319713963834521
30
0.000000000000000
11
-39.9538550057538
21
0.237409322737074
31
0.000000000000000
  0
LINE
  5
F10896
330
F10897
100
AcDbEntity
8
Geo
100
AcDbLine
10
-39.9538550057538
20
0.237409322737074
30
0.000000000000000
11
-39.8538550057538
21
0.155247300003077
31
0.000000000000000
  0
LINE
  5
F10898
330
F10899
100
AcDbEntity
8
Geo
100
AcDbLine
10
-39.8538550057538
20
0.155247300003077
30
0.000000000000000
11
-39.7538550057538
21
0.0732439646233942
31
0.000000000000000
  0
LINE
  5
F1089A
330
F1089B
100
AcDbEntity
8
Geo
100
AcDbLine
10
-39.7538550057538
20
0.0732439646233942
30
0.000000000000000
11
-39.6538550057538
21
-0.00858464544668325
31
0.000000000000000
  0
LINE
  5
F1089C
330
F1089D
100
AcDbEntity
8
Geo
100
AcDbLine
10
-39.6538550057538
20
-0.00858464544668325
30
0.000000000000000
11
-39.5538550057538
21
-0.0902225264240930
31
0.000000000000000
  0
LINE
  5
F1089E
330
F1089F
100
AcDbEntity
8
Geo
100
AcDbLine
10
-39.5538550057538
20
-0.0902225264240930
30
0.000000000000000
11
-39.4538550057538
21
-0.171653711827971
31
0.000000000000000
  0
LINE
  5
F108A0
330
F108A1
100
AcDbEntity
8
Geo
100
AcDbLine
10
-39.4538550057538
20
-0.171653711827971
30
0.000000000000000
11
-39.3538550057538
21
-0.252862275602325
31
0.000000000000000
  0
LINE
  5
F108A2
330
F108A3
100
AcDbEntity
8
Geo
100
AcDbLine
10
-39.3538550057538
20
-0.252862275602325
30
0.000000000000000
11
-39.2538550057538
21
-0.333832335230804
31
0.000000000000000
  0
LINE
  5
F108A4
330
F108A5
100
AcDbEntity
8
Geo
100
AcDbLine
10
-39.2538550057538
20
-0.333832335230804
30
0.000000000000000
11
-39.1538550057538
21
-0.414548054842950
31
0.000000000000000
  0
LINE
  5
F108A6
330
F108A7
100
AcDbEntity
8
Geo
100
AcDbLine
10
-39.1538550057538
20
-0.414548054842950
30
0.000000000000000
11
-39.0538550057538
21
-0.494993648311328
31
0.000000000000000
  0
LINE
  5
F108A8
330
F108A9
100
AcDbEntity
8
Geo
100
AcDbLine
10
-39.0538550057538
20
-0.494993648311328
30
0.000000000000000
11
-38.9538550057538
21
-0.575153382338927
31
0.000000000000000
  0
LINE
  5
F108AA
330
F108AB
100
AcDbEntity
8
Geo
100
AcDbLine
10
-38.9538550057538
20
-0.575153382338927
30
0.000000000000000
11
-38.8538550057538
21
-0.655011579536231
31
0.000000000000000
  0
LINE
  5
F108AC
330
F108AD
100
AcDbEntity
8
Geo
100
AcDbLine
10
-38.8538550057538
20
-0.655011579536231
30
0.000000000000000
11
-38.7538550057538
21
-0.734552621487350
31
0.000000000000000
  0
LINE
  5
F108AE
330
F108AF
100
AcDbEntity
8
Geo
100
AcDbLine
10
-38.7538550057538
20
-0.734552621487350
30
0.000000000000000
11
-38.6538550057538
21
-0.813760951804624
31
0.000000000000000
  0
LINE
  5
F108B0
330
F108B1
100
AcDbEntity
8
Geo
100
AcDbLine
10
-38.6538550057538
20
-0.813760951804624
30
0.000000000000000
11
-38.5538550057538
21
-0.892621079171092
31
0.000000000000000
  0
LINE
  5
F108B2
330
F108B3
100
AcDbEntity
8
Geo
100
AcDbLine
10
-38.5538550057538
20
-0.892621079171092
30
0.000000000000000
11
-38.4538550057538
21
-0.971117580370233
31
0.000000000000000
  0
LINE
  5
F108B4
330
F108B5
100
AcDbEntity
8
Geo
100
AcDbLine
10
-38.4538550057538
20
-0.971117580370233
30
0.000000000000000
11
-38.3538550057538
21
-1.04923510330239
31
0.000000000000000
  0
LINE
  5
F108B6
330
F108B7
100
AcDbEntity
8
Geo
100
AcDbLine
10
-38.3538550057538
20
-1.04923510330239
30
0.000000000000000
11
-38.2538550057538
21
-1.12695836998730
31
0.000000000000000
  0
LINE
  5
F108B8
330
F108B9
100
AcDbEntity
8
Geo
100
AcDbLine
10
-38.2538550057538
20
-1.12695836998730
30
0.000000000000000
11
-38.1538550057538
21
-1.20427217955209
31
0.000000000000000
  0
LINE
  5
F108BA
330
F108BB
100
AcDbEntity
8
Geo
100
AcDbLine
10
-38.1538550057538
20
-1.20427217955209
30
0.000000000000000
11
-38.0538550057538
21
-1.28116141120422
31
0.000000000000000
  0
LINE
  5
F108BC
330
F108BD
100
AcDbEntity
8
Geo
100
AcDbLine
10
-38.0538550057538
20
-1.28116141120422
30
0.000000000000000
11
-37.9538550057538
21
-1.35761102718878
31
0.000000000000000
  0
LINE
  5
F108BE
330
F108BF
100
AcDbEntity
8
Geo
100
AcDbLine
10
-37.9538550057538
20
-1.35761102718878
30
0.000000000000000
11
-37.8538550057538
21
-1.43360607572951
31
0.000000000000000
  0
LINE
  5
F108C0
330
F108C1
100
AcDbEntity
8
Geo
100
AcDbLine
10
-37.8538550057538
20
-1.43360607572951
30
0.000000000000000
11
-37.7538550057538
21
-1.50913169395302
31
0.000000000000000
  0
LINE
  5
F108C2
330
F108C3
100
AcDbEntity
8
Geo
100
AcDbLine
10
-37.7538550057538
20
-1.50913169395302
30
0.000000000000000
11
-37.6538550057538
21
-1.58417311079565
31
0.000000000000000
  0
LINE
  5
F108C4
330
F108C5
100
AcDbEntity
8
Geo
100
AcDbLine
10
-37.6538550057538
20
-1.58417311079565
30
0.000000000000000
11
-37.5538550057538
21
-1.65871564989231
31
0.000000000000000
  0
LINE
  5
F108C6
330
F108C7
100
AcDbEntity
8
Geo
100
AcDbLine
10
-37.5538550057538
20
-1.65871564989231
30
0.000000000000000
11
-37.4538550057538
21
-1.73274473244686
31
0.000000000000000
  0
LINE
  5
F108C8
330
F108C9
100
AcDbEntity
8
Geo
100
AcDbLine
10
-37.4538550057538
20
-1.73274473244686
30
0.000000000000000
11
-37.3538550057538
21
-1.80624588008337
31
0.000000000000000
  0
LINE
  5
F108CA
330
F108CB
100
AcDbEntity
8
Geo
100
AcDbLine
10
68.6461449942462
20
6.71662830840049
30
0.000000000000000
11
68.6461449942462
21
0.966628308400487
31
0.000000000000000
  0
LINE
  5
F108CC
330
F108CD
100
AcDbEntity
8
Geo
100
AcDbLine
10
-51.3538550057538
20
0.966628308400487
30
0.000000000000000
11
-51.3538550057538
21
-4.88337169159951
31
0.000000000000000
  0
LINE
  5
F108CE
330
F108CF
100
AcDbEntity
8
Geo
100
AcDbLine
10
-51.3538550057538
20
-4.88337169159951
30
0.000000000000000
11
-51.2038550057538
21
-5.03337169159951
31
0.000000000000000
  0
LINE
  5
F108D0
330
F108D1
100
AcDbEntity
8
Geo
100
AcDbLine
10
-51.2038550057538
20
-5.03337169159951
30
0.000000000000000
11
-32.3538550057538
21
-5.03337169159951
31
0.000000000000000
  0
LINE
  5
F108D2
330
F108D3
100
AcDbEntity
8
Geo
100
AcDbLine
10
-32.3538550057538
20
-5.03337169159951
30
0.000000000000000
11
-32.3538550057538
21
-4.73337169159951
31
0.000000000000000
  0
LINE
  5
F108D4
330
F108D5
100
AcDbEntity
8
Geo
100
AcDbLine
10
-32.3538550057538
20
-4.73337169159951
30
0.000000000000000
11
-1.35385500575377
21
-4.73337169159951
31
0.000000000000000
  0
LINE
  5
F108D6
330
F108D7
100
AcDbEntity
8
Geo
100
AcDbLine
10
-1.35385500575377
20
-4.73337169159951
30
0.000000000000000
11
-0.653855005753769
21
-5.03337169159951
31
0.000000000000000
  0
LINE
  5
F108D8
330
F108D9
100
AcDbEntity
8
Geo
100
AcDbLine
10
-0.653855005753769
20
-5.03337169159951
30
0.000000000000000
11
68.3961449942462
21
-5.03337169159951
31
0.000000000000000
  0
LINE
  5
F108DA
330
F108DB
100
AcDbEntity
8
Geo
100
AcDbLine
10
68.3961449942462
20
-5.03337169159951
30
0.000000000000000
11
68.6461449942462
21
-4.78337169159951
31
0.000000000000000
  0
LINE
  5
F108DC
330
F108DD
100
AcDbEntity
8
Geo
100
AcDbLine
10
-51.3538550057538
20
6.81662830840049
30
0.000000000000000
11
-51.3538550057538
21
-4.88337169159951
31
0.000000000000000
  0
LINE
  5
F108DE
330
F108DF
100
AcDbEntity
8
Geo
100
AcDbLine
10
-51.2038550057538
20
6.96662830840049
30
0.000000000000000
11
-51.2038550057538
21
-5.03337169159951
31
0.000000000000000
  0
LINE
  5
F108E0
330
F108E1
100
AcDbEntity
8
Geo
100
AcDbLine
10
-51.2038550057538
20
6.96662830840049
30
0.000000000000000
11
-51.2038550057538
21
-5.03337169159951
31
0.000000000000000
  0
LINE
  5
F108E2
330
F108E3
100
AcDbEntity
8
Geo
100
AcDbLine
10
-32.3538550057538
20
6.96662830840049
30
0.000000000000000
11
-32.3538550057538
21
-5.03337169159951
31
0.000000000000000
  0
LINE
  5
F108E4
330
F108E5
100
AcDbEntity
8
Geo
100
AcDbLine
10
-32.3538550057538
20
6.66662830840049
30
0.000000000000000
11
-32.3538550057538
21
-4.73337169159951
31
0.000000000000000
  0
LINE
  5
F108E6
330
F108E7
100
AcDbEntity
8
Geo
100
AcDbLine
10
-32.3538550057538
20
6.66662830840049
30
0.000000000000000
11
-32.3538550057538
21
-4.73337169159951
31
0.000000000000000
  0
LINE
  5
F108E8
330
F108E9
100
AcDbEntity
8
Geo
100
AcDbLine
10
-1.35385500575377
20
6.66662830840049
30
0.000000000000000
11
-1.35385500575377
21
-4.73337169159951
31
0.000000000000000
  0
LINE
  5
F108EA
330
F108EB
100
AcDbEntity
8
Geo
100
AcDbLine
10
-0.653855005753769
20
6.96662830840049
30
0.000000000000000
11
-0.653855005753769
21
-5.03337169159951
31
0.000000000000000
  0
LINE
  5
F108EC
330
F108ED
100
AcDbEntity
8
Geo
100
AcDbLine
10
68.3961449942462
20
6.96662830840049
30
0.000000000000000
11
68.3961449942462
21
-5.03337169159951
31
0.000000000000000
  0
LINE
  5
F108EE
330
F108EF
100
AcDbEntity
8
Geo
100
AcDbLine
10
68.6461449942462
20
6.71662830840049
30
0.000000000000000
11
68.6461449942462
21
-4.78337169159951
31
0.000000000000000
  0
LINE
  5
F108F0
330
F108F1
100
AcDbEntity
8
Geo
 6
Dashdot
100
AcDbLine
10
-51.3538550057538
20
0.966628308400487
30
0.000000000000000
11
68.6461449942462
21
0.966628308400487
31
0.000000000000000
  0
LWPOLYLINE
  5
F108F2
330
F108F3
100
AcDbEntity
8
Rahmen
100
AcDbPolyline
90
   4
70
   1
43
   0.0
 10
-134.602991944764
 20
99.9252013808976
 10
143.302646720368
 20
99.9252013808976
 10
143.302646720368
 20
-100.166858457998
 10
-134.602991944764
 20
-100.166858457998
  0
TEXT
  5
F108F4
330
F108F5
 100
AcDbEntity
8
Text
100
AcDbText
10
-133.636363636364
20
-99.6668584579977
30
0.000000000000000
40
1.00000000000000
1
ISBESketcher - ©ISBE GmbH      lizensiert für: Schmid Werkzeuge
100
AcDbText
  0
LWPOLYLINE
  5
F108F6
330
F108F7
100
AcDbEntity
8
Rahmen
100
AcDbPolyline
90
   4
70
   1
43
   0.0
 10
103.429228998849
 20
-97.0253164556962
 10
143.302646720368
 20
-97.0253164556962
 10
143.302646720368
 20
-100.166858457998
 10
103.429228998849
 20
-100.166858457998
  0
TEXT
  5
F108F8
330
F108F9
 100
AcDbEntity
8
Text
100
AcDbText
10
104.500000000000
20
-99.4499424626007
30
0.000000000000000
40
1.50000000000000
1
Ers. durch:
100
AcDbText
  0
TEXT
  5
F108FA
330
F108FB
 100
AcDbEntity
8
Text
100
AcDbText
10
0.000000000000000
20
0.500000000000000
30
0.000000000000000
40
1.50000000000000
1

100
AcDbText
  0
LWPOLYLINE
  5
F108FC
330
F108FD
100
AcDbEntity
8
Rahmen
100
AcDbPolyline
90
   4
70
   1
43
   0.0
 10
63.3141542002302
 20
-97.0253164556962
 10
103.429228998849
 20
-97.0253164556962
 10
103.429228998849
 20
-100.166858457998
 10
63.3141542002302
 20
-100.166858457998
  0
TEXT
  5
F108FE
330
F108FF
 100
AcDbEntity
8
Text
100
AcDbText
10
64.5000000000000
20
-99.4499424626007
30
0.000000000000000
40
1.50000000000000
1
Ers. für:
100
AcDbText
  0
TEXT
  5
F10900
330
F10901
 100
AcDbEntity
8
Text
100
AcDbText
10
0.000000000000000
20
0.500000000000000
30
0.000000000000000
40
1.50000000000000
1

100
AcDbText
  0
LWPOLYLINE
  5
F10902
330
F10903
100
AcDbEntity
8
Rahmen
100
AcDbPolyline
90
   4
70
   1
43
   0.0
 10
130.011507479862
 20
-94.1254315304948
 10
143.302646720368
 20
-94.1254315304948
 10
143.302646720368
 20
-97.0253164556962
 10
130.011507479862
 20
-97.0253164556962
  0
TEXT
  5
F10904
330
F10905
 100
AcDbEntity
8
Text
100
AcDbText
10
131.166666666667
20
-96.4499424626007
30
0.000000000000000
40
1.50000000000000
1
Blätter
100
AcDbText
  0
TEXT
  5
F10906
330
F10907
 100
AcDbEntity
8
Text
100
AcDbText
10
0.000000000000000
20
0.500000000000000
30
0.000000000000000
40
1.50000000000000
1

100
AcDbText
  0
LWPOLYLINE
  5
F10908
330
F10909
100
AcDbEntity
8
Rahmen
100
AcDbPolyline
90
   4
70
   1
43
   0.0
 10
130.011507479862
 20
-91.2255466052934
 10
143.302646720368
 20
-91.2255466052934
 10
143.302646720368
 20
-94.1254315304948
 10
130.011507479862
 20
-94.1254315304948
  0
TEXT
  5
F1090A
330
F1090B
 100
AcDbEntity
8
Text
100
AcDbText
10
131.166666666667
20
-93.4499424626007
30
0.000000000000000
40
1.50000000000000
1
Blatt
100
AcDbText
  0
TEXT
  5
F1090C
330
F1090D
 100
AcDbEntity
8
Text
100
AcDbText
10
0.000000000000000
20
0.500000000000000
30
0.000000000000000
40
1.50000000000000
1

100
AcDbText
  0
LWPOLYLINE
  5
F1090E
330
F1090F
100
AcDbEntity
8
Rahmen
100
AcDbPolyline
90
   4
70
   1
43
   0.0
 10
63.3141542002302
 20
-91.2255466052934
 10
130.011507479862
 20
-91.2255466052934
 10
130.011507479862
 20
-97.0253164556962
 10
63.3141542002302
 20
-97.0253164556962
  0
TEXT
  5
F10910
330
F10911
 100
AcDbEntity
8
Text
100
AcDbText
10
64.5000000000000
20
-93.4499424626007
30
0.000000000000000
40
1.50000000000000
1
Datum:
100
AcDbText
  0
TEXT
  5
F10912
330
F10913
 100
AcDbEntity
8
Text
100
AcDbText
10
91.1543920214806
20
-96.4499424626007
30
0.000000000000000
40
1.50000000000000
1
14.05.2019
100
AcDbText
  0
LWPOLYLINE
  5
F10914
330
F10915
100
AcDbEntity
8
Rahmen
100
AcDbPolyline
90
   4
70
   1
43
   0.0
 10
63.3141542002302
 20
-85.1841196777906
 10
143.302646720368
 20
-85.1841196777906
 10
143.302646720368
 20
-91.2255466052934
 10
63.3141542002302
 20
-91.2255466052934
  0
TEXT
  5
F10916
330
F10917
 100
AcDbEntity
8
Text
100
AcDbText
10
0.000000000000000
20
0.500000000000000
30
0.000000000000000
40
1.50000000000000
1

100
AcDbText
  0
TEXT
  5
F10918
330
F10919
 100
AcDbEntity
8
Text
100
AcDbText
10
73.0512082853855
20
-89.7040659762179
30
0.000000000000000
40
2.50000000000000
1
VHM-Schlichtfräser 0146-120-b
100
AcDbText
  0
LWPOLYLINE
  5
F1091A
330
F1091B
100
AcDbEntity
8
Rahmen
100
AcDbPolyline
90
   4
70
   1
43
   0.0
 10
103.429228998849
 20
-79.1426927502877
 10
143.302646720368
 20
-79.1426927502877
 10
143.302646720368
 20
-85.1841196777906
 10
103.429228998849
 20
-85.1841196777906
  0
TEXT
  5
F1091C
330
F1091D
 100
AcDbEntity
8
Text
100
AcDbText
10
104.500000000000
20
-81.4499424626007
30
0.000000000000000
40
1.50000000000000
1
Zu bearb. Material:
100
AcDbText
  0
TEXT
  5
F1091E
330
F1091F
 100
AcDbEntity
8
Text
100
AcDbText
10
0.000000000000000
20
0.500000000000000
30
0.000000000000000
40
1.50000000000000
1

100
AcDbText
  0
LWPOLYLINE
  5
F10920
330
F10921
100
AcDbEntity
8
Rahmen
100
AcDbPolyline
90
   4
70
   1
43
   0.0
 10
63.3141542002302
 20
-79.1426927502877
 10
103.429228998849
 20
-79.1426927502877
 10
103.429228998849
 20
-85.1841196777906
 10
63.3141542002302
 20
-85.1841196777906
  0
TEXT
  5
F10922
330
F10923
 100
AcDbEntity
8
Text
100
AcDbText
10
64.5000000000000
20
-81.4499424626007
30
0.000000000000000
40
1.50000000000000
1
Werkstoff:
100
AcDbText
  0
TEXT
  5
F10924
330
F10925
 100
AcDbEntity
8
Text
100
AcDbText
10
80.9626006904488
20
-84.4499424626007
30
0.000000000000000
40
1.50000000000000
1
VHM
100
AcDbText
  0
LWPOLYLINE
  5
F10926
330
F10927
100
AcDbEntity
8
Rahmen
100
AcDbPolyline
90
   4
70
   1
43
   0.0
 10
103.429228998849
 20
-76.0011507479862
 10
143.302646720368
 20
-76.0011507479862
 10
143.302646720368
 20
-79.1426927502877
 10
103.429228998849
 20
-79.1426927502877
  0
TEXT
  5
F10928
330
F10929
 100
AcDbEntity
8
Text
100
AcDbText
10
0.000000000000000
20
0.500000000000000
30
0.000000000000000
40
1.50000000000000
1

100
AcDbText
  0
TEXT
  5
F1092A
330
F1092B
 100
AcDbEntity
8
Text
100
AcDbText
10
0.000000000000000
20
0.500000000000000
30
0.000000000000000
40
1.50000000000000
1

100
AcDbText
  0
LWPOLYLINE
  5
F1092C
330
F1092D
100
AcDbEntity
8
Rahmen
100
AcDbPolyline
90
   4
70
   1
43
   0.0
 10
63.3141542002302
 20
-76.0011507479862
 10
103.429228998849
 20
-76.0011507479862
 10
103.429228998849
 20
-79.1426927502877
 10
63.3141542002302
 20
-79.1426927502877
  0
TEXT
  5
F1092E
330
F1092F
 100
AcDbEntity
8
Text
100
AcDbText
10
64.5000000000000
20
-78.4499424626007
30
0.000000000000000
40
1.50000000000000
1
Maßstab:
100
AcDbText
  0
TEXT
  5
F10930
330
F10931
 100
AcDbEntity
8
Text
100
AcDbText
10
89.0834292289989
20
-78.4499424626007
30
0.000000000000000
40
1.50000000000000
1
1 : 1
100
AcDbText
0
VIEWPORT
5
294
102
{ACAD_XDICTIONARY
360
58A
102
}
330
25D
100
AcDbEntity
67
1
8
0
60
1
100
AcDbViewport
10
0.0
20
0.0
30
0.0
40
10.0
41
10.0
68
-1
69
1
12
0.0
22
0.0
13
0.0
23
0.0
14
1.0
24
1.0
15
0.0
25
0.0
16
0.0
26
0.0
36
1.0
17
0.0
27
0.0
37
0.0
42
0.0
43
0.0
44
0.0
45
10.0
50
0.0
51
0.0000000000007958
72
100
90
32800
1

281
0
71
0
74
0
110
0.0
120
0.0
130
0.0
111
1.0
121
0.0
131
0.0
112
0.0
122
1.0
132
0.0
79
0
146
0.0
1001
VD_INVISIBLE_NOT_FOR_READ
1000
VD_INVISIBLE_NOT_FOR_READ
0
VIEWPORT
5
295
102
{ACAD_XDICTIONARY
360
58C
102
}
330
25D
100
AcDbEntity
67
1
8
0
60
1
100
AcDbViewport
10
0.0
20
0.0
30
0.0
40
10.0
41
10.0
68
0
69
2
12
0.0
22
0.0
13
0.0
23
0.0
14
1.0
24
1.0
15
0.0
25
0.0
16
0.0
26
0.0
36
1.0
17
0.0
27
0.0
37
0.0
42
0.0
43
0.0
44
0.0
45
10.0
50
0.0
51
0.0000000000007958
72
100
90
163872
1

281
0
71
0
74
0
110
0.0
120
0.0
130
0.0
111
1.0
121
0.0
131
0.0
112
0.0
122
1.0
132
0.0
79
0
146
0.0
1001
VD_INVISIBLE_NOT_FOR_READ
1000
VD_INVISIBLE_NOT_FOR_READ
0
ENDSEC
0
SECTION
2
OBJECTS
0
DICTIONARY
5
13
330
0
100
AcDbDictionary
281
1
3
ACAD_COLOR
350
FA7
3
ACAD_GROUP
350
14
3
ACAD_LAYOUT
350
FCF
3
ACAD_MATERIAL
350
F7A
3
ACAD_MLEADERSTYLE
350
FCD
3
ACAD_MLINESTYLE
350
16
3
ACAD_PLOTSETTINGS
350
17
3
ACAD_PLOTSTYLENAME
350
18
3
ACAD_SCALELIST
350
FAB
3
ACAD_TABLESTYLE
350
FA8
3
ACAD_VISUALSTYLE
350
F93
3
ACDB_RECOMPOSE_DATA
350
107E
3
AcDbVariableDictionary
350
FF0
3
DWGPROPS
350
107F
0
DICTIONARY
5
F10005
330
F10004
100
AcDbDictionary
280
1
281
1
3
ACAD_MTEXT_2008_RT
360
F10006
0
DICTIONARY
5
F10014
330
F10013
100
AcDbDictionary
280
1
281
1
3
ACAD_MTEXT_2008_RT
360
F10015
0
DICTIONARY
5
F10019
330
F10018
100
AcDbDictionary
280
1
281
1
3
ACAD_MTEXT_2008_RT
360
F1001A
0
DICTIONARY
5
F1001E
330
F1001D
100
AcDbDictionary
280
1
281
1
3
ACAD_MTEXT_2008_RT
360
F1001F
0
DICTIONARY
5
F10023
330
F10022
100
AcDbDictionary
280
1
281
1
3
ACAD_MTEXT_2008_RT
360
F10024
0
DICTIONARY
5
F1000A
330
F10009
100
AcDbDictionary
280
1
281
1
3
ACAD_MTEXT_2008_RT
360
F1000B
0
DICTIONARY
5
F1000F
330
F1000E
100
AcDbDictionary
280
1
281
1
3
ACAD_MTEXT_2008_RT
360
F10010
0
DICTIONARY
5
F10028
330
F10027
100
AcDbDictionary
280
1
281
1
3
ACAD_MTEXT_2008_RT
360
F10029
0
DICTIONARY
5
FA7
102
{ACAD_REACTORS
330
13
102
}
330
13
100
AcDbDictionary
281
1
0
DICTIONARY
5
14
330
13
100
AcDbDictionary
281
1
0
DICTIONARY
5
FCF
102
{ACAD_REACTORS
330
13
102
}
330
13
100
AcDbDictionary
281
1
3
Layout1
350
FD1
3
Model
350
FD0
0
DICTIONARY
5
F7A
102
{ACAD_REACTORS
330
13
102
}
330
13
100
AcDbDictionary
281
1
3
ByBlock
350
F83
3
ByLayer
350
F7B
3
Global
350
F8B
0
DICTIONARY
5
FCD
102
{ACAD_REACTORS
330
13
102
}
330
13
100
AcDbDictionary
281
1
3
Standard
350
FCE
0
DICTIONARY
5
16
330
13
100
AcDbDictionary
281
1
3
Standard
350
FAA
0
DICTIONARY
5
17
102
{ACAD_REACTORS
330
13
102
}
330
13
100
AcDbDictionary
281
1
0
ACDBDICTIONARYWDFLT
5
18
102
{ACAD_REACTORS
330
13
102
}
330
13
100
AcDbDictionary
281
1
3
Normal
350
19
100
AcDbDictionaryWithDefault
340
19
0
DICTIONARY
5
FAB
102
{ACAD_REACTORS
330
13
102
}
330
13
100
AcDbDictionary
281
1
3
A0
350
FAC
3
A1
350
FAD
3
A2
350
FAE
3
A3
350
FAF
3
A4
350
FB0
3
A5
350
FB1
3
A6
350
FB2
3
A7
350
FB3
3
A8
350
FB4
3
A9
350
FB5
3
B0
350
FB6
3
B1
350
FB7
3
B2
350
FB8
3
B3
350
FB9
3
B4
350
FBA
3
B5
350
FBB
3
B6
350
FBC
3
B7
350
FBD
3
B8
350
FBE
3
B9
350
FBF
3
C0
350
FC0
3
C1
350
FC1
3
C2
350
FC2
3
C3
350
FC3
3
C4
350
FC4
3
C5
350
FC5
3
C6
350
FC6
3
C7
350
FC7
3
C8
350
FC8
3
C9
350
FC9
3
D0
350
FCA
3
D1
350
FCB
3
D2
350
FCC
0
DICTIONARY
5
FA8
102
{ACAD_REACTORS
330
13
102
}
330
13
100
AcDbDictionary
281
1
3
Standard
350
FA9
0
DICTIONARY
5
F93
102
{ACAD_REACTORS
330
13
102
}
330
13
100
AcDbDictionary
281
1
3
2dWireframe
350
F99
3
3D Hidden
350
F9B
3
3dWireframe
350
F9A
3
Basic
350
F98
3
Brighten
350
F9F
3
ColorChange
350
FA3
3
Conceptual
350
F9C
3
Dim
350
F9E
3
EdgeColorOff
350
FA6
3
Facepattern
350
FA2
3
Flat
350
F94
3
FlatWithEdges
350
F95
3
Gouraud
350
F96
3
GouraudWithEdges
350
F97
3
JitterOff
350
FA4
3
Linepattern
350
FA1
3
OverhangOff
350
FA5
3
Realistic
350
F9D
3
Thicken
350
FA0
0
XRECORD
5
107E
102
{ACAD_REACTORS
330
13
102
}
330
13
100
AcDbXrecord
280
1
90
1
330
FA9
330
F10004
330
F10013
330
F10018
330
F1001D
330
F10022
330
F10009
330
F1000E
330
F10027
0
DICTIONARY
5
FF0
102
{ACAD_REACTORS
330
13
102
}
330
13
100
AcDbDictionary
281
1
3
CANNOSCALE
350
FF3
3
CMLEADERSTYLE
350
FF2
3
CTABLESTYLE
350
FF1
3
DIMASSOC
350
FF6
3
INDEXCTL
350
FF5
3
SORTENTS
350
FF4
3
XCLIPFRAME
350
1078
0
XRECORD
5
107F
102
{ACAD_REACTORS
330
13
102
}
330
13
100
AcDbXrecord
280
1
1
DWGPROPS COOKIE
2

3

4

6

7

8

9

300
=
301
=
302
=
303
=
304
=
305
=
306
=
307
=
308
=
309
=
40
0.0
41
0.0
42
0.0
1

90
0
0
XRECORD
5
F10006
102
{ACAD_REACTORS
330
F10005
102
}
330
F10005
100
AcDbXrecord
280
1
40
48458.0
1
0.15 x 45°
0
XRECORD
5
F10015
102
{ACAD_REACTORS
330
F10014
102
}
330
F10014
100
AcDbXrecord
280
1
40
48458.0
1
50
0
XRECORD
5
F1001A
102
{ACAD_REACTORS
330
F10019
102
}
330
F10019
100
AcDbXrecord
280
1
40
48458.0
1
50.7
0
XRECORD
5
F1001F
102
{ACAD_REACTORS
330
F1001E
102
}
330
F1001E
100
AcDbXrecord
280
1
40
48458.0
1
19
0
XRECORD
5
F10024
102
{ACAD_REACTORS
330
F10023
102
}
330
F10023
100
AcDbXrecord
280
1
40
48458.0
1
120
0
XRECORD
5
F1000B
102
{ACAD_REACTORS
330
F1000A
102
}
330
F1000A
100
AcDbXrecord
280
1
40
48458.0
1
Ø12
0
XRECORD
5
F10010
102
{ACAD_REACTORS
330
F1000F
102
}
330
F1000F
100
AcDbXrecord
280
1
40
48458.0
1
Ø11.4
0
XRECORD
5
F10029
102
{ACAD_REACTORS
330
F10028
102
}
330
F10028
100
AcDbXrecord
280
1
40
48458.0
1
Ø12
0
LAYOUT
5
FD1
102
{ACAD_XDICTIONARY
360
10A9
102
}
102
{ACAD_REACTORS
330
FCF
102
}
330
FCF
100
AcDbPlotSettings
1

2
Microsoft XPS Document Writer
4

6

40
0.0
41
0.0
42
0.0
43
0.0
44
0.0
45
0.0
46
0.0
47
0.0
48
0.0
49
0.0
140
0.0
141
0.0
142
1.0
143
1.0
70
688
72
0
73
0
74
5
7

75
16
147
1.0
148
0.0
149
0.0
100
AcDbLayout
1
Layout1
70
1
71
1
10
0.0
20
0.0
11
12.0
21
9.0
12
0.0
22
0.0
32
0.0
14
1.000000000000000E+20
24
1.000000000000000E+20
34
1.000000000000000E+20
15
-1.000000000000000E+20
25
-1.000000000000000E+20
35
-1.000000000000000E+20
146
0.0
13
0.0
23
0.0
33
0.0
16
1.0
26
0.0
36
0.0
17
0.0
27
1.0
37
0.0
76
0
330
25D
0
LAYOUT
5
FD0
102
{ACAD_XDICTIONARY
360
10A7
102
}
102
{ACAD_REACTORS
330
FCF
102
}
330
FCF
100
AcDbPlotSettings
1

2
Microsoft XPS Document Writer
4

6

40
0.0
41
0.0
42
0.0
43
0.0
44
0.0
45
0.0
46
0.0
47
0.0
48
0.0
49
0.0
140
0.0
141
0.0
142
1.0
143
1.0
70
1712
72
0
73
0
74
0
7

75
0
147
1.0
148
0.0
149
0.0
100
AcDbLayout
1
Model
70
1
71
0
10
0.0
20
0.0
11
12.0
21
9.0
12
0.0
22
0.0
32
0.0
14
0.0
24
0.0
34
0.0
15
0.0
25
0.0
35
0.0
146
0.0
13
0.0
23
0.0
33
0.0
16
1.0
26
0.0
36
0.0
17
0.0
27
1.0
37
0.0
76
0
330
261
331
26B
0
MATERIAL
5
F83
102
{ACAD_XDICTIONARY
360
F84
102
}
102
{ACAD_REACTORS
330
F7A
102
}
330
F7A
100
AcDbMaterial
1
ByBlock
72
0
43
0.0208333333333333
43
0.0
43
0.0
43
0.0
43
0.0
43
0.0208333333333333
43
0.0
43
0.0
43
0.0
43
0.0
43
1.0
43
0.0
43
0.0
43
0.0
43
0.0
43
1.0
77
0
47
0.0208333333333333
47
0.0
47
0.0
47
0.0
47
0.0
47
0.0208333333333333
47
0.0
47
0.0
47
0.0
47
0.0
47
1.0
47
0.0
47
0.0
47
0.0
47
0.0
47
1.0
171
0
49
0.0208333333333333
49
0.0
49
0.0
49
0.0
49
0.0
49
0.0208333333333333
49
0.0
49
0.0
49
0.0
49
0.0
49
1.0
49
0.0
49
0.0
49
0.0
49
0.0
49
1.0
175
0
142
0.0208333333333333
142
0.0
142
0.0
142
0.0
142
0.0
142
0.0208333333333333
142
0.0
142
0.0
142
0.0
142
0.0
142
1.0
142
0.0
142
0.0
142
0.0
142
0.0
142
1.0
179
0
144
0.0208333333333333
144
0.0
144
0.0
144
0.0
144
0.0
144
0.0208333333333333
144
0.0
144
0.0
144
0.0
144
0.0
144
1.0
144
0.0
144
0.0
144
0.0
144
0.0
144
1.0
147
0.0208333333333333
147
0.0
147
0.0
147
0.0
147
0.0
147
0.0208333333333333
147
0.0
147
0.0
147
0.0
147
0.0
147
1.0
147
0.0
147
0.0
147
0.0
147
0.0
147
1.0
0
MATERIAL
5
F7B
102
{ACAD_XDICTIONARY
360
F7C
102
}
102
{ACAD_REACTORS
330
F7A
102
}
330
F7A
100
AcDbMaterial
1
ByLayer
72
0
43
0.0208333333333333
43
0.0
43
0.0
43
0.0
43
0.0
43
0.0208333333333333
43
0.0
43
0.0
43
0.0
43
0.0
43
1.0
43
0.0
43
0.0
43
0.0
43
0.0
43
1.0
77
0
47
0.0208333333333333
47
0.0
47
0.0
47
0.0
47
0.0
47
0.0208333333333333
47
0.0
47
0.0
47
0.0
47
0.0
47
1.0
47
0.0
47
0.0
47
0.0
47
0.0
47
1.0
171
0
49
0.0208333333333333
49
0.0
49
0.0
49
0.0
49
0.0
49
0.0208333333333333
49
0.0
49
0.0
49
0.0
49
0.0
49
1.0
49
0.0
49
0.0
49
0.0
49
0.0
49
1.0
175
0
142
0.0208333333333333
142
0.0
142
0.0
142
0.0
142
0.0
142
0.0208333333333333
142
0.0
142
0.0
142
0.0
142
0.0
142
1.0
142
0.0
142
0.0
142
0.0
142
0.0
142
1.0
179
0
144
0.0208333333333333
144
0.0
144
0.0
144
0.0
144
0.0
144
0.0208333333333333
144
0.0
144
0.0
144
0.0
144
0.0
144
1.0
144
0.0
144
0.0
144
0.0
144
0.0
144
1.0
147
0.0208333333333333
147
0.0
147
0.0
147
0.0
147
0.0
147
0.0208333333333333
147
0.0
147
0.0
147
0.0
147
0.0
147
1.0
147
0.0
147
0.0
147
0.0
147
0.0
147
1.0
0
MATERIAL
5
F8B
102
{ACAD_XDICTIONARY
360
F8C
102
}
102
{ACAD_REACTORS
330
F7A
102
}
330
F7A
100
AcDbMaterial
1
Global
72
0
43
0.0208333333333333
43
0.0
43
0.0
43
0.0
43
0.0
43
0.0208333333333333
43
0.0
43
0.0
43
0.0
43
0.0
43
1.0
43
0.0
43
0.0
43
0.0
43
0.0
43
1.0
77
0
47
0.0208333333333333
47
0.0
47
0.0
47
0.0
47
0.0
47
0.0208333333333333
47
0.0
47
0.0
47
0.0
47
0.0
47
1.0
47
0.0
47
0.0
47
0.0
47
0.0
47
1.0
171
0
49
0.0208333333333333
49
0.0
49
0.0
49
0.0
49
0.0
49
0.0208333333333333
49
0.0
49
0.0
49
0.0
49
0.0
49
1.0
49
0.0
49
0.0
49
0.0
49
0.0
49
1.0
175
0
142
0.0208333333333333
142
0.0
142
0.0
142
0.0
142
0.0
142
0.0208333333333333
142
0.0
142
0.0
142
0.0
142
0.0
142
1.0
142
0.0
142
0.0
142
0.0
142
0.0
142
1.0
179
0
144
0.0208333333333333
144
0.0
144
0.0
144
0.0
144
0.0
144
0.0208333333333333
144
0.0
144
0.0
144
0.0
144
0.0
144
1.0
144
0.0
144
0.0
144
0.0
144
0.0
144
1.0
147
0.0208333333333333
147
0.0
147
0.0
147
0.0
147
0.0
147
0.0208333333333333
147
0.0
147
0.0
147
0.0
147
0.0
147
1.0
147
0.0
147
0.0
147
0.0
147
0.0
147
1.0
0
MLEADERSTYLE
5
FCE
102
{ACAD_REACTORS
330
FCD
102
}
330
FCD
100
AcDbMLeaderStyle
170
2
171
1
172
0
90
2
40
0.0
41
0.0
173
1
91
-1056964608
340
256
92
-2
290
1
42
0.09
291
1
43
0.36
3
Standard
44
0.18
300

342
253
174
1
178
6
175
1
176
0
93
-1056964608
45
0.18
292
0
297
0
46
0.18
94
-1056964608
47
1.0
49
1.0
140
1.0
293
1
141
0.0
294
1
177
0
142
1.0
295
0
296
0
143
0.125
1001
ACAD_MLEADERVER
1070
2
0
MLINESTYLE
5
FAA
102
{ACAD_REACTORS
330
16
102
}
330
16
100
AcDbMlineStyle
2
STANDARD
70
0
3

62
256
51
90.0
52
90.0
71
2
49
0.5
62
256
6
BYLAYER
49
-0.5
62
256
6
BYLAYER
0
ACDBPLACEHOLDER
5
19
102
{ACAD_REACTORS
330
18
102
}
330
18
0
SCALE
5
FAC
102
{ACAD_REACTORS
330
FAB
102
}
330
FAB
100
AcDbScale
70
0
300
1:1
140
1.0
141
1.0
290
1
0
SCALE
5
FAD
102
{ACAD_REACTORS
330
FAB
102
}
330
FAB
100
AcDbScale
70
0
300
1:2
140
1.0
141
2.0
290
0
0
SCALE
5
FAE
102
{ACAD_REACTORS
330
FAB
102
}
330
FAB
100
AcDbScale
70
0
300
1:4
140
1.0
141
4.0
290
0
0
SCALE
5
FAF
102
{ACAD_REACTORS
330
FAB
102
}
330
FAB
100
AcDbScale
70
0
300
1:5
140
1.0
141
5.0
290
0
0
SCALE
5
FB0
102
{ACAD_REACTORS
330
FAB
102
}
330
FAB
100
AcDbScale
70
0
300
1:8
140
1.0
141
8.0
290
0
0
SCALE
5
FB1
102
{ACAD_REACTORS
330
FAB
102
}
330
FAB
100
AcDbScale
70
0
300
1:10
140
1.0
141
10.0
290
0
0
SCALE
5
FB2
102
{ACAD_REACTORS
330
FAB
102
}
330
FAB
100
AcDbScale
70
0
300
1:16
140
1.0
141
16.0
290
0
0
SCALE
5
FB3
102
{ACAD_REACTORS
330
FAB
102
}
330
FAB
100
AcDbScale
70
0
300
1:20
140
1.0
141
20.0
290
0
0
SCALE
5
FB4
102
{ACAD_REACTORS
330
FAB
102
}
330
FAB
100
AcDbScale
70
0
300
1:30
140
1.0
141
30.0
290
0
0
SCALE
5
FB5
102
{ACAD_REACTORS
330
FAB
102
}
330
FAB
100
AcDbScale
70
0
300
1:40
140
1.0
141
40.0
290
0
0
SCALE
5
FB6
102
{ACAD_REACTORS
330
FAB
102
}
330
FAB
100
AcDbScale
70
0
300
1:50
140
1.0
141
50.0
290
0
0
SCALE
5
FB7
102
{ACAD_REACTORS
330
FAB
102
}
330
FAB
100
AcDbScale
70
0
300
1:100
140
1.0
141
100.0
290
0
0
SCALE
5
FB8
102
{ACAD_REACTORS
330
FAB
102
}
330
FAB
100
AcDbScale
70
0
300
2:1
140
2.0
141
1.0
290
0
0
SCALE
5
FB9
102
{ACAD_REACTORS
330
FAB
102
}
330
FAB
100
AcDbScale
70
0
300
4:1
140
4.0
141
1.0
290
0
0
SCALE
5
FBA
102
{ACAD_REACTORS
330
FAB
102
}
330
FAB
100
AcDbScale
70
0
300
8:1
140
8.0
141
1.0
290
0
0
SCALE
5
FBB
102
{ACAD_REACTORS
330
FAB
102
}
330
FAB
100
AcDbScale
70
0
300
10:1
140
10.0
141
1.0
290
0
0
SCALE
5
FBC
102
{ACAD_REACTORS
330
FAB
102
}
330
FAB
100
AcDbScale
70
0
300
100:1
140
100.0
141
1.0
290
0
0
SCALE
5
FBD
102
{ACAD_REACTORS
330
FAB
102
}
330
FAB
100
AcDbScale
70
0
300
1/128" = 1'-0"
140
0.0078125
141
12.0
290
0
0
SCALE
5
FBE
102
{ACAD_REACTORS
330
FAB
102
}
330
FAB
100
AcDbScale
70
0
300
1/64" = 1'-0"
140
0.015625
141
12.0
290
0
0
SCALE
5
FBF
102
{ACAD_REACTORS
330
FAB
102
}
330
FAB
100
AcDbScale
70
0
300
1/32" = 1'-0"
140
0.03125
141
12.0
290
0
0
SCALE
5
FC0
102
{ACAD_REACTORS
330
FAB
102
}
330
FAB
100
AcDbScale
70
0
300
1/16" = 1'-0"
140
0.0625
141
12.0
290
0
0
SCALE
5
FC1
102
{ACAD_REACTORS
330
FAB
102
}
330
FAB
100
AcDbScale
70
0
300
3/32" = 1'-0"
140
0.09375
141
12.0
290
0
0
SCALE
5
FC2
102
{ACAD_REACTORS
330
FAB
102
}
330
FAB
100
AcDbScale
70
0
300
1/8" = 1'-0"
140
0.125
141
12.0
290
0
0
SCALE
5
FC3
102
{ACAD_REACTORS
330
FAB
102
}
330
FAB
100
AcDbScale
70
0
300
3/16" = 1'-0"
140
0.1875
141
12.0
290
0
0
SCALE
5
FC4
102
{ACAD_REACTORS
330
FAB
102
}
330
FAB
100
AcDbScale
70
0
300
1/4" = 1'-0"
140
0.25
141
12.0
290
0
0
SCALE
5
FC5
102
{ACAD_REACTORS
330
FAB
102
}
330
FAB
100
AcDbScale
70
0
300
3/8" = 1'-0"
140
0.375
141
12.0
290
0
0
SCALE
5
FC6
102
{ACAD_REACTORS
330
FAB
102
}
330
FAB
100
AcDbScale
70
0
300
1/2" = 1'-0"
140
0.5
141
12.0
290
0
0
SCALE
5
FC7
102
{ACAD_REACTORS
330
FAB
102
}
330
FAB
100
AcDbScale
70
0
300
3/4" = 1'-0"
140
0.75
141
12.0
290
0
0
SCALE
5
FC8
102
{ACAD_REACTORS
330
FAB
102
}
330
FAB
100
AcDbScale
70
0
300
1" = 1'-0"
140
1.0
141
12.0
290
0
0
SCALE
5
FC9
102
{ACAD_REACTORS
330
FAB
102
}
330
FAB
100
AcDbScale
70
0
300
1-1/2" = 1'-0"
140
1.5
141
12.0
290
0
0
SCALE
5
FCA
102
{ACAD_REACTORS
330
FAB
102
}
330
FAB
100
AcDbScale
70
0
300
3" = 1'-0"
140
3.0
141
12.0
290
0
0
SCALE
5
FCB
102
{ACAD_REACTORS
330
FAB
102
}
330
FAB
100
AcDbScale
70
0
300
6" = 1'-0"
140
6.0
141
12.0
290
0
0
SCALE
5
FCC
102
{ACAD_REACTORS
330
FAB
102
}
330
FAB
100
AcDbScale
70
0
300
1'-0" = 1'-0"
140
12.0
141
12.0
290
0
0
TABLESTYLE
5
FA9
102
{ACAD_XDICTIONARY
360
FF8
102
}
102
{ACAD_REACTORS
330
FA8
102
}
330
FA8
100
AcDbTableStyle
3
Standard
70
0
71
0
40
0.06
41
0.06
280
0
281
0
7
Standard
140
0.18
170
2
62
0
63
7
283
0
274
-2
284
1
64
0
275
-2
285
1
65
0
276
-2
286
1
66
0
277
-2
287
1
67
0
278
-2
288
1
68
0
279
-2
289
1
69
0
7
Standard
140
0.25
170
5
62
0
63
7
283
0
274
-2
284
1
64
0
275
-2
285
1
65
0
276
-2
286
1
66
0
277
-2
287
1
67
0
278
-2
288
1
68
0
279
-2
289
1
69
0
7
Standard
140
0.18
170
5
62
0
63
7
283
0
274
-2
284
1
64
0
275
-2
285
1
65
0
276
-2
286
1
66
0
277
-2
287
1
67
0
278
-2
288
1
68
0
279
-2
289
1
69
0
0
VISUALSTYLE
5
F99
102
{ACAD_XDICTIONARY
360
108A
102
}
102
{ACAD_REACTORS
330
F93
102
}
330
F93
100
AcDbVisualStyle
2

70
4
71
0
72
2
73
0
90
0
40
-0.6
41
-30.0
62
5
63
7
74
1
91
4
64
7
65
257
75
1
175
1
42
1.0
92
0
66
257
43
1.0
76
1
77
6
78
2
67
7
79
5
170
0
171
0
290
0
174
0
93
1
44
0.0
173
0
291
0
45
0.0
1001
ACAD
1000
AcDbSavedByObjectVersion
1070
0
0
VISUALSTYLE
5
F9B
102
{ACAD_XDICTIONARY
360
108E
102
}
102
{ACAD_REACTORS
330
F93
102
}
330
F93
100
AcDbVisualStyle
2

70
6
71
1
72
2
73
2
90
0
40
-0.6
41
-30.0
62
5
63
7
74
2
91
2
64
7
65
257
75
2
175
1
42
179.0
92
0
66
257
43
1.0
76
1
77
6
78
2
67
7
79
3
170
0
171
0
290
0
174
0
93
1
44
0.0
173
0
291
0
45
0.0
1001
ACAD
1000
AcDbSavedByObjectVersion
1070
0
0
VISUALSTYLE
5
F9A
102
{ACAD_XDICTIONARY
360
108C
102
}
102
{ACAD_REACTORS
330
F93
102
}
330
F93
100
AcDbVisualStyle
2

70
5
71
0
72
2
73
0
90
0
40
-0.6
41
-30.0
62
5
63
7
74
1
91
4
64
7
65
257
75
1
175
1
42
1.0
92
0
66
257
43
1.0
76
1
77
6
78
2
67
7
79
5
170
0
171
0
290
0
174
0
93
1
44
0.0
173
0
291
0
45
0.0
1001
ACAD
1000
AcDbSavedByObjectVersion
1070
0
0
VISUALSTYLE
5
F98
102
{ACAD_XDICTIONARY
360
1088
102
}
102
{ACAD_REACTORS
330
F93
102
}
330
F93
100
AcDbVisualStyle
2

70
7
71
1
72
0
73
1
90
0
40
-0.6
41
-30.0
62
5
63
7
74
0
91
4
64
7
65
257
75
1
175
1
42
1.0
92
8
66
7
43
1.0
76
1
77
6
78
2
67
7
79
5
170
0
171
0
290
0
174
0
93
1
44
0.0
173
0
291
1
45
0.0
1001
ACAD
1000
AcDbSavedByObjectVersion
1070
0
0
VISUALSTYLE
5
F9F
102
{ACAD_XDICTIONARY
360
1096
102
}
102
{ACAD_REACTORS
330
F93
102
}
330
F93
100
AcDbVisualStyle
2

70
12
71
2
72
2
73
0
90
0
40
-0.6
41
-30.0
62
5
63
7
74
1
91
4
64
7
65
257
75
1
175
1
42
1.0
92
8
66
7
43
1.0
76
1
77
6
78
2
67
7
79
5
170
0
171
0
290
0
174
0
93
1
44
50.0
173
0
291
1
45
0.0
1001
ACAD
1000
AcDbSavedByObjectVersion
1070
0
0
VISUALSTYLE
5
FA3
102
{ACAD_XDICTIONARY
360
109E
102
}
102
{ACAD_REACTORS
330
F93
102
}
330
F93
100
AcDbVisualStyle
2

70
16
71
2
72
2
73
3
90
0
40
-0.6
41
-30.0
62
5
63
8
74
1
91
4
64
7
65
257
75
1
175
1
42
1.0
92
8
66
8
43
1.0
76
1
77
6
78
2
67
7
79
5
170
0
171
0
290
0
174
0
93
1
44
0.0
173
0
291
1
45
0.0
1001
ACAD
1000
AcDbSavedByObjectVersion
1070
0
0
VISUALSTYLE
5
F9C
102
{ACAD_XDICTIONARY
360
1090
102
}
102
{ACAD_REACTORS
330
F93
102
}
330
F93
100
AcDbVisualStyle
2

70
9
71
3
72
2
73
0
90
0
40
-0.6
41
-30.0
62
5
63
7
74
2
91
2
64
7
65
257
75
1
175
1
42
179.0
92
8
66
7
43
1.0
76
1
77
6
78
2
67
7
79
3
170
0
171
0
290
0
174
0
93
1
44
0.0
173
0
291
0
45
0.0
1001
ACAD
1000
AcDbSavedByObjectVersion
1070
0
0
VISUALSTYLE
5
F9E
102
{ACAD_XDICTIONARY
360
1094
102
}
102
{ACAD_REACTORS
330
F93
102
}
330
F93
100
AcDbVisualStyle
2

70
11
71
2
72
2
73
0
90
0
40
-0.6
41
-30.0
62
5
63
7
74
1
91
4
64
7
65
257
75
1
175
1
42
1.0
92
8
66
7
43
1.0
76
1
77
6
78
2
67
7
79
5
170
0
171
0
290
0
174
0
93
1
44
-50.0
173
0
291
1
45
0.0
1001
ACAD
1000
AcDbSavedByObjectVersion
1070
0
0
VISUALSTYLE
5
FA6
102
{ACAD_XDICTIONARY
360
10A4
102
}
102
{ACAD_REACTORS
330
F93
102
}
330
F93
100
AcDbVisualStyle
2

70
22
71
2
72
2
73
0
90
0
40
-0.6
41
-30.0
62
5
63
7
74
1
91
4
64
7
65
257
75
1
175
1
42
1.0
92
8
66
7
43
1.0
76
1
77
6
78
2
67
7
79
5
170
0
171
0
290
0
174
0
93
1
44
0.0
173
0
291
1
45
0.0
1001
ACAD
1000
AcDbSavedByObjectVersion
1070
0
0
VISUALSTYLE
5
FA2
102
{ACAD_XDICTIONARY
360
109C
102
}
102
{ACAD_REACTORS
330
F93
102
}
330
F93
100
AcDbVisualStyle
2

70
15
71
2
72
2
73
0
90
0
40
-0.6
41
-30.0
62
5
63
7
74
1
91
4
64
7
65
257
75
1
175
1
42
1.0
92
8
66
7
43
1.0
76
1
77
6
78
2
67
7
79
5
170
0
171
0
290
0
174
0
93
1
44
0.0
173
0
291
1
45
0.0
1001
ACAD
1000
AcDbSavedByObjectVersion
1070
0
0
VISUALSTYLE
5
F94
102
{ACAD_XDICTIONARY
360
1080
102
}
102
{ACAD_REACTORS
330
F93
102
}
330
F93
100
AcDbVisualStyle
2

70
0
71
2
72
1
73
1
90
2
40
-0.6
41
30.0
62
5
63
7
74
0
91
4
64
7
65
257
75
1
175
1
42
1.0
92
8
66
7
43
1.0
76
1
77
6
78
2
67
7
79
5
170
0
171
0
290
0
174
0
93
13
44
0.0
173
0
291
1
45
0.0
1001
ACAD
1000
AcDbSavedByObjectVersion
1070
0
0
VISUALSTYLE
5
F95
102
{ACAD_XDICTIONARY
360
1082
102
}
102
{ACAD_REACTORS
330
F93
102
}
330
F93
100
AcDbVisualStyle
2

70
1
71
2
72
1
73
1
90
2
40
-0.6
41
30.0
62
5
63
7
74
1
91
4
64
7
65
257
75
1
175
1
42
1.0
92
0
66
257
43
1.0
76
1
77
6
78
2
67
7
79
5
170
0
171
0
290
0
174
0
93
13
44
0.0
173
0
291
1
45
0.0
1001
ACAD
1000
AcDbSavedByObjectVersion
1070
0
0
VISUALSTYLE
5
F96
102
{ACAD_XDICTIONARY
360
1084
102
}
102
{ACAD_REACTORS
330
F93
102
}
330
F93
100
AcDbVisualStyle
2

70
2
71
2
72
2
73
1
90
2
40
-0.6
41
30.0
62
5
63
7
74
0
91
4
64
7
65
257
75
1
175
1
42
1.0
92
0
66
7
43
1.0
76
1
77
6
78
2
67
7
79
5
170
0
171
0
290
0
174
0
93
13
44
0.0
173
0
291
1
45
0.0
1001
ACAD
1000
AcDbSavedByObjectVersion
1070
0
0
VISUALSTYLE
5
F97
102
{ACAD_XDICTIONARY
360
1086
102
}
102
{ACAD_REACTORS
330
F93
102
}
330
F93
100
AcDbVisualStyle
2

70
3
71
2
72
2
73
1
90
2
40
-0.6
41
30.0
62
5
63
7
74
1
91
4
64
7
65
257
75
1
175
1
42
1.0
92
0
66
257
43
1.0
76
1
77
6
78
2
67
7
79
5
170
0
171
0
290
0
174
0
93
13
44
0.0
173
0
291
1
45
0.0
1001
ACAD
1000
AcDbSavedByObjectVersion
1070
0
0
VISUALSTYLE
5
FA4
102
{ACAD_XDICTIONARY
360
10A0
102
}
102
{ACAD_REACTORS
330
F93
102
}
330
F93
100
AcDbVisualStyle
2

70
20
71
2
72
2
73
0
90
0
40
-0.6
41
-30.0
62
5
63
7
74
1
91
4
64
7
65
257
75
1
175
1
42
1.0
92
10
66
7
43
1.0
76
1
77
6
78
2
67
7
79
5
170
0
171
0
290
0
174
0
93
1
44
0.0
173
0
291
1
45
0.0
1001
ACAD
1000
AcDbSavedByObjectVersion
1070
0
0
VISUALSTYLE
5
FA1
102
{ACAD_XDICTIONARY
360
109A
102
}
102
{ACAD_REACTORS
330
F93
102
}
330
F93
100
AcDbVisualStyle
2

70
14
71
2
72
2
73
0
90
0
40
-0.6
41
-30.0
62
5
63
7
74
1
91
4
64
7
65
257
75
7
175
7
42
1.0
92
8
66
7
43
1.0
76
1
77
6
78
2
67
7
79
5
170
0
171
0
290
0
174
0
93
1
44
0.0
173
0
291
1
45
0.0
1001
ACAD
1000
AcDbSavedByObjectVersion
1070
0
0
VISUALSTYLE
5
FA5
102
{ACAD_XDICTIONARY
360
10A2
102
}
102
{ACAD_REACTORS
330
F93
102
}
330
F93
100
AcDbVisualStyle
2

70
21
71
2
72
2
73
0
90
0
40
-0.6
41
-30.0
62
5
63
7
74
1
91
4
64
7
65
257
75
1
175
1
42
1.0
92
9
66
7
43
1.0
76
1
77
6
78
2
67
7
79
5
170
0
171
0
290
0
174
0
93
1
44
0.0
173
0
291
1
45
0.0
1001
ACAD
1000
AcDbSavedByObjectVersion
1070
0
0
VISUALSTYLE
5
F9D
102
{ACAD_XDICTIONARY
360
1092
102
}
102
{ACAD_REACTORS
330
F93
102
}
330
F93
100
AcDbVisualStyle
2

70
8
71
2
72
2
73
0
90
0
40
-0.6
41
-30.0
62
5
63
7
74
1
91
0
64
7
65
257
75
1
175
1
42
1.0
92
8
66
8
43
1.0
76
1
77
6
78
2
67
7
79
5
170
0
171
0
290
0
174
0
93
13
44
0.0
173
0
291
0
45
0.0
1001
ACAD
1000
AcDbSavedByObjectVersion
1070
0
0
VISUALSTYLE
5
FA0
102
{ACAD_XDICTIONARY
360
1098
102
}
102
{ACAD_REACTORS
330
F93
102
}
330
F93
100
AcDbVisualStyle
2

70
13
71
2
72
2
73
0
90
0
40
-0.6
41
-30.0
62
5
63
7
74
1
91
4
64
7
65
257
75
1
175
1
42
1.0
92
12
66
7
43
1.0
76
1
77
6
78
2
67
7
79
5
170
0
171
0
290
0
174
0
93
1
44
0.0
173
0
291
1
45
0.0
1001
ACAD
1000
AcDbSavedByObjectVersion
1070
0
0
DICTIONARYVAR
5
FF3
102
{ACAD_REACTORS
330
FF0
102
}
330
FF0
100
DictionaryVariables
280
0
1
1:1
0
DICTIONARYVAR
5
FF2
102
{ACAD_REACTORS
330
FF0
102
}
330
FF0
100
DictionaryVariables
280
0
1
STANDARD
0
DICTIONARYVAR
5
FF1
102
{ACAD_REACTORS
330
FF0
102
}
330
FF0
100
DictionaryVariables
280
0
1
STANDARD
0
DICTIONARYVAR
5
FF6
102
{ACAD_REACTORS
330
FF0
102
}
330
FF0
100
DictionaryVariables
280
0
1
1
0
DICTIONARYVAR
5
FF5
102
{ACAD_REACTORS
330
FF0
102
}
330
FF0
100
DictionaryVariables
280
0
1
0
0
DICTIONARYVAR
5
FF4
102
{ACAD_REACTORS
330
FF0
102
}
330
FF0
100
DictionaryVariables
280
0
1
127
0
DICTIONARYVAR
5
1078
102
{ACAD_REACTORS
330
FF0
102
}
330
FF0
100
DictionaryVariables
280
0
1
2
0
DICTIONARY
5
10A9
330
FD1
100
AcDbDictionary
280
1
281
1
3
ACAD_XREC_ROUNDTRIP
360
10AA
0
DICTIONARY
5
10A7
330
FD0
100
AcDbDictionary
280
1
281
1
3
ACAD_XREC_ROUNDTRIP
360
10A8
0
DICTIONARY
5
F84
330
F83
100
AcDbDictionary
280
1
281
1
3
ACAD_XREC_ROUNDTRIP
360
FFF
3
BUMPTILE
360
F86
3
DIFFUSETILE
360
F85
3
OPACITYTILE
360
F89
3
REFLECTIONTILE
360
F88
3
REFRACTIONTILE
360
F8A
3
SPECULARTILE
360
F87
0
DICTIONARY
5
F7C
330
F7B
100
AcDbDictionary
280
1
281
1
3
ACAD_XREC_ROUNDTRIP
360
FFE
3
BUMPTILE
360
F7E
3
DIFFUSETILE
360
F7D
3
OPACITYTILE
360
F81
3
REFLECTIONTILE
360
F80
3
REFRACTIONTILE
360
F82
3
SPECULARTILE
360
F7F
0
DICTIONARY
5
F8C
330
F8B
100
AcDbDictionary
280
1
281
1
3
ACAD_XREC_ROUNDTRIP
360
1000
3
BUMPTILE
360
F8E
3
DIFFUSETILE
360
F8D
3
OPACITYTILE
360
F91
3
REFLECTIONTILE
360
F90
3
REFRACTIONTILE
360
F92
3
SPECULARTILE
360
F8F
0
DICTIONARY
5
FF8
330
FA9
100
AcDbDictionary
280
1
281
1
3
ACAD_ROUNDTRIP_2008_TABLESTYLE_CELLSTYLEMAP
360
1079
3
ACAD_XREC_ROUNDTRIP
360
10A6
0
DICTIONARY
5
108A
330
F99
100
AcDbDictionary
280
1
281
1
3
ACAD_XREC_ROUNDTRIP
360
108B
0
DICTIONARY
5
108E
330
F9B
100
AcDbDictionary
280
1
281
1
3
ACAD_XREC_ROUNDTRIP
360
108F
0
DICTIONARY
5
108C
330
F9A
100
AcDbDictionary
280
1
281
1
3
ACAD_XREC_ROUNDTRIP
360
108D
0
DICTIONARY
5
1088
330
F98
100
AcDbDictionary
280
1
281
1
3
ACAD_XREC_ROUNDTRIP
360
1089
0
DICTIONARY
5
1096
330
F9F
100
AcDbDictionary
280
1
281
1
3
ACAD_XREC_ROUNDTRIP
360
1097
0
DICTIONARY
5
109E
330
FA3
100
AcDbDictionary
280
1
281
1
3
ACAD_XREC_ROUNDTRIP
360
109F
0
DICTIONARY
5
1090
330
F9C
100
AcDbDictionary
280
1
281
1
3
ACAD_XREC_ROUNDTRIP
360
1091
0
DICTIONARY
5
1094
330
F9E
100
AcDbDictionary
280
1
281
1
3
ACAD_XREC_ROUNDTRIP
360
1095
0
DICTIONARY
5
10A4
330
FA6
100
AcDbDictionary
280
1
281
1
3
ACAD_XREC_ROUNDTRIP
360
10A5
0
DICTIONARY
5
109C
330
FA2
100
AcDbDictionary
280
1
281
1
3
ACAD_XREC_ROUNDTRIP
360
109D
0
DICTIONARY
5
1080
330
F94
100
AcDbDictionary
280
1
281
1
3
ACAD_XREC_ROUNDTRIP
360
1081
0
DICTIONARY
5
1082
330
F95
100
AcDbDictionary
280
1
281
1
3
ACAD_XREC_ROUNDTRIP
360
1083
0
DICTIONARY
5
1084
330
F96
100
AcDbDictionary
280
1
281
1
3
ACAD_XREC_ROUNDTRIP
360
1085
0
DICTIONARY
5
1086
330
F97
100
AcDbDictionary
280
1
281
1
3
ACAD_XREC_ROUNDTRIP
360
1087
0
DICTIONARY
5
10A0
330
FA4
100
AcDbDictionary
280
1
281
1
3
ACAD_XREC_ROUNDTRIP
360
10A1
0
DICTIONARY
5
109A
330
FA1
100
AcDbDictionary
280
1
281
1
3
ACAD_XREC_ROUNDTRIP
360
109B
0
DICTIONARY
5
10A2
330
FA5
100
AcDbDictionary
280
1
281
1
3
ACAD_XREC_ROUNDTRIP
360
10A3
0
DICTIONARY
5
1092
330
F9D
100
AcDbDictionary
280
1
281
1
3
ACAD_XREC_ROUNDTRIP
360
1093
0
DICTIONARY
5
1098
330
FA0
100
AcDbDictionary
280
1
281
1
3
ACAD_XREC_ROUNDTRIP
360
1099
0
XRECORD
5
10AA
102
{ACAD_REACTORS
330
10A9
102
}
330
10A9
100
AcDbXrecord
280
1
102
SHADEPLOT
70
0
102
SHADEPLOTRESLEVEL
70
2
102
SHADEPLOTCUSTOMDPI
70
300
0
XRECORD
5
10A8
102
{ACAD_REACTORS
330
10A7
102
}
330
10A7
100
AcDbXrecord
280
1
102
SHADEPLOT
70
0
102
SHADEPLOTRESLEVEL
70
2
102
SHADEPLOTCUSTOMDPI
70
300
0
XRECORD
5
FFF
102
{ACAD_REACTORS
330
F84
102
}
330
F84
100
AcDbXrecord
280
1
102
MATERIAL
148
0.0
149
0.0
149
0.0
93
0
94
127
282
0
72
0
77
0
171
0
175
0
179
0
273
0
0
XRECORD
5
F86
102
{ACAD_REACTORS
330
F84
102
}
330
F84
100
AcDbXrecord
280
1
270
1
271
1
0
XRECORD
5
F85
102
{ACAD_REACTORS
330
F84
102
}
330
F84
100
AcDbXrecord
280
1
270
1
271
1
0
XRECORD
5
F89
102
{ACAD_REACTORS
330
F84
102
}
330
F84
100
AcDbXrecord
280
1
270
1
271
1
0
XRECORD
5
F88
102
{ACAD_REACTORS
330
F84
102
}
330
F84
100
AcDbXrecord
280
1
270
1
271
1
0
XRECORD
5
F8A
102
{ACAD_REACTORS
330
F84
102
}
330
F84
100
AcDbXrecord
280
1
270
1
271
1
0
XRECORD
5
F87
102
{ACAD_REACTORS
330
F84
102
}
330
F84
100
AcDbXrecord
280
1
270
1
271
1
0
XRECORD
5
FFE
102
{ACAD_REACTORS
330
F7C
102
}
330
F7C
100
AcDbXrecord
280
1
102
MATERIAL
148
0.0
149
0.0
149
0.0
93
0
94
127
282
0
72
0
77
0
171
0
175
0
179
0
273
0
0
XRECORD
5
F7E
102
{ACAD_REACTORS
330
F7C
102
}
330
F7C
100
AcDbXrecord
280
1
270
1
271
1
0
XRECORD
5
F7D
102
{ACAD_REACTORS
330
F7C
102
}
330
F7C
100
AcDbXrecord
280
1
270
1
271
1
0
XRECORD
5
F81
102
{ACAD_REACTORS
330
F7C
102
}
330
F7C
100
AcDbXrecord
280
1
270
1
271
1
0
XRECORD
5
F80
102
{ACAD_REACTORS
330
F7C
102
}
330
F7C
100
AcDbXrecord
280
1
270
1
271
1
0
XRECORD
5
F82
102
{ACAD_REACTORS
330
F7C
102
}
330
F7C
100
AcDbXrecord
280
1
270
1
271
1
0
XRECORD
5
F7F
102
{ACAD_REACTORS
330
F7C
102
}
330
F7C
100
AcDbXrecord
280
1
270
1
271
1
0
XRECORD
5
1000
102
{ACAD_REACTORS
330
F8C
102
}
330
F8C
100
AcDbXrecord
280
1
102
MATERIAL
148
0.0
149
0.0
149
0.0
93
0
94
127
282
0
72
0
77
0
171
0
175
0
179
0
273
0
0
XRECORD
5
F8E
102
{ACAD_REACTORS
330
F8C
102
}
330
F8C
100
AcDbXrecord
280
1
270
1
271
1
0
XRECORD
5
F8D
102
{ACAD_REACTORS
330
F8C
102
}
330
F8C
100
AcDbXrecord
280
1
270
1
271
1
0
XRECORD
5
F91
102
{ACAD_REACTORS
330
F8C
102
}
330
F8C
100
AcDbXrecord
280
1
270
1
271
1
0
XRECORD
5
F90
102
{ACAD_REACTORS
330
F8C
102
}
330
F8C
100
AcDbXrecord
280
1
270
1
271
1
0
XRECORD
5
F92
102
{ACAD_REACTORS
330
F8C
102
}
330
F8C
100
AcDbXrecord
280
1
270
1
271
1
0
XRECORD
5
F8F
102
{ACAD_REACTORS
330
F8C
102
}
330
F8C
100
AcDbXrecord
280
1
270
1
271
1
0
CELLSTYLEMAP
5
1079
102
{ACAD_REACTORS
330
FF8
102
}
330
FF8
100
AcDbCellStyleMap
90
3
300
CELLSTYLE
1
TABLEFORMAT_BEGIN
90
5
170
1
91
0
92
32768
62
257
93
1
300
CONTENTFORMAT
1
CONTENTFORMAT_BEGIN
90
0
91
0
92
512
93
0
300

40
0.0
140
1.0
94
5
62
0
340
253
144
0.25
309
CONTENTFORMAT_END
171
1
301
MARGIN
1
CELLMARGIN_BEGIN
40
0.06
40
0.06
40
0.06
40
0.06
40
0.18
40
0.18
309
CELLMARGIN_END
94
6
95
1
302
GRIDFORMAT
1
GRIDFORMAT_BEGIN
90
0
91
1
62
0
92
-2
340
0
93
0
40
0.045
309
GRIDFORMAT_END
95
2
302
GRIDFORMAT
1
GRIDFORMAT_BEGIN
90
0
91
1
62
0
92
-2
340
0
93
0
40
0.045
309
GRIDFORMAT_END
95
4
302
GRIDFORMAT
1
GRIDFORMAT_BEGIN
90
0
91
1
62
0
92
-2
340
0
93
0
40
0.045
309
GRIDFORMAT_END
95
8
302
GRIDFORMAT
1
GRIDFORMAT_BEGIN
90
0
91
1
62
0
92
-2
340
0
93
0
40
0.045
309
GRIDFORMAT_END
95
16
302
GRIDFORMAT
1
GRIDFORMAT_BEGIN
90
0
91
1
62
0
92
-2
340
0
93
0
40
0.045
309
GRIDFORMAT_END
95
32
302
GRIDFORMAT
1
GRIDFORMAT_BEGIN
90
0
91
1
62
0
92
-2
340
0
93
0
40
0.045
309
GRIDFORMAT_END
309
TABLEFORMAT_END
1
CELLSTYLE_BEGIN
90
1
91
1
300
_TITLE
309
CELLSTYLE_END
300
CELLSTYLE
1
TABLEFORMAT_BEGIN
90
5
170
1
91
0
92
0
62
257
93
1
300
CONTENTFORMAT
1
CONTENTFORMAT_BEGIN
90
0
91
0
92
512
93
0
300

40
0.0
140
1.0
94
5
62
0
340
253
144
0.18
309
CONTENTFORMAT_END
171
1
301
MARGIN
1
CELLMARGIN_BEGIN
40
0.06
40
0.06
40
0.06
40
0.06
40
0.18
40
0.18
309
CELLMARGIN_END
94
6
95
1
302
GRIDFORMAT
1
GRIDFORMAT_BEGIN
90
0
91
1
62
0
92
-2
340
0
93
0
40
0.045
309
GRIDFORMAT_END
95
2
302
GRIDFORMAT
1
GRIDFORMAT_BEGIN
90
0
91
1
62
0
92
-2
340
0
93
0
40
0.045
309
GRIDFORMAT_END
95
4
302
GRIDFORMAT
1
GRIDFORMAT_BEGIN
90
0
91
1
62
0
92
-2
340
0
93
0
40
0.045
309
GRIDFORMAT_END
95
8
302
GRIDFORMAT
1
GRIDFORMAT_BEGIN
90
0
91
1
62
0
92
-2
340
0
93
0
40
0.045
309
GRIDFORMAT_END
95
16
302
GRIDFORMAT
1
GRIDFORMAT_BEGIN
90
0
91
1
62
0
92
-2
340
0
93
0
40
0.045
309
GRIDFORMAT_END
95
32
302
GRIDFORMAT
1
GRIDFORMAT_BEGIN
90
0
91
1
62
0
92
-2
340
0
93
0
40
0.045
309
GRIDFORMAT_END
309
TABLEFORMAT_END
1
CELLSTYLE_BEGIN
90
2
91
1
300
_HEADER
309
CELLSTYLE_END
300
CELLSTYLE
1
TABLEFORMAT_BEGIN
90
5
170
1
91
0
92
0
62
257
93
1
300
CONTENTFORMAT
1
CONTENTFORMAT_BEGIN
90
0
91
0
92
512
93
0
300

40
0.0
140
1.0
94
2
62
0
340
253
144
0.18
309
CONTENTFORMAT_END
171
1
301
MARGIN
1
CELLMARGIN_BEGIN
40
0.06
40
0.06
40
0.06
40
0.06
40
0.18
40
0.18
309
CELLMARGIN_END
94
6
95
1
302
GRIDFORMAT
1
GRIDFORMAT_BEGIN
90
0
91
1
62
0
92
-2
340
0
93
0
40
0.045
309
GRIDFORMAT_END
95
2
302
GRIDFORMAT
1
GRIDFORMAT_BEGIN
90
0
91
1
62
0
92
-2
340
0
93
0
40
0.045
309
GRIDFORMAT_END
95
4
302
GRIDFORMAT
1
GRIDFORMAT_BEGIN
90
0
91
1
62
0
92
-2
340
0
93
0
40
0.045
309
GRIDFORMAT_END
95
8
302
GRIDFORMAT
1
GRIDFORMAT_BEGIN
90
0
91
1
62
0
92
-2
340
0
93
0
40
0.045
309
GRIDFORMAT_END
95
16
302
GRIDFORMAT
1
GRIDFORMAT_BEGIN
90
0
91
1
62
0
92
-2
340
0
93
0
40
0.045
309
GRIDFORMAT_END
95
32
302
GRIDFORMAT
1
GRIDFORMAT_BEGIN
90
0
91
1
62
0
92
-2
340
0
93
0
40
0.045
309
GRIDFORMAT_END
309
TABLEFORMAT_END
1
CELLSTYLE_BEGIN
90
3
91
2
300
_DATA
309
CELLSTYLE_END
0
XRECORD
5
10A6
102
{ACAD_REACTORS
330
FF8
102
}
330
FF8
100
AcDbXrecord
280
1
102
ACAD_ROUNDTRIP_PRE2007_TABLESTYLE
90
512
91
0
1

92
512
93
0
2

94
512
95
0
3

0
XRECORD
5
108B
102
{ACAD_REACTORS
330
108A
102
}
330
108A
100
AcDbXrecord
280
1
102
RTVSPropertyOp0
70
1
102
RTVSPropertyOp1
70
1
102
RTVSPropertyOp2
70
1
102
RTVSPropertyOp3
70
1
102
RTVSPropertyOp4
70
1
102
RTVSPropertyOp5
70
1
102
RTVSPropertyOp6
70
1
102
RTVSPropertyOp7
70
1
102
RTVSPropertyOp8
70
1
102
RTVSPropertyOp9
70
1
102
RTVSPropertyOp10
70
1
102
RTVSPropertyOp11
70
1
102
RTVSPropertyOp12
70
1
102
RTVSPropertyOp13
70
1
102
RTVSPropertyOp14
70
1
102
RTVSPropertyOp15
70
1
102
RTVSPropertyOp16
70
1
102
RTVSPropertyOp17
70
1
102
RTVSPropertyOp18
70
1
102
RTVSPropertyOp19
70
1
102
RTVSPropertyOp20
70
1
102
RTVSPropertyOp21
70
1
102
RTVSPropertyOp22
70
1
102
RTVSPropertyOp23
70
1
102
RTVSPropertyOp24
70
1
102
RTVSPropertyOp25
70
1
102
RTVSPropertyOp26
70
1
102
RTVSPropertyOp27
70
1
0
XRECORD
5
108F
102
{ACAD_REACTORS
330
108E
102
}
330
108E
100
AcDbXrecord
280
1
102
RTVSPropertyOp0
70
1
102
RTVSPropertyOp1
70
1
102
RTVSPropertyOp2
70
1
102
RTVSPropertyOp3
70
1
102
RTVSPropertyOp4
70
1
102
RTVSPropertyOp5
70
1
102
RTVSPropertyOp6
70
1
102
RTVSPropertyOp7
70
1
102
RTVSPropertyOp8
70
1
102
RTVSPropertyOp9
70
1
102
RTVSPropertyOp10
70
1
102
RTVSPropertyOp11
70
1
102
RTVSPropertyOp12
70
1
102
RTVSPropertyOp13
70
1
102
RTVSPropertyOp14
70
1
102
RTVSPropertyOp15
70
1
102
RTVSPropertyOp16
70
1
102
RTVSPropertyOp17
70
1
102
RTVSPropertyOp18
70
1
102
RTVSPropertyOp19
70
1
102
RTVSPropertyOp20
70
1
102
RTVSPropertyOp21
70
1
102
RTVSPropertyOp22
70
1
102
RTVSPropertyOp23
70
1
102
RTVSPropertyOp24
70
1
102
RTVSPropertyOp25
70
1
102
RTVSPropertyOp26
70
1
102
RTVSPropertyOp27
70
1
0
XRECORD
5
108D
102
{ACAD_REACTORS
330
108C
102
}
330
108C
100
AcDbXrecord
280
1
102
RTVSPropertyOp0
70
1
102
RTVSPropertyOp1
70
1
102
RTVSPropertyOp2
70
1
102
RTVSPropertyOp3
70
1
102
RTVSPropertyOp4
70
1
102
RTVSPropertyOp5
70
1
102
RTVSPropertyOp6
70
1
102
RTVSPropertyOp7
70
1
102
RTVSPropertyOp8
70
1
102
RTVSPropertyOp9
70
1
102
RTVSPropertyOp10
70
1
102
RTVSPropertyOp11
70
1
102
RTVSPropertyOp12
70
1
102
RTVSPropertyOp13
70
1
102
RTVSPropertyOp14
70
1
102
RTVSPropertyOp15
70
1
102
RTVSPropertyOp16
70
1
102
RTVSPropertyOp17
70
1
102
RTVSPropertyOp18
70
1
102
RTVSPropertyOp19
70
1
102
RTVSPropertyOp20
70
1
102
RTVSPropertyOp21
70
1
102
RTVSPropertyOp22
70
1
102
RTVSPropertyOp23
70
1
102
RTVSPropertyOp24
70
1
102
RTVSPropertyOp25
70
1
102
RTVSPropertyOp26
70
1
102
RTVSPropertyOp27
70
1
0
XRECORD
5
1089
102
{ACAD_REACTORS
330
1088
102
}
330
1088
100
AcDbXrecord
280
1
102
RTVSPropertyOp0
70
1
102
RTVSPropertyOp1
70
1
102
RTVSPropertyOp2
70
1
102
RTVSPropertyOp3
70
1
102
RTVSPropertyOp4
70
1
102
RTVSPropertyOp5
70
1
102
RTVSPropertyOp6
70
1
102
RTVSPropertyOp7
70
1
102
RTVSPropertyOp8
70
1
102
RTVSPropertyOp9
70
1
102
RTVSPropertyOp10
70
1
102
RTVSPropertyOp11
70
1
102
RTVSPropertyOp12
70
1
102
RTVSPropertyOp13
70
1
102
RTVSPropertyOp14
70
1
102
RTVSPropertyOp15
70
1
102
RTVSPropertyOp16
70
1
102
RTVSPropertyOp17
70
1
102
RTVSPropertyOp18
70
1
102
RTVSPropertyOp19
70
1
102
RTVSPropertyOp20
70
1
102
RTVSPropertyOp21
70
1
102
RTVSPropertyOp22
70
1
102
RTVSPropertyOp23
70
1
102
RTVSPropertyOp24
70
1
102
RTVSPropertyOp25
70
1
102
RTVSPropertyOp26
70
1
102
RTVSPropertyOp27
70
1
0
XRECORD
5
1097
102
{ACAD_REACTORS
330
1096
102
}
330
1096
100
AcDbXrecord
280
1
102
RTVSPropertyOp0
70
1
102
RTVSPropertyOp1
70
1
102
RTVSPropertyOp2
70
1
102
RTVSPropertyOp3
70
1
102
RTVSPropertyOp4
70
1
102
RTVSPropertyOp5
70
1
102
RTVSPropertyOp6
70
1
102
RTVSPropertyOp7
70
1
102
RTVSPropertyOp8
70
1
102
RTVSPropertyOp9
70
1
102
RTVSPropertyOp10
70
1
102
RTVSPropertyOp11
70
1
102
RTVSPropertyOp12
70
1
102
RTVSPropertyOp13
70
1
102
RTVSPropertyOp14
70
1
102
RTVSPropertyOp15
70
1
102
RTVSPropertyOp16
70
1
102
RTVSPropertyOp17
70
1
102
RTVSPropertyOp18
70
1
102
RTVSPropertyOp19
70
1
102
RTVSPropertyOp20
70
1
102
RTVSPropertyOp21
70
1
102
RTVSPropertyOp22
70
1
102
RTVSPropertyOp23
70
1
102
RTVSPropertyOp24
70
1
102
RTVSPropertyOp25
70
1
102
RTVSPropertyOp26
70
1
102
RTVSPropertyOp27
70
1
0
XRECORD
5
109F
102
{ACAD_REACTORS
330
109E
102
}
330
109E
100
AcDbXrecord
280
1
102
RTVSPropertyOp0
70
1
102
RTVSPropertyOp1
70
1
102
RTVSPropertyOp2
70
1
102
RTVSPropertyOp3
70
1
102
RTVSPropertyOp4
70
1
102
RTVSPropertyOp5
70
1
102
RTVSPropertyOp6
70
1
102
RTVSPropertyOp7
70
1
102
RTVSPropertyOp8
70
1
102
RTVSPropertyOp9
70
1
102
RTVSPropertyOp10
70
1
102
RTVSPropertyOp11
70
1
102
RTVSPropertyOp12
70
1
102
RTVSPropertyOp13
70
1
102
RTVSPropertyOp14
70
1
102
RTVSPropertyOp15
70
1
102
RTVSPropertyOp16
70
1
102
RTVSPropertyOp17
70
1
102
RTVSPropertyOp18
70
1
102
RTVSPropertyOp19
70
1
102
RTVSPropertyOp20
70
1
102
RTVSPropertyOp21
70
1
102
RTVSPropertyOp22
70
1
102
RTVSPropertyOp23
70
1
102
RTVSPropertyOp24
70
1
102
RTVSPropertyOp25
70
1
102
RTVSPropertyOp26
70
1
102
RTVSPropertyOp27
70
1
0
XRECORD
5
1091
102
{ACAD_REACTORS
330
1090
102
}
330
1090
100
AcDbXrecord
280
1
102
RTVSPropertyOp0
70
1
102
RTVSPropertyOp1
70
1
102
RTVSPropertyOp2
70
1
102
RTVSPropertyOp3
70
1
102
RTVSPropertyOp4
70
1
102
RTVSPropertyOp5
70
1
102
RTVSPropertyOp6
70
1
102
RTVSPropertyOp7
70
1
102
RTVSPropertyOp8
70
1
102
RTVSPropertyOp9
70
1
102
RTVSPropertyOp10
70
1
102
RTVSPropertyOp11
70
1
102
RTVSPropertyOp12
70
1
102
RTVSPropertyOp13
70
1
102
RTVSPropertyOp14
70
1
102
RTVSPropertyOp15
70
1
102
RTVSPropertyOp16
70
1
102
RTVSPropertyOp17
70
1
102
RTVSPropertyOp18
70
1
102
RTVSPropertyOp19
70
1
102
RTVSPropertyOp20
70
1
102
RTVSPropertyOp21
70
1
102
RTVSPropertyOp22
70
1
102
RTVSPropertyOp23
70
1
102
RTVSPropertyOp24
70
1
102
RTVSPropertyOp25
70
1
102
RTVSPropertyOp26
70
1
102
RTVSPropertyOp27
70
1
0
XRECORD
5
1095
102
{ACAD_REACTORS
330
1094
102
}
330
1094
100
AcDbXrecord
280
1
102
RTVSPropertyOp0
70
1
102
RTVSPropertyOp1
70
1
102
RTVSPropertyOp2
70
1
102
RTVSPropertyOp3
70
1
102
RTVSPropertyOp4
70
1
102
RTVSPropertyOp5
70
1
102
RTVSPropertyOp6
70
1
102
RTVSPropertyOp7
70
1
102
RTVSPropertyOp8
70
1
102
RTVSPropertyOp9
70
1
102
RTVSPropertyOp10
70
1
102
RTVSPropertyOp11
70
1
102
RTVSPropertyOp12
70
1
102
RTVSPropertyOp13
70
1
102
RTVSPropertyOp14
70
1
102
RTVSPropertyOp15
70
1
102
RTVSPropertyOp16
70
1
102
RTVSPropertyOp17
70
1
102
RTVSPropertyOp18
70
1
102
RTVSPropertyOp19
70
1
102
RTVSPropertyOp20
70
1
102
RTVSPropertyOp21
70
1
102
RTVSPropertyOp22
70
1
102
RTVSPropertyOp23
70
1
102
RTVSPropertyOp24
70
1
102
RTVSPropertyOp25
70
1
102
RTVSPropertyOp26
70
1
102
RTVSPropertyOp27
70
1
0
XRECORD
5
10A5
102
{ACAD_REACTORS
330
10A4
102
}
330
10A4
100
AcDbXrecord
280
1
102
RTVSPropertyOp0
70
0
102
RTVSPropertyOp1
70
0
102
RTVSPropertyOp2
70
0
102
RTVSPropertyOp3
70
0
102
RTVSPropertyOp4
70
0
102
RTVSPropertyOp5
70
0
102
RTVSPropertyOp6
70
0
102
RTVSPropertyOp7
70
0
102
RTVSPropertyOp8
70
0
102
RTVSPropertyOp9
70
0
102
RTVSPropertyOp10
70
0
102
RTVSPropertyOp11
70
0
102
RTVSPropertyOp12
70
0
102
RTVSPropertyOp13
70
0
102
RTVSPropertyOp14
70
2
102
RTVSPropertyOp15
70
0
102
RTVSPropertyOp16
70
0
102
RTVSPropertyOp17
70
0
102
RTVSPropertyOp18
70
0
102
RTVSPropertyOp19
70
0
102
RTVSPropertyOp20
70
0
102
RTVSPropertyOp21
70
0
102
RTVSPropertyOp22
70
0
102
RTVSPropertyOp23
70
0
102
RTVSPropertyOp24
70
0
102
RTVSPropertyOp25
70
0
102
RTVSPropertyOp26
70
0
102
RTVSPropertyOp27
70
0
0
XRECORD
5
109D
102
{ACAD_REACTORS
330
109C
102
}
330
109C
100
AcDbXrecord
280
1
102
RTVSPropertyOp0
70
1
102
RTVSPropertyOp1
70
1
102
RTVSPropertyOp2
70
1
102
RTVSPropertyOp3
70
1
102
RTVSPropertyOp4
70
1
102
RTVSPropertyOp5
70
1
102
RTVSPropertyOp6
70
1
102
RTVSPropertyOp7
70
1
102
RTVSPropertyOp8
70
1
102
RTVSPropertyOp9
70
1
102
RTVSPropertyOp10
70
1
102
RTVSPropertyOp11
70
1
102
RTVSPropertyOp12
70
1
102
RTVSPropertyOp13
70
1
102
RTVSPropertyOp14
70
1
102
RTVSPropertyOp15
70
1
102
RTVSPropertyOp16
70
1
102
RTVSPropertyOp17
70
1
102
RTVSPropertyOp18
70
1
102
RTVSPropertyOp19
70
1
102
RTVSPropertyOp20
70
1
102
RTVSPropertyOp21
70
1
102
RTVSPropertyOp22
70
1
102
RTVSPropertyOp23
70
1
102
RTVSPropertyOp24
70
1
102
RTVSPropertyOp25
70
1
102
RTVSPropertyOp26
70
1
102
RTVSPropertyOp27
70
1
0
XRECORD
5
1081
102
{ACAD_REACTORS
330
1080
102
}
330
1080
100
AcDbXrecord
280
1
102
RTVSPropertyOp0
70
1
102
RTVSPropertyOp1
70
1
102
RTVSPropertyOp2
70
1
102
RTVSPropertyOp3
70
1
102
RTVSPropertyOp4
70
1
102
RTVSPropertyOp5
70
1
102
RTVSPropertyOp6
70
1
102
RTVSPropertyOp7
70
1
102
RTVSPropertyOp8
70
1
102
RTVSPropertyOp9
70
1
102
RTVSPropertyOp10
70
1
102
RTVSPropertyOp11
70
1
102
RTVSPropertyOp12
70
1
102
RTVSPropertyOp13
70
1
102
RTVSPropertyOp14
70
1
102
RTVSPropertyOp15
70
1
102
RTVSPropertyOp16
70
1
102
RTVSPropertyOp17
70
1
102
RTVSPropertyOp18
70
1
102
RTVSPropertyOp19
70
1
102
RTVSPropertyOp20
70
1
102
RTVSPropertyOp21
70
1
102
RTVSPropertyOp22
70
1
102
RTVSPropertyOp23
70
1
102
RTVSPropertyOp24
70
1
102
RTVSPropertyOp25
70
1
102
RTVSPropertyOp26
70
1
102
RTVSPropertyOp27
70
1
0
XRECORD
5
1083
102
{ACAD_REACTORS
330
1082
102
}
330
1082
100
AcDbXrecord
280
1
102
RTVSPropertyOp0
70
1
102
RTVSPropertyOp1
70
1
102
RTVSPropertyOp2
70
1
102
RTVSPropertyOp3
70
1
102
RTVSPropertyOp4
70
1
102
RTVSPropertyOp5
70
1
102
RTVSPropertyOp6
70
1
102
RTVSPropertyOp7
70
1
102
RTVSPropertyOp8
70
1
102
RTVSPropertyOp9
70
1
102
RTVSPropertyOp10
70
1
102
RTVSPropertyOp11
70
1
102
RTVSPropertyOp12
70
1
102
RTVSPropertyOp13
70
1
102
RTVSPropertyOp14
70
1
102
RTVSPropertyOp15
70
1
102
RTVSPropertyOp16
70
1
102
RTVSPropertyOp17
70
1
102
RTVSPropertyOp18
70
1
102
RTVSPropertyOp19
70
1
102
RTVSPropertyOp20
70
1
102
RTVSPropertyOp21
70
1
102
RTVSPropertyOp22
70
1
102
RTVSPropertyOp23
70
1
102
RTVSPropertyOp24
70
1
102
RTVSPropertyOp25
70
1
102
RTVSPropertyOp26
70
1
102
RTVSPropertyOp27
70
1
0
XRECORD
5
1085
102
{ACAD_REACTORS
330
1084
102
}
330
1084
100
AcDbXrecord
280
1
102
RTVSPropertyOp0
70
1
102
RTVSPropertyOp1
70
1
102
RTVSPropertyOp2
70
1
102
RTVSPropertyOp3
70
1
102
RTVSPropertyOp4
70
1
102
RTVSPropertyOp5
70
1
102
RTVSPropertyOp6
70
1
102
RTVSPropertyOp7
70
1
102
RTVSPropertyOp8
70
1
102
RTVSPropertyOp9
70
1
102
RTVSPropertyOp10
70
1
102
RTVSPropertyOp11
70
1
102
RTVSPropertyOp12
70
1
102
RTVSPropertyOp13
70
1
102
RTVSPropertyOp14
70
1
102
RTVSPropertyOp15
70
1
102
RTVSPropertyOp16
70
1
102
RTVSPropertyOp17
70
1
102
RTVSPropertyOp18
70
1
102
RTVSPropertyOp19
70
1
102
RTVSPropertyOp20
70
1
102
RTVSPropertyOp21
70
1
102
RTVSPropertyOp22
70
1
102
RTVSPropertyOp23
70
1
102
RTVSPropertyOp24
70
1
102
RTVSPropertyOp25
70
1
102
RTVSPropertyOp26
70
1
102
RTVSPropertyOp27
70
1
0
XRECORD
5
1087
102
{ACAD_REACTORS
330
1086
102
}
330
1086
100
AcDbXrecord
280
1
102
RTVSPropertyOp0
70
1
102
RTVSPropertyOp1
70
1
102
RTVSPropertyOp2
70
1
102
RTVSPropertyOp3
70
1
102
RTVSPropertyOp4
70
1
102
RTVSPropertyOp5
70
1
102
RTVSPropertyOp6
70
1
102
RTVSPropertyOp7
70
1
102
RTVSPropertyOp8
70
1
102
RTVSPropertyOp9
70
1
102
RTVSPropertyOp10
70
1
102
RTVSPropertyOp11
70
1
102
RTVSPropertyOp12
70
1
102
RTVSPropertyOp13
70
1
102
RTVSPropertyOp14
70
1
102
RTVSPropertyOp15
70
1
102
RTVSPropertyOp16
70
1
102
RTVSPropertyOp17
70
1
102
RTVSPropertyOp18
70
1
102
RTVSPropertyOp19
70
1
102
RTVSPropertyOp20
70
1
102
RTVSPropertyOp21
70
1
102
RTVSPropertyOp22
70
1
102
RTVSPropertyOp23
70
1
102
RTVSPropertyOp24
70
1
102
RTVSPropertyOp25
70
1
102
RTVSPropertyOp26
70
1
102
RTVSPropertyOp27
70
1
0
XRECORD
5
10A1
102
{ACAD_REACTORS
330
10A0
102
}
330
10A0
100
AcDbXrecord
280
1
102
RTVSPropertyOp0
70
0
102
RTVSPropertyOp1
70
0
102
RTVSPropertyOp2
70
0
102
RTVSPropertyOp3
70
0
102
RTVSPropertyOp4
70
0
102
RTVSPropertyOp5
70
0
102
RTVSPropertyOp6
70
0
102
RTVSPropertyOp7
70
0
102
RTVSPropertyOp8
70
0
102
RTVSPropertyOp9
70
0
102
RTVSPropertyOp10
70
0
102
RTVSPropertyOp11
70
0
102
RTVSPropertyOp12
70
0
102
RTVSPropertyOp13
70
0
102
RTVSPropertyOp14
70
2
102
RTVSPropertyOp15
70
0
102
RTVSPropertyOp16
70
0
102
RTVSPropertyOp17
70
0
102
RTVSPropertyOp18
70
0
102
RTVSPropertyOp19
70
0
102
RTVSPropertyOp20
70
0
102
RTVSPropertyOp21
70
0
102
RTVSPropertyOp22
70
0
102
RTVSPropertyOp23
70
0
102
RTVSPropertyOp24
70
0
102
RTVSPropertyOp25
70
0
102
RTVSPropertyOp26
70
0
102
RTVSPropertyOp27
70
0
0
XRECORD
5
109B
102
{ACAD_REACTORS
330
109A
102
}
330
109A
100
AcDbXrecord
280
1
102
RTVSPropertyOp0
70
1
102
RTVSPropertyOp1
70
1
102
RTVSPropertyOp2
70
1
102
RTVSPropertyOp3
70
1
102
RTVSPropertyOp4
70
1
102
RTVSPropertyOp5
70
1
102
RTVSPropertyOp6
70
1
102
RTVSPropertyOp7
70
1
102
RTVSPropertyOp8
70
1
102
RTVSPropertyOp9
70
1
102
RTVSPropertyOp10
70
1
102
RTVSPropertyOp11
70
1
102
RTVSPropertyOp12
70
1
102
RTVSPropertyOp13
70
1
102
RTVSPropertyOp14
70
1
102
RTVSPropertyOp15
70
1
102
RTVSPropertyOp16
70
1
102
RTVSPropertyOp17
70
1
102
RTVSPropertyOp18
70
1
102
RTVSPropertyOp19
70
1
102
RTVSPropertyOp20
70
1
102
RTVSPropertyOp21
70
1
102
RTVSPropertyOp22
70
1
102
RTVSPropertyOp23
70
1
102
RTVSPropertyOp24
70
1
102
RTVSPropertyOp25
70
1
102
RTVSPropertyOp26
70
1
102
RTVSPropertyOp27
70
1
0
XRECORD
5
10A3
102
{ACAD_REACTORS
330
10A2
102
}
330
10A2
100
AcDbXrecord
280
1
102
RTVSPropertyOp0
70
0
102
RTVSPropertyOp1
70
0
102
RTVSPropertyOp2
70
0
102
RTVSPropertyOp3
70
0
102
RTVSPropertyOp4
70
0
102
RTVSPropertyOp5
70
0
102
RTVSPropertyOp6
70
0
102
RTVSPropertyOp7
70
0
102
RTVSPropertyOp8
70
0
102
RTVSPropertyOp9
70
0
102
RTVSPropertyOp10
70
0
102
RTVSPropertyOp11
70
0
102
RTVSPropertyOp12
70
0
102
RTVSPropertyOp13
70
0
102
RTVSPropertyOp14
70
2
102
RTVSPropertyOp15
70
0
102
RTVSPropertyOp16
70
0
102
RTVSPropertyOp17
70
0
102
RTVSPropertyOp18
70
0
102
RTVSPropertyOp19
70
0
102
RTVSPropertyOp20
70
0
102
RTVSPropertyOp21
70
0
102
RTVSPropertyOp22
70
0
102
RTVSPropertyOp23
70
0
102
RTVSPropertyOp24
70
0
102
RTVSPropertyOp25
70
0
102
RTVSPropertyOp26
70
0
102
RTVSPropertyOp27
70
0
0
XRECORD
5
1093
102
{ACAD_REACTORS
330
1092
102
}
330
1092
100
AcDbXrecord
280
1
102
RTVSPropertyOp0
70
1
102
RTVSPropertyOp1
70
1
102
RTVSPropertyOp2
70
1
102
RTVSPropertyOp3
70
1
102
RTVSPropertyOp4
70
1
102
RTVSPropertyOp5
70
1
102
RTVSPropertyOp6
70
1
102
RTVSPropertyOp7
70
1
102
RTVSPropertyOp8
70
1
102
RTVSPropertyOp9
70
1
102
RTVSPropertyOp10
70
1
102
RTVSPropertyOp11
70
1
102
RTVSPropertyOp12
70
1
102
RTVSPropertyOp13
70
1
102
RTVSPropertyOp14
70
1
102
RTVSPropertyOp15
70
1
102
RTVSPropertyOp16
70
1
102
RTVSPropertyOp17
70
1
102
RTVSPropertyOp18
70
1
102
RTVSPropertyOp19
70
1
102
RTVSPropertyOp20
70
1
102
RTVSPropertyOp21
70
1
102
RTVSPropertyOp22
70
1
102
RTVSPropertyOp23
70
1
102
RTVSPropertyOp24
70
1
102
RTVSPropertyOp25
70
1
102
RTVSPropertyOp26
70
1
102
RTVSPropertyOp27
70
1
0
XRECORD
5
1099
102
{ACAD_REACTORS
330
1098
102
}
330
1098
100
AcDbXrecord
280
1
102
RTVSPropertyOp0
70
1
102
RTVSPropertyOp1
70
1
102
RTVSPropertyOp2
70
1
102
RTVSPropertyOp3
70
1
102
RTVSPropertyOp4
70
1
102
RTVSPropertyOp5
70
1
102
RTVSPropertyOp6
70
1
102
RTVSPropertyOp7
70
1
102
RTVSPropertyOp8
70
1
102
RTVSPropertyOp9
70
1
102
RTVSPropertyOp10
70
1
102
RTVSPropertyOp11
70
1
102
RTVSPropertyOp12
70
1
102
RTVSPropertyOp13
70
1
102
RTVSPropertyOp14
70
1
102
RTVSPropertyOp15
70
1
102
RTVSPropertyOp16
70
1
102
RTVSPropertyOp17
70
1
102
RTVSPropertyOp18
70
1
102
RTVSPropertyOp19
70
1
102
RTVSPropertyOp20
70
1
102
RTVSPropertyOp21
70
1
102
RTVSPropertyOp22
70
1
102
RTVSPropertyOp23
70
1
102
RTVSPropertyOp24
70
1
102
RTVSPropertyOp25
70
1
102
RTVSPropertyOp26
70
1
102
RTVSPropertyOp27
70
1
0
ENDSEC
0
EOF
