0
SECTION
2
HEADER
9
$ACADVER
1
AC1015
9
$ACADMAINTVER
70
20
9
$DWGCODEPAGE
3
ANSI_1252
9
$INSBASE
10
0.0
20
0.0
30
0.0
9
$EXTMIN
10
-150.000000000000
20
-105.000000000000
30
0.0
9
$EXTMAX
10
150.000000000000
20
105.000000000000
30
0.0
9
$LIMMIN
10
0.0
20
0.0
9
$LIMMAX
10
12.0
20
9.0
9
$ORTHOMODE
70
0
9
$REGENMODE
70
1
9
$FILLMODE
70
1
9
$QTEXTMODE
70
0
9
$MIRRTEXT
70
1
9
$LTSCALE
40
1.0
9
$ATTMODE
70
1
9
$TEXTSIZE
40
0.2
9
$TRACEWID
40
0.05
9
$TEXTSTYLE
7
Standard
9
$CLAYER
8
0
9
$CELTYPE
6
ByLayer
9
$CECOLOR
62
256
9
$CELTSCALE
40
1.0
9
$DISPSILH
70
0
9
$DIMSCALE
40
1.0
9
$DIMASZ
40
2.5
9
$DIMEXO
40
0.625
9
$DIMDLI
40
0.38
9
$DIMRND
40
0.0
9
$DIMDLE
40
0.0
9
$DIMEXE
40
1.25
9
$DIMTP
40
0.0
9
$DIMTM
40
0.000000001
9
$DIMTXT
40
2.5
9
$DIMCEN
40
0.09
9
$DIMTSZ
40
0.0
9
$DIMTOL
70
1
9
$DIMLIM
70
0
9
$DIMTIH
70
0
9
$DIMTOH
70
0
9
$DIMSE1
70
0
9
$DIMSE2
70
0
9
$DIMTAD
70
1
9
$DIMZIN
70
0
9
$DIMBLK
1
VDDIM_DEFAULT
9
$DIMASO
70
1
9
$DIMSHO
70
1
9
$DIMPOST
1

9
$DIMAPOST
1

9
$DIMALT
70
0
9
$DIMALTD
70
2
9
$DIMALTF
40
25.4
9
$DIMLFAC
40
1.00000000000000
9
$DIMTOFL
70
0
9
$DIMTVP
40
0.0
9
$DIMTIX
70
0
9
$DIMSOXD
70
0
9
$DIMSAH
70
0
9
$DIMBLK1
1

9
$DIMBLK2
1

9
$DIMSTYLE
2
BEM-ISBE
9
$DIMCLRD
70
0
9
$DIMCLRE
70
0
9
$DIMCLRT
70
0
9
$DIMTFAC
40
0.5
9
$DIMGAP
40
0.625
9
$DIMJUST
70
0
9
$DIMSD1
70
0
9
$DIMSD2
70
0
9
$DIMTOLJ
70
1
9
$DIMTZIN
70
0
9
$DIMALTZ
70
0
9
$DIMALTTZ
70
0
9
$DIMUPT
70
0
9
$DIMDEC
70
3
9
$DIMTDEC
70
3
9
$DIMALTU
70
2
9
$DIMALTTD
70
2
9
$DIMTXSTY
7
Standard
9
$DIMAUNIT
70
0
9
$DIMADEC
70
3
9
$DIMALTRND
40
0.0
9
$DIMAZIN
70
0
9
$DIMDSEP
70
46
9
$DIMATFIT
70
3
9
$DIMFRAC
70
0
9
$DIMLDRBLK
1

9
$DIMLUNIT
70
2
9
$DIMLWD
70
-2
9
$DIMLWE
70
-2
9
$DIMTMOVE
70
0
9
$LUNITS
70
2
9
$LUPREC
70
4
9
$SKETCHINC
40
0.1
9
$FILLETRAD
40
0.5
9
$AUNITS
70
0
9
$AUPREC
70
0
9
$MENU
1
.
9
$ELEVATION
40
0.0
9
$PELEVATION
40
0.0
9
$THICKNESS
40
0.0
9
$LIMCHECK
70
0
9
$CHAMFERA
40
0.5
9
$CHAMFERB
40
0.5
9
$CHAMFERC
40
1.0
9
$CHAMFERD
40
0.0
9
$SKPOLY
70
0
9
$TDCREATE
40
0.0
9
$TDUCREATE
40
0.0
9
$TDUPDATE
40
0.0
9
$TDUUPDATE
40
0.0
9
$TDINDWG
40
0.0
9
$TDUSRTIMER
40
0.0
9
$USRTIMER
70
1
9
$ANGBASE
50
0.0
9
$ANGDIR
70
0
9
$PDMODE
70
0
9
$PDSIZE
40
0.0
9
$PLINEWID
40
0.0
9
$SPLFRAME
70
0
9
$SPLINETYPE
70
6
9
$SPLINESEGS
70
8
9
$HANDSEED
5
10AB
9
$SURFTAB1
70
6
9
$SURFTAB2
70
6
9
$SURFTYPE
70
6
9
$SURFU
70
6
9
$SURFV
70
6
9
$UCSBASE
2

9
$UCSNAME
2

9
$UCSORG
10
0.0
20
0.0
30
0.0
9
$UCSXDIR
10
1.0
20
0.0
30
0.0
9
$UCSYDIR
10
0.0
20
1.0
30
0.0
9
$UCSORTHOREF
2

9
$UCSORTHOVIEW
70
0
9
$UCSORGTOP
10
0.0
20
0.0
30
0.0
9
$UCSORGBOTTOM
10
0.0
20
0.0
30
0.0
9
$UCSORGLEFT
10
0.0
20
0.0
30
0.0
9
$UCSORGRIGHT
10
0.0
20
0.0
30
0.0
9
$UCSORGFRONT
10
0.0
20
0.0
30
0.0
9
$UCSORGBACK
10
0.0
20
0.0
30
0.0
9
$PUCSBASE
2

9
$PUCSNAME
2

9
$PUCSORG
10
0.0
20
0.0
30
0.0
9
$PUCSXDIR
10
1.0
20
0.0
30
0.0
9
$PUCSYDIR
10
0.0
20
1.0
30
0.0
9
$PUCSORTHOREF
2

9
$PUCSORTHOVIEW
70
0
9
$PUCSORGTOP
10
0.0
20
0.0
30
0.0
9
$PUCSORGBOTTOM
10
0.0
20
0.0
30
0.0
9
$PUCSORGLEFT
10
0.0
20
0.0
30
0.0
9
$PUCSORGRIGHT
10
0.0
20
0.0
30
0.0
9
$PUCSORGFRONT
10
0.0
20
0.0
30
0.0
9
$PUCSORGBACK
10
0.0
20
0.0
30
0.0
9
$USERI1
70
0
9
$USERI2
70
0
9
$USERI3
70
0
9
$USERI4
70
0
9
$USERI5
70
0
9
$USERR1
40
0.0
9
$USERR2
40
0.0
9
$USERR3
40
0.0
9
$USERR4
40
0.0
9
$USERR5
40
0.0
9
$WORLDVIEW
70
1
9
$SHADEDGE
70
3
9
$SHADEDIF
70
70
9
$TILEMODE
70
1
9
$MAXACTVP
70
64
9
$PINSBASE
10
0.0
20
0.0
30
0.0
9
$PLIMCHECK
70
0
9
$PEXTMIN
10
1.000000000000000E+20
20
1.000000000000000E+20
30
1.000000000000000E+20
9
$PEXTMAX
10
-1.000000000000000E+20
20
-1.000000000000000E+20
30
-1.000000000000000E+20
9
$PLIMMIN
10
0.0
20
0.0
9
$PLIMMAX
10
12.0
20
9.0
9
$UNITMODE
70
0
9
$VISRETAIN
70
1
9
$PLINEGEN
70
0
9
$PSLTSCALE
70
1
9
$TREEDEPTH
70
3020
9
$CMLSTYLE
2
Standard
9
$CMLJUST
70
0
9
$CMLSCALE
40
1.0
9
$PROXYGRAPHICS
70
1
9
$MEASUREMENT
70
0
9
$CELWEIGHT
370
-1
9
$ENDCAPS
280
0
9
$JOINSTYLE
280
0
9
$LWDISPLAY
290
0
9
$INSUNITS
70
4
9
$HYPERLINKBASE
1

9
$STYLESHEET
1

9
$XEDIT
290
1
9
$CEPSNTYPE
380
0
9
$PSTYLEMODE
290
0
9
$FINGERPRINTGUID
2
{FAEB1C30-E019-11D5-929B-00C0DF256EC4}
9
$VERSIONGUID
2
{04C5C4E4-4947-4D90-8812-D401569E61F7}
9
$EXTNAMES
290
1
9
$PSVPSCALE
40
0.0
9
$OLESTARTUP
290
0
0
ENDSEC
0
SECTION
2
CLASSES
0
CLASS
1
ACDBDICTIONARYWDFLT
2
AcDbDictionaryWithDefault
3
ObjectDBX Classes
90
0
280
0
281
0
0
CLASS
1
ACDBPLACEHOLDER
2
AcDbPlaceHolder
3
ObjectDBX Classes
90
0
280
0
281
0
0
CLASS
1
LAYOUT
2
AcDbLayout
3
ObjectDBX Classes
90
0
280
0
281
0
0
CLASS
1
MATERIAL
2
AcDbMaterial
3
ObjectDBX Classes
90
1153
280
0
281
0
0
CLASS
1
VISUALSTYLE
2
AcDbVisualStyle
3
ObjectDBX Classes
90
4095
280
0
281
0
0
CLASS
1
TABLESTYLE
2
AcDbTableStyle
3
ObjectDBX Classes
90
4095
280
0
281
0
0
CLASS
1
SCALE
2
AcDbScale
3
ObjectDBX Classes
90
1153
280
0
281
0
0
CLASS
1
MLEADERSTYLE
2
AcDbMLeaderStyle
3
ACDB_MLEADERSTYLE_CLASS
90
4095
280
0
281
0
0
CLASS
1
DICTIONARYVAR
2
AcDbDictionaryVar
3
ObjectDBX Classes
90
0
280
0
281
0
0
CLASS
1
CELLSTYLEMAP
2
AcDbCellStyleMap
3
ObjectDBX Classes
90
1152
280
0
281
0
0
ENDSEC
0
SECTION
2
TABLES
0
TABLE
2
VPORT
5
24A
330
0
100
AcDbSymbolTable
70
1
0
VPORT
5
26B
330
24A
100
AcDbSymbolTableRecord
100
AcDbViewportTableRecord
2
*Active
70
0
10
0.0
20
0.0
11
1.0
21
1.0
12
0.000000000000000
22
0.000000000000000
13
0.0
23
0.0
14
10.0
24
10.0
15
10.0
25
10.0
16
0.0
26
0.0
36
1.0
17
0.0
27
0.0
37
0.0
40
210.000000000000
41
1.42857142857143
42
1.0
43
0.0
44
0.0
50
0.0
51
0.0000000000007958
71
0
72
100
73
1
74
3
75
0
76
0
77
0
78
1
281
0
65
1
110
0.0
120
0.0
130
0.0
111
1.0
121
0.0
131
0.0
112
0.0
122
1.0
132
0.0
79
0
146
0.0
0
ENDTAB
0
TABLE
2
LTYPE
5
247
330
0
100
AcDbSymbolTable
70
25
0
LTYPE
5
256
330
247
100
AcDbSymbolTableRecord
100
AcDbLinetypeTableRecord
2
ByBlock
70
0
3

72
65
73
0
40
0.0
0
LTYPE
5
257
330
247
100
AcDbSymbolTableRecord
100
AcDbLinetypeTableRecord
2
ByLayer
70
0
3

72
65
73
0
40
0.0
0
LTYPE
5
258
330
247
100
AcDbSymbolTableRecord
100
AcDbLinetypeTableRecord
2
Continuous
70
0
3
Solid line
72
65
73
0
40
0.0
0
LTYPE
5
273
330
247
100
AcDbSymbolTableRecord
100
AcDbLinetypeTableRecord
2
CENTER
70
0
3
Center ____ _ ____ _ ____ _ ____ _ ____ _ ____
72
65
73
4
40
2.0
49
1.25
74
0
49
-0.25
74
0
49
0.25
74
0
49
-0.25
74
0
0
LTYPE
5
274
330
247
100
AcDbSymbolTableRecord
100
AcDbLinetypeTableRecord
2
DASHDOT
70
0
3
Dashdot __ . __ . __ . __ . __ . __ . __ . __
72
65
73
4
40
1.0
49
0.5
74
0
49
-0.25
74
0
49
0.0
74
0
49
-0.25
74
0
0
LTYPE
5
275
330
247
100
AcDbSymbolTableRecord
100
AcDbLinetypeTableRecord
2
DASHED
70
0
3
Dashed __ __ __ __ __ __ __ __ __ __ __ __ __ _
72
65
73
2
40
0.75
49
0.5
74
0
49
-0.25
74
0
0
LTYPE
5
276
330
247
100
AcDbSymbolTableRecord
100
AcDbLinetypeTableRecord
2
HIDDEN
70
0
3
Hidden __ __ __ __ __ __ __ __ __ __ __ __ __ __
72
65
73
2
40
0.375
49
0.25
74
0
49
-0.125
74
0
0
LTYPE
5
277
330
247
100
AcDbSymbolTableRecord
100
AcDbLinetypeTableRecord
2
HIDDEN2
70
0
3
Hidden2 _ _ _ _ _ _ _ _ _ _ _ _ _ _ _ _ _
72
65
73
2
40
0.1875
49
0.125
74
0
49
-0.0625
74
0
0
LTYPE
5
278
330
247
100
AcDbSymbolTableRecord
100
AcDbLinetypeTableRecord
2
BORDER
70
0
3
Border __ __ . __ __ . __ __ . __ __ . __ __ .
72
65
73
6
40
1.75
49
0.5
74
0
49
-0.25
74
0
49
0.5
74
0
49
-0.25
74
0
49
0.0
74
0
49
-0.25
74
0
0
LTYPE
5
279
330
247
100
AcDbSymbolTableRecord
100
AcDbLinetypeTableRecord
2
BORDER2
70
0
3
Border2 __.__.__.__.__.__.__.__.__.__.__.
72
65
73
6
40
0.875
49
0.25
74
0
49
-0.125
74
0
49
0.25
74
0
49
-0.125
74
0
49
0.0
74
0
49
-0.125
74
0
0
LTYPE
5
27A
330
247
100
AcDbSymbolTableRecord
100
AcDbLinetypeTableRecord
2
BORDERX2
70
0
3
Borderx2  ____  ____  .  ____  ____  .  ___
72
65
73
6
40
3.5
49
1.0
74
0
49
-0.5
74
0
49
1.0
74
0
49
-0.5
74
0
49
0.0
74
0
49
-0.5
74
0
0
LTYPE
5
27B
330
247
100
AcDbSymbolTableRecord
100
AcDbLinetypeTableRecord
2
CENTER2
70
0
3
Center2  ___ _ ___ _ ___ _ ___ _ ___ _ ___
72
65
73
4
40
1.125
49
0.75
74
0
49
-0.125
74
0
49
0.125
74
0
49
-0.125
74
0
0
LTYPE
5
27C
330
247
100
AcDbSymbolTableRecord
100
AcDbLinetypeTableRecord
2
CENTERX2
70
0
3
Centerx2  ________  __  ________  __  _____
72
65
73
4
40
4.0
49
2.5
74
0
49
-0.5
74
0
49
0.5
74
0
49
-0.5
74
0
0
LTYPE
5
27D
330
247
100
AcDbSymbolTableRecord
100
AcDbLinetypeTableRecord
2
DASHDOT2
70
0
3
Dashdot2  _._._._._._._._._._._._._._._.
72
65
73
4
40
0.5
49
0.25
74
0
49
-0.125
74
0
49
0.0
74
0
49
-0.125
74
0
0
LTYPE
5
27E
330
247
100
AcDbSymbolTableRecord
100
AcDbLinetypeTableRecord
2
DASHDOTX2
70
0
3
Dashdotx2 ____  .  ____  .  ____  .  ___
72
65
73
4
40
2.0
49
1.0
74
0
49
-0.5
74
0
49
0.0
74
0
49
-0.5
74
0
0
LTYPE
5
27F
330
247
100
AcDbSymbolTableRecord
100
AcDbLinetypeTableRecord
2
DASHED2
70
0
3
Dashed2 _ _ _ _ _ _ _ _ _ _ _ _ _ _ _ _ _
72
65
73
2
40
0.375
49
0.25
74
0
49
-0.125
74
0
0
LTYPE
5
280
330
247
100
AcDbSymbolTableRecord
100
AcDbLinetypeTableRecord
2
DASHEDX2
70
0
3
Dashedx2 ____  ____  ____  ____  ____  ___
72
65
73
2
40
1.5
49
1.0
74
0
49
-0.5
74
0
0
LTYPE
5
281
330
247
100
AcDbSymbolTableRecord
100
AcDbLinetypeTableRecord
2
DIVIDE
70
0
3
Divide ____ . . ____ . . ____ . . ____ . . ____
72
65
73
6
40
1.25
49
0.5
74
0
49
-0.25
74
0
49
0.0
74
0
49
-0.25
74
0
49
0.0
74
0
49
-0.25
74
0
0
LTYPE
5
282
330
247
100
AcDbSymbolTableRecord
100
AcDbLinetypeTableRecord
2
DIVIDE2
70
0
3
Divide2 __..__..__..__..__..__..__..__.._
72
65
73
6
40
0.625
49
0.25
74
0
49
-0.125
74
0
49
0.0
74
0
49
-0.125
74
0
49
0.0
74
0
49
-0.125
74
0
0
LTYPE
5
283
330
247
100
AcDbSymbolTableRecord
100
AcDbLinetypeTableRecord
2
DIVIDEX2
70
0
3
Dividex2 ________  .  .  ________  .  .  _
72
65
73
6
40
2.5
49
1.0
74
0
49
-0.5
74
0
49
0.0
74
0
49
-0.5
74
0
49
0.0
74
0
49
-0.5
74
0
0
LTYPE
5
284
330
247
100
AcDbSymbolTableRecord
100
AcDbLinetypeTableRecord
2
DOT
70
0
3
Dot . . . . . . . . . . . . . . . . . . . . . . . .
72
65
73
2
40
0.25
49
0.0
74
0
49
-0.25
74
0
0
LTYPE
5
285
330
247
100
AcDbSymbolTableRecord
100
AcDbLinetypeTableRecord
2
DOT2
70
0
3
Dot2 ........................................
72
65
73
2
40
0.125
49
0.0
74
0
49
-0.125
74
0
0
LTYPE
5
286
330
247
100
AcDbSymbolTableRecord
100
AcDbLinetypeTableRecord
2
DOTX2
70
0
3
Dotx2 .  .  .  .  .  .  .  .  .  .  .  .  .  .
72
65
73
2
40
0.5
49
0.0
74
0
49
-0.5
74
0
0
LTYPE
5
287
330
247
100
AcDbSymbolTableRecord
100
AcDbLinetypeTableRecord
2
HIDDENX2
70
0
3
Hiddenx2 ____ ____ ____ ____ ____ ____ ____
72
65
73
2
40
0.75
49
0.5
74
0
49
-0.25
74
0
0
LTYPE
5
288
330
247
100
AcDbSymbolTableRecord
100
AcDbLinetypeTableRecord
2
PHANTOM
70
0
3
Phantom ______  __  __  ______  __  __  ______
72
65
73
6
40
2.5
49
1.25
74
0
49
-0.25
74
0
49
0.25
74
0
49
-0.25
74
0
49
0.25
74
0
49
-0.25
74
0
0
LTYPE
5
289
330
247
100
AcDbSymbolTableRecord
100
AcDbLinetypeTableRecord
2
PHANTOM2
70
0
3
Phantom2 ___ _ _ ___ _ _ ___ _ _ ___ _ _
72
65
73
6
40
1.25
49
0.625
74
0
49
-0.125
74
0
49
0.125
74
0
49
-0.125
74
0
49
0.125
74
0
49
-0.125
74
0
0
LTYPE
5
28A
330
247
100
AcDbSymbolTableRecord
100
AcDbLinetypeTableRecord
2
PHANTOMX2
70
0
3
Phantomx2 ____________    ____    ____   _
72
65
73
6
40
5.0
49
2.5
74
0
49
-0.5
74
0
49
0.5
74
0
49
-0.5
74
0
49
0.5
74
0
49
-0.5
74
0
0
ENDTAB
0
TABLE
2
LAYER
5
244
330
0
100
AcDbSymbolTable
70
6
0
LAYER
5
252
330
244
100
AcDbSymbolTableRecord
100
AcDbLayerTableRecord
2
0
70
0
62
7
6
Continuous
370
0
390
251
0
LAYER
5
23F
330
244
100
AcDbSymbolTableRecord
100
AcDbLayerTableRecord
2
Bemassung
70
0
 62
   7
6
Continuous
370
0
390
251
0
LAYER
5
240
330
244
100
AcDbSymbolTableRecord
100
AcDbLayerTableRecord
2
Rahmen
70
0
 62
   7
6
Continuous
370
0
390
251
0
LAYER
5
241
330
244
100
AcDbSymbolTableRecord
100
AcDbLayerTableRecord
2
Geo
70
0
 62
   7
6
Continuous
370
0
390
251
0
LAYER
5
33A
330
244
100
AcDbSymbolTableRecord
100
AcDbLayerTableRecord
2
Defpoints
70
0
62
7
6
Continuous
290
0
370
-3
390
251
0
LAYER
5
57E
330
244
100
AcDbSymbolTableRecord
100
AcDbLayerTableRecord
2
Text
70
0
 62
   7
6
Continuous
370
0
390
251
1001
AcAecLayerStandard
1000

1000

0
ENDTAB
0
TABLE
2
STYLE
5
245
330
0
100
AcDbSymbolTable
70
2
0
STYLE
5
253
330
245
100
AcDbSymbolTableRecord
100
AcDbTextStyleTableRecord
2
Standard
70
0
40
0.0
41
1.0
50
0.0
71
0
42
0.2
3
Arial
4

1001
ACAD
1000
Arial
1071
0
0
STYLE
5
132
330
245
100
AcDbSymbolTableRecord
100
AcDbTextStyleTableRecord
2
Beschriftung
70
0
40
0.0
41
1.0
50
0.0
71
0
42
0.2
3
Arial
4

1001
ACAD
1000
Arial
1071
0
1001
AcadAnnotative
1000
AnnotativeData
1070
1
1070
1
0
ENDTAB
0
TABLE
2
VIEW
5
248
330
0
100
AcDbSymbolTable
70
0
0
ENDTAB
0
TABLE
2
UCS
5
249
330
0
100
AcDbSymbolTable
70
0
0
ENDTAB
0
TABLE
2
APPID
5
24B
330
0
100
AcDbSymbolTable
70
13
0
APPID
5
254
330
24B
100
AcDbSymbolTableRecord
100
AcDbRegAppTableRecord
2
ACAD
70
0
0
APPID
5
26C
330
24B
100
AcDbSymbolTableRecord
100
AcDbRegAppTableRecord
2
VD_INVISIBLE_NOT_FOR_READ
70
0
0
APPID
5
26D
330
24B
100
AcDbSymbolTableRecord
100
AcDbRegAppTableRecord
2
VD_TEMPHATCH
70
0
0
APPID
5
26E
330
24B
100
AcDbSymbolTableRecord
100
AcDbRegAppTableRecord
2
VDEXTRAPARAM
70
0
0
APPID
5
26F
330
24B
100
AcDbSymbolTableRecord
100
AcDbRegAppTableRecord
2
PE_URL
70
0
0
APPID
5
270
330
24B
100
AcDbSymbolTableRecord
100
AcDbRegAppTableRecord
2
VD_UNKNOWN
70
0
0
APPID
5
28F
330
24B
100
AcDbSymbolTableRecord
100
AcDbRegAppTableRecord
2
AcadAnnotative
70
0
0
APPID
5
290
330
24B
100
AcDbSymbolTableRecord
100
AcDbRegAppTableRecord
2
ACAD_DSTYLE_DIMJAG
70
0
0
APPID
5
291
330
24B
100
AcDbSymbolTableRecord
100
AcDbRegAppTableRecord
2
ACAD_DSTYLE_DIMTALN
70
0
0
APPID
5
293
330
24B
100
AcDbSymbolTableRecord
100
AcDbRegAppTableRecord
2
ACAD_PSEXT
70
0
0
APPID
5
42A
330
24B
100
AcDbSymbolTableRecord
100
AcDbRegAppTableRecord
2
ACAD_MLEADERVER
70
0
0
APPID
5
532
330
24B
100
AcDbSymbolTableRecord
100
AcDbRegAppTableRecord
2
ACAD_EXEMPT_FROM_CAD_STANDARDS
70
0
0
APPID
5
57F
330
24B
100
AcDbSymbolTableRecord
100
AcDbRegAppTableRecord
2
AcAecLayerStandard
70
0
0
ENDTAB
0
TABLE
2
DIMSTYLE
5
24C
330
0
100
AcDbSymbolTable
70
3
100
AcDbDimStyleTable
71
2
340
27
340
269
0
DIMSTYLE
105
269
330
24C
100
AcDbSymbolTableRecord
100
AcDbDimStyleTableRecord
2
Standard
70
0
172
1
174
1
288
1
340
253
342
23C
0
DIMSTYLE
105
137
330
24C
100
AcDbSymbolTableRecord
100
AcDbDimStyleTableRecord
2
Beschriftung
70
0
41
2.5
42
0.625
44
1.25
73
0
74
0
77
1
140
2.5
147
0.625
172
1
174
1
271
2
288
1
340
253
342
23C
1001
AcadAnnotative
1000
AnnotativeData
1070
1
1070
1
1001
ACAD_DSTYLE_DIMJAG
1070
388
1040
1.5
1001
ACAD_DSTYLE_DIMTALN
1070
392
1070
0
0
DIMSTYLE
105
27
102
{ACAD_REACTORS
330
F1000D
330
F10012
330
F10003
330
F10008
102
}
330
24C
100
AcDbSymbolTableRecord
100
AcDbDimStyleTableRecord
2
BEM-ISBE
70
0
41
2.5
42
0.625
44
1.25
48
0.000000001
71
1
73
0
74
0
77
1
140
2.5
144
1.00000000000000
146
0.5
147
0.625
171
 3
172
 1
179
 3
271
 3
272
 3
274
 3
340
253
342
23C
1001
ACAD_DSTYLE_DIMJAG
1070
388
1040
1.5
1001
ACAD_DSTYLE_DIMTALN
1070
392
1070
1
0
ENDTAB
0
TABLE
2
BLOCK_RECORD
5
243
330
0
100
AcDbSymbolTable
70
5
0
BLOCK_RECORD
5
261
330
243
100
AcDbSymbolTableRecord
100
AcDbBlockTableRecord
2
*Model_Space
340
FD0
0
BLOCK_RECORD
5
25D
330
243
100
AcDbSymbolTableRecord
100
AcDbBlockTableRecord
2
*Paper_Space
340
FD1
0
BLOCK_RECORD
5
265
330
243
100
AcDbSymbolTableRecord
100
AcDbBlockTableRecord
2
*Paper_Space0
340
0
0
BLOCK_RECORD
5
23C
330
243
100
AcDbSymbolTableRecord
100
AcDbBlockTableRecord
2
VDDIM_DEFAULT
340
0
102
{BLKREFS
102
}
0
BLOCK_RECORD
5
23E
330
243
100
AcDbSymbolTableRecord
100
AcDbBlockTableRecord
2
VDDIM_NONE
340
0
0
BLOCK_RECORD
5
F1000C
330
243
100
AcDbSymbolTableRecord
100
AcDbBlockTableRecord
2
*D5
340
0
0
BLOCK_RECORD
5
F10011
330
243
100
AcDbSymbolTableRecord
100
AcDbBlockTableRecord
2
*D6
340
0
0
BLOCK_RECORD
5
F10002
330
243
100
AcDbSymbolTableRecord
100
AcDbBlockTableRecord
2
*D3
340
0
0
BLOCK_RECORD
5
F10007
330
243
100
AcDbSymbolTableRecord
100
AcDbBlockTableRecord
2
*D4
340
0
0
ENDTAB
0
ENDSEC
0
SECTION
2
BLOCKS
0
BLOCK
5
262
330
261
100
AcDbEntity
8
0
100
AcDbBlockBegin
2
*Model_Space
70
0
10
0.0
20
0.0
30
0.0
3
*Model_Space
1

0
ENDBLK
5
263
330
261
100
AcDbEntity
8
0
100
AcDbBlockEnd
0
BLOCK
5
25E
330
25D
100
AcDbEntity
67
1
8
0
100
AcDbBlockBegin
2
*Paper_Space
70
0
10
0.0
20
0.0
30
0.0
3
*Paper_Space
1

0
ENDBLK
5
25F
330
25D
100
AcDbEntity
67
1
8
0
100
AcDbBlockEnd
0
BLOCK
5
266
330
265
100
AcDbEntity
8
0
100
AcDbBlockBegin
2
*Paper_Space0
70
0
10
0.0
20
0.0
30
0.0
3
*Paper_Space0
1

0
VIEWPORT
5
296
102
{ACAD_XDICTIONARY
360
58E
102
}
330
265
100
AcDbEntity
8
0
60
1
100
AcDbViewport
10
0.0
20
0.0
30
0.0
40
10.0
41
10.0
69
0
12
0.0
22
0.0
13
0.0
23
0.0
14
1.0
24
1.0
15
0.0
25
0.0
16
0.0
26
0.0
36
1.0
17
0.0
27
0.0
37
0.0
42
0.0
43
0.0
44
0.0
45
10.0
50
0.0
51
0.0000000000007958
72
100
90
163872
1

281
0
71
0
74
0
110
0.0
120
0.0
130
0.0
111
1.0
121
0.0
131
0.0
112
0.0
122
1.0
132
0.0
79
0
146
0.0
1001
VD_INVISIBLE_NOT_FOR_READ
1000
VD_INVISIBLE_NOT_FOR_READ
0
VIEWPORT
5
297
102
{ACAD_XDICTIONARY
360
590
102
}
330
265
100
AcDbEntity
8
0
60
1
100
AcDbViewport
10
0.0
20
0.0
30
0.0
40
10.0
41
10.0
69
0
12
0.0
22
0.0
13
0.0
23
0.0
14
1.0
24
1.0
15
0.0
25
0.0
16
0.0
26
0.0
36
1.0
17
0.0
27
0.0
37
0.0
42
0.0
43
0.0
44
0.0
45
10.0
50
0.0
51
0.0000000000007958
72
100
90
163872
1

281
0
71
0
74
0
110
0.0
120
0.0
130
0.0
111
1.0
121
0.0
131
0.0
112
0.0
122
1.0
132
0.0
79
0
146
0.0
1001
VD_INVISIBLE_NOT_FOR_READ
1000
VD_INVISIBLE_NOT_FOR_READ
0
ENDBLK
5
267
330
265
100
AcDbEntity
8
0
100
AcDbBlockEnd
0
BLOCK
5
28B
330
23C
100
AcDbEntity
8
0
100
AcDbBlockBegin
2
VDDIM_DEFAULT
70
0
10
0.0
20
0.0
30
0.0
3
VDDIM_DEFAULT
1

0
LWPOLYLINE
5
23D
330
23C
100
AcDbEntity
8
0
6
Continuous
62
0
100
AcDbPolyline
90
4
70
0
43
0.0
10
0.0
20
0.0
10
-1.0
20
-0.1665
10
-1.0
20
0.1665
10
0.0
20
0.0
1001
VDEXTRAPARAM
1071
1
1071
0
1071
0
1040
1.0
1000

1000

1040
0.0
1040
0.0
0
HATCH
5
292
330
23C
100
AcDbEntity
8
0
6
Continuous
62
0
100
AcDbHatch
10
0.0
20
0.0
30
0.0
210
0.0
220
0.0
230
1.0
2
SOLID
70
1
71
0
91
1
92
2
72
0
73
1
93
3
10
0.0
20
0.0
10
-1.0
20
-0.1665
10
-1.0
20
0.1665
97
0
75
0
76
1
98
1
10
0.0
20
0.0
1001
VDEXTRAPARAM
1071
1
1071
0
1071
0
1040
1.0
1000

1000

1040
0.0
1040
0.0
1001
VD_TEMPHATCH
1000
VD_TEMPHATCH
0
ENDBLK
5
28C
330
23C
100
AcDbEntity
8
0
100
AcDbBlockEnd
0
BLOCK
5
28D
330
23E
100
AcDbEntity
8
0
100
AcDbBlockBegin
2
VDDIM_NONE
70
0
10
0.0
20
0.0
30
0.0
3
VDDIM_NONE
1

0
ENDBLK
5
28E
330
23E
100
AcDbEntity
8
0
100
AcDbBlockEnd
  0
BLOCK
  5
F10016
330
F1000C
100
AcDbEntity
  8
0
100
AcDbBlockBegin
  2
*D5
 70
     1
 10
0.0
 20
0.0
 30
0.0
  3
*D5
  1

  0
LINE
  5
F10017
330
F1000C
100
AcDbEntity
  8
Bemassung
 62
     0
370
    -2
100
AcDbLine
10
-15.2094535993062
20
-0.0789245446660942
30
0.000000000000000
11
-15.2094535993062
21
-8.07892454466609
31
0.000000000000000
  0
LINE
  5
F10018
330
F1000C
100
AcDbEntity
  8
Bemassung
 62
     0
370
    -2
100
AcDbLine
10
-33.2094535993062
20
-8.07892454466609
30
0.000000000000000
11
-33.2094535993062
21
25.9210754553339
31
0.000000000000000
  0
LINE
  5
F10019
330
F1000C
100
AcDbEntity
  8
Bemassung
 62
     0
370
    -2
100
AcDbLine
10
-15.2094535993062
20
-6.07892454466609
30
0.000000000000000
11
-33.2094535993062
21
-6.07892454466609
31
0.000000000000000
  0
INSERT
  5
F1001A
330
F1000C
100
AcDbEntity
  8
Bemassung
 62
     0
370
    -2
100
AcDbBlockReference
  2
VDDIM_DEFAULT
10
-15.2094535993062
20
-6.07892454466609
30
0.000000000000000
 41
2.50000000000000
 42
2.50000000000000
 43
2.50000000000000
  0
INSERT
  5
F1001B
330
F1000C
100
AcDbEntity
  8
Bemassung
 62
     0
370
    -2
100
AcDbBlockReference
  2
VDDIM_DEFAULT
10
-33.2094535993062
20
-6.07892454466609
30
0.000000000000000
 41
2.50000000000000
 42
2.50000000000000
 43
2.50000000000000
 50
180.000000000000
  0
MTEXT
  5
F1001C
330
F1000C
100
AcDbEntity
  8
Bemassung
 62
     0
100
AcDbMText
10
-24.2094535993062
20
-5.41225787799943
30
0.000000000000000
 40
2.50000000000000
 41
0.0
 71
     8
 72
     1
  1
18
 11
1.00000000000000
 21
0.000000000000000
 31
0.0
 73
     1
 44
1.0
1001
ACAD
1000
MTEXTBEGIN
1070
73
1070
1
1070
44
1040
1.0
1070
74
1070
0
1000
MTEXTEND
  0
POINT
  5
F1001D
330
F1000C
100
AcDbEntity
  8
Bemassung
 62
     0
100
AcDbPoint
10
-15.2094535993062
20
-0.0789245446660942
30
0.000000000000000
  0
POINT
  5
F1001E
330
F1000C
100
AcDbEntity
  8
Bemassung
 62
     0
100
AcDbPoint
10
-33.2094535993062
20
-8.07892454466609
30
0.000000000000000
  0
ENDBLK
  5
F1001F
330
F1000C
100
AcDbEntity
  8
0
100
AcDbBlockEnd
  0
BLOCK
  5
F10020
330
F10011
100
AcDbEntity
  8
0
100
AcDbBlockBegin
  2
*D6
 70
     1
 10
0.0
 20
0.0
 30
0.0
  3
*D6
  1

  0
LINE
  5
F10021
330
F10011
100
AcDbEntity
  8
Bemassung
 62
     0
370
    -2
100
AcDbLine
10
38.7905464006938
20
12.9210754553339
30
0.000000000000000
11
38.7905464006938
21
25.9210754553339
31
0.000000000000000
  0
LINE
  5
F10022
330
F10011
100
AcDbEntity
  8
Bemassung
 62
     0
370
    -2
100
AcDbLine
10
-33.2094535993062
20
-8.07892454466609
30
0.000000000000000
11
-33.2094535993062
21
25.9210754553339
31
0.000000000000000
  0
LINE
  5
F10023
330
F10011
100
AcDbEntity
  8
Bemassung
 62
     0
370
    -2
100
AcDbLine
10
38.7905464006938
20
23.9210754553339
30
0.000000000000000
11
-33.2094535993062
21
23.9210754553339
31
0.000000000000000
  0
INSERT
  5
F10024
330
F10011
100
AcDbEntity
  8
Bemassung
 62
     0
370
    -2
100
AcDbBlockReference
  2
VDDIM_DEFAULT
10
38.7905464006938
20
23.9210754553339
30
0.000000000000000
 41
2.50000000000000
 42
2.50000000000000
 43
2.50000000000000
  0
INSERT
  5
F10025
330
F10011
100
AcDbEntity
  8
Bemassung
 62
     0
370
    -2
100
AcDbBlockReference
  2
VDDIM_DEFAULT
10
-33.2094535993062
20
23.9210754553339
30
0.000000000000000
 41
2.50000000000000
 42
2.50000000000000
 43
2.50000000000000
 50
180.000000000000
  0
MTEXT
  5
F10026
330
F10011
100
AcDbEntity
  8
Bemassung
 62
     0
100
AcDbMText
10
2.79054640069381
20
24.5877421220006
30
0.000000000000000
 40
2.50000000000000
 41
0.0
 71
     8
 72
     1
  1
72
 11
1.00000000000000
 21
0.000000000000000
 31
0.0
 73
     1
 44
1.0
1001
ACAD
1000
MTEXTBEGIN
1070
73
1070
1
1070
44
1040
1.0
1070
74
1070
0
1000
MTEXTEND
  0
POINT
  5
F10027
330
F10011
100
AcDbEntity
  8
Bemassung
 62
     0
100
AcDbPoint
10
38.7905464006938
20
12.9210754553339
30
0.000000000000000
  0
POINT
  5
F10028
330
F10011
100
AcDbEntity
  8
Bemassung
 62
     0
100
AcDbPoint
10
-33.2094535993062
20
-8.07892454466609
30
0.000000000000000
  0
ENDBLK
  5
F10029
330
F10011
100
AcDbEntity
  8
0
100
AcDbBlockEnd
  0
BLOCK
  5
F1002A
330
F10002
100
AcDbEntity
  8
0
100
AcDbBlockBegin
  2
*D3
 70
     1
 10
0.0
 20
0.0
 30
0.0
  3
*D3
  1

  0
LINE
  5
F1002B
330
F10002
100
AcDbEntity
  8
Bemassung
 62
     0
370
    -2
100
AcDbLine
10
-33.2094535993062
20
-0.0789245446660942
30
0.000000000000000
11
-45.2094535993062
21
-0.0789245446660942
31
0.000000000000000
  0
LINE
  5
F1002C
330
F10002
100
AcDbEntity
  8
Bemassung
 62
     0
370
    -2
100
AcDbLine
10
-33.2094535993062
20
13.9210754553339
30
0.000000000000000
11
-45.2094535993062
21
13.9210754553339
31
0.000000000000000
  0
LINE
  5
F1002D
330
F10002
100
AcDbEntity
  8
Bemassung
 62
     0
370
    -2
100
AcDbLine
10
-43.2094535993062
20
-0.0789245446660942
30
0.000000000000000
11
-43.2094535993062
21
13.9210754553339
31
0.000000000000000
  0
INSERT
  5
F1002E
330
F10002
100
AcDbEntity
  8
Bemassung
 62
     0
370
    -2
100
AcDbBlockReference
  2
VDDIM_DEFAULT
10
-43.2094535993062
20
-0.0789245446660942
30
0.000000000000000
 41
2.50000000000000
 42
2.50000000000000
 43
2.50000000000000
 50
270.000000000000
  0
INSERT
  5
F1002F
330
F10002
100
AcDbEntity
  8
Bemassung
 62
     0
370
    -2
100
AcDbBlockReference
  2
VDDIM_DEFAULT
10
-43.2094535993062
20
13.9210754553339
30
0.000000000000000
 41
2.50000000000000
 42
2.50000000000000
 43
2.50000000000000
 50
90.0000000000000
  0
MTEXT
  5
F10030
330
F10002
100
AcDbEntity
  8
Bemassung
 62
     0
100
AcDbMText
10
-43.8761202659729
20
6.92107545533391
30
0.000000000000000
 40
2.50000000000000
 41
0.0
 71
     8
 72
     1
  1
Ø14
 11
6.12323399573677e-17
 21
1.00000000000000
 31
0.0
 73
     1
 44
1.0
1001
ACAD
1000
MTEXTBEGIN
1070
73
1070
1
1070
44
1040
1.0
1070
74
1070
0
1000
MTEXTEND
  0
POINT
  5
F10031
330
F10002
100
AcDbEntity
  8
Bemassung
 62
     0
100
AcDbPoint
10
-33.2094535993062
20
-0.0789245446660942
30
0.000000000000000
  0
POINT
  5
F10032
330
F10002
100
AcDbEntity
  8
Bemassung
 62
     0
100
AcDbPoint
10
-33.2094535993062
20
13.9210754553339
30
0.000000000000000
  0
ENDBLK
  5
F10033
330
F10002
100
AcDbEntity
  8
0
100
AcDbBlockEnd
  0
BLOCK
  5
F10034
330
F10007
100
AcDbEntity
  8
0
100
AcDbBlockBegin
  2
*D4
 70
     1
 10
0.0
 20
0.0
 30
0.0
  3
*D4
  1

  0
LINE
  5
F10035
330
F10007
100
AcDbEntity
  8
Bemassung
 62
     0
370
    -2
100
AcDbLine
10
37.7905464006938
20
-0.0789245446660942
30
0.000000000000000
11
50.7905464006938
21
-0.0789245446660942
31
0.000000000000000
  0
LINE
  5
F10036
330
F10007
100
AcDbEntity
  8
Bemassung
 62
     0
370
    -2
100
AcDbLine
10
37.7905464006938
20
13.9210754553339
30
0.000000000000000
11
50.7905464006938
21
13.9210754553339
31
0.000000000000000
  0
LINE
  5
F10037
330
F10007
100
AcDbEntity
  8
Bemassung
 62
     0
370
    -2
100
AcDbLine
10
48.7905464006938
20
-0.0789245446660942
30
0.000000000000000
11
48.7905464006938
21
13.9210754553339
31
0.000000000000000
  0
INSERT
  5
F10038
330
F10007
100
AcDbEntity
  8
Bemassung
 62
     0
370
    -2
100
AcDbBlockReference
  2
VDDIM_DEFAULT
10
48.7905464006938
20
-0.0789245446660942
30
0.000000000000000
 41
2.50000000000000
 42
2.50000000000000
 43
2.50000000000000
 50
270.000000000000
  0
INSERT
  5
F10039
330
F10007
100
AcDbEntity
  8
Bemassung
 62
     0
370
    -2
100
AcDbBlockReference
  2
VDDIM_DEFAULT
10
48.7905464006938
20
13.9210754553339
30
0.000000000000000
 41
2.50000000000000
 42
2.50000000000000
 43
2.50000000000000
 50
90.0000000000000
  0
MTEXT
  5
F1003A
330
F10007
100
AcDbEntity
  8
Bemassung
 62
     0
100
AcDbMText
10
48.1238797340271
20
6.92107545533391
30
0.000000000000000
 40
2.50000000000000
 41
0.0
 71
     8
 72
     1
  1
Ø14h6
 11
6.12323399573677e-17
 21
1.00000000000000
 31
0.0
 73
     1
 44
1.0
  0
POINT
  5
F1003B
330
F10007
100
AcDbEntity
  8
Bemassung
 62
     0
100
AcDbPoint
10
37.7905464006938
20
-0.0789245446660942
30
0.000000000000000
  0
POINT
  5
F1003C
330
F10007
100
AcDbEntity
  8
Bemassung
 62
     0
100
AcDbPoint
10
37.7905464006938
20
13.9210754553339
30
0.000000000000000
  0
ENDBLK
  5
F1003D
330
F10007
100
AcDbEntity
  8
0
100
AcDbBlockEnd
0
ENDSEC
0
SECTION
2
ENTITIES
  0
DIMENSION
  5
F1000D
330
261
100
AcDbEntity
  8
Bemassung
100
AcDbDimension
  2
*D5
10
-33.2094535993062
20
-6.07892454466609
30
0.000000000000000
11
-24.2094535993062
21
-5.41225787799943
31
0.000000000000000
 70
32
 1
18
 71
     8
  3
BEM-ISBE
100
AcDbAlignedDimension
13
-15.2094535993062
23
-0.0789245446660942
33
0.000000000000000
14
-33.2094535993062
24
-8.07892454466609
34
0.000000000000000
100
AcDbRotatedDimension
1001
ACAD
1000
DSTYLE
1002
{
1070
284
1070
8
1070
78
1070
8
1070
144
1040
1.00000000000000
1070
147
1040
0.625
1070
 72
1070
 0
1070
 71
1070
 0
1002
}
  0
DIMENSION
  5
F10012
330
261
100
AcDbEntity
  8
Bemassung
100
AcDbDimension
  2
*D6
10
-33.2094535993062
20
23.9210754553339
30
0.000000000000000
11
2.79054640069381
21
24.5877421220006
31
0.000000000000000
 70
32
 1
72
 71
     8
  3
BEM-ISBE
100
AcDbAlignedDimension
13
38.7905464006938
23
12.9210754553339
33
0.000000000000000
14
-33.2094535993062
24
-8.07892454466609
34
0.000000000000000
100
AcDbRotatedDimension
1001
ACAD
1000
DSTYLE
1002
{
1070
284
1070
8
1070
78
1070
8
1070
144
1040
1.00000000000000
1070
147
1040
0.625
1070
 72
1070
 0
1070
 71
1070
 0
1002
}
  0
DIMENSION
  5
F10003
330
261
100
AcDbEntity
  8
Bemassung
100
AcDbDimension
  2
*D3
10
-43.2094535993062
20
13.9210754553339
30
0.000000000000000
11
-43.8761202659729
21
6.92107545533391
31
0.000000000000000
 70
32
 1
Ø14
 71
     8
  3
BEM-ISBE
100
AcDbAlignedDimension
13
-33.2094535993062
23
-0.0789245446660942
33
0.000000000000000
14
-33.2094535993062
24
13.9210754553339
34
0.000000000000000
50
90.0000000000000
100
AcDbRotatedDimension
1001
ACAD
1000
DSTYLE
1002
{
1070
284
1070
8
1070
78
1070
8
1070
144
1040
1.00000000000000
1070
147
1040
0.625
1070
 72
1070
 0
1070
 71
1070
 0
1002
}
  0
DIMENSION
  5
F10008
330
261
100
AcDbEntity
  8
Bemassung
100
AcDbDimension
  2
*D4
10
48.7905464006938
20
13.9210754553339
30
0.000000000000000
11
48.1238797340271
21
6.92107545533391
31
0.000000000000000
 70
32
 1
Ø14h6
 71
     8
  3
BEM-ISBE
100
AcDbAlignedDimension
13
37.7905464006938
23
-0.0789245446660942
33
0.000000000000000
14
37.7905464006938
24
13.9210754553339
34
0.000000000000000
50
90.0000000000000
100
AcDbRotatedDimension
1001
ACAD
1000
DSTYLE
1002
{
1070
284
1070
8
1070
78
1070
8
1070
144
1040
1.00000000000000
1070
147
1040
0.625
1070
 72
1070
 0
1070
 71
1070
 0
1002
}
  0
LINE
  5
F1003E
330
F1003F
100
AcDbEntity
8
Geo
100
AcDbLine
10
-33.2094535993062
20
6.92107545533391
30
0.000000000000000
11
-33.2094535993062
21
13.9210754553339
31
0.000000000000000
  0
LINE
  5
F10040
330
F10041
100
AcDbEntity
8
Geo
100
AcDbLine
10
-33.2094535993062
20
13.9210754553339
30
0.000000000000000
11
-15.2094535993062
21
13.9210754553339
31
0.000000000000000
  0
LINE
  5
F10042
330
F10043
100
AcDbEntity
8
Geo
100
AcDbLine
10
-15.2094535993062
20
13.9210754553339
30
0.000000000000000
11
37.7905464006938
21
13.9210754553339
31
0.000000000000000
  0
LINE
  5
F10044
330
F10045
100
AcDbEntity
8
Geo
100
AcDbLine
10
37.7905464006938
20
13.9210754553339
30
0.000000000000000
11
38.7905464006938
21
12.9210754553339
31
0.000000000000000
  0
LINE
  5
F10046
330
F10047
100
AcDbEntity
8
Geo
100
AcDbLine
10
-33.2094535993062
20
13.9210754553339
30
0.000000000000000
11
-33.1094535993062
21
13.9203611817673
31
0.000000000000000
  0
LINE
  5
F10048
330
F10049
100
AcDbEntity
8
Geo
100
AcDbLine
10
-33.1094535993062
20
13.9203611817673
30
0.000000000000000
11
-33.0094535993062
21
13.9182185068349
31
0.000000000000000
  0
LINE
  5
F1004A
330
F1004B
100
AcDbEntity
8
Geo
100
AcDbLine
10
-33.0094535993062
20
13.9182185068349
30
0.000000000000000
11
-32.9094535993062
21
13.9146478678101
31
0.000000000000000
  0
LINE
  5
F1004C
330
F1004D
100
AcDbEntity
8
Geo
100
AcDbLine
10
-32.9094535993062
20
13.9146478678101
30
0.000000000000000
11
-32.8094535993062
21
13.9096499933822
31
0.000000000000000
  0
LINE
  5
F1004E
330
F1004F
100
AcDbEntity
8
Geo
100
AcDbLine
10
-32.8094535993062
20
13.9096499933822
30
0.000000000000000
11
-32.7094535993062
21
13.9032259035083
31
0.000000000000000
  0
LINE
  5
F10050
330
F10051
100
AcDbEntity
8
Geo
100
AcDbLine
10
-32.7094535993062
20
13.9032259035083
30
0.000000000000000
11
-32.6094535993062
21
13.8953769092048
31
0.000000000000000
  0
LINE
  5
F10052
330
F10053
100
AcDbEntity
8
Geo
100
AcDbLine
10
-32.6094535993062
20
13.8953769092048
30
0.000000000000000
11
-32.5094535993062
21
13.8861046122801
31
0.000000000000000
  0
LINE
  5
F10054
330
F10055
100
AcDbEntity
8
Geo
100
AcDbLine
10
-32.5094535993062
20
13.8861046122801
30
0.000000000000000
11
-32.4094535993062
21
13.8754109050074
31
0.000000000000000
  0
LINE
  5
F10056
330
F10057
100
AcDbEntity
8
Geo
100
AcDbLine
10
-32.4094535993062
20
13.8754109050074
30
0.000000000000000
11
-32.3094535993062
21
13.8632979697389
31
0.000000000000000
  0
LINE
  5
F10058
330
F10059
100
AcDbEntity
8
Geo
100
AcDbLine
10
-32.3094535993062
20
13.8632979697389
30
0.000000000000000
11
-32.2094535993062
21
13.8497682784602
31
0.000000000000000
  0
LINE
  5
F1005A
330
F1005B
100
AcDbEntity
8
Geo
100
AcDbLine
10
-32.2094535993062
20
13.8497682784602
30
0.000000000000000
11
-32.1094535993062
21
13.8348245922858
31
0.000000000000000
  0
LINE
  5
F1005C
330
F1005D
100
AcDbEntity
8
Geo
100
AcDbLine
10
-32.1094535993062
20
13.8348245922858
30
0.000000000000000
11
-32.0094535993062
21
13.8184699608956
31
0.000000000000000
  0
LINE
  5
F1005E
330
F1005F
100
AcDbEntity
8
Geo
100
AcDbLine
10
-32.0094535993062
20
13.8184699608956
30
0.000000000000000
11
-31.9094535993062
21
13.8007077219129
31
0.000000000000000
  0
LINE
  5
F10060
330
F10061
100
AcDbEntity
8
Geo
100
AcDbLine
10
-31.9094535993062
20
13.8007077219129
30
0.000000000000000
11
-31.8094535993062
21
13.7815415002226
31
0.000000000000000
  0
LINE
  5
F10062
330
F10063
100
AcDbEntity
8
Geo
100
AcDbLine
10
-31.8094535993062
20
13.7815415002226
30
0.000000000000000
11
-31.7094535993062
21
13.7609752072321
31
0.000000000000000
  0
LINE
  5
F10064
330
F10065
100
AcDbEntity
8
Geo
100
AcDbLine
10
-31.7094535993062
20
13.7609752072321
30
0.000000000000000
11
-31.6094535993062
21
13.7390130400727
31
0.000000000000000
  0
LINE
  5
F10066
330
F10067
100
AcDbEntity
8
Geo
100
AcDbLine
10
-31.6094535993062
20
13.7390130400727
30
0.000000000000000
11
-31.5094535993062
21
13.7156594807430
31
0.000000000000000
  0
LINE
  5
F10068
330
F10069
100
AcDbEntity
8
Geo
100
AcDbLine
10
-31.5094535993062
20
13.7156594807430
30
0.000000000000000
11
-31.4094535993062
21
13.6909192951945
31
0.000000000000000
  0
LINE
  5
F1006A
330
F1006B
100
AcDbEntity
8
Geo
100
AcDbLine
10
-31.4094535993062
20
13.6909192951945
30
0.000000000000000
11
-31.3094535993062
21
13.6647975323588
31
0.000000000000000
  0
LINE
  5
F1006C
330
F1006D
100
AcDbEntity
8
Geo
100
AcDbLine
10
-31.3094535993062
20
13.6647975323588
30
0.000000000000000
11
-31.2094535993062
21
13.6372995231173
31
0.000000000000000
  0
LINE
  5
F1006E
330
F1006F
100
AcDbEntity
8
Geo
100
AcDbLine
10
-31.2094535993062
20
13.6372995231173
30
0.000000000000000
11
-31.1094535993062
21
13.6084308792131
31
0.000000000000000
  0
LINE
  5
F10070
330
F10071
100
AcDbEntity
8
Geo
100
AcDbLine
10
-31.1094535993062
20
13.6084308792131
30
0.000000000000000
11
-31.0094535993062
21
13.5781974921061
31
0.000000000000000
  0
LINE
  5
F10072
330
F10073
100
AcDbEntity
8
Geo
100
AcDbLine
10
-31.0094535993062
20
13.5781974921061
30
0.000000000000000
11
-30.9094535993062
21
13.5466055317702
31
0.000000000000000
  0
LINE
  5
F10074
330
F10075
100
AcDbEntity
8
Geo
100
AcDbLine
10
-30.9094535993062
20
13.5466055317702
30
0.000000000000000
11
-30.8094535993062
21
13.5136614454347
31
0.000000000000000
  0
LINE
  5
F10076
330
F10077
100
AcDbEntity
8
Geo
100
AcDbLine
10
-30.8094535993062
20
13.5136614454347
30
0.000000000000000
11
-30.7094535993062
21
13.4793719562682
31
0.000000000000000
  0
LINE
  5
F10078
330
F10079
100
AcDbEntity
8
Geo
100
AcDbLine
10
-30.7094535993062
20
13.4793719562682
30
0.000000000000000
11
-30.6094535993062
21
13.4437440620066
31
0.000000000000000
  0
LINE
  5
F1007A
330
F1007B
100
AcDbEntity
8
Geo
100
AcDbLine
10
-30.6094535993062
20
13.4437440620066
30
0.000000000000000
11
-30.5094535993062
21
13.4067850335250
31
0.000000000000000
  0
LINE
  5
F1007C
330
F1007D
100
AcDbEntity
8
Geo
100
AcDbLine
10
-30.5094535993062
20
13.4067850335250
30
0.000000000000000
11
-30.4094535993062
21
13.3685024133541
31
0.000000000000000
  0
LINE
  5
F1007E
330
F1007F
100
AcDbEntity
8
Geo
100
AcDbLine
10
-30.4094535993062
20
13.3685024133541
30
0.000000000000000
11
-30.3094535993062
21
13.3289040141406
31
0.000000000000000
  0
LINE
  5
F10080
330
F10081
100
AcDbEntity
8
Geo
100
AcDbLine
10
-30.3094535993062
20
13.3289040141406
30
0.000000000000000
11
-30.2094535993062
21
13.2879979170531
31
0.000000000000000
  0
LINE
  5
F10082
330
F10083
100
AcDbEntity
8
Geo
100
AcDbLine
10
-30.2094535993062
20
13.2879979170531
30
0.000000000000000
11
-30.1094535993062
21
13.2457924701326
31
0.000000000000000
  0
LINE
  5
F10084
330
F10085
100
AcDbEntity
8
Geo
100
AcDbLine
10
-30.1094535993062
20
13.2457924701326
30
0.000000000000000
11
-30.0094535993062
21
13.2022962865892
31
0.000000000000000
  0
LINE
  5
F10086
330
F10087
100
AcDbEntity
8
Geo
100
AcDbLine
10
-30.0094535993062
20
13.2022962865892
30
0.000000000000000
11
-29.9094535993062
21
13.1575182430440
31
0.000000000000000
  0
LINE
  5
F10088
330
F10089
100
AcDbEntity
8
Geo
100
AcDbLine
10
-29.9094535993062
20
13.1575182430440
30
0.000000000000000
11
-29.8094535993062
21
13.1114674777179
31
0.000000000000000
  0
LINE
  5
F1008A
330
F1008B
100
AcDbEntity
8
Geo
100
AcDbLine
10
-29.8094535993062
20
13.1114674777179
30
0.000000000000000
11
-29.7094535993062
21
13.0641533885665
31
0.000000000000000
  0
LINE
  5
F1008C
330
F1008D
100
AcDbEntity
8
Geo
100
AcDbLine
10
-29.7094535993062
20
13.0641533885665
30
0.000000000000000
11
-29.6094535993062
21
13.0155856313621
31
0.000000000000000
  0
LINE
  5
F1008E
330
F1008F
100
AcDbEntity
8
Geo
100
AcDbLine
10
-29.6094535993062
20
13.0155856313621
30
0.000000000000000
11
-29.5094535993062
21
12.9657741177232
31
0.000000000000000
  0
LINE
  5
F10090
330
F10091
100
AcDbEntity
8
Geo
100
AcDbLine
10
-29.5094535993062
20
12.9657741177232
30
0.000000000000000
11
-29.4094535993062
21
12.9147290130920
31
0.000000000000000
  0
LINE
  5
F10092
330
F10093
100
AcDbEntity
8
Geo
100
AcDbLine
10
-29.4094535993062
20
12.9147290130920
30
0.000000000000000
11
-29.3094535993062
21
12.8624607346598
31
0.000000000000000
  0
LINE
  5
F10094
330
F10095
100
AcDbEntity
8
Geo
100
AcDbLine
10
-29.3094535993062
20
12.8624607346598
30
0.000000000000000
11
-29.2094535993062
21
12.8089799492406
31
0.000000000000000
  0
LINE
  5
F10096
330
F10097
100
AcDbEntity
8
Geo
100
AcDbLine
10
-29.2094535993062
20
12.8089799492406
30
0.000000000000000
11
-29.1094535993062
21
12.7542975710948
31
0.000000000000000
  0
LINE
  5
F10098
330
F10099
100
AcDbEntity
8
Geo
100
AcDbLine
10
-29.1094535993062
20
12.7542975710948
30
0.000000000000000
11
-29.0094535993062
21
12.6984247597017
31
0.000000000000000
  0
LINE
  5
F1009A
330
F1009B
100
AcDbEntity
8
Geo
100
AcDbLine
10
-29.0094535993062
20
12.6984247597017
30
0.000000000000000
11
-28.9094535993062
21
12.6413729174818
31
0.000000000000000
  0
LINE
  5
F1009C
330
F1009D
100
AcDbEntity
8
Geo
100
AcDbLine
10
-28.9094535993062
20
12.6413729174818
30
0.000000000000000
11
-28.8094535993062
21
12.5831536874704
31
0.000000000000000
  0
LINE
  5
F1009E
330
F1009F
100
AcDbEntity
8
Geo
100
AcDbLine
10
-28.8094535993062
20
12.5831536874704
30
0.000000000000000
11
-28.7094535993062
21
12.5237789509409
31
0.000000000000000
  0
LINE
  5
F100A0
330
F100A1
100
AcDbEntity
8
Geo
100
AcDbLine
10
-28.7094535993062
20
12.5237789509409
30
0.000000000000000
11
-28.6094535993062
21
12.4632608249802
31
0.000000000000000
  0
LINE
  5
F100A2
330
F100A3
100
AcDbEntity
8
Geo
100
AcDbLine
10
-28.6094535993062
20
12.4632608249802
30
0.000000000000000
11
-28.5094535993062
21
12.4016116600164
31
0.000000000000000
  0
LINE
  5
F100A4
330
F100A5
100
AcDbEntity
8
Geo
100
AcDbLine
10
-28.5094535993062
20
12.4016116600164
30
0.000000000000000
11
-28.4094535993062
21
12.3388440372978
31
0.000000000000000
  0
LINE
  5
F100A6
330
F100A7
100
AcDbEntity
8
Geo
100
AcDbLine
10
-28.4094535993062
20
12.3388440372978
30
0.000000000000000
11
-28.3094535993062
21
12.2749707663253
31
0.000000000000000
  0
LINE
  5
F100A8
330
F100A9
100
AcDbEntity
8
Geo
100
AcDbLine
10
-28.3094535993062
20
12.2749707663253
30
0.000000000000000
11
-28.2094535993062
21
12.2100048822388
31
0.000000000000000
  0
LINE
  5
F100AA
330
F100AB
100
AcDbEntity
8
Geo
100
AcDbLine
10
-28.2094535993062
20
12.2100048822388
30
0.000000000000000
11
-28.1094535993062
21
12.1439596431564
31
0.000000000000000
  0
LINE
  5
F100AC
330
F100AD
100
AcDbEntity
8
Geo
100
AcDbLine
10
-28.1094535993062
20
12.1439596431564
30
0.000000000000000
11
-28.0094535993062
21
12.0768485274691
31
0.000000000000000
  0
LINE
  5
F100AE
330
F100AF
100
AcDbEntity
8
Geo
100
AcDbLine
10
-28.0094535993062
20
12.0768485274691
30
0.000000000000000
11
-27.9094535993062
21
12.0086852310901
31
0.000000000000000
  0
LINE
  5
F100B0
330
F100B1
100
AcDbEntity
8
Geo
100
AcDbLine
10
-27.9094535993062
20
12.0086852310901
30
0.000000000000000
11
-27.8094535993062
21
11.9394836646596
31
0.000000000000000
  0
LINE
  5
F100B2
330
F100B3
100
AcDbEntity
8
Geo
100
AcDbLine
10
-27.8094535993062
20
11.9394836646596
30
0.000000000000000
11
-27.7094535993062
21
11.8692579507060
31
0.000000000000000
  0
LINE
  5
F100B4
330
F100B5
100
AcDbEntity
8
Geo
100
AcDbLine
10
-27.7094535993062
20
11.8692579507060
30
0.000000000000000
11
-27.6094535993062
21
11.7980224207641
31
0.000000000000000
  0
LINE
  5
F100B6
330
F100B7
100
AcDbEntity
8
Geo
100
AcDbLine
10
-27.6094535993062
20
11.7980224207641
30
0.000000000000000
11
-27.5094535993062
21
11.7257916124497
31
0.000000000000000
  0
LINE
  5
F100B8
330
F100B9
100
AcDbEntity
8
Geo
100
AcDbLine
10
-27.5094535993062
20
11.7257916124497
30
0.000000000000000
11
-27.4094535993062
21
11.6525802664936
31
0.000000000000000
  0
LINE
  5
F100BA
330
F100BB
100
AcDbEntity
8
Geo
100
AcDbLine
10
-27.4094535993062
20
11.6525802664936
30
0.000000000000000
11
-27.3094535993062
21
11.5784033237326
31
0.000000000000000
  0
LINE
  5
F100BC
330
F100BD
100
AcDbEntity
8
Geo
100
AcDbLine
10
-27.3094535993062
20
11.5784033237326
30
0.000000000000000
11
-27.2094535993062
21
11.5032759220608
31
0.000000000000000
  0
LINE
  5
F100BE
330
F100BF
100
AcDbEntity
8
Geo
100
AcDbLine
10
-27.2094535993062
20
11.5032759220608
30
0.000000000000000
11
-27.1094535993062
21
11.4272133933403
31
0.000000000000000
  0
LINE
  5
F100C0
330
F100C1
100
AcDbEntity
8
Geo
100
AcDbLine
10
-27.1094535993062
20
11.4272133933403
30
0.000000000000000
11
-27.0094535993062
21
11.3502312602721
31
0.000000000000000
  0
LINE
  5
F100C2
330
F100C3
100
AcDbEntity
8
Geo
100
AcDbLine
10
-27.0094535993062
20
11.3502312602721
30
0.000000000000000
11
-26.9094535993062
21
11.2723452332286
31
0.000000000000000
  0
LINE
  5
F100C4
330
F100C5
100
AcDbEntity
8
Geo
100
AcDbLine
10
-26.9094535993062
20
11.2723452332286
30
0.000000000000000
11
-26.8094535993062
21
11.1935712070468
31
0.000000000000000
  0
LINE
  5
F100C6
330
F100C7
100
AcDbEntity
8
Geo
100
AcDbLine
10
-26.8094535993062
20
11.1935712070468
30
0.000000000000000
11
-26.7094535993062
21
11.1139252577852
31
0.000000000000000
  0
LINE
  5
F100C8
330
F100C9
100
AcDbEntity
8
Geo
100
AcDbLine
10
-26.7094535993062
20
11.1139252577852
30
0.000000000000000
11
-26.6094535993062
21
11.0334236394429
31
0.000000000000000
  0
LINE
  5
F100CA
330
F100CB
100
AcDbEntity
8
Geo
100
AcDbLine
10
-26.6094535993062
20
11.0334236394429
30
0.000000000000000
11
-26.5094535993062
21
10.9520827806420
31
0.000000000000000
  0
LINE
  5
F100CC
330
F100CD
100
AcDbEntity
8
Geo
100
AcDbLine
10
-26.5094535993062
20
10.9520827806420
30
0.000000000000000
11
-26.4094535993062
21
10.8699192812756
31
0.000000000000000
  0
LINE
  5
F100CE
330
F100CF
100
AcDbEntity
8
Geo
100
AcDbLine
10
-26.4094535993062
20
10.8699192812756
30
0.000000000000000
11
-26.3094535993062
21
10.7869499091196
31
0.000000000000000
  0
LINE
  5
F100D0
330
F100D1
100
AcDbEntity
8
Geo
100
AcDbLine
10
-26.3094535993062
20
10.7869499091196
30
0.000000000000000
11
-26.2094535993062
21
10.7031915964109
31
0.000000000000000
  0
LINE
  5
F100D2
330
F100D3
100
AcDbEntity
8
Geo
100
AcDbLine
10
-26.2094535993062
20
10.7031915964109
30
0.000000000000000
11
-26.1094535993062
21
10.6186614363920
31
0.000000000000000
  0
LINE
  5
F100D4
330
F100D5
100
AcDbEntity
8
Geo
100
AcDbLine
10
-26.1094535993062
20
10.6186614363920
30
0.000000000000000
11
-26.0094535993062
21
10.5333766798227
31
0.000000000000000
  0
LINE
  5
F100D6
330
F100D7
100
AcDbEntity
8
Geo
100
AcDbLine
10
-26.0094535993062
20
10.5333766798227
30
0.000000000000000
11
-25.9094535993062
21
10.4473547314592
31
0.000000000000000
  0
LINE
  5
F100D8
330
F100D9
100
AcDbEntity
8
Geo
100
AcDbLine
10
-25.9094535993062
20
10.4473547314592
30
0.000000000000000
11
-25.8094535993062
21
10.3606131465027
31
0.000000000000000
  0
LINE
  5
F100DA
330
F100DB
100
AcDbEntity
8
Geo
100
AcDbLine
10
-25.8094535993062
20
10.3606131465027
30
0.000000000000000
11
-25.7094535993062
21
10.2731696270164
31
0.000000000000000
  0
LINE
  5
F100DC
330
F100DD
100
AcDbEntity
8
Geo
100
AcDbLine
10
-25.7094535993062
20
10.2731696270164
30
0.000000000000000
11
-25.6094535993062
21
10.1850420183130
31
0.000000000000000
  0
LINE
  5
F100DE
330
F100DF
100
AcDbEntity
8
Geo
100
AcDbLine
10
-25.6094535993062
20
10.1850420183130
30
0.000000000000000
11
-25.5094535993062
21
10.0962483053130
31
0.000000000000000
  0
LINE
  5
F100E0
330
F100E1
100
AcDbEntity
8
Geo
100
AcDbLine
10
-25.5094535993062
20
10.0962483053130
30
0.000000000000000
11
-25.4094535993062
21
10.0068066088740
31
0.000000000000000
  0
LINE
  5
F100E2
330
F100E3
100
AcDbEntity
8
Geo
100
AcDbLine
10
-25.4094535993062
20
10.0068066088740
30
0.000000000000000
11
-25.3094535993062
21
9.91673518209303
31
0.000000000000000
  0
LINE
  5
F100E4
330
F100E5
100
AcDbEntity
8
Geo
100
AcDbLine
10
-25.3094535993062
20
9.91673518209303
30
0.000000000000000
11
-25.2094535993062
21
9.82605240658139
31
0.000000000000000
  0
LINE
  5
F100E6
330
F100E7
100
AcDbEntity
8
Geo
100
AcDbLine
10
-25.2094535993062
20
9.82605240658139
30
0.000000000000000
11
-25.1094535993062
21
9.73477678871317
31
0.000000000000000
  0
LINE
  5
F100E8
330
F100E9
100
AcDbEntity
8
Geo
100
AcDbLine
10
-25.1094535993062
20
9.73477678871317
30
0.000000000000000
11
-25.0094535993062
21
9.64292695584870
31
0.000000000000000
  0
LINE
  5
F100EA
330
F100EB
100
AcDbEntity
8
Geo
100
AcDbLine
10
-25.0094535993062
20
9.64292695584870
30
0.000000000000000
11
-24.9094535993062
21
9.55052165253304
31
0.000000000000000
  0
LINE
  5
F100EC
330
F100ED
100
AcDbEntity
8
Geo
100
AcDbLine
10
-24.9094535993062
20
9.55052165253304
30
0.000000000000000
11
-24.8094535993062
21
9.45757973667063
31
0.000000000000000
  0
LINE
  5
F100EE
330
F100EF
100
AcDbEntity
8
Geo
100
AcDbLine
10
-24.8094535993062
20
9.45757973667063
30
0.000000000000000
11
-24.7094535993062
21
9.36412017567684
31
0.000000000000000
  0
LINE
  5
F100F0
330
F100F1
100
AcDbEntity
8
Geo
100
AcDbLine
10
-24.7094535993062
20
9.36412017567684
30
0.000000000000000
11
-24.6094535993062
21
9.27016204260708
31
0.000000000000000
  0
LINE
  5
F100F2
330
F100F3
100
AcDbEntity
8
Geo
100
AcDbLine
10
-24.6094535993062
20
9.27016204260708
30
0.000000000000000
11
-24.5094535993062
21
9.17572451226444
31
0.000000000000000
  0
LINE
  5
F100F4
330
F100F5
100
AcDbEntity
8
Geo
100
AcDbLine
10
-24.5094535993062
20
9.17572451226444
30
0.000000000000000
11
-24.4094535993062
21
9.08082685728654
31
0.000000000000000
  0
LINE
  5
F100F6
330
F100F7
100
AcDbEntity
8
Geo
100
AcDbLine
10
-24.4094535993062
20
9.08082685728654
30
0.000000000000000
11
-24.3094535993062
21
8.98548844421236
31
0.000000000000000
  0
LINE
  5
F100F8
330
F100F9
100
AcDbEntity
8
Geo
100
AcDbLine
10
-24.3094535993062
20
8.98548844421236
30
0.000000000000000
11
-24.2094535993062
21
8.88972872953000
31
0.000000000000000
  0
LINE
  5
F100FA
330
F100FB
100
AcDbEntity
8
Geo
100
AcDbLine
10
-24.2094535993062
20
8.88972872953000
30
0.000000000000000
11
-24.1094535993062
21
8.79356725570603
31
0.000000000000000
  0
LINE
  5
F100FC
330
F100FD
100
AcDbEntity
8
Geo
100
AcDbLine
10
-24.1094535993062
20
8.79356725570603
30
0.000000000000000
11
-24.0094535993062
21
8.69702364719727
31
0.000000000000000
  0
LINE
  5
F100FE
330
F100FF
100
AcDbEntity
8
Geo
100
AcDbLine
10
-24.0094535993062
20
8.69702364719727
30
0.000000000000000
11
-23.9094535993062
21
8.60011760644588
31
0.000000000000000
  0
LINE
  5
F10100
330
F10101
100
AcDbEntity
8
Geo
100
AcDbLine
10
-23.9094535993062
20
8.60011760644588
30
0.000000000000000
11
-23.8094535993062
21
8.50286890985853
31
0.000000000000000
  0
LINE
  5
F10102
330
F10103
100
AcDbEntity
8
Geo
100
AcDbLine
10
-23.8094535993062
20
8.50286890985853
30
0.000000000000000
11
-23.7094535993062
21
8.40529740377048
31
0.000000000000000
  0
LINE
  5
F10104
330
F10105
100
AcDbEntity
8
Geo
100
AcDbLine
10
-23.7094535993062
20
8.40529740377048
30
0.000000000000000
11
-23.6094535993062
21
8.30742300039535
31
0.000000000000000
  0
LINE
  5
F10106
330
F10107
100
AcDbEntity
8
Geo
100
AcDbLine
10
-23.6094535993062
20
8.30742300039535
30
0.000000000000000
11
-23.5094535993062
21
8.20926567376146
31
0.000000000000000
  0
LINE
  5
F10108
330
F10109
100
AcDbEntity
8
Geo
100
AcDbLine
10
-23.5094535993062
20
8.20926567376146
30
0.000000000000000
11
-23.4094535993062
21
8.11084545563561
31
0.000000000000000
  0
LINE
  5
F1010A
330
F1010B
100
AcDbEntity
8
Geo
100
AcDbLine
10
-23.4094535993062
20
8.11084545563561
30
0.000000000000000
11
-23.3094535993062
21
8.01218243143502
31
0.000000000000000
  0
LINE
  5
F1010C
330
F1010D
100
AcDbEntity
8
Geo
100
AcDbLine
10
-23.3094535993062
20
8.01218243143502
30
0.000000000000000
11
-23.2094535993062
21
7.91329673612831
31
0.000000000000000
  0
LINE
  5
F1010E
330
F1010F
100
AcDbEntity
8
Geo
100
AcDbLine
10
-23.2094535993062
20
7.91329673612831
30
0.000000000000000
11
-23.1094535993062
21
7.81420855012641
31
0.000000000000000
  0
LINE
  5
F10110
330
F10111
100
AcDbEntity
8
Geo
100
AcDbLine
10
-23.1094535993062
20
7.81420855012641
30
0.000000000000000
11
-23.0094535993062
21
7.71493809516420
31
0.000000000000000
  0
LINE
  5
F10112
330
F10113
100
AcDbEntity
8
Geo
100
AcDbLine
10
-23.0094535993062
20
7.71493809516420
30
0.000000000000000
11
-22.9094535993062
21
7.61550563017365
31
0.000000000000000
  0
LINE
  5
F10114
330
F10115
100
AcDbEntity
8
Geo
100
AcDbLine
10
-22.9094535993062
20
7.61550563017365
30
0.000000000000000
11
-22.8094535993062
21
7.51593144714945
31
0.000000000000000
  0
LINE
  5
F10116
330
F10117
100
AcDbEntity
8
Geo
100
AcDbLine
10
-22.8094535993062
20
7.51593144714945
30
0.000000000000000
11
-22.7094535993062
21
7.41623586700785
31
0.000000000000000
  0
LINE
  5
F10118
330
F10119
100
AcDbEntity
8
Geo
100
AcDbLine
10
-22.7094535993062
20
7.41623586700785
30
0.000000000000000
11
-22.6094535993062
21
7.31643923543958
31
0.000000000000000
  0
LINE
  5
F1011A
330
F1011B
100
AcDbEntity
8
Geo
100
AcDbLine
10
-22.6094535993062
20
7.31643923543958
30
0.000000000000000
11
-22.5094535993062
21
7.21656191875779
31
0.000000000000000
  0
LINE
  5
F1011C
330
F1011D
100
AcDbEntity
8
Geo
100
AcDbLine
10
-22.5094535993062
20
7.21656191875779
30
0.000000000000000
11
-22.4094535993062
21
7.11662429974168
31
0.000000000000000
  0
LINE
  5
F1011E
330
F1011F
100
AcDbEntity
8
Geo
100
AcDbLine
10
-22.4094535993062
20
7.11662429974168
30
0.000000000000000
11
-22.3094535993062
21
7.01664677347683
31
0.000000000000000
  0
LINE
  5
F10120
330
F10121
100
AcDbEntity
8
Geo
100
AcDbLine
10
-22.3094535993062
20
7.01664677347683
30
0.000000000000000
11
-22.2094535993062
21
6.91664974319306
31
0.000000000000000
  0
LINE
  5
F10122
330
F10123
100
AcDbEntity
8
Geo
100
AcDbLine
10
-22.2094535993062
20
6.91664974319306
30
0.000000000000000
11
-22.1094535993062
21
6.81665361610047
31
0.000000000000000
  0
LINE
  5
F10124
330
F10125
100
AcDbEntity
8
Geo
100
AcDbLine
10
-22.1094535993062
20
6.81665361610047
30
0.000000000000000
11
-22.0094535993062
21
6.71667879922491
31
0.000000000000000
  0
LINE
  5
F10126
330
F10127
100
AcDbEntity
8
Geo
100
AcDbLine
10
-22.0094535993062
20
6.71667879922491
30
0.000000000000000
11
-21.9094535993062
21
6.61674569524322
31
0.000000000000000
  0
LINE
  5
F10128
330
F10129
100
AcDbEntity
8
Geo
100
AcDbLine
10
-21.9094535993062
20
6.61674569524322
30
0.000000000000000
11
-21.8094535993062
21
6.51687469831958
31
0.000000000000000
  0
LINE
  5
F1012A
330
F1012B
100
AcDbEntity
8
Geo
100
AcDbLine
10
-21.8094535993062
20
6.51687469831958
30
0.000000000000000
11
-21.7094535993062
21
6.41708618994347
31
0.000000000000000
  0
LINE
  5
F1012C
330
F1012D
100
AcDbEntity
8
Geo
100
AcDbLine
10
-21.7094535993062
20
6.41708618994347
30
0.000000000000000
11
-21.6094535993062
21
6.31740053477026
31
0.000000000000000
  0
LINE
  5
F1012E
330
F1012F
100
AcDbEntity
8
Geo
100
AcDbLine
10
-21.6094535993062
20
6.31740053477026
30
0.000000000000000
11
-21.5094535993062
21
6.21783807646522
31
0.000000000000000
  0
LINE
  5
F10130
330
F10131
100
AcDbEntity
8
Geo
100
AcDbLine
10
-21.5094535993062
20
6.21783807646522
30
0.000000000000000
11
-21.4094535993062
21
6.11841913355185
31
0.000000000000000
  0
LINE
  5
F10132
330
F10133
100
AcDbEntity
8
Geo
100
AcDbLine
10
-21.4094535993062
20
6.11841913355185
30
0.000000000000000
11
-21.3094535993062
21
6.01916399526526
31
0.000000000000000
  0
LINE
  5
F10134
330
F10135
100
AcDbEntity
8
Geo
100
AcDbLine
10
-21.3094535993062
20
6.01916399526526
30
0.000000000000000
11
-21.2094535993062
21
5.92009291741164
31
0.000000000000000
  0
LINE
  5
F10136
330
F10137
100
AcDbEntity
8
Geo
100
AcDbLine
10
-21.2094535993062
20
5.92009291741164
30
0.000000000000000
11
-21.1094535993062
21
5.82122611823445
31
0.000000000000000
  0
LINE
  5
F10138
330
F10139
100
AcDbEntity
8
Geo
100
AcDbLine
10
-21.1094535993062
20
5.82122611823445
30
0.000000000000000
11
-21.0094535993062
21
5.72258377428834
31
0.000000000000000
  0
LINE
  5
F1013A
330
F1013B
100
AcDbEntity
8
Geo
100
AcDbLine
10
-21.0094535993062
20
5.72258377428834
30
0.000000000000000
11
-20.9094535993062
21
5.62418601632156
31
0.000000000000000
  0
LINE
  5
F1013C
330
F1013D
100
AcDbEntity
8
Geo
100
AcDbLine
10
-20.9094535993062
20
5.62418601632156
30
0.000000000000000
11
-20.8094535993062
21
5.52605292516768
31
0.000000000000000
  0
LINE
  5
F1013E
330
F1013F
100
AcDbEntity
8
Geo
100
AcDbLine
10
-20.8094535993062
20
5.52605292516768
30
0.000000000000000
11
-20.7094535993062
21
5.42820452764756
31
0.000000000000000
  0
LINE
  5
F10140
330
F10141
100
AcDbEntity
8
Geo
100
AcDbLine
10
-20.7094535993062
20
5.42820452764756
30
0.000000000000000
11
-20.6094535993062
21
5.33066079248232
31
0.000000000000000
  0
LINE
  5
F10142
330
F10143
100
AcDbEntity
8
Geo
100
AcDbLine
10
-20.6094535993062
20
5.33066079248232
30
0.000000000000000
11
-20.5094535993062
21
5.23344162621814
31
0.000000000000000
  0
LINE
  5
F10144
330
F10145
100
AcDbEntity
8
Geo
100
AcDbLine
10
-20.5094535993062
20
5.23344162621814
30
0.000000000000000
11
-20.4094535993062
21
5.13656686916376
31
0.000000000000000
  0
LINE
  5
F10146
330
F10147
100
AcDbEntity
8
Geo
100
AcDbLine
10
-20.4094535993062
20
5.13656686916376
30
0.000000000000000
11
-20.3094535993062
21
5.04005629134155
31
0.000000000000000
  0
LINE
  5
F10148
330
F10149
100
AcDbEntity
8
Geo
100
AcDbLine
10
-20.3094535993062
20
5.04005629134155
30
0.000000000000000
11
-20.2094535993062
21
4.94392958845282
31
0.000000000000000
  0
LINE
  5
F1014A
330
F1014B
100
AcDbEntity
8
Geo
100
AcDbLine
10
-33.2094535993062
20
6.92107545533391
30
0.000000000000000
11
-33.1094535993062
21
6.82107885665972
31
0.000000000000000
  0
LINE
  5
F1014C
330
F1014D
100
AcDbEntity
8
Geo
100
AcDbLine
10
-33.1094535993062
20
6.82107885665972
30
0.000000000000000
11
-33.0094535993062
21
6.72110266510761
31
0.000000000000000
  0
LINE
  5
F1014E
330
F1014F
100
AcDbEntity
8
Geo
100
AcDbLine
10
-33.0094535993062
20
6.72110266510761
30
0.000000000000000
11
-32.9094535993062
21
6.62116728363496
31
0.000000000000000
  0
LINE
  5
F10150
330
F10151
100
AcDbEntity
8
Geo
100
AcDbLine
10
-32.9094535993062
20
6.62116728363496
30
0.000000000000000
11
-32.8094535993062
21
6.52129310687073
31
0.000000000000000
  0
LINE
  5
F10152
330
F10153
100
AcDbEntity
8
Geo
100
AcDbLine
10
-32.8094535993062
20
6.52129310687073
30
0.000000000000000
11
-32.7094535993062
21
6.42150051695333
31
0.000000000000000
  0
LINE
  5
F10154
330
F10155
100
AcDbEntity
8
Geo
100
AcDbLine
10
-32.7094535993062
20
6.42150051695333
30
0.000000000000000
11
-32.6094535993062
21
6.32180987937109
31
0.000000000000000
  0
LINE
  5
F10156
330
F10157
100
AcDbEntity
8
Geo
100
AcDbLine
10
-32.6094535993062
20
6.32180987937109
30
0.000000000000000
11
-32.5094535993062
21
6.22224153880608
31
0.000000000000000
  0
LINE
  5
F10158
330
F10159
100
AcDbEntity
8
Geo
100
AcDbLine
10
-32.5094535993062
20
6.22224153880608
30
0.000000000000000
11
-32.4094535993062
21
6.12281581498224
31
0.000000000000000
  0
LINE
  5
F1015A
330
F1015B
100
AcDbEntity
8
Geo
100
AcDbLine
10
-32.4094535993062
20
6.12281581498224
30
0.000000000000000
11
-32.3094535993062
21
6.02355299851851
31
0.000000000000000
  0
LINE
  5
F1015C
330
F1015D
100
AcDbEntity
8
Geo
100
AcDbLine
10
-32.3094535993062
20
6.02355299851851
30
0.000000000000000
11
-32.2094535993062
21
5.92447334678804
31
0.000000000000000
  0
LINE
  5
F1015E
330
F1015F
100
AcDbEntity
8
Geo
100
AcDbLine
10
-32.2094535993062
20
5.92447334678804
30
0.000000000000000
11
-32.1094535993062
21
5.82559707978402
31
0.000000000000000
  0
LINE
  5
F10160
330
F10161
100
AcDbEntity
8
Geo
100
AcDbLine
10
-32.1094535993062
20
5.82559707978402
30
0.000000000000000
11
-32.0094535993062
21
5.72694437599329
31
0.000000000000000
  0
LINE
  5
F10162
330
F10163
100
AcDbEntity
8
Geo
100
AcDbLine
10
-32.0094535993062
20
5.72694437599329
30
0.000000000000000
11
-31.9094535993062
21
5.62853536827830
31
0.000000000000000
  0
LINE
  5
F10164
330
F10165
100
AcDbEntity
8
Geo
100
AcDbLine
10
-31.9094535993062
20
5.62853536827830
30
0.000000000000000
11
-31.8094535993062
21
5.53039013976845
31
0.000000000000000
  0
LINE
  5
F10166
330
F10167
100
AcDbEntity
8
Geo
100
AcDbLine
10
-31.8094535993062
20
5.53039013976845
30
0.000000000000000
11
-31.7094535993062
21
5.43252871976159
31
0.000000000000000
  0
LINE
  5
F10168
330
F10169
100
AcDbEntity
8
Geo
100
AcDbLine
10
-31.7094535993062
20
5.43252871976159
30
0.000000000000000
11
-31.6094535993062
21
5.33497107963643
31
0.000000000000000
  0
LINE
  5
F1016A
330
F1016B
100
AcDbEntity
8
Geo
100
AcDbLine
10
-31.6094535993062
20
5.33497107963643
30
0.000000000000000
11
-31.5094535993062
21
5.23773712877685
31
0.000000000000000
  0
LINE
  5
F1016C
330
F1016D
100
AcDbEntity
8
Geo
100
AcDbLine
10
-31.5094535993062
20
5.23773712877685
30
0.000000000000000
11
-31.4094535993062
21
5.14084671050880
31
0.000000000000000
  0
LINE
  5
F1016E
330
F1016F
100
AcDbEntity
8
Geo
100
AcDbLine
10
-31.4094535993062
20
5.14084671050880
30
0.000000000000000
11
-31.3094535993062
21
5.04431959805076
31
0.000000000000000
  0
LINE
  5
F10170
330
F10171
100
AcDbEntity
8
Geo
100
AcDbLine
10
-31.3094535993062
20
5.04431959805076
30
0.000000000000000
11
-31.2094535993062
21
4.94817549047841
31
0.000000000000000
  0
LINE
  5
F10172
330
F10173
100
AcDbEntity
8
Geo
100
AcDbLine
10
-31.2094535993062
20
4.94817549047841
30
0.000000000000000
11
-31.1094535993062
21
4.85243400870450
31
0.000000000000000
  0
LINE
  5
F10174
330
F10175
100
AcDbEntity
8
Geo
100
AcDbLine
10
-31.1094535993062
20
4.85243400870450
30
0.000000000000000
11
-31.0094535993062
21
4.75711469147466
31
0.000000000000000
  0
LINE
  5
F10176
330
F10177
100
AcDbEntity
8
Geo
100
AcDbLine
10
-31.0094535993062
20
4.75711469147466
30
0.000000000000000
11
-30.9094535993062
21
4.66223699137992
31
0.000000000000000
  0
LINE
  5
F10178
330
F10179
100
AcDbEntity
8
Geo
100
AcDbLine
10
-30.9094535993062
20
4.66223699137992
30
0.000000000000000
11
-30.8094535993062
21
4.56782027088694
31
0.000000000000000
  0
LINE
  5
F1017A
330
F1017B
100
AcDbEntity
8
Geo
100
AcDbLine
10
-30.8094535993062
20
4.56782027088694
30
0.000000000000000
11
-30.7094535993062
21
4.47388379838649
31
0.000000000000000
  0
LINE
  5
F1017C
330
F1017D
100
AcDbEntity
8
Geo
100
AcDbLine
10
-30.7094535993062
20
4.47388379838649
30
0.000000000000000
11
-30.6094535993062
21
4.38044674426120
31
0.000000000000000
  0
LINE
  5
F1017E
330
F1017F
100
AcDbEntity
8
Geo
100
AcDbLine
10
-30.6094535993062
20
4.38044674426120
30
0.000000000000000
11
-30.5094535993062
21
4.28752817697334
31
0.000000000000000
  0
LINE
  5
F10180
330
F10181
100
AcDbEntity
8
Geo
100
AcDbLine
10
-30.5094535993062
20
4.28752817697334
30
0.000000000000000
11
-30.4094535993062
21
4.19514705917333
31
0.000000000000000
  0
LINE
  5
F10182
330
F10183
100
AcDbEntity
8
Geo
100
AcDbLine
10
-30.4094535993062
20
4.19514705917333
30
0.000000000000000
11
-30.3094535993062
21
4.10332224382988
31
0.000000000000000
  0
LINE
  5
F10184
330
F10185
100
AcDbEntity
8
Geo
100
AcDbLine
10
-30.3094535993062
20
4.10332224382988
30
0.000000000000000
11
-30.2094535993062
21
4.01207247038252
31
0.000000000000000
  0
LINE
  5
F10186
330
F10187
100
AcDbEntity
8
Geo
100
AcDbLine
10
-30.2094535993062
20
4.01207247038252
30
0.000000000000000
11
-30.1094535993062
21
3.92141636091729
31
0.000000000000000
  0
LINE
  5
F10188
330
F10189
100
AcDbEntity
8
Geo
100
AcDbLine
10
-30.1094535993062
20
3.92141636091729
30
0.000000000000000
11
-30.0094535993062
21
3.83137241636638
31
0.000000000000000
  0
LINE
  5
F1018A
330
F1018B
100
AcDbEntity
8
Geo
100
AcDbLine
10
-30.0094535993062
20
3.83137241636638
30
0.000000000000000
11
-29.9094535993062
21
3.74195901273248
31
0.000000000000000
  0
LINE
  5
F1018C
330
F1018D
100
AcDbEntity
8
Geo
100
AcDbLine
10
-29.9094535993062
20
3.74195901273248
30
0.000000000000000
11
-29.8094535993062
21
3.65319439733866
31
0.000000000000000
  0
LINE
  5
F1018E
330
F1018F
100
AcDbEntity
8
Geo
100
AcDbLine
10
-29.8094535993062
20
3.65319439733866
30
0.000000000000000
11
-29.7094535993062
21
3.56509668510446
31
0.000000000000000
  0
LINE
  5
F10190
330
F10191
100
AcDbEntity
8
Geo
100
AcDbLine
10
-29.7094535993062
20
3.56509668510446
30
0.000000000000000
11
-29.6094535993062
21
3.47768385484907
31
0.000000000000000
  0
LINE
  5
F10192
330
F10193
100
AcDbEntity
8
Geo
100
AcDbLine
10
-29.6094535993062
20
3.47768385484907
30
0.000000000000000
11
-29.5094535993062
21
3.39097374562221
31
0.000000000000000
  0
LINE
  5
F10194
330
F10195
100
AcDbEntity
8
Geo
100
AcDbLine
10
-29.5094535993062
20
3.39097374562221
30
0.000000000000000
11
-29.4094535993062
21
3.30498405306358
31
0.000000000000000
  0
LINE
  5
F10196
330
F10197
100
AcDbEntity
8
Geo
100
AcDbLine
10
-29.4094535993062
20
3.30498405306358
30
0.000000000000000
11
-29.3094535993062
21
3.21973232579160
31
0.000000000000000
  0
LINE
  5
F10198
330
F10199
100
AcDbEntity
8
Geo
100
AcDbLine
10
-29.3094535993062
20
3.21973232579160
30
0.000000000000000
11
-29.2094535993062
21
3.13523596182206
31
0.000000000000000
  0
LINE
  5
F1019A
330
F1019B
100
AcDbEntity
8
Geo
100
AcDbLine
10
-29.2094535993062
20
3.13523596182206
30
0.000000000000000
11
-29.1094535993062
21
3.05151220501761
31
0.000000000000000
  0
LINE
  5
F1019C
330
F1019D
100
AcDbEntity
8
Geo
100
AcDbLine
10
-29.1094535993062
20
3.05151220501761
30
0.000000000000000
11
-29.0094535993062
21
2.96857814156864
31
0.000000000000000
  0
LINE
  5
F1019E
330
F1019F
100
AcDbEntity
8
Geo
100
AcDbLine
10
-29.0094535993062
20
2.96857814156864
30
0.000000000000000
11
-28.9094535993062
21
2.88645069650638
31
0.000000000000000
  0
LINE
  5
F101A0
330
F101A1
100
AcDbEntity
8
Geo
100
AcDbLine
10
-28.9094535993062
20
2.88645069650638
30
0.000000000000000
11
-28.8094535993062
21
2.80514663024885
31
0.000000000000000
  0
LINE
  5
F101A2
330
F101A3
100
AcDbEntity
8
Geo
100
AcDbLine
10
-28.8094535993062
20
2.80514663024885
30
0.000000000000000
11
-28.7094535993062
21
2.72468253518047
31
0.000000000000000
  0
LINE
  5
F101A4
330
F101A5
100
AcDbEntity
8
Geo
100
AcDbLine
10
-28.7094535993062
20
2.72468253518047
30
0.000000000000000
11
-28.6094535993062
21
2.64507483226584
31
0.000000000000000
  0
LINE
  5
F101A6
330
F101A7
100
AcDbEntity
8
Geo
100
AcDbLine
10
-28.6094535993062
20
2.64507483226584
30
0.000000000000000
11
-28.5094535993062
21
2.56633976769866
31
0.000000000000000
  0
LINE
  5
F101A8
330
F101A9
100
AcDbEntity
8
Geo
100
AcDbLine
10
-28.5094535993062
20
2.56633976769866
30
0.000000000000000
11
-28.4094535993062
21
2.48849340958617
31
0.000000000000000
  0
LINE
  5
F101AA
330
F101AB
100
AcDbEntity
8
Geo
100
AcDbLine
10
-28.4094535993062
20
2.48849340958617
30
0.000000000000000
11
-28.3094535993062
21
2.41155164467005
31
0.000000000000000
  0
LINE
  5
F101AC
330
F101AD
100
AcDbEntity
8
Geo
100
AcDbLine
10
-28.3094535993062
20
2.41155164467005
30
0.000000000000000
11
-28.2094535993062
21
2.33553017508426
31
0.000000000000000
  0
LINE
  5
F101AE
330
F101AF
100
AcDbEntity
8
Geo
100
AcDbLine
10
-28.2094535993062
20
2.33553017508426
30
0.000000000000000
11
-28.1094535993062
21
2.26044451515057
31
0.000000000000000
  0
LINE
  5
F101B0
330
F101B1
100
AcDbEntity
8
Geo
100
AcDbLine
10
-28.1094535993062
20
2.26044451515057
30
0.000000000000000
11
-28.0094535993062
21
2.18630998821245
31
0.000000000000000
  0
LINE
  5
F101B2
330
F101B3
100
AcDbEntity
8
Geo
100
AcDbLine
10
-28.0094535993062
20
2.18630998821245
30
0.000000000000000
11
-27.9094535993062
21
2.11314172350790
31
0.000000000000000
  0
LINE
  5
F101B4
330
F101B5
100
AcDbEntity
8
Geo
100
AcDbLine
10
-27.9094535993062
20
2.11314172350790
30
0.000000000000000
11
-27.8094535993062
21
2.04095465308187
31
0.000000000000000
  0
LINE
  5
F101B6
330
F101B7
100
AcDbEntity
8
Geo
100
AcDbLine
10
-27.8094535993062
20
2.04095465308187
30
0.000000000000000
11
-27.7094535993062
21
1.96976350873902
31
0.000000000000000
  0
LINE
  5
F101B8
330
F101B9
100
AcDbEntity
8
Geo
100
AcDbLine
10
-27.7094535993062
20
1.96976350873902
30
0.000000000000000
11
-27.6094535993062
21
1.89958281903723
31
0.000000000000000
  0
LINE
  5
F101BA
330
F101BB
100
AcDbEntity
8
Geo
100
AcDbLine
10
-27.6094535993062
20
1.89958281903723
30
0.000000000000000
11
-27.5094535993062
21
1.83042690632265
31
0.000000000000000
  0
LINE
  5
F101BC
330
F101BD
100
AcDbEntity
8
Geo
100
AcDbLine
10
-27.5094535993062
20
1.83042690632265
30
0.000000000000000
11
-27.4094535993062
21
1.76230988380684
31
0.000000000000000
  0
LINE
  5
F101BE
330
F101BF
100
AcDbEntity
8
Geo
100
AcDbLine
10
-27.4094535993062
20
1.76230988380684
30
0.000000000000000
11
-27.3094535993062
21
1.69524565268654
31
0.000000000000000
  0
LINE
  5
F101C0
330
F101C1
100
AcDbEntity
8
Geo
100
AcDbLine
10
-27.3094535993062
20
1.69524565268654
30
0.000000000000000
11
-27.2094535993062
21
1.62924789930677
31
0.000000000000000
  0
LINE
  5
F101C2
330
F101C3
100
AcDbEntity
8
Geo
100
AcDbLine
10
-27.2094535993062
20
1.62924789930677
30
0.000000000000000
11
-27.1094535993062
21
1.56433009236772
31
0.000000000000000
  0
LINE
  5
F101C4
330
F101C5
100
AcDbEntity
8
Geo
100
AcDbLine
10
-27.1094535993062
20
1.56433009236772
30
0.000000000000000
11
-27.0094535993062
21
1.50050548017613
31
0.000000000000000
  0
LINE
  5
F101C6
330
F101C7
100
AcDbEntity
8
Geo
100
AcDbLine
10
-27.0094535993062
20
1.50050548017613
30
0.000000000000000
11
-26.9094535993062
21
1.43778708794151
31
0.000000000000000
  0
LINE
  5
F101C8
330
F101C9
100
AcDbEntity
8
Geo
100
AcDbLine
10
-26.9094535993062
20
1.43778708794151
30
0.000000000000000
11
-26.8094535993062
21
1.37618771511808
31
0.000000000000000
  0
LINE
  5
F101CA
330
F101CB
100
AcDbEntity
8
Geo
100
AcDbLine
10
-26.8094535993062
20
1.37618771511808
30
0.000000000000000
11
-26.7094535993062
21
1.31571993279263
31
0.000000000000000
  0
LINE
  5
F101CC
330
F101CD
100
AcDbEntity
8
Geo
100
AcDbLine
10
-26.7094535993062
20
1.31571993279263
30
0.000000000000000
11
-26.6094535993062
21
1.25639608111901
31
0.000000000000000
  0
LINE
  5
F101CE
330
F101CF
100
AcDbEntity
8
Geo
100
AcDbLine
10
-26.6094535993062
20
1.25639608111901
30
0.000000000000000
11
-26.5094535993062
21
1.19822826679983
31
0.000000000000000
  0
LINE
  5
F101D0
330
F101D1
100
AcDbEntity
8
Geo
100
AcDbLine
10
-26.5094535993062
20
1.19822826679983
30
0.000000000000000
11
-26.4094535993062
21
1.14122836061574
31
0.000000000000000
  0
LINE
  5
F101D2
330
F101D3
100
AcDbEntity
8
Geo
100
AcDbLine
10
-26.4094535993062
20
1.14122836061574
30
0.000000000000000
11
-26.3094535993062
21
1.08540799500280
31
0.000000000000000
  0
LINE
  5
F101D4
330
F101D5
100
AcDbEntity
8
Geo
100
AcDbLine
10
-26.3094535993062
20
1.08540799500280
30
0.000000000000000
11
-26.2094535993062
21
1.03077856167862
31
0.000000000000000
  0
LINE
  5
F101D6
330
F101D7
100
AcDbEntity
8
Geo
100
AcDbLine
10
-26.2094535993062
20
1.03077856167862
30
0.000000000000000
11
-26.1094535993062
21
0.977351209317553
31
0.000000000000000
  0
LINE
  5
F101D8
330
F101D9
100
AcDbEntity
8
Geo
100
AcDbLine
10
-26.1094535993062
20
0.977351209317553
30
0.000000000000000
11
-26.0094535993062
21
0.925136841275457
31
0.000000000000000
  0
LINE
  5
F101DA
330
F101DB
100
AcDbEntity
8
Geo
100
AcDbLine
10
-26.0094535993062
20
0.925136841275457
30
0.000000000000000
11
-25.9094535993062
21
0.874146113364585
31
0.000000000000000
  0
LINE
  5
F101DC
330
F101DD
100
AcDbEntity
8
Geo
100
AcDbLine
10
-25.9094535993062
20
0.874146113364585
30
0.000000000000000
11
-25.8094535993062
21
0.824389431678966
31
0.000000000000000
  0
LINE
  5
F101DE
330
F101DF
100
AcDbEntity
8
Geo
100
AcDbLine
10
-25.8094535993062
20
0.824389431678966
30
0.000000000000000
11
-25.7094535993062
21
0.775876950470740
31
0.000000000000000
  0
LINE
  5
F101E0
330
F101E1
100
AcDbEntity
8
Geo
100
AcDbLine
10
-25.7094535993062
20
0.775876950470740
30
0.000000000000000
11
-25.6094535993062
21
0.728618570077900
31
0.000000000000000
  0
LINE
  5
F101E2
330
F101E3
100
AcDbEntity
8
Geo
100
AcDbLine
10
-25.6094535993062
20
0.728618570077900
30
0.000000000000000
11
-25.5094535993062
21
0.682623934903853
31
0.000000000000000
  0
LINE
  5
F101E4
330
F101E5
100
AcDbEntity
8
Geo
100
AcDbLine
10
-25.5094535993062
20
0.682623934903853
30
0.000000000000000
11
-25.4094535993062
21
0.637902431449199
31
0.000000000000000
  0
LINE
  5
F101E6
330
F101E7
100
AcDbEntity
8
Geo
100
AcDbLine
10
-25.4094535993062
20
0.637902431449199
30
0.000000000000000
11
-25.3094535993062
21
0.594463186396164
31
0.000000000000000
  0
LINE
  5
F101E8
330
F101E9
100
AcDbEntity
8
Geo
100
AcDbLine
10
-25.3094535993062
20
0.594463186396164
30
0.000000000000000
11
-25.2094535993062
21
0.552315064746034
31
0.000000000000000
  0
LINE
  5
F101EA
330
F101EB
100
AcDbEntity
8
Geo
100
AcDbLine
10
-25.2094535993062
20
0.552315064746034
30
0.000000000000000
11
-25.1094535993062
21
0.511466668009997
31
0.000000000000000
  0
LINE
  5
F101EC
330
F101ED
100
AcDbEntity
8
Geo
100
AcDbLine
10
-25.1094535993062
20
0.511466668009997
30
0.000000000000000
11
-25.0094535993062
21
0.471926332453781
31
0.000000000000000
  0
LINE
  5
F101EE
330
F101EF
100
AcDbEntity
8
Geo
100
AcDbLine
10
-25.0094535993062
20
0.471926332453781
30
0.000000000000000
11
-24.9094535993062
21
0.433702127396385
31
0.000000000000000
  0
LINE
  5
F101F0
330
F101F1
100
AcDbEntity
8
Geo
100
AcDbLine
10
-24.9094535993062
20
0.433702127396385
30
0.000000000000000
11
-24.8094535993062
21
0.396801853563317
31
0.000000000000000
  0
LINE
  5
F101F2
330
F101F3
100
AcDbEntity
8
Geo
100
AcDbLine
10
-24.8094535993062
20
0.396801853563317
30
0.000000000000000
11
-24.7094535993062
21
0.361233041494635
31
0.000000000000000
  0
LINE
  5
F101F4
330
F101F5
100
AcDbEntity
8
Geo
100
AcDbLine
10
-24.7094535993062
20
0.361233041494635
30
0.000000000000000
11
-24.6094535993062
21
0.327002950008128
31
0.000000000000000
  0
LINE
  5
F101F6
330
F101F7
100
AcDbEntity
8
Geo
100
AcDbLine
10
-24.6094535993062
20
0.327002950008128
30
0.000000000000000
11
-24.5094535993062
21
0.294118564717945
31
0.000000000000000
  0
LINE
  5
F101F8
330
F101F9
100
AcDbEntity
8
Geo
100
AcDbLine
10
-24.5094535993062
20
0.294118564717945
30
0.000000000000000
11
-24.4094535993062
21
0.262586596608997
31
0.000000000000000
  0
LINE
  5
F101FA
330
F101FB
100
AcDbEntity
8
Geo
100
AcDbLine
10
-24.4094535993062
20
0.262586596608997
30
0.000000000000000
11
-24.3094535993062
21
0.232413480667370
31
0.000000000000000
  0
LINE
  5
F101FC
330
F101FD
100
AcDbEntity
8
Geo
100
AcDbLine
10
-24.3094535993062
20
0.232413480667370
30
0.000000000000000
11
-24.2094535993062
21
0.203605374567109
31
0.000000000000000
  0
LINE
  5
F101FE
330
F101FF
100
AcDbEntity
8
Geo
100
AcDbLine
10
-24.2094535993062
20
0.203605374567109
30
0.000000000000000
11
-24.1094535993062
21
0.176168157413553
31
0.000000000000000
  0
LINE
  5
F10200
330
F10201
100
AcDbEntity
8
Geo
100
AcDbLine
10
-24.1094535993062
20
0.176168157413553
30
0.000000000000000
11
-24.0094535993062
21
0.150107428543546
31
0.000000000000000
  0
LINE
  5
F10202
330
F10203
100
AcDbEntity
8
Geo
100
AcDbLine
10
-24.0094535993062
20
0.150107428543546
30
0.000000000000000
11
-23.9094535993062
21
0.125428506382734
31
0.000000000000000
  0
LINE
  5
F10204
330
F10205
100
AcDbEntity
8
Geo
100
AcDbLine
10
-23.9094535993062
20
0.125428506382734
30
0.000000000000000
11
-23.8094535993062
21
0.102136427360191
31
0.000000000000000
  0
LINE
  5
F10206
330
F10207
100
AcDbEntity
8
Geo
100
AcDbLine
10
-23.8094535993062
20
0.102136427360191
30
0.000000000000000
11
-23.7094535993062
21
0.0802359448805872
31
0.000000000000000
  0
LINE
  5
F10208
330
F10209
100
AcDbEntity
8
Geo
100
AcDbLine
10
-23.7094535993062
20
0.0802359448805872
30
0.000000000000000
11
-23.6094535993062
21
0.0597315283541349
31
0.000000000000000
  0
LINE
  5
F1020A
330
F1020B
100
AcDbEntity
8
Geo
100
AcDbLine
10
-23.6094535993062
20
0.0597315283541349
30
0.000000000000000
11
-23.5094535993062
21
0.0406273622844679
31
0.000000000000000
  0
LINE
  5
F1020C
330
F1020D
100
AcDbEntity
8
Geo
100
AcDbLine
10
-23.5094535993062
20
0.0406273622844679
30
0.000000000000000
11
-23.4094535993062
21
0.0229273454146837
31
0.000000000000000
  0
LINE
  5
F1020E
330
F1020F
100
AcDbEntity
8
Geo
100
AcDbLine
10
-23.4094535993062
20
0.0229273454146837
30
0.000000000000000
11
-23.3094535993062
21
0.00663508993168982
31
0.000000000000000
  0
LINE
  5
F10210
330
F10211
100
AcDbEntity
8
Geo
100
AcDbLine
10
-23.3094535993062
20
0.00663508993168982
30
0.000000000000000
11
-23.2094535993062
21
-0.00824607927096199
31
0.000000000000000
  0
LINE
  5
F10212
330
F10213
100
AcDbEntity
8
Geo
100
AcDbLine
10
-23.2094535993062
20
-0.00824607927096199
30
0.000000000000000
11
-23.1094535993062
21
-0.0217131252716136
31
0.000000000000000
  0
LINE
  5
F10214
330
F10215
100
AcDbEntity
8
Geo
100
AcDbLine
10
-23.1094535993062
20
-0.0217131252716136
30
0.000000000000000
11
-23.0094535993062
21
-0.0337632997402704
31
0.000000000000000
  0
LINE
  5
F10216
330
F10217
100
AcDbEntity
8
Geo
100
AcDbLine
10
-23.0094535993062
20
-0.0337632997402704
30
0.000000000000000
11
-22.9094535993062
21
-0.0443941434994768
31
0.000000000000000
  0
LINE
  5
F10218
330
F10219
100
AcDbEntity
8
Geo
100
AcDbLine
10
-22.9094535993062
20
-0.0443941434994768
30
0.000000000000000
11
-22.8094535993062
21
-0.0536034870261775
31
0.000000000000000
  0
LINE
  5
F1021A
330
F1021B
100
AcDbEntity
8
Geo
100
AcDbLine
10
-22.8094535993062
20
-0.0536034870261775
30
0.000000000000000
11
-22.7094535993062
21
-0.0613894508944757
31
0.000000000000000
  0
LINE
  5
F1021C
330
F1021D
100
AcDbEntity
8
Geo
100
AcDbLine
10
-22.7094535993062
20
-0.0613894508944757
30
0.000000000000000
11
-22.6094535993062
21
-0.0677504461591756
31
0.000000000000000
  0
LINE
  5
F1021E
330
F1021F
100
AcDbEntity
8
Geo
100
AcDbLine
10
-22.6094535993062
20
-0.0677504461591756
30
0.000000000000000
11
-22.5094535993062
21
-0.0726851746800543
31
0.000000000000000
  0
LINE
  5
F10220
330
F10221
100
AcDbEntity
8
Geo
100
AcDbLine
10
-22.5094535993062
20
-0.0726851746800543
30
0.000000000000000
11
-22.4094535993062
21
-0.0761926293867869
31
0.000000000000000
  0
LINE
  5
F10222
330
F10223
100
AcDbEntity
8
Geo
100
AcDbLine
10
-22.4094535993062
20
-0.0761926293867869
30
0.000000000000000
11
-22.3094535993062
21
-0.0782720944844648
31
0.000000000000000
  0
LINE
  5
F10224
330
F10225
100
AcDbEntity
8
Geo
100
AcDbLine
10
-22.3094535993062
20
-0.0782720944844648
30
0.000000000000000
11
-22.2138794428821
21
-0.0789245446660942
31
0.000000000000000
  0
LINE
  5
F10226
330
F10227
100
AcDbEntity
8
Geo
100
AcDbLine
10
-33.2094535993062
20
-0.0789245446660942
30
0.000000000000000
11
-33.2094535993062
21
-0.0789245446660942
31
0.000000000000000
  0
LINE
  5
F10228
330
F10229
100
AcDbEntity
8
Geo
100
AcDbLine
10
-22.2138794428821
20
13.9210754553339
30
0.000000000000000
11
-22.2094535993062
21
13.9210740562675
31
0.000000000000000
  0
LINE
  5
F1022A
330
F1022B
100
AcDbEntity
8
Geo
100
AcDbLine
10
-22.2094535993062
20
13.9210740562675
30
0.000000000000000
11
-22.1094535993062
21
13.9202965605349
31
0.000000000000000
  0
LINE
  5
F1022C
330
F1022D
100
AcDbEntity
8
Geo
100
AcDbLine
10
-22.1094535993062
20
13.9202965605349
30
0.000000000000000
11
-22.0094535993062
21
13.9180906766244
31
0.000000000000000
  0
LINE
  5
F1022E
330
F1022F
100
AcDbEntity
8
Geo
100
AcDbLine
10
-22.0094535993062
20
13.9180906766244
30
0.000000000000000
11
-21.9094535993062
21
13.9144568547088
31
0.000000000000000
  0
LINE
  5
F10230
330
F10231
100
AcDbEntity
8
Geo
100
AcDbLine
10
-21.9094535993062
20
13.9144568547088
30
0.000000000000000
11
-21.8094535993062
21
13.9093958363718
31
0.000000000000000
  0
LINE
  5
F10232
330
F10233
100
AcDbEntity
8
Geo
100
AcDbLine
10
-21.8094535993062
20
13.9093958363718
30
0.000000000000000
11
-21.7094535993062
21
13.9029086544566
31
0.000000000000000
  0
LINE
  5
F10234
330
F10235
100
AcDbEntity
8
Geo
100
AcDbLine
10
-21.7094535993062
20
13.9029086544566
30
0.000000000000000
11
-21.6094535993062
21
13.8949966328554
31
0.000000000000000
  0
LINE
  5
F10236
330
F10237
100
AcDbEntity
8
Geo
100
AcDbLine
10
-21.6094535993062
20
13.8949966328554
30
0.000000000000000
11
-21.5094535993062
21
13.8856613862391
31
0.000000000000000
  0
LINE
  5
F10238
330
F10239
100
AcDbEntity
8
Geo
100
AcDbLine
10
-21.5094535993062
20
13.8856613862391
30
0.000000000000000
11
-21.4094535993062
21
13.8749048197275
31
0.000000000000000
  0
LINE
  5
F1023A
330
F1023B
100
AcDbEntity
8
Geo
100
AcDbLine
10
-21.4094535993062
20
13.8749048197275
30
0.000000000000000
11
-21.3094535993062
21
13.8627291285012
31
0.000000000000000
  0
LINE
  5
F1023C
330
F1023D
100
AcDbEntity
8
Geo
100
AcDbLine
10
-21.3094535993062
20
13.8627291285012
30
0.000000000000000
11
-21.2094535993062
21
13.8491367973527
31
0.000000000000000
  0
LINE
  5
F1023E
330
F1023F
100
AcDbEntity
8
Geo
100
AcDbLine
10
-21.2094535993062
20
13.8491367973527
30
0.000000000000000
11
-21.1094535993062
21
13.8341306001799
31
0.000000000000000
  0
LINE
  5
F10240
330
F10241
100
AcDbEntity
8
Geo
100
AcDbLine
10
-21.1094535993062
20
13.8341306001799
30
0.000000000000000
11
-21.0094535993062
21
13.8177135994201
31
0.000000000000000
  0
LINE
  5
F10242
330
F10243
100
AcDbEntity
8
Geo
100
AcDbLine
10
-21.0094535993062
20
13.8177135994201
30
0.000000000000000
11
-20.9094535993062
21
13.7998891454245
31
0.000000000000000
  0
LINE
  5
F10244
330
F10245
100
AcDbEntity
8
Geo
100
AcDbLine
10
-20.9094535993062
20
13.7998891454245
30
0.000000000000000
11
-20.8094535993062
21
13.7806608757750
31
0.000000000000000
  0
LINE
  5
F10246
330
F10247
100
AcDbEntity
8
Geo
100
AcDbLine
10
-20.8094535993062
20
13.7806608757750
30
0.000000000000000
11
-20.7094535993062
21
13.7600327145415
31
0.000000000000000
  0
LINE
  5
F10248
330
F10249
100
AcDbEntity
8
Geo
100
AcDbLine
10
-20.7094535993062
20
13.7600327145415
30
0.000000000000000
11
-20.6094535993062
21
13.7380088714813
31
0.000000000000000
  0
LINE
  5
F1024A
330
F1024B
100
AcDbEntity
8
Geo
100
AcDbLine
10
-20.6094535993062
20
13.7380088714813
30
0.000000000000000
11
-20.5094535993062
21
13.7145938411796
31
0.000000000000000
  0
LINE
  5
F1024C
330
F1024D
100
AcDbEntity
8
Geo
100
AcDbLine
10
-20.5094535993062
20
13.7145938411796
30
0.000000000000000
11
-20.4094535993062
21
13.6897924021330
31
0.000000000000000
  0
LINE
  5
F1024E
330
F1024F
100
AcDbEntity
8
Geo
100
AcDbLine
10
-20.4094535993062
20
13.6897924021330
30
0.000000000000000
11
-20.3094535993062
21
13.6636096157734
31
0.000000000000000
  0
LINE
  5
F10250
330
F10251
100
AcDbEntity
8
Geo
100
AcDbLine
10
-20.3094535993062
20
13.6636096157734
30
0.000000000000000
11
-20.2094535993062
21
13.6360508254358
31
0.000000000000000
  0
LINE
  5
F10252
330
F10253
100
AcDbEntity
8
Geo
100
AcDbLine
10
-24.4129942771950
20
13.9210754553339
30
0.000000000000000
11
-24.4094535993062
21
13.9210745599314
31
0.000000000000000
  0
LINE
  5
F10254
330
F10255
100
AcDbEntity
8
Geo
100
AcDbLine
10
-24.4094535993062
20
13.9210745599314
30
0.000000000000000
11
-24.3094535993062
21
13.9203097086079
31
0.000000000000000
  0
LINE
  5
F10256
330
F10257
100
AcDbEntity
8
Geo
100
AcDbLine
10
-24.3094535993062
20
13.9203097086079
30
0.000000000000000
11
-24.2094535993062
21
13.9181164664234
31
0.000000000000000
  0
LINE
  5
F10258
330
F10259
100
AcDbEntity
8
Geo
100
AcDbLine
10
-24.2094535993062
20
13.9181164664234
30
0.000000000000000
11
-24.1094535993062
21
13.9144952809705
31
0.000000000000000
  0
LINE
  5
F1025A
330
F1025B
100
AcDbEntity
8
Geo
100
AcDbLine
10
-24.1094535993062
20
13.9144952809705
30
0.000000000000000
11
-24.0094535993062
21
13.9094468912542
31
0.000000000000000
  0
LINE
  5
F1025C
330
F1025D
100
AcDbEntity
8
Geo
100
AcDbLine
10
-24.0094535993062
20
13.9094468912542
30
0.000000000000000
11
-23.9094535993062
21
13.9029723275407
31
0.000000000000000
  0
LINE
  5
F1025E
330
F1025F
100
AcDbEntity
8
Geo
100
AcDbLine
10
-23.9094535993062
20
13.9029723275407
30
0.000000000000000
11
-23.8094535993062
21
13.8950729111468
31
0.000000000000000
  0
LINE
  5
F10260
330
F10261
100
AcDbEntity
8
Geo
100
AcDbLine
10
-23.8094535993062
20
13.8950729111468
30
0.000000000000000
11
-23.7094535993062
21
13.8857502541711
31
0.000000000000000
  0
LINE
  5
F10262
330
F10263
100
AcDbEntity
8
Geo
100
AcDbLine
10
-23.7094535993062
20
13.8857502541711
30
0.000000000000000
11
-23.6094535993062
21
13.8750062591642
31
0.000000000000000
  0
LINE
  5
F10264
330
F10265
100
AcDbEntity
8
Geo
100
AcDbLine
10
-23.6094535993062
20
13.8750062591642
30
0.000000000000000
11
-23.5094535993062
21
13.8628431187408
31
0.000000000000000
  0
LINE
  5
F10266
330
F10267
100
AcDbEntity
8
Geo
100
AcDbLine
10
-23.5094535993062
20
13.8628431187408
30
0.000000000000000
11
-23.4094535993062
21
13.8492633151324
31
0.000000000000000
  0
LINE
  5
F10268
330
F10269
100
AcDbEntity
8
Geo
100
AcDbLine
10
-23.4094535993062
20
13.8492633151324
30
0.000000000000000
11
-23.3094535993062
21
13.8342696196802
31
0.000000000000000
  0
LINE
  5
F1026A
330
F1026B
100
AcDbEntity
8
Geo
100
AcDbLine
10
-23.3094535993062
20
13.8342696196802
30
0.000000000000000
11
-23.2094535993062
21
13.8178650922701
31
0.000000000000000
  0
LINE
  5
F1026C
330
F1026D
100
AcDbEntity
8
Geo
100
AcDbLine
10
-23.2094535993062
20
13.8178650922701
30
0.000000000000000
11
-23.1094535993062
21
13.8000530807079
31
0.000000000000000
  0
LINE
  5
F1026E
330
F1026F
100
AcDbEntity
8
Geo
100
AcDbLine
10
-23.1094535993062
20
13.8000530807079
30
0.000000000000000
11
-23.0094535993062
21
13.7808372200362
31
0.000000000000000
  0
LINE
  5
F10270
330
F10271
100
AcDbEntity
8
Geo
100
AcDbLine
10
-23.0094535993062
20
13.7808372200362
30
0.000000000000000
11
-22.9094535993062
21
13.7602214317924
31
0.000000000000000
  0
LINE
  5
F10272
330
F10273
100
AcDbEntity
8
Geo
100
AcDbLine
10
-22.9094535993062
20
13.7602214317924
30
0.000000000000000
11
-22.8094535993062
21
13.7382099232088
31
0.000000000000000
  0
LINE
  5
F10274
330
F10275
100
AcDbEntity
8
Geo
100
AcDbLine
10
-22.8094535993062
20
13.7382099232088
30
0.000000000000000
11
-22.7094535993062
21
13.7148071863536
31
0.000000000000000
  0
LINE
  5
F10276
330
F10277
100
AcDbEntity
8
Geo
100
AcDbLine
10
-22.7094535993062
20
13.7148071863536
30
0.000000000000000
11
-22.6094535993062
21
13.6900179972142
31
0.000000000000000
  0
LINE
  5
F10278
330
F10279
100
AcDbEntity
8
Geo
100
AcDbLine
10
-22.6094535993062
20
13.6900179972142
30
0.000000000000000
11
-22.5094535993062
21
13.6638474147229
31
0.000000000000000
  0
LINE
  5
F1027A
330
F1027B
100
AcDbEntity
8
Geo
100
AcDbLine
10
-22.5094535993062
20
13.6638474147229
30
0.000000000000000
11
-22.4094535993062
21
13.6363007797240
31
0.000000000000000
  0
LINE
  5
F1027C
330
F1027D
100
AcDbEntity
8
Geo
100
AcDbLine
10
-22.4094535993062
20
13.6363007797240
30
0.000000000000000
11
-22.3094535993062
21
13.6073837138842
31
0.000000000000000
  0
LINE
  5
F1027E
330
F1027F
100
AcDbEntity
8
Geo
100
AcDbLine
10
-22.3094535993062
20
13.6073837138842
30
0.000000000000000
11
-22.2094535993062
21
13.5771021185450
31
0.000000000000000
  0
LINE
  5
F10280
330
F10281
100
AcDbEntity
8
Geo
100
AcDbLine
10
-22.2094535993062
20
13.5771021185450
30
0.000000000000000
11
-22.1094535993062
21
13.5454621735189
31
0.000000000000000
  0
LINE
  5
F10282
330
F10283
100
AcDbEntity
8
Geo
100
AcDbLine
10
-22.1094535993062
20
13.5454621735189
30
0.000000000000000
11
-22.0094535993062
21
13.5124703358276
31
0.000000000000000
  0
LINE
  5
F10284
330
F10285
100
AcDbEntity
8
Geo
100
AcDbLine
10
-22.0094535993062
20
13.5124703358276
30
0.000000000000000
11
-21.9094535993062
21
13.4781333383847
31
0.000000000000000
  0
LINE
  5
F10286
330
F10287
100
AcDbEntity
8
Geo
100
AcDbLine
10
-21.9094535993062
20
13.4781333383847
30
0.000000000000000
11
-21.8094535993062
21
13.4424581886215
31
0.000000000000000
  0
LINE
  5
F10288
330
F10289
100
AcDbEntity
8
Geo
100
AcDbLine
10
-21.8094535993062
20
13.4424581886215
30
0.000000000000000
11
-21.7094535993062
21
13.4054521670571
31
0.000000000000000
  0
LINE
  5
F1028A
330
F1028B
100
AcDbEntity
8
Geo
100
AcDbLine
10
-21.7094535993062
20
13.4054521670571
30
0.000000000000000
11
-21.6094535993062
21
13.3671228258124
31
0.000000000000000
  0
LINE
  5
F1028C
330
F1028D
100
AcDbEntity
8
Geo
100
AcDbLine
10
-21.6094535993062
20
13.3671228258124
30
0.000000000000000
11
-21.5094535993062
21
13.3274779870687
31
0.000000000000000
  0
LINE
  5
F1028E
330
F1028F
100
AcDbEntity
8
Geo
100
AcDbLine
10
-21.5094535993062
20
13.3274779870687
30
0.000000000000000
11
-21.4094535993062
21
13.2865257414719
31
0.000000000000000
  0
LINE
  5
F10290
330
F10291
100
AcDbEntity
8
Geo
100
AcDbLine
10
-21.4094535993062
20
13.2865257414719
30
0.000000000000000
11
-21.3094535993062
21
13.2442744464811
31
0.000000000000000
  0
LINE
  5
F10292
330
F10293
100
AcDbEntity
8
Geo
100
AcDbLine
10
-21.3094535993062
20
13.2442744464811
30
0.000000000000000
11
-21.2094535993062
21
13.2007327246628
31
0.000000000000000
  0
LINE
  5
F10294
330
F10295
100
AcDbEntity
8
Geo
100
AcDbLine
10
-21.2094535993062
20
13.2007327246628
30
0.000000000000000
11
-21.1094535993062
21
13.1559094619317
31
0.000000000000000
  0
LINE
  5
F10296
330
F10297
100
AcDbEntity
8
Geo
100
AcDbLine
10
-21.1094535993062
20
13.1559094619317
30
0.000000000000000
11
-21.0094535993062
21
13.1098138057367
31
0.000000000000000
  0
LINE
  5
F10298
330
F10299
100
AcDbEntity
8
Geo
100
AcDbLine
10
-21.0094535993062
20
13.1098138057367
30
0.000000000000000
11
-20.9094535993062
21
13.0624551631947
31
0.000000000000000
  0
LINE
  5
F1029A
330
F1029B
100
AcDbEntity
8
Geo
100
AcDbLine
10
-20.9094535993062
20
13.0624551631947
30
0.000000000000000
11
-20.8094535993062
21
13.0138431991704
31
0.000000000000000
  0
LINE
  5
F1029C
330
F1029D
100
AcDbEntity
8
Geo
100
AcDbLine
10
-20.8094535993062
20
13.0138431991704
30
0.000000000000000
11
-20.7094535993062
21
12.9639878343040
31
0.000000000000000
  0
LINE
  5
F1029E
330
F1029F
100
AcDbEntity
8
Geo
100
AcDbLine
10
-20.7094535993062
20
12.9639878343040
30
0.000000000000000
11
-20.6094535993062
21
12.9128992429868
31
0.000000000000000
  0
LINE
  5
F102A0
330
F102A1
100
AcDbEntity
8
Geo
100
AcDbLine
10
-20.6094535993062
20
12.9128992429868
30
0.000000000000000
11
-20.5094535993062
21
12.8605878512846
31
0.000000000000000
  0
LINE
  5
F102A2
330
F102A3
100
AcDbEntity
8
Geo
100
AcDbLine
10
-20.5094535993062
20
12.8605878512846
30
0.000000000000000
11
-20.4094535993062
21
12.8070643348100
31
0.000000000000000
  0
LINE
  5
F102A4
330
F102A5
100
AcDbEntity
8
Geo
100
AcDbLine
10
-20.4094535993062
20
12.8070643348100
30
0.000000000000000
11
-20.3094535993062
21
12.7523396165440
31
0.000000000000000
  0
LINE
  5
F102A6
330
F102A7
100
AcDbEntity
8
Geo
100
AcDbLine
10
-20.3094535993062
20
12.7523396165440
30
0.000000000000000
11
-20.2094535993062
21
12.6964248646063
31
0.000000000000000
  0
LINE
  5
F102A8
330
F102A9
100
AcDbEntity
8
Geo
100
AcDbLine
10
-33.2094535993062
20
13.5784710694000
30
0.000000000000000
11
-33.1094535993062
21
13.5468911065000
31
0.000000000000000
  0
LINE
  5
F102AA
330
F102AB
100
AcDbEntity
8
Geo
100
AcDbLine
10
-33.1094535993062
20
13.5468911065000
30
0.000000000000000
11
-33.0094535993062
21
13.5139589593208
31
0.000000000000000
  0
LINE
  5
F102AC
330
F102AD
100
AcDbEntity
8
Geo
100
AcDbLine
10
-33.0094535993062
20
13.5139589593208
30
0.000000000000000
11
-32.9094535993062
21
13.4796813485945
31
0.000000000000000
  0
LINE
  5
F102AE
330
F102AF
100
AcDbEntity
8
Geo
100
AcDbLine
10
-32.9094535993062
20
13.4796813485945
30
0.000000000000000
11
-32.8094535993062
21
13.4440652696329
31
0.000000000000000
  0
LINE
  5
F102B0
330
F102B1
100
AcDbEntity
8
Geo
100
AcDbLine
10
-32.8094535993062
20
13.4440652696329
30
0.000000000000000
11
-32.7094535993062
21
13.4071179908999
31
0.000000000000000
  0
LINE
  5
F102B2
330
F102B3
100
AcDbEntity
8
Geo
100
AcDbLine
10
-32.7094535993062
20
13.4071179908999
30
0.000000000000000
11
-32.6094535993062
21
13.3688470525282
31
0.000000000000000
  0
LINE
  5
F102B4
330
F102B5
100
AcDbEntity
8
Geo
100
AcDbLine
10
-32.6094535993062
20
13.3688470525282
30
0.000000000000000
11
-32.5094535993062
21
13.3292602647806
31
0.000000000000000
  0
LINE
  5
F102B6
330
F102B7
100
AcDbEntity
8
Geo
100
AcDbLine
10
-32.5094535993062
20
13.3292602647806
30
0.000000000000000
11
-32.4094535993062
21
13.2883657064560
31
0.000000000000000
  0
LINE
  5
F102B8
330
F102B9
100
AcDbEntity
8
Geo
100
AcDbLine
10
-32.4094535993062
20
13.2883657064560
30
0.000000000000000
11
-32.3094535993062
21
13.2461717232406
31
0.000000000000000
  0
LINE
  5
F102BA
330
F102BB
100
AcDbEntity
8
Geo
100
AcDbLine
10
-32.3094535993062
20
13.2461717232406
30
0.000000000000000
11
-32.2094535993062
21
13.2026869260051
31
0.000000000000000
  0
LINE
  5
F102BC
330
F102BD
100
AcDbEntity
8
Geo
100
AcDbLine
10
-32.2094535993062
20
13.2026869260051
30
0.000000000000000
11
-32.1094535993062
21
13.1579201890468
31
0.000000000000000
  0
LINE
  5
F102BE
330
F102BF
100
AcDbEntity
8
Geo
100
AcDbLine
10
-32.1094535993062
20
13.1579201890468
30
0.000000000000000
11
-32.0094535993062
21
13.1118806482792
31
0.000000000000000
  0
LINE
  5
F102C0
330
F102C1
100
AcDbEntity
8
Geo
100
AcDbLine
10
-32.0094535993062
20
13.1118806482792
30
0.000000000000000
11
-31.9094535993062
21
13.0645776993672
31
0.000000000000000
  0
LINE
  5
F102C2
330
F102C3
100
AcDbEntity
8
Geo
100
AcDbLine
10
-31.9094535993062
20
13.0645776993672
30
0.000000000000000
11
-31.8094535993062
21
13.0160209958095
31
0.000000000000000
  0
LINE
  5
F102C4
330
F102C5
100
AcDbEntity
8
Geo
100
AcDbLine
10
-31.8094535993062
20
13.0160209958095
30
0.000000000000000
11
-31.7094535993062
21
12.9662204469691
31
0.000000000000000
  0
LINE
  5
F102C6
330
F102C7
100
AcDbEntity
8
Geo
100
AcDbLine
10
-31.7094535993062
20
12.9662204469691
30
0.000000000000000
11
-31.6094535993062
21
12.9151862160504
31
0.000000000000000
  0
LINE
  5
F102C8
330
F102C9
100
AcDbEntity
8
Geo
100
AcDbLine
10
-31.6094535993062
20
12.9151862160504
30
0.000000000000000
11
-31.5094535993062
21
12.8629287180253
31
0.000000000000000
  0
LINE
  5
F102CA
330
F102CB
100
AcDbEntity
8
Geo
100
AcDbLine
10
-31.5094535993062
20
12.8629287180253
30
0.000000000000000
11
-31.4094535993062
21
12.8094586175082
31
0.000000000000000
  0
LINE
  5
F102CC
330
F102CD
100
AcDbEntity
8
Geo
100
AcDbLine
10
-31.4094535993062
20
12.8094586175082
30
0.000000000000000
11
-31.3094535993062
21
12.7547868265787
31
0.000000000000000
  0
LINE
  5
F102CE
330
F102CF
100
AcDbEntity
8
Geo
100
AcDbLine
10
-31.3094535993062
20
12.7547868265787
30
0.000000000000000
11
-31.2094535993062
21
12.6989245025556
31
0.000000000000000
  0
LINE
  5
F102D0
330
F102D1
100
AcDbEntity
8
Geo
100
AcDbLine
10
-31.2094535993062
20
12.6989245025556
30
0.000000000000000
11
-31.1094535993062
21
12.6418830457191
31
0.000000000000000
  0
LINE
  5
F102D2
330
F102D3
100
AcDbEntity
8
Geo
100
AcDbLine
10
-31.1094535993062
20
12.6418830457191
30
0.000000000000000
11
-31.0094535993062
21
12.5836740969850
31
0.000000000000000
  0
LINE
  5
F102D4
330
F102D5
100
AcDbEntity
8
Geo
100
AcDbLine
10
-31.0094535993062
20
12.5836740969850
30
0.000000000000000
11
-30.9094535993062
21
12.5243095355286
31
0.000000000000000
  0
LINE
  5
F102D6
330
F102D7
100
AcDbEntity
8
Geo
100
AcDbLine
10
-30.9094535993062
20
12.5243095355286
30
0.000000000000000
11
-30.8094535993062
21
12.4638014763604
31
0.000000000000000
  0
LINE
  5
F102D8
330
F102D9
100
AcDbEntity
8
Geo
100
AcDbLine
10
-30.8094535993062
20
12.4638014763604
30
0.000000000000000
11
-30.7094535993062
21
12.4021622678538
31
0.000000000000000
  0
LINE
  5
F102DA
330
F102DB
100
AcDbEntity
8
Geo
100
AcDbLine
10
-30.7094535993062
20
12.4021622678538
30
0.000000000000000
11
-30.6094535993062
21
12.3394044892254
31
0.000000000000000
  0
LINE
  5
F102DC
330
F102DD
100
AcDbEntity
8
Geo
100
AcDbLine
10
-30.6094535993062
20
12.3394044892254
30
0.000000000000000
11
-30.5094535993062
21
12.2755409479671
31
0.000000000000000
  0
LINE
  5
F102DE
330
F102DF
100
AcDbEntity
8
Geo
100
AcDbLine
10
-30.5094535993062
20
12.2755409479671
30
0.000000000000000
11
-30.4094535993062
21
12.2105846772332
31
0.000000000000000
  0
LINE
  5
F102E0
330
F102E1
100
AcDbEntity
8
Geo
100
AcDbLine
10
-30.4094535993062
20
12.2105846772332
30
0.000000000000000
11
-30.3094535993062
21
12.1445489331799
31
0.000000000000000
  0
LINE
  5
F102E2
330
F102E3
100
AcDbEntity
8
Geo
100
AcDbLine
10
-30.3094535993062
20
12.1445489331799
30
0.000000000000000
11
-30.2094535993062
21
12.0774471922605
31
0.000000000000000
  0
LINE
  5
F102E4
330
F102E5
100
AcDbEntity
8
Geo
100
AcDbLine
10
-30.2094535993062
20
12.0774471922605
30
0.000000000000000
11
-30.1094535993062
21
12.0092931484749
31
0.000000000000000
  0
LINE
  5
F102E6
330
F102E7
100
AcDbEntity
8
Geo
100
AcDbLine
10
-30.1094535993062
20
12.0092931484749
30
0.000000000000000
11
-30.0094535993062
21
11.9401007105752
31
0.000000000000000
  0
LINE
  5
F102E8
330
F102E9
100
AcDbEntity
8
Geo
100
AcDbLine
10
-30.0094535993062
20
11.9401007105752
30
0.000000000000000
11
-29.9094535993062
21
11.8698839992268
31
0.000000000000000
  0
LINE
  5
F102EA
330
F102EB
100
AcDbEntity
8
Geo
100
AcDbLine
10
-29.9094535993062
20
11.8698839992268
30
0.000000000000000
11
-29.8094535993062
21
11.7986573441273
31
0.000000000000000
  0
LINE
  5
F102EC
330
F102ED
100
AcDbEntity
8
Geo
100
AcDbLine
10
-29.8094535993062
20
11.7986573441273
30
0.000000000000000
11
-29.7094535993062
21
11.7264352810813
31
0.000000000000000
  0
LINE
  5
F102EE
330
F102EF
100
AcDbEntity
8
Geo
100
AcDbLine
10
-29.7094535993062
20
11.7264352810813
30
0.000000000000000
11
-29.6094535993062
21
11.6532325490348
31
0.000000000000000
  0
LINE
  5
F102F0
330
F102F1
100
AcDbEntity
8
Geo
100
AcDbLine
10
-29.6094535993062
20
11.6532325490348
30
0.000000000000000
11
-29.5094535993062
21
11.5790640870668
31
0.000000000000000
  0
LINE
  5
F102F2
330
F102F3
100
AcDbEntity
8
Geo
100
AcDbLine
10
-29.5094535993062
20
11.5790640870668
30
0.000000000000000
11
-29.4094535993062
21
11.5039450313407
31
0.000000000000000
  0
LINE
  5
F102F4
330
F102F5
100
AcDbEntity
8
Geo
100
AcDbLine
10
-29.4094535993062
20
11.5039450313407
30
0.000000000000000
11
-29.3094535993062
21
11.4278907120153
31
0.000000000000000
  0
LINE
  5
F102F6
330
F102F7
100
AcDbEntity
8
Geo
100
AcDbLine
10
-29.3094535993062
20
11.4278907120153
30
0.000000000000000
11
-29.2094535993062
21
11.3509166501163
31
0.000000000000000
  0
LINE
  5
F102F8
330
F102F9
100
AcDbEntity
8
Geo
100
AcDbLine
10
-29.2094535993062
20
11.3509166501163
30
0.000000000000000
11
-29.1094535993062
21
11.2730385543688
31
0.000000000000000
  0
LINE
  5
F102FA
330
F102FB
100
AcDbEntity
8
Geo
100
AcDbLine
10
-29.1094535993062
20
11.2730385543688
30
0.000000000000000
11
-29.0094535993062
21
11.1942723179913
31
0.000000000000000
  0
LINE
  5
F102FC
330
F102FD
100
AcDbEntity
8
Geo
100
AcDbLine
10
-29.0094535993062
20
11.1942723179913
30
0.000000000000000
11
-28.9094535993062
21
11.1146340154527
31
0.000000000000000
  0
LINE
  5
F102FE
330
F102FF
100
AcDbEntity
8
Geo
100
AcDbLine
10
-28.9094535993062
20
11.1146340154527
30
0.000000000000000
11
-28.8094535993062
21
11.0341398991913
31
0.000000000000000
  0
LINE
  5
F10300
330
F10301
100
AcDbEntity
8
Geo
100
AcDbLine
10
-28.8094535993062
20
11.0341398991913
30
0.000000000000000
11
-28.7094535993062
21
10.9528063962984
31
0.000000000000000
  0
LINE
  5
F10302
330
F10303
100
AcDbEntity
8
Geo
100
AcDbLine
10
-28.7094535993062
20
10.9528063962984
30
0.000000000000000
11
-28.6094535993062
21
10.8706501051658
31
0.000000000000000
  0
LINE
  5
F10304
330
F10305
100
AcDbEntity
8
Geo
100
AcDbLine
10
-28.6094535993062
20
10.8706501051658
30
0.000000000000000
11
-28.5094535993062
21
10.7876877920984
31
0.000000000000000
  0
LINE
  5
F10306
330
F10307
100
AcDbEntity
8
Geo
100
AcDbLine
10
-28.5094535993062
20
10.7876877920984
30
0.000000000000000
11
-28.4094535993062
21
10.7039363878925
31
0.000000000000000
  0
LINE
  5
F10308
330
F10309
100
AcDbEntity
8
Geo
100
AcDbLine
10
-28.4094535993062
20
10.7039363878925
30
0.000000000000000
11
-28.3094535993062
21
10.6194129843807
31
0.000000000000000
  0
LINE
  5
F1030A
330
F1030B
100
AcDbEntity
8
Geo
100
AcDbLine
10
-28.3094535993062
20
10.6194129843807
30
0.000000000000000
11
-28.2094535993062
21
10.5341348309440
31
0.000000000000000
  0
LINE
  5
F1030C
330
F1030D
100
AcDbEntity
8
Geo
100
AcDbLine
10
-28.2094535993062
20
10.5341348309440
30
0.000000000000000
11
-28.1094535993062
21
10.4481193309910
31
0.000000000000000
  0
LINE
  5
F1030E
330
F1030F
100
AcDbEntity
8
Geo
100
AcDbLine
10
-28.1094535993062
20
10.4481193309910
30
0.000000000000000
11
-28.0094535993062
21
10.3613840384070
31
0.000000000000000
  0
LINE
  5
F10310
330
F10311
100
AcDbEntity
8
Geo
100
AcDbLine
10
-28.0094535993062
20
10.3613840384070
30
0.000000000000000
11
-27.9094535993062
21
10.2739466539709
31
0.000000000000000
  0
LINE
  5
F10312
330
F10313
100
AcDbEntity
8
Geo
100
AcDbLine
10
-27.9094535993062
20
10.2739466539709
30
0.000000000000000
11
-27.8094535993062
21
10.1858250217436
31
0.000000000000000
  0
LINE
  5
F10314
330
F10315
100
AcDbEntity
8
Geo
100
AcDbLine
10
-27.8094535993062
20
10.1858250217436
30
0.000000000000000
11
-27.7094535993062
21
10.0970371254256
31
0.000000000000000
  0
LINE
  5
F10316
330
F10317
100
AcDbEntity
8
Geo
100
AcDbLine
10
-27.7094535993062
20
10.0970371254256
30
0.000000000000000
11
-27.6094535993062
21
10.0076010846878
31
0.000000000000000
  0
LINE
  5
F10318
330
F10319
100
AcDbEntity
8
Geo
100
AcDbLine
10
-27.6094535993062
20
10.0076010846878
30
0.000000000000000
11
-27.5094535993062
21
9.91753515147285
31
0.000000000000000
  0
LINE
  5
F1031A
330
F1031B
100
AcDbEntity
8
Geo
100
AcDbLine
10
-27.5094535993062
20
9.91753515147285
30
0.000000000000000
11
-27.4094535993062
21
9.82685770627092
31
0.000000000000000
  0
LINE
  5
F1031C
330
F1031D
100
AcDbEntity
8
Geo
100
AcDbLine
10
-27.4094535993062
20
9.82685770627092
30
0.000000000000000
11
-27.3094535993062
21
9.73558725436833
31
0.000000000000000
  0
LINE
  5
F1031E
330
F1031F
100
AcDbEntity
8
Geo
100
AcDbLine
10
-27.3094535993062
20
9.73558725436833
30
0.000000000000000
11
-27.2094535993062
21
9.64374242207115
31
0.000000000000000
  0
LINE
  5
F10320
330
F10321
100
AcDbEntity
8
Geo
100
AcDbLine
10
-27.2094535993062
20
9.64374242207115
30
0.000000000000000
11
-27.1094535993062
21
9.55134195290392
31
0.000000000000000
  0
LINE
  5
F10322
330
F10323
100
AcDbEntity
8
Geo
100
AcDbLine
10
-27.1094535993062
20
9.55134195290392
30
0.000000000000000
11
-27.0094535993062
21
9.45840470378457
31
0.000000000000000
  0
LINE
  5
F10324
330
F10325
100
AcDbEntity
8
Geo
100
AcDbLine
10
-27.0094535993062
20
9.45840470378457
30
0.000000000000000
11
-26.9094535993062
21
9.36494964117605
31
0.000000000000000
  0
LINE
  5
F10326
330
F10327
100
AcDbEntity
8
Geo
100
AcDbLine
10
-26.9094535993062
20
9.36494964117605
30
0.000000000000000
11
-26.8094535993062
21
9.27099583721578
31
0.000000000000000
  0
LINE
  5
F10328
330
F10329
100
AcDbEntity
8
Geo
100
AcDbLine
10
-26.8094535993062
20
9.27099583721578
30
0.000000000000000
11
-26.7094535993062
21
9.17656246582335
31
0.000000000000000
  0
LINE
  5
F1032A
330
F1032B
100
AcDbEntity
8
Geo
100
AcDbLine
10
-26.7094535993062
20
9.17656246582335
30
0.000000000000000
11
-26.6094535993062
21
9.08166879878763
31
0.000000000000000
  0
LINE
  5
F1032C
330
F1032D
100
AcDbEntity
8
Geo
100
AcDbLine
10
-26.6094535993062
20
9.08166879878763
30
0.000000000000000
11
-26.5094535993062
21
8.98633420183377
31
0.000000000000000
  0
LINE
  5
F1032E
330
F1032F
100
AcDbEntity
8
Geo
100
AcDbLine
10
-26.5094535993062
20
8.98633420183377
30
0.000000000000000
11
-26.4094535993062
21
8.89057813067107
31
0.000000000000000
  0
LINE
  5
F10330
330
F10331
100
AcDbEntity
8
Geo
100
AcDbLine
10
-26.4094535993062
20
8.89057813067107
30
0.000000000000000
11
-26.3094535993062
21
8.79442012702253
31
0.000000000000000
  0
LINE
  5
F10332
330
F10333
100
AcDbEntity
8
Geo
100
AcDbLine
10
-26.3094535993062
20
8.79442012702253
30
0.000000000000000
11
-26.2094535993062
21
8.69787981463679
31
0.000000000000000
  0
LINE
  5
F10334
330
F10335
100
AcDbEntity
8
Geo
100
AcDbLine
10
-26.2094535993062
20
8.69787981463679
30
0.000000000000000
11
-26.1094535993062
21
8.60097689528334
31
0.000000000000000
  0
LINE
  5
F10336
330
F10337
100
AcDbEntity
8
Geo
100
AcDbLine
10
-26.1094535993062
20
8.60097689528334
30
0.000000000000000
11
-26.0094535993062
21
8.50373114473185
31
0.000000000000000
  0
LINE
  5
F10338
330
F10339
100
AcDbEntity
8
Geo
100
AcDbLine
10
-26.0094535993062
20
8.50373114473185
30
0.000000000000000
11
-25.9094535993062
21
8.40616240871635
31
0.000000000000000
  0
LINE
  5
F1033A
330
F1033B
100
AcDbEntity
8
Geo
100
AcDbLine
10
-25.9094535993062
20
8.40616240871635
30
0.000000000000000
11
-25.8094535993062
21
8.30829059888514
31
0.000000000000000
  0
LINE
  5
F1033C
330
F1033D
100
AcDbEntity
8
Geo
100
AcDbLine
10
-25.8094535993062
20
8.30829059888514
30
0.000000000000000
11
-25.7094535993062
21
8.21013568873728
31
0.000000000000000
  0
LINE
  5
F1033E
330
F1033F
100
AcDbEntity
8
Geo
100
AcDbLine
10
-25.7094535993062
20
8.21013568873728
30
0.000000000000000
11
-25.6094535993062
21
8.11171770954640
31
0.000000000000000
  0
LINE
  5
F10340
330
F10341
100
AcDbEntity
8
Geo
100
AcDbLine
10
-25.6094535993062
20
8.11171770954640
30
0.000000000000000
11
-25.5094535993062
21
8.01305674627280
31
0.000000000000000
  0
LINE
  5
F10342
330
F10343
100
AcDbEntity
8
Geo
100
AcDbLine
10
-25.5094535993062
20
8.01305674627280
30
0.000000000000000
11
-25.4094535993062
21
7.91417293346452
31
0.000000000000000
  0
LINE
  5
F10344
330
F10345
100
AcDbEntity
8
Geo
100
AcDbLine
10
-25.4094535993062
20
7.91417293346452
30
0.000000000000000
11
-25.3094535993062
21
7.81508645114831
31
0.000000000000000
  0
LINE
  5
F10346
330
F10347
100
AcDbEntity
8
Geo
100
AcDbLine
10
-25.3094535993062
20
7.81508645114831
30
0.000000000000000
11
-25.2094535993062
21
7.71581752071135
31
0.000000000000000
  0
LINE
  5
F10348
330
F10349
100
AcDbEntity
8
Geo
100
AcDbLine
10
-25.2094535993062
20
7.71581752071135
30
0.000000000000000
11
-25.1094535993062
21
7.61638640077451
31
0.000000000000000
  0
LINE
  5
F1034A
330
F1034B
100
AcDbEntity
8
Geo
100
AcDbLine
10
-25.1094535993062
20
7.61638640077451
30
0.000000000000000
11
-25.0094535993062
21
7.51681338305798
31
0.000000000000000
  0
LINE
  5
F1034C
330
F1034D
100
AcDbEntity
8
Geo
100
AcDbLine
10
-25.0094535993062
20
7.51681338305798
30
0.000000000000000
11
-24.9094535993062
21
7.41711878824018
31
0.000000000000000
  0
LINE
  5
F1034E
330
F1034F
100
AcDbEntity
8
Geo
100
AcDbLine
10
-24.9094535993062
20
7.41711878824018
30
0.000000000000000
11
-24.8094535993062
21
7.31732296181077
31
0.000000000000000
  0
LINE
  5
F10350
330
F10351
100
AcDbEntity
8
Geo
100
AcDbLine
10
-24.8094535993062
20
7.31732296181077
30
0.000000000000000
11
-24.7094535993062
21
7.21744626991859
31
0.000000000000000
  0
LINE
  5
F10352
330
F10353
100
AcDbEntity
8
Geo
100
AcDbLine
10
-24.7094535993062
20
7.21744626991859
30
0.000000000000000
11
-24.6094535993062
21
7.11750909521533
31
0.000000000000000
  0
LINE
  5
F10354
330
F10355
100
AcDbEntity
8
Geo
100
AcDbLine
10
-24.6094535993062
20
7.11750909521533
30
0.000000000000000
11
-24.5094535993062
21
7.01753183269590
31
0.000000000000000
  0
LINE
  5
F10356
330
F10357
100
AcDbEntity
8
Geo
100
AcDbLine
10
-24.5094535993062
20
7.01753183269590
30
0.000000000000000
11
-24.4094535993062
21
6.91753488553628
31
0.000000000000000
  0
LINE
  5
F10358
330
F10359
100
AcDbEntity
8
Geo
100
AcDbLine
10
-24.4094535993062
20
6.91753488553628
30
0.000000000000000
11
-24.3094535993062
21
6.81753866092963
31
0.000000000000000
  0
LINE
  5
F1035A
330
F1035B
100
AcDbEntity
8
Geo
100
AcDbLine
10
-24.3094535993062
20
6.81753866092963
30
0.000000000000000
11
-24.2094535993062
21
6.71756356592168
31
0.000000000000000
  0
LINE
  5
F1035C
330
F1035D
100
AcDbEntity
8
Geo
100
AcDbLine
10
-24.2094535993062
20
6.71756356592168
30
0.000000000000000
11
-24.1094535993062
21
6.61763000324604
31
0.000000000000000
  0
LINE
  5
F1035E
330
F1035F
100
AcDbEntity
8
Geo
100
AcDbLine
10
-24.1094535993062
20
6.61763000324604
30
0.000000000000000
11
-24.0094535993062
21
6.51775836716050
31
0.000000000000000
  0
LINE
  5
F10360
330
F10361
100
AcDbEntity
8
Geo
100
AcDbLine
10
-24.0094535993062
20
6.51775836716050
30
0.000000000000000
11
-23.9094535993062
21
6.41796903928498
31
0.000000000000000
  0
LINE
  5
F10362
330
F10363
100
AcDbEntity
8
Geo
100
AcDbLine
10
-23.9094535993062
20
6.41796903928498
30
0.000000000000000
11
-23.8094535993062
21
6.31828238444209
31
0.000000000000000
  0
LINE
  5
F10364
330
F10365
100
AcDbEntity
8
Geo
100
AcDbLine
10
-23.8094535993062
20
6.31828238444209
30
0.000000000000000
11
-23.7094535993062
21
6.21871874650111
31
0.000000000000000
  0
LINE
  5
F10366
330
F10367
100
AcDbEntity
8
Geo
100
AcDbLine
10
-23.7094535993062
20
6.21871874650111
30
0.000000000000000
11
-23.6094535993062
21
6.11929844422627
31
0.000000000000000
  0
LINE
  5
F10368
330
F10369
100
AcDbEntity
8
Geo
100
AcDbLine
10
-23.6094535993062
20
6.11929844422627
30
0.000000000000000
11
-23.5094535993062
21
6.02004176713010
31
0.000000000000000
  0
LINE
  5
F1036A
330
F1036B
100
AcDbEntity
8
Geo
100
AcDbLine
10
-23.5094535993062
20
6.02004176713010
30
0.000000000000000
11
-23.4094535993062
21
5.92096897133284
31
0.000000000000000
  0
LINE
  5
F1036C
330
F1036D
100
AcDbEntity
8
Geo
100
AcDbLine
10
-23.4094535993062
20
5.92096897133284
30
0.000000000000000
11
-23.3094535993062
21
5.82210027542854
31
0.000000000000000
  0
LINE
  5
F1036E
330
F1036F
100
AcDbEntity
8
Geo
100
AcDbLine
10
-23.3094535993062
20
5.82210027542854
30
0.000000000000000
11
-23.2094535993062
21
5.72345585635893
31
0.000000000000000
  0
LINE
  5
F10370
330
F10371
100
AcDbEntity
8
Geo
100
AcDbLine
10
-23.2094535993062
20
5.72345585635893
30
0.000000000000000
11
-23.1094535993062
21
5.62505584529573
31
0.000000000000000
  0
LINE
  5
F10372
330
F10373
100
AcDbEntity
8
Geo
100
AcDbLine
10
-23.1094535993062
20
5.62505584529573
30
0.000000000000000
11
-23.0094535993062
21
5.52692032353233
31
0.000000000000000
  0
LINE
  5
F10374
330
F10375
100
AcDbEntity
8
Geo
100
AcDbLine
10
-23.0094535993062
20
5.52692032353233
30
0.000000000000000
11
-22.9094535993062
21
5.42906931838564
31
0.000000000000000
  0
LINE
  5
F10376
330
F10377
100
AcDbEntity
8
Geo
100
AcDbLine
10
-22.9094535993062
20
5.42906931838564
30
0.000000000000000
11
-22.8094535993062
21
5.33152279910892
31
0.000000000000000
  0
LINE
  5
F10378
330
F10379
100
AcDbEntity
8
Geo
100
AcDbLine
10
-22.8094535993062
20
5.33152279910892
30
0.000000000000000
11
-22.7094535993062
21
5.23430067281653
31
0.000000000000000
  0
LINE
  5
F1037A
330
F1037B
100
AcDbEntity
8
Geo
100
AcDbLine
10
-22.7094535993062
20
5.23430067281653
30
0.000000000000000
11
-22.6094535993062
21
5.13742278042129
31
0.000000000000000
  0
LINE
  5
F1037C
330
F1037D
100
AcDbEntity
8
Geo
100
AcDbLine
10
-22.6094535993062
20
5.13742278042129
30
0.000000000000000
11
-22.5094535993062
21
5.04090889258542
31
0.000000000000000
  0
LINE
  5
F1037E
330
F1037F
100
AcDbEntity
8
Geo
100
AcDbLine
10
-22.5094535993062
20
5.04090889258542
30
0.000000000000000
11
-22.4094535993062
21
4.94477870568575
31
0.000000000000000
  0
LINE
  5
F10380
330
F10381
100
AcDbEntity
8
Geo
100
AcDbLine
10
-22.4094535993062
20
4.94477870568575
30
0.000000000000000
11
-22.3094535993062
21
4.84905183779411
31
0.000000000000000
  0
LINE
  5
F10382
330
F10383
100
AcDbEntity
8
Geo
100
AcDbLine
10
-22.3094535993062
20
4.84905183779411
30
0.000000000000000
11
-22.2094535993062
21
4.75374782467375
31
0.000000000000000
  0
LINE
  5
F10384
330
F10385
100
AcDbEntity
8
Geo
100
AcDbLine
10
-22.2094535993062
20
4.75374782467375
30
0.000000000000000
11
-22.1094535993062
21
4.65888611579249
31
0.000000000000000
  0
LINE
  5
F10386
330
F10387
100
AcDbEntity
8
Geo
100
AcDbLine
10
-22.1094535993062
20
4.65888611579249
30
0.000000000000000
11
-22.0094535993062
21
4.56448607035352
31
0.000000000000000
  0
LINE
  5
F10388
330
F10389
100
AcDbEntity
8
Geo
100
AcDbLine
10
-22.0094535993062
20
4.56448607035352
30
0.000000000000000
11
-21.9094535993062
21
4.47056695334459
31
0.000000000000000
  0
LINE
  5
F1038A
330
F1038B
100
AcDbEntity
8
Geo
100
AcDbLine
10
-21.9094535993062
20
4.47056695334459
30
0.000000000000000
11
-21.8094535993062
21
4.37714793160647
31
0.000000000000000
  0
LINE
  5
F1038C
330
F1038D
100
AcDbEntity
8
Geo
100
AcDbLine
10
-21.8094535993062
20
4.37714793160647
30
0.000000000000000
11
-21.7094535993062
21
4.28424806992140
31
0.000000000000000
  0
LINE
  5
F1038E
330
F1038F
100
AcDbEntity
8
Geo
100
AcDbLine
10
-21.7094535993062
20
4.28424806992140
30
0.000000000000000
11
-21.6094535993062
21
4.19188632712239
31
0.000000000000000
  0
LINE
  5
F10390
330
F10391
100
AcDbEntity
8
Geo
100
AcDbLine
10
-21.6094535993062
20
4.19188632712239
30
0.000000000000000
11
-21.5094535993062
21
4.10008155222415
31
0.000000000000000
  0
LINE
  5
F10392
330
F10393
100
AcDbEntity
8
Geo
100
AcDbLine
10
-21.5094535993062
20
4.10008155222415
30
0.000000000000000
11
-21.4094535993062
21
4.00885248057638
31
0.000000000000000
  0
LINE
  5
F10394
330
F10395
100
AcDbEntity
8
Geo
100
AcDbLine
10
-21.4094535993062
20
4.00885248057638
30
0.000000000000000
11
-21.3094535993062
21
3.91821773004035
31
0.000000000000000
  0
LINE
  5
F10396
330
F10397
100
AcDbEntity
8
Geo
100
AcDbLine
10
-21.3094535993062
20
3.91821773004035
30
0.000000000000000
11
-21.2094535993062
21
3.82819579718935
31
0.000000000000000
  0
LINE
  5
F10398
330
F10399
100
AcDbEntity
8
Geo
100
AcDbLine
10
-21.2094535993062
20
3.82819579718935
30
0.000000000000000
11
-21.1094535993062
21
3.73880505353396
31
0.000000000000000
  0
LINE
  5
F1039A
330
F1039B
100
AcDbEntity
8
Geo
100
AcDbLine
10
-21.1094535993062
20
3.73880505353396
30
0.000000000000000
11
-21.0094535993062
21
3.65006374177284
31
0.000000000000000
  0
LINE
  5
F1039C
330
F1039D
100
AcDbEntity
8
Geo
100
AcDbLine
10
-21.0094535993062
20
3.65006374177284
30
0.000000000000000
11
-20.9094535993062
21
3.56198997206978
31
0.000000000000000
  0
LINE
  5
F1039E
330
F1039F
100
AcDbEntity
8
Geo
100
AcDbLine
10
-20.9094535993062
20
3.56198997206978
30
0.000000000000000
11
-20.8094535993062
21
3.47460171835781
31
0.000000000000000
  0
LINE
  5
F103A0
330
F103A1
100
AcDbEntity
8
Geo
100
AcDbLine
10
-20.8094535993062
20
3.47460171835781
30
0.000000000000000
11
-20.7094535993062
21
3.38791681467112
31
0.000000000000000
  0
LINE
  5
F103A2
330
F103A3
100
AcDbEntity
8
Geo
100
AcDbLine
10
-20.7094535993062
20
3.38791681467112
30
0.000000000000000
11
-20.6094535993062
21
3.30195295150552
31
0.000000000000000
  0
LINE
  5
F103A4
330
F103A5
100
AcDbEntity
8
Geo
100
AcDbLine
10
-20.6094535993062
20
3.30195295150552
30
0.000000000000000
11
-20.5094535993062
21
3.21672767220820
31
0.000000000000000
  0
LINE
  5
F103A6
330
F103A7
100
AcDbEntity
8
Geo
100
AcDbLine
10
-20.5094535993062
20
3.21672767220820
30
0.000000000000000
11
-20.4094535993062
21
3.13225836939750
31
0.000000000000000
  0
LINE
  5
F103A8
330
F103A9
100
AcDbEntity
8
Geo
100
AcDbLine
10
-20.4094535993062
20
3.13225836939750
30
0.000000000000000
11
-20.3094535993062
21
3.04856228141347
31
0.000000000000000
  0
LINE
  5
F103AA
330
F103AB
100
AcDbEntity
8
Geo
100
AcDbLine
10
-20.3094535993062
20
3.04856228141347
30
0.000000000000000
11
-20.2094535993062
21
2.96565648879991
31
0.000000000000000
  0
LINE
  5
F103AC
330
F103AD
100
AcDbEntity
8
Geo
100
AcDbLine
10
-33.2094535993062
20
4.75795649470929
30
0.000000000000000
11
-33.1094535993062
21
4.66307480060361
31
0.000000000000000
  0
LINE
  5
F103AE
330
F103AF
100
AcDbEntity
8
Geo
100
AcDbLine
10
-33.1094535993062
20
4.66307480060361
30
0.000000000000000
11
-33.0094535993062
21
4.56865391512111
31
0.000000000000000
  0
LINE
  5
F103B0
330
F103B1
100
AcDbEntity
8
Geo
100
AcDbLine
10
-33.0094535993062
20
4.56865391512111
30
0.000000000000000
11
-32.9094535993062
21
4.47471310750255
31
0.000000000000000
  0
LINE
  5
F103B2
330
F103B3
100
AcDbEntity
8
Geo
100
AcDbLine
10
-32.9094535993062
20
4.47471310750255
30
0.000000000000000
11
-32.8094535993062
21
4.38127154901528
31
0.000000000000000
  0
LINE
  5
F103B4
330
F103B5
100
AcDbEntity
8
Geo
100
AcDbLine
10
-32.8094535993062
20
4.38127154901528
30
0.000000000000000
11
-32.7094535993062
21
4.28834830904081
31
0.000000000000000
  0
LINE
  5
F103B6
330
F103B7
100
AcDbEntity
8
Geo
100
AcDbLine
10
-32.7094535993062
20
4.28834830904081
30
0.000000000000000
11
-32.6094535993062
21
4.19596235118313
31
0.000000000000000
  0
LINE
  5
F103B8
330
F103B9
100
AcDbEntity
8
Geo
100
AcDbLine
10
-32.6094535993062
20
4.19596235118313
30
0.000000000000000
11
-32.5094535993062
21
4.10413252939872
31
0.000000000000000
  0
LINE
  5
F103BA
330
F103BB
100
AcDbEntity
8
Geo
100
AcDbLine
10
-32.5094535993062
20
4.10413252939872
30
0.000000000000000
11
-32.4094535993062
21
4.01287758414881
31
0.000000000000000
  0
LINE
  5
F103BC
330
F103BD
100
AcDbEntity
8
Geo
100
AcDbLine
10
-32.4094535993062
20
4.01287758414881
30
0.000000000000000
11
-32.3094535993062
21
3.92221613857490
31
0.000000000000000
  0
LINE
  5
F103BE
330
F103BF
100
AcDbEntity
8
Geo
100
AcDbLine
10
-32.3094535993062
20
3.92221613857490
30
0.000000000000000
11
-32.2094535993062
21
3.83216669469815
31
0.000000000000000
  0
LINE
  5
F103C0
330
F103C1
100
AcDbEntity
8
Geo
100
AcDbLine
10
-32.2094535993062
20
3.83216669469815
30
0.000000000000000
11
-32.1094535993062
21
3.74274762964355
31
0.000000000000000
  0
LINE
  5
F103C2
330
F103C3
100
AcDbEntity
8
Geo
100
AcDbLine
10
-32.1094535993062
20
3.74274762964355
30
0.000000000000000
11
-32.0094535993062
21
3.65397719188953
31
0.000000000000000
  0
LINE
  5
F103C4
330
F103C5
100
AcDbEntity
8
Geo
100
AcDbLine
10
-32.0094535993062
20
3.65397719188953
30
0.000000000000000
11
-31.9094535993062
21
3.56587349754387
31
0.000000000000000
  0
LINE
  5
F103C6
330
F103C7
100
AcDbEntity
8
Geo
100
AcDbLine
10
-31.9094535993062
20
3.56587349754387
30
0.000000000000000
11
-31.8094535993062
21
3.47845452664655
31
0.000000000000000
  0
LINE
  5
F103C8
330
F103C9
100
AcDbEntity
8
Geo
100
AcDbLine
10
-31.8094535993062
20
3.47845452664655
30
0.000000000000000
11
-31.7094535993062
21
3.39173811950049
31
0.000000000000000
  0
LINE
  5
F103CA
330
F103CB
100
AcDbEntity
8
Geo
100
AcDbLine
10
-31.7094535993062
20
3.39173811950049
30
0.000000000000000
11
-31.6094535993062
21
3.30574197303065
31
0.000000000000000
  0
LINE
  5
F103CC
330
F103CD
100
AcDbEntity
8
Geo
100
AcDbLine
10
-31.6094535993062
20
3.30574197303065
30
0.000000000000000
11
-31.5094535993062
21
3.22048363717253
31
0.000000000000000
  0
LINE
  5
F103CE
330
F103CF
100
AcDbEntity
8
Geo
100
AcDbLine
10
-31.5094535993062
20
3.22048363717253
30
0.000000000000000
11
-31.4094535993062
21
3.13598051129061
31
0.000000000000000
  0
LINE
  5
F103D0
330
F103D1
100
AcDbEntity
8
Geo
100
AcDbLine
10
-31.4094535993062
20
3.13598051129061
30
0.000000000000000
11
-31.3094535993062
21
3.05224984062749
31
0.000000000000000
  0
LINE
  5
F103D2
330
F103D3
100
AcDbEntity
8
Geo
100
AcDbLine
10
-31.3094535993062
20
3.05224984062749
30
0.000000000000000
11
-31.2094535993062
21
2.96930871278453
31
0.000000000000000
  0
LINE
  5
F103D4
330
F103D5
100
AcDbEntity
8
Geo
100
AcDbLine
10
-31.2094535993062
20
2.96930871278453
30
0.000000000000000
11
-31.1094535993062
21
2.88717405423465
31
0.000000000000000
  0
LINE
  5
F103D6
330
F103D7
100
AcDbEntity
8
Geo
100
AcDbLine
10
-31.1094535993062
20
2.88717405423465
30
0.000000000000000
11
-31.0094535993062
21
2.80586262686800
31
0.000000000000000
  0
LINE
  5
F103D8
330
F103D9
100
AcDbEntity
8
Geo
100
AcDbLine
10
-31.0094535993062
20
2.80586262686800
30
0.000000000000000
11
-30.9094535993062
21
2.72539102457121
31
0.000000000000000
  0
LINE
  5
F103DA
330
F103DB
100
AcDbEntity
8
Geo
100
AcDbLine
10
-30.9094535993062
20
2.72539102457121
30
0.000000000000000
11
-30.8094535993062
21
2.64577566984097
31
0.000000000000000
  0
LINE
  5
F103DC
330
F103DD
100
AcDbEntity
8
Geo
100
AcDbLine
10
-30.8094535993062
20
2.64577566984097
30
0.000000000000000
11
-30.7094535993062
21
2.56703281043252
31
0.000000000000000
  0
LINE
  5
F103DE
330
F103DF
100
AcDbEntity
8
Geo
100
AcDbLine
10
-30.7094535993062
20
2.56703281043252
30
0.000000000000000
11
-30.6094535993062
21
2.48917851604388
31
0.000000000000000
  0
LINE
  5
F103E0
330
F103E1
100
AcDbEntity
8
Geo
100
AcDbLine
10
-30.6094535993062
20
2.48917851604388
30
0.000000000000000
11
-30.5094535993062
21
2.41222867503634
31
0.000000000000000
  0
LINE
  5
F103E2
330
F103E3
100
AcDbEntity
8
Geo
100
AcDbLine
10
-30.5094535993062
20
2.41222867503634
30
0.000000000000000
11
-30.4094535993062
21
2.33619899119202
31
0.000000000000000
  0
LINE
  5
F103E4
330
F103E5
100
AcDbEntity
8
Geo
100
AcDbLine
10
-30.4094535993062
20
2.33619899119202
30
0.000000000000000
11
-30.3094535993062
21
2.26110498050904
31
0.000000000000000
  0
LINE
  5
F103E6
330
F103E7
100
AcDbEntity
8
Geo
100
AcDbLine
10
-30.3094535993062
20
2.26110498050904
30
0.000000000000000
11
-30.2094535993062
21
2.18696196803508
31
0.000000000000000
  0
LINE
  5
F103E8
330
F103E9
100
AcDbEntity
8
Geo
100
AcDbLine
10
-30.2094535993062
20
2.18696196803508
30
0.000000000000000
11
-30.1094535993062
21
2.11378508473983
31
0.000000000000000
  0
LINE
  5
F103EA
330
F103EB
100
AcDbEntity
8
Geo
100
AcDbLine
10
-30.1094535993062
20
2.11378508473983
30
0.000000000000000
11
-30.0094535993062
21
2.04158926442713
31
0.000000000000000
  0
LINE
  5
F103EC
330
F103ED
100
AcDbEntity
8
Geo
100
AcDbLine
10
-30.0094535993062
20
2.04158926442713
30
0.000000000000000
11
-29.9094535993062
21
1.97038924068730
31
0.000000000000000
  0
LINE
  5
F103EE
330
F103EF
100
AcDbEntity
8
Geo
100
AcDbLine
10
-29.9094535993062
20
1.97038924068730
30
0.000000000000000
11
-29.8094535993062
21
1.90019954389029
31
0.000000000000000
  0
LINE
  5
F103F0
330
F103F1
100
AcDbEntity
8
Geo
100
AcDbLine
10
-29.8094535993062
20
1.90019954389029
30
0.000000000000000
11
-29.7094535993062
21
1.83103449822043
31
0.000000000000000
  0
LINE
  5
F103F2
330
F103F3
100
AcDbEntity
8
Geo
100
AcDbLine
10
-29.7094535993062
20
1.83103449822043
30
0.000000000000000
11
-29.6094535993062
21
1.76290821875309
31
0.000000000000000
  0
LINE
  5
F103F4
330
F103F5
100
AcDbEntity
8
Geo
100
AcDbLine
10
-29.6094535993062
20
1.76290821875309
30
0.000000000000000
11
-29.5094535993062
21
1.69583460857417
31
0.000000000000000
  0
LINE
  5
F103F6
330
F103F7
100
AcDbEntity
8
Geo
100
AcDbLine
10
-29.5094535993062
20
1.69583460857417
30
0.000000000000000
11
-29.4094535993062
21
1.62982735594274
31
0.000000000000000
  0
LINE
  5
F103F8
330
F103F9
100
AcDbEntity
8
Geo
100
AcDbLine
10
-29.4094535993062
20
1.62982735594274
30
0.000000000000000
11
-29.3094535993062
21
1.56489993149760
31
0.000000000000000
  0
LINE
  5
F103FA
330
F103FB
100
AcDbEntity
8
Geo
100
AcDbLine
10
-29.3094535993062
20
1.56489993149760
30
0.000000000000000
11
-29.2094535993062
21
1.50106558550818
31
0.000000000000000
  0
LINE
  5
F103FC
330
F103FD
100
AcDbEntity
8
Geo
100
AcDbLine
10
-29.2094535993062
20
1.50106558550818
30
0.000000000000000
11
-29.1094535993062
21
1.43833734517047
31
0.000000000000000
  0
LINE
  5
F103FE
330
F103FF
100
AcDbEntity
8
Geo
100
AcDbLine
10
-29.1094535993062
20
1.43833734517047
30
0.000000000000000
11
-29.0094535993062
21
1.37672801194848
31
0.000000000000000
  0
LINE
  5
F10400
330
F10401
100
AcDbEntity
8
Geo
100
AcDbLine
10
-29.0094535993062
20
1.37672801194848
30
0.000000000000000
11
-28.9094535993062
21
1.31625015896166
31
0.000000000000000
  0
LINE
  5
F10402
330
F10403
100
AcDbEntity
8
Geo
100
AcDbLine
10
-28.9094535993062
20
1.31625015896166
30
0.000000000000000
11
-28.8094535993062
21
1.25691612841910
31
0.000000000000000
  0
LINE
  5
F10404
330
F10405
100
AcDbEntity
8
Geo
100
AcDbLine
10
-28.8094535993062
20
1.25691612841910
30
0.000000000000000
11
-28.7094535993062
21
1.19873802910069
31
0.000000000000000
  0
LINE
  5
F10406
330
F10407
100
AcDbEntity
8
Geo
100
AcDbLine
10
-28.7094535993062
20
1.19873802910069
30
0.000000000000000
11
-28.6094535993062
21
1.14172773388601
31
0.000000000000000
  0
LINE
  5
F10408
330
F10409
100
AcDbEntity
8
Geo
100
AcDbLine
10
-28.6094535993062
20
1.14172773388601
30
0.000000000000000
11
-28.5094535993062
21
1.08589687733130
31
0.000000000000000
  0
LINE
  5
F1040A
330
F1040B
100
AcDbEntity
8
Geo
100
AcDbLine
10
-28.5094535993062
20
1.08589687733130
30
0.000000000000000
11
-28.4094535993062
21
1.03125685329515
31
0.000000000000000
  0
LINE
  5
F1040C
330
F1040D
100
AcDbEntity
8
Geo
100
AcDbLine
10
-28.4094535993062
20
1.03125685329515
30
0.000000000000000
11
-28.3094535993062
21
0.977818812613230
31
0.000000000000000
  0
LINE
  5
F1040E
330
F1040F
100
AcDbEntity
8
Geo
100
AcDbLine
10
-28.3094535993062
20
0.977818812613230
30
0.000000000000000
11
-28.2094535993062
21
0.925593660822662
31
0.000000000000000
  0
LINE
  5
F10410
330
F10411
100
AcDbEntity
8
Geo
100
AcDbLine
10
-28.2094535993062
20
0.925593660822662
30
0.000000000000000
11
-28.1094535993062
21
0.874592055936428
31
0.000000000000000
  0
LINE
  5
F10412
330
F10413
100
AcDbEntity
8
Geo
100
AcDbLine
10
-28.1094535993062
20
0.874592055936428
30
0.000000000000000
11
-28.0094535993062
21
0.824824406268305
31
0.000000000000000
  0
LINE
  5
F10414
330
F10415
100
AcDbEntity
8
Geo
100
AcDbLine
10
-28.0094535993062
20
0.824824406268305
30
0.000000000000000
11
-27.9094535993062
21
0.776300868308759
31
0.000000000000000
  0
LINE
  5
F10416
330
F10417
100
AcDbEntity
8
Geo
100
AcDbLine
10
-27.9094535993062
20
0.776300868308759
30
0.000000000000000
11
-27.8094535993062
21
0.729031344652228
31
0.000000000000000
  0
LINE
  5
F10418
330
F10419
100
AcDbEntity
8
Geo
100
AcDbLine
10
-27.8094535993062
20
0.729031344652228
30
0.000000000000000
11
-27.7094535993062
21
0.683025481976211
31
0.000000000000000
  0
LINE
  5
F1041A
330
F1041B
100
AcDbEntity
8
Geo
100
AcDbLine
10
-27.7094535993062
20
0.683025481976211
30
0.000000000000000
11
-27.6094535993062
21
0.638292669072602
31
0.000000000000000
  0
LINE
  5
F1041C
330
F1041D
100
AcDbEntity
8
Geo
100
AcDbLine
10
-27.6094535993062
20
0.638292669072602
30
0.000000000000000
11
-27.5094535993062
21
0.594842034931633
31
0.000000000000000
  0
LINE
  5
F1041E
330
F1041F
100
AcDbEntity
8
Geo
100
AcDbLine
10
-27.5094535993062
20
0.594842034931633
30
0.000000000000000
11
-27.4094535993062
21
0.552682446878856
31
0.000000000000000
  0
LINE
  5
F10420
330
F10421
100
AcDbEntity
8
Geo
100
AcDbLine
10
-27.4094535993062
20
0.552682446878856
30
0.000000000000000
11
-27.3094535993062
21
0.511822508765501
31
0.000000000000000
  0
LINE
  5
F10422
330
F10423
100
AcDbEntity
8
Geo
100
AcDbLine
10
-27.3094535993062
20
0.511822508765501
30
0.000000000000000
11
-27.2094535993062
21
0.472270559212641
31
0.000000000000000
  0
LINE
  5
F10424
330
F10425
100
AcDbEntity
8
Geo
100
AcDbLine
10
-27.2094535993062
20
0.472270559212641
30
0.000000000000000
11
-27.1094535993062
21
0.434034669909437
31
0.000000000000000
  0
LINE
  5
F10426
330
F10427
100
AcDbEntity
8
Geo
100
AcDbLine
10
-27.1094535993062
20
0.434034669909437
30
0.000000000000000
11
-27.0094535993062
21
0.397122643965895
31
0.000000000000000
  0
LINE
  5
F10428
330
F10429
100
AcDbEntity
8
Geo
100
AcDbLine
10
-27.0094535993062
20
0.397122643965895
30
0.000000000000000
11
-26.9094535993062
21
0.361542014320425
31
0.000000000000000
  0
LINE
  5
F1042A
330
F1042B
100
AcDbEntity
8
Geo
100
AcDbLine
10
-26.9094535993062
20
0.361542014320425
30
0.000000000000000
11
-26.8094535993062
21
0.327300042202523
31
0.000000000000000
  0
LINE
  5
F1042C
330
F1042D
100
AcDbEntity
8
Geo
100
AcDbLine
10
-26.8094535993062
20
0.327300042202523
30
0.000000000000000
11
-26.7094535993062
21
0.294403715650915
31
0.000000000000000
  0
LINE
  5
F1042E
330
F1042F
100
AcDbEntity
8
Geo
100
AcDbLine
10
-26.7094535993062
20
0.294403715650915
30
0.000000000000000
11
-26.6094535993062
21
0.262859748087463
31
0.000000000000000
  0
LINE
  5
F10430
330
F10431
100
AcDbEntity
8
Geo
100
AcDbLine
10
-26.6094535993062
20
0.262859748087463
30
0.000000000000000
11
-26.5094535993062
21
0.232674576947083
31
0.000000000000000
  0
LINE
  5
F10432
330
F10433
100
AcDbEntity
8
Geo
100
AcDbLine
10
-26.5094535993062
20
0.232674576947083
30
0.000000000000000
11
-26.4094535993062
21
0.203854362364018
31
0.000000000000000
  0
LINE
  5
F10434
330
F10435
100
AcDbEntity
8
Geo
100
AcDbLine
10
-26.4094535993062
20
0.203854362364018
30
0.000000000000000
11
-26.3094535993062
21
0.176404985914687
31
0.000000000000000
  0
LINE
  5
F10436
330
F10437
100
AcDbEntity
8
Geo
100
AcDbLine
10
-26.3094535993062
20
0.176404985914687
30
0.000000000000000
11
-26.2094535993062
21
0.150332049417379
31
0.000000000000000
  0
LINE
  5
F10438
330
F10439
100
AcDbEntity
8
Geo
100
AcDbLine
10
-26.2094535993062
20
0.150332049417379
30
0.000000000000000
11
-26.1094535993062
21
0.125640873789053
31
0.000000000000000
  0
LINE
  5
F1043A
330
F1043B
100
AcDbEntity
8
Geo
100
AcDbLine
10
-26.1094535993062
20
0.125640873789053
30
0.000000000000000
11
-26.0094535993062
21
0.102336497959445
31
0.000000000000000
  0
LINE
  5
F1043C
330
F1043D
100
AcDbEntity
8
Geo
100
AcDbLine
10
-26.0094535993062
20
0.102336497959445
30
0.000000000000000
11
-25.9094535993062
21
0.0804236778427354
31
0.000000000000000
  0
LINE
  5
F1043E
330
F1043F
100
AcDbEntity
8
Geo
100
AcDbLine
10
-25.9094535993062
20
0.0804236778427354
30
0.000000000000000
11
-25.8094535993062
21
0.0599068853669804
31
0.000000000000000
  0
LINE
  5
F10440
330
F10441
100
AcDbEntity
8
Geo
100
AcDbLine
10
-25.8094535993062
20
0.0599068853669804
30
0.000000000000000
11
-25.7094535993062
21
0.0407903075614735
31
0.000000000000000
  0
LINE
  5
F10442
330
F10443
100
AcDbEntity
8
Geo
100
AcDbLine
10
-25.7094535993062
20
0.0407903075614735
30
0.000000000000000
11
-25.6094535993062
21
0.0230778457022751
31
0.000000000000000
  0
LINE
  5
F10444
330
F10445
100
AcDbEntity
8
Geo
100
AcDbLine
10
-25.6094535993062
20
0.0230778457022751
30
0.000000000000000
11
-25.5094535993062
21
0.00677311451604723
31
0.000000000000000
  0
LINE
  5
F10446
330
F10447
100
AcDbEntity
8
Geo
100
AcDbLine
10
-25.5094535993062
20
0.00677311451604723
30
0.000000000000000
11
-25.4094535993062
21
-0.00812055855764271
31
0.000000000000000
  0
LINE
  5
F10448
330
F10449
100
AcDbEntity
8
Geo
100
AcDbLine
10
-25.4094535993062
20
-0.00812055855764271
30
0.000000000000000
11
-25.3094535993062
21
-0.0216001340453698
31
0.000000000000000
  0
LINE
  5
F1044A
330
F1044B
100
AcDbEntity
8
Geo
100
AcDbLine
10
-25.3094535993062
20
-0.0216001340453698
30
0.000000000000000
11
-25.2094535993062
21
-0.0336628610601419
31
0.000000000000000
  0
LINE
  5
F1044C
330
F1044D
100
AcDbEntity
8
Geo
100
AcDbLine
10
-25.2094535993062
20
-0.0336628610601419
30
0.000000000000000
11
-25.1094535993062
21
-0.0443062778628054
31
0.000000000000000
  0
LINE
  5
F1044E
330
F1044F
100
AcDbEntity
8
Geo
100
AcDbLine
10
-25.1094535993062
20
-0.0443062778628054
30
0.000000000000000
11
-25.0094535993062
21
-0.0535282123644230
31
0.000000000000000
  0
LINE
  5
F10450
330
F10451
100
AcDbEntity
8
Geo
100
AcDbLine
10
-25.0094535993062
20
-0.0535282123644230
30
0.000000000000000
11
-24.9094535993062
21
-0.0613267825695498
31
0.000000000000000
  0
LINE
  5
F10452
330
F10453
100
AcDbEntity
8
Geo
100
AcDbLine
10
-24.9094535993062
20
-0.0613267825695498
30
0.000000000000000
11
-24.8094535993062
21
-0.0677003969603165
31
0.000000000000000
  0
LINE
  5
F10454
330
F10455
100
AcDbEntity
8
Geo
100
AcDbLine
10
-24.8094535993062
20
-0.0677003969603165
30
0.000000000000000
11
-24.7094535993062
21
-0.0726477548212099
31
0.000000000000000
  0
LINE
  5
F10456
330
F10457
100
AcDbEntity
8
Geo
100
AcDbLine
10
-24.7094535993062
20
-0.0726477548212099
30
0.000000000000000
11
-24.6094535993062
21
-0.0761678465045339
31
0.000000000000000
  0
LINE
  5
F10458
330
F10459
100
AcDbEntity
8
Geo
100
AcDbLine
10
-24.6094535993062
20
-0.0761678465045339
30
0.000000000000000
11
-24.5094535993062
21
-0.0782599536364490
31
0.000000000000000
  0
LINE
  5
F1045A
330
F1045B
100
AcDbEntity
8
Geo
100
AcDbLine
10
-24.5094535993062
20
-0.0782599536364490
30
0.000000000000000
11
-24.4129942771950
21
-0.0789245446660942
31
0.000000000000000
  0
LINE
  5
F1045C
330
F1045D
100
AcDbEntity
8
Geo
100
AcDbLine
10
-20.2094535993062
20
4.94392958845282
30
0.000000000000000
11
-20.1094535993062
21
4.84820637785841
31
0.000000000000000
  0
LINE
  5
F1045E
330
F1045F
100
AcDbEntity
8
Geo
100
AcDbLine
10
-20.1094535993062
20
4.84820637785841
30
0.000000000000000
11
-20.0094535993062
21
4.75290619457520
31
0.000000000000000
  0
LINE
  5
F10460
330
F10461
100
AcDbEntity
8
Geo
100
AcDbLine
10
-20.0094535993062
20
4.75290619457520
30
0.000000000000000
11
-19.9094535993062
21
4.65804848728942
31
0.000000000000000
  0
LINE
  5
F10462
330
F10463
100
AcDbEntity
8
Geo
100
AcDbLine
10
-19.9094535993062
20
4.65804848728942
30
0.000000000000000
11
-19.8094535993062
21
4.56365261438781
31
0.000000000000000
  0
LINE
  5
F10464
330
F10465
100
AcDbEntity
8
Geo
100
AcDbLine
10
-19.8094535993062
20
4.56365261438781
30
0.000000000000000
11
-19.7094535993062
21
4.46973784000919
31
0.000000000000000
  0
LINE
  5
F10466
330
F10467
100
AcDbEntity
8
Geo
100
AcDbLine
10
-19.7094535993062
20
4.46973784000919
30
0.000000000000000
11
-19.6094535993062
21
4.37632333012759
31
0.000000000000000
  0
LINE
  5
F10468
330
F10469
100
AcDbEntity
8
Geo
100
AcDbLine
10
-19.6094535993062
20
4.37632333012759
30
0.000000000000000
11
-19.5094535993062
21
4.28342814870858
31
0.000000000000000
  0
LINE
  5
F1046A
330
F1046B
100
AcDbEntity
8
Geo
100
AcDbLine
10
-19.5094535993062
20
4.28342814870858
30
0.000000000000000
11
-19.4094535993062
21
4.19107125406103
31
0.000000000000000
  0
LINE
  5
F1046C
330
F1046D
100
AcDbEntity
8
Geo
100
AcDbLine
10
-19.4094535993062
20
4.19107125406103
30
0.000000000000000
11
-19.3094535993062
21
4.09927149568677
31
0.000000000000000
  0
LINE
  5
F1046E
330
F1046F
100
AcDbEntity
8
Geo
100
AcDbLine
10
-19.3094535993062
20
4.09927149568677
30
0.000000000000000
11
-19.2094535993062
21
4.00804761228122
31
0.000000000000000
  0
LINE
  5
F10470
330
F10471
100
AcDbEntity
8
Geo
100
AcDbLine
10
-19.2094535993062
20
4.00804761228122
30
0.000000000000000
11
-19.1094535993062
21
3.91741823215771
31
0.000000000000000
  0
LINE
  5
F10472
330
F10473
100
AcDbEntity
8
Geo
100
AcDbLine
10
-19.1094535993062
20
3.91741823215771
30
0.000000000000000
11
-19.0094535993062
21
3.82740187838363
31
0.000000000000000
  0
LINE
  5
F10474
330
F10475
100
AcDbEntity
8
Geo
100
AcDbLine
10
-19.0094535993062
20
3.82740187838363
30
0.000000000000000
11
-18.9094535993062
21
3.73801698248460
31
0.000000000000000
  0
LINE
  5
F10476
330
F10477
100
AcDbEntity
8
Geo
100
AcDbLine
10
-18.9094535993062
20
3.73801698248460
30
0.000000000000000
11
-18.8094535993062
21
3.64928191288107
31
0.000000000000000
  0
LINE
  5
F10478
330
F10479
100
AcDbEntity
8
Geo
100
AcDbLine
10
-18.8094535993062
20
3.64928191288107
30
0.000000000000000
11
-18.7094535993062
21
3.56121502748476
31
0.000000000000000
  0
LINE
  5
F1047A
330
F1047B
100
AcDbEntity
8
Geo
100
AcDbLine
10
-18.7094535993062
20
3.56121502748476
30
0.000000000000000
11
-18.6094535993062
21
3.47383476434351
31
0.000000000000000
  0
LINE
  5
F1047C
330
F1047D
100
AcDbEntity
8
Geo
100
AcDbLine
10
-18.6094535993062
20
3.47383476434351
30
0.000000000000000
11
-18.5094535993062
21
3.38715979014660
31
0.000000000000000
  0
LINE
  5
F1047E
330
F1047F
100
AcDbEntity
8
Geo
100
AcDbLine
10
-18.5094535993062
20
3.38715979014660
30
0.000000000000000
11
-18.4094535993062
21
3.30120923406992
31
0.000000000000000
  0
LINE
  5
F10480
330
F10481
100
AcDbEntity
8
Geo
100
AcDbLine
10
-18.4094535993062
20
3.30120923406992
30
0.000000000000000
11
-18.3094535993062
21
3.21600304414627
31
0.000000000000000
  0
LINE
  5
F10482
330
F10483
100
AcDbEntity
8
Geo
100
AcDbLine
10
-18.3094535993062
20
3.21600304414627
30
0.000000000000000
11
-18.2094535993062
21
3.13156251538492
31
0.000000000000000
  0
LINE
  5
F10484
330
F10485
100
AcDbEntity
8
Geo
100
AcDbLine
10
-18.2094535993062
20
3.13156251538492
30
0.000000000000000
11
-18.1094535993062
21
3.04791105353077
31
0.000000000000000
  0
LINE
  5
F10486
330
F10487
100
AcDbEntity
8
Geo
100
AcDbLine
10
-18.1094535993062
20
3.04791105353077
30
0.000000000000000
11
-18.0094535993062
21
2.96507525592593
31
0.000000000000000
  0
LINE
  5
F10488
330
F10489
100
AcDbEntity
8
Geo
100
AcDbLine
10
-18.0094535993062
20
2.96507525592593
30
0.000000000000000
11
-17.9094535993062
21
2.88308641168215
31
0.000000000000000
  0
LINE
  5
F1048A
330
F1048B
100
AcDbEntity
8
Geo
100
AcDbLine
10
-17.9094535993062
20
2.88308641168215
30
0.000000000000000
11
-17.8094535993062
21
2.80198254754348
31
0.000000000000000
  0
LINE
  5
F1048C
330
F1048D
100
AcDbEntity
8
Geo
100
AcDbLine
10
-17.8094535993062
20
2.80198254754348
30
0.000000000000000
11
-17.7094535993062
21
2.72181117367674
31
0.000000000000000
  0
LINE
  5
F1048E
330
F1048F
100
AcDbEntity
8
Geo
100
AcDbLine
10
-17.7094535993062
20
2.72181117367674
30
0.000000000000000
11
-17.6094535993062
21
2.64263291548801
31
0.000000000000000
  0
LINE
  5
F10490
330
F10491
100
AcDbEntity
8
Geo
100
AcDbLine
10
-17.6094535993062
20
2.64263291548801
30
0.000000000000000
11
-17.5094535993062
21
2.56452625389813
31
0.000000000000000
  0
LINE
  5
F10492
330
F10493
100
AcDbEntity
8
Geo
100
AcDbLine
10
-17.5094535993062
20
2.56452625389813
30
0.000000000000000
11
-17.4094535993062
21
2.48759363813581
31
0.000000000000000
  0
LINE
  5
F10494
330
F10495
100
AcDbEntity
8
Geo
100
AcDbLine
10
-17.4094535993062
20
2.48759363813581
30
0.000000000000000
11
-17.3094535993062
21
2.41196928352394
31
0.000000000000000
  0
LINE
  5
F10496
330
F10497
100
AcDbEntity
8
Geo
100
AcDbLine
10
-17.3094535993062
20
2.41196928352394
30
0.000000000000000
11
-17.2094535993062
21
2.33782902471091
31
0.000000000000000
  0
LINE
  5
F10498
330
F10499
100
AcDbEntity
8
Geo
100
AcDbLine
10
-17.2094535993062
20
2.33782902471091
30
0.000000000000000
11
-17.1094535993062
21
2.26540266733856
31
0.000000000000000
  0
LINE
  5
F1049A
330
F1049B
100
AcDbEntity
8
Geo
100
AcDbLine
10
-17.1094535993062
20
2.26540266733856
30
0.000000000000000
11
-17.0094535993062
21
2.19498937704285
31
0.000000000000000
  0
LINE
  5
F1049C
330
F1049D
100
AcDbEntity
8
Geo
100
AcDbLine
10
-17.0094535993062
20
2.19498937704285
30
0.000000000000000
11
-16.9094535993062
21
2.12697677901728
31
0.000000000000000
  0
LINE
  5
F1049E
330
F1049F
100
AcDbEntity
8
Geo
100
AcDbLine
10
-16.9094535993062
20
2.12697677901728
30
0.000000000000000
11
-16.8094535993062
21
2.06186463922999
31
0.000000000000000
  0
LINE
  5
F104A0
330
F104A1
100
AcDbEntity
8
Geo
100
AcDbLine
10
-16.8094535993062
20
2.06186463922999
30
0.000000000000000
11
-16.7094535993062
21
2.00029430054215
31
0.000000000000000
  0
LINE
  5
F104A2
330
F104A3
100
AcDbEntity
8
Geo
100
AcDbLine
10
-16.7094535993062
20
2.00029430054215
30
0.000000000000000
11
-16.6094535993062
21
1.94308551802899
31
0.000000000000000
  0
LINE
  5
F104A4
330
F104A5
100
AcDbEntity
8
Geo
100
AcDbLine
10
-16.6094535993062
20
1.94308551802899
30
0.000000000000000
11
-16.5094535993062
21
1.89128307757987
31
0.000000000000000
  0
LINE
  5
F104A6
330
F104A7
100
AcDbEntity
8
Geo
100
AcDbLine
10
-16.5094535993062
20
1.89128307757987
30
0.000000000000000
11
-16.4094535993062
21
1.84621674053278
31
0.000000000000000
  0
LINE
  5
F104A8
330
F104A9
100
AcDbEntity
8
Geo
100
AcDbLine
10
-16.4094535993062
20
1.84621674053278
30
0.000000000000000
11
-16.3094535993062
21
1.80957985383060
31
0.000000000000000
  0
LINE
  5
F104AA
330
F104AB
100
AcDbEntity
8
Geo
100
AcDbLine
10
-16.3094535993062
20
1.80957985383060
30
0.000000000000000
11
-16.2094535993062
21
1.78353470790281
31
0.000000000000000
  0
LINE
  5
F104AC
330
F104AD
100
AcDbEntity
8
Geo
100
AcDbLine
10
-16.2094535993062
20
1.78353470790281
30
0.000000000000000
11
-16.1094535993062
21
1.77085682384144
31
0.000000000000000
  0
LINE
  5
F104AE
330
F104AF
100
AcDbEntity
8
Geo
100
AcDbLine
10
-16.1094535993062
20
1.77085682384144
30
0.000000000000000
11
-16.0094535993062
21
1.77513631138228
31
0.000000000000000
  0
LINE
  5
F104B0
330
F104B1
100
AcDbEntity
8
Geo
100
AcDbLine
10
-16.0094535993062
20
1.77513631138228
30
0.000000000000000
11
-15.9094535993062
21
1.80106278369854
31
0.000000000000000
  0
LINE
  5
F104B2
330
F104B3
100
AcDbEntity
8
Geo
100
AcDbLine
10
-15.9094535993062
20
1.80106278369854
30
0.000000000000000
11
-15.8094535993062
21
1.85483136275215
31
0.000000000000000
  0
LINE
  5
F104B4
330
F104B5
100
AcDbEntity
8
Geo
100
AcDbLine
10
-15.8094535993062
20
1.85483136275215
30
0.000000000000000
11
-15.7094535993062
21
1.94472060708357
31
0.000000000000000
  0
LINE
  5
F104B6
330
F104B7
100
AcDbEntity
8
Geo
100
AcDbLine
10
-15.7094535993062
20
1.94472060708357
30
0.000000000000000
11
-15.6094535993062
21
2.08190621690172
31
0.000000000000000
  0
LINE
  5
F104B8
330
F104B9
100
AcDbEntity
8
Geo
100
AcDbLine
10
-15.6094535993062
20
2.08190621690172
30
0.000000000000000
11
-15.5094535993062
21
2.28157968445134
31
0.000000000000000
  0
LINE
  5
F104BA
330
F104BB
100
AcDbEntity
8
Geo
100
AcDbLine
10
-15.5094535993062
20
2.28157968445134
30
0.000000000000000
11
-15.4094535993062
21
2.56442038423896
31
0.000000000000000
  0
LINE
  5
F104BC
330
F104BD
100
AcDbEntity
8
Geo
100
AcDbLine
10
-15.4094535993062
20
2.56442038423896
30
0.000000000000000
11
-15.3094535993062
21
2.95838194758185
31
0.000000000000000
  0
LINE
  5
F104BE
330
F104BF
100
AcDbEntity
8
Geo
100
AcDbLine
10
-15.3094535993062
20
2.95838194758185
30
0.000000000000000
11
-15.2094535993062
21
3.50051310030420
31
0.000000000000000
  0
LINE
  5
F104C0
330
F104C1
100
AcDbEntity
8
Geo
100
AcDbLine
10
-15.2094535993062
20
3.50051310030420
30
0.000000000000000
11
-15.2094535993062
21
3.65507169893697
31
0.000000000000000
  0
LINE
  5
F104C2
330
F104C3
100
AcDbEntity
8
Geo
100
AcDbLine
10
-15.2094535993062
20
3.65507169893697
30
0.000000000000000
11
-15.3094535993062
21
4.28251694130734
31
0.000000000000000
  0
LINE
  5
F104C4
330
F104C5
100
AcDbEntity
8
Geo
100
AcDbLine
10
-15.3094535993062
20
4.28251694130734
30
0.000000000000000
11
-15.4094535993062
21
4.88072120028851
31
0.000000000000000
  0
LINE
  5
F104C6
330
F104C7
100
AcDbEntity
8
Geo
100
AcDbLine
10
-15.4094535993062
20
4.88072120028851
30
0.000000000000000
11
-15.5094535993062
21
5.44393476102629
31
0.000000000000000
  0
LINE
  5
F104C8
330
F104C9
100
AcDbEntity
8
Geo
100
AcDbLine
10
-15.5094535993062
20
5.44393476102629
30
0.000000000000000
11
-15.6094535993062
21
5.96913944000181
31
0.000000000000000
  0
LINE
  5
F104CA
330
F104CB
100
AcDbEntity
8
Geo
100
AcDbLine
10
-15.6094535993062
20
5.96913944000181
30
0.000000000000000
11
-15.7094535993062
21
6.45532198740964
31
0.000000000000000
  0
LINE
  5
F104CC
330
F104CD
100
AcDbEntity
8
Geo
100
AcDbLine
10
-15.7094535993062
20
6.45532198740964
30
0.000000000000000
11
-15.8094535993062
21
6.90289328535300
31
0.000000000000000
  0
LINE
  5
F104CE
330
F104CF
100
AcDbEntity
8
Geo
100
AcDbLine
10
-15.8094535993062
20
6.90289328535300
30
0.000000000000000
11
-15.9094535993062
21
7.31323577620693
31
0.000000000000000
  0
LINE
  5
F104D0
330
F104D1
100
AcDbEntity
8
Geo
100
AcDbLine
10
-15.9094535993062
20
7.31323577620693
30
0.000000000000000
11
-16.0094535993062
21
7.68835880948277
31
0.000000000000000
  0
LINE
  5
F104D2
330
F104D3
100
AcDbEntity
8
Geo
100
AcDbLine
10
-16.0094535993062
20
7.68835880948277
30
0.000000000000000
11
-16.1094535993062
21
8.03064189536696
31
0.000000000000000
  0
LINE
  5
F104D4
330
F104D5
100
AcDbEntity
8
Geo
100
AcDbLine
10
-16.1094535993062
20
8.03064189536696
30
0.000000000000000
11
-16.2094535993062
21
8.34264773667527
31
0.000000000000000
  0
LINE
  5
F104D6
330
F104D7
100
AcDbEntity
8
Geo
100
AcDbLine
10
-16.2094535993062
20
8.34264773667527
30
0.000000000000000
11
-16.3094535993062
21
8.62698946187746
31
0.000000000000000
  0
LINE
  5
F104D8
330
F104D9
100
AcDbEntity
8
Geo
100
AcDbLine
10
-16.3094535993062
20
8.62698946187746
30
0.000000000000000
11
-16.4094535993062
21
8.88623915943982
31
0.000000000000000
  0
LINE
  5
F104DA
330
F104DB
100
AcDbEntity
8
Geo
100
AcDbLine
10
-16.4094535993062
20
8.88623915943982
30
0.000000000000000
11
-16.5094535993062
21
9.12286732472620
31
0.000000000000000
  0
LINE
  5
F104DC
330
F104DD
100
AcDbEntity
8
Geo
100
AcDbLine
10
-16.5094535993062
20
9.12286732472620
30
0.000000000000000
11
-16.6094535993062
21
9.33920503753152
31
0.000000000000000
  0
LINE
  5
F104DE
330
F104DF
100
AcDbEntity
8
Geo
100
AcDbLine
10
-16.6094535993062
20
9.33920503753152
30
0.000000000000000
11
-16.7094535993062
21
9.53742254653290
31
0.000000000000000
  0
LINE
  5
F104E0
330
F104E1
100
AcDbEntity
8
Geo
100
AcDbLine
10
-16.7094535993062
20
9.53742254653290
30
0.000000000000000
11
-16.8094535993062
21
9.71951945404070
31
0.000000000000000
  0
LINE
  5
F104E2
330
F104E3
100
AcDbEntity
8
Geo
100
AcDbLine
10
-16.8094535993062
20
9.71951945404070
30
0.000000000000000
11
-16.9094535993062
21
9.88732290395316
31
0.000000000000000
  0
LINE
  5
F104E4
330
F104E5
100
AcDbEntity
8
Geo
100
AcDbLine
10
-16.9094535993062
20
9.88732290395316
30
0.000000000000000
11
-17.0094535993062
21
10.0424911216727
31
0.000000000000000
  0
LINE
  5
F104E6
330
F104E7
100
AcDbEntity
8
Geo
100
AcDbLine
10
-17.0094535993062
20
10.0424911216727
30
0.000000000000000
11
-17.1094535993062
21
10.1865203822903
31
0.000000000000000
  0
LINE
  5
F104E8
330
F104E9
100
AcDbEntity
8
Geo
100
AcDbLine
10
-17.1094535993062
20
10.1865203822903
30
0.000000000000000
11
-17.2094535993062
21
10.3207540347303
31
0.000000000000000
  0
LINE
  5
F104EA
330
F104EB
100
AcDbEntity
8
Geo
100
AcDbLine
10
-17.2094535993062
20
10.3207540347303
30
0.000000000000000
11
-17.3094535993062
21
10.4463926216152
31
0.000000000000000
  0
LINE
  5
F104EC
330
F104ED
100
AcDbEntity
8
Geo
100
AcDbLine
10
-17.3094535993062
20
10.4463926216152
30
0.000000000000000
11
-17.4094535993062
21
10.5645044383139
31
0.000000000000000
  0
LINE
  5
F104EE
330
F104EF
100
AcDbEntity
8
Geo
100
AcDbLine
10
-17.4094535993062
20
10.5645044383139
30
0.000000000000000
11
-17.5094535993062
21
10.6760360952543
31
0.000000000000000
  0
LINE
  5
F104F0
330
F104F1
100
AcDbEntity
8
Geo
100
AcDbLine
10
-17.5094535993062
20
10.6760360952543
30
0.000000000000000
11
-17.6094535993062
21
10.7818228053319
31
0.000000000000000
  0
LINE
  5
F104F2
330
F104F3
100
AcDbEntity
8
Geo
100
AcDbLine
10
-17.6094535993062
20
10.7818228053319
30
0.000000000000000
11
-17.7094535993062
21
10.8825982290033
31
0.000000000000000
  0
LINE
  5
F104F4
330
F104F5
100
AcDbEntity
8
Geo
100
AcDbLine
10
-17.7094535993062
20
10.8825982290033
30
0.000000000000000
11
-17.8094535993062
21
10.9790037857458
31
0.000000000000000
  0
LINE
  5
F104F6
330
F104F7
100
AcDbEntity
8
Geo
100
AcDbLine
10
-17.8094535993062
20
10.9790037857458
30
0.000000000000000
11
-17.9094535993062
21
11.0715973913965
31
0.000000000000000
  0
LINE
  5
F104F8
330
F104F9
100
AcDbEntity
8
Geo
100
AcDbLine
10
-17.9094535993062
20
11.0715973913965
30
0.000000000000000
11
-18.0094535993062
21
11.1608616136075
31
0.000000000000000
  0
LINE
  5
F104FA
330
F104FB
100
AcDbEntity
8
Geo
100
AcDbLine
10
-18.0094535993062
20
11.1608616136075
30
0.000000000000000
11
-18.1094535993062
21
11.2472112575972
31
0.000000000000000
  0
LINE
  5
F104FC
330
F104FD
100
AcDbEntity
8
Geo
100
AcDbLine
10
-18.1094535993062
20
11.2472112575972
30
0.000000000000000
11
-18.2094535993062
21
11.3310004055031
31
0.000000000000000
  0
LINE
  5
F104FE
330
F104FF
100
AcDbEntity
8
Geo
100
AcDbLine
10
-18.2094535993062
20
11.3310004055031
30
0.000000000000000
11
-18.3094535993062
21
11.4125289378527
31
0.000000000000000
  0
LINE
  5
F10500
330
F10501
100
AcDbEntity
8
Geo
100
AcDbLine
10
-18.3094535993062
20
11.4125289378527
30
0.000000000000000
11
-18.4094535993062
21
11.4920485670508
31
0.000000000000000
  0
LINE
  5
F10502
330
F10503
100
AcDbEntity
8
Geo
100
AcDbLine
10
-18.4094535993062
20
11.4920485670508
30
0.000000000000000
11
-18.5094535993062
21
11.5697684118449
31
0.000000000000000
  0
LINE
  5
F10504
330
F10505
100
AcDbEntity
8
Geo
100
AcDbLine
10
-18.5094535993062
20
11.5697684118449
30
0.000000000000000
11
-18.6094535993062
21
11.6458601395045
31
0.000000000000000
  0
LINE
  5
F10506
330
F10507
100
AcDbEntity
8
Geo
100
AcDbLine
10
-18.6094535993062
20
11.6458601395045
30
0.000000000000000
11
-18.7094535993062
21
11.7204626996716
31
0.000000000000000
  0
LINE
  5
F10508
330
F10509
100
AcDbEntity
8
Geo
100
AcDbLine
10
-18.7094535993062
20
11.7204626996716
30
0.000000000000000
11
-18.8094535993062
21
11.7936866709626
31
0.000000000000000
  0
LINE
  5
F1050A
330
F1050B
100
AcDbEntity
8
Geo
100
AcDbLine
10
-18.8094535993062
20
11.7936866709626
30
0.000000000000000
11
-18.9094535993062
21
11.8656182387395
31
0.000000000000000
  0
LINE
  5
F1050C
330
F1050D
100
AcDbEntity
8
Geo
100
AcDbLine
10
-18.9094535993062
20
11.8656182387395
30
0.000000000000000
11
-19.0094535993062
21
11.9363228201916
31
0.000000000000000
  0
LINE
  5
F1050E
330
F1050F
100
AcDbEntity
8
Geo
100
AcDbLine
10
-19.0094535993062
20
11.9363228201916
30
0.000000000000000
11
-19.1094535993062
21
12.0058483510540
31
0.000000000000000
  0
LINE
  5
F10510
330
F10511
100
AcDbEntity
8
Geo
100
AcDbLine
10
-19.1094535993062
20
12.0058483510540
30
0.000000000000000
11
-19.2094535993062
21
12.0742282469774
31
0.000000000000000
  0
LINE
  5
F10512
330
F10513
100
AcDbEntity
8
Geo
100
AcDbLine
10
-19.2094535993062
20
12.0742282469774
30
0.000000000000000
11
-19.3094535993062
21
12.1414840517166
31
0.000000000000000
  0
LINE
  5
F10514
330
F10515
100
AcDbEntity
8
Geo
100
AcDbLine
10
-19.3094535993062
20
12.1414840517166
30
0.000000000000000
11
-19.4094535993062
21
12.2076277838999
31
0.000000000000000
  0
LINE
  5
F10516
330
F10517
100
AcDbEntity
8
Geo
100
AcDbLine
10
-19.4094535993062
20
12.2076277838999
30
0.000000000000000
11
-19.5094535993062
21
12.2726639941043
31
0.000000000000000
  0
LINE
  5
F10518
330
F10519
100
AcDbEntity
8
Geo
100
AcDbLine
10
-19.5094535993062
20
12.2726639941043
30
0.000000000000000
11
-19.6094535993062
21
12.3365915442355
31
0.000000000000000
  0
LINE
  5
F1051A
330
F1051B
100
AcDbEntity
8
Geo
100
AcDbLine
10
-19.6094535993062
20
12.3365915442355
30
0.000000000000000
11
-19.7094535993062
21
12.3994051217274
31
0.000000000000000
  0
LINE
  5
F1051C
330
F1051D
100
AcDbEntity
8
Geo
100
AcDbLine
10
-19.7094535993062
20
12.3994051217274
30
0.000000000000000
11
-19.8094535993062
21
12.4610965017692
31
0.000000000000000
  0
LINE
  5
F1051E
330
F1051F
100
AcDbEntity
8
Geo
100
AcDbLine
10
-19.8094535993062
20
12.4610965017692
30
0.000000000000000
11
-19.9094535993062
21
12.5216555715824
31
0.000000000000000
  0
LINE
  5
F10520
330
F10521
100
AcDbEntity
8
Geo
100
AcDbLine
10
-19.9094535993062
20
12.5216555715824
30
0.000000000000000
11
-20.0094535993062
21
12.5810711316586
31
0.000000000000000
  0
LINE
  5
F10522
330
F10523
100
AcDbEntity
8
Geo
100
AcDbLine
10
-20.0094535993062
20
12.5810711316586
30
0.000000000000000
11
-20.1094535993062
21
12.6393314897853
31
0.000000000000000
  0
LINE
  5
F10524
330
F10525
100
AcDbEntity
8
Geo
100
AcDbLine
10
-20.1094535993062
20
12.6393314897853
30
0.000000000000000
11
-20.2094535993062
21
12.6964248646063
31
0.000000000000000
  0
LINE
  5
F10526
330
F10527
100
AcDbEntity
8
Geo
100
AcDbLine
10
-15.8138845735256
20
-0.0789245446660942
30
0.000000000000000
11
-15.9094535993062
21
-0.0679309320385366
31
0.000000000000000
  0
LINE
  5
F10528
330
F10529
100
AcDbEntity
8
Geo
100
AcDbLine
10
-15.9094535993062
20
-0.0679309320385366
30
0.000000000000000
11
-16.0094535993062
21
-0.0367457736461905
31
0.000000000000000
  0
LINE
  5
F1052A
330
F1052B
100
AcDbEntity
8
Geo
100
AcDbLine
10
-16.0094535993062
20
-0.0367457736461905
30
0.000000000000000
11
-16.1094535993062
21
0.00957328032502947
31
0.000000000000000
  0
LINE
  5
F1052C
330
F1052D
100
AcDbEntity
8
Geo
100
AcDbLine
10
-16.1094535993062
20
0.00957328032502947
30
0.000000000000000
11
-16.2094535993062
21
0.0669429610701728
31
0.000000000000000
  0
LINE
  5
F1052E
330
F1052F
100
AcDbEntity
8
Geo
100
AcDbLine
10
-16.2094535993062
20
0.0669429610701728
30
0.000000000000000
11
-16.3094535993062
21
0.132124328519204
31
0.000000000000000
  0
LINE
  5
F10530
330
F10531
100
AcDbEntity
8
Geo
100
AcDbLine
10
-16.3094535993062
20
0.132124328519204
30
0.000000000000000
11
-16.4094535993062
21
0.202583688868398
31
0.000000000000000
  0
LINE
  5
F10532
330
F10533
100
AcDbEntity
8
Geo
100
AcDbLine
10
-16.4094535993062
20
0.202583688868398
30
0.000000000000000
11
-16.5094535993062
21
0.276369851330213
31
0.000000000000000
  0
LINE
  5
F10534
330
F10535
100
AcDbEntity
8
Geo
100
AcDbLine
10
-16.5094535993062
20
0.276369851330213
30
0.000000000000000
11
-16.6094535993062
21
0.352007840846985
31
0.000000000000000
  0
LINE
  5
F10536
330
F10537
100
AcDbEntity
8
Geo
100
AcDbLine
10
-16.6094535993062
20
0.352007840846985
30
0.000000000000000
11
-16.7094535993062
21
0.428408214640395
31
0.000000000000000
  0
LINE
  5
F10538
330
F10539
100
AcDbEntity
8
Geo
100
AcDbLine
10
-16.7094535993062
20
0.428408214640395
30
0.000000000000000
11
-16.8094535993062
21
0.504790612365814
31
0.000000000000000
  0
LINE
  5
F1053A
330
F1053B
100
AcDbEntity
8
Geo
100
AcDbLine
10
-16.8094535993062
20
0.504790612365814
30
0.000000000000000
11
-16.9094535993062
21
0.580619945391431
31
0.000000000000000
  0
LINE
  5
F1053C
330
F1053D
100
AcDbEntity
8
Geo
100
AcDbLine
10
-16.9094535993062
20
0.580619945391431
30
0.000000000000000
11
-17.0094535993062
21
0.655553590562002
31
0.000000000000000
  0
LINE
  5
F1053E
330
F1053F
100
AcDbEntity
8
Geo
100
AcDbLine
10
-17.0094535993062
20
0.655553590562002
30
0.000000000000000
11
-17.1094535993062
21
0.729398022762438
31
0.000000000000000
  0
LINE
  5
F10540
330
F10541
100
AcDbEntity
8
Geo
100
AcDbLine
10
-17.1094535993062
20
0.729398022762438
30
0.000000000000000
11
-17.2094535993062
21
0.802073448732366
31
0.000000000000000
  0
LINE
  5
F10542
330
F10543
100
AcDbEntity
8
Geo
100
AcDbLine
10
-17.2094535993062
20
0.802073448732366
30
0.000000000000000
11
-17.3094535993062
21
0.873585159589505
31
0.000000000000000
  0
LINE
  5
F10544
330
F10545
100
AcDbEntity
8
Geo
100
AcDbLine
10
-17.3094535993062
20
0.873585159589505
30
0.000000000000000
11
-17.4094535993062
21
0.944000481236471
31
0.000000000000000
  0
LINE
  5
F10546
330
F10547
100
AcDbEntity
8
Geo
100
AcDbLine
10
-17.4094535993062
20
0.944000481236471
30
0.000000000000000
11
-17.5094535993062
21
1.01343035828817
31
0.000000000000000
  0
LINE
  5
F10548
330
F10549
100
AcDbEntity
8
Geo
100
AcDbLine
10
-17.5094535993062
20
1.01343035828817
30
0.000000000000000
11
-17.6094535993062
21
1.08201475180603
31
0.000000000000000
  0
LINE
  5
F1054A
330
F1054B
100
AcDbEntity
8
Geo
100
AcDbLine
10
-17.6094535993062
20
1.08201475180603
30
0.000000000000000
11
-17.7094535993062
21
1.14991116086969
31
0.000000000000000
  0
LINE
  5
F1054C
330
F1054D
100
AcDbEntity
8
Geo
100
AcDbLine
10
-17.7094535993062
20
1.14991116086969
30
0.000000000000000
11
-17.8094535993062
21
1.21728569191864
31
0.000000000000000
  0
LINE
  5
F1054E
330
F1054F
100
AcDbEntity
8
Geo
100
AcDbLine
10
-17.8094535993062
20
1.21728569191864
30
0.000000000000000
11
-17.9094535993062
21
1.28430619819168
31
0.000000000000000
  0
LINE
  5
F10550
330
F10551
100
AcDbEntity
8
Geo
100
AcDbLine
10
-17.9094535993062
20
1.28430619819168
30
0.000000000000000
11
-18.0094535993062
21
1.35113709552134
31
0.000000000000000
  0
LINE
  5
F10552
330
F10553
100
AcDbEntity
8
Geo
100
AcDbLine
10
-18.0094535993062
20
1.35113709552134
30
0.000000000000000
11
-18.1094535993062
21
1.41793553158350
31
0.000000000000000
  0
LINE
  5
F10554
330
F10555
100
AcDbEntity
8
Geo
100
AcDbLine
10
-18.1094535993062
20
1.41793553158350
30
0.000000000000000
11
-18.2094535993062
21
1.48484864495568
31
0.000000000000000
  0
LINE
  5
F10556
330
F10557
100
AcDbEntity
8
Geo
100
AcDbLine
10
-18.2094535993062
20
1.48484864495568
30
0.000000000000000
11
-18.3094535993062
21
1.55201169948500
31
0.000000000000000
  0
LINE
  5
F10558
330
F10559
100
AcDbEntity
8
Geo
100
AcDbLine
10
-18.3094535993062
20
1.55201169948500
30
0.000000000000000
11
-18.4094535993062
21
1.61954691990556
31
0.000000000000000
  0
LINE
  5
F1055A
330
F1055B
100
AcDbEntity
8
Geo
100
AcDbLine
10
-18.4094535993062
20
1.61954691990556
30
0.000000000000000
11
-18.5094535993062
21
1.68756288765196
31
0.000000000000000
  0
LINE
  5
F1055C
330
F1055D
100
AcDbEntity
8
Geo
100
AcDbLine
10
-18.5094535993062
20
1.68756288765196
30
0.000000000000000
11
-18.6094535993062
21
1.75615438253647
31
0.000000000000000
  0
LINE
  5
F1055E
330
F1055F
100
AcDbEntity
8
Geo
100
AcDbLine
10
-18.6094535993062
20
1.75615438253647
30
0.000000000000000
11
-18.7094535993062
21
1.82540257740225
31
0.000000000000000
  0
LINE
  5
F10560
330
F10561
100
AcDbEntity
8
Geo
100
AcDbLine
10
-18.7094535993062
20
1.82540257740225
30
0.000000000000000
11
-18.8094535993062
21
1.89537550992036
31
0.000000000000000
  0
LINE
  5
F10562
330
F10563
100
AcDbEntity
8
Geo
100
AcDbLine
10
-18.8094535993062
20
1.89537550992036
30
0.000000000000000
11
-18.9094535993062
21
1.96612876913520
31
0.000000000000000
  0
LINE
  5
F10564
330
F10565
100
AcDbEntity
8
Geo
100
AcDbLine
10
-18.9094535993062
20
1.96612876913520
30
0.000000000000000
11
-19.0094535993062
21
2.03770634484383
31
0.000000000000000
  0
LINE
  5
F10566
330
F10567
100
AcDbEntity
8
Geo
100
AcDbLine
10
-19.0094535993062
20
2.03770634484383
30
0.000000000000000
11
-19.1094535993062
21
2.11014159599321
31
0.000000000000000
  0
LINE
  5
F10568
330
F10569
100
AcDbEntity
8
Geo
100
AcDbLine
10
-19.1094535993062
20
2.11014159599321
30
0.000000000000000
11
-19.2094535993062
21
2.18345830047883
31
0.000000000000000
  0
LINE
  5
F1056A
330
F1056B
100
AcDbEntity
8
Geo
100
AcDbLine
10
-19.2094535993062
20
2.18345830047883
30
0.000000000000000
11
-19.3094535993062
21
2.25767175344260
31
0.000000000000000
  0
LINE
  5
F1056C
330
F1056D
100
AcDbEntity
8
Geo
100
AcDbLine
10
-19.3094535993062
20
2.25767175344260
30
0.000000000000000
11
-19.4094535993062
21
2.33278988473860
31
0.000000000000000
  0
LINE
  5
F1056E
330
F1056F
100
AcDbEntity
8
Geo
100
AcDbLine
10
-19.4094535993062
20
2.33278988473860
30
0.000000000000000
11
-19.5094535993062
21
2.40881436894923
31
0.000000000000000
  0
LINE
  5
F10570
330
F10571
100
AcDbEntity
8
Geo
100
AcDbLine
10
-19.5094535993062
20
2.40881436894923
30
0.000000000000000
11
-19.6094535993062
21
2.48574170342206
31
0.000000000000000
  0
LINE
  5
F10572
330
F10573
100
AcDbEntity
8
Geo
100
AcDbLine
10
-19.6094535993062
20
2.48574170342206
30
0.000000000000000
11
-19.7094535993062
21
2.56356423144556
31
0.000000000000000
  0
LINE
  5
F10574
330
F10575
100
AcDbEntity
8
Geo
100
AcDbLine
10
-19.7094535993062
20
2.56356423144556
30
0.000000000000000
11
-19.8094535993062
21
2.64227108903552
31
0.000000000000000
  0
LINE
  5
F10576
330
F10577
100
AcDbEntity
8
Geo
100
AcDbLine
10
-19.8094535993062
20
2.64227108903552
30
0.000000000000000
11
-19.9094535993062
21
2.72184905497364
31
0.000000000000000
  0
LINE
  5
F10578
330
F10579
100
AcDbEntity
8
Geo
100
AcDbLine
10
-19.9094535993062
20
2.72184905497364
30
0.000000000000000
11
-20.0094535993062
21
2.80228328480790
31
0.000000000000000
  0
LINE
  5
F1057A
330
F1057B
100
AcDbEntity
8
Geo
100
AcDbLine
10
-20.0094535993062
20
2.80228328480790
30
0.000000000000000
11
-20.1094535993062
21
2.88355791054725
31
0.000000000000000
  0
LINE
  5
F1057C
330
F1057D
100
AcDbEntity
8
Geo
100
AcDbLine
10
-20.1094535993062
20
2.88355791054725
30
0.000000000000000
11
-20.2094535993062
21
2.96565648879991
31
0.000000000000000
  0
LINE
  5
F1057E
330
F1057F
100
AcDbEntity
8
Geo
100
AcDbLine
10
-20.2094535993062
20
13.6360508254358
30
0.000000000000000
11
-20.1094535993062
21
13.6071216552675
31
0.000000000000000
  0
LINE
  5
F10580
330
F10581
100
AcDbEntity
8
Geo
100
AcDbLine
10
-20.1094535993062
20
13.6071216552675
30
0.000000000000000
11
-20.0094535993062
21
13.5768280090803
31
0.000000000000000
  0
LINE
  5
F10582
330
F10583
100
AcDbEntity
8
Geo
100
AcDbLine
10
-20.0094535993062
20
13.5768280090803
30
0.000000000000000
11
-19.9094535993062
21
13.5451760691458
31
0.000000000000000
  0
LINE
  5
F10584
330
F10585
100
AcDbEntity
8
Geo
100
AcDbLine
10
-19.9094535993062
20
13.5451760691458
30
0.000000000000000
11
-19.8094535993062
21
13.5121722949339
31
0.000000000000000
  0
LINE
  5
F10586
330
F10587
100
AcDbEntity
8
Geo
100
AcDbLine
10
-19.8094535993062
20
13.5121722949339
30
0.000000000000000
11
-19.7094535993062
21
13.4778234217952
31
0.000000000000000
  0
LINE
  5
F10588
330
F10589
100
AcDbEntity
8
Geo
100
AcDbLine
10
-19.7094535993062
20
13.4778234217952
30
0.000000000000000
11
-19.6094535993062
21
13.4421364595922
31
0.000000000000000
  0
LINE
  5
F1058A
330
F1058B
100
AcDbEntity
8
Geo
100
AcDbLine
10
-19.6094535993062
20
13.4421364595922
30
0.000000000000000
11
-19.5094535993062
21
13.4051186912980
31
0.000000000000000
  0
LINE
  5
F1058C
330
F1058D
100
AcDbEntity
8
Geo
100
AcDbLine
10
-19.5094535993062
20
13.4051186912980
30
0.000000000000000
11
-19.4094535993062
21
13.3667776716198
31
0.000000000000000
  0
LINE
  5
F1058E
330
F1058F
100
AcDbEntity
8
Geo
100
AcDbLine
10
-19.4094535993062
20
13.3667776716198
30
0.000000000000000
11
-19.3094535993062
21
13.3271212258010
31
0.000000000000000
  0
LINE
  5
F10590
330
F10591
100
AcDbEntity
8
Geo
100
AcDbLine
10
-19.3094535993062
20
13.3271212258010
30
0.000000000000000
11
-19.2094535993062
21
13.2861574489613
31
0.000000000000000
  0
LINE
  5
F10592
330
F10593
100
AcDbEntity
8
Geo
100
AcDbLine
10
-19.2094535993062
20
13.2861574489613
30
0.000000000000000
11
-19.1094535993062
21
13.2438947067171
31
0.000000000000000
  0
LINE
  5
F10594
330
F10595
100
AcDbEntity
8
Geo
100
AcDbLine
10
-19.1094535993062
20
13.2438947067171
30
0.000000000000000
11
-19.0094535993062
21
13.2003416385180
31
0.000000000000000
  0
LINE
  5
F10596
330
F10597
100
AcDbEntity
8
Geo
100
AcDbLine
10
-19.0094535993062
20
13.2003416385180
30
0.000000000000000
11
-18.9094535993062
21
13.1555071662778
31
0.000000000000000
  0
LINE
  5
F10598
330
F10599
100
AcDbEntity
8
Geo
100
AcDbLine
10
-18.9094535993062
20
13.1555071662778
30
0.000000000000000
11
-18.8094535993062
21
13.1094005126951
31
0.000000000000000
  0
LINE
  5
F1059A
330
F1059B
100
AcDbEntity
8
Geo
100
AcDbLine
10
-18.8094535993062
20
13.1094005126951
30
0.000000000000000
11
-18.7094535993062
21
13.0620312364297
31
0.000000000000000
  0
LINE
  5
F1059C
330
F1059D
100
AcDbEntity
8
Geo
100
AcDbLine
10
-18.7094535993062
20
13.0620312364297
30
0.000000000000000
11
-18.6094535993062
21
13.0134092953643
31
0.000000000000000
  0
LINE
  5
F1059E
330
F1059F
100
AcDbEntity
8
Geo
100
AcDbLine
10
-18.6094535993062
20
13.0134092953643
30
0.000000000000000
11
-18.5094535993062
21
12.9635451549968
31
0.000000000000000
  0
LINE
  5
F105A0
330
F105A1
100
AcDbEntity
8
Geo
100
AcDbLine
10
-18.5094535993062
20
12.9635451549968
30
0.000000000000000
11
-18.4094535993062
21
12.9124499670926
31
0.000000000000000
  0
LINE
  5
F105A2
330
F105A3
100
AcDbEntity
8
Geo
100
AcDbLine
10
-18.4094535993062
20
12.9124499670926
30
0.000000000000000
11
-18.3094535993062
21
12.8601358547453
31
0.000000000000000
  0
LINE
  5
F105A4
330
F105A5
100
AcDbEntity
8
Geo
100
AcDbLine
10
-18.3094535993062
20
12.8601358547453
30
0.000000000000000
11
-18.2094535993062
21
12.8066163546871
31
0.000000000000000
  0
LINE
  5
F105A6
330
F105A7
100
AcDbEntity
8
Geo
100
AcDbLine
10
-18.2094535993062
20
12.8066163546871
30
0.000000000000000
11
-18.1094535993062
21
12.7519070869800
31
0.000000000000000
  0
LINE
  5
F105A8
330
F105A9
100
AcDbEntity
8
Geo
100
AcDbLine
10
-18.1094535993062
20
12.7519070869800
30
0.000000000000000
11
-18.0094535993062
21
12.6960267471011
31
0.000000000000000
  0
LINE
  5
F105AA
330
F105AB
100
AcDbEntity
8
Geo
100
AcDbLine
10
-18.0094535993062
20
12.6960267471011
30
0.000000000000000
11
-17.9094535993062
21
12.6389985470997
31
0.000000000000000
  0
LINE
  5
F105AC
330
F105AD
100
AcDbEntity
8
Geo
100
AcDbLine
10
-17.9094535993062
20
12.6389985470997
30
0.000000000000000
11
-17.8094535993062
21
12.5808522722226
31
0.000000000000000
  0
LINE
  5
F105AE
330
F105AF
100
AcDbEntity
8
Geo
100
AcDbLine
10
-17.8094535993062
20
12.5808522722226
30
0.000000000000000
11
-17.7094535993062
21
12.5216271685849
31
0.000000000000000
  0
LINE
  5
F105B0
330
F105B1
100
AcDbEntity
8
Geo
100
AcDbLine
10
-17.7094535993062
20
12.5216271685849
30
0.000000000000000
11
-17.6094535993062
21
12.4613759375494
31
0.000000000000000
  0
LINE
  5
F105B2
330
F105B3
100
AcDbEntity
8
Geo
100
AcDbLine
10
-17.6094535993062
20
12.4613759375494
30
0.000000000000000
11
-17.5094535993062
21
12.4001701848918
31
0.000000000000000
  0
LINE
  5
F105B4
330
F105B5
100
AcDbEntity
8
Geo
100
AcDbLine
10
-17.5094535993062
20
12.4001701848918
30
0.000000000000000
11
-17.4094535993062
21
12.3381077587796
31
0.000000000000000
  0
LINE
  5
F105B6
330
F105B7
100
AcDbEntity
8
Geo
100
AcDbLine
10
-17.4094535993062
20
12.3381077587796
30
0.000000000000000
11
-17.3094535993062
21
12.2753225108353
31
0.000000000000000
  0
LINE
  5
F105B8
330
F105B9
100
AcDbEntity
8
Geo
100
AcDbLine
10
-17.3094535993062
20
12.2753225108353
30
0.000000000000000
11
-17.2094535993062
21
12.2119971289350
31
0.000000000000000
  0
LINE
  5
F105BA
330
F105BB
100
AcDbEntity
8
Geo
100
AcDbLine
10
-17.2094535993062
20
12.2119971289350
30
0.000000000000000
11
-17.1094535993062
21
12.1483798171556
31
0.000000000000000
  0
LINE
  5
F105BC
330
F105BD
100
AcDbEntity
8
Geo
100
AcDbLine
10
-17.1094535993062
20
12.1483798171556
30
0.000000000000000
11
-17.0094535993062
21
12.0848057330095
31
0.000000000000000
  0
LINE
  5
F105BE
330
F105BF
100
AcDbEntity
8
Geo
100
AcDbLine
10
-17.0094535993062
20
12.0848057330095
30
0.000000000000000
11
-16.9094535993062
21
12.0217242260041
31
0.000000000000000
  0
LINE
  5
F105C0
330
F105C1
100
AcDbEntity
8
Geo
100
AcDbLine
10
-16.9094535993062
20
12.0217242260041
30
0.000000000000000
11
-16.8094535993062
21
11.9597330389229
31
0.000000000000000
  0
LINE
  5
F105C2
330
F105C3
100
AcDbEntity
8
Geo
100
AcDbLine
10
-16.8094535993062
20
11.9597330389229
30
0.000000000000000
11
-16.7094535993062
21
11.8996207073776
31
0.000000000000000
  0
LINE
  5
F105C4
330
F105C5
100
AcDbEntity
8
Geo
100
AcDbLine
10
-16.7094535993062
20
11.8996207073776
30
0.000000000000000
11
-16.6094535993062
21
11.8424183801961
31
0.000000000000000
  0
LINE
  5
F105C6
330
F105C7
100
AcDbEntity
8
Geo
100
AcDbLine
10
-16.6094535993062
20
11.8424183801961
30
0.000000000000000
11
-16.5094535993062
21
11.7894621117826
31
0.000000000000000
  0
LINE
  5
F105C8
330
F105C9
100
AcDbEntity
8
Geo
100
AcDbLine
10
-16.5094535993062
20
11.7894621117826
30
0.000000000000000
11
-16.4094535993062
21
11.7424662323615
31
0.000000000000000
  0
LINE
  5
F105CA
330
F105CB
100
AcDbEntity
8
Geo
100
AcDbLine
10
-16.4094535993062
20
11.7424662323615
30
0.000000000000000
11
-16.3094535993062
21
11.7036074955624
31
0.000000000000000
  0
LINE
  5
F105CC
330
F105CD
100
AcDbEntity
8
Geo
100
AcDbLine
10
-16.3094535993062
20
11.7036074955624
30
0.000000000000000
11
-16.2094535993062
21
11.6756180272839
31
0.000000000000000
  0
LINE
  5
F105CE
330
F105CF
100
AcDbEntity
8
Geo
100
AcDbLine
10
-16.2094535993062
20
11.6756180272839
30
0.000000000000000
11
-16.1094535993062
21
11.6618821427899
31
0.000000000000000
  0
LINE
  5
F105D0
330
F105D1
100
AcDbEntity
8
Geo
100
AcDbLine
10
-16.1094535993062
20
11.6618821427899
30
0.000000000000000
11
-16.0094535993062
21
11.6665269962040
31
0.000000000000000
  0
LINE
  5
F105D2
330
F105D3
100
AcDbEntity
8
Geo
100
AcDbLine
10
-16.0094535993062
20
11.6665269962040
30
0.000000000000000
11
-15.9094535993062
21
11.6944883059360
31
0.000000000000000
  0
LINE
  5
F105D4
330
F105D5
100
AcDbEntity
8
Geo
100
AcDbLine
10
-15.9094535993062
20
11.6944883059360
30
0.000000000000000
11
-15.8094535993062
21
11.7515175463211
31
0.000000000000000
  0
LINE
  5
F105D6
330
F105D7
100
AcDbEntity
8
Geo
100
AcDbLine
10
-15.8094535993062
20
11.7515175463211
30
0.000000000000000
11
-15.7094535993062
21
11.8440717405545
31
0.000000000000000
  0
LINE
  5
F105D8
330
F105D9
100
AcDbEntity
8
Geo
100
AcDbLine
10
-15.7094535993062
20
11.8440717405545
30
0.000000000000000
11
-15.6094535993062
21
11.9789842210010
31
0.000000000000000
  0
LINE
  5
F105DA
330
F105DB
100
AcDbEntity
8
Geo
100
AcDbLine
10
-15.6094535993062
20
11.9789842210010
30
0.000000000000000
11
-15.5094535993062
21
12.1627430327336
31
0.000000000000000
  0
LINE
  5
F105DC
330
F105DD
100
AcDbEntity
8
Geo
100
AcDbLine
10
-15.5094535993062
20
12.1627430327336
30
0.000000000000000
11
-15.4094535993062
21
12.4000860039186
31
0.000000000000000
  0
LINE
  5
F105DE
330
F105DF
100
AcDbEntity
8
Geo
100
AcDbLine
10
-15.4094535993062
20
12.4000860039186
30
0.000000000000000
11
-15.3094535993062
21
12.6914359435200
31
0.000000000000000
  0
LINE
  5
F105E0
330
F105E1
100
AcDbEntity
8
Geo
100
AcDbLine
10
-15.3094535993062
20
12.6914359435200
30
0.000000000000000
11
-15.2094535993062
21
13.0284278420358
31
0.000000000000000
  0
LINE
  5
F105E2
330
F105E3
100
AcDbEntity
8
Geo
100
AcDbLine
10
-15.2094535993062
20
13.0284278420358
30
0.000000000000000
11
-15.2094535993062
21
13.1124581331532
31
0.000000000000000
  0
LINE
  5
F105E4
330
F105E5
100
AcDbEntity
8
Geo
100
AcDbLine
10
-15.2094535993062
20
13.1124581331532
30
0.000000000000000
11
-15.3094535993062
21
13.4047479461417
31
0.000000000000000
  0
LINE
  5
F105E6
330
F105E7
100
AcDbEntity
8
Geo
100
AcDbLine
10
-15.3094535993062
20
13.4047479461417
30
0.000000000000000
11
-15.4094535993062
21
13.6171156668259
31
0.000000000000000
  0
LINE
  5
F105E8
330
F105E9
100
AcDbEntity
8
Geo
100
AcDbLine
10
-15.4094535993062
20
13.6171156668259
30
0.000000000000000
11
-15.5094535993062
21
13.7634475125390
31
0.000000000000000
  0
LINE
  5
F105EA
330
F105EB
100
AcDbEntity
8
Geo
100
AcDbLine
10
-15.5094535993062
20
13.7634475125390
30
0.000000000000000
11
-15.6094535993062
21
13.8560460985821
31
0.000000000000000
  0
LINE
  5
F105EC
330
F105ED
100
AcDbEntity
8
Geo
100
AcDbLine
10
-15.6094535993062
20
13.8560460985821
30
0.000000000000000
11
-15.7094535993062
21
13.9055635330041
31
0.000000000000000
  0
LINE
  5
F105EE
330
F105EF
100
AcDbEntity
8
Geo
100
AcDbLine
10
-15.7094535993062
20
13.9055635330041
30
0.000000000000000
11
-15.8094535993062
21
13.9210518416294
31
0.000000000000000
  0
LINE
  5
F105F0
330
F105F1
100
AcDbEntity
8
Geo
100
AcDbLine
10
-15.8094535993062
20
13.9210518416294
30
0.000000000000000
11
-15.8138845735256
21
13.9210754553339
31
0.000000000000000
  0
LINE
  5
F105F2
330
F105F3
100
AcDbEntity
8
Geo
100
AcDbLine
10
-33.2094535993062
20
6.23171002822536
30
0.000000000000000
11
-33.1094535993062
21
6.13352019447906
31
0.000000000000000
  0
LINE
  5
F105F4
330
F105F5
100
AcDbEntity
8
Geo
100
AcDbLine
10
-33.1094535993062
20
6.13352019447906
30
0.000000000000000
11
-33.0094535993062
21
6.03549108356281
31
0.000000000000000
  0
LINE
  5
F105F6
330
F105F7
100
AcDbEntity
8
Geo
100
AcDbLine
10
-33.0094535993062
20
6.03549108356281
30
0.000000000000000
11
-32.9094535993062
21
5.93764270107737
31
0.000000000000000
  0
LINE
  5
F105F8
330
F105F9
100
AcDbEntity
8
Geo
100
AcDbLine
10
-32.9094535993062
20
5.93764270107737
30
0.000000000000000
11
-32.8094535993062
21
5.83999501574076
31
0.000000000000000
  0
LINE
  5
F105FA
330
F105FB
100
AcDbEntity
8
Geo
100
AcDbLine
10
-32.8094535993062
20
5.83999501574076
30
0.000000000000000
11
-32.7094535993062
21
5.74256795531314
31
0.000000000000000
  0
LINE
  5
F105FC
330
F105FD
100
AcDbEntity
8
Geo
100
AcDbLine
10
-32.7094535993062
20
5.74256795531314
30
0.000000000000000
11
-32.6094535993062
21
5.64538140252990
31
0.000000000000000
  0
LINE
  5
F105FE
330
F105FF
100
AcDbEntity
8
Geo
100
AcDbLine
10
-32.6094535993062
20
5.64538140252990
30
0.000000000000000
11
-32.5094535993062
21
5.54845519104411
31
0.000000000000000
  0
LINE
  5
F10600
330
F10601
100
AcDbEntity
8
Geo
100
AcDbLine
10
-32.5094535993062
20
5.54845519104411
30
0.000000000000000
11
-32.4094535993062
21
5.45180910137884
31
0.000000000000000
  0
LINE
  5
F10602
330
F10603
100
AcDbEntity
8
Geo
100
AcDbLine
10
-32.4094535993062
20
5.45180910137884
30
0.000000000000000
11
-32.3094535993062
21
5.35546285689043
31
0.000000000000000
  0
LINE
  5
F10604
330
F10605
100
AcDbEntity
8
Geo
100
AcDbLine
10
-32.3094535993062
20
5.35546285689043
30
0.000000000000000
11
-32.2094535993062
21
5.25943611974335
31
0.000000000000000
  0
LINE
  5
F10606
330
F10607
100
AcDbEntity
8
Geo
100
AcDbLine
10
-32.2094535993062
20
5.25943611974335
30
0.000000000000000
11
-32.1094535993062
21
5.16374848689763
31
0.000000000000000
  0
LINE
  5
F10608
330
F10609
100
AcDbEntity
8
Geo
100
AcDbLine
10
-32.1094535993062
20
5.16374848689763
30
0.000000000000000
11
-32.0094535993062
21
5.06841948610948
31
0.000000000000000
  0
LINE
  5
F1060A
330
F1060B
100
AcDbEntity
8
Geo
100
AcDbLine
10
-32.0094535993062
20
5.06841948610948
30
0.000000000000000
11
-31.9094535993062
21
4.97346857194617
31
0.000000000000000
  0
LINE
  5
F1060C
330
F1060D
100
AcDbEntity
8
Geo
100
AcDbLine
10
-31.9094535993062
20
4.97346857194617
30
0.000000000000000
11
-31.8094535993062
21
4.87891512181573
31
0.000000000000000
  0
LINE
  5
F1060E
330
F1060F
100
AcDbEntity
8
Geo
100
AcDbLine
10
-31.8094535993062
20
4.87891512181573
30
0.000000000000000
11
-31.7094535993062
21
4.78477843201245
31
0.000000000000000
  0
LINE
  5
F10610
330
F10611
100
AcDbEntity
8
Geo
100
AcDbLine
10
-31.7094535993062
20
4.78477843201245
30
0.000000000000000
11
-31.6094535993062
21
4.69107771377897
31
0.000000000000000
  0
LINE
  5
F10612
330
F10613
100
AcDbEntity
8
Geo
100
AcDbLine
10
-31.6094535993062
20
4.69107771377897
30
0.000000000000000
11
-31.5094535993062
21
4.59783208938562
31
0.000000000000000
  0
LINE
  5
F10614
330
F10615
100
AcDbEntity
8
Geo
100
AcDbLine
10
-31.5094535993062
20
4.59783208938562
30
0.000000000000000
11
-31.4094535993062
21
4.50506058822805
31
0.000000000000000
  0
LINE
  5
F10616
330
F10617
100
AcDbEntity
8
Geo
100
AcDbLine
10
-31.4094535993062
20
4.50506058822805
30
0.000000000000000
11
-31.3094535993062
21
4.41278214294368
31
0.000000000000000
  0
LINE
  5
F10618
330
F10619
100
AcDbEntity
8
Geo
100
AcDbLine
10
-31.3094535993062
20
4.41278214294368
30
0.000000000000000
11
-31.2094535993062
21
4.32101558554801
31
0.000000000000000
  0
LINE
  5
F1061A
330
F1061B
100
AcDbEntity
8
Geo
100
AcDbLine
10
-31.2094535993062
20
4.32101558554801
30
0.000000000000000
11
-31.1094535993062
21
4.22977964359140
31
0.000000000000000
  0
LINE
  5
F1061C
330
F1061D
100
AcDbEntity
8
Geo
100
AcDbLine
10
-31.1094535993062
20
4.22977964359140
30
0.000000000000000
11
-31.0094535993062
21
4.13909293633718
31
0.000000000000000
  0
LINE
  5
F1061E
330
F1061F
100
AcDbEntity
8
Geo
100
AcDbLine
10
-31.0094535993062
20
4.13909293633718
30
0.000000000000000
11
-30.9094535993062
21
4.04897397096188
31
0.000000000000000
  0
LINE
  5
F10620
330
F10621
100
AcDbEntity
8
Geo
100
AcDbLine
10
-30.9094535993062
20
4.04897397096188
30
0.000000000000000
11
-30.8094535993062
21
3.95944113877830
31
0.000000000000000
  0
LINE
  5
F10622
330
F10623
100
AcDbEntity
8
Geo
100
AcDbLine
10
-30.8094535993062
20
3.95944113877830
30
0.000000000000000
11
-30.7094535993062
21
3.87051271148226
31
0.000000000000000
  0
LINE
  5
F10624
330
F10625
100
AcDbEntity
8
Geo
100
AcDbLine
10
-30.7094535993062
20
3.87051271148226
30
0.000000000000000
11
-30.6094535993062
21
3.78220683742375
31
0.000000000000000
  0
LINE
  5
F10626
330
F10627
100
AcDbEntity
8
Geo
100
AcDbLine
10
-30.6094535993062
20
3.78220683742375
30
0.000000000000000
11
-30.5094535993062
21
3.69454153790323
31
0.000000000000000
  0
LINE
  5
F10628
330
F10629
100
AcDbEntity
8
Geo
100
AcDbLine
10
-30.5094535993062
20
3.69454153790323
30
0.000000000000000
11
-30.4094535993062
21
3.60753470349389
31
0.000000000000000
  0
LINE
  5
F1062A
330
F1062B
100
AcDbEntity
8
Geo
100
AcDbLine
10
-30.4094535993062
20
3.60753470349389
30
0.000000000000000
11
-30.3094535993062
21
3.52120409039057
31
0.000000000000000
  0
LINE
  5
F1062C
330
F1062D
100
AcDbEntity
8
Geo
100
AcDbLine
10
-30.3094535993062
20
3.52120409039057
30
0.000000000000000
11
-30.2094535993062
21
3.43556731678611
31
0.000000000000000
  0
LINE
  5
F1062E
330
F1062F
100
AcDbEntity
8
Geo
100
AcDbLine
10
-30.2094535993062
20
3.43556731678611
30
0.000000000000000
11
-30.1094535993062
21
3.35064185927584
31
0.000000000000000
  0
LINE
  5
F10630
330
F10631
100
AcDbEntity
8
Geo
100
AcDbLine
10
-30.1094535993062
20
3.35064185927584
30
0.000000000000000
11
-30.0094535993062
21
3.26644504929106
31
0.000000000000000
  0
LINE
  5
F10632
330
F10633
100
AcDbEntity
8
Geo
100
AcDbLine
10
-30.0094535993062
20
3.26644504929106
30
0.000000000000000
11
-29.9094535993062
21
3.18299406956196
31
0.000000000000000
  0
LINE
  5
F10634
330
F10635
100
AcDbEntity
8
Geo
100
AcDbLine
10
-29.9094535993062
20
3.18299406956196
30
0.000000000000000
11
-29.8094535993062
21
3.10030595061111
31
0.000000000000000
  0
LINE
  5
F10636
330
F10637
100
AcDbEntity
8
Geo
100
AcDbLine
10
-29.8094535993062
20
3.10030595061111
30
0.000000000000000
11
-29.7094535993062
21
3.01839756727782
31
0.000000000000000
  0
LINE
  5
F10638
330
F10639
100
AcDbEntity
8
Geo
100
AcDbLine
10
-29.7094535993062
20
3.01839756727782
30
0.000000000000000
11
-29.6094535993062
21
2.93728563527442
31
0.000000000000000
  0
LINE
  5
F1063A
330
F1063B
100
AcDbEntity
8
Geo
100
AcDbLine
10
-29.6094535993062
20
2.93728563527442
30
0.000000000000000
11
-29.5094535993062
21
2.85698670777490
31
0.000000000000000
  0
LINE
  5
F1063C
330
F1063D
100
AcDbEntity
8
Geo
100
AcDbLine
10
-29.5094535993062
20
2.85698670777490
30
0.000000000000000
11
-29.4094535993062
21
2.77751717203677
31
0.000000000000000
  0
LINE
  5
F1063E
330
F1063F
100
AcDbEntity
8
Geo
100
AcDbLine
10
-29.4094535993062
20
2.77751717203677
30
0.000000000000000
11
-29.3094535993062
21
2.69889324605683
31
0.000000000000000
  0
LINE
  5
F10640
330
F10641
100
AcDbEntity
8
Geo
100
AcDbLine
10
-29.3094535993062
20
2.69889324605683
30
0.000000000000000
11
-29.2094535993062
21
2.62113097526138
31
0.000000000000000
  0
LINE
  5
F10642
330
F10643
100
AcDbEntity
8
Geo
100
AcDbLine
10
-29.2094535993062
20
2.62113097526138
30
0.000000000000000
11
-29.1094535993062
21
2.54424622923168
31
0.000000000000000
  0
LINE
  5
F10644
330
F10645
100
AcDbEntity
8
Geo
100
AcDbLine
10
-29.1094535993062
20
2.54424622923168
30
0.000000000000000
11
-29.0094535993062
21
2.46825469846541
31
0.000000000000000
  0
LINE
  5
F10646
330
F10647
100
AcDbEntity
8
Geo
100
AcDbLine
10
-29.0094535993062
20
2.46825469846541
30
0.000000000000000
11
-28.9094535993062
21
2.39317189117447
31
0.000000000000000
  0
LINE
  5
F10648
330
F10649
100
AcDbEntity
8
Geo
100
AcDbLine
10
-28.9094535993062
20
2.39317189117447
30
0.000000000000000
11
-28.8094535993062
21
2.31901313012017
31
0.000000000000000
  0
LINE
  5
F1064A
330
F1064B
100
AcDbEntity
8
Geo
100
AcDbLine
10
-28.8094535993062
20
2.31901313012017
30
0.000000000000000
11
-28.7094535993062
21
2.24579354948614
31
0.000000000000000
  0
LINE
  5
F1064C
330
F1064D
100
AcDbEntity
8
Geo
100
AcDbLine
10
-28.7094535993062
20
2.24579354948614
30
0.000000000000000
11
-28.6094535993062
21
2.17352809178983
31
0.000000000000000
  0
LINE
  5
F1064E
330
F1064F
100
AcDbEntity
8
Geo
100
AcDbLine
10
-28.6094535993062
20
2.17352809178983
30
0.000000000000000
11
-28.5094535993062
21
2.10223150483301
31
0.000000000000000
  0
LINE
  5
F10650
330
F10651
100
AcDbEntity
8
Geo
100
AcDbLine
10
-28.5094535993062
20
2.10223150483301
30
0.000000000000000
11
-28.4094535993062
21
2.03191833869210
31
0.000000000000000
  0
LINE
  5
F10652
330
F10653
100
AcDbEntity
8
Geo
100
AcDbLine
10
-28.4094535993062
20
2.03191833869210
30
0.000000000000000
11
-28.3094535993062
21
1.96260294274879
31
0.000000000000000
  0
LINE
  5
F10654
330
F10655
100
AcDbEntity
8
Geo
100
AcDbLine
10
-28.3094535993062
20
1.96260294274879
30
0.000000000000000
11
-28.2094535993062
21
1.89429946276168
31
0.000000000000000
  0
LINE
  5
F10656
330
F10657
100
AcDbEntity
8
Geo
100
AcDbLine
10
-28.2094535993062
20
1.89429946276168
30
0.000000000000000
11
-28.1094535993062
21
1.82702183797942
31
0.000000000000000
  0
LINE
  5
F10658
330
F10659
100
AcDbEntity
8
Geo
100
AcDbLine
10
-28.1094535993062
20
1.82702183797942
30
0.000000000000000
11
-28.0094535993062
21
1.76078379829602
31
0.000000000000000
  0
LINE
  5
F1065A
330
F1065B
100
AcDbEntity
8
Geo
100
AcDbLine
10
-28.0094535993062
20
1.76078379829602
30
0.000000000000000
11
-27.9094535993062
21
1.69559886144886
31
0.000000000000000
  0
LINE
  5
F1065C
330
F1065D
100
AcDbEntity
8
Geo
100
AcDbLine
10
-27.9094535993062
20
1.69559886144886
30
0.000000000000000
11
-27.8094535993062
21
1.63148033026003
31
0.000000000000000
  0
LINE
  5
F1065E
330
F1065F
100
AcDbEntity
8
Geo
100
AcDbLine
10
-27.8094535993062
20
1.63148033026003
30
0.000000000000000
11
-27.7094535993062
21
1.56844128992152
31
0.000000000000000
  0
LINE
  5
F10660
330
F10661
100
AcDbEntity
8
Geo
100
AcDbLine
10
-27.7094535993062
20
1.56844128992152
30
0.000000000000000
11
-27.6094535993062
21
1.50649460532482
31
0.000000000000000
  0
LINE
  5
F10662
330
F10663
100
AcDbEntity
8
Geo
100
AcDbLine
10
-27.6094535993062
20
1.50649460532482
30
0.000000000000000
11
-27.5094535993062
21
1.44565291843545
31
0.000000000000000
  0
LINE
  5
F10664
330
F10665
100
AcDbEntity
8
Geo
100
AcDbLine
10
-27.5094535993062
20
1.44565291843545
30
0.000000000000000
11
-27.4094535993062
21
1.38592864571304
31
0.000000000000000
  0
LINE
  5
F10666
330
F10667
100
AcDbEntity
8
Geo
100
AcDbLine
10
-27.4094535993062
20
1.38592864571304
30
0.000000000000000
11
-27.3094535993062
21
1.32733397557738
31
0.000000000000000
  0
LINE
  5
F10668
330
F10669
100
AcDbEntity
8
Geo
100
AcDbLine
10
-27.3094535993062
20
1.32733397557738
30
0.000000000000000
11
-27.2094535993062
21
1.26988086592107
31
0.000000000000000
  0
LINE
  5
F1066A
330
F1066B
100
AcDbEntity
8
Geo
100
AcDbLine
10
-27.2094535993062
20
1.26988086592107
30
0.000000000000000
11
-27.1094535993062
21
1.21358104166910
31
0.000000000000000
  0
LINE
  5
F1066C
330
F1066D
100
AcDbEntity
8
Geo
100
AcDbLine
10
-27.1094535993062
20
1.21358104166910
30
0.000000000000000
11
-27.0094535993062
21
1.15844599238613
31
0.000000000000000
  0
LINE
  5
F1066E
330
F1066F
100
AcDbEntity
8
Geo
100
AcDbLine
10
-27.0094535993062
20
1.15844599238613
30
0.000000000000000
11
-26.9094535993062
21
1.10448696993167
31
0.000000000000000
  0
LINE
  5
F10670
330
F10671
100
AcDbEntity
8
Geo
100
AcDbLine
10
-26.9094535993062
20
1.10448696993167
30
0.000000000000000
11
-26.8094535993062
21
1.05171498616385
31
0.000000000000000
  0
LINE
  5
F10672
330
F10673
100
AcDbEntity
8
Geo
100
AcDbLine
10
-26.8094535993062
20
1.05171498616385
30
0.000000000000000
11
-26.7094535993062
21
1.00014081069211
31
0.000000000000000
  0
LINE
  5
F10674
330
F10675
100
AcDbEntity
8
Geo
100
AcDbLine
10
-26.7094535993062
20
1.00014081069211
30
0.000000000000000
11
-26.6094535993062
21
0.949774968679375
31
0.000000000000000
  0
LINE
  5
F10676
330
F10677
100
AcDbEntity
8
Geo
100
AcDbLine
10
-26.6094535993062
20
0.949774968679375
30
0.000000000000000
11
-26.5094535993062
21
0.900627738694116
31
0.000000000000000
  0
LINE
  5
F10678
330
F10679
100
AcDbEntity
8
Geo
100
AcDbLine
10
-26.5094535993062
20
0.900627738694116
30
0.000000000000000
11
-26.4094535993062
21
0.852709150612690
31
0.000000000000000
  0
LINE
  5
F1067A
330
F1067B
100
AcDbEntity
8
Geo
100
AcDbLine
10
-26.4094535993062
20
0.852709150612690
30
0.000000000000000
11
-26.3094535993062
21
0.806028983572469
31
0.000000000000000
  0
LINE
  5
F1067C
330
F1067D
100
AcDbEntity
8
Geo
100
AcDbLine
10
-26.3094535993062
20
0.806028983572469
30
0.000000000000000
11
-26.2094535993062
21
0.760596763976143
31
0.000000000000000
  0
LINE
  5
F1067E
330
F1067F
100
AcDbEntity
8
Geo
100
AcDbLine
10
-26.2094535993062
20
0.760596763976143
30
0.000000000000000
11
-26.1094535993062
21
0.716421763547575
31
0.000000000000000
  0
LINE
  5
F10680
330
F10681
100
AcDbEntity
8
Geo
100
AcDbLine
10
-26.1094535993062
20
0.716421763547575
30
0.000000000000000
11
-26.0094535993062
21
0.673512997439659
31
0.000000000000000
  0
LINE
  5
F10682
330
F10683
100
AcDbEntity
8
Geo
100
AcDbLine
10
-26.0094535993062
20
0.673512997439659
30
0.000000000000000
11
-25.9094535993062
21
0.631879222394510
31
0.000000000000000
  0
LINE
  5
F10684
330
F10685
100
AcDbEntity
8
Geo
100
AcDbLine
10
-25.9094535993062
20
0.631879222394510
30
0.000000000000000
11
-25.8094535993062
21
0.591528934956408
31
0.000000000000000
  0
LINE
  5
F10686
330
F10687
100
AcDbEntity
8
Geo
100
AcDbLine
10
-25.8094535993062
20
0.591528934956408
30
0.000000000000000
11
-25.7094535993062
21
0.552470369737851
31
0.000000000000000
  0
LINE
  5
F10688
330
F10689
100
AcDbEntity
8
Geo
100
AcDbLine
10
-25.7094535993062
20
0.552470369737851
30
0.000000000000000
11
-25.6094535993062
21
0.514711497739032
31
0.000000000000000
  0
LINE
  5
F1068A
330
F1068B
100
AcDbEntity
8
Geo
100
AcDbLine
10
-25.6094535993062
20
0.514711497739032
30
0.000000000000000
11
-25.5094535993062
21
0.478260024721148
31
0.000000000000000
  0
LINE
  5
F1068C
330
F1068D
100
AcDbEntity
8
Geo
100
AcDbLine
10
-25.5094535993062
20
0.478260024721148
30
0.000000000000000
11
-25.4094535993062
21
0.443123389633805
31
0.000000000000000
  0
LINE
  5
F1068E
330
F1068F
100
AcDbEntity
8
Geo
100
AcDbLine
10
-25.4094535993062
20
0.443123389633805
30
0.000000000000000
11
-25.3094535993062
21
0.409308763096912
31
0.000000000000000
  0
LINE
  5
F10690
330
F10691
100
AcDbEntity
8
Geo
100
AcDbLine
10
-25.3094535993062
20
0.409308763096912
30
0.000000000000000
11
-25.2094535993062
21
0.376823045937297
31
0.000000000000000
  0
LINE
  5
F10692
330
F10693
100
AcDbEntity
8
Geo
100
AcDbLine
10
-25.2094535993062
20
0.376823045937297
30
0.000000000000000
11
-25.1094535993062
21
0.345672867780404
31
0.000000000000000
  0
LINE
  5
F10694
330
F10695
100
AcDbEntity
8
Geo
100
AcDbLine
10
-25.1094535993062
20
0.345672867780404
30
0.000000000000000
11
-25.0094535993062
21
0.315864585697335
31
0.000000000000000
  0
LINE
  5
F10696
330
F10697
100
AcDbEntity
8
Geo
100
AcDbLine
10
-25.0094535993062
20
0.315864585697335
30
0.000000000000000
11
-24.9094535993062
21
0.287404282907510
31
0.000000000000000
  0
LINE
  5
F10698
330
F10699
100
AcDbEntity
8
Geo
100
AcDbLine
10
-24.9094535993062
20
0.287404282907510
30
0.000000000000000
11
-24.8094535993062
21
0.260297767537204
31
0.000000000000000
  0
LINE
  5
F1069A
330
F1069B
100
AcDbEntity
8
Geo
100
AcDbLine
10
-24.8094535993062
20
0.260297767537204
30
0.000000000000000
11
-24.7094535993062
21
0.234550571434252
31
0.000000000000000
  0
LINE
  5
F1069C
330
F1069D
100
AcDbEntity
8
Geo
100
AcDbLine
10
-24.7094535993062
20
0.234550571434252
30
0.000000000000000
11
-24.6094535993062
21
0.210167949039112
31
0.000000000000000
  0
LINE
  5
F1069E
330
F1069F
100
AcDbEntity
8
Geo
100
AcDbLine
10
-24.6094535993062
20
0.210167949039112
30
0.000000000000000
11
-24.5094535993062
21
0.187154876312539
31
0.000000000000000
  0
LINE
  5
F106A0
330
F106A1
100
AcDbEntity
8
Geo
100
AcDbLine
10
-24.5094535993062
20
0.187154876312539
30
0.000000000000000
11
-24.4094535993062
21
0.165516049720120
31
0.000000000000000
  0
LINE
  5
F106A2
330
F106A3
100
AcDbEntity
8
Geo
100
AcDbLine
10
-24.4094535993062
20
0.165516049720120
30
0.000000000000000
11
-24.3094535993062
21
0.145255885273807
31
0.000000000000000
  0
LINE
  5
F106A4
330
F106A5
100
AcDbEntity
8
Geo
100
AcDbLine
10
-24.3094535993062
20
0.145255885273807
30
0.000000000000000
11
-24.2094535993062
21
0.126378517630721
31
0.000000000000000
  0
LINE
  5
F106A6
330
F106A7
100
AcDbEntity
8
Geo
100
AcDbLine
10
-24.2094535993062
20
0.126378517630721
30
0.000000000000000
11
-24.1094535993062
21
0.108887799249354
31
0.000000000000000
  0
LINE
  5
F106A8
330
F106A9
100
AcDbEntity
8
Geo
100
AcDbLine
10
-24.1094535993062
20
0.108887799249354
30
0.000000000000000
11
-24.0094535993062
21
0.0927872996033630
31
0.000000000000000
  0
LINE
  5
F106AA
330
F106AB
100
AcDbEntity
8
Geo
100
AcDbLine
10
-24.0094535993062
20
0.0927872996033630
30
0.000000000000000
11
-23.9094535993062
21
0.0780803044531204
31
0.000000000000000
  0
LINE
  5
F106AC
330
F106AD
100
AcDbEntity
8
Geo
100
AcDbLine
10
-23.9094535993062
20
0.0780803044531204
30
0.000000000000000
11
-23.8094535993062
21
0.0647698151751666
31
0.000000000000000
  0
LINE
  5
F106AE
330
F106AF
100
AcDbEntity
8
Geo
100
AcDbLine
10
-23.8094535993062
20
0.0647698151751666
30
0.000000000000000
11
-23.7094535993062
21
0.0528585481496817
31
0.000000000000000
  0
LINE
  5
F106B0
330
F106B1
100
AcDbEntity
8
Geo
100
AcDbLine
10
-23.7094535993062
20
0.0528585481496817
30
0.000000000000000
11
-23.6094535993062
21
0.0423489342061529
31
0.000000000000000
  0
LINE
  5
F106B2
330
F106B3
100
AcDbEntity
8
Geo
100
AcDbLine
10
-23.6094535993062
20
0.0423489342061529
30
0.000000000000000
11
-23.5094535993062
21
0.0332431181272703
31
0.000000000000000
  0
LINE
  5
F106B4
330
F106B5
100
AcDbEntity
8
Geo
100
AcDbLine
10
-23.5094535993062
20
0.0332431181272703
30
0.000000000000000
11
-23.4094535993062
21
0.0255429582112452
31
0.000000000000000
  0
LINE
  5
F106B6
330
F106B7
100
AcDbEntity
8
Geo
100
AcDbLine
10
-23.4094535993062
20
0.0255429582112452
30
0.000000000000000
11
-23.3094535993062
21
0.0192500258925605
31
0.000000000000000
  0
LINE
  5
F106B8
330
F106B9
100
AcDbEntity
8
Geo
100
AcDbLine
10
-23.3094535993062
20
0.0192500258925605
30
0.000000000000000
11
-23.2094535993062
21
0.0143656054212729
31
0.000000000000000
  0
LINE
  5
F106BA
330
F106BB
100
AcDbEntity
8
Geo
100
AcDbLine
10
-23.2094535993062
20
0.0143656054212729
30
0.000000000000000
11
-23.1094535993062
21
0.0108906936009365
31
0.000000000000000
  0
LINE
  5
F106BC
330
F106BD
100
AcDbEntity
8
Geo
100
AcDbLine
10
-23.1094535993062
20
0.0108906936009365
30
0.000000000000000
11
-23.0094535993062
21
0.00882599958516739
31
0.000000000000000
  0
LINE
  5
F106BE
330
F106BF
100
AcDbEntity
8
Geo
100
AcDbLine
10
-23.0094535993062
20
0.00882599958516739
30
0.000000000000000
11
-22.9130923073163
21
-0.0789245446660942
31
0.000000000000000
  0
LINE
  5
F106C0
330
F106C1
100
AcDbEntity
8
Geo
100
AcDbLine
10
-22.9130923073162
20
13.9210754553339
30
0.000000000000000
11
-22.9094535993062
21
13.8339789659349
31
0.000000000000000
  0
LINE
  5
F106C2
330
F106C3
100
AcDbEntity
8
Geo
100
AcDbLine
10
-22.9094535993062
20
13.8339789659349
30
0.000000000000000
11
-22.8094535993062
21
13.8332222481453
31
0.000000000000000
  0
LINE
  5
F106C4
330
F106C5
100
AcDbEntity
8
Geo
100
AcDbLine
10
-22.8094535993062
20
13.8332222481453
30
0.000000000000000
11
-22.7094535993062
21
13.8310549121434
31
0.000000000000000
  0
LINE
  5
F106C6
330
F106C7
100
AcDbEntity
8
Geo
100
AcDbLine
10
-22.7094535993062
20
13.8310549121434
30
0.000000000000000
11
-22.6094535993062
21
13.8274774002352
31
0.000000000000000
  0
LINE
  5
F106C8
330
F106C9
100
AcDbEntity
8
Geo
100
AcDbLine
10
-22.6094535993062
20
13.8274774002352
30
0.000000000000000
11
-22.5094535993062
21
13.8224904425128
31
0.000000000000000
  0
LINE
  5
F106CA
330
F106CB
100
AcDbEntity
8
Geo
100
AcDbLine
10
-22.5094535993062
20
13.8224904425128
30
0.000000000000000
11
-22.4094535993062
21
13.8160950567053
31
0.000000000000000
  0
LINE
  5
F106CC
330
F106CD
100
AcDbEntity
8
Geo
100
AcDbLine
10
-22.4094535993062
20
13.8160950567053
30
0.000000000000000
11
-22.3094535993062
21
13.8082925479712
31
0.000000000000000
  0
LINE
  5
F106CE
330
F106CF
100
AcDbEntity
8
Geo
100
AcDbLine
10
-22.3094535993062
20
13.8082925479712
30
0.000000000000000
11
-22.2094535993062
21
13.7990845086323
31
0.000000000000000
  0
LINE
  5
F106D0
330
F106D1
100
AcDbEntity
8
Geo
100
AcDbLine
10
-22.2094535993062
20
13.7990845086323
30
0.000000000000000
11
-22.1094535993062
21
13.7884728178482
31
0.000000000000000
  0
LINE
  5
F106D2
330
F106D3
100
AcDbEntity
8
Geo
100
AcDbLine
10
-22.1094535993062
20
13.7884728178482
30
0.000000000000000
11
-22.0094535993062
21
13.7764596412334
31
0.000000000000000
  0
LINE
  5
F106D4
330
F106D5
100
AcDbEntity
8
Geo
100
AcDbLine
10
-22.0094535993062
20
13.7764596412334
30
0.000000000000000
11
-21.9094535993062
21
13.7630474304147
31
0.000000000000000
  0
LINE
  5
F106D6
330
F106D7
100
AcDbEntity
8
Geo
100
AcDbLine
10
-21.9094535993062
20
13.7630474304147
30
0.000000000000000
11
-21.8094535993062
21
13.7482389225317
31
0.000000000000000
  0
LINE
  5
F106D8
330
F106D9
100
AcDbEntity
8
Geo
100
AcDbLine
10
-21.8094535993062
20
13.7482389225317
30
0.000000000000000
11
-21.7094535993062
21
13.7320371396772
31
0.000000000000000
  0
LINE
  5
F106DA
330
F106DB
100
AcDbEntity
8
Geo
100
AcDbLine
10
-21.7094535993062
20
13.7320371396772
30
0.000000000000000
11
-21.6094535993062
21
13.7144453882814
31
0.000000000000000
  0
LINE
  5
F106DC
330
F106DD
100
AcDbEntity
8
Geo
100
AcDbLine
10
-21.6094535993062
20
13.7144453882814
30
0.000000000000000
11
-21.5094535993062
21
13.6954672584366
31
0.000000000000000
  0
LINE
  5
F106DE
330
F106DF
100
AcDbEntity
8
Geo
100
AcDbLine
10
-21.5094535993062
20
13.6954672584366
30
0.000000000000000
11
-21.4094535993062
21
13.6751066231647
31
0.000000000000000
  0
LINE
  5
F106E0
330
F106E1
100
AcDbEntity
8
Geo
100
AcDbLine
10
-21.4094535993062
20
13.6751066231647
30
0.000000000000000
11
-21.3094535993062
21
13.6533676376265
31
0.000000000000000
  0
LINE
  5
F106E2
330
F106E3
100
AcDbEntity
8
Geo
100
AcDbLine
10
-21.3094535993062
20
13.6533676376265
30
0.000000000000000
11
-21.2094535993062
21
13.6302547382745
31
0.000000000000000
  0
LINE
  5
F106E4
330
F106E5
100
AcDbEntity
8
Geo
100
AcDbLine
10
-21.2094535993062
20
13.6302547382745
30
0.000000000000000
11
-21.1094535993062
21
13.6057726419465
31
0.000000000000000
  0
LINE
  5
F106E6
330
F106E7
100
AcDbEntity
8
Geo
100
AcDbLine
10
-21.1094535993062
20
13.6057726419465
30
0.000000000000000
11
-21.0094535993062
21
13.5799263449038
31
0.000000000000000
  0
LINE
  5
F106E8
330
F106E9
100
AcDbEntity
8
Geo
100
AcDbLine
10
-21.0094535993062
20
13.5799263449038
30
0.000000000000000
11
-20.9094535993062
21
13.5527211218112
31
0.000000000000000
  0
LINE
  5
F106EA
330
F106EB
100
AcDbEntity
8
Geo
100
AcDbLine
10
-20.9094535993062
20
13.5527211218112
30
0.000000000000000
11
-20.8094535993062
21
13.5241625246606
31
0.000000000000000
  0
LINE
  5
F106EC
330
F106ED
100
AcDbEntity
8
Geo
100
AcDbLine
10
-20.8094535993062
20
13.5241625246606
30
0.000000000000000
11
-20.7094535993062
21
13.4942563816380
31
0.000000000000000
  0
LINE
  5
F106EE
330
F106EF
100
AcDbEntity
8
Geo
100
AcDbLine
10
-20.7094535993062
20
13.4942563816380
30
0.000000000000000
11
-20.6094535993062
21
13.4630087959341
31
0.000000000000000
  0
LINE
  5
F106F0
330
F106F1
100
AcDbEntity
8
Geo
100
AcDbLine
10
-20.6094535993062
20
13.4630087959341
30
0.000000000000000
11
-20.5094535993062
21
13.4304261444989
31
0.000000000000000
  0
LINE
  5
F106F2
330
F106F3
100
AcDbEntity
8
Geo
100
AcDbLine
10
-20.5094535993062
20
13.4304261444989
30
0.000000000000000
11
-20.4094535993062
21
13.3965150767398
31
0.000000000000000
  0
LINE
  5
F106F4
330
F106F5
100
AcDbEntity
8
Geo
100
AcDbLine
10
-20.4094535993062
20
13.3965150767398
30
0.000000000000000
11
-20.3094535993062
21
13.3612825131652
31
0.000000000000000
  0
LINE
  5
F106F6
330
F106F7
100
AcDbEntity
8
Geo
100
AcDbLine
10
-20.3094535993062
20
13.3612825131652
30
0.000000000000000
11
-20.2094535993062
21
13.3247356439721
31
0.000000000000000
  0
LINE
  5
F106F8
330
F106F9
100
AcDbEntity
8
Geo
100
AcDbLine
10
-33.2094535993062
20
13.7995217309671
30
0.000000000000000
11
-33.1094535993062
21
13.7889721180658
31
0.000000000000000
  0
LINE
  5
F106FA
330
F106FB
100
AcDbEntity
8
Geo
100
AcDbLine
10
-33.1094535993062
20
13.7889721180658
30
0.000000000000000
11
-33.0094535993062
21
13.7770209174375
31
0.000000000000000
  0
LINE
  5
F106FC
330
F106FD
100
AcDbEntity
8
Geo
100
AcDbLine
10
-33.0094535993062
20
13.7770209174375
30
0.000000000000000
11
-32.9094535993062
21
13.7636705680612
31
0.000000000000000
  0
LINE
  5
F106FE
330
F106FF
100
AcDbEntity
8
Geo
100
AcDbLine
10
-32.9094535993062
20
13.7636705680612
30
0.000000000000000
11
-32.8094535993062
21
13.7489237944517
31
0.000000000000000
  0
LINE
  5
F10700
330
F10701
100
AcDbEntity
8
Geo
100
AcDbLine
10
-32.8094535993062
20
13.7489237944517
30
0.000000000000000
11
-32.7094535993062
21
13.7327836061034
31
0.000000000000000
  0
LINE
  5
F10702
330
F10703
100
AcDbEntity
8
Geo
100
AcDbLine
10
-32.7094535993062
20
13.7327836061034
30
0.000000000000000
11
-32.6094535993062
21
13.7152532968762
31
0.000000000000000
  0
LINE
  5
F10704
330
F10705
100
AcDbEntity
8
Geo
100
AcDbLine
10
-32.6094535993062
20
13.7152532968762
30
0.000000000000000
11
-32.5094535993062
21
13.6963364443236
31
0.000000000000000
  0
LINE
  5
F10706
330
F10707
100
AcDbEntity
8
Geo
100
AcDbLine
10
-32.5094535993062
20
13.6963364443236
30
0.000000000000000
11
-32.4094535993062
21
13.6760369089619
31
0.000000000000000
  0
LINE
  5
F10708
330
F10709
100
AcDbEntity
8
Geo
100
AcDbLine
10
-32.4094535993062
20
13.6760369089619
30
0.000000000000000
11
-32.3094535993062
21
13.6543588334830
31
0.000000000000000
  0
LINE
  5
F1070A
330
F1070B
100
AcDbEntity
8
Geo
100
AcDbLine
10
-32.3094535993062
20
13.6543588334830
30
0.000000000000000
11
-32.2094535993062
21
13.6313066419088
31
0.000000000000000
  0
LINE
  5
F1070C
330
F1070D
100
AcDbEntity
8
Geo
100
AcDbLine
10
-32.2094535993062
20
13.6313066419088
30
0.000000000000000
11
-32.1094535993062
21
13.6068850386881
31
0.000000000000000
  0
LINE
  5
F1070E
330
F1070F
100
AcDbEntity
8
Geo
100
AcDbLine
10
-32.1094535993062
20
13.6068850386881
30
0.000000000000000
11
-32.0094535993062
21
13.5810990077368
31
0.000000000000000
  0
LINE
  5
F10710
330
F10711
100
AcDbEntity
8
Geo
100
AcDbLine
10
-32.0094535993062
20
13.5810990077368
30
0.000000000000000
11
-31.9094535993062
21
13.5539538114207
31
0.000000000000000
  0
LINE
  5
F10712
330
F10713
100
AcDbEntity
8
Geo
100
AcDbLine
10
-31.9094535993062
20
13.5539538114207
30
0.000000000000000
11
-31.8094535993062
21
13.5254549894816
31
0.000000000000000
  0
LINE
  5
F10714
330
F10715
100
AcDbEntity
8
Geo
100
AcDbLine
10
-31.8094535993062
20
13.5254549894816
30
0.000000000000000
11
-31.7094535993062
21
13.4956083579067
31
0.000000000000000
  0
LINE
  5
F10716
330
F10717
100
AcDbEntity
8
Geo
100
AcDbLine
10
-31.7094535993062
20
13.4956083579067
30
0.000000000000000
11
-31.6094535993062
21
13.4644200077416
31
0.000000000000000
  0
LINE
  5
F10718
330
F10719
100
AcDbEntity
8
Geo
100
AcDbLine
10
-31.6094535993062
20
13.4644200077416
30
0.000000000000000
11
-31.5094535993062
21
13.4318963038477
31
0.000000000000000
  0
LINE
  5
F1071A
330
F1071B
100
AcDbEntity
8
Geo
100
AcDbLine
10
-31.5094535993062
20
13.4318963038477
30
0.000000000000000
11
-31.4094535993062
21
13.3980438836025
31
0.000000000000000
  0
LINE
  5
F1071C
330
F1071D
100
AcDbEntity
8
Geo
100
AcDbLine
10
-31.4094535993062
20
13.3980438836025
30
0.000000000000000
11
-31.3094535993062
21
13.3628696555457
31
0.000000000000000
  0
LINE
  5
F1071E
330
F1071F
100
AcDbEntity
8
Geo
100
AcDbLine
10
-31.3094535993062
20
13.3628696555457
30
0.000000000000000
11
-31.2094535993062
21
13.3263807979693
31
0.000000000000000
  0
LINE
  5
F10720
330
F10721
100
AcDbEntity
8
Geo
100
AcDbLine
10
-31.2094535993062
20
13.3263807979693
30
0.000000000000000
11
-31.1094535993062
21
13.2885847574521
31
0.000000000000000
  0
LINE
  5
F10722
330
F10723
100
AcDbEntity
8
Geo
100
AcDbLine
10
-31.1094535993062
20
13.2885847574521
30
0.000000000000000
11
-31.0094535993062
21
13.2494892473406
31
0.000000000000000
  0
LINE
  5
F10724
330
F10725
100
AcDbEntity
8
Geo
100
AcDbLine
10
-31.0094535993062
20
13.2494892473406
30
0.000000000000000
11
-30.9094535993062
21
13.2091022461747
31
0.000000000000000
  0
LINE
  5
F10726
330
F10727
100
AcDbEntity
8
Geo
100
AcDbLine
10
-30.9094535993062
20
13.2091022461747
30
0.000000000000000
11
-30.8094535993062
21
13.1674319960594
31
0.000000000000000
  0
LINE
  5
F10728
330
F10729
100
AcDbEntity
8
Geo
100
AcDbLine
10
-30.8094535993062
20
13.1674319960594
30
0.000000000000000
11
-30.7094535993062
21
13.1244870009827
31
0.000000000000000
  0
LINE
  5
F1072A
330
F1072B
100
AcDbEntity
8
Geo
100
AcDbLine
10
-30.7094535993062
20
13.1244870009827
30
0.000000000000000
11
-30.6094535993062
21
13.0802760250802
31
0.000000000000000
  0
LINE
  5
F1072C
330
F1072D
100
AcDbEntity
8
Geo
100
AcDbLine
10
-30.6094535993062
20
13.0802760250802
30
0.000000000000000
11
-30.5094535993062
21
13.0348080908467
31
0.000000000000000
  0
LINE
  5
F1072E
330
F1072F
100
AcDbEntity
8
Geo
100
AcDbLine
10
-30.5094535993062
20
13.0348080908467
30
0.000000000000000
11
-30.4094535993062
21
12.9880924772945
31
0.000000000000000
  0
LINE
  5
F10730
330
F10731
100
AcDbEntity
8
Geo
100
AcDbLine
10
-30.4094535993062
20
12.9880924772945
30
0.000000000000000
11
-30.3094535993062
21
12.9401387180603
31
0.000000000000000
  0
LINE
  5
F10732
330
F10733
100
AcDbEntity
8
Geo
100
AcDbLine
10
-30.3094535993062
20
12.9401387180603
30
0.000000000000000
11
-30.2094535993062
21
12.8909565994591
31
0.000000000000000
  0
LINE
  5
F10734
330
F10735
100
AcDbEntity
8
Geo
100
AcDbLine
10
-30.2094535993062
20
12.8909565994591
30
0.000000000000000
11
-30.1094535993062
21
12.8405561584872
31
0.000000000000000
  0
LINE
  5
F10736
330
F10737
100
AcDbEntity
8
Geo
100
AcDbLine
10
-30.1094535993062
20
12.8405561584872
30
0.000000000000000
11
-30.0094535993062
21
12.7889476807740
31
0.000000000000000
  0
LINE
  5
F10738
330
F10739
100
AcDbEntity
8
Geo
100
AcDbLine
10
-30.0094535993062
20
12.7889476807740
30
0.000000000000000
11
-29.9094535993062
21
12.7361416984828
31
0.000000000000000
  0
LINE
  5
F1073A
330
F1073B
100
AcDbEntity
8
Geo
100
AcDbLine
10
-29.9094535993062
20
12.7361416984828
30
0.000000000000000
11
-29.8094535993062
21
12.6821489881613
31
0.000000000000000
  0
LINE
  5
F1073C
330
F1073D
100
AcDbEntity
8
Geo
100
AcDbLine
10
-29.8094535993062
20
12.6821489881613
30
0.000000000000000
11
-29.7094535993062
21
12.6269805685427
31
0.000000000000000
  0
LINE
  5
F1073E
330
F1073F
100
AcDbEntity
8
Geo
100
AcDbLine
10
-29.7094535993062
20
12.6269805685427
30
0.000000000000000
11
-29.6094535993062
21
12.5706476982966
31
0.000000000000000
  0
LINE
  5
F10740
330
F10741
100
AcDbEntity
8
Geo
100
AcDbLine
10
-29.6094535993062
20
12.5706476982966
30
0.000000000000000
11
-29.5094535993062
21
12.5131618737316
31
0.000000000000000
  0
LINE
  5
F10742
330
F10743
100
AcDbEntity
8
Geo
100
AcDbLine
10
-29.5094535993062
20
12.5131618737316
30
0.000000000000000
11
-29.4094535993062
21
12.4545348264492
31
0.000000000000000
  0
LINE
  5
F10744
330
F10745
100
AcDbEntity
8
Geo
100
AcDbLine
10
-29.4094535993062
20
12.4545348264492
30
0.000000000000000
11
-29.3094535993062
21
12.3947785209494
31
0.000000000000000
  0
LINE
  5
F10746
330
F10747
100
AcDbEntity
8
Geo
100
AcDbLine
10
-29.3094535993062
20
12.3947785209494
30
0.000000000000000
11
-29.2094535993062
21
12.3339051521891
31
0.000000000000000
  0
LINE
  5
F10748
330
F10749
100
AcDbEntity
8
Geo
100
AcDbLine
10
-29.2094535993062
20
12.3339051521891
30
0.000000000000000
11
-29.1094535993062
21
12.2719271430937
31
0.000000000000000
  0
LINE
  5
F1074A
330
F1074B
100
AcDbEntity
8
Geo
100
AcDbLine
10
-29.1094535993062
20
12.2719271430937
30
0.000000000000000
11
-29.0094535993062
21
12.2088571420212
31
0.000000000000000
  0
LINE
  5
F1074C
330
F1074D
100
AcDbEntity
8
Geo
100
AcDbLine
10
-29.0094535993062
20
12.2088571420212
30
0.000000000000000
11
-28.9094535993062
21
12.1447080201815
31
0.000000000000000
  0
LINE
  5
F1074E
330
F1074F
100
AcDbEntity
8
Geo
100
AcDbLine
10
-28.9094535993062
20
12.1447080201815
30
0.000000000000000
11
-28.8094535993062
21
12.0794928690096
31
0.000000000000000
  0
LINE
  5
F10750
330
F10751
100
AcDbEntity
8
Geo
100
AcDbLine
10
-28.8094535993062
20
12.0794928690096
30
0.000000000000000
11
-28.7094535993062
21
12.0132249974936
31
0.000000000000000
  0
LINE
  5
F10752
330
F10753
100
AcDbEntity
8
Geo
100
AcDbLine
10
-28.7094535993062
20
12.0132249974936
30
0.000000000000000
11
-28.6094535993062
21
11.9459179294588
31
0.000000000000000
  0
LINE
  5
F10754
330
F10755
100
AcDbEntity
8
Geo
100
AcDbLine
10
-28.6094535993062
20
11.9459179294588
30
0.000000000000000
11
-28.5094535993062
21
11.8775854008082
31
0.000000000000000
  0
LINE
  5
F10756
330
F10757
100
AcDbEntity
8
Geo
100
AcDbLine
10
-28.5094535993062
20
11.8775854008082
30
0.000000000000000
11
-28.4094535993062
21
11.8082413567184
31
0.000000000000000
  0
LINE
  5
F10758
330
F10759
100
AcDbEntity
8
Geo
100
AcDbLine
10
-28.4094535993062
20
11.8082413567184
30
0.000000000000000
11
-28.3094535993062
21
11.7378999487945
31
0.000000000000000
  0
LINE
  5
F1075A
330
F1075B
100
AcDbEntity
8
Geo
100
AcDbLine
10
-28.3094535993062
20
11.7378999487945
30
0.000000000000000
11
-28.2094535993062
21
11.6665755321818
31
0.000000000000000
  0
LINE
  5
F1075C
330
F1075D
100
AcDbEntity
8
Geo
100
AcDbLine
10
-28.2094535993062
20
11.6665755321818
30
0.000000000000000
11
-28.1094535993062
21
11.5942826626362
31
0.000000000000000
  0
LINE
  5
F1075E
330
F1075F
100
AcDbEntity
8
Geo
100
AcDbLine
10
-28.1094535993062
20
11.5942826626362
30
0.000000000000000
11
-28.0094535993062
21
11.5210360935535
31
0.000000000000000
  0
LINE
  5
F10760
330
F10761
100
AcDbEntity
8
Geo
100
AcDbLine
10
-28.0094535993062
20
11.5210360935535
30
0.000000000000000
11
-27.9094535993062
21
11.4468507729589
31
0.000000000000000
  0
LINE
  5
F10762
330
F10763
100
AcDbEntity
8
Geo
100
AcDbLine
10
-27.9094535993062
20
11.4468507729589
30
0.000000000000000
11
-27.8094535993062
21
11.3717418404563
31
0.000000000000000
  0
LINE
  5
F10764
330
F10765
100
AcDbEntity
8
Geo
100
AcDbLine
10
-27.8094535993062
20
11.3717418404563
30
0.000000000000000
11
-27.7094535993062
21
11.2957246241387
31
0.000000000000000
  0
LINE
  5
F10766
330
F10767
100
AcDbEntity
8
Geo
100
AcDbLine
10
-27.7094535993062
20
11.2957246241387
30
0.000000000000000
11
-27.6094535993062
21
11.2188146374597
31
0.000000000000000
  0
LINE
  5
F10768
330
F10769
100
AcDbEntity
8
Geo
100
AcDbLine
10
-27.6094535993062
20
11.2188146374597
30
0.000000000000000
11
-27.5094535993062
21
11.1410275760681
31
0.000000000000000
  0
LINE
  5
F1076A
330
F1076B
100
AcDbEntity
8
Geo
100
AcDbLine
10
-27.5094535993062
20
11.1410275760681
30
0.000000000000000
11
-27.4094535993062
21
11.0623793146043
31
0.000000000000000
  0
LINE
  5
F1076C
330
F1076D
100
AcDbEntity
8
Geo
100
AcDbLine
10
-27.4094535993062
20
11.0623793146043
30
0.000000000000000
11
-27.3094535993062
21
10.9828859034611
31
0.000000000000000
  0
LINE
  5
F1076E
330
F1076F
100
AcDbEntity
8
Geo
100
AcDbLine
10
-27.3094535993062
20
10.9828859034611
30
0.000000000000000
11
-27.2094535993062
21
10.9025635655077
31
0.000000000000000
  0
LINE
  5
F10770
330
F10771
100
AcDbEntity
8
Geo
100
AcDbLine
10
-27.2094535993062
20
10.9025635655077
30
0.000000000000000
11
-27.1094535993062
21
10.8214286927791
31
0.000000000000000
  0
LINE
  5
F10772
330
F10773
100
AcDbEntity
8
Geo
100
AcDbLine
10
-27.1094535993062
20
10.8214286927791
30
0.000000000000000
11
-27.0094535993062
21
10.7394978431310
31
0.000000000000000
  0
LINE
  5
F10774
330
F10775
100
AcDbEntity
8
Geo
100
AcDbLine
10
-27.0094535993062
20
10.7394978431310
30
0.000000000000000
11
-26.9094535993062
21
10.6567877368607
31
0.000000000000000
  0
LINE
  5
F10776
330
F10777
100
AcDbEntity
8
Geo
100
AcDbLine
10
-26.9094535993062
20
10.6567877368607
30
0.000000000000000
11
-26.8094535993062
21
10.5733152532946
31
0.000000000000000
  0
LINE
  5
F10778
330
F10779
100
AcDbEntity
8
Geo
100
AcDbLine
10
-26.8094535993062
20
10.5733152532946
30
0.000000000000000
11
-26.7094535993062
21
10.4890974273437
31
0.000000000000000
  0
LINE
  5
F1077A
330
F1077B
100
AcDbEntity
8
Geo
100
AcDbLine
10
-26.7094535993062
20
10.4890974273437
30
0.000000000000000
11
-26.6094535993062
21
10.4041514460271
31
0.000000000000000
  0
LINE
  5
F1077C
330
F1077D
100
AcDbEntity
8
Geo
100
AcDbLine
10
-26.6094535993062
20
10.4041514460271
30
0.000000000000000
11
-26.5094535993062
21
10.3184946449646
31
0.000000000000000
  0
LINE
  5
F1077E
330
F1077F
100
AcDbEntity
8
Geo
100
AcDbLine
10
-26.5094535993062
20
10.3184946449646
30
0.000000000000000
11
-26.4094535993062
21
10.2321445048387
31
0.000000000000000
  0
LINE
  5
F10780
330
F10781
100
AcDbEntity
8
Geo
100
AcDbLine
10
-26.4094535993062
20
10.2321445048387
30
0.000000000000000
11
-26.3094535993062
21
10.1451186478272
31
0.000000000000000
  0
LINE
  5
F10782
330
F10783
100
AcDbEntity
8
Geo
100
AcDbLine
10
-26.3094535993062
20
10.1451186478272
30
0.000000000000000
11
-26.2094535993062
21
10.0574348340071
31
0.000000000000000
  0
LINE
  5
F10784
330
F10785
100
AcDbEntity
8
Geo
100
AcDbLine
10
-26.2094535993062
20
10.0574348340071
30
0.000000000000000
11
-26.1094535993062
21
9.96911095772991
31
0.000000000000000
  0
LINE
  5
F10786
330
F10787
100
AcDbEntity
8
Geo
100
AcDbLine
10
-26.1094535993062
20
9.96911095772991
30
0.000000000000000
11
-26.0094535993062
21
9.88016504397001
31
0.000000000000000
  0
LINE
  5
F10788
330
F10789
100
AcDbEntity
8
Geo
100
AcDbLine
10
-26.0094535993062
20
9.88016504397001
30
0.000000000000000
11
-25.9094535993062
21
9.79061524464597
31
0.000000000000000
  0
LINE
  5
F1078A
330
F1078B
100
AcDbEntity
8
Geo
100
AcDbLine
10
-25.9094535993062
20
9.79061524464597
30
0.000000000000000
11
-25.8094535993062
21
9.70047983491621
31
0.000000000000000
  0
LINE
  5
F1078C
330
F1078D
100
AcDbEntity
8
Geo
100
AcDbLine
10
-25.8094535993062
20
9.70047983491621
30
0.000000000000000
11
-25.7094535993062
21
9.60977720944950
31
0.000000000000000
  0
LINE
  5
F1078E
330
F1078F
100
AcDbEntity
8
Geo
100
AcDbLine
10
-25.7094535993062
20
9.60977720944950
30
0.000000000000000
11
-25.6094535993062
21
9.51852587867091
31
0.000000000000000
  0
LINE
  5
F10790
330
F10791
100
AcDbEntity
8
Geo
100
AcDbLine
10
-25.6094535993062
20
9.51852587867091
30
0.000000000000000
11
-25.5094535993062
21
9.42674446498429
31
0.000000000000000
  0
LINE
  5
F10792
330
F10793
100
AcDbEntity
8
Geo
100
AcDbLine
10
-25.5094535993062
20
9.42674446498429
30
0.000000000000000
11
-25.4094535993062
21
9.33445169897185
31
0.000000000000000
  0
LINE
  5
F10794
330
F10795
100
AcDbEntity
8
Geo
100
AcDbLine
10
-25.4094535993062
20
9.33445169897185
30
0.000000000000000
11
-25.3094535993062
21
9.24166641557164
31
0.000000000000000
  0
LINE
  5
F10796
330
F10797
100
AcDbEntity
8
Geo
100
AcDbLine
10
-25.3094535993062
20
9.24166641557164
30
0.000000000000000
11
-25.2094535993062
21
9.14840755023374
31
0.000000000000000
  0
LINE
  5
F10798
330
F10799
100
AcDbEntity
8
Geo
100
AcDbLine
10
-25.2094535993062
20
9.14840755023374
30
0.000000000000000
11
-25.1094535993062
21
9.05469413505596
31
0.000000000000000
  0
LINE
  5
F1079A
330
F1079B
100
AcDbEntity
8
Geo
100
AcDbLine
10
-25.1094535993062
20
9.05469413505596
30
0.000000000000000
11
-25.0094535993062
21
8.96054529489984
31
0.000000000000000
  0
LINE
  5
F1079C
330
F1079D
100
AcDbEntity
8
Geo
100
AcDbLine
10
-25.0094535993062
20
8.96054529489984
30
0.000000000000000
11
-24.9094535993062
21
8.86598024348760
31
0.000000000000000
  0
LINE
  5
F1079E
330
F1079F
100
AcDbEntity
8
Geo
100
AcDbLine
10
-24.9094535993062
20
8.86598024348760
30
0.000000000000000
11
-24.8094535993062
21
8.77101827948113
31
0.000000000000000
  0
LINE
  5
F107A0
330
F107A1
100
AcDbEntity
8
Geo
100
AcDbLine
10
-24.8094535993062
20
8.77101827948113
30
0.000000000000000
11
-24.7094535993062
21
8.67567878254348
31
0.000000000000000
  0
LINE
  5
F107A2
330
F107A3
100
AcDbEntity
8
Geo
100
AcDbLine
10
-24.7094535993062
20
8.67567878254348
30
0.000000000000000
11
-24.6094535993062
21
8.57998120938395
31
0.000000000000000
  0
LINE
  5
F107A4
330
F107A5
100
AcDbEntity
8
Geo
100
AcDbLine
10
-24.6094535993062
20
8.57998120938395
30
0.000000000000000
11
-24.5094535993062
21
8.48394508978737
31
0.000000000000000
  0
LINE
  5
F107A6
330
F107A7
100
AcDbEntity
8
Geo
100
AcDbLine
10
-24.5094535993062
20
8.48394508978737
30
0.000000000000000
11
-24.4094535993062
21
8.38759002262850
31
0.000000000000000
  0
LINE
  5
F107A8
330
F107A9
100
AcDbEntity
8
Geo
100
AcDbLine
10
-24.4094535993062
20
8.38759002262850
30
0.000000000000000
11
-24.3094535993062
21
8.29093567187233
31
0.000000000000000
  0
LINE
  5
F107AA
330
F107AB
100
AcDbEntity
8
Geo
100
AcDbLine
10
-24.3094535993062
20
8.29093567187233
30
0.000000000000000
11
-24.2094535993062
21
8.19400176256112
31
0.000000000000000
  0
LINE
  5
F107AC
330
F107AD
100
AcDbEntity
8
Geo
100
AcDbLine
10
-24.2094535993062
20
8.19400176256112
30
0.000000000000000
11
-24.1094535993062
21
8.09680807678889
31
0.000000000000000
  0
LINE
  5
F107AE
330
F107AF
100
AcDbEntity
8
Geo
100
AcDbLine
10
-24.1094535993062
20
8.09680807678889
30
0.000000000000000
11
-24.0094535993062
21
7.99937444966438
31
0.000000000000000
  0
LINE
  5
F107B0
330
F107B1
100
AcDbEntity
8
Geo
100
AcDbLine
10
-24.0094535993062
20
7.99937444966438
30
0.000000000000000
11
-23.9094535993062
21
7.90172076526313
31
0.000000000000000
  0
LINE
  5
F107B2
330
F107B3
100
AcDbEntity
8
Geo
100
AcDbLine
10
-23.9094535993062
20
7.90172076526313
30
0.000000000000000
11
-23.8094535993062
21
7.80386695256956
31
0.000000000000000
  0
LINE
  5
F107B4
330
F107B5
100
AcDbEntity
8
Geo
100
AcDbLine
10
-23.8094535993062
20
7.80386695256956
30
0.000000000000000
11
-23.7094535993062
21
7.70583298140989
31
0.000000000000000
  0
LINE
  5
F107B6
330
F107B7
100
AcDbEntity
8
Geo
100
AcDbLine
10
-23.7094535993062
20
7.70583298140989
30
0.000000000000000
11
-23.6094535993062
21
7.60763885837676
31
0.000000000000000
  0
LINE
  5
F107B8
330
F107B9
100
AcDbEntity
8
Geo
100
AcDbLine
10
-23.6094535993062
20
7.60763885837676
30
0.000000000000000
11
-23.5094535993062
21
7.50930462274631
31
0.000000000000000
  0
LINE
  5
F107BA
330
F107BB
100
AcDbEntity
8
Geo
100
AcDbLine
10
-23.5094535993062
20
7.50930462274631
30
0.000000000000000
11
-23.4094535993062
21
7.41085034238860
31
0.000000000000000
  0
LINE
  5
F107BC
330
F107BD
100
AcDbEntity
8
Geo
100
AcDbLine
10
-23.4094535993062
20
7.41085034238860
30
0.000000000000000
11
-23.3094535993062
21
7.31229610967219
31
0.000000000000000
  0
LINE
  5
F107BE
330
F107BF
100
AcDbEntity
8
Geo
100
AcDbLine
10
-23.3094535993062
20
7.31229610967219
30
0.000000000000000
11
-23.2094535993062
21
7.21366203736375
31
0.000000000000000
  0
LINE
  5
F107C0
330
F107C1
100
AcDbEntity
8
Geo
100
AcDbLine
10
-23.2094535993062
20
7.21366203736375
30
0.000000000000000
11
-23.1094535993062
21
7.11496825452345
31
0.000000000000000
  0
LINE
  5
F107C2
330
F107C3
100
AcDbEntity
8
Geo
100
AcDbLine
10
-23.1094535993062
20
7.11496825452345
30
0.000000000000000
11
-23.0094535993062
21
7.01623490239708
31
0.000000000000000
  0
LINE
  5
F107C4
330
F107C5
100
AcDbEntity
8
Geo
100
AcDbLine
10
-23.0094535993062
20
7.01623490239708
30
0.000000000000000
11
-22.9094535993062
21
6.91748213030567
31
0.000000000000000
  0
LINE
  5
F107C6
330
F107C7
100
AcDbEntity
8
Geo
100
AcDbLine
10
-22.9094535993062
20
6.91748213030567
30
0.000000000000000
11
-22.8094535993062
21
6.81873009153343
31
0.000000000000000
  0
LINE
  5
F107C8
330
F107C9
100
AcDbEntity
8
Geo
100
AcDbLine
10
-22.8094535993062
20
6.81873009153343
30
0.000000000000000
11
-22.7094535993062
21
6.71999893921491
31
0.000000000000000
  0
LINE
  5
F107CA
330
F107CB
100
AcDbEntity
8
Geo
100
AcDbLine
10
-22.7094535993062
20
6.71999893921491
30
0.000000000000000
11
-22.6094535993062
21
6.62130882222220
31
0.000000000000000
  0
LINE
  5
F107CC
330
F107CD
100
AcDbEntity
8
Geo
100
AcDbLine
10
-22.6094535993062
20
6.62130882222220
30
0.000000000000000
11
-22.5094535993062
21
6.52267988105298
31
0.000000000000000
  0
LINE
  5
F107CE
330
F107CF
100
AcDbEntity
8
Geo
100
AcDbLine
10
-22.5094535993062
20
6.52267988105298
30
0.000000000000000
11
-22.4094535993062
21
6.42413224372027
31
0.000000000000000
  0
LINE
  5
F107D0
330
F107D1
100
AcDbEntity
8
Geo
100
AcDbLine
10
-22.4094535993062
20
6.42413224372027
30
0.000000000000000
11
-22.3094535993062
21
6.32568602164475
31
0.000000000000000
  0
LINE
  5
F107D2
330
F107D3
100
AcDbEntity
8
Geo
100
AcDbLine
10
-22.3094535993062
20
6.32568602164475
30
0.000000000000000
11
-22.2094535993062
21
6.22736130555047
31
0.000000000000000
  0
LINE
  5
F107D4
330
F107D5
100
AcDbEntity
8
Geo
100
AcDbLine
10
-22.2094535993062
20
6.22736130555047
30
0.000000000000000
11
-22.1094535993062
21
6.12917816136476
31
0.000000000000000
  0
LINE
  5
F107D6
330
F107D7
100
AcDbEntity
8
Geo
100
AcDbLine
10
-22.1094535993062
20
6.12917816136476
30
0.000000000000000
11
-22.0094535993062
21
6.03115662612323
31
0.000000000000000
  0
LINE
  5
F107D8
330
F107D9
100
AcDbEntity
8
Geo
100
AcDbLine
10
-22.0094535993062
20
6.03115662612323
30
0.000000000000000
11
-21.9094535993062
21
5.93331670388060
31
0.000000000000000
  0
LINE
  5
F107DA
330
F107DB
100
AcDbEntity
8
Geo
100
AcDbLine
10
-21.9094535993062
20
5.93331670388060
30
0.000000000000000
11
-21.8094535993062
21
5.83567836162836
31
0.000000000000000
  0
LINE
  5
F107DC
330
F107DD
100
AcDbEntity
8
Geo
100
AcDbLine
10
-21.8094535993062
20
5.83567836162836
30
0.000000000000000
11
-21.7094535993062
21
5.73826152521994
31
0.000000000000000
  0
LINE
  5
F107DE
330
F107DF
100
AcDbEntity
8
Geo
100
AcDbLine
10
-21.7094535993062
20
5.73826152521994
30
0.000000000000000
11
-21.6094535993062
21
5.64108607530425
31
0.000000000000000
  0
LINE
  5
F107E0
330
F107E1
100
AcDbEntity
8
Geo
100
AcDbLine
10
-21.6094535993062
20
5.64108607530425
30
0.000000000000000
11
-21.5094535993062
21
5.54417184326849
31
0.000000000000000
  0
LINE
  5
F107E2
330
F107E3
100
AcDbEntity
8
Geo
100
AcDbLine
10
-21.5094535993062
20
5.54417184326849
30
0.000000000000000
11
-21.4094535993062
21
5.44753860719100
31
0.000000000000000
  0
LINE
  5
F107E4
330
F107E5
100
AcDbEntity
8
Geo
100
AcDbLine
10
-21.4094535993062
20
5.44753860719100
30
0.000000000000000
11
-21.3094535993062
21
5.35120608780496
31
0.000000000000000
  0
LINE
  5
F107E6
330
F107E7
100
AcDbEntity
8
Geo
100
AcDbLine
10
-21.3094535993062
20
5.35120608780496
30
0.000000000000000
11
-21.2094535993062
21
5.25519394447388
31
0.000000000000000
  0
LINE
  5
F107E8
330
F107E9
100
AcDbEntity
8
Geo
100
AcDbLine
10
-21.2094535993062
20
5.25519394447388
30
0.000000000000000
11
-21.1094535993062
21
5.15952177117947
31
0.000000000000000
  0
LINE
  5
F107EA
330
F107EB
100
AcDbEntity
8
Geo
100
AcDbLine
10
-21.1094535993062
20
5.15952177117947
30
0.000000000000000
11
-21.0094535993062
21
5.06420909252302
31
0.000000000000000
  0
LINE
  5
F107EC
330
F107ED
100
AcDbEntity
8
Geo
100
AcDbLine
10
-21.0094535993062
20
5.06420909252302
30
0.000000000000000
11
-20.9094535993062
21
4.96927535974078
31
0.000000000000000
  0
LINE
  5
F107EE
330
F107EF
100
AcDbEntity
8
Geo
100
AcDbLine
10
-20.9094535993062
20
4.96927535974078
30
0.000000000000000
11
-20.8094535993062
21
4.87473994673445
31
0.000000000000000
  0
LINE
  5
F107F0
330
F107F1
100
AcDbEntity
8
Geo
100
AcDbLine
10
-20.8094535993062
20
4.87473994673445
30
0.000000000000000
11
-20.7094535993062
21
4.78062214611735
31
0.000000000000000
  0
LINE
  5
F107F2
330
F107F3
100
AcDbEntity
8
Geo
100
AcDbLine
10
-20.7094535993062
20
4.78062214611735
30
0.000000000000000
11
-20.6094535993062
21
4.68694116527723
31
0.000000000000000
  0
LINE
  5
F107F4
330
F107F5
100
AcDbEntity
8
Geo
100
AcDbLine
10
-20.6094535993062
20
4.68694116527723
30
0.000000000000000
11
-20.5094535993062
21
4.59371612245645
31
0.000000000000000
  0
LINE
  5
F107F6
330
F107F7
100
AcDbEntity
8
Geo
100
AcDbLine
10
-20.5094535993062
20
4.59371612245645
30
0.000000000000000
11
-20.4094535993062
21
4.50096604285042
31
0.000000000000000
  0
LINE
  5
F107F8
330
F107F9
100
AcDbEntity
8
Geo
100
AcDbLine
10
-20.4094535993062
20
4.50096604285042
30
0.000000000000000
11
-20.3094535993062
21
4.40870985472488
31
0.000000000000000
  0
LINE
  5
F107FA
330
F107FB
100
AcDbEntity
8
Geo
100
AcDbLine
10
-20.3094535993062
20
4.40870985472488
30
0.000000000000000
11
-20.2094535993062
21
4.31696638555314
31
0.000000000000000
  0
LINE
  5
F107FC
330
F107FD
100
AcDbEntity
8
Geo
100
AcDbLine
10
38.7905464006938
20
12.9210754553339
30
0.000000000000000
11
38.7905464006938
21
6.92107545533391
31
0.000000000000000
  0
LINE
  5
F107FE
330
F107FF
100
AcDbEntity
8
Geo
100
AcDbLine
10
-33.2094535993062
20
6.92107545533391
30
0.000000000000000
11
-33.2094535993062
21
-0.0789245446660942
31
0.000000000000000
  0
LINE
  5
F10800
330
F10801
100
AcDbEntity
8
Geo
100
AcDbLine
10
-33.2094535993062
20
-0.0789245446660942
30
0.000000000000000
11
-15.2094535993062
21
-0.0789245446660942
31
0.000000000000000
  0
LINE
  5
F10802
330
F10803
100
AcDbEntity
8
Geo
100
AcDbLine
10
-15.2094535993062
20
-0.0789245446660942
30
0.000000000000000
11
37.7905464006938
21
-0.0789245446660942
31
0.000000000000000
  0
LINE
  5
F10804
330
F10805
100
AcDbEntity
8
Geo
100
AcDbLine
10
37.7905464006938
20
-0.0789245446660942
30
0.000000000000000
11
38.7905464006938
21
0.921075455333905
31
0.000000000000000
  0
LINE
  5
F10806
330
F10807
100
AcDbEntity
8
Geo
100
AcDbLine
10
-33.2094535993062
20
13.9210754553339
30
0.000000000000000
11
-33.2094535993062
21
-0.0789245446660942
31
0.000000000000000
  0
LINE
  5
F10808
330
F10809
100
AcDbEntity
8
Geo
100
AcDbLine
10
-15.2094535993062
20
13.9210754553339
30
0.000000000000000
11
-15.2094535993062
21
-0.0789245446660942
31
0.000000000000000
  0
LINE
  5
F1080A
330
F1080B
100
AcDbEntity
8
Geo
100
AcDbLine
10
-15.2094535993062
20
13.9210754553339
30
0.000000000000000
11
-15.2094535993062
21
-0.0789245446660942
31
0.000000000000000
  0
LINE
  5
F1080C
330
F1080D
100
AcDbEntity
8
Geo
100
AcDbLine
10
37.7905464006938
20
13.9210754553339
30
0.000000000000000
11
37.7905464006938
21
-0.0789245446660942
31
0.000000000000000
  0
LINE
  5
F1080E
330
F1080F
100
AcDbEntity
8
Geo
100
AcDbLine
10
38.7905464006938
20
12.9210754553339
30
0.000000000000000
11
38.7905464006938
21
0.921075455333905
31
0.000000000000000
  0
LINE
  5
F10810
330
F10811
100
AcDbEntity
8
Geo
 6
Dashdot
100
AcDbLine
10
-33.2094535993062
20
6.92107545533391
30
0.000000000000000
11
38.7905464006938
21
6.92107545533391
31
0.000000000000000
  0
LWPOLYLINE
  5
F10812
330
F10813
100
AcDbEntity
8
Rahmen
100
AcDbPolyline
90
   4
70
   1
43
   0.0
 10
-134.596704249783
 20
99.9002601908066
 10
143.339115351258
 20
99.9002601908066
 10
143.339115351258
 20
-100.082393755421
 10
-134.596704249783
 20
-100.082393755421
  0
TEXT
  5
F10814
330
F10815
 100
AcDbEntity
8
Text
100
AcDbText
10
-133.503902862099
20
-99.5823937554206
30
0.000000000000000
40
1.00000000000000
1
ISBESketcher - ©ISBE GmbH      lizensiert für: Schmid Werkzeuge
100
AcDbText
  0
LWPOLYLINE
  5
F10816
330
F10817
100
AcDbEntity
8
Rahmen
100
AcDbPolyline
90
   4
70
   1
43
   0.0
 10
103.451864700781
 20
-97.1682567215958
 10
143.339115351258
 20
-97.1682567215958
 10
143.339115351258
 20
-100.082393755421
 10
103.451864700781
 20
-100.082393755421
  0
TEXT
  5
F10818
330
F10819
 100
AcDbEntity
8
Text
100
AcDbText
10
104.500000000000
20
-99.4570685169124
30
0.000000000000000
40
1.50000000000000
1
Ers. durch:
100
AcDbText
  0
TEXT
  5
F1081A
330
F1081B
 100
AcDbEntity
8
Text
100
AcDbText
10
0.000000000000000
20
0.500000000000000
30
0.000000000000000
40
1.50000000000000
1

100
AcDbText
  0
LWPOLYLINE
  5
F1081C
330
F1081D
100
AcDbEntity
8
Rahmen
100
AcDbPolyline
90
   4
70
   1
43
   0.0
 10
63.3824804856895
 20
-97.1682567215958
 10
103.451864700781
 20
-97.1682567215958
 10
103.451864700781
 20
-100.082393755421
 10
63.3824804856895
 20
-100.082393755421
  0
TEXT
  5
F1081E
330
F1081F
 100
AcDbEntity
8
Text
100
AcDbText
10
64.5000000000000
20
-99.4570685169124
30
0.000000000000000
40
1.50000000000000
1
Ers. für:
100
AcDbText
  0
TEXT
  5
F10820
330
F10821
 100
AcDbEntity
8
Text
100
AcDbText
10
0.000000000000000
20
0.500000000000000
30
0.000000000000000
40
1.50000000000000
1

100
AcDbText
  0
LWPOLYLINE
  5
F10822
330
F10823
100
AcDbEntity
8
Rahmen
100
AcDbPolyline
90
   4
70
   1
43
   0.0
 10
130.043365134432
 20
-94.0719861231570
 10
143.339115351258
 20
-94.0719861231570
 10
143.339115351258
 20
-97.1682567215958
 10
130.043365134432
 20
-97.1682567215958
  0
TEXT
  5
F10824
330
F10825
 100
AcDbEntity
8
Text
100
AcDbText
10
131.166666666667
20
-96.4570685169124
30
0.000000000000000
40
1.50000000000000
1
Blätter
100
AcDbText
  0
TEXT
  5
F10826
330
F10827
 100
AcDbEntity
8
Text
100
AcDbText
10
0.000000000000000
20
0.500000000000000
30
0.000000000000000
40
1.50000000000000
1

100
AcDbText
  0
LWPOLYLINE
  5
F10828
330
F10829
100
AcDbEntity
8
Rahmen
100
AcDbPolyline
90
   4
70
   1
43
   0.0
 10
130.043365134432
 20
-91.1578490893322
 10
143.339115351258
 20
-91.1578490893322
 10
143.339115351258
 20
-94.0719861231570
 10
130.043365134432
 20
-94.0719861231570
  0
TEXT
  5
F1082A
330
F1082B
 100
AcDbEntity
8
Text
100
AcDbText
10
131.166666666667
20
-93.4570685169124
30
0.000000000000000
40
1.50000000000000
1
Blatt
100
AcDbText
  0
TEXT
  5
F1082C
330
F1082D
 100
AcDbEntity
8
Text
100
AcDbText
10
0.000000000000000
20
0.500000000000000
30
0.000000000000000
40
1.50000000000000
1

100
AcDbText
  0
LWPOLYLINE
  5
F1082E
330
F1082F
100
AcDbEntity
8
Rahmen
100
AcDbPolyline
90
   4
70
   1
43
   0.0
 10
63.3824804856895
 20
-91.1578490893322
 10
130.043365134432
 20
-91.1578490893322
 10
130.043365134432
 20
-97.1682567215958
 10
63.3824804856895
 20
-97.1682567215958
  0
TEXT
  5
F10830
330
F10831
 100
AcDbEntity
8
Text
100
AcDbText
10
64.5000000000000
20
-93.4570685169124
30
0.000000000000000
40
1.50000000000000
1
Datum:
100
AcDbText
  0
TEXT
  5
F10832
330
F10833
 100
AcDbEntity
8
Text
100
AcDbText
10
90.9139924833767
20
-96.4570685169124
30
0.000000000000000
40
1.50000000000000
1
29.09.2021
100
AcDbText
  0
LWPOLYLINE
  5
F10834
330
F10835
100
AcDbEntity
8
Rahmen
100
AcDbPolyline
90
   4
70
   1
43
   0.0
 10
63.3824804856895
 20
-85.1474414570685
 10
143.339115351258
 20
-85.1474414570685
 10
143.339115351258
 20
-91.1578490893322
 10
63.3824804856895
 20
-91.1578490893322
  0
TEXT
  5
F10836
330
F10837
 100
AcDbEntity
8
Text
100
AcDbText
10
0.000000000000000
20
0.500000000000000
30
0.000000000000000
40
1.50000000000000
1

100
AcDbText
  0
TEXT
  5
F10838
330
F10839
 100
AcDbEntity
8
Text
100
AcDbText
10
72.9926279271466
20
-89.6254697889564
30
0.000000000000000
40
2.50000000000000
1
VHM-Schlichtfräser 0160-140-b
100
AcDbText
  0
LWPOLYLINE
  5
F1083A
330
F1083B
100
AcDbEntity
8
Rahmen
100
AcDbPolyline
90
   4
70
   1
43
   0.0
 10
103.451864700781
 20
-79.1370338248049
 10
143.339115351258
 20
-79.1370338248049
 10
143.339115351258
 20
-85.1474414570685
 10
103.451864700781
 20
-85.1474414570685
  0
TEXT
  5
F1083C
330
F1083D
 100
AcDbEntity
8
Text
100
AcDbText
10
104.500000000000
20
-81.4570685169124
30
0.000000000000000
40
1.50000000000000
1
Zu bearb. Material:
100
AcDbText
  0
TEXT
  5
F1083E
330
F1083F
 100
AcDbEntity
8
Text
100
AcDbText
10
0.000000000000000
20
0.500000000000000
30
0.000000000000000
40
1.50000000000000
1

100
AcDbText
  0
LWPOLYLINE
  5
F10840
330
F10841
100
AcDbEntity
8
Rahmen
100
AcDbPolyline
90
   4
70
   1
43
   0.0
 10
63.3824804856895
 20
-79.1370338248049
 10
103.451864700781
 20
-79.1370338248049
 10
103.451864700781
 20
-85.1474414570685
 10
63.3824804856895
 20
-85.1474414570685
  0
TEXT
  5
F10842
330
F10843
 100
AcDbEntity
8
Text
100
AcDbText
10
64.5000000000000
20
-81.4570685169124
30
0.000000000000000
40
1.50000000000000
1
Werkstoff:
100
AcDbText
  0
TEXT
  5
F10844
330
F10845
 100
AcDbEntity
8
Text
100
AcDbText
10
80.7679965307892
20
-84.4570685169124
30
0.000000000000000
40
1.50000000000000
1
VHM
100
AcDbText
  0
LWPOLYLINE
  5
F10846
330
F10847
100
AcDbEntity
8
Rahmen
100
AcDbPolyline
90
   4
70
   1
43
   0.0
 10
103.451864700781
 20
-76.0407632263660
 10
143.339115351258
 20
-76.0407632263660
 10
143.339115351258
 20
-79.1370338248049
 10
103.451864700781
 20
-79.1370338248049
  0
TEXT
  5
F10848
330
F10849
 100
AcDbEntity
8
Text
100
AcDbText
10
0.000000000000000
20
0.500000000000000
30
0.000000000000000
40
1.50000000000000
1

100
AcDbText
  0
TEXT
  5
F1084A
330
F1084B
 100
AcDbEntity
8
Text
100
AcDbText
10
0.000000000000000
20
0.500000000000000
30
0.000000000000000
40
1.50000000000000
1

100
AcDbText
  0
LWPOLYLINE
  5
F1084C
330
F1084D
100
AcDbEntity
8
Rahmen
100
AcDbPolyline
90
   4
70
   1
43
   0.0
 10
63.3824804856895
 20
-76.0407632263660
 10
103.451864700781
 20
-76.0407632263660
 10
103.451864700781
 20
-79.1370338248049
 10
63.3824804856895
 20
-79.1370338248049
  0
TEXT
  5
F1084E
330
F1084F
 100
AcDbEntity
8
Text
100
AcDbText
10
64.5000000000000
20
-78.4570685169124
30
0.000000000000000
40
1.50000000000000
1
Maßstab:
100
AcDbText
  0
TEXT
  5
F10850
330
F10851
 100
AcDbEntity
8
Text
100
AcDbText
10
89.0411968777103
20
-78.4570685169124
30
0.000000000000000
40
1.50000000000000
1
1 : 1
100
AcDbText
0
VIEWPORT
5
294
102
{ACAD_XDICTIONARY
360
58A
102
}
330
25D
100
AcDbEntity
67
1
8
0
60
1
100
AcDbViewport
10
0.0
20
0.0
30
0.0
40
10.0
41
10.0
68
-1
69
1
12
0.0
22
0.0
13
0.0
23
0.0
14
1.0
24
1.0
15
0.0
25
0.0
16
0.0
26
0.0
36
1.0
17
0.0
27
0.0
37
0.0
42
0.0
43
0.0
44
0.0
45
10.0
50
0.0
51
0.0000000000007958
72
100
90
32800
1

281
0
71
0
74
0
110
0.0
120
0.0
130
0.0
111
1.0
121
0.0
131
0.0
112
0.0
122
1.0
132
0.0
79
0
146
0.0
1001
VD_INVISIBLE_NOT_FOR_READ
1000
VD_INVISIBLE_NOT_FOR_READ
0
VIEWPORT
5
295
102
{ACAD_XDICTIONARY
360
58C
102
}
330
25D
100
AcDbEntity
67
1
8
0
60
1
100
AcDbViewport
10
0.0
20
0.0
30
0.0
40
10.0
41
10.0
68
0
69
2
12
0.0
22
0.0
13
0.0
23
0.0
14
1.0
24
1.0
15
0.0
25
0.0
16
0.0
26
0.0
36
1.0
17
0.0
27
0.0
37
0.0
42
0.0
43
0.0
44
0.0
45
10.0
50
0.0
51
0.0000000000007958
72
100
90
163872
1

281
0
71
0
74
0
110
0.0
120
0.0
130
0.0
111
1.0
121
0.0
131
0.0
112
0.0
122
1.0
132
0.0
79
0
146
0.0
1001
VD_INVISIBLE_NOT_FOR_READ
1000
VD_INVISIBLE_NOT_FOR_READ
0
ENDSEC
0
SECTION
2
OBJECTS
0
DICTIONARY
5
13
330
0
100
AcDbDictionary
281
1
3
ACAD_COLOR
350
FA7
3
ACAD_GROUP
350
14
3
ACAD_LAYOUT
350
FCF
3
ACAD_MATERIAL
350
F7A
3
ACAD_MLEADERSTYLE
350
FCD
3
ACAD_MLINESTYLE
350
16
3
ACAD_PLOTSETTINGS
350
17
3
ACAD_PLOTSTYLENAME
350
18
3
ACAD_SCALELIST
350
FAB
3
ACAD_TABLESTYLE
350
FA8
3
ACAD_VISUALSTYLE
350
F93
3
ACDB_RECOMPOSE_DATA
350
107E
3
AcDbVariableDictionary
350
FF0
3
DWGPROPS
350
107F
0
DICTIONARY
5
F1000F
330
F1000E
100
AcDbDictionary
280
1
281
1
3
ACAD_MTEXT_2008_RT
360
F10010
0
DICTIONARY
5
F10014
330
F10013
100
AcDbDictionary
280
1
281
1
3
ACAD_MTEXT_2008_RT
360
F10015
0
DICTIONARY
5
F10005
330
F10004
100
AcDbDictionary
280
1
281
1
3
ACAD_MTEXT_2008_RT
360
F10006
0
DICTIONARY
5
F1000A
330
F10009
100
AcDbDictionary
280
1
281
1
3
ACAD_MTEXT_2008_RT
360
F1000B
0
DICTIONARY
5
FA7
102
{ACAD_REACTORS
330
13
102
}
330
13
100
AcDbDictionary
281
1
0
DICTIONARY
5
14
330
13
100
AcDbDictionary
281
1
0
DICTIONARY
5
FCF
102
{ACAD_REACTORS
330
13
102
}
330
13
100
AcDbDictionary
281
1
3
Layout1
350
FD1
3
Model
350
FD0
0
DICTIONARY
5
F7A
102
{ACAD_REACTORS
330
13
102
}
330
13
100
AcDbDictionary
281
1
3
ByBlock
350
F83
3
ByLayer
350
F7B
3
Global
350
F8B
0
DICTIONARY
5
FCD
102
{ACAD_REACTORS
330
13
102
}
330
13
100
AcDbDictionary
281
1
3
Standard
350
FCE
0
DICTIONARY
5
16
330
13
100
AcDbDictionary
281
1
3
Standard
350
FAA
0
DICTIONARY
5
17
102
{ACAD_REACTORS
330
13
102
}
330
13
100
AcDbDictionary
281
1
0
ACDBDICTIONARYWDFLT
5
18
102
{ACAD_REACTORS
330
13
102
}
330
13
100
AcDbDictionary
281
1
3
Normal
350
19
100
AcDbDictionaryWithDefault
340
19
0
DICTIONARY
5
FAB
102
{ACAD_REACTORS
330
13
102
}
330
13
100
AcDbDictionary
281
1
3
A0
350
FAC
3
A1
350
FAD
3
A2
350
FAE
3
A3
350
FAF
3
A4
350
FB0
3
A5
350
FB1
3
A6
350
FB2
3
A7
350
FB3
3
A8
350
FB4
3
A9
350
FB5
3
B0
350
FB6
3
B1
350
FB7
3
B2
350
FB8
3
B3
350
FB9
3
B4
350
FBA
3
B5
350
FBB
3
B6
350
FBC
3
B7
350
FBD
3
B8
350
FBE
3
B9
350
FBF
3
C0
350
FC0
3
C1
350
FC1
3
C2
350
FC2
3
C3
350
FC3
3
C4
350
FC4
3
C5
350
FC5
3
C6
350
FC6
3
C7
350
FC7
3
C8
350
FC8
3
C9
350
FC9
3
D0
350
FCA
3
D1
350
FCB
3
D2
350
FCC
0
DICTIONARY
5
FA8
102
{ACAD_REACTORS
330
13
102
}
330
13
100
AcDbDictionary
281
1
3
Standard
350
FA9
0
DICTIONARY
5
F93
102
{ACAD_REACTORS
330
13
102
}
330
13
100
AcDbDictionary
281
1
3
2dWireframe
350
F99
3
3D Hidden
350
F9B
3
3dWireframe
350
F9A
3
Basic
350
F98
3
Brighten
350
F9F
3
ColorChange
350
FA3
3
Conceptual
350
F9C
3
Dim
350
F9E
3
EdgeColorOff
350
FA6
3
Facepattern
350
FA2
3
Flat
350
F94
3
FlatWithEdges
350
F95
3
Gouraud
350
F96
3
GouraudWithEdges
350
F97
3
JitterOff
350
FA4
3
Linepattern
350
FA1
3
OverhangOff
350
FA5
3
Realistic
350
F9D
3
Thicken
350
FA0
0
XRECORD
5
107E
102
{ACAD_REACTORS
330
13
102
}
330
13
100
AcDbXrecord
280
1
90
1
330
FA9
330
F1000E
330
F10013
330
F10004
330
F10009
0
DICTIONARY
5
FF0
102
{ACAD_REACTORS
330
13
102
}
330
13
100
AcDbDictionary
281
1
3
CANNOSCALE
350
FF3
3
CMLEADERSTYLE
350
FF2
3
CTABLESTYLE
350
FF1
3
DIMASSOC
350
FF6
3
INDEXCTL
350
FF5
3
SORTENTS
350
FF4
3
XCLIPFRAME
350
1078
0
XRECORD
5
107F
102
{ACAD_REACTORS
330
13
102
}
330
13
100
AcDbXrecord
280
1
1
DWGPROPS COOKIE
2

3

4

6

7

8

9

300
=
301
=
302
=
303
=
304
=
305
=
306
=
307
=
308
=
309
=
40
0.0
41
0.0
42
0.0
1

90
0
0
XRECORD
5
F10010
102
{ACAD_REACTORS
330
F1000F
102
}
330
F1000F
100
AcDbXrecord
280
1
40
48458.0
1
18
0
XRECORD
5
F10015
102
{ACAD_REACTORS
330
F10014
102
}
330
F10014
100
AcDbXrecord
280
1
40
48458.0
1
72
0
XRECORD
5
F10006
102
{ACAD_REACTORS
330
F10005
102
}
330
F10005
100
AcDbXrecord
280
1
40
48458.0
1
Ø14
0
LAYOUT
5
FD1
102
{ACAD_XDICTIONARY
360
10A9
102
}
102
{ACAD_REACTORS
330
FCF
102
}
330
FCF
100
AcDbPlotSettings
1

2
Microsoft XPS Document Writer
4

6

40
0.0
41
0.0
42
0.0
43
0.0
44
0.0
45
0.0
46
0.0
47
0.0
48
0.0
49
0.0
140
0.0
141
0.0
142
1.0
143
1.0
70
688
72
0
73
0
74
5
7

75
16
147
1.0
148
0.0
149
0.0
100
AcDbLayout
1
Layout1
70
1
71
1
10
0.0
20
0.0
11
12.0
21
9.0
12
0.0
22
0.0
32
0.0
14
1.000000000000000E+20
24
1.000000000000000E+20
34
1.000000000000000E+20
15
-1.000000000000000E+20
25
-1.000000000000000E+20
35
-1.000000000000000E+20
146
0.0
13
0.0
23
0.0
33
0.0
16
1.0
26
0.0
36
0.0
17
0.0
27
1.0
37
0.0
76
0
330
25D
0
LAYOUT
5
FD0
102
{ACAD_XDICTIONARY
360
10A7
102
}
102
{ACAD_REACTORS
330
FCF
102
}
330
FCF
100
AcDbPlotSettings
1

2
Microsoft XPS Document Writer
4

6

40
0.0
41
0.0
42
0.0
43
0.0
44
0.0
45
0.0
46
0.0
47
0.0
48
0.0
49
0.0
140
0.0
141
0.0
142
1.0
143
1.0
70
1712
72
0
73
0
74
0
7

75
0
147
1.0
148
0.0
149
0.0
100
AcDbLayout
1
Model
70
1
71
0
10
0.0
20
0.0
11
12.0
21
9.0
12
0.0
22
0.0
32
0.0
14
0.0
24
0.0
34
0.0
15
0.0
25
0.0
35
0.0
146
0.0
13
0.0
23
0.0
33
0.0
16
1.0
26
0.0
36
0.0
17
0.0
27
1.0
37
0.0
76
0
330
261
331
26B
0
MATERIAL
5
F83
102
{ACAD_XDICTIONARY
360
F84
102
}
102
{ACAD_REACTORS
330
F7A
102
}
330
F7A
100
AcDbMaterial
1
ByBlock
72
0
43
0.0208333333333333
43
0.0
43
0.0
43
0.0
43
0.0
43
0.0208333333333333
43
0.0
43
0.0
43
0.0
43
0.0
43
1.0
43
0.0
43
0.0
43
0.0
43
0.0
43
1.0
77
0
47
0.0208333333333333
47
0.0
47
0.0
47
0.0
47
0.0
47
0.0208333333333333
47
0.0
47
0.0
47
0.0
47
0.0
47
1.0
47
0.0
47
0.0
47
0.0
47
0.0
47
1.0
171
0
49
0.0208333333333333
49
0.0
49
0.0
49
0.0
49
0.0
49
0.0208333333333333
49
0.0
49
0.0
49
0.0
49
0.0
49
1.0
49
0.0
49
0.0
49
0.0
49
0.0
49
1.0
175
0
142
0.0208333333333333
142
0.0
142
0.0
142
0.0
142
0.0
142
0.0208333333333333
142
0.0
142
0.0
142
0.0
142
0.0
142
1.0
142
0.0
142
0.0
142
0.0
142
0.0
142
1.0
179
0
144
0.0208333333333333
144
0.0
144
0.0
144
0.0
144
0.0
144
0.0208333333333333
144
0.0
144
0.0
144
0.0
144
0.0
144
1.0
144
0.0
144
0.0
144
0.0
144
0.0
144
1.0
147
0.0208333333333333
147
0.0
147
0.0
147
0.0
147
0.0
147
0.0208333333333333
147
0.0
147
0.0
147
0.0
147
0.0
147
1.0
147
0.0
147
0.0
147
0.0
147
0.0
147
1.0
0
MATERIAL
5
F7B
102
{ACAD_XDICTIONARY
360
F7C
102
}
102
{ACAD_REACTORS
330
F7A
102
}
330
F7A
100
AcDbMaterial
1
ByLayer
72
0
43
0.0208333333333333
43
0.0
43
0.0
43
0.0
43
0.0
43
0.0208333333333333
43
0.0
43
0.0
43
0.0
43
0.0
43
1.0
43
0.0
43
0.0
43
0.0
43
0.0
43
1.0
77
0
47
0.0208333333333333
47
0.0
47
0.0
47
0.0
47
0.0
47
0.0208333333333333
47
0.0
47
0.0
47
0.0
47
0.0
47
1.0
47
0.0
47
0.0
47
0.0
47
0.0
47
1.0
171
0
49
0.0208333333333333
49
0.0
49
0.0
49
0.0
49
0.0
49
0.0208333333333333
49
0.0
49
0.0
49
0.0
49
0.0
49
1.0
49
0.0
49
0.0
49
0.0
49
0.0
49
1.0
175
0
142
0.0208333333333333
142
0.0
142
0.0
142
0.0
142
0.0
142
0.0208333333333333
142
0.0
142
0.0
142
0.0
142
0.0
142
1.0
142
0.0
142
0.0
142
0.0
142
0.0
142
1.0
179
0
144
0.0208333333333333
144
0.0
144
0.0
144
0.0
144
0.0
144
0.0208333333333333
144
0.0
144
0.0
144
0.0
144
0.0
144
1.0
144
0.0
144
0.0
144
0.0
144
0.0
144
1.0
147
0.0208333333333333
147
0.0
147
0.0
147
0.0
147
0.0
147
0.0208333333333333
147
0.0
147
0.0
147
0.0
147
0.0
147
1.0
147
0.0
147
0.0
147
0.0
147
0.0
147
1.0
0
MATERIAL
5
F8B
102
{ACAD_XDICTIONARY
360
F8C
102
}
102
{ACAD_REACTORS
330
F7A
102
}
330
F7A
100
AcDbMaterial
1
Global
72
0
43
0.0208333333333333
43
0.0
43
0.0
43
0.0
43
0.0
43
0.0208333333333333
43
0.0
43
0.0
43
0.0
43
0.0
43
1.0
43
0.0
43
0.0
43
0.0
43
0.0
43
1.0
77
0
47
0.0208333333333333
47
0.0
47
0.0
47
0.0
47
0.0
47
0.0208333333333333
47
0.0
47
0.0
47
0.0
47
0.0
47
1.0
47
0.0
47
0.0
47
0.0
47
0.0
47
1.0
171
0
49
0.0208333333333333
49
0.0
49
0.0
49
0.0
49
0.0
49
0.0208333333333333
49
0.0
49
0.0
49
0.0
49
0.0
49
1.0
49
0.0
49
0.0
49
0.0
49
0.0
49
1.0
175
0
142
0.0208333333333333
142
0.0
142
0.0
142
0.0
142
0.0
142
0.0208333333333333
142
0.0
142
0.0
142
0.0
142
0.0
142
1.0
142
0.0
142
0.0
142
0.0
142
0.0
142
1.0
179
0
144
0.0208333333333333
144
0.0
144
0.0
144
0.0
144
0.0
144
0.0208333333333333
144
0.0
144
0.0
144
0.0
144
0.0
144
1.0
144
0.0
144
0.0
144
0.0
144
0.0
144
1.0
147
0.0208333333333333
147
0.0
147
0.0
147
0.0
147
0.0
147
0.0208333333333333
147
0.0
147
0.0
147
0.0
147
0.0
147
1.0
147
0.0
147
0.0
147
0.0
147
0.0
147
1.0
0
MLEADERSTYLE
5
FCE
102
{ACAD_REACTORS
330
FCD
102
}
330
FCD
100
AcDbMLeaderStyle
170
2
171
1
172
0
90
2
40
0.0
41
0.0
173
1
91
-1056964608
340
256
92
-2
290
1
42
0.09
291
1
43
0.36
3
Standard
44
0.18
300

342
253
174
1
178
6
175
1
176
0
93
-1056964608
45
0.18
292
0
297
0
46
0.18
94
-1056964608
47
1.0
49
1.0
140
1.0
293
1
141
0.0
294
1
177
0
142
1.0
295
0
296
0
143
0.125
1001
ACAD_MLEADERVER
1070
2
0
MLINESTYLE
5
FAA
102
{ACAD_REACTORS
330
16
102
}
330
16
100
AcDbMlineStyle
2
STANDARD
70
0
3

62
256
51
90.0
52
90.0
71
2
49
0.5
62
256
6
BYLAYER
49
-0.5
62
256
6
BYLAYER
0
ACDBPLACEHOLDER
5
19
102
{ACAD_REACTORS
330
18
102
}
330
18
0
SCALE
5
FAC
102
{ACAD_REACTORS
330
FAB
102
}
330
FAB
100
AcDbScale
70
0
300
1:1
140
1.0
141
1.0
290
1
0
SCALE
5
FAD
102
{ACAD_REACTORS
330
FAB
102
}
330
FAB
100
AcDbScale
70
0
300
1:2
140
1.0
141
2.0
290
0
0
SCALE
5
FAE
102
{ACAD_REACTORS
330
FAB
102
}
330
FAB
100
AcDbScale
70
0
300
1:4
140
1.0
141
4.0
290
0
0
SCALE
5
FAF
102
{ACAD_REACTORS
330
FAB
102
}
330
FAB
100
AcDbScale
70
0
300
1:5
140
1.0
141
5.0
290
0
0
SCALE
5
FB0
102
{ACAD_REACTORS
330
FAB
102
}
330
FAB
100
AcDbScale
70
0
300
1:8
140
1.0
141
8.0
290
0
0
SCALE
5
FB1
102
{ACAD_REACTORS
330
FAB
102
}
330
FAB
100
AcDbScale
70
0
300
1:10
140
1.0
141
10.0
290
0
0
SCALE
5
FB2
102
{ACAD_REACTORS
330
FAB
102
}
330
FAB
100
AcDbScale
70
0
300
1:16
140
1.0
141
16.0
290
0
0
SCALE
5
FB3
102
{ACAD_REACTORS
330
FAB
102
}
330
FAB
100
AcDbScale
70
0
300
1:20
140
1.0
141
20.0
290
0
0
SCALE
5
FB4
102
{ACAD_REACTORS
330
FAB
102
}
330
FAB
100
AcDbScale
70
0
300
1:30
140
1.0
141
30.0
290
0
0
SCALE
5
FB5
102
{ACAD_REACTORS
330
FAB
102
}
330
FAB
100
AcDbScale
70
0
300
1:40
140
1.0
141
40.0
290
0
0
SCALE
5
FB6
102
{ACAD_REACTORS
330
FAB
102
}
330
FAB
100
AcDbScale
70
0
300
1:50
140
1.0
141
50.0
290
0
0
SCALE
5
FB7
102
{ACAD_REACTORS
330
FAB
102
}
330
FAB
100
AcDbScale
70
0
300
1:100
140
1.0
141
100.0
290
0
0
SCALE
5
FB8
102
{ACAD_REACTORS
330
FAB
102
}
330
FAB
100
AcDbScale
70
0
300
2:1
140
2.0
141
1.0
290
0
0
SCALE
5
FB9
102
{ACAD_REACTORS
330
FAB
102
}
330
FAB
100
AcDbScale
70
0
300
4:1
140
4.0
141
1.0
290
0
0
SCALE
5
FBA
102
{ACAD_REACTORS
330
FAB
102
}
330
FAB
100
AcDbScale
70
0
300
8:1
140
8.0
141
1.0
290
0
0
SCALE
5
FBB
102
{ACAD_REACTORS
330
FAB
102
}
330
FAB
100
AcDbScale
70
0
300
10:1
140
10.0
141
1.0
290
0
0
SCALE
5
FBC
102
{ACAD_REACTORS
330
FAB
102
}
330
FAB
100
AcDbScale
70
0
300
100:1
140
100.0
141
1.0
290
0
0
SCALE
5
FBD
102
{ACAD_REACTORS
330
FAB
102
}
330
FAB
100
AcDbScale
70
0
300
1/128" = 1'-0"
140
0.0078125
141
12.0
290
0
0
SCALE
5
FBE
102
{ACAD_REACTORS
330
FAB
102
}
330
FAB
100
AcDbScale
70
0
300
1/64" = 1'-0"
140
0.015625
141
12.0
290
0
0
SCALE
5
FBF
102
{ACAD_REACTORS
330
FAB
102
}
330
FAB
100
AcDbScale
70
0
300
1/32" = 1'-0"
140
0.03125
141
12.0
290
0
0
SCALE
5
FC0
102
{ACAD_REACTORS
330
FAB
102
}
330
FAB
100
AcDbScale
70
0
300
1/16" = 1'-0"
140
0.0625
141
12.0
290
0
0
SCALE
5
FC1
102
{ACAD_REACTORS
330
FAB
102
}
330
FAB
100
AcDbScale
70
0
300
3/32" = 1'-0"
140
0.09375
141
12.0
290
0
0
SCALE
5
FC2
102
{ACAD_REACTORS
330
FAB
102
}
330
FAB
100
AcDbScale
70
0
300
1/8" = 1'-0"
140
0.125
141
12.0
290
0
0
SCALE
5
FC3
102
{ACAD_REACTORS
330
FAB
102
}
330
FAB
100
AcDbScale
70
0
300
3/16" = 1'-0"
140
0.1875
141
12.0
290
0
0
SCALE
5
FC4
102
{ACAD_REACTORS
330
FAB
102
}
330
FAB
100
AcDbScale
70
0
300
1/4" = 1'-0"
140
0.25
141
12.0
290
0
0
SCALE
5
FC5
102
{ACAD_REACTORS
330
FAB
102
}
330
FAB
100
AcDbScale
70
0
300
3/8" = 1'-0"
140
0.375
141
12.0
290
0
0
SCALE
5
FC6
102
{ACAD_REACTORS
330
FAB
102
}
330
FAB
100
AcDbScale
70
0
300
1/2" = 1'-0"
140
0.5
141
12.0
290
0
0
SCALE
5
FC7
102
{ACAD_REACTORS
330
FAB
102
}
330
FAB
100
AcDbScale
70
0
300
3/4" = 1'-0"
140
0.75
141
12.0
290
0
0
SCALE
5
FC8
102
{ACAD_REACTORS
330
FAB
102
}
330
FAB
100
AcDbScale
70
0
300
1" = 1'-0"
140
1.0
141
12.0
290
0
0
SCALE
5
FC9
102
{ACAD_REACTORS
330
FAB
102
}
330
FAB
100
AcDbScale
70
0
300
1-1/2" = 1'-0"
140
1.5
141
12.0
290
0
0
SCALE
5
FCA
102
{ACAD_REACTORS
330
FAB
102
}
330
FAB
100
AcDbScale
70
0
300
3" = 1'-0"
140
3.0
141
12.0
290
0
0
SCALE
5
FCB
102
{ACAD_REACTORS
330
FAB
102
}
330
FAB
100
AcDbScale
70
0
300
6" = 1'-0"
140
6.0
141
12.0
290
0
0
SCALE
5
FCC
102
{ACAD_REACTORS
330
FAB
102
}
330
FAB
100
AcDbScale
70
0
300
1'-0" = 1'-0"
140
12.0
141
12.0
290
0
0
TABLESTYLE
5
FA9
102
{ACAD_XDICTIONARY
360
FF8
102
}
102
{ACAD_REACTORS
330
FA8
102
}
330
FA8
100
AcDbTableStyle
3
Standard
70
0
71
0
40
0.06
41
0.06
280
0
281
0
7
Standard
140
0.18
170
2
62
0
63
7
283
0
274
-2
284
1
64
0
275
-2
285
1
65
0
276
-2
286
1
66
0
277
-2
287
1
67
0
278
-2
288
1
68
0
279
-2
289
1
69
0
7
Standard
140
0.25
170
5
62
0
63
7
283
0
274
-2
284
1
64
0
275
-2
285
1
65
0
276
-2
286
1
66
0
277
-2
287
1
67
0
278
-2
288
1
68
0
279
-2
289
1
69
0
7
Standard
140
0.18
170
5
62
0
63
7
283
0
274
-2
284
1
64
0
275
-2
285
1
65
0
276
-2
286
1
66
0
277
-2
287
1
67
0
278
-2
288
1
68
0
279
-2
289
1
69
0
0
VISUALSTYLE
5
F99
102
{ACAD_XDICTIONARY
360
108A
102
}
102
{ACAD_REACTORS
330
F93
102
}
330
F93
100
AcDbVisualStyle
2

70
4
71
0
72
2
73
0
90
0
40
-0.6
41
-30.0
62
5
63
7
74
1
91
4
64
7
65
257
75
1
175
1
42
1.0
92
0
66
257
43
1.0
76
1
77
6
78
2
67
7
79
5
170
0
171
0
290
0
174
0
93
1
44
0.0
173
0
291
0
45
0.0
1001
ACAD
1000
AcDbSavedByObjectVersion
1070
0
0
VISUALSTYLE
5
F9B
102
{ACAD_XDICTIONARY
360
108E
102
}
102
{ACAD_REACTORS
330
F93
102
}
330
F93
100
AcDbVisualStyle
2

70
6
71
1
72
2
73
2
90
0
40
-0.6
41
-30.0
62
5
63
7
74
2
91
2
64
7
65
257
75
2
175
1
42
179.0
92
0
66
257
43
1.0
76
1
77
6
78
2
67
7
79
3
170
0
171
0
290
0
174
0
93
1
44
0.0
173
0
291
0
45
0.0
1001
ACAD
1000
AcDbSavedByObjectVersion
1070
0
0
VISUALSTYLE
5
F9A
102
{ACAD_XDICTIONARY
360
108C
102
}
102
{ACAD_REACTORS
330
F93
102
}
330
F93
100
AcDbVisualStyle
2

70
5
71
0
72
2
73
0
90
0
40
-0.6
41
-30.0
62
5
63
7
74
1
91
4
64
7
65
257
75
1
175
1
42
1.0
92
0
66
257
43
1.0
76
1
77
6
78
2
67
7
79
5
170
0
171
0
290
0
174
0
93
1
44
0.0
173
0
291
0
45
0.0
1001
ACAD
1000
AcDbSavedByObjectVersion
1070
0
0
VISUALSTYLE
5
F98
102
{ACAD_XDICTIONARY
360
1088
102
}
102
{ACAD_REACTORS
330
F93
102
}
330
F93
100
AcDbVisualStyle
2

70
7
71
1
72
0
73
1
90
0
40
-0.6
41
-30.0
62
5
63
7
74
0
91
4
64
7
65
257
75
1
175
1
42
1.0
92
8
66
7
43
1.0
76
1
77
6
78
2
67
7
79
5
170
0
171
0
290
0
174
0
93
1
44
0.0
173
0
291
1
45
0.0
1001
ACAD
1000
AcDbSavedByObjectVersion
1070
0
0
VISUALSTYLE
5
F9F
102
{ACAD_XDICTIONARY
360
1096
102
}
102
{ACAD_REACTORS
330
F93
102
}
330
F93
100
AcDbVisualStyle
2

70
12
71
2
72
2
73
0
90
0
40
-0.6
41
-30.0
62
5
63
7
74
1
91
4
64
7
65
257
75
1
175
1
42
1.0
92
8
66
7
43
1.0
76
1
77
6
78
2
67
7
79
5
170
0
171
0
290
0
174
0
93
1
44
50.0
173
0
291
1
45
0.0
1001
ACAD
1000
AcDbSavedByObjectVersion
1070
0
0
VISUALSTYLE
5
FA3
102
{ACAD_XDICTIONARY
360
109E
102
}
102
{ACAD_REACTORS
330
F93
102
}
330
F93
100
AcDbVisualStyle
2

70
16
71
2
72
2
73
3
90
0
40
-0.6
41
-30.0
62
5
63
8
74
1
91
4
64
7
65
257
75
1
175
1
42
1.0
92
8
66
8
43
1.0
76
1
77
6
78
2
67
7
79
5
170
0
171
0
290
0
174
0
93
1
44
0.0
173
0
291
1
45
0.0
1001
ACAD
1000
AcDbSavedByObjectVersion
1070
0
0
VISUALSTYLE
5
F9C
102
{ACAD_XDICTIONARY
360
1090
102
}
102
{ACAD_REACTORS
330
F93
102
}
330
F93
100
AcDbVisualStyle
2

70
9
71
3
72
2
73
0
90
0
40
-0.6
41
-30.0
62
5
63
7
74
2
91
2
64
7
65
257
75
1
175
1
42
179.0
92
8
66
7
43
1.0
76
1
77
6
78
2
67
7
79
3
170
0
171
0
290
0
174
0
93
1
44
0.0
173
0
291
0
45
0.0
1001
ACAD
1000
AcDbSavedByObjectVersion
1070
0
0
VISUALSTYLE
5
F9E
102
{ACAD_XDICTIONARY
360
1094
102
}
102
{ACAD_REACTORS
330
F93
102
}
330
F93
100
AcDbVisualStyle
2

70
11
71
2
72
2
73
0
90
0
40
-0.6
41
-30.0
62
5
63
7
74
1
91
4
64
7
65
257
75
1
175
1
42
1.0
92
8
66
7
43
1.0
76
1
77
6
78
2
67
7
79
5
170
0
171
0
290
0
174
0
93
1
44
-50.0
173
0
291
1
45
0.0
1001
ACAD
1000
AcDbSavedByObjectVersion
1070
0
0
VISUALSTYLE
5
FA6
102
{ACAD_XDICTIONARY
360
10A4
102
}
102
{ACAD_REACTORS
330
F93
102
}
330
F93
100
AcDbVisualStyle
2

70
22
71
2
72
2
73
0
90
0
40
-0.6
41
-30.0
62
5
63
7
74
1
91
4
64
7
65
257
75
1
175
1
42
1.0
92
8
66
7
43
1.0
76
1
77
6
78
2
67
7
79
5
170
0
171
0
290
0
174
0
93
1
44
0.0
173
0
291
1
45
0.0
1001
ACAD
1000
AcDbSavedByObjectVersion
1070
0
0
VISUALSTYLE
5
FA2
102
{ACAD_XDICTIONARY
360
109C
102
}
102
{ACAD_REACTORS
330
F93
102
}
330
F93
100
AcDbVisualStyle
2

70
15
71
2
72
2
73
0
90
0
40
-0.6
41
-30.0
62
5
63
7
74
1
91
4
64
7
65
257
75
1
175
1
42
1.0
92
8
66
7
43
1.0
76
1
77
6
78
2
67
7
79
5
170
0
171
0
290
0
174
0
93
1
44
0.0
173
0
291
1
45
0.0
1001
ACAD
1000
AcDbSavedByObjectVersion
1070
0
0
VISUALSTYLE
5
F94
102
{ACAD_XDICTIONARY
360
1080
102
}
102
{ACAD_REACTORS
330
F93
102
}
330
F93
100
AcDbVisualStyle
2

70
0
71
2
72
1
73
1
90
2
40
-0.6
41
30.0
62
5
63
7
74
0
91
4
64
7
65
257
75
1
175
1
42
1.0
92
8
66
7
43
1.0
76
1
77
6
78
2
67
7
79
5
170
0
171
0
290
0
174
0
93
13
44
0.0
173
0
291
1
45
0.0
1001
ACAD
1000
AcDbSavedByObjectVersion
1070
0
0
VISUALSTYLE
5
F95
102
{ACAD_XDICTIONARY
360
1082
102
}
102
{ACAD_REACTORS
330
F93
102
}
330
F93
100
AcDbVisualStyle
2

70
1
71
2
72
1
73
1
90
2
40
-0.6
41
30.0
62
5
63
7
74
1
91
4
64
7
65
257
75
1
175
1
42
1.0
92
0
66
257
43
1.0
76
1
77
6
78
2
67
7
79
5
170
0
171
0
290
0
174
0
93
13
44
0.0
173
0
291
1
45
0.0
1001
ACAD
1000
AcDbSavedByObjectVersion
1070
0
0
VISUALSTYLE
5
F96
102
{ACAD_XDICTIONARY
360
1084
102
}
102
{ACAD_REACTORS
330
F93
102
}
330
F93
100
AcDbVisualStyle
2

70
2
71
2
72
2
73
1
90
2
40
-0.6
41
30.0
62
5
63
7
74
0
91
4
64
7
65
257
75
1
175
1
42
1.0
92
0
66
7
43
1.0
76
1
77
6
78
2
67
7
79
5
170
0
171
0
290
0
174
0
93
13
44
0.0
173
0
291
1
45
0.0
1001
ACAD
1000
AcDbSavedByObjectVersion
1070
0
0
VISUALSTYLE
5
F97
102
{ACAD_XDICTIONARY
360
1086
102
}
102
{ACAD_REACTORS
330
F93
102
}
330
F93
100
AcDbVisualStyle
2

70
3
71
2
72
2
73
1
90
2
40
-0.6
41
30.0
62
5
63
7
74
1
91
4
64
7
65
257
75
1
175
1
42
1.0
92
0
66
257
43
1.0
76
1
77
6
78
2
67
7
79
5
170
0
171
0
290
0
174
0
93
13
44
0.0
173
0
291
1
45
0.0
1001
ACAD
1000
AcDbSavedByObjectVersion
1070
0
0
VISUALSTYLE
5
FA4
102
{ACAD_XDICTIONARY
360
10A0
102
}
102
{ACAD_REACTORS
330
F93
102
}
330
F93
100
AcDbVisualStyle
2

70
20
71
2
72
2
73
0
90
0
40
-0.6
41
-30.0
62
5
63
7
74
1
91
4
64
7
65
257
75
1
175
1
42
1.0
92
10
66
7
43
1.0
76
1
77
6
78
2
67
7
79
5
170
0
171
0
290
0
174
0
93
1
44
0.0
173
0
291
1
45
0.0
1001
ACAD
1000
AcDbSavedByObjectVersion
1070
0
0
VISUALSTYLE
5
FA1
102
{ACAD_XDICTIONARY
360
109A
102
}
102
{ACAD_REACTORS
330
F93
102
}
330
F93
100
AcDbVisualStyle
2

70
14
71
2
72
2
73
0
90
0
40
-0.6
41
-30.0
62
5
63
7
74
1
91
4
64
7
65
257
75
7
175
7
42
1.0
92
8
66
7
43
1.0
76
1
77
6
78
2
67
7
79
5
170
0
171
0
290
0
174
0
93
1
44
0.0
173
0
291
1
45
0.0
1001
ACAD
1000
AcDbSavedByObjectVersion
1070
0
0
VISUALSTYLE
5
FA5
102
{ACAD_XDICTIONARY
360
10A2
102
}
102
{ACAD_REACTORS
330
F93
102
}
330
F93
100
AcDbVisualStyle
2

70
21
71
2
72
2
73
0
90
0
40
-0.6
41
-30.0
62
5
63
7
74
1
91
4
64
7
65
257
75
1
175
1
42
1.0
92
9
66
7
43
1.0
76
1
77
6
78
2
67
7
79
5
170
0
171
0
290
0
174
0
93
1
44
0.0
173
0
291
1
45
0.0
1001
ACAD
1000
AcDbSavedByObjectVersion
1070
0
0
VISUALSTYLE
5
F9D
102
{ACAD_XDICTIONARY
360
1092
102
}
102
{ACAD_REACTORS
330
F93
102
}
330
F93
100
AcDbVisualStyle
2

70
8
71
2
72
2
73
0
90
0
40
-0.6
41
-30.0
62
5
63
7
74
1
91
0
64
7
65
257
75
1
175
1
42
1.0
92
8
66
8
43
1.0
76
1
77
6
78
2
67
7
79
5
170
0
171
0
290
0
174
0
93
13
44
0.0
173
0
291
0
45
0.0
1001
ACAD
1000
AcDbSavedByObjectVersion
1070
0
0
VISUALSTYLE
5
FA0
102
{ACAD_XDICTIONARY
360
1098
102
}
102
{ACAD_REACTORS
330
F93
102
}
330
F93
100
AcDbVisualStyle
2

70
13
71
2
72
2
73
0
90
0
40
-0.6
41
-30.0
62
5
63
7
74
1
91
4
64
7
65
257
75
1
175
1
42
1.0
92
12
66
7
43
1.0
76
1
77
6
78
2
67
7
79
5
170
0
171
0
290
0
174
0
93
1
44
0.0
173
0
291
1
45
0.0
1001
ACAD
1000
AcDbSavedByObjectVersion
1070
0
0
DICTIONARYVAR
5
FF3
102
{ACAD_REACTORS
330
FF0
102
}
330
FF0
100
DictionaryVariables
280
0
1
1:1
0
DICTIONARYVAR
5
FF2
102
{ACAD_REACTORS
330
FF0
102
}
330
FF0
100
DictionaryVariables
280
0
1
STANDARD
0
DICTIONARYVAR
5
FF1
102
{ACAD_REACTORS
330
FF0
102
}
330
FF0
100
DictionaryVariables
280
0
1
STANDARD
0
DICTIONARYVAR
5
FF6
102
{ACAD_REACTORS
330
FF0
102
}
330
FF0
100
DictionaryVariables
280
0
1
1
0
DICTIONARYVAR
5
FF5
102
{ACAD_REACTORS
330
FF0
102
}
330
FF0
100
DictionaryVariables
280
0
1
0
0
DICTIONARYVAR
5
FF4
102
{ACAD_REACTORS
330
FF0
102
}
330
FF0
100
DictionaryVariables
280
0
1
127
0
DICTIONARYVAR
5
1078
102
{ACAD_REACTORS
330
FF0
102
}
330
FF0
100
DictionaryVariables
280
0
1
2
0
DICTIONARY
5
10A9
330
FD1
100
AcDbDictionary
280
1
281
1
3
ACAD_XREC_ROUNDTRIP
360
10AA
0
DICTIONARY
5
10A7
330
FD0
100
AcDbDictionary
280
1
281
1
3
ACAD_XREC_ROUNDTRIP
360
10A8
0
DICTIONARY
5
F84
330
F83
100
AcDbDictionary
280
1
281
1
3
ACAD_XREC_ROUNDTRIP
360
FFF
3
BUMPTILE
360
F86
3
DIFFUSETILE
360
F85
3
OPACITYTILE
360
F89
3
REFLECTIONTILE
360
F88
3
REFRACTIONTILE
360
F8A
3
SPECULARTILE
360
F87
0
DICTIONARY
5
F7C
330
F7B
100
AcDbDictionary
280
1
281
1
3
ACAD_XREC_ROUNDTRIP
360
FFE
3
BUMPTILE
360
F7E
3
DIFFUSETILE
360
F7D
3
OPACITYTILE
360
F81
3
REFLECTIONTILE
360
F80
3
REFRACTIONTILE
360
F82
3
SPECULARTILE
360
F7F
0
DICTIONARY
5
F8C
330
F8B
100
AcDbDictionary
280
1
281
1
3
ACAD_XREC_ROUNDTRIP
360
1000
3
BUMPTILE
360
F8E
3
DIFFUSETILE
360
F8D
3
OPACITYTILE
360
F91
3
REFLECTIONTILE
360
F90
3
REFRACTIONTILE
360
F92
3
SPECULARTILE
360
F8F
0
DICTIONARY
5
FF8
330
FA9
100
AcDbDictionary
280
1
281
1
3
ACAD_ROUNDTRIP_2008_TABLESTYLE_CELLSTYLEMAP
360
1079
3
ACAD_XREC_ROUNDTRIP
360
10A6
0
DICTIONARY
5
108A
330
F99
100
AcDbDictionary
280
1
281
1
3
ACAD_XREC_ROUNDTRIP
360
108B
0
DICTIONARY
5
108E
330
F9B
100
AcDbDictionary
280
1
281
1
3
ACAD_XREC_ROUNDTRIP
360
108F
0
DICTIONARY
5
108C
330
F9A
100
AcDbDictionary
280
1
281
1
3
ACAD_XREC_ROUNDTRIP
360
108D
0
DICTIONARY
5
1088
330
F98
100
AcDbDictionary
280
1
281
1
3
ACAD_XREC_ROUNDTRIP
360
1089
0
DICTIONARY
5
1096
330
F9F
100
AcDbDictionary
280
1
281
1
3
ACAD_XREC_ROUNDTRIP
360
1097
0
DICTIONARY
5
109E
330
FA3
100
AcDbDictionary
280
1
281
1
3
ACAD_XREC_ROUNDTRIP
360
109F
0
DICTIONARY
5
1090
330
F9C
100
AcDbDictionary
280
1
281
1
3
ACAD_XREC_ROUNDTRIP
360
1091
0
DICTIONARY
5
1094
330
F9E
100
AcDbDictionary
280
1
281
1
3
ACAD_XREC_ROUNDTRIP
360
1095
0
DICTIONARY
5
10A4
330
FA6
100
AcDbDictionary
280
1
281
1
3
ACAD_XREC_ROUNDTRIP
360
10A5
0
DICTIONARY
5
109C
330
FA2
100
AcDbDictionary
280
1
281
1
3
ACAD_XREC_ROUNDTRIP
360
109D
0
DICTIONARY
5
1080
330
F94
100
AcDbDictionary
280
1
281
1
3
ACAD_XREC_ROUNDTRIP
360
1081
0
DICTIONARY
5
1082
330
F95
100
AcDbDictionary
280
1
281
1
3
ACAD_XREC_ROUNDTRIP
360
1083
0
DICTIONARY
5
1084
330
F96
100
AcDbDictionary
280
1
281
1
3
ACAD_XREC_ROUNDTRIP
360
1085
0
DICTIONARY
5
1086
330
F97
100
AcDbDictionary
280
1
281
1
3
ACAD_XREC_ROUNDTRIP
360
1087
0
DICTIONARY
5
10A0
330
FA4
100
AcDbDictionary
280
1
281
1
3
ACAD_XREC_ROUNDTRIP
360
10A1
0
DICTIONARY
5
109A
330
FA1
100
AcDbDictionary
280
1
281
1
3
ACAD_XREC_ROUNDTRIP
360
109B
0
DICTIONARY
5
10A2
330
FA5
100
AcDbDictionary
280
1
281
1
3
ACAD_XREC_ROUNDTRIP
360
10A3
0
DICTIONARY
5
1092
330
F9D
100
AcDbDictionary
280
1
281
1
3
ACAD_XREC_ROUNDTRIP
360
1093
0
DICTIONARY
5
1098
330
FA0
100
AcDbDictionary
280
1
281
1
3
ACAD_XREC_ROUNDTRIP
360
1099
0
XRECORD
5
10AA
102
{ACAD_REACTORS
330
10A9
102
}
330
10A9
100
AcDbXrecord
280
1
102
SHADEPLOT
70
0
102
SHADEPLOTRESLEVEL
70
2
102
SHADEPLOTCUSTOMDPI
70
300
0
XRECORD
5
10A8
102
{ACAD_REACTORS
330
10A7
102
}
330
10A7
100
AcDbXrecord
280
1
102
SHADEPLOT
70
0
102
SHADEPLOTRESLEVEL
70
2
102
SHADEPLOTCUSTOMDPI
70
300
0
XRECORD
5
FFF
102
{ACAD_REACTORS
330
F84
102
}
330
F84
100
AcDbXrecord
280
1
102
MATERIAL
148
0.0
149
0.0
149
0.0
93
0
94
127
282
0
72
0
77
0
171
0
175
0
179
0
273
0
0
XRECORD
5
F86
102
{ACAD_REACTORS
330
F84
102
}
330
F84
100
AcDbXrecord
280
1
270
1
271
1
0
XRECORD
5
F85
102
{ACAD_REACTORS
330
F84
102
}
330
F84
100
AcDbXrecord
280
1
270
1
271
1
0
XRECORD
5
F89
102
{ACAD_REACTORS
330
F84
102
}
330
F84
100
AcDbXrecord
280
1
270
1
271
1
0
XRECORD
5
F88
102
{ACAD_REACTORS
330
F84
102
}
330
F84
100
AcDbXrecord
280
1
270
1
271
1
0
XRECORD
5
F8A
102
{ACAD_REACTORS
330
F84
102
}
330
F84
100
AcDbXrecord
280
1
270
1
271
1
0
XRECORD
5
F87
102
{ACAD_REACTORS
330
F84
102
}
330
F84
100
AcDbXrecord
280
1
270
1
271
1
0
XRECORD
5
FFE
102
{ACAD_REACTORS
330
F7C
102
}
330
F7C
100
AcDbXrecord
280
1
102
MATERIAL
148
0.0
149
0.0
149
0.0
93
0
94
127
282
0
72
0
77
0
171
0
175
0
179
0
273
0
0
XRECORD
5
F7E
102
{ACAD_REACTORS
330
F7C
102
}
330
F7C
100
AcDbXrecord
280
1
270
1
271
1
0
XRECORD
5
F7D
102
{ACAD_REACTORS
330
F7C
102
}
330
F7C
100
AcDbXrecord
280
1
270
1
271
1
0
XRECORD
5
F81
102
{ACAD_REACTORS
330
F7C
102
}
330
F7C
100
AcDbXrecord
280
1
270
1
271
1
0
XRECORD
5
F80
102
{ACAD_REACTORS
330
F7C
102
}
330
F7C
100
AcDbXrecord
280
1
270
1
271
1
0
XRECORD
5
F82
102
{ACAD_REACTORS
330
F7C
102
}
330
F7C
100
AcDbXrecord
280
1
270
1
271
1
0
XRECORD
5
F7F
102
{ACAD_REACTORS
330
F7C
102
}
330
F7C
100
AcDbXrecord
280
1
270
1
271
1
0
XRECORD
5
1000
102
{ACAD_REACTORS
330
F8C
102
}
330
F8C
100
AcDbXrecord
280
1
102
MATERIAL
148
0.0
149
0.0
149
0.0
93
0
94
127
282
0
72
0
77
0
171
0
175
0
179
0
273
0
0
XRECORD
5
F8E
102
{ACAD_REACTORS
330
F8C
102
}
330
F8C
100
AcDbXrecord
280
1
270
1
271
1
0
XRECORD
5
F8D
102
{ACAD_REACTORS
330
F8C
102
}
330
F8C
100
AcDbXrecord
280
1
270
1
271
1
0
XRECORD
5
F91
102
{ACAD_REACTORS
330
F8C
102
}
330
F8C
100
AcDbXrecord
280
1
270
1
271
1
0
XRECORD
5
F90
102
{ACAD_REACTORS
330
F8C
102
}
330
F8C
100
AcDbXrecord
280
1
270
1
271
1
0
XRECORD
5
F92
102
{ACAD_REACTORS
330
F8C
102
}
330
F8C
100
AcDbXrecord
280
1
270
1
271
1
0
XRECORD
5
F8F
102
{ACAD_REACTORS
330
F8C
102
}
330
F8C
100
AcDbXrecord
280
1
270
1
271
1
0
CELLSTYLEMAP
5
1079
102
{ACAD_REACTORS
330
FF8
102
}
330
FF8
100
AcDbCellStyleMap
90
3
300
CELLSTYLE
1
TABLEFORMAT_BEGIN
90
5
170
1
91
0
92
32768
62
257
93
1
300
CONTENTFORMAT
1
CONTENTFORMAT_BEGIN
90
0
91
0
92
512
93
0
300

40
0.0
140
1.0
94
5
62
0
340
253
144
0.25
309
CONTENTFORMAT_END
171
1
301
MARGIN
1
CELLMARGIN_BEGIN
40
0.06
40
0.06
40
0.06
40
0.06
40
0.18
40
0.18
309
CELLMARGIN_END
94
6
95
1
302
GRIDFORMAT
1
GRIDFORMAT_BEGIN
90
0
91
1
62
0
92
-2
340
0
93
0
40
0.045
309
GRIDFORMAT_END
95
2
302
GRIDFORMAT
1
GRIDFORMAT_BEGIN
90
0
91
1
62
0
92
-2
340
0
93
0
40
0.045
309
GRIDFORMAT_END
95
4
302
GRIDFORMAT
1
GRIDFORMAT_BEGIN
90
0
91
1
62
0
92
-2
340
0
93
0
40
0.045
309
GRIDFORMAT_END
95
8
302
GRIDFORMAT
1
GRIDFORMAT_BEGIN
90
0
91
1
62
0
92
-2
340
0
93
0
40
0.045
309
GRIDFORMAT_END
95
16
302
GRIDFORMAT
1
GRIDFORMAT_BEGIN
90
0
91
1
62
0
92
-2
340
0
93
0
40
0.045
309
GRIDFORMAT_END
95
32
302
GRIDFORMAT
1
GRIDFORMAT_BEGIN
90
0
91
1
62
0
92
-2
340
0
93
0
40
0.045
309
GRIDFORMAT_END
309
TABLEFORMAT_END
1
CELLSTYLE_BEGIN
90
1
91
1
300
_TITLE
309
CELLSTYLE_END
300
CELLSTYLE
1
TABLEFORMAT_BEGIN
90
5
170
1
91
0
92
0
62
257
93
1
300
CONTENTFORMAT
1
CONTENTFORMAT_BEGIN
90
0
91
0
92
512
93
0
300

40
0.0
140
1.0
94
5
62
0
340
253
144
0.18
309
CONTENTFORMAT_END
171
1
301
MARGIN
1
CELLMARGIN_BEGIN
40
0.06
40
0.06
40
0.06
40
0.06
40
0.18
40
0.18
309
CELLMARGIN_END
94
6
95
1
302
GRIDFORMAT
1
GRIDFORMAT_BEGIN
90
0
91
1
62
0
92
-2
340
0
93
0
40
0.045
309
GRIDFORMAT_END
95
2
302
GRIDFORMAT
1
GRIDFORMAT_BEGIN
90
0
91
1
62
0
92
-2
340
0
93
0
40
0.045
309
GRIDFORMAT_END
95
4
302
GRIDFORMAT
1
GRIDFORMAT_BEGIN
90
0
91
1
62
0
92
-2
340
0
93
0
40
0.045
309
GRIDFORMAT_END
95
8
302
GRIDFORMAT
1
GRIDFORMAT_BEGIN
90
0
91
1
62
0
92
-2
340
0
93
0
40
0.045
309
GRIDFORMAT_END
95
16
302
GRIDFORMAT
1
GRIDFORMAT_BEGIN
90
0
91
1
62
0
92
-2
340
0
93
0
40
0.045
309
GRIDFORMAT_END
95
32
302
GRIDFORMAT
1
GRIDFORMAT_BEGIN
90
0
91
1
62
0
92
-2
340
0
93
0
40
0.045
309
GRIDFORMAT_END
309
TABLEFORMAT_END
1
CELLSTYLE_BEGIN
90
2
91
1
300
_HEADER
309
CELLSTYLE_END
300
CELLSTYLE
1
TABLEFORMAT_BEGIN
90
5
170
1
91
0
92
0
62
257
93
1
300
CONTENTFORMAT
1
CONTENTFORMAT_BEGIN
90
0
91
0
92
512
93
0
300

40
0.0
140
1.0
94
2
62
0
340
253
144
0.18
309
CONTENTFORMAT_END
171
1
301
MARGIN
1
CELLMARGIN_BEGIN
40
0.06
40
0.06
40
0.06
40
0.06
40
0.18
40
0.18
309
CELLMARGIN_END
94
6
95
1
302
GRIDFORMAT
1
GRIDFORMAT_BEGIN
90
0
91
1
62
0
92
-2
340
0
93
0
40
0.045
309
GRIDFORMAT_END
95
2
302
GRIDFORMAT
1
GRIDFORMAT_BEGIN
90
0
91
1
62
0
92
-2
340
0
93
0
40
0.045
309
GRIDFORMAT_END
95
4
302
GRIDFORMAT
1
GRIDFORMAT_BEGIN
90
0
91
1
62
0
92
-2
340
0
93
0
40
0.045
309
GRIDFORMAT_END
95
8
302
GRIDFORMAT
1
GRIDFORMAT_BEGIN
90
0
91
1
62
0
92
-2
340
0
93
0
40
0.045
309
GRIDFORMAT_END
95
16
302
GRIDFORMAT
1
GRIDFORMAT_BEGIN
90
0
91
1
62
0
92
-2
340
0
93
0
40
0.045
309
GRIDFORMAT_END
95
32
302
GRIDFORMAT
1
GRIDFORMAT_BEGIN
90
0
91
1
62
0
92
-2
340
0
93
0
40
0.045
309
GRIDFORMAT_END
309
TABLEFORMAT_END
1
CELLSTYLE_BEGIN
90
3
91
2
300
_DATA
309
CELLSTYLE_END
0
XRECORD
5
10A6
102
{ACAD_REACTORS
330
FF8
102
}
330
FF8
100
AcDbXrecord
280
1
102
ACAD_ROUNDTRIP_PRE2007_TABLESTYLE
90
512
91
0
1

92
512
93
0
2

94
512
95
0
3

0
XRECORD
5
108B
102
{ACAD_REACTORS
330
108A
102
}
330
108A
100
AcDbXrecord
280
1
102
RTVSPropertyOp0
70
1
102
RTVSPropertyOp1
70
1
102
RTVSPropertyOp2
70
1
102
RTVSPropertyOp3
70
1
102
RTVSPropertyOp4
70
1
102
RTVSPropertyOp5
70
1
102
RTVSPropertyOp6
70
1
102
RTVSPropertyOp7
70
1
102
RTVSPropertyOp8
70
1
102
RTVSPropertyOp9
70
1
102
RTVSPropertyOp10
70
1
102
RTVSPropertyOp11
70
1
102
RTVSPropertyOp12
70
1
102
RTVSPropertyOp13
70
1
102
RTVSPropertyOp14
70
1
102
RTVSPropertyOp15
70
1
102
RTVSPropertyOp16
70
1
102
RTVSPropertyOp17
70
1
102
RTVSPropertyOp18
70
1
102
RTVSPropertyOp19
70
1
102
RTVSPropertyOp20
70
1
102
RTVSPropertyOp21
70
1
102
RTVSPropertyOp22
70
1
102
RTVSPropertyOp23
70
1
102
RTVSPropertyOp24
70
1
102
RTVSPropertyOp25
70
1
102
RTVSPropertyOp26
70
1
102
RTVSPropertyOp27
70
1
0
XRECORD
5
108F
102
{ACAD_REACTORS
330
108E
102
}
330
108E
100
AcDbXrecord
280
1
102
RTVSPropertyOp0
70
1
102
RTVSPropertyOp1
70
1
102
RTVSPropertyOp2
70
1
102
RTVSPropertyOp3
70
1
102
RTVSPropertyOp4
70
1
102
RTVSPropertyOp5
70
1
102
RTVSPropertyOp6
70
1
102
RTVSPropertyOp7
70
1
102
RTVSPropertyOp8
70
1
102
RTVSPropertyOp9
70
1
102
RTVSPropertyOp10
70
1
102
RTVSPropertyOp11
70
1
102
RTVSPropertyOp12
70
1
102
RTVSPropertyOp13
70
1
102
RTVSPropertyOp14
70
1
102
RTVSPropertyOp15
70
1
102
RTVSPropertyOp16
70
1
102
RTVSPropertyOp17
70
1
102
RTVSPropertyOp18
70
1
102
RTVSPropertyOp19
70
1
102
RTVSPropertyOp20
70
1
102
RTVSPropertyOp21
70
1
102
RTVSPropertyOp22
70
1
102
RTVSPropertyOp23
70
1
102
RTVSPropertyOp24
70
1
102
RTVSPropertyOp25
70
1
102
RTVSPropertyOp26
70
1
102
RTVSPropertyOp27
70
1
0
XRECORD
5
108D
102
{ACAD_REACTORS
330
108C
102
}
330
108C
100
AcDbXrecord
280
1
102
RTVSPropertyOp0
70
1
102
RTVSPropertyOp1
70
1
102
RTVSPropertyOp2
70
1
102
RTVSPropertyOp3
70
1
102
RTVSPropertyOp4
70
1
102
RTVSPropertyOp5
70
1
102
RTVSPropertyOp6
70
1
102
RTVSPropertyOp7
70
1
102
RTVSPropertyOp8
70
1
102
RTVSPropertyOp9
70
1
102
RTVSPropertyOp10
70
1
102
RTVSPropertyOp11
70
1
102
RTVSPropertyOp12
70
1
102
RTVSPropertyOp13
70
1
102
RTVSPropertyOp14
70
1
102
RTVSPropertyOp15
70
1
102
RTVSPropertyOp16
70
1
102
RTVSPropertyOp17
70
1
102
RTVSPropertyOp18
70
1
102
RTVSPropertyOp19
70
1
102
RTVSPropertyOp20
70
1
102
RTVSPropertyOp21
70
1
102
RTVSPropertyOp22
70
1
102
RTVSPropertyOp23
70
1
102
RTVSPropertyOp24
70
1
102
RTVSPropertyOp25
70
1
102
RTVSPropertyOp26
70
1
102
RTVSPropertyOp27
70
1
0
XRECORD
5
1089
102
{ACAD_REACTORS
330
1088
102
}
330
1088
100
AcDbXrecord
280
1
102
RTVSPropertyOp0
70
1
102
RTVSPropertyOp1
70
1
102
RTVSPropertyOp2
70
1
102
RTVSPropertyOp3
70
1
102
RTVSPropertyOp4
70
1
102
RTVSPropertyOp5
70
1
102
RTVSPropertyOp6
70
1
102
RTVSPropertyOp7
70
1
102
RTVSPropertyOp8
70
1
102
RTVSPropertyOp9
70
1
102
RTVSPropertyOp10
70
1
102
RTVSPropertyOp11
70
1
102
RTVSPropertyOp12
70
1
102
RTVSPropertyOp13
70
1
102
RTVSPropertyOp14
70
1
102
RTVSPropertyOp15
70
1
102
RTVSPropertyOp16
70
1
102
RTVSPropertyOp17
70
1
102
RTVSPropertyOp18
70
1
102
RTVSPropertyOp19
70
1
102
RTVSPropertyOp20
70
1
102
RTVSPropertyOp21
70
1
102
RTVSPropertyOp22
70
1
102
RTVSPropertyOp23
70
1
102
RTVSPropertyOp24
70
1
102
RTVSPropertyOp25
70
1
102
RTVSPropertyOp26
70
1
102
RTVSPropertyOp27
70
1
0
XRECORD
5
1097
102
{ACAD_REACTORS
330
1096
102
}
330
1096
100
AcDbXrecord
280
1
102
RTVSPropertyOp0
70
1
102
RTVSPropertyOp1
70
1
102
RTVSPropertyOp2
70
1
102
RTVSPropertyOp3
70
1
102
RTVSPropertyOp4
70
1
102
RTVSPropertyOp5
70
1
102
RTVSPropertyOp6
70
1
102
RTVSPropertyOp7
70
1
102
RTVSPropertyOp8
70
1
102
RTVSPropertyOp9
70
1
102
RTVSPropertyOp10
70
1
102
RTVSPropertyOp11
70
1
102
RTVSPropertyOp12
70
1
102
RTVSPropertyOp13
70
1
102
RTVSPropertyOp14
70
1
102
RTVSPropertyOp15
70
1
102
RTVSPropertyOp16
70
1
102
RTVSPropertyOp17
70
1
102
RTVSPropertyOp18
70
1
102
RTVSPropertyOp19
70
1
102
RTVSPropertyOp20
70
1
102
RTVSPropertyOp21
70
1
102
RTVSPropertyOp22
70
1
102
RTVSPropertyOp23
70
1
102
RTVSPropertyOp24
70
1
102
RTVSPropertyOp25
70
1
102
RTVSPropertyOp26
70
1
102
RTVSPropertyOp27
70
1
0
XRECORD
5
109F
102
{ACAD_REACTORS
330
109E
102
}
330
109E
100
AcDbXrecord
280
1
102
RTVSPropertyOp0
70
1
102
RTVSPropertyOp1
70
1
102
RTVSPropertyOp2
70
1
102
RTVSPropertyOp3
70
1
102
RTVSPropertyOp4
70
1
102
RTVSPropertyOp5
70
1
102
RTVSPropertyOp6
70
1
102
RTVSPropertyOp7
70
1
102
RTVSPropertyOp8
70
1
102
RTVSPropertyOp9
70
1
102
RTVSPropertyOp10
70
1
102
RTVSPropertyOp11
70
1
102
RTVSPropertyOp12
70
1
102
RTVSPropertyOp13
70
1
102
RTVSPropertyOp14
70
1
102
RTVSPropertyOp15
70
1
102
RTVSPropertyOp16
70
1
102
RTVSPropertyOp17
70
1
102
RTVSPropertyOp18
70
1
102
RTVSPropertyOp19
70
1
102
RTVSPropertyOp20
70
1
102
RTVSPropertyOp21
70
1
102
RTVSPropertyOp22
70
1
102
RTVSPropertyOp23
70
1
102
RTVSPropertyOp24
70
1
102
RTVSPropertyOp25
70
1
102
RTVSPropertyOp26
70
1
102
RTVSPropertyOp27
70
1
0
XRECORD
5
1091
102
{ACAD_REACTORS
330
1090
102
}
330
1090
100
AcDbXrecord
280
1
102
RTVSPropertyOp0
70
1
102
RTVSPropertyOp1
70
1
102
RTVSPropertyOp2
70
1
102
RTVSPropertyOp3
70
1
102
RTVSPropertyOp4
70
1
102
RTVSPropertyOp5
70
1
102
RTVSPropertyOp6
70
1
102
RTVSPropertyOp7
70
1
102
RTVSPropertyOp8
70
1
102
RTVSPropertyOp9
70
1
102
RTVSPropertyOp10
70
1
102
RTVSPropertyOp11
70
1
102
RTVSPropertyOp12
70
1
102
RTVSPropertyOp13
70
1
102
RTVSPropertyOp14
70
1
102
RTVSPropertyOp15
70
1
102
RTVSPropertyOp16
70
1
102
RTVSPropertyOp17
70
1
102
RTVSPropertyOp18
70
1
102
RTVSPropertyOp19
70
1
102
RTVSPropertyOp20
70
1
102
RTVSPropertyOp21
70
1
102
RTVSPropertyOp22
70
1
102
RTVSPropertyOp23
70
1
102
RTVSPropertyOp24
70
1
102
RTVSPropertyOp25
70
1
102
RTVSPropertyOp26
70
1
102
RTVSPropertyOp27
70
1
0
XRECORD
5
1095
102
{ACAD_REACTORS
330
1094
102
}
330
1094
100
AcDbXrecord
280
1
102
RTVSPropertyOp0
70
1
102
RTVSPropertyOp1
70
1
102
RTVSPropertyOp2
70
1
102
RTVSPropertyOp3
70
1
102
RTVSPropertyOp4
70
1
102
RTVSPropertyOp5
70
1
102
RTVSPropertyOp6
70
1
102
RTVSPropertyOp7
70
1
102
RTVSPropertyOp8
70
1
102
RTVSPropertyOp9
70
1
102
RTVSPropertyOp10
70
1
102
RTVSPropertyOp11
70
1
102
RTVSPropertyOp12
70
1
102
RTVSPropertyOp13
70
1
102
RTVSPropertyOp14
70
1
102
RTVSPropertyOp15
70
1
102
RTVSPropertyOp16
70
1
102
RTVSPropertyOp17
70
1
102
RTVSPropertyOp18
70
1
102
RTVSPropertyOp19
70
1
102
RTVSPropertyOp20
70
1
102
RTVSPropertyOp21
70
1
102
RTVSPropertyOp22
70
1
102
RTVSPropertyOp23
70
1
102
RTVSPropertyOp24
70
1
102
RTVSPropertyOp25
70
1
102
RTVSPropertyOp26
70
1
102
RTVSPropertyOp27
70
1
0
XRECORD
5
10A5
102
{ACAD_REACTORS
330
10A4
102
}
330
10A4
100
AcDbXrecord
280
1
102
RTVSPropertyOp0
70
0
102
RTVSPropertyOp1
70
0
102
RTVSPropertyOp2
70
0
102
RTVSPropertyOp3
70
0
102
RTVSPropertyOp4
70
0
102
RTVSPropertyOp5
70
0
102
RTVSPropertyOp6
70
0
102
RTVSPropertyOp7
70
0
102
RTVSPropertyOp8
70
0
102
RTVSPropertyOp9
70
0
102
RTVSPropertyOp10
70
0
102
RTVSPropertyOp11
70
0
102
RTVSPropertyOp12
70
0
102
RTVSPropertyOp13
70
0
102
RTVSPropertyOp14
70
2
102
RTVSPropertyOp15
70
0
102
RTVSPropertyOp16
70
0
102
RTVSPropertyOp17
70
0
102
RTVSPropertyOp18
70
0
102
RTVSPropertyOp19
70
0
102
RTVSPropertyOp20
70
0
102
RTVSPropertyOp21
70
0
102
RTVSPropertyOp22
70
0
102
RTVSPropertyOp23
70
0
102
RTVSPropertyOp24
70
0
102
RTVSPropertyOp25
70
0
102
RTVSPropertyOp26
70
0
102
RTVSPropertyOp27
70
0
0
XRECORD
5
109D
102
{ACAD_REACTORS
330
109C
102
}
330
109C
100
AcDbXrecord
280
1
102
RTVSPropertyOp0
70
1
102
RTVSPropertyOp1
70
1
102
RTVSPropertyOp2
70
1
102
RTVSPropertyOp3
70
1
102
RTVSPropertyOp4
70
1
102
RTVSPropertyOp5
70
1
102
RTVSPropertyOp6
70
1
102
RTVSPropertyOp7
70
1
102
RTVSPropertyOp8
70
1
102
RTVSPropertyOp9
70
1
102
RTVSPropertyOp10
70
1
102
RTVSPropertyOp11
70
1
102
RTVSPropertyOp12
70
1
102
RTVSPropertyOp13
70
1
102
RTVSPropertyOp14
70
1
102
RTVSPropertyOp15
70
1
102
RTVSPropertyOp16
70
1
102
RTVSPropertyOp17
70
1
102
RTVSPropertyOp18
70
1
102
RTVSPropertyOp19
70
1
102
RTVSPropertyOp20
70
1
102
RTVSPropertyOp21
70
1
102
RTVSPropertyOp22
70
1
102
RTVSPropertyOp23
70
1
102
RTVSPropertyOp24
70
1
102
RTVSPropertyOp25
70
1
102
RTVSPropertyOp26
70
1
102
RTVSPropertyOp27
70
1
0
XRECORD
5
1081
102
{ACAD_REACTORS
330
1080
102
}
330
1080
100
AcDbXrecord
280
1
102
RTVSPropertyOp0
70
1
102
RTVSPropertyOp1
70
1
102
RTVSPropertyOp2
70
1
102
RTVSPropertyOp3
70
1
102
RTVSPropertyOp4
70
1
102
RTVSPropertyOp5
70
1
102
RTVSPropertyOp6
70
1
102
RTVSPropertyOp7
70
1
102
RTVSPropertyOp8
70
1
102
RTVSPropertyOp9
70
1
102
RTVSPropertyOp10
70
1
102
RTVSPropertyOp11
70
1
102
RTVSPropertyOp12
70
1
102
RTVSPropertyOp13
70
1
102
RTVSPropertyOp14
70
1
102
RTVSPropertyOp15
70
1
102
RTVSPropertyOp16
70
1
102
RTVSPropertyOp17
70
1
102
RTVSPropertyOp18
70
1
102
RTVSPropertyOp19
70
1
102
RTVSPropertyOp20
70
1
102
RTVSPropertyOp21
70
1
102
RTVSPropertyOp22
70
1
102
RTVSPropertyOp23
70
1
102
RTVSPropertyOp24
70
1
102
RTVSPropertyOp25
70
1
102
RTVSPropertyOp26
70
1
102
RTVSPropertyOp27
70
1
0
XRECORD
5
1083
102
{ACAD_REACTORS
330
1082
102
}
330
1082
100
AcDbXrecord
280
1
102
RTVSPropertyOp0
70
1
102
RTVSPropertyOp1
70
1
102
RTVSPropertyOp2
70
1
102
RTVSPropertyOp3
70
1
102
RTVSPropertyOp4
70
1
102
RTVSPropertyOp5
70
1
102
RTVSPropertyOp6
70
1
102
RTVSPropertyOp7
70
1
102
RTVSPropertyOp8
70
1
102
RTVSPropertyOp9
70
1
102
RTVSPropertyOp10
70
1
102
RTVSPropertyOp11
70
1
102
RTVSPropertyOp12
70
1
102
RTVSPropertyOp13
70
1
102
RTVSPropertyOp14
70
1
102
RTVSPropertyOp15
70
1
102
RTVSPropertyOp16
70
1
102
RTVSPropertyOp17
70
1
102
RTVSPropertyOp18
70
1
102
RTVSPropertyOp19
70
1
102
RTVSPropertyOp20
70
1
102
RTVSPropertyOp21
70
1
102
RTVSPropertyOp22
70
1
102
RTVSPropertyOp23
70
1
102
RTVSPropertyOp24
70
1
102
RTVSPropertyOp25
70
1
102
RTVSPropertyOp26
70
1
102
RTVSPropertyOp27
70
1
0
XRECORD
5
1085
102
{ACAD_REACTORS
330
1084
102
}
330
1084
100
AcDbXrecord
280
1
102
RTVSPropertyOp0
70
1
102
RTVSPropertyOp1
70
1
102
RTVSPropertyOp2
70
1
102
RTVSPropertyOp3
70
1
102
RTVSPropertyOp4
70
1
102
RTVSPropertyOp5
70
1
102
RTVSPropertyOp6
70
1
102
RTVSPropertyOp7
70
1
102
RTVSPropertyOp8
70
1
102
RTVSPropertyOp9
70
1
102
RTVSPropertyOp10
70
1
102
RTVSPropertyOp11
70
1
102
RTVSPropertyOp12
70
1
102
RTVSPropertyOp13
70
1
102
RTVSPropertyOp14
70
1
102
RTVSPropertyOp15
70
1
102
RTVSPropertyOp16
70
1
102
RTVSPropertyOp17
70
1
102
RTVSPropertyOp18
70
1
102
RTVSPropertyOp19
70
1
102
RTVSPropertyOp20
70
1
102
RTVSPropertyOp21
70
1
102
RTVSPropertyOp22
70
1
102
RTVSPropertyOp23
70
1
102
RTVSPropertyOp24
70
1
102
RTVSPropertyOp25
70
1
102
RTVSPropertyOp26
70
1
102
RTVSPropertyOp27
70
1
0
XRECORD
5
1087
102
{ACAD_REACTORS
330
1086
102
}
330
1086
100
AcDbXrecord
280
1
102
RTVSPropertyOp0
70
1
102
RTVSPropertyOp1
70
1
102
RTVSPropertyOp2
70
1
102
RTVSPropertyOp3
70
1
102
RTVSPropertyOp4
70
1
102
RTVSPropertyOp5
70
1
102
RTVSPropertyOp6
70
1
102
RTVSPropertyOp7
70
1
102
RTVSPropertyOp8
70
1
102
RTVSPropertyOp9
70
1
102
RTVSPropertyOp10
70
1
102
RTVSPropertyOp11
70
1
102
RTVSPropertyOp12
70
1
102
RTVSPropertyOp13
70
1
102
RTVSPropertyOp14
70
1
102
RTVSPropertyOp15
70
1
102
RTVSPropertyOp16
70
1
102
RTVSPropertyOp17
70
1
102
RTVSPropertyOp18
70
1
102
RTVSPropertyOp19
70
1
102
RTVSPropertyOp20
70
1
102
RTVSPropertyOp21
70
1
102
RTVSPropertyOp22
70
1
102
RTVSPropertyOp23
70
1
102
RTVSPropertyOp24
70
1
102
RTVSPropertyOp25
70
1
102
RTVSPropertyOp26
70
1
102
RTVSPropertyOp27
70
1
0
XRECORD
5
10A1
102
{ACAD_REACTORS
330
10A0
102
}
330
10A0
100
AcDbXrecord
280
1
102
RTVSPropertyOp0
70
0
102
RTVSPropertyOp1
70
0
102
RTVSPropertyOp2
70
0
102
RTVSPropertyOp3
70
0
102
RTVSPropertyOp4
70
0
102
RTVSPropertyOp5
70
0
102
RTVSPropertyOp6
70
0
102
RTVSPropertyOp7
70
0
102
RTVSPropertyOp8
70
0
102
RTVSPropertyOp9
70
0
102
RTVSPropertyOp10
70
0
102
RTVSPropertyOp11
70
0
102
RTVSPropertyOp12
70
0
102
RTVSPropertyOp13
70
0
102
RTVSPropertyOp14
70
2
102
RTVSPropertyOp15
70
0
102
RTVSPropertyOp16
70
0
102
RTVSPropertyOp17
70
0
102
RTVSPropertyOp18
70
0
102
RTVSPropertyOp19
70
0
102
RTVSPropertyOp20
70
0
102
RTVSPropertyOp21
70
0
102
RTVSPropertyOp22
70
0
102
RTVSPropertyOp23
70
0
102
RTVSPropertyOp24
70
0
102
RTVSPropertyOp25
70
0
102
RTVSPropertyOp26
70
0
102
RTVSPropertyOp27
70
0
0
XRECORD
5
109B
102
{ACAD_REACTORS
330
109A
102
}
330
109A
100
AcDbXrecord
280
1
102
RTVSPropertyOp0
70
1
102
RTVSPropertyOp1
70
1
102
RTVSPropertyOp2
70
1
102
RTVSPropertyOp3
70
1
102
RTVSPropertyOp4
70
1
102
RTVSPropertyOp5
70
1
102
RTVSPropertyOp6
70
1
102
RTVSPropertyOp7
70
1
102
RTVSPropertyOp8
70
1
102
RTVSPropertyOp9
70
1
102
RTVSPropertyOp10
70
1
102
RTVSPropertyOp11
70
1
102
RTVSPropertyOp12
70
1
102
RTVSPropertyOp13
70
1
102
RTVSPropertyOp14
70
1
102
RTVSPropertyOp15
70
1
102
RTVSPropertyOp16
70
1
102
RTVSPropertyOp17
70
1
102
RTVSPropertyOp18
70
1
102
RTVSPropertyOp19
70
1
102
RTVSPropertyOp20
70
1
102
RTVSPropertyOp21
70
1
102
RTVSPropertyOp22
70
1
102
RTVSPropertyOp23
70
1
102
RTVSPropertyOp24
70
1
102
RTVSPropertyOp25
70
1
102
RTVSPropertyOp26
70
1
102
RTVSPropertyOp27
70
1
0
XRECORD
5
10A3
102
{ACAD_REACTORS
330
10A2
102
}
330
10A2
100
AcDbXrecord
280
1
102
RTVSPropertyOp0
70
0
102
RTVSPropertyOp1
70
0
102
RTVSPropertyOp2
70
0
102
RTVSPropertyOp3
70
0
102
RTVSPropertyOp4
70
0
102
RTVSPropertyOp5
70
0
102
RTVSPropertyOp6
70
0
102
RTVSPropertyOp7
70
0
102
RTVSPropertyOp8
70
0
102
RTVSPropertyOp9
70
0
102
RTVSPropertyOp10
70
0
102
RTVSPropertyOp11
70
0
102
RTVSPropertyOp12
70
0
102
RTVSPropertyOp13
70
0
102
RTVSPropertyOp14
70
2
102
RTVSPropertyOp15
70
0
102
RTVSPropertyOp16
70
0
102
RTVSPropertyOp17
70
0
102
RTVSPropertyOp18
70
0
102
RTVSPropertyOp19
70
0
102
RTVSPropertyOp20
70
0
102
RTVSPropertyOp21
70
0
102
RTVSPropertyOp22
70
0
102
RTVSPropertyOp23
70
0
102
RTVSPropertyOp24
70
0
102
RTVSPropertyOp25
70
0
102
RTVSPropertyOp26
70
0
102
RTVSPropertyOp27
70
0
0
XRECORD
5
1093
102
{ACAD_REACTORS
330
1092
102
}
330
1092
100
AcDbXrecord
280
1
102
RTVSPropertyOp0
70
1
102
RTVSPropertyOp1
70
1
102
RTVSPropertyOp2
70
1
102
RTVSPropertyOp3
70
1
102
RTVSPropertyOp4
70
1
102
RTVSPropertyOp5
70
1
102
RTVSPropertyOp6
70
1
102
RTVSPropertyOp7
70
1
102
RTVSPropertyOp8
70
1
102
RTVSPropertyOp9
70
1
102
RTVSPropertyOp10
70
1
102
RTVSPropertyOp11
70
1
102
RTVSPropertyOp12
70
1
102
RTVSPropertyOp13
70
1
102
RTVSPropertyOp14
70
1
102
RTVSPropertyOp15
70
1
102
RTVSPropertyOp16
70
1
102
RTVSPropertyOp17
70
1
102
RTVSPropertyOp18
70
1
102
RTVSPropertyOp19
70
1
102
RTVSPropertyOp20
70
1
102
RTVSPropertyOp21
70
1
102
RTVSPropertyOp22
70
1
102
RTVSPropertyOp23
70
1
102
RTVSPropertyOp24
70
1
102
RTVSPropertyOp25
70
1
102
RTVSPropertyOp26
70
1
102
RTVSPropertyOp27
70
1
0
XRECORD
5
1099
102
{ACAD_REACTORS
330
1098
102
}
330
1098
100
AcDbXrecord
280
1
102
RTVSPropertyOp0
70
1
102
RTVSPropertyOp1
70
1
102
RTVSPropertyOp2
70
1
102
RTVSPropertyOp3
70
1
102
RTVSPropertyOp4
70
1
102
RTVSPropertyOp5
70
1
102
RTVSPropertyOp6
70
1
102
RTVSPropertyOp7
70
1
102
RTVSPropertyOp8
70
1
102
RTVSPropertyOp9
70
1
102
RTVSPropertyOp10
70
1
102
RTVSPropertyOp11
70
1
102
RTVSPropertyOp12
70
1
102
RTVSPropertyOp13
70
1
102
RTVSPropertyOp14
70
1
102
RTVSPropertyOp15
70
1
102
RTVSPropertyOp16
70
1
102
RTVSPropertyOp17
70
1
102
RTVSPropertyOp18
70
1
102
RTVSPropertyOp19
70
1
102
RTVSPropertyOp20
70
1
102
RTVSPropertyOp21
70
1
102
RTVSPropertyOp22
70
1
102
RTVSPropertyOp23
70
1
102
RTVSPropertyOp24
70
1
102
RTVSPropertyOp25
70
1
102
RTVSPropertyOp26
70
1
102
RTVSPropertyOp27
70
1
0
ENDSEC
0
EOF
