0
SECTION
2
HEADER
9
$ACADVER
1
AC1015
9
$ACADMAINTVER
70
20
9
$DWGCODEPAGE
3
ANSI_1252
9
$INSBASE
10
0.0
20
0.0
30
0.0
9
$EXTMIN
10
-150.000000000000
20
-105.000000000000
30
0.0
9
$EXTMAX
10
150.000000000000
20
105.000000000000
30
0.0
9
$LIMMIN
10
0.0
20
0.0
9
$LIMMAX
10
12.0
20
9.0
9
$ORTHOMODE
70
0
9
$REGENMODE
70
1
9
$FILLMODE
70
1
9
$QTEXTMODE
70
0
9
$MIRRTEXT
70
1
9
$LTSCALE
40
1.0
9
$ATTMODE
70
1
9
$TEXTSIZE
40
0.2
9
$TRACEWID
40
0.05
9
$TEXTSTYLE
7
Standard
9
$CLAYER
8
0
9
$CELTYPE
6
ByLayer
9
$CECOLOR
62
256
9
$CELTSCALE
40
1.0
9
$DISPSILH
70
0
9
$DIMSCALE
40
1.0
9
$DIMASZ
40
2.5
9
$DIMEXO
40
0.625
9
$DIMDLI
40
0.38
9
$DIMRND
40
0.0
9
$DIMDLE
40
0.0
9
$DIMEXE
40
1.25
9
$DIMTP
40
0.0
9
$DIMTM
40
0.000000001
9
$DIMTXT
40
2.5
9
$DIMCEN
40
0.09
9
$DIMTSZ
40
0.0
9
$DIMTOL
70
1
9
$DIMLIM
70
0
9
$DIMTIH
70
0
9
$DIMTOH
70
0
9
$DIMSE1
70
0
9
$DIMSE2
70
0
9
$DIMTAD
70
1
9
$DIMZIN
70
0
9
$DIMBLK
1
VDDIM_DEFAULT
9
$DIMASO
70
1
9
$DIMSHO
70
1
9
$DIMPOST
1

9
$DIMAPOST
1

9
$DIMALT
70
0
9
$DIMALTD
70
2
9
$DIMALTF
40
25.4
9
$DIMLFAC
40
1.00000000000000
9
$DIMTOFL
70
0
9
$DIMTVP
40
0.0
9
$DIMTIX
70
0
9
$DIMSOXD
70
0
9
$DIMSAH
70
0
9
$DIMBLK1
1

9
$DIMBLK2
1

9
$DIMSTYLE
2
BEM-ISBE
9
$DIMCLRD
70
0
9
$DIMCLRE
70
0
9
$DIMCLRT
70
0
9
$DIMTFAC
40
0.5
9
$DIMGAP
40
0.625
9
$DIMJUST
70
0
9
$DIMSD1
70
0
9
$DIMSD2
70
0
9
$DIMTOLJ
70
1
9
$DIMTZIN
70
0
9
$DIMALTZ
70
0
9
$DIMALTTZ
70
0
9
$DIMUPT
70
0
9
$DIMDEC
70
3
9
$DIMTDEC
70
3
9
$DIMALTU
70
2
9
$DIMALTTD
70
2
9
$DIMTXSTY
7
Standard
9
$DIMAUNIT
70
0
9
$DIMADEC
70
3
9
$DIMALTRND
40
0.0
9
$DIMAZIN
70
0
9
$DIMDSEP
70
46
9
$DIMATFIT
70
3
9
$DIMFRAC
70
0
9
$DIMLDRBLK
1

9
$DIMLUNIT
70
2
9
$DIMLWD
70
-2
9
$DIMLWE
70
-2
9
$DIMTMOVE
70
0
9
$LUNITS
70
2
9
$LUPREC
70
4
9
$SKETCHINC
40
0.1
9
$FILLETRAD
40
0.5
9
$AUNITS
70
0
9
$AUPREC
70
0
9
$MENU
1
.
9
$ELEVATION
40
0.0
9
$PELEVATION
40
0.0
9
$THICKNESS
40
0.0
9
$LIMCHECK
70
0
9
$CHAMFERA
40
0.5
9
$CHAMFERB
40
0.5
9
$CHAMFERC
40
1.0
9
$CHAMFERD
40
0.0
9
$SKPOLY
70
0
9
$TDCREATE
40
0.0
9
$TDUCREATE
40
0.0
9
$TDUPDATE
40
0.0
9
$TDUUPDATE
40
0.0
9
$TDINDWG
40
0.0
9
$TDUSRTIMER
40
0.0
9
$USRTIMER
70
1
9
$ANGBASE
50
0.0
9
$ANGDIR
70
0
9
$PDMODE
70
0
9
$PDSIZE
40
0.0
9
$PLINEWID
40
0.0
9
$SPLFRAME
70
0
9
$SPLINETYPE
70
6
9
$SPLINESEGS
70
8
9
$HANDSEED
5
10AB
9
$SURFTAB1
70
6
9
$SURFTAB2
70
6
9
$SURFTYPE
70
6
9
$SURFU
70
6
9
$SURFV
70
6
9
$UCSBASE
2

9
$UCSNAME
2

9
$UCSORG
10
0.0
20
0.0
30
0.0
9
$UCSXDIR
10
1.0
20
0.0
30
0.0
9
$UCSYDIR
10
0.0
20
1.0
30
0.0
9
$UCSORTHOREF
2

9
$UCSORTHOVIEW
70
0
9
$UCSORGTOP
10
0.0
20
0.0
30
0.0
9
$UCSORGBOTTOM
10
0.0
20
0.0
30
0.0
9
$UCSORGLEFT
10
0.0
20
0.0
30
0.0
9
$UCSORGRIGHT
10
0.0
20
0.0
30
0.0
9
$UCSORGFRONT
10
0.0
20
0.0
30
0.0
9
$UCSORGBACK
10
0.0
20
0.0
30
0.0
9
$PUCSBASE
2

9
$PUCSNAME
2

9
$PUCSORG
10
0.0
20
0.0
30
0.0
9
$PUCSXDIR
10
1.0
20
0.0
30
0.0
9
$PUCSYDIR
10
0.0
20
1.0
30
0.0
9
$PUCSORTHOREF
2

9
$PUCSORTHOVIEW
70
0
9
$PUCSORGTOP
10
0.0
20
0.0
30
0.0
9
$PUCSORGBOTTOM
10
0.0
20
0.0
30
0.0
9
$PUCSORGLEFT
10
0.0
20
0.0
30
0.0
9
$PUCSORGRIGHT
10
0.0
20
0.0
30
0.0
9
$PUCSORGFRONT
10
0.0
20
0.0
30
0.0
9
$PUCSORGBACK
10
0.0
20
0.0
30
0.0
9
$USERI1
70
0
9
$USERI2
70
0
9
$USERI3
70
0
9
$USERI4
70
0
9
$USERI5
70
0
9
$USERR1
40
0.0
9
$USERR2
40
0.0
9
$USERR3
40
0.0
9
$USERR4
40
0.0
9
$USERR5
40
0.0
9
$WORLDVIEW
70
1
9
$SHADEDGE
70
3
9
$SHADEDIF
70
70
9
$TILEMODE
70
1
9
$MAXACTVP
70
64
9
$PINSBASE
10
0.0
20
0.0
30
0.0
9
$PLIMCHECK
70
0
9
$PEXTMIN
10
1.000000000000000E+20
20
1.000000000000000E+20
30
1.000000000000000E+20
9
$PEXTMAX
10
-1.000000000000000E+20
20
-1.000000000000000E+20
30
-1.000000000000000E+20
9
$PLIMMIN
10
0.0
20
0.0
9
$PLIMMAX
10
12.0
20
9.0
9
$UNITMODE
70
0
9
$VISRETAIN
70
1
9
$PLINEGEN
70
0
9
$PSLTSCALE
70
1
9
$TREEDEPTH
70
3020
9
$CMLSTYLE
2
Standard
9
$CMLJUST
70
0
9
$CMLSCALE
40
1.0
9
$PROXYGRAPHICS
70
1
9
$MEASUREMENT
70
0
9
$CELWEIGHT
370
-1
9
$ENDCAPS
280
0
9
$JOINSTYLE
280
0
9
$LWDISPLAY
290
0
9
$INSUNITS
70
4
9
$HYPERLINKBASE
1

9
$STYLESHEET
1

9
$XEDIT
290
1
9
$CEPSNTYPE
380
0
9
$PSTYLEMODE
290
0
9
$FINGERPRINTGUID
2
{FAEB1C30-E019-11D5-929B-00C0DF256EC4}
9
$VERSIONGUID
2
{04C5C4E4-4947-4D90-8812-D401569E61F7}
9
$EXTNAMES
290
1
9
$PSVPSCALE
40
0.0
9
$OLESTARTUP
290
0
0
ENDSEC
0
SECTION
2
CLASSES
0
CLASS
1
ACDBDICTIONARYWDFLT
2
AcDbDictionaryWithDefault
3
ObjectDBX Classes
90
0
280
0
281
0
0
CLASS
1
ACDBPLACEHOLDER
2
AcDbPlaceHolder
3
ObjectDBX Classes
90
0
280
0
281
0
0
CLASS
1
LAYOUT
2
AcDbLayout
3
ObjectDBX Classes
90
0
280
0
281
0
0
CLASS
1
MATERIAL
2
AcDbMaterial
3
ObjectDBX Classes
90
1153
280
0
281
0
0
CLASS
1
VISUALSTYLE
2
AcDbVisualStyle
3
ObjectDBX Classes
90
4095
280
0
281
0
0
CLASS
1
TABLESTYLE
2
AcDbTableStyle
3
ObjectDBX Classes
90
4095
280
0
281
0
0
CLASS
1
SCALE
2
AcDbScale
3
ObjectDBX Classes
90
1153
280
0
281
0
0
CLASS
1
MLEADERSTYLE
2
AcDbMLeaderStyle
3
ACDB_MLEADERSTYLE_CLASS
90
4095
280
0
281
0
0
CLASS
1
DICTIONARYVAR
2
AcDbDictionaryVar
3
ObjectDBX Classes
90
0
280
0
281
0
0
CLASS
1
CELLSTYLEMAP
2
AcDbCellStyleMap
3
ObjectDBX Classes
90
1152
280
0
281
0
0
ENDSEC
0
SECTION
2
TABLES
0
TABLE
2
VPORT
5
24A
330
0
100
AcDbSymbolTable
70
1
0
VPORT
5
26B
330
24A
100
AcDbSymbolTableRecord
100
AcDbViewportTableRecord
2
*Active
70
0
10
0.0
20
0.0
11
1.0
21
1.0
12
0.000000000000000
22
0.000000000000000
13
0.0
23
0.0
14
10.0
24
10.0
15
10.0
25
10.0
16
0.0
26
0.0
36
1.0
17
0.0
27
0.0
37
0.0
40
210.000000000000
41
1.42857142857143
42
1.0
43
0.0
44
0.0
50
0.0
51
0.0000000000007958
71
0
72
100
73
1
74
3
75
0
76
0
77
0
78
1
281
0
65
1
110
0.0
120
0.0
130
0.0
111
1.0
121
0.0
131
0.0
112
0.0
122
1.0
132
0.0
79
0
146
0.0
0
ENDTAB
0
TABLE
2
LTYPE
5
247
330
0
100
AcDbSymbolTable
70
25
0
LTYPE
5
256
330
247
100
AcDbSymbolTableRecord
100
AcDbLinetypeTableRecord
2
ByBlock
70
0
3

72
65
73
0
40
0.0
0
LTYPE
5
257
330
247
100
AcDbSymbolTableRecord
100
AcDbLinetypeTableRecord
2
ByLayer
70
0
3

72
65
73
0
40
0.0
0
LTYPE
5
258
330
247
100
AcDbSymbolTableRecord
100
AcDbLinetypeTableRecord
2
Continuous
70
0
3
Solid line
72
65
73
0
40
0.0
0
LTYPE
5
273
330
247
100
AcDbSymbolTableRecord
100
AcDbLinetypeTableRecord
2
CENTER
70
0
3
Center ____ _ ____ _ ____ _ ____ _ ____ _ ____
72
65
73
4
40
2.0
49
1.25
74
0
49
-0.25
74
0
49
0.25
74
0
49
-0.25
74
0
0
LTYPE
5
274
330
247
100
AcDbSymbolTableRecord
100
AcDbLinetypeTableRecord
2
DASHDOT
70
0
3
Dashdot __ . __ . __ . __ . __ . __ . __ . __
72
65
73
4
40
1.0
49
0.5
74
0
49
-0.25
74
0
49
0.0
74
0
49
-0.25
74
0
0
LTYPE
5
275
330
247
100
AcDbSymbolTableRecord
100
AcDbLinetypeTableRecord
2
DASHED
70
0
3
Dashed __ __ __ __ __ __ __ __ __ __ __ __ __ _
72
65
73
2
40
0.75
49
0.5
74
0
49
-0.25
74
0
0
LTYPE
5
276
330
247
100
AcDbSymbolTableRecord
100
AcDbLinetypeTableRecord
2
HIDDEN
70
0
3
Hidden __ __ __ __ __ __ __ __ __ __ __ __ __ __
72
65
73
2
40
0.375
49
0.25
74
0
49
-0.125
74
0
0
LTYPE
5
277
330
247
100
AcDbSymbolTableRecord
100
AcDbLinetypeTableRecord
2
HIDDEN2
70
0
3
Hidden2 _ _ _ _ _ _ _ _ _ _ _ _ _ _ _ _ _
72
65
73
2
40
0.1875
49
0.125
74
0
49
-0.0625
74
0
0
LTYPE
5
278
330
247
100
AcDbSymbolTableRecord
100
AcDbLinetypeTableRecord
2
BORDER
70
0
3
Border __ __ . __ __ . __ __ . __ __ . __ __ .
72
65
73
6
40
1.75
49
0.5
74
0
49
-0.25
74
0
49
0.5
74
0
49
-0.25
74
0
49
0.0
74
0
49
-0.25
74
0
0
LTYPE
5
279
330
247
100
AcDbSymbolTableRecord
100
AcDbLinetypeTableRecord
2
BORDER2
70
0
3
Border2 __.__.__.__.__.__.__.__.__.__.__.
72
65
73
6
40
0.875
49
0.25
74
0
49
-0.125
74
0
49
0.25
74
0
49
-0.125
74
0
49
0.0
74
0
49
-0.125
74
0
0
LTYPE
5
27A
330
247
100
AcDbSymbolTableRecord
100
AcDbLinetypeTableRecord
2
BORDERX2
70
0
3
Borderx2  ____  ____  .  ____  ____  .  ___
72
65
73
6
40
3.5
49
1.0
74
0
49
-0.5
74
0
49
1.0
74
0
49
-0.5
74
0
49
0.0
74
0
49
-0.5
74
0
0
LTYPE
5
27B
330
247
100
AcDbSymbolTableRecord
100
AcDbLinetypeTableRecord
2
CENTER2
70
0
3
Center2  ___ _ ___ _ ___ _ ___ _ ___ _ ___
72
65
73
4
40
1.125
49
0.75
74
0
49
-0.125
74
0
49
0.125
74
0
49
-0.125
74
0
0
LTYPE
5
27C
330
247
100
AcDbSymbolTableRecord
100
AcDbLinetypeTableRecord
2
CENTERX2
70
0
3
Centerx2  ________  __  ________  __  _____
72
65
73
4
40
4.0
49
2.5
74
0
49
-0.5
74
0
49
0.5
74
0
49
-0.5
74
0
0
LTYPE
5
27D
330
247
100
AcDbSymbolTableRecord
100
AcDbLinetypeTableRecord
2
DASHDOT2
70
0
3
Dashdot2  _._._._._._._._._._._._._._._.
72
65
73
4
40
0.5
49
0.25
74
0
49
-0.125
74
0
49
0.0
74
0
49
-0.125
74
0
0
LTYPE
5
27E
330
247
100
AcDbSymbolTableRecord
100
AcDbLinetypeTableRecord
2
DASHDOTX2
70
0
3
Dashdotx2 ____  .  ____  .  ____  .  ___
72
65
73
4
40
2.0
49
1.0
74
0
49
-0.5
74
0
49
0.0
74
0
49
-0.5
74
0
0
LTYPE
5
27F
330
247
100
AcDbSymbolTableRecord
100
AcDbLinetypeTableRecord
2
DASHED2
70
0
3
Dashed2 _ _ _ _ _ _ _ _ _ _ _ _ _ _ _ _ _
72
65
73
2
40
0.375
49
0.25
74
0
49
-0.125
74
0
0
LTYPE
5
280
330
247
100
AcDbSymbolTableRecord
100
AcDbLinetypeTableRecord
2
DASHEDX2
70
0
3
Dashedx2 ____  ____  ____  ____  ____  ___
72
65
73
2
40
1.5
49
1.0
74
0
49
-0.5
74
0
0
LTYPE
5
281
330
247
100
AcDbSymbolTableRecord
100
AcDbLinetypeTableRecord
2
DIVIDE
70
0
3
Divide ____ . . ____ . . ____ . . ____ . . ____
72
65
73
6
40
1.25
49
0.5
74
0
49
-0.25
74
0
49
0.0
74
0
49
-0.25
74
0
49
0.0
74
0
49
-0.25
74
0
0
LTYPE
5
282
330
247
100
AcDbSymbolTableRecord
100
AcDbLinetypeTableRecord
2
DIVIDE2
70
0
3
Divide2 __..__..__..__..__..__..__..__.._
72
65
73
6
40
0.625
49
0.25
74
0
49
-0.125
74
0
49
0.0
74
0
49
-0.125
74
0
49
0.0
74
0
49
-0.125
74
0
0
LTYPE
5
283
330
247
100
AcDbSymbolTableRecord
100
AcDbLinetypeTableRecord
2
DIVIDEX2
70
0
3
Dividex2 ________  .  .  ________  .  .  _
72
65
73
6
40
2.5
49
1.0
74
0
49
-0.5
74
0
49
0.0
74
0
49
-0.5
74
0
49
0.0
74
0
49
-0.5
74
0
0
LTYPE
5
284
330
247
100
AcDbSymbolTableRecord
100
AcDbLinetypeTableRecord
2
DOT
70
0
3
Dot . . . . . . . . . . . . . . . . . . . . . . . .
72
65
73
2
40
0.25
49
0.0
74
0
49
-0.25
74
0
0
LTYPE
5
285
330
247
100
AcDbSymbolTableRecord
100
AcDbLinetypeTableRecord
2
DOT2
70
0
3
Dot2 ........................................
72
65
73
2
40
0.125
49
0.0
74
0
49
-0.125
74
0
0
LTYPE
5
286
330
247
100
AcDbSymbolTableRecord
100
AcDbLinetypeTableRecord
2
DOTX2
70
0
3
Dotx2 .  .  .  .  .  .  .  .  .  .  .  .  .  .
72
65
73
2
40
0.5
49
0.0
74
0
49
-0.5
74
0
0
LTYPE
5
287
330
247
100
AcDbSymbolTableRecord
100
AcDbLinetypeTableRecord
2
HIDDENX2
70
0
3
Hiddenx2 ____ ____ ____ ____ ____ ____ ____
72
65
73
2
40
0.75
49
0.5
74
0
49
-0.25
74
0
0
LTYPE
5
288
330
247
100
AcDbSymbolTableRecord
100
AcDbLinetypeTableRecord
2
PHANTOM
70
0
3
Phantom ______  __  __  ______  __  __  ______
72
65
73
6
40
2.5
49
1.25
74
0
49
-0.25
74
0
49
0.25
74
0
49
-0.25
74
0
49
0.25
74
0
49
-0.25
74
0
0
LTYPE
5
289
330
247
100
AcDbSymbolTableRecord
100
AcDbLinetypeTableRecord
2
PHANTOM2
70
0
3
Phantom2 ___ _ _ ___ _ _ ___ _ _ ___ _ _
72
65
73
6
40
1.25
49
0.625
74
0
49
-0.125
74
0
49
0.125
74
0
49
-0.125
74
0
49
0.125
74
0
49
-0.125
74
0
0
LTYPE
5
28A
330
247
100
AcDbSymbolTableRecord
100
AcDbLinetypeTableRecord
2
PHANTOMX2
70
0
3
Phantomx2 ____________    ____    ____   _
72
65
73
6
40
5.0
49
2.5
74
0
49
-0.5
74
0
49
0.5
74
0
49
-0.5
74
0
49
0.5
74
0
49
-0.5
74
0
0
ENDTAB
0
TABLE
2
LAYER
5
244
330
0
100
AcDbSymbolTable
70
6
0
LAYER
5
252
330
244
100
AcDbSymbolTableRecord
100
AcDbLayerTableRecord
2
0
70
0
62
7
6
Continuous
370
0
390
251
0
LAYER
5
23F
330
244
100
AcDbSymbolTableRecord
100
AcDbLayerTableRecord
2
Bemassung
70
0
 62
   7
6
Continuous
370
0
390
251
0
LAYER
5
240
330
244
100
AcDbSymbolTableRecord
100
AcDbLayerTableRecord
2
Rahmen
70
0
 62
   7
6
Continuous
370
0
390
251
0
LAYER
5
241
330
244
100
AcDbSymbolTableRecord
100
AcDbLayerTableRecord
2
Geo
70
0
 62
   7
6
Continuous
370
0
390
251
0
LAYER
5
33A
330
244
100
AcDbSymbolTableRecord
100
AcDbLayerTableRecord
2
Defpoints
70
0
62
7
6
Continuous
290
0
370
-3
390
251
0
LAYER
5
57E
330
244
100
AcDbSymbolTableRecord
100
AcDbLayerTableRecord
2
Text
70
0
 62
   7
6
Continuous
370
0
390
251
1001
AcAecLayerStandard
1000

1000

0
ENDTAB
0
TABLE
2
STYLE
5
245
330
0
100
AcDbSymbolTable
70
2
0
STYLE
5
253
330
245
100
AcDbSymbolTableRecord
100
AcDbTextStyleTableRecord
2
Standard
70
0
40
0.0
41
1.0
50
0.0
71
0
42
0.2
3
Arial
4

1001
ACAD
1000
Arial
1071
0
0
STYLE
5
132
330
245
100
AcDbSymbolTableRecord
100
AcDbTextStyleTableRecord
2
Beschriftung
70
0
40
0.0
41
1.0
50
0.0
71
0
42
0.2
3
Arial
4

1001
ACAD
1000
Arial
1071
0
1001
AcadAnnotative
1000
AnnotativeData
1070
1
1070
1
0
ENDTAB
0
TABLE
2
VIEW
5
248
330
0
100
AcDbSymbolTable
70
0
0
ENDTAB
0
TABLE
2
UCS
5
249
330
0
100
AcDbSymbolTable
70
0
0
ENDTAB
0
TABLE
2
APPID
5
24B
330
0
100
AcDbSymbolTable
70
13
0
APPID
5
254
330
24B
100
AcDbSymbolTableRecord
100
AcDbRegAppTableRecord
2
ACAD
70
0
0
APPID
5
26C
330
24B
100
AcDbSymbolTableRecord
100
AcDbRegAppTableRecord
2
VD_INVISIBLE_NOT_FOR_READ
70
0
0
APPID
5
26D
330
24B
100
AcDbSymbolTableRecord
100
AcDbRegAppTableRecord
2
VD_TEMPHATCH
70
0
0
APPID
5
26E
330
24B
100
AcDbSymbolTableRecord
100
AcDbRegAppTableRecord
2
VDEXTRAPARAM
70
0
0
APPID
5
26F
330
24B
100
AcDbSymbolTableRecord
100
AcDbRegAppTableRecord
2
PE_URL
70
0
0
APPID
5
270
330
24B
100
AcDbSymbolTableRecord
100
AcDbRegAppTableRecord
2
VD_UNKNOWN
70
0
0
APPID
5
28F
330
24B
100
AcDbSymbolTableRecord
100
AcDbRegAppTableRecord
2
AcadAnnotative
70
0
0
APPID
5
290
330
24B
100
AcDbSymbolTableRecord
100
AcDbRegAppTableRecord
2
ACAD_DSTYLE_DIMJAG
70
0
0
APPID
5
291
330
24B
100
AcDbSymbolTableRecord
100
AcDbRegAppTableRecord
2
ACAD_DSTYLE_DIMTALN
70
0
0
APPID
5
293
330
24B
100
AcDbSymbolTableRecord
100
AcDbRegAppTableRecord
2
ACAD_PSEXT
70
0
0
APPID
5
42A
330
24B
100
AcDbSymbolTableRecord
100
AcDbRegAppTableRecord
2
ACAD_MLEADERVER
70
0
0
APPID
5
532
330
24B
100
AcDbSymbolTableRecord
100
AcDbRegAppTableRecord
2
ACAD_EXEMPT_FROM_CAD_STANDARDS
70
0
0
APPID
5
57F
330
24B
100
AcDbSymbolTableRecord
100
AcDbRegAppTableRecord
2
AcAecLayerStandard
70
0
0
ENDTAB
0
TABLE
2
DIMSTYLE
5
24C
330
0
100
AcDbSymbolTable
70
3
100
AcDbDimStyleTable
71
2
340
27
340
269
0
DIMSTYLE
105
269
330
24C
100
AcDbSymbolTableRecord
100
AcDbDimStyleTableRecord
2
Standard
70
0
172
1
174
1
288
1
340
253
342
23C
0
DIMSTYLE
105
137
330
24C
100
AcDbSymbolTableRecord
100
AcDbDimStyleTableRecord
2
Beschriftung
70
0
41
2.5
42
0.625
44
1.25
73
0
74
0
77
1
140
2.5
147
0.625
172
1
174
1
271
2
288
1
340
253
342
23C
1001
AcadAnnotative
1000
AnnotativeData
1070
1
1070
1
1001
ACAD_DSTYLE_DIMJAG
1070
388
1040
1.5
1001
ACAD_DSTYLE_DIMTALN
1070
392
1070
0
0
DIMSTYLE
105
27
102
{ACAD_REACTORS
330
F1000D
330
F10012
330
F10003
330
F10008
102
}
330
24C
100
AcDbSymbolTableRecord
100
AcDbDimStyleTableRecord
2
BEM-ISBE
70
0
41
2.5
42
0.625
44
1.25
48
0.000000001
71
1
73
0
74
0
77
1
140
2.5
144
1.00000000000000
146
0.5
147
0.625
171
 3
172
 1
179
 3
271
 3
272
 3
274
 3
340
253
342
23C
1001
ACAD_DSTYLE_DIMJAG
1070
388
1040
1.5
1001
ACAD_DSTYLE_DIMTALN
1070
392
1070
1
0
ENDTAB
0
TABLE
2
BLOCK_RECORD
5
243
330
0
100
AcDbSymbolTable
70
5
0
BLOCK_RECORD
5
261
330
243
100
AcDbSymbolTableRecord
100
AcDbBlockTableRecord
2
*Model_Space
340
FD0
0
BLOCK_RECORD
5
25D
330
243
100
AcDbSymbolTableRecord
100
AcDbBlockTableRecord
2
*Paper_Space
340
FD1
0
BLOCK_RECORD
5
265
330
243
100
AcDbSymbolTableRecord
100
AcDbBlockTableRecord
2
*Paper_Space0
340
0
0
BLOCK_RECORD
5
23C
330
243
100
AcDbSymbolTableRecord
100
AcDbBlockTableRecord
2
VDDIM_DEFAULT
340
0
102
{BLKREFS
102
}
0
BLOCK_RECORD
5
23E
330
243
100
AcDbSymbolTableRecord
100
AcDbBlockTableRecord
2
VDDIM_NONE
340
0
0
BLOCK_RECORD
5
F1000C
330
243
100
AcDbSymbolTableRecord
100
AcDbBlockTableRecord
2
*D5
340
0
0
BLOCK_RECORD
5
F10011
330
243
100
AcDbSymbolTableRecord
100
AcDbBlockTableRecord
2
*D6
340
0
0
BLOCK_RECORD
5
F10002
330
243
100
AcDbSymbolTableRecord
100
AcDbBlockTableRecord
2
*D3
340
0
0
BLOCK_RECORD
5
F10007
330
243
100
AcDbSymbolTableRecord
100
AcDbBlockTableRecord
2
*D4
340
0
0
ENDTAB
0
ENDSEC
0
SECTION
2
BLOCKS
0
BLOCK
5
262
330
261
100
AcDbEntity
8
0
100
AcDbBlockBegin
2
*Model_Space
70
0
10
0.0
20
0.0
30
0.0
3
*Model_Space
1

0
ENDBLK
5
263
330
261
100
AcDbEntity
8
0
100
AcDbBlockEnd
0
BLOCK
5
25E
330
25D
100
AcDbEntity
67
1
8
0
100
AcDbBlockBegin
2
*Paper_Space
70
0
10
0.0
20
0.0
30
0.0
3
*Paper_Space
1

0
ENDBLK
5
25F
330
25D
100
AcDbEntity
67
1
8
0
100
AcDbBlockEnd
0
BLOCK
5
266
330
265
100
AcDbEntity
8
0
100
AcDbBlockBegin
2
*Paper_Space0
70
0
10
0.0
20
0.0
30
0.0
3
*Paper_Space0
1

0
VIEWPORT
5
296
102
{ACAD_XDICTIONARY
360
58E
102
}
330
265
100
AcDbEntity
8
0
60
1
100
AcDbViewport
10
0.0
20
0.0
30
0.0
40
10.0
41
10.0
69
0
12
0.0
22
0.0
13
0.0
23
0.0
14
1.0
24
1.0
15
0.0
25
0.0
16
0.0
26
0.0
36
1.0
17
0.0
27
0.0
37
0.0
42
0.0
43
0.0
44
0.0
45
10.0
50
0.0
51
0.0000000000007958
72
100
90
163872
1

281
0
71
0
74
0
110
0.0
120
0.0
130
0.0
111
1.0
121
0.0
131
0.0
112
0.0
122
1.0
132
0.0
79
0
146
0.0
1001
VD_INVISIBLE_NOT_FOR_READ
1000
VD_INVISIBLE_NOT_FOR_READ
0
VIEWPORT
5
297
102
{ACAD_XDICTIONARY
360
590
102
}
330
265
100
AcDbEntity
8
0
60
1
100
AcDbViewport
10
0.0
20
0.0
30
0.0
40
10.0
41
10.0
69
0
12
0.0
22
0.0
13
0.0
23
0.0
14
1.0
24
1.0
15
0.0
25
0.0
16
0.0
26
0.0
36
1.0
17
0.0
27
0.0
37
0.0
42
0.0
43
0.0
44
0.0
45
10.0
50
0.0
51
0.0000000000007958
72
100
90
163872
1

281
0
71
0
74
0
110
0.0
120
0.0
130
0.0
111
1.0
121
0.0
131
0.0
112
0.0
122
1.0
132
0.0
79
0
146
0.0
1001
VD_INVISIBLE_NOT_FOR_READ
1000
VD_INVISIBLE_NOT_FOR_READ
0
ENDBLK
5
267
330
265
100
AcDbEntity
8
0
100
AcDbBlockEnd
0
BLOCK
5
28B
330
23C
100
AcDbEntity
8
0
100
AcDbBlockBegin
2
VDDIM_DEFAULT
70
0
10
0.0
20
0.0
30
0.0
3
VDDIM_DEFAULT
1

0
LWPOLYLINE
5
23D
330
23C
100
AcDbEntity
8
0
6
Continuous
62
0
100
AcDbPolyline
90
4
70
0
43
0.0
10
0.0
20
0.0
10
-1.0
20
-0.1665
10
-1.0
20
0.1665
10
0.0
20
0.0
1001
VDEXTRAPARAM
1071
1
1071
0
1071
0
1040
1.0
1000

1000

1040
0.0
1040
0.0
0
HATCH
5
292
330
23C
100
AcDbEntity
8
0
6
Continuous
62
0
100
AcDbHatch
10
0.0
20
0.0
30
0.0
210
0.0
220
0.0
230
1.0
2
SOLID
70
1
71
0
91
1
92
2
72
0
73
1
93
3
10
0.0
20
0.0
10
-1.0
20
-0.1665
10
-1.0
20
0.1665
97
0
75
0
76
1
98
1
10
0.0
20
0.0
1001
VDEXTRAPARAM
1071
1
1071
0
1071
0
1040
1.0
1000

1000

1040
0.0
1040
0.0
1001
VD_TEMPHATCH
1000
VD_TEMPHATCH
0
ENDBLK
5
28C
330
23C
100
AcDbEntity
8
0
100
AcDbBlockEnd
0
BLOCK
5
28D
330
23E
100
AcDbEntity
8
0
100
AcDbBlockBegin
2
VDDIM_NONE
70
0
10
0.0
20
0.0
30
0.0
3
VDDIM_NONE
1

0
ENDBLK
5
28E
330
23E
100
AcDbEntity
8
0
100
AcDbBlockEnd
  0
BLOCK
  5
F10016
330
F1000C
100
AcDbEntity
  8
0
100
AcDbBlockBegin
  2
*D5
 70
     1
 10
0.0
 20
0.0
 30
0.0
  3
*D5
  1

  0
LINE
  5
F10017
330
F1000C
100
AcDbEntity
  8
Bemassung
 62
     0
370
    -2
100
AcDbLine
10
-17.7627927146575
20
-0.350390286209887
30
0.000000000000000
11
-17.7627927146575
21
-12.3503902862099
31
0.000000000000000
  0
LINE
  5
F10018
330
F1000C
100
AcDbEntity
  8
Bemassung
 62
     0
370
    -2
100
AcDbLine
10
-37.7627927146575
20
-12.3503902862099
30
0.000000000000000
11
-37.7627927146575
21
27.6496097137901
31
0.000000000000000
  0
LINE
  5
F10019
330
F1000C
100
AcDbEntity
  8
Bemassung
 62
     0
370
    -2
100
AcDbLine
10
-17.7627927146575
20
-10.3503902862099
30
0.000000000000000
11
-37.7627927146575
21
-10.3503902862099
31
0.000000000000000
  0
INSERT
  5
F1001A
330
F1000C
100
AcDbEntity
  8
Bemassung
 62
     0
370
    -2
100
AcDbBlockReference
  2
VDDIM_DEFAULT
10
-17.7627927146575
20
-10.3503902862099
30
0.000000000000000
 41
2.50000000000000
 42
2.50000000000000
 43
2.50000000000000
  0
INSERT
  5
F1001B
330
F1000C
100
AcDbEntity
  8
Bemassung
 62
     0
370
    -2
100
AcDbBlockReference
  2
VDDIM_DEFAULT
10
-37.7627927146575
20
-10.3503902862099
30
0.000000000000000
 41
2.50000000000000
 42
2.50000000000000
 43
2.50000000000000
 50
180.000000000000
  0
MTEXT
  5
F1001C
330
F1000C
100
AcDbEntity
  8
Bemassung
 62
     0
100
AcDbMText
10
-27.7627927146575
20
-9.68372361954322
30
0.000000000000000
 40
2.50000000000000
 41
0.0
 71
     8
 72
     1
  1
20
 11
1.00000000000000
 21
0.000000000000000
 31
0.0
 73
     1
 44
1.0
1001
ACAD
1000
MTEXTBEGIN
1070
73
1070
1
1070
44
1040
1.0
1070
74
1070
0
1000
MTEXTEND
  0
POINT
  5
F1001D
330
F1000C
100
AcDbEntity
  8
Bemassung
 62
     0
100
AcDbPoint
10
-17.7627927146575
20
-0.350390286209887
30
0.000000000000000
  0
POINT
  5
F1001E
330
F1000C
100
AcDbEntity
  8
Bemassung
 62
     0
100
AcDbPoint
10
-37.7627927146575
20
-12.3503902862099
30
0.000000000000000
  0
ENDBLK
  5
F1001F
330
F1000C
100
AcDbEntity
  8
0
100
AcDbBlockEnd
  0
BLOCK
  5
F10020
330
F10011
100
AcDbEntity
  8
0
100
AcDbBlockBegin
  2
*D6
 70
     1
 10
0.0
 20
0.0
 30
0.0
  3
*D6
  1

  0
LINE
  5
F10021
330
F10011
100
AcDbEntity
  8
Bemassung
 62
     0
370
    -2
100
AcDbLine
10
45.2372072853425
20
14.6496097137901
30
0.000000000000000
11
45.2372072853425
21
27.6496097137901
31
0.000000000000000
  0
LINE
  5
F10022
330
F10011
100
AcDbEntity
  8
Bemassung
 62
     0
370
    -2
100
AcDbLine
10
-37.7627927146575
20
-12.3503902862099
30
0.000000000000000
11
-37.7627927146575
21
27.6496097137901
31
0.000000000000000
  0
LINE
  5
F10023
330
F10011
100
AcDbEntity
  8
Bemassung
 62
     0
370
    -2
100
AcDbLine
10
45.2372072853425
20
25.6496097137901
30
0.000000000000000
11
-37.7627927146575
21
25.6496097137901
31
0.000000000000000
  0
INSERT
  5
F10024
330
F10011
100
AcDbEntity
  8
Bemassung
 62
     0
370
    -2
100
AcDbBlockReference
  2
VDDIM_DEFAULT
10
45.2372072853425
20
25.6496097137901
30
0.000000000000000
 41
2.50000000000000
 42
2.50000000000000
 43
2.50000000000000
  0
INSERT
  5
F10025
330
F10011
100
AcDbEntity
  8
Bemassung
 62
     0
370
    -2
100
AcDbBlockReference
  2
VDDIM_DEFAULT
10
-37.7627927146575
20
25.6496097137901
30
0.000000000000000
 41
2.50000000000000
 42
2.50000000000000
 43
2.50000000000000
 50
180.000000000000
  0
MTEXT
  5
F10026
330
F10011
100
AcDbEntity
  8
Bemassung
 62
     0
100
AcDbMText
10
3.73720728534255
20
26.3162763804568
30
0.000000000000000
 40
2.50000000000000
 41
0.0
 71
     8
 72
     1
  1
83
 11
1.00000000000000
 21
0.000000000000000
 31
0.0
 73
     1
 44
1.0
1001
ACAD
1000
MTEXTBEGIN
1070
73
1070
1
1070
44
1040
1.0
1070
74
1070
0
1000
MTEXTEND
  0
POINT
  5
F10027
330
F10011
100
AcDbEntity
  8
Bemassung
 62
     0
100
AcDbPoint
10
45.2372072853425
20
14.6496097137901
30
0.000000000000000
  0
POINT
  5
F10028
330
F10011
100
AcDbEntity
  8
Bemassung
 62
     0
100
AcDbPoint
10
-37.7627927146575
20
-12.3503902862099
30
0.000000000000000
  0
ENDBLK
  5
F10029
330
F10011
100
AcDbEntity
  8
0
100
AcDbBlockEnd
  0
BLOCK
  5
F1002A
330
F10002
100
AcDbEntity
  8
0
100
AcDbBlockBegin
  2
*D3
 70
     1
 10
0.0
 20
0.0
 30
0.0
  3
*D3
  1

  0
LINE
  5
F1002B
330
F10002
100
AcDbEntity
  8
Bemassung
 62
     0
370
    -2
100
AcDbLine
10
-37.7627927146575
20
-0.350390286209887
30
0.000000000000000
11
-49.7627927146575
21
-0.350390286209887
31
0.000000000000000
  0
LINE
  5
F1002C
330
F10002
100
AcDbEntity
  8
Bemassung
 62
     0
370
    -2
100
AcDbLine
10
-37.7627927146575
20
15.6496097137901
30
0.000000000000000
11
-49.7627927146575
21
15.6496097137901
31
0.000000000000000
  0
LINE
  5
F1002D
330
F10002
100
AcDbEntity
  8
Bemassung
 62
     0
370
    -2
100
AcDbLine
10
-47.7627927146575
20
-0.350390286209887
30
0.000000000000000
11
-47.7627927146575
21
15.6496097137901
31
0.000000000000000
  0
INSERT
  5
F1002E
330
F10002
100
AcDbEntity
  8
Bemassung
 62
     0
370
    -2
100
AcDbBlockReference
  2
VDDIM_DEFAULT
10
-47.7627927146575
20
-0.350390286209887
30
0.000000000000000
 41
2.50000000000000
 42
2.50000000000000
 43
2.50000000000000
 50
270.000000000000
  0
INSERT
  5
F1002F
330
F10002
100
AcDbEntity
  8
Bemassung
 62
     0
370
    -2
100
AcDbBlockReference
  2
VDDIM_DEFAULT
10
-47.7627927146575
20
15.6496097137901
30
0.000000000000000
 41
2.50000000000000
 42
2.50000000000000
 43
2.50000000000000
 50
90.0000000000000
  0
MTEXT
  5
F10030
330
F10002
100
AcDbEntity
  8
Bemassung
 62
     0
100
AcDbMText
10
-48.4294593813241
20
7.64960971379011
30
0.000000000000000
 40
2.50000000000000
 41
0.0
 71
     8
 72
     1
  1
Ø16
 11
6.12323399573677e-17
 21
1.00000000000000
 31
0.0
 73
     1
 44
1.0
1001
ACAD
1000
MTEXTBEGIN
1070
73
1070
1
1070
44
1040
1.0
1070
74
1070
0
1000
MTEXTEND
  0
POINT
  5
F10031
330
F10002
100
AcDbEntity
  8
Bemassung
 62
     0
100
AcDbPoint
10
-37.7627927146575
20
-0.350390286209887
30
0.000000000000000
  0
POINT
  5
F10032
330
F10002
100
AcDbEntity
  8
Bemassung
 62
     0
100
AcDbPoint
10
-37.7627927146575
20
15.6496097137901
30
0.000000000000000
  0
ENDBLK
  5
F10033
330
F10002
100
AcDbEntity
  8
0
100
AcDbBlockEnd
  0
BLOCK
  5
F10034
330
F10007
100
AcDbEntity
  8
0
100
AcDbBlockBegin
  2
*D4
 70
     1
 10
0.0
 20
0.0
 30
0.0
  3
*D4
  1

  0
LINE
  5
F10035
330
F10007
100
AcDbEntity
  8
Bemassung
 62
     0
370
    -2
100
AcDbLine
10
44.2372072853425
20
-0.350390286209887
30
0.000000000000000
11
57.2372072853425
21
-0.350390286209887
31
0.000000000000000
  0
LINE
  5
F10036
330
F10007
100
AcDbEntity
  8
Bemassung
 62
     0
370
    -2
100
AcDbLine
10
44.2372072853425
20
15.6496097137901
30
0.000000000000000
11
57.2372072853425
21
15.6496097137901
31
0.000000000000000
  0
LINE
  5
F10037
330
F10007
100
AcDbEntity
  8
Bemassung
 62
     0
370
    -2
100
AcDbLine
10
55.2372072853425
20
-0.350390286209887
30
0.000000000000000
11
55.2372072853425
21
15.6496097137901
31
0.000000000000000
  0
INSERT
  5
F10038
330
F10007
100
AcDbEntity
  8
Bemassung
 62
     0
370
    -2
100
AcDbBlockReference
  2
VDDIM_DEFAULT
10
55.2372072853425
20
-0.350390286209887
30
0.000000000000000
 41
2.50000000000000
 42
2.50000000000000
 43
2.50000000000000
 50
270.000000000000
  0
INSERT
  5
F10039
330
F10007
100
AcDbEntity
  8
Bemassung
 62
     0
370
    -2
100
AcDbBlockReference
  2
VDDIM_DEFAULT
10
55.2372072853425
20
15.6496097137901
30
0.000000000000000
 41
2.50000000000000
 42
2.50000000000000
 43
2.50000000000000
 50
90.0000000000000
  0
MTEXT
  5
F1003A
330
F10007
100
AcDbEntity
  8
Bemassung
 62
     0
100
AcDbMText
10
54.5705406186759
20
7.64960971379011
30
0.000000000000000
 40
2.50000000000000
 41
0.0
 71
     8
 72
     1
  1
Ø16h6
 11
6.12323399573677e-17
 21
1.00000000000000
 31
0.0
 73
     1
 44
1.0
  0
POINT
  5
F1003B
330
F10007
100
AcDbEntity
  8
Bemassung
 62
     0
100
AcDbPoint
10
44.2372072853425
20
-0.350390286209887
30
0.000000000000000
  0
POINT
  5
F1003C
330
F10007
100
AcDbEntity
  8
Bemassung
 62
     0
100
AcDbPoint
10
44.2372072853425
20
15.6496097137901
30
0.000000000000000
  0
ENDBLK
  5
F1003D
330
F10007
100
AcDbEntity
  8
0
100
AcDbBlockEnd
0
ENDSEC
0
SECTION
2
ENTITIES
  0
DIMENSION
  5
F1000D
330
261
100
AcDbEntity
  8
Bemassung
100
AcDbDimension
  2
*D5
10
-37.7627927146575
20
-10.3503902862099
30
0.000000000000000
11
-27.7627927146575
21
-9.68372361954322
31
0.000000000000000
 70
32
 1
20
 71
     8
  3
BEM-ISBE
100
AcDbAlignedDimension
13
-17.7627927146575
23
-0.350390286209887
33
0.000000000000000
14
-37.7627927146575
24
-12.3503902862099
34
0.000000000000000
100
AcDbRotatedDimension
1001
ACAD
1000
DSTYLE
1002
{
1070
284
1070
8
1070
78
1070
8
1070
144
1040
1.00000000000000
1070
147
1040
0.625
1070
 72
1070
 0
1070
 71
1070
 0
1002
}
  0
DIMENSION
  5
F10012
330
261
100
AcDbEntity
  8
Bemassung
100
AcDbDimension
  2
*D6
10
-37.7627927146575
20
25.6496097137901
30
0.000000000000000
11
3.73720728534255
21
26.3162763804568
31
0.000000000000000
 70
32
 1
83
 71
     8
  3
BEM-ISBE
100
AcDbAlignedDimension
13
45.2372072853425
23
14.6496097137901
33
0.000000000000000
14
-37.7627927146575
24
-12.3503902862099
34
0.000000000000000
100
AcDbRotatedDimension
1001
ACAD
1000
DSTYLE
1002
{
1070
284
1070
8
1070
78
1070
8
1070
144
1040
1.00000000000000
1070
147
1040
0.625
1070
 72
1070
 0
1070
 71
1070
 0
1002
}
  0
DIMENSION
  5
F10003
330
261
100
AcDbEntity
  8
Bemassung
100
AcDbDimension
  2
*D3
10
-47.7627927146575
20
15.6496097137901
30
0.000000000000000
11
-48.4294593813241
21
7.64960971379011
31
0.000000000000000
 70
32
 1
Ø16
 71
     8
  3
BEM-ISBE
100
AcDbAlignedDimension
13
-37.7627927146575
23
-0.350390286209887
33
0.000000000000000
14
-37.7627927146575
24
15.6496097137901
34
0.000000000000000
50
90.0000000000000
100
AcDbRotatedDimension
1001
ACAD
1000
DSTYLE
1002
{
1070
284
1070
8
1070
78
1070
8
1070
144
1040
1.00000000000000
1070
147
1040
0.625
1070
 72
1070
 0
1070
 71
1070
 0
1002
}
  0
DIMENSION
  5
F10008
330
261
100
AcDbEntity
  8
Bemassung
100
AcDbDimension
  2
*D4
10
55.2372072853425
20
15.6496097137901
30
0.000000000000000
11
54.5705406186759
21
7.64960971379011
31
0.000000000000000
 70
32
 1
Ø16h6
 71
     8
  3
BEM-ISBE
100
AcDbAlignedDimension
13
44.2372072853425
23
-0.350390286209887
33
0.000000000000000
14
44.2372072853425
24
15.6496097137901
34
0.000000000000000
50
90.0000000000000
100
AcDbRotatedDimension
1001
ACAD
1000
DSTYLE
1002
{
1070
284
1070
8
1070
78
1070
8
1070
144
1040
1.00000000000000
1070
147
1040
0.625
1070
 72
1070
 0
1070
 71
1070
 0
1002
}
  0
LINE
  5
F1003E
330
F1003F
100
AcDbEntity
8
Geo
100
AcDbLine
10
-37.7627927146575
20
7.64960971379011
30
0.000000000000000
11
-37.7627927146575
21
15.6496097137901
31
0.000000000000000
  0
LINE
  5
F10040
330
F10041
100
AcDbEntity
8
Geo
100
AcDbLine
10
-37.7627927146575
20
15.6496097137901
30
0.000000000000000
11
-17.7627927146575
21
15.6496097137901
31
0.000000000000000
  0
LINE
  5
F10042
330
F10043
100
AcDbEntity
8
Geo
100
AcDbLine
10
-17.7627927146575
20
15.6496097137901
30
0.000000000000000
11
44.2372072853425
21
15.6496097137901
31
0.000000000000000
  0
LINE
  5
F10044
330
F10045
100
AcDbEntity
8
Geo
100
AcDbLine
10
44.2372072853425
20
15.6496097137901
30
0.000000000000000
11
45.2372072853425
21
14.6496097137901
31
0.000000000000000
  0
LINE
  5
F10046
330
F10047
100
AcDbEntity
8
Geo
100
AcDbLine
10
-37.7627927146575
20
15.6496097137901
30
0.000000000000000
11
-37.6627927146574
21
15.6489847219281
31
0.000000000000000
  0
LINE
  5
F10048
330
F10049
100
AcDbEntity
8
Geo
100
AcDbLine
10
-37.6627927146574
20
15.6489847219281
30
0.000000000000000
11
-37.5627927146574
21
15.6471098439957
31
0.000000000000000
  0
LINE
  5
F1004A
330
F1004B
100
AcDbEntity
8
Geo
100
AcDbLine
10
-37.5627927146574
20
15.6471098439957
30
0.000000000000000
11
-37.4627927146575
21
15.6439853729389
31
0.000000000000000
  0
LINE
  5
F1004C
330
F1004D
100
AcDbEntity
8
Geo
100
AcDbLine
10
-37.4627927146575
20
15.6439853729389
30
0.000000000000000
11
-37.3627927146575
21
15.6396117969498
31
0.000000000000000
  0
LINE
  5
F1004E
330
F1004F
100
AcDbEntity
8
Geo
100
AcDbLine
10
-37.3627927146575
20
15.6396117969498
30
0.000000000000000
11
-37.2627927146575
21
15.6339897993909
31
0.000000000000000
  0
LINE
  5
F10050
330
F10051
100
AcDbEntity
8
Geo
100
AcDbLine
10
-37.2627927146575
20
15.6339897993909
30
0.000000000000000
11
-37.1627927146574
21
15.6271202586878
31
0.000000000000000
  0
LINE
  5
F10052
330
F10053
100
AcDbEntity
8
Geo
100
AcDbLine
10
-37.1627927146574
20
15.6271202586878
30
0.000000000000000
11
-37.0627927146574
21
15.6190042481922
31
0.000000000000000
  0
LINE
  5
F10054
330
F10055
100
AcDbEntity
8
Geo
100
AcDbLine
10
-37.0627927146574
20
15.6190042481922
30
0.000000000000000
11
-36.9627927146575
21
15.6096430360143
31
0.000000000000000
  0
LINE
  5
F10056
330
F10057
100
AcDbEntity
8
Geo
100
AcDbLine
10
-36.9627927146575
20
15.6096430360143
30
0.000000000000000
11
-36.8627927146575
21
15.5990380848245
31
0.000000000000000
  0
LINE
  5
F10058
330
F10059
100
AcDbEntity
8
Geo
100
AcDbLine
10
-36.8627927146575
20
15.5990380848245
30
0.000000000000000
11
-36.7627927146575
21
15.5871910516247
31
0.000000000000000
  0
LINE
  5
F1005A
330
F1005B
100
AcDbEntity
8
Geo
100
AcDbLine
10
-36.7627927146575
20
15.5871910516247
30
0.000000000000000
11
-36.6627927146574
21
15.5741037874899
31
0.000000000000000
  0
LINE
  5
F1005C
330
F1005D
100
AcDbEntity
8
Geo
100
AcDbLine
10
-36.6627927146574
20
15.5741037874899
30
0.000000000000000
11
-36.5627927146574
21
15.5597783372785
31
0.000000000000000
  0
LINE
  5
F1005E
330
F1005F
100
AcDbEntity
8
Geo
100
AcDbLine
10
-36.5627927146574
20
15.5597783372785
30
0.000000000000000
11
-36.4627927146575
21
15.5442169393127
31
0.000000000000000
  0
LINE
  5
F10060
330
F10061
100
AcDbEntity
8
Geo
100
AcDbLine
10
-36.4627927146575
20
15.5442169393127
30
0.000000000000000
11
-36.3627927146575
21
15.5274220250296
31
0.000000000000000
  0
LINE
  5
F10062
330
F10063
100
AcDbEntity
8
Geo
100
AcDbLine
10
-36.3627927146575
20
15.5274220250296
30
0.000000000000000
11
-36.2627927146575
21
15.5093962186002
31
0.000000000000000
  0
LINE
  5
F10064
330
F10065
100
AcDbEntity
8
Geo
100
AcDbLine
10
-36.2627927146575
20
15.5093962186002
30
0.000000000000000
11
-36.1627927146574
21
15.4901423365200
31
0.000000000000000
  0
LINE
  5
F10066
330
F10067
100
AcDbEntity
8
Geo
100
AcDbLine
10
-36.1627927146574
20
15.4901423365200
30
0.000000000000000
11
-36.0627927146574
21
15.4696633871692
31
0.000000000000000
  0
LINE
  5
F10068
330
F10069
100
AcDbEntity
8
Geo
100
AcDbLine
10
-36.0627927146574
20
15.4696633871692
30
0.000000000000000
11
-35.9627927146575
21
15.4479625703417
31
0.000000000000000
  0
LINE
  5
F1006A
330
F1006B
100
AcDbEntity
8
Geo
100
AcDbLine
10
-35.9627927146575
20
15.4479625703417
30
0.000000000000000
11
-35.8627927146575
21
15.4250432767460
31
0.000000000000000
  0
LINE
  5
F1006C
330
F1006D
100
AcDbEntity
8
Geo
100
AcDbLine
10
-35.8627927146575
20
15.4250432767460
30
0.000000000000000
11
-35.7627927146575
21
15.4009090874753
31
0.000000000000000
  0
LINE
  5
F1006E
330
F1006F
100
AcDbEntity
8
Geo
100
AcDbLine
10
-35.7627927146575
20
15.4009090874753
30
0.000000000000000
11
-35.6627927146574
21
15.3755637734473
31
0.000000000000000
  0
LINE
  5
F10070
330
F10071
100
AcDbEntity
8
Geo
100
AcDbLine
10
-35.6627927146574
20
15.3755637734473
30
0.000000000000000
11
-35.5627927146574
21
15.3490112948160
31
0.000000000000000
  0
LINE
  5
F10072
330
F10073
100
AcDbEntity
8
Geo
100
AcDbLine
10
-35.5627927146574
20
15.3490112948160
30
0.000000000000000
11
-35.4627927146575
21
15.3212558003520
31
0.000000000000000
  0
LINE
  5
F10074
330
F10075
100
AcDbEntity
8
Geo
100
AcDbLine
10
-35.4627927146575
20
15.3212558003520
30
0.000000000000000
11
-35.3627927146575
21
15.2923016267950
31
0.000000000000000
  0
LINE
  5
F10076
330
F10077
100
AcDbEntity
8
Geo
100
AcDbLine
10
-35.3627927146575
20
15.2923016267950
30
0.000000000000000
11
-35.2627927146575
21
15.2621532981755
31
0.000000000000000
  0
LINE
  5
F10078
330
F10079
100
AcDbEntity
8
Geo
100
AcDbLine
10
-35.2627927146575
20
15.2621532981755
30
0.000000000000000
11
-35.1627927146574
21
15.2308155251086
31
0.000000000000000
  0
LINE
  5
F1007A
330
F1007B
100
AcDbEntity
8
Geo
100
AcDbLine
10
-35.1627927146574
20
15.2308155251086
30
0.000000000000000
11
-35.0627927146574
21
15.1982932040577
31
0.000000000000000
  0
LINE
  5
F1007C
330
F1007D
100
AcDbEntity
8
Geo
100
AcDbLine
10
-35.0627927146574
20
15.1982932040577
30
0.000000000000000
11
-34.9627927146574
21
15.1645914165691
31
0.000000000000000
  0
LINE
  5
F1007E
330
F1007F
100
AcDbEntity
8
Geo
100
AcDbLine
10
-34.9627927146574
20
15.1645914165691
30
0.000000000000000
11
-34.8627927146575
21
15.1297154284787
31
0.000000000000000
  0
LINE
  5
F10080
330
F10081
100
AcDbEntity
8
Geo
100
AcDbLine
10
-34.8627927146575
20
15.1297154284787
30
0.000000000000000
11
-34.7627927146575
21
15.0936706890886
31
0.000000000000000
  0
LINE
  5
F10082
330
F10083
100
AcDbEntity
8
Geo
100
AcDbLine
10
-34.7627927146575
20
15.0936706890886
30
0.000000000000000
11
-34.6627927146574
21
15.0564628303160
31
0.000000000000000
  0
LINE
  5
F10084
330
F10085
100
AcDbEntity
8
Geo
100
AcDbLine
10
-34.6627927146574
20
15.0564628303160
30
0.000000000000000
11
-34.5627927146574
21
15.0180976658132
31
0.000000000000000
  0
LINE
  5
F10086
330
F10087
100
AcDbEntity
8
Geo
100
AcDbLine
10
-34.5627927146574
20
15.0180976658132
30
0.000000000000000
11
-34.4627927146574
21
14.9785811900590
31
0.000000000000000
  0
LINE
  5
F10088
330
F10089
100
AcDbEntity
8
Geo
100
AcDbLine
10
-34.4627927146574
20
14.9785811900590
30
0.000000000000000
11
-34.3627927146575
21
14.9379195774224
31
0.000000000000000
  0
LINE
  5
F1008A
330
F1008B
100
AcDbEntity
8
Geo
100
AcDbLine
10
-34.3627927146575
20
14.9379195774224
30
0.000000000000000
11
-34.2627927146575
21
14.8961191811976
31
0.000000000000000
  0
LINE
  5
F1008C
330
F1008D
100
AcDbEntity
8
Geo
100
AcDbLine
10
-34.2627927146575
20
14.8961191811976
30
0.000000000000000
11
-34.1627927146574
21
14.8531865326115
31
0.000000000000000
  0
LINE
  5
F1008E
330
F1008F
100
AcDbEntity
8
Geo
100
AcDbLine
10
-34.1627927146574
20
14.8531865326115
30
0.000000000000000
11
-34.0627927146574
21
14.8091283398031
31
0.000000000000000
  0
LINE
  5
F10090
330
F10091
100
AcDbEntity
8
Geo
100
AcDbLine
10
-34.0627927146574
20
14.8091283398031
30
0.000000000000000
11
-33.9627927146574
21
14.7639514867755
31
0.000000000000000
  0
LINE
  5
F10092
330
F10093
100
AcDbEntity
8
Geo
100
AcDbLine
10
-33.9627927146574
20
14.7639514867755
30
0.000000000000000
11
-33.8627927146574
21
14.7176630323198
31
0.000000000000000
  0
LINE
  5
F10094
330
F10095
100
AcDbEntity
8
Geo
100
AcDbLine
10
-33.8627927146574
20
14.7176630323198
30
0.000000000000000
11
-33.7627927146575
21
14.6702702089131
31
0.000000000000000
  0
LINE
  5
F10096
330
F10097
100
AcDbEntity
8
Geo
100
AcDbLine
10
-33.7627927146575
20
14.6702702089131
30
0.000000000000000
11
-33.6627927146574
21
14.6217804215875
31
0.000000000000000
  0
LINE
  5
F10098
330
F10099
100
AcDbEntity
8
Geo
100
AcDbLine
10
-33.6627927146574
20
14.6217804215875
30
0.000000000000000
11
-33.5627927146574
21
14.5722012467736
31
0.000000000000000
  0
LINE
  5
F1009A
330
F1009B
100
AcDbEntity
8
Geo
100
AcDbLine
10
-33.5627927146574
20
14.5722012467736
30
0.000000000000000
11
-33.4627927146575
21
14.5215404311167
31
0.000000000000000
  0
LINE
  5
F1009C
330
F1009D
100
AcDbEntity
8
Geo
100
AcDbLine
10
-33.4627927146575
20
14.5215404311167
30
0.000000000000000
11
-33.3627927146575
21
14.4698058902662
31
0.000000000000000
  0
LINE
  5
F1009E
330
F1009F
100
AcDbEntity
8
Geo
100
AcDbLine
10
-33.3627927146575
20
14.4698058902662
30
0.000000000000000
11
-33.2627927146575
21
14.4170057076387
31
0.000000000000000
  0
LINE
  5
F100A0
330
F100A1
100
AcDbEntity
8
Geo
100
AcDbLine
10
-33.2627927146575
20
14.4170057076387
30
0.000000000000000
11
-33.1627927146574
21
14.3631481331553
31
0.000000000000000
  0
LINE
  5
F100A2
330
F100A3
100
AcDbEntity
8
Geo
100
AcDbLine
10
-33.1627927146574
20
14.3631481331553
30
0.000000000000000
11
-33.0627927146574
21
14.3082415819527
31
0.000000000000000
  0
LINE
  5
F100A4
330
F100A5
100
AcDbEntity
8
Geo
100
AcDbLine
10
-33.0627927146574
20
14.3082415819527
30
0.000000000000000
11
-32.9627927146575
21
14.2522946330675
31
0.000000000000000
  0
LINE
  5
F100A6
330
F100A7
100
AcDbEntity
8
Geo
100
AcDbLine
10
-32.9627927146575
20
14.2522946330675
30
0.000000000000000
11
-32.8627927146575
21
14.1953160280969
31
0.000000000000000
  0
LINE
  5
F100A8
330
F100A9
100
AcDbEntity
8
Geo
100
AcDbLine
10
-32.8627927146575
20
14.1953160280969
30
0.000000000000000
11
-32.7627927146575
21
14.1373146698319
31
0.000000000000000
  0
LINE
  5
F100AA
330
F100AB
100
AcDbEntity
8
Geo
100
AcDbLine
10
-32.7627927146575
20
14.1373146698319
30
0.000000000000000
11
-32.6627927146575
21
14.0782996208666
31
0.000000000000000
  0
LINE
  5
F100AC
330
F100AD
100
AcDbEntity
8
Geo
100
AcDbLine
10
-32.6627927146575
20
14.0782996208666
30
0.000000000000000
11
-32.5627927146575
21
14.0182801021826
31
0.000000000000000
  0
LINE
  5
F100AE
330
F100AF
100
AcDbEntity
8
Geo
100
AcDbLine
10
-32.5627927146575
20
14.0182801021826
30
0.000000000000000
11
-32.4627927146575
21
13.9572654917073
31
0.000000000000000
  0
LINE
  5
F100B0
330
F100B1
100
AcDbEntity
8
Geo
100
AcDbLine
10
-32.4627927146575
20
13.9572654917073
30
0.000000000000000
11
-32.3627927146575
21
13.8952653228497
31
0.000000000000000
  0
LINE
  5
F100B2
330
F100B3
100
AcDbEntity
8
Geo
100
AcDbLine
10
-32.3627927146575
20
13.8952653228497
30
0.000000000000000
11
-32.2627927146575
21
13.8322892830099
31
0.000000000000000
  0
LINE
  5
F100B4
330
F100B5
100
AcDbEntity
8
Geo
100
AcDbLine
10
-32.2627927146575
20
13.8322892830099
30
0.000000000000000
11
-32.1627927146575
21
13.7683472120660
31
0.000000000000000
  0
LINE
  5
F100B6
330
F100B7
100
AcDbEntity
8
Geo
100
AcDbLine
10
-32.1627927146575
20
13.7683472120660
30
0.000000000000000
11
-32.0627927146575
21
13.7034491008366
31
0.000000000000000
  0
LINE
  5
F100B8
330
F100B9
100
AcDbEntity
8
Geo
100
AcDbLine
10
-32.0627927146575
20
13.7034491008366
30
0.000000000000000
11
-31.9627927146575
21
13.6376050895194
31
0.000000000000000
  0
LINE
  5
F100BA
330
F100BB
100
AcDbEntity
8
Geo
100
AcDbLine
10
-31.9627927146575
20
13.6376050895194
30
0.000000000000000
11
-31.8627927146575
21
13.5708254661074
31
0.000000000000000
  0
LINE
  5
F100BC
330
F100BD
100
AcDbEntity
8
Geo
100
AcDbLine
10
-31.8627927146575
20
13.5708254661074
30
0.000000000000000
11
-31.7627927146575
21
13.5031206647807
31
0.000000000000000
  0
LINE
  5
F100BE
330
F100BF
100
AcDbEntity
8
Geo
100
AcDbLine
10
-31.7627927146575
20
13.5031206647807
30
0.000000000000000
11
-31.6627927146575
21
13.4345012642768
31
0.000000000000000
  0
LINE
  5
F100C0
330
F100C1
100
AcDbEntity
8
Geo
100
AcDbLine
10
-31.6627927146575
20
13.4345012642768
30
0.000000000000000
11
-31.5627927146575
21
13.3649779862376
31
0.000000000000000
  0
LINE
  5
F100C2
330
F100C3
100
AcDbEntity
8
Geo
100
AcDbLine
10
-31.5627927146575
20
13.3649779862376
30
0.000000000000000
11
-31.4627927146575
21
13.2945616935336
31
0.000000000000000
  0
LINE
  5
F100C4
330
F100C5
100
AcDbEntity
8
Geo
100
AcDbLine
10
-31.4627927146575
20
13.2945616935336
30
0.000000000000000
11
-31.3627927146575
21
13.2232633885674
31
0.000000000000000
  0
LINE
  5
F100C6
330
F100C7
100
AcDbEntity
8
Geo
100
AcDbLine
10
-31.3627927146575
20
13.2232633885674
30
0.000000000000000
11
-31.2627927146575
21
13.1510942115542
31
0.000000000000000
  0
LINE
  5
F100C8
330
F100C9
100
AcDbEntity
8
Geo
100
AcDbLine
10
-31.2627927146575
20
13.1510942115542
30
0.000000000000000
11
-31.1627927146575
21
13.0780654387808
31
0.000000000000000
  0
LINE
  5
F100CA
330
F100CB
100
AcDbEntity
8
Geo
100
AcDbLine
10
-31.1627927146575
20
13.0780654387808
30
0.000000000000000
11
-31.0627927146575
21
13.0041884808447
31
0.000000000000000
  0
LINE
  5
F100CC
330
F100CD
100
AcDbEntity
8
Geo
100
AcDbLine
10
-31.0627927146575
20
13.0041884808447
30
0.000000000000000
11
-30.9627927146575
21
12.9294748808700
31
0.000000000000000
  0
LINE
  5
F100CE
330
F100CF
100
AcDbEntity
8
Geo
100
AcDbLine
10
-30.9627927146575
20
12.9294748808700
30
0.000000000000000
11
-30.8627927146575
21
12.8539363127048
31
0.000000000000000
  0
LINE
  5
F100D0
330
F100D1
100
AcDbEntity
8
Geo
100
AcDbLine
10
-30.8627927146575
20
12.8539363127048
30
0.000000000000000
11
-30.7627927146575
21
12.7775845790967
31
0.000000000000000
  0
LINE
  5
F100D2
330
F100D3
100
AcDbEntity
8
Geo
100
AcDbLine
10
-30.7627927146575
20
12.7775845790967
30
0.000000000000000
11
-30.6627927146575
21
12.7004316098488
31
0.000000000000000
  0
LINE
  5
F100D4
330
F100D5
100
AcDbEntity
8
Geo
100
AcDbLine
10
-30.6627927146575
20
12.7004316098488
30
0.000000000000000
11
-30.5627927146575
21
12.6224894599554
31
0.000000000000000
  0
LINE
  5
F100D6
330
F100D7
100
AcDbEntity
8
Geo
100
AcDbLine
10
-30.5627927146575
20
12.6224894599554
30
0.000000000000000
11
-30.4627927146575
21
12.5437703077191
31
0.000000000000000
  0
LINE
  5
F100D8
330
F100D9
100
AcDbEntity
8
Geo
100
AcDbLine
10
-30.4627927146575
20
12.5437703077191
30
0.000000000000000
11
-30.3627927146575
21
12.4642864528470
31
0.000000000000000
  0
LINE
  5
F100DA
330
F100DB
100
AcDbEntity
8
Geo
100
AcDbLine
10
-30.3627927146575
20
12.4642864528470
30
0.000000000000000
11
-30.2627927146575
21
12.3840503145299
31
0.000000000000000
  0
LINE
  5
F100DC
330
F100DD
100
AcDbEntity
8
Geo
100
AcDbLine
10
-30.2627927146575
20
12.3840503145299
30
0.000000000000000
11
-30.1627927146575
21
12.3030744295012
31
0.000000000000000
  0
LINE
  5
F100DE
330
F100DF
100
AcDbEntity
8
Geo
100
AcDbLine
10
-30.1627927146575
20
12.3030744295012
30
0.000000000000000
11
-30.0627927146575
21
12.2213714500781
31
0.000000000000000
  0
LINE
  5
F100E0
330
F100E1
100
AcDbEntity
8
Geo
100
AcDbLine
10
-30.0627927146575
20
12.2213714500781
30
0.000000000000000
11
-29.9627927146575
21
12.1389541421849
31
0.000000000000000
  0
LINE
  5
F100E2
330
F100E3
100
AcDbEntity
8
Geo
100
AcDbLine
10
-29.9627927146575
20
12.1389541421849
30
0.000000000000000
11
-29.8627927146575
21
12.0558353833583
31
0.000000000000000
  0
LINE
  5
F100E4
330
F100E5
100
AcDbEntity
8
Geo
100
AcDbLine
10
-29.8627927146575
20
12.0558353833583
30
0.000000000000000
11
-29.7627927146575
21
11.9720281607352
31
0.000000000000000
  0
LINE
  5
F100E6
330
F100E7
100
AcDbEntity
8
Geo
100
AcDbLine
10
-29.7627927146575
20
11.9720281607352
30
0.000000000000000
11
-29.6627927146575
21
11.8875455690238
31
0.000000000000000
  0
LINE
  5
F100E8
330
F100E9
100
AcDbEntity
8
Geo
100
AcDbLine
10
-29.6627927146575
20
11.8875455690238
30
0.000000000000000
11
-29.5627927146575
21
11.8024008084571
31
0.000000000000000
  0
LINE
  5
F100EA
330
F100EB
100
AcDbEntity
8
Geo
100
AcDbLine
10
-29.5627927146575
20
11.8024008084571
30
0.000000000000000
11
-29.4627927146575
21
11.7166071827306
31
0.000000000000000
  0
LINE
  5
F100EC
330
F100ED
100
AcDbEntity
8
Geo
100
AcDbLine
10
-29.4627927146575
20
11.7166071827306
30
0.000000000000000
11
-29.3627927146575
21
11.6301780969239
31
0.000000000000000
  0
LINE
  5
F100EE
330
F100EF
100
AcDbEntity
8
Geo
100
AcDbLine
10
-29.3627927146575
20
11.6301780969239
30
0.000000000000000
11
-29.2627927146575
21
11.5431270554058
31
0.000000000000000
  0
LINE
  5
F100F0
330
F100F1
100
AcDbEntity
8
Geo
100
AcDbLine
10
-29.2627927146575
20
11.5431270554058
30
0.000000000000000
11
-29.1627927146575
21
11.4554676597244
31
0.000000000000000
  0
LINE
  5
F100F2
330
F100F3
100
AcDbEntity
8
Geo
100
AcDbLine
10
-29.1627927146575
20
11.4554676597244
30
0.000000000000000
11
-29.0627927146575
21
11.3672136064820
31
0.000000000000000
  0
LINE
  5
F100F4
330
F100F5
100
AcDbEntity
8
Geo
100
AcDbLine
10
-29.0627927146575
20
11.3672136064820
30
0.000000000000000
11
-28.9627927146575
21
11.2783786851947
31
0.000000000000000
  0
LINE
  5
F100F6
330
F100F7
100
AcDbEntity
8
Geo
100
AcDbLine
10
-28.9627927146575
20
11.2783786851947
30
0.000000000000000
11
-28.8627927146575
21
11.1889767761384
31
0.000000000000000
  0
LINE
  5
F100F8
330
F100F9
100
AcDbEntity
8
Geo
100
AcDbLine
10
-28.8627927146575
20
11.1889767761384
30
0.000000000000000
11
-28.7627927146575
21
11.0990218481795
31
0.000000000000000
  0
LINE
  5
F100FA
330
F100FB
100
AcDbEntity
8
Geo
100
AcDbLine
10
-28.7627927146575
20
11.0990218481795
30
0.000000000000000
11
-28.6627927146575
21
11.0085279565923
31
0.000000000000000
  0
LINE
  5
F100FC
330
F100FD
100
AcDbEntity
8
Geo
100
AcDbLine
10
-28.6627927146575
20
11.0085279565923
30
0.000000000000000
11
-28.5627927146575
21
10.9175092408634
31
0.000000000000000
  0
LINE
  5
F100FE
330
F100FF
100
AcDbEntity
8
Geo
100
AcDbLine
10
-28.5627927146575
20
10.9175092408634
30
0.000000000000000
11
-28.4627927146575
21
10.8259799224819
31
0.000000000000000
  0
LINE
  5
F10100
330
F10101
100
AcDbEntity
8
Geo
100
AcDbLine
10
-28.4627927146575
20
10.8259799224819
30
0.000000000000000
11
-28.3627927146575
21
10.7339543027176
31
0.000000000000000
  0
LINE
  5
F10102
330
F10103
100
AcDbEntity
8
Geo
100
AcDbLine
10
-28.3627927146575
20
10.7339543027176
30
0.000000000000000
11
-28.2627927146575
21
10.6414467603864
31
0.000000000000000
  0
LINE
  5
F10104
330
F10105
100
AcDbEntity
8
Geo
100
AcDbLine
10
-28.2627927146575
20
10.6414467603864
30
0.000000000000000
11
-28.1627927146575
21
10.5484717496035
31
0.000000000000000
  0
LINE
  5
F10106
330
F10107
100
AcDbEntity
8
Geo
100
AcDbLine
10
-28.1627927146575
20
10.5484717496035
30
0.000000000000000
11
-28.0627927146575
21
10.4550437975253
31
0.000000000000000
  0
LINE
  5
F10108
330
F10109
100
AcDbEntity
8
Geo
100
AcDbLine
10
-28.0627927146575
20
10.4550437975253
30
0.000000000000000
11
-27.9627927146575
21
10.3611775020791
31
0.000000000000000
  0
LINE
  5
F1010A
330
F1010B
100
AcDbEntity
8
Geo
100
AcDbLine
10
-27.9627927146575
20
10.3611775020791
30
0.000000000000000
11
-27.8627927146575
21
10.2668875296826
31
0.000000000000000
  0
LINE
  5
F1010C
330
F1010D
100
AcDbEntity
8
Geo
100
AcDbLine
10
-27.8627927146575
20
10.2668875296826
30
0.000000000000000
11
-27.7627927146575
21
10.1721886129523
31
0.000000000000000
  0
LINE
  5
F1010E
330
F1010F
100
AcDbEntity
8
Geo
100
AcDbLine
10
-27.7627927146575
20
10.1721886129523
30
0.000000000000000
11
-27.6627927146575
21
10.0770955484011
31
0.000000000000000
  0
LINE
  5
F10110
330
F10111
100
AcDbEntity
8
Geo
100
AcDbLine
10
-27.6627927146575
20
10.0770955484011
30
0.000000000000000
11
-27.5627927146575
21
9.98162319412701
31
0.000000000000000
  0
LINE
  5
F10112
330
F10113
100
AcDbEntity
8
Geo
100
AcDbLine
10
-27.5627927146575
20
9.98162319412701
30
0.000000000000000
11
-27.4627927146575
21
9.88578646749106
31
0.000000000000000
  0
LINE
  5
F10114
330
F10115
100
AcDbEntity
8
Geo
100
AcDbLine
10
-27.4627927146575
20
9.88578646749106
30
0.000000000000000
11
-27.3627927146575
21
9.78960034278683
31
0.000000000000000
  0
LINE
  5
F10116
330
F10117
100
AcDbEntity
8
Geo
100
AcDbLine
10
-27.3627927146575
20
9.78960034278683
30
0.000000000000000
11
-27.2627927146575
21
9.69307984890063
31
0.000000000000000
  0
LINE
  5
F10118
330
F10119
100
AcDbEntity
8
Geo
100
AcDbLine
10
-27.2627927146575
20
9.69307984890063
30
0.000000000000000
11
-27.1627927146575
21
9.59624006696324
31
0.000000000000000
  0
LINE
  5
F1011A
330
F1011B
100
AcDbEntity
8
Geo
100
AcDbLine
10
-27.1627927146575
20
9.59624006696324
30
0.000000000000000
11
-27.0627927146575
21
9.49909612799358
31
0.000000000000000
  0
LINE
  5
F1011C
330
F1011D
100
AcDbEntity
8
Geo
100
AcDbLine
10
-27.0627927146575
20
9.49909612799358
30
0.000000000000000
11
-26.9627927146575
21
9.40166321053447
31
0.000000000000000
  0
LINE
  5
F1011E
330
F1011F
100
AcDbEntity
8
Geo
100
AcDbLine
10
-26.9627927146575
20
9.40166321053447
30
0.000000000000000
11
-26.8627927146575
21
9.30395653828104
31
0.000000000000000
  0
LINE
  5
F10120
330
F10121
100
AcDbEntity
8
Geo
100
AcDbLine
10
-26.8627927146575
20
9.30395653828104
30
0.000000000000000
11
-26.7627927146575
21
9.20599137770203
31
0.000000000000000
  0
LINE
  5
F10122
330
F10123
100
AcDbEntity
8
Geo
100
AcDbLine
10
-26.7627927146575
20
9.20599137770203
30
0.000000000000000
11
-26.6627927146575
21
9.10778303565450
31
0.000000000000000
  0
LINE
  5
F10124
330
F10125
100
AcDbEntity
8
Geo
100
AcDbLine
10
-26.6627927146575
20
9.10778303565450
30
0.000000000000000
11
-26.5627927146575
21
9.00934685699207
31
0.000000000000000
  0
LINE
  5
F10126
330
F10127
100
AcDbEntity
8
Geo
100
AcDbLine
10
-26.5627927146575
20
9.00934685699207
30
0.000000000000000
11
-26.4627927146575
21
8.91069822216739
31
0.000000000000000
  0
LINE
  5
F10128
330
F10129
100
AcDbEntity
8
Geo
100
AcDbLine
10
-26.4627927146575
20
8.91069822216739
30
0.000000000000000
11
-26.3627927146575
21
8.81185254482895
31
0.000000000000000
  0
LINE
  5
F1012A
330
F1012B
100
AcDbEntity
8
Geo
100
AcDbLine
10
-26.3627927146575
20
8.81185254482895
30
0.000000000000000
11
-26.2627927146575
21
8.71282526941274
31
0.000000000000000
  0
LINE
  5
F1012C
330
F1012D
100
AcDbEntity
8
Geo
100
AcDbLine
10
-26.2627927146575
20
8.71282526941274
30
0.000000000000000
11
-26.1627927146575
21
8.61363186872907
31
0.000000000000000
  0
LINE
  5
F1012E
330
F1012F
100
AcDbEntity
8
Geo
100
AcDbLine
10
-26.1627927146575
20
8.61363186872907
30
0.000000000000000
11
-26.0627927146575
21
8.51428784154499
31
0.000000000000000
  0
LINE
  5
F10130
330
F10131
100
AcDbEntity
8
Geo
100
AcDbLine
10
-26.0627927146575
20
8.51428784154499
30
0.000000000000000
11
-25.9627927146575
21
8.41480871016263
31
0.000000000000000
  0
LINE
  5
F10132
330
F10133
100
AcDbEntity
8
Geo
100
AcDbLine
10
-25.9627927146575
20
8.41480871016263
30
0.000000000000000
11
-25.8627927146575
21
8.31521001799389
31
0.000000000000000
  0
LINE
  5
F10134
330
F10135
100
AcDbEntity
8
Geo
100
AcDbLine
10
-25.8627927146575
20
8.31521001799389
30
0.000000000000000
11
-25.7627927146575
21
8.21550732713176
31
0.000000000000000
  0
LINE
  5
F10136
330
F10137
100
AcDbEntity
8
Geo
100
AcDbLine
10
-25.7627927146575
20
8.21550732713176
30
0.000000000000000
11
-25.6627927146575
21
8.11571621591888
31
0.000000000000000
  0
LINE
  5
F10138
330
F10139
100
AcDbEntity
8
Geo
100
AcDbLine
10
-25.6627927146575
20
8.11571621591888
30
0.000000000000000
11
-25.5627927146575
21
8.01585227651332
31
0.000000000000000
  0
LINE
  5
F1013A
330
F1013B
100
AcDbEntity
8
Geo
100
AcDbLine
10
-25.5627927146575
20
8.01585227651332
30
0.000000000000000
11
-25.4627927146575
21
7.91593111245246
31
0.000000000000000
  0
LINE
  5
F1013C
330
F1013D
100
AcDbEntity
8
Geo
100
AcDbLine
10
-25.4627927146575
20
7.91593111245246
30
0.000000000000000
11
-25.3627927146575
21
7.81596833621488
31
0.000000000000000
  0
LINE
  5
F1013E
330
F1013F
100
AcDbEntity
8
Geo
100
AcDbLine
10
-25.3627927146575
20
7.81596833621488
30
0.000000000000000
11
-25.2627927146575
21
7.71597956678101
31
0.000000000000000
  0
LINE
  5
F10140
330
F10141
100
AcDbEntity
8
Geo
100
AcDbLine
10
-25.2627927146575
20
7.71597956678101
30
0.000000000000000
11
-25.1627927146575
21
7.61598042719264
31
0.000000000000000
  0
LINE
  5
F10142
330
F10143
100
AcDbEntity
8
Geo
100
AcDbLine
10
-25.1627927146575
20
7.61598042719264
30
0.000000000000000
11
-25.0627927146575
21
7.51598654211188
31
0.000000000000000
  0
LINE
  5
F10144
330
F10145
100
AcDbEntity
8
Geo
100
AcDbLine
10
-25.0627927146575
20
7.51598654211188
30
0.000000000000000
11
-24.9627927146575
21
7.41601353537983
31
0.000000000000000
  0
LINE
  5
F10146
330
F10147
100
AcDbEntity
8
Geo
100
AcDbLine
10
-24.9627927146575
20
7.41601353537983
30
0.000000000000000
11
-24.8627927146575
21
7.31607702757542
31
0.000000000000000
  0
LINE
  5
F10148
330
F10149
100
AcDbEntity
8
Geo
100
AcDbLine
10
-24.8627927146575
20
7.31607702757542
30
0.000000000000000
11
-24.7627927146575
21
7.21619263357465
31
0.000000000000000
  0
LINE
  5
F1014A
330
F1014B
100
AcDbEntity
8
Geo
100
AcDbLine
10
-24.7627927146575
20
7.21619263357465
30
0.000000000000000
11
-24.6627927146575
21
7.11637596011089
31
0.000000000000000
  0
LINE
  5
F1014C
330
F1014D
100
AcDbEntity
8
Geo
100
AcDbLine
10
-24.6627927146575
20
7.11637596011089
30
0.000000000000000
11
-24.5627927146575
21
7.01664260333627
31
0.000000000000000
  0
LINE
  5
F1014E
330
F1014F
100
AcDbEntity
8
Geo
100
AcDbLine
10
-24.5627927146575
20
7.01664260333627
30
0.000000000000000
11
-24.4627927146575
21
6.91700814638490
31
0.000000000000000
  0
LINE
  5
F10150
330
F10151
100
AcDbEntity
8
Geo
100
AcDbLine
10
-24.4627927146575
20
6.91700814638490
30
0.000000000000000
11
-24.3627927146575
21
6.81748815693796
31
0.000000000000000
  0
LINE
  5
F10152
330
F10153
100
AcDbEntity
8
Geo
100
AcDbLine
10
-24.3627927146575
20
6.81748815693796
30
0.000000000000000
11
-24.2627927146575
21
6.71809818479133
31
0.000000000000000
  0
LINE
  5
F10154
330
F10155
100
AcDbEntity
8
Geo
100
AcDbLine
10
-24.2627927146575
20
6.71809818479133
30
0.000000000000000
11
-24.1627927146575
21
6.61885375942595
31
0.000000000000000
  0
LINE
  5
F10156
330
F10157
100
AcDbEntity
8
Geo
100
AcDbLine
10
-24.1627927146575
20
6.61885375942595
30
0.000000000000000
11
-24.0627927146575
21
6.51977038758137
31
0.000000000000000
  0
LINE
  5
F10158
330
F10159
100
AcDbEntity
8
Geo
100
AcDbLine
10
-24.0627927146575
20
6.51977038758137
30
0.000000000000000
11
-23.9627927146575
21
6.42086355083286
31
0.000000000000000
  0
LINE
  5
F1015A
330
F1015B
100
AcDbEntity
8
Geo
100
AcDbLine
10
-23.9627927146575
20
6.42086355083286
30
0.000000000000000
11
-23.8627927146575
21
6.32214870317244
31
0.000000000000000
  0
LINE
  5
F1015C
330
F1015D
100
AcDbEntity
8
Geo
100
AcDbLine
10
-23.8627927146575
20
6.32214870317244
30
0.000000000000000
11
-23.7627927146575
21
6.22364126859421
31
0.000000000000000
  0
LINE
  5
F1015E
330
F1015F
100
AcDbEntity
8
Geo
100
AcDbLine
10
-23.7627927146575
20
6.22364126859421
30
0.000000000000000
11
-23.6627927146575
21
6.12535663868442
31
0.000000000000000
  0
LINE
  5
F10160
330
F10161
100
AcDbEntity
8
Geo
100
AcDbLine
10
-23.6627927146575
20
6.12535663868442
30
0.000000000000000
11
-23.5627927146575
21
6.02731017021653
31
0.000000000000000
  0
LINE
  5
F10162
330
F10163
100
AcDbEntity
8
Geo
100
AcDbLine
10
-23.5627927146575
20
6.02731017021653
30
0.000000000000000
11
-23.4627927146575
21
5.92951718275176
31
0.000000000000000
  0
LINE
  5
F10164
330
F10165
100
AcDbEntity
8
Geo
100
AcDbLine
10
-23.4627927146575
20
5.92951718275176
30
0.000000000000000
11
-23.3627927146575
21
5.83199295624545
31
0.000000000000000
  0
LINE
  5
F10166
330
F10167
100
AcDbEntity
8
Geo
100
AcDbLine
10
-23.3627927146575
20
5.83199295624545
30
0.000000000000000
11
-23.2627927146575
21
5.73475272865958
31
0.000000000000000
  0
LINE
  5
F10168
330
F10169
100
AcDbEntity
8
Geo
100
AcDbLine
10
-23.2627927146575
20
5.73475272865958
30
0.000000000000000
11
-23.1627927146575
21
5.63781169358186
31
0.000000000000000
  0
LINE
  5
F1016A
330
F1016B
100
AcDbEntity
8
Geo
100
AcDbLine
10
-23.1627927146575
20
5.63781169358186
30
0.000000000000000
11
-23.0627927146575
21
5.54118499785181
31
0.000000000000000
  0
LINE
  5
F1016C
330
F1016D
100
AcDbEntity
8
Geo
100
AcDbLine
10
-23.0627927146575
20
5.54118499785181
30
0.000000000000000
11
-22.9627927146575
21
5.44488773919405
31
0.000000000000000
  0
LINE
  5
F1016E
330
F1016F
100
AcDbEntity
8
Geo
100
AcDbLine
10
-22.9627927146575
20
5.44488773919405
30
0.000000000000000
11
-22.8627927146575
21
5.34893496385932
31
0.000000000000000
  0
LINE
  5
F10170
330
F10171
100
AcDbEntity
8
Geo
100
AcDbLine
10
-22.8627927146575
20
5.34893496385932
30
0.000000000000000
11
-22.7627927146575
21
5.25334166427356
31
0.000000000000000
  0
LINE
  5
F10172
330
F10173
100
AcDbEntity
8
Geo
100
AcDbLine
10
-37.7627927146575
20
7.64960971379011
30
0.000000000000000
11
-37.6627927146574
21
7.54961231793641
31
0.000000000000000
  0
LINE
  5
F10174
330
F10175
100
AcDbEntity
8
Geo
100
AcDbLine
10
-37.6627927146574
20
7.54961231793641
30
0.000000000000000
11
-37.5627927146574
21
7.44963054647239
31
0.000000000000000
  0
LINE
  5
F10176
330
F10177
100
AcDbEntity
8
Geo
100
AcDbLine
10
-37.5627927146574
20
7.44963054647239
30
0.000000000000000
11
-37.4627927146575
21
7.34968002134640
31
0.000000000000000
  0
LINE
  5
F10178
330
F10179
100
AcDbEntity
8
Geo
100
AcDbLine
10
-37.4627927146575
20
7.34968002134640
30
0.000000000000000
11
-37.3627927146575
21
7.24977635962466
31
0.000000000000000
  0
LINE
  5
F1017A
330
F1017B
100
AcDbEntity
8
Geo
100
AcDbLine
10
-37.3627927146575
20
7.24977635962466
30
0.000000000000000
11
-37.2627927146575
21
7.14993517105104
31
0.000000000000000
  0
LINE
  5
F1017C
330
F1017D
100
AcDbEntity
8
Geo
100
AcDbLine
10
-37.2627927146575
20
7.14993517105104
30
0.000000000000000
11
-37.1627927146574
21
7.05017205560815
31
0.000000000000000
  0
LINE
  5
F1017E
330
F1017F
100
AcDbEntity
8
Geo
100
AcDbLine
10
-37.1627927146574
20
7.05017205560815
30
0.000000000000000
11
-37.0627927146574
21
6.95050260107979
31
0.000000000000000
  0
LINE
  5
F10180
330
F10181
100
AcDbEntity
8
Geo
100
AcDbLine
10
-37.0627927146574
20
6.95050260107979
30
0.000000000000000
11
-36.9627927146575
21
6.85094238061546
31
0.000000000000000
  0
LINE
  5
F10182
330
F10183
100
AcDbEntity
8
Geo
100
AcDbLine
10
-36.9627927146575
20
6.85094238061546
30
0.000000000000000
11
-36.8627927146575
21
6.75150695029706
31
0.000000000000000
  0
LINE
  5
F10184
330
F10185
100
AcDbEntity
8
Geo
100
AcDbLine
10
-36.8627927146575
20
6.75150695029706
30
0.000000000000000
11
-36.7627927146575
21
6.65221184670826
31
0.000000000000000
  0
LINE
  5
F10186
330
F10187
100
AcDbEntity
8
Geo
100
AcDbLine
10
-36.7627927146575
20
6.65221184670826
30
0.000000000000000
11
-36.6627927146574
21
6.55307258450700
31
0.000000000000000
  0
LINE
  5
F10188
330
F10189
100
AcDbEntity
8
Geo
100
AcDbLine
10
-36.6627927146574
20
6.55307258450700
30
0.000000000000000
11
-36.5627927146574
21
6.45410465400129
31
0.000000000000000
  0
LINE
  5
F1018A
330
F1018B
100
AcDbEntity
8
Geo
100
AcDbLine
10
-36.5627927146574
20
6.45410465400129
30
0.000000000000000
11
-36.4627927146575
21
6.35532351872892
31
0.000000000000000
  0
LINE
  5
F1018C
330
F1018D
100
AcDbEntity
8
Geo
100
AcDbLine
10
-36.4627927146575
20
6.35532351872892
30
0.000000000000000
11
-36.3627927146575
21
6.25674461304132
31
0.000000000000000
  0
LINE
  5
F1018E
330
F1018F
100
AcDbEntity
8
Geo
100
AcDbLine
10
-36.3627927146575
20
6.25674461304132
30
0.000000000000000
11
-36.2627927146575
21
6.15838333969193
31
0.000000000000000
  0
LINE
  5
F10190
330
F10191
100
AcDbEntity
8
Geo
100
AcDbLine
10
-36.2627927146575
20
6.15838333969193
30
0.000000000000000
11
-36.1627927146574
21
6.06025506742960
31
0.000000000000000
  0
LINE
  5
F10192
330
F10193
100
AcDbEntity
8
Geo
100
AcDbLine
10
-36.1627927146574
20
6.06025506742960
30
0.000000000000000
11
-36.0627927146574
21
5.96237512859723
31
0.000000000000000
  0
LINE
  5
F10194
330
F10195
100
AcDbEntity
8
Geo
100
AcDbLine
10
-36.0627927146574
20
5.96237512859723
30
0.000000000000000
11
-35.9627927146575
21
5.86475881673612
31
0.000000000000000
  0
LINE
  5
F10196
330
F10197
100
AcDbEntity
8
Geo
100
AcDbLine
10
-35.9627927146575
20
5.86475881673612
30
0.000000000000000
11
-35.8627927146575
21
5.76742138419641
31
0.000000000000000
  0
LINE
  5
F10198
330
F10199
100
AcDbEntity
8
Geo
100
AcDbLine
10
-35.8627927146575
20
5.76742138419641
30
0.000000000000000
11
-35.7627927146575
21
5.67037803975390
31
0.000000000000000
  0
LINE
  5
F1019A
330
F1019B
100
AcDbEntity
8
Geo
100
AcDbLine
10
-35.7627927146575
20
5.67037803975390
30
0.000000000000000
11
-35.6627927146574
21
5.57364394623372
31
0.000000000000000
  0
LINE
  5
F1019C
330
F1019D
100
AcDbEntity
8
Geo
100
AcDbLine
10
-35.6627927146574
20
5.57364394623372
30
0.000000000000000
11
-35.5627927146574
21
5.47723421814118
31
0.000000000000000
  0
LINE
  5
F1019E
330
F1019F
100
AcDbEntity
8
Geo
100
AcDbLine
10
-35.5627927146574
20
5.47723421814118
30
0.000000000000000
11
-35.4627927146575
21
5.38116391930015
31
0.000000000000000
  0
LINE
  5
F101A0
330
F101A1
100
AcDbEntity
8
Geo
100
AcDbLine
10
-35.4627927146575
20
5.38116391930015
30
0.000000000000000
11
-35.3627927146575
21
5.28544806049937
31
0.000000000000000
  0
LINE
  5
F101A2
330
F101A3
100
AcDbEntity
8
Geo
100
AcDbLine
10
-35.3627927146575
20
5.28544806049937
30
0.000000000000000
11
-35.2627927146575
21
5.19010159714704
31
0.000000000000000
  0
LINE
  5
F101A4
330
F101A5
100
AcDbEntity
8
Geo
100
AcDbLine
10
-35.2627927146575
20
5.19010159714704
30
0.000000000000000
11
-35.1627927146574
21
5.09513942693408
31
0.000000000000000
  0
LINE
  5
F101A6
330
F101A7
100
AcDbEntity
8
Geo
100
AcDbLine
10
-35.1627927146574
20
5.09513942693408
30
0.000000000000000
11
-35.0627927146574
21
5.00057638750638
31
0.000000000000000
  0
LINE
  5
F101A8
330
F101A9
100
AcDbEntity
8
Geo
100
AcDbLine
10
-35.0627927146574
20
5.00057638750638
30
0.000000000000000
11
-34.9627927146574
21
4.90642725414648
31
0.000000000000000
  0
LINE
  5
F101AA
330
F101AB
100
AcDbEntity
8
Geo
100
AcDbLine
10
-34.9627927146574
20
4.90642725414648
30
0.000000000000000
11
-34.8627927146575
21
4.81270673746490
31
0.000000000000000
  0
LINE
  5
F101AC
330
F101AD
100
AcDbEntity
8
Geo
100
AcDbLine
10
-34.8627927146575
20
4.81270673746490
30
0.000000000000000
11
-34.7627927146575
21
4.71942948110171
31
0.000000000000000
  0
LINE
  5
F101AE
330
F101AF
100
AcDbEntity
8
Geo
100
AcDbLine
10
-34.7627927146575
20
4.71942948110171
30
0.000000000000000
11
-34.6627927146574
21
4.62661005943844
31
0.000000000000000
  0
LINE
  5
F101B0
330
F101B1
100
AcDbEntity
8
Geo
100
AcDbLine
10
-34.6627927146574
20
4.62661005943844
30
0.000000000000000
11
-34.5627927146574
21
4.53426297532088
31
0.000000000000000
  0
LINE
  5
F101B2
330
F101B3
100
AcDbEntity
8
Geo
100
AcDbLine
10
-34.5627927146574
20
4.53426297532088
30
0.000000000000000
11
-34.4627927146574
21
4.44240265779306
31
0.000000000000000
  0
LINE
  5
F101B4
330
F101B5
100
AcDbEntity
8
Geo
100
AcDbLine
10
-34.4627927146574
20
4.44240265779306
30
0.000000000000000
11
-34.3627927146575
21
4.35104345984269
31
0.000000000000000
  0
LINE
  5
F101B6
330
F101B7
100
AcDbEntity
8
Geo
100
AcDbLine
10
-34.3627927146575
20
4.35104345984269
30
0.000000000000000
11
-34.2627927146575
21
4.26019965615858
31
0.000000000000000
  0
LINE
  5
F101B8
330
F101B9
100
AcDbEntity
8
Geo
100
AcDbLine
10
-34.2627927146575
20
4.26019965615858
30
0.000000000000000
11
-34.1627927146574
21
4.16988544090025
31
0.000000000000000
  0
LINE
  5
F101BA
330
F101BB
100
AcDbEntity
8
Geo
100
AcDbLine
10
-34.1627927146574
20
4.16988544090025
30
0.000000000000000
11
-34.0627927146574
21
4.08011492548007
31
0.000000000000000
  0
LINE
  5
F101BC
330
F101BD
100
AcDbEntity
8
Geo
100
AcDbLine
10
-34.0627927146574
20
4.08011492548007
30
0.000000000000000
11
-33.9627927146574
21
3.99090213635844
31
0.000000000000000
  0
LINE
  5
F101BE
330
F101BF
100
AcDbEntity
8
Geo
100
AcDbLine
10
-33.9627927146574
20
3.99090213635844
30
0.000000000000000
11
-33.8627927146574
21
3.90226101285217
31
0.000000000000000
  0
LINE
  5
F101C0
330
F101C1
100
AcDbEntity
8
Geo
100
AcDbLine
10
-33.8627927146574
20
3.90226101285217
30
0.000000000000000
11
-33.7627927146575
21
3.81420540495646
31
0.000000000000000
  0
LINE
  5
F101C2
330
F101C3
100
AcDbEntity
8
Geo
100
AcDbLine
10
-33.7627927146575
20
3.81420540495646
30
0.000000000000000
11
-33.6627927146574
21
3.72674907118090
31
0.000000000000000
  0
LINE
  5
F101C4
330
F101C5
100
AcDbEntity
8
Geo
100
AcDbLine
10
-33.6627927146574
20
3.72674907118090
30
0.000000000000000
11
-33.5627927146574
21
3.63990567639971
31
0.000000000000000
  0
LINE
  5
F101C6
330
F101C7
100
AcDbEntity
8
Geo
100
AcDbLine
10
-33.5627927146574
20
3.63990567639971
30
0.000000000000000
11
-33.4627927146575
21
3.55368878971663
31
0.000000000000000
  0
LINE
  5
F101C8
330
F101C9
100
AcDbEntity
8
Geo
100
AcDbLine
10
-33.4627927146575
20
3.55368878971663
30
0.000000000000000
11
-33.3627927146575
21
3.46811188234482
31
0.000000000000000
  0
LINE
  5
F101CA
330
F101CB
100
AcDbEntity
8
Geo
100
AcDbLine
10
-33.3627927146575
20
3.46811188234482
30
0.000000000000000
11
-33.2627927146575
21
3.38318832550193
31
0.000000000000000
  0
LINE
  5
F101CC
330
F101CD
100
AcDbEntity
8
Geo
100
AcDbLine
10
-33.2627927146575
20
3.38318832550193
30
0.000000000000000
11
-33.1627927146574
21
3.29893138832095
31
0.000000000000000
  0
LINE
  5
F101CE
330
F101CF
100
AcDbEntity
8
Geo
100
AcDbLine
10
-33.1627927146574
20
3.29893138832095
30
0.000000000000000
11
-33.0627927146574
21
3.21535423577689
31
0.000000000000000
  0
LINE
  5
F101D0
330
F101D1
100
AcDbEntity
8
Geo
100
AcDbLine
10
-33.0627927146574
20
3.21535423577689
30
0.000000000000000
11
-32.9627927146575
21
3.13246992662981
31
0.000000000000000
  0
LINE
  5
F101D2
330
F101D3
100
AcDbEntity
8
Geo
100
AcDbLine
10
-32.9627927146575
20
3.13246992662981
30
0.000000000000000
11
-32.8627927146575
21
3.05029141138437
31
0.000000000000000
  0
LINE
  5
F101D4
330
F101D5
100
AcDbEntity
8
Geo
100
AcDbLine
10
-32.8627927146575
20
3.05029141138437
30
0.000000000000000
11
-32.7627927146575
21
2.96883153026640
31
0.000000000000000
  0
LINE
  5
F101D6
330
F101D7
100
AcDbEntity
8
Geo
100
AcDbLine
10
-32.7627927146575
20
2.96883153026640
30
0.000000000000000
11
-32.6627927146575
21
2.88810301121658
31
0.000000000000000
  0
LINE
  5
F101D8
330
F101D9
100
AcDbEntity
8
Geo
100
AcDbLine
10
-32.6627927146575
20
2.88810301121658
30
0.000000000000000
11
-32.5627927146575
21
2.80811846790178
31
0.000000000000000
  0
LINE
  5
F101DA
330
F101DB
100
AcDbEntity
8
Geo
100
AcDbLine
10
-32.5627927146575
20
2.80811846790178
30
0.000000000000000
11
-32.4627927146575
21
2.72889039774416
31
0.000000000000000
  0
LINE
  5
F101DC
330
F101DD
100
AcDbEntity
8
Geo
100
AcDbLine
10
-32.4627927146575
20
2.72889039774416
30
0.000000000000000
11
-32.3627927146575
21
2.65043117996850
31
0.000000000000000
  0
LINE
  5
F101DE
330
F101DF
100
AcDbEntity
8
Geo
100
AcDbLine
10
-32.3627927146575
20
2.65043117996850
30
0.000000000000000
11
-32.2627927146575
21
2.57275307366794
31
0.000000000000000
  0
LINE
  5
F101E0
330
F101E1
100
AcDbEntity
8
Geo
100
AcDbLine
10
-32.2627927146575
20
2.57275307366794
30
0.000000000000000
11
-32.1627927146575
21
2.49586821588857
31
0.000000000000000
  0
LINE
  5
F101E2
330
F101E3
100
AcDbEntity
8
Geo
100
AcDbLine
10
-32.1627927146575
20
2.49586821588857
30
0.000000000000000
11
-32.0627927146575
21
2.41978861973298
31
0.000000000000000
  0
LINE
  5
F101E4
330
F101E5
100
AcDbEntity
8
Geo
100
AcDbLine
10
-32.0627927146575
20
2.41978861973298
30
0.000000000000000
11
-31.9627927146575
21
2.34452617248330
31
0.000000000000000
  0
LINE
  5
F101E6
330
F101E7
100
AcDbEntity
8
Geo
100
AcDbLine
10
-31.9627927146575
20
2.34452617248330
30
0.000000000000000
11
-31.8627927146575
21
2.27009263374378
31
0.000000000000000
  0
LINE
  5
F101E8
330
F101E9
100
AcDbEntity
8
Geo
100
AcDbLine
10
-31.8627927146575
20
2.27009263374378
30
0.000000000000000
11
-31.7627927146575
21
2.19649963360342
31
0.000000000000000
  0
LINE
  5
F101EA
330
F101EB
100
AcDbEntity
8
Geo
100
AcDbLine
10
-31.7627927146575
20
2.19649963360342
30
0.000000000000000
11
-31.6627927146575
21
2.12375867081877
31
0.000000000000000
  0
LINE
  5
F101EC
330
F101ED
100
AcDbEntity
8
Geo
100
AcDbLine
10
-31.6627927146575
20
2.12375867081877
30
0.000000000000000
11
-31.5627927146575
21
2.05188111101727
31
0.000000000000000
  0
LINE
  5
F101EE
330
F101EF
100
AcDbEntity
8
Geo
100
AcDbLine
10
-31.5627927146575
20
2.05188111101727
30
0.000000000000000
11
-31.4627927146575
21
1.98087818492140
31
0.000000000000000
  0
LINE
  5
F101F0
330
F101F1
100
AcDbEntity
8
Geo
100
AcDbLine
10
-31.4627927146575
20
1.98087818492140
30
0.000000000000000
11
-31.3627927146575
21
1.91076098659392
31
0.000000000000000
  0
LINE
  5
F101F2
330
F101F3
100
AcDbEntity
8
Geo
100
AcDbLine
10
-31.3627927146575
20
1.91076098659392
30
0.000000000000000
11
-31.2627927146575
21
1.84154047170440
31
0.000000000000000
  0
LINE
  5
F101F4
330
F101F5
100
AcDbEntity
8
Geo
100
AcDbLine
10
-31.2627927146575
20
1.84154047170440
30
0.000000000000000
11
-31.1627927146575
21
1.77322745581747
31
0.000000000000000
  0
LINE
  5
F101F6
330
F101F7
100
AcDbEntity
8
Geo
100
AcDbLine
10
-31.1627927146575
20
1.77322745581747
30
0.000000000000000
11
-31.0627927146575
21
1.70583261270288
31
0.000000000000000
  0
LINE
  5
F101F8
330
F101F9
100
AcDbEntity
8
Geo
100
AcDbLine
10
-31.0627927146575
20
1.70583261270288
30
0.000000000000000
11
-30.9627927146575
21
1.63936647266776
31
0.000000000000000
  0
LINE
  5
F101FA
330
F101FB
100
AcDbEntity
8
Geo
100
AcDbLine
10
-30.9627927146575
20
1.63936647266776
30
0.000000000000000
11
-30.8627927146575
21
1.57383942091125
31
0.000000000000000
  0
LINE
  5
F101FC
330
F101FD
100
AcDbEntity
8
Geo
100
AcDbLine
10
-30.8627927146575
20
1.57383942091125
30
0.000000000000000
11
-30.7627927146575
21
1.50926169590188
31
0.000000000000000
  0
LINE
  5
F101FE
330
F101FF
100
AcDbEntity
8
Geo
100
AcDbLine
10
-30.7627927146575
20
1.50926169590188
30
0.000000000000000
11
-30.6627927146575
21
1.44564338777781
31
0.000000000000000
  0
LINE
  5
F10200
330
F10201
100
AcDbEntity
8
Geo
100
AcDbLine
10
-30.6627927146575
20
1.44564338777781
30
0.000000000000000
11
-30.5627927146575
21
1.38299443677024
31
0.000000000000000
  0
LINE
  5
F10202
330
F10203
100
AcDbEntity
8
Geo
100
AcDbLine
10
-30.5627927146575
20
1.38299443677024
30
0.000000000000000
11
-30.4627927146575
21
1.32132463165030
31
0.000000000000000
  0
LINE
  5
F10204
330
F10205
100
AcDbEntity
8
Geo
100
AcDbLine
10
-30.4627927146575
20
1.32132463165030
30
0.000000000000000
11
-30.3627927146575
21
1.26064360819959
31
0.000000000000000
  0
LINE
  5
F10206
330
F10207
100
AcDbEntity
8
Geo
100
AcDbLine
10
-30.3627927146575
20
1.26064360819959
30
0.000000000000000
11
-30.2627927146575
21
1.20096084770456
31
0.000000000000000
  0
LINE
  5
F10208
330
F10209
100
AcDbEntity
8
Geo
100
AcDbLine
10
-30.2627927146575
20
1.20096084770456
30
0.000000000000000
11
-30.1627927146575
21
1.14228567547511
31
0.000000000000000
  0
LINE
  5
F1020A
330
F1020B
100
AcDbEntity
8
Geo
100
AcDbLine
10
-30.1627927146575
20
1.14228567547511
30
0.000000000000000
11
-30.0627927146575
21
1.08462725938754
31
0.000000000000000
  0
LINE
  5
F1020C
330
F1020D
100
AcDbEntity
8
Geo
100
AcDbLine
10
-30.0627927146575
20
1.08462725938754
30
0.000000000000000
11
-29.9627927146575
21
1.02799460845204
31
0.000000000000000
  0
LINE
  5
F1020E
330
F1020F
100
AcDbEntity
8
Geo
100
AcDbLine
10
-29.9627927146575
20
1.02799460845204
30
0.000000000000000
11
-29.8627927146575
21
0.972396571405117
31
0.000000000000000
  0
LINE
  5
F10210
330
F10211
100
AcDbEntity
8
Geo
100
AcDbLine
10
-29.8627927146575
20
0.972396571405117
30
0.000000000000000
11
-29.7627927146575
21
0.917841835326933
31
0.000000000000000
  0
LINE
  5
F10212
330
F10213
100
AcDbEntity
8
Geo
100
AcDbLine
10
-29.7627927146575
20
0.917841835326933
30
0.000000000000000
11
-29.6627927146575
21
0.864338924284014
31
0.000000000000000
  0
LINE
  5
F10214
330
F10215
100
AcDbEntity
8
Geo
100
AcDbLine
10
-29.6627927146575
20
0.864338924284014
30
0.000000000000000
11
-29.5627927146575
21
0.811896197997360
31
0.000000000000000
  0
LINE
  5
F10216
330
F10217
100
AcDbEntity
8
Geo
100
AcDbLine
10
-29.5627927146575
20
0.811896197997360
30
0.000000000000000
11
-29.4627927146575
21
0.760521850536255
31
0.000000000000000
  0
LINE
  5
F10218
330
F10219
100
AcDbEntity
8
Geo
100
AcDbLine
10
-29.4627927146575
20
0.760521850536255
30
0.000000000000000
11
-29.3627927146575
21
0.710223909037971
31
0.000000000000000
  0
LINE
  5
F1021A
330
F1021B
100
AcDbEntity
8
Geo
100
AcDbLine
10
-29.3627927146575
20
0.710223909037971
30
0.000000000000000
11
-29.2627927146575
21
0.661010232453538
31
0.000000000000000
  0
LINE
  5
F1021C
330
F1021D
100
AcDbEntity
8
Geo
100
AcDbLine
10
-29.2627927146575
20
0.661010232453538
30
0.000000000000000
11
-29.1627927146575
21
0.612888510319796
31
0.000000000000000
  0
LINE
  5
F1021E
330
F1021F
100
AcDbEntity
8
Geo
100
AcDbLine
10
-29.1627927146575
20
0.612888510319796
30
0.000000000000000
11
-29.0627927146575
21
0.565866261557924
31
0.000000000000000
  0
LINE
  5
F10220
330
F10221
100
AcDbEntity
8
Geo
100
AcDbLine
10
-29.0627927146575
20
0.565866261557924
30
0.000000000000000
11
-28.9627927146575
21
0.519950833298625
31
0.000000000000000
  0
LINE
  5
F10222
330
F10223
100
AcDbEntity
8
Geo
100
AcDbLine
10
-28.9627927146575
20
0.519950833298625
30
0.000000000000000
11
-28.8627927146575
21
0.475149399734152
31
0.000000000000000
  0
LINE
  5
F10224
330
F10225
100
AcDbEntity
8
Geo
100
AcDbLine
10
-28.8627927146575
20
0.475149399734152
30
0.000000000000000
11
-28.7627927146575
21
0.431468960997347
31
0.000000000000000
  0
LINE
  5
F10226
330
F10227
100
AcDbEntity
8
Geo
100
AcDbLine
10
-28.7627927146575
20
0.431468960997347
30
0.000000000000000
11
-28.6627927146575
21
0.388916342067899
31
0.000000000000000
  0
LINE
  5
F10228
330
F10229
100
AcDbEntity
8
Geo
100
AcDbLine
10
-28.6627927146575
20
0.388916342067899
30
0.000000000000000
11
-28.5627927146575
21
0.347498191705941
31
0.000000000000000
  0
LINE
  5
F1022A
330
F1022B
100
AcDbEntity
8
Geo
100
AcDbLine
10
-28.5627927146575
20
0.347498191705941
30
0.000000000000000
11
-28.4627927146575
21
0.307220981413201
31
0.000000000000000
  0
LINE
  5
F1022C
330
F1022D
100
AcDbEntity
8
Geo
100
AcDbLine
10
-28.4627927146575
20
0.307220981413201
30
0.000000000000000
11
-28.3627927146575
21
0.268091004421846
31
0.000000000000000
  0
LINE
  5
F1022E
330
F1022F
100
AcDbEntity
8
Geo
100
AcDbLine
10
-28.3627927146575
20
0.268091004421846
30
0.000000000000000
11
-28.2627927146575
21
0.230114374711168
31
0.000000000000000
  0
LINE
  5
F10230
330
F10231
100
AcDbEntity
8
Geo
100
AcDbLine
10
-28.2627927146575
20
0.230114374711168
30
0.000000000000000
11
-28.1627927146575
21
0.193297026052300
31
0.000000000000000
  0
LINE
  5
F10232
330
F10233
100
AcDbEntity
8
Geo
100
AcDbLine
10
-28.1627927146575
20
0.193297026052300
30
0.000000000000000
11
-28.0627927146575
21
0.157644711081061
31
0.000000000000000
  0
LINE
  5
F10234
330
F10235
100
AcDbEntity
8
Geo
100
AcDbLine
10
-28.0627927146575
20
0.157644711081061
30
0.000000000000000
11
-27.9627927146575
21
0.123163000399134
31
0.000000000000000
  0
LINE
  5
F10236
330
F10237
100
AcDbEntity
8
Geo
100
AcDbLine
10
-27.9627927146575
20
0.123163000399134
30
0.000000000000000
11
-27.8627927146575
21
0.0898572817036589
31
0.000000000000000
  0
LINE
  5
F10238
330
F10239
100
AcDbEntity
8
Geo
100
AcDbLine
10
-27.8627927146575
20
0.0898572817036589
30
0.000000000000000
11
-27.7627927146575
21
0.0577327589454208
31
0.000000000000000
  0
LINE
  5
F1023A
330
F1023B
100
AcDbEntity
8
Geo
100
AcDbLine
10
-27.7627927146575
20
0.0577327589454208
30
0.000000000000000
11
-27.6627927146575
21
0.0267944515157454
31
0.000000000000000
  0
LINE
  5
F1023C
330
F1023D
100
AcDbEntity
8
Geo
100
AcDbLine
10
-27.6627927146575
20
0.0267944515157454
30
0.000000000000000
11
-27.5627927146575
21
-0.00295280653777574
31
0.000000000000000
  0
LINE
  5
F1023E
330
F1023F
100
AcDbEntity
8
Geo
100
AcDbLine
10
-27.5627927146575
20
-0.00295280653777574
30
0.000000000000000
11
-27.4627927146575
21
-0.0315043672665940
31
0.000000000000000
  0
LINE
  5
F10240
330
F10241
100
AcDbEntity
8
Geo
100
AcDbLine
10
-27.4627927146575
20
-0.0315043672665940
30
0.000000000000000
11
-27.3627927146575
21
-0.0588557695474314
31
0.000000000000000
  0
LINE
  5
F10242
330
F10243
100
AcDbEntity
8
Geo
100
AcDbLine
10
-27.3627927146575
20
-0.0588557695474314
30
0.000000000000000
11
-27.2627927146575
21
-0.0850027397793296
31
0.000000000000000
  0
LINE
  5
F10244
330
F10245
100
AcDbEntity
8
Geo
100
AcDbLine
10
-27.2627927146575
20
-0.0850027397793296
30
0.000000000000000
11
-27.1627927146575
21
-0.109941192551386
31
0.000000000000000
  0
LINE
  5
F10246
330
F10247
100
AcDbEntity
8
Geo
100
AcDbLine
10
-27.1627927146575
20
-0.109941192551386
30
0.000000000000000
11
-27.0627927146575
21
-0.133667231281088
31
0.000000000000000
  0
LINE
  5
F10248
330
F10249
100
AcDbEntity
8
Geo
100
AcDbLine
10
-27.0627927146575
20
-0.133667231281088
30
0.000000000000000
11
-26.9627927146575
21
-0.156177148823160
31
0.000000000000000
  0
LINE
  5
F1024A
330
F1024B
100
AcDbEntity
8
Geo
100
AcDbLine
10
-26.9627927146575
20
-0.156177148823160
30
0.000000000000000
11
-26.8627927146575
21
-0.177467428048780
31
0.000000000000000
  0
LINE
  5
F1024C
330
F1024D
100
AcDbEntity
8
Geo
100
AcDbLine
10
-26.8627927146575
20
-0.177467428048780
30
0.000000000000000
11
-26.7627927146575
21
-0.197534742395133
31
0.000000000000000
  0
LINE
  5
F1024E
330
F1024F
100
AcDbEntity
8
Geo
100
AcDbLine
10
-26.7627927146575
20
-0.197534742395133
30
0.000000000000000
11
-26.6627927146575
21
-0.216375956385181
31
0.000000000000000
  0
LINE
  5
F10250
330
F10251
100
AcDbEntity
8
Geo
100
AcDbLine
10
-26.6627927146575
20
-0.216375956385181
30
0.000000000000000
11
-26.5627927146575
21
-0.233988126117568
31
0.000000000000000
  0
LINE
  5
F10252
330
F10253
100
AcDbEntity
8
Geo
100
AcDbLine
10
-26.5627927146575
20
-0.233988126117568
30
0.000000000000000
11
-26.4627927146575
21
-0.250368499726608
31
0.000000000000000
  0
LINE
  5
F10254
330
F10255
100
AcDbEntity
8
Geo
100
AcDbLine
10
-26.4627927146575
20
-0.250368499726608
30
0.000000000000000
11
-26.3627927146575
21
-0.265514517812250
31
0.000000000000000
  0
LINE
  5
F10256
330
F10257
100
AcDbEntity
8
Geo
100
AcDbLine
10
-26.3627927146575
20
-0.265514517812250
30
0.000000000000000
11
-26.2627927146575
21
-0.279423813839980
31
0.000000000000000
  0
LINE
  5
F10258
330
F10259
100
AcDbEntity
8
Geo
100
AcDbLine
10
-26.2627927146575
20
-0.279423813839980
30
0.000000000000000
11
-26.1627927146575
21
-0.292094214510596
31
0.000000000000000
  0
LINE
  5
F1025A
330
F1025B
100
AcDbEntity
8
Geo
100
AcDbLine
10
-26.1627927146575
20
-0.292094214510596
30
0.000000000000000
11
-26.0627927146575
21
-0.303523740099766
31
0.000000000000000
  0
LINE
  5
F1025C
330
F1025D
100
AcDbEntity
8
Geo
100
AcDbLine
10
-26.0627927146575
20
-0.303523740099766
30
0.000000000000000
11
-25.9627927146575
21
-0.313710604767374
31
0.000000000000000
  0
LINE
  5
F1025E
330
F1025F
100
AcDbEntity
8
Geo
100
AcDbLine
10
-25.9627927146575
20
-0.313710604767374
30
0.000000000000000
11
-25.8627927146575
21
-0.322653216836541
31
0.000000000000000
  0
LINE
  5
F10260
330
F10261
100
AcDbEntity
8
Geo
100
AcDbLine
10
-25.8627927146575
20
-0.322653216836541
30
0.000000000000000
11
-25.7627927146575
21
-0.330350179042322
31
0.000000000000000
  0
LINE
  5
F10262
330
F10263
100
AcDbEntity
8
Geo
100
AcDbLine
10
-25.7627927146575
20
-0.330350179042322
30
0.000000000000000
11
-25.6627927146575
21
-0.336800288750035
31
0.000000000000000
  0
LINE
  5
F10264
330
F10265
100
AcDbEntity
8
Geo
100
AcDbLine
10
-25.6627927146575
20
-0.336800288750035
30
0.000000000000000
11
-25.5627927146575
21
-0.342002538143157
31
0.000000000000000
  0
LINE
  5
F10266
330
F10267
100
AcDbEntity
8
Geo
100
AcDbLine
10
-25.5627927146575
20
-0.342002538143157
30
0.000000000000000
11
-25.4627927146575
21
-0.345956114380808
31
0.000000000000000
  0
LINE
  5
F10268
330
F10269
100
AcDbEntity
8
Geo
100
AcDbLine
10
-25.4627927146575
20
-0.345956114380808
30
0.000000000000000
11
-25.3627927146575
21
-0.348660399724743
31
0.000000000000000
  0
LINE
  5
F1026A
330
F1026B
100
AcDbEntity
8
Geo
100
AcDbLine
10
-25.3627927146575
20
-0.348660399724743
30
0.000000000000000
11
-25.2627927146575
21
-0.350114971635878
31
0.000000000000000
  0
LINE
  5
F1026C
330
F1026D
100
AcDbEntity
8
Geo
100
AcDbLine
10
-25.2627927146575
20
-0.350114971635878
30
0.000000000000000
11
-25.1964222906078
21
-0.350390286209887
31
0.000000000000000
  0
LINE
  5
F1026E
330
F1026F
100
AcDbEntity
8
Geo
100
AcDbLine
10
-37.7627927146575
20
-0.350390286209887
30
0.000000000000000
11
-37.7627927146575
21
-0.350390286209887
31
0.000000000000000
  0
LINE
  5
F10270
330
F10271
100
AcDbEntity
8
Geo
100
AcDbLine
10
-25.1964222906077
20
15.6496097137901
30
0.000000000000000
11
-25.1627927146575
21
15.6495390304205
31
0.000000000000000
  0
LINE
  5
F10272
330
F10273
100
AcDbEntity
8
Geo
100
AcDbLine
10
-25.1627927146575
20
15.6495390304205
30
0.000000000000000
11
-25.0627927146575
21
15.6484936889451
31
0.000000000000000
  0
LINE
  5
F10274
330
F10275
100
AcDbEntity
8
Geo
100
AcDbLine
10
-25.0627927146575
20
15.6484936889451
30
0.000000000000000
11
-24.9627927146575
21
15.6461985381222
31
0.000000000000000
  0
LINE
  5
F10276
330
F10277
100
AcDbEntity
8
Geo
100
AcDbLine
10
-24.9627927146575
20
15.6461985381222
30
0.000000000000000
11
-24.8627927146575
21
15.6426539365645
31
0.000000000000000
  0
LINE
  5
F10278
330
F10279
100
AcDbEntity
8
Geo
100
AcDbLine
10
-24.8627927146575
20
15.6426539365645
30
0.000000000000000
11
-24.7627927146575
21
15.6378604381088
31
0.000000000000000
  0
LINE
  5
F1027A
330
F1027B
100
AcDbEntity
8
Geo
100
AcDbLine
10
-24.7627927146575
20
15.6378604381088
30
0.000000000000000
11
-24.6627927146575
21
15.6318187917295
31
0.000000000000000
  0
LINE
  5
F1027C
330
F1027D
100
AcDbEntity
8
Geo
100
AcDbLine
10
-24.6627927146575
20
15.6318187917295
30
0.000000000000000
11
-24.5627927146575
21
15.6245299414215
31
0.000000000000000
  0
LINE
  5
F1027E
330
F1027F
100
AcDbEntity
8
Geo
100
AcDbLine
10
-24.5627927146575
20
15.6245299414215
30
0.000000000000000
11
-24.4627927146575
21
15.6159950260528
31
0.000000000000000
  0
LINE
  5
F10280
330
F10281
100
AcDbEntity
8
Geo
100
AcDbLine
10
-24.4627927146575
20
15.6159950260528
30
0.000000000000000
11
-24.3627927146575
21
15.6062153791868
31
0.000000000000000
  0
LINE
  5
F10282
330
F10283
100
AcDbEntity
8
Geo
100
AcDbLine
10
-24.3627927146575
20
15.6062153791868
30
0.000000000000000
11
-24.2627927146575
21
15.5951925288731
31
0.000000000000000
  0
LINE
  5
F10284
330
F10285
100
AcDbEntity
8
Geo
100
AcDbLine
10
-24.2627927146575
20
15.5951925288731
30
0.000000000000000
11
-24.1627927146575
21
15.5829281974099
31
0.000000000000000
  0
LINE
  5
F10286
330
F10287
100
AcDbEntity
8
Geo
100
AcDbLine
10
-24.1627927146575
20
15.5829281974099
30
0.000000000000000
11
-24.0627927146575
21
15.5694243010738
31
0.000000000000000
  0
LINE
  5
F10288
330
F10289
100
AcDbEntity
8
Geo
100
AcDbLine
10
-24.0627927146575
20
15.5694243010738
30
0.000000000000000
11
-23.9627927146575
21
15.5546829498214
31
0.000000000000000
  0
LINE
  5
F1028A
330
F1028B
100
AcDbEntity
8
Geo
100
AcDbLine
10
-23.9627927146575
20
15.5546829498214
30
0.000000000000000
11
-23.8627927146575
21
15.5387064469586
31
0.000000000000000
  0
LINE
  5
F1028C
330
F1028D
100
AcDbEntity
8
Geo
100
AcDbLine
10
-23.8627927146575
20
15.5387064469586
30
0.000000000000000
11
-23.7627927146575
21
15.5214972887816
31
0.000000000000000
  0
LINE
  5
F1028E
330
F1028F
100
AcDbEntity
8
Geo
100
AcDbLine
10
-23.7627927146575
20
15.5214972887816
30
0.000000000000000
11
-23.6627927146575
21
15.5030581641863
31
0.000000000000000
  0
LINE
  5
F10290
330
F10291
100
AcDbEntity
8
Geo
100
AcDbLine
10
-23.6627927146575
20
15.5030581641863
30
0.000000000000000
11
-23.5627927146575
21
15.4833919542485
31
0.000000000000000
  0
LINE
  5
F10292
330
F10293
100
AcDbEntity
8
Geo
100
AcDbLine
10
-23.5627927146575
20
15.4833919542485
30
0.000000000000000
11
-23.4627927146575
21
15.4625017317733
31
0.000000000000000
  0
LINE
  5
F10294
330
F10295
100
AcDbEntity
8
Geo
100
AcDbLine
10
-23.4627927146575
20
15.4625017317733
30
0.000000000000000
11
-23.3627927146575
21
15.4403907608157
31
0.000000000000000
  0
LINE
  5
F10296
330
F10297
100
AcDbEntity
8
Geo
100
AcDbLine
10
-23.3627927146575
20
15.4403907608157
30
0.000000000000000
11
-23.2627927146575
21
15.4170624961697
31
0.000000000000000
  0
LINE
  5
F10298
330
F10299
100
AcDbEntity
8
Geo
100
AcDbLine
10
-23.2627927146575
20
15.4170624961697
30
0.000000000000000
11
-23.1627927146575
21
15.3925205828294
31
0.000000000000000
  0
LINE
  5
F1029A
330
F1029B
100
AcDbEntity
8
Geo
100
AcDbLine
10
-23.1627927146575
20
15.3925205828294
30
0.000000000000000
11
-23.0627927146575
21
15.3667688554186
31
0.000000000000000
  0
LINE
  5
F1029C
330
F1029D
100
AcDbEntity
8
Geo
100
AcDbLine
10
-23.0627927146575
20
15.3667688554186
30
0.000000000000000
11
-22.9627927146575
21
15.3398113375925
31
0.000000000000000
  0
LINE
  5
F1029E
330
F1029F
100
AcDbEntity
8
Geo
100
AcDbLine
10
-22.9627927146575
20
15.3398113375925
30
0.000000000000000
11
-22.8627927146575
21
15.3116522414084
31
0.000000000000000
  0
LINE
  5
F102A0
330
F102A1
100
AcDbEntity
8
Geo
100
AcDbLine
10
-22.8627927146575
20
15.3116522414084
30
0.000000000000000
11
-22.7627927146575
21
15.2822959666677
31
0.000000000000000
  0
LINE
  5
F102A2
330
F102A3
100
AcDbEntity
8
Geo
100
AcDbLine
10
-27.7096962633345
20
15.6496097137901
30
0.000000000000000
11
-27.6627927146575
21
15.6494722179895
31
0.000000000000000
  0
LINE
  5
F102A4
330
F102A5
100
AcDbEntity
8
Geo
100
AcDbLine
10
-27.6627927146575
20
15.6494722179895
30
0.000000000000000
11
-27.5627927146575
21
15.6482609616396
31
0.000000000000000
  0
LINE
  5
F102A6
330
F102A7
100
AcDbEntity
8
Geo
100
AcDbLine
10
-27.5627927146575
20
15.6482609616396
30
0.000000000000000
11
-27.4627927146575
21
15.6457999323053
31
0.000000000000000
  0
LINE
  5
F102A8
330
F102A9
100
AcDbEntity
8
Geo
100
AcDbLine
10
-27.4627927146575
20
15.6457999323053
30
0.000000000000000
11
-27.3627927146575
21
15.6420895145177
31
0.000000000000000
  0
LINE
  5
F102AA
330
F102AB
100
AcDbEntity
8
Geo
100
AcDbLine
10
-27.3627927146575
20
15.6420895145177
30
0.000000000000000
11
-27.2627927146575
21
15.6371302880218
31
0.000000000000000
  0
LINE
  5
F102AC
330
F102AD
100
AcDbEntity
8
Geo
100
AcDbLine
10
-27.2627927146575
20
15.6371302880218
30
0.000000000000000
11
-27.1627927146575
21
15.6309230276868
31
0.000000000000000
  0
LINE
  5
F102AE
330
F102AF
100
AcDbEntity
8
Geo
100
AcDbLine
10
-27.1627927146575
20
15.6309230276868
30
0.000000000000000
11
-27.0627927146575
21
15.6234687033844
31
0.000000000000000
  0
LINE
  5
F102B0
330
F102B1
100
AcDbEntity
8
Geo
100
AcDbLine
10
-27.0627927146575
20
15.6234687033844
30
0.000000000000000
11
-26.9627927146575
21
15.6147684798376
31
0.000000000000000
  0
LINE
  5
F102B2
330
F102B3
100
AcDbEntity
8
Geo
100
AcDbLine
10
-26.9627927146575
20
15.6147684798376
30
0.000000000000000
11
-26.8627927146575
21
15.6048237164388
31
0.000000000000000
  0
LINE
  5
F102B4
330
F102B5
100
AcDbEntity
8
Geo
100
AcDbLine
10
-26.8627927146575
20
15.6048237164388
30
0.000000000000000
11
-26.7627927146575
21
15.5936359670368
31
0.000000000000000
  0
LINE
  5
F102B6
330
F102B7
100
AcDbEntity
8
Geo
100
AcDbLine
10
-26.7627927146575
20
15.5936359670368
30
0.000000000000000
11
-26.6627927146575
21
15.5812069796949
31
0.000000000000000
  0
LINE
  5
F102B8
330
F102B9
100
AcDbEntity
8
Geo
100
AcDbLine
10
-26.6627927146575
20
15.5812069796949
30
0.000000000000000
11
-26.5627927146575
21
15.5675386964169
31
0.000000000000000
  0
LINE
  5
F102BA
330
F102BB
100
AcDbEntity
8
Geo
100
AcDbLine
10
-26.5627927146575
20
15.5675386964169
30
0.000000000000000
11
-26.4627927146575
21
15.5526332528445
31
0.000000000000000
  0
LINE
  5
F102BC
330
F102BD
100
AcDbEntity
8
Geo
100
AcDbLine
10
-26.4627927146575
20
15.5526332528445
30
0.000000000000000
11
-26.3627927146575
21
15.5364929779227
31
0.000000000000000
  0
LINE
  5
F102BE
330
F102BF
100
AcDbEntity
8
Geo
100
AcDbLine
10
-26.3627927146575
20
15.5364929779227
30
0.000000000000000
11
-26.2627927146575
21
15.5191203935367
31
0.000000000000000
  0
LINE
  5
F102C0
330
F102C1
100
AcDbEntity
8
Geo
100
AcDbLine
10
-26.2627927146575
20
15.5191203935367
30
0.000000000000000
11
-26.1627927146575
21
15.5005182141174
31
0.000000000000000
  0
LINE
  5
F102C2
330
F102C3
100
AcDbEntity
8
Geo
100
AcDbLine
10
-26.1627927146575
20
15.5005182141174
30
0.000000000000000
11
-26.0627927146575
21
15.4806893462176
31
0.000000000000000
  0
LINE
  5
F102C4
330
F102C5
100
AcDbEntity
8
Geo
100
AcDbLine
10
-26.0627927146575
20
15.4806893462176
30
0.000000000000000
11
-25.9627927146575
21
15.4596368880576
31
0.000000000000000
  0
LINE
  5
F102C6
330
F102C7
100
AcDbEntity
8
Geo
100
AcDbLine
10
-25.9627927146575
20
15.4596368880576
30
0.000000000000000
11
-25.8627927146575
21
15.4373641290410
31
0.000000000000000
  0
LINE
  5
F102C8
330
F102C9
100
AcDbEntity
8
Geo
100
AcDbLine
10
-25.8627927146575
20
15.4373641290410
30
0.000000000000000
11
-25.7627927146575
21
15.4138745492412
31
0.000000000000000
  0
LINE
  5
F102CA
330
F102CB
100
AcDbEntity
8
Geo
100
AcDbLine
10
-25.7627927146575
20
15.4138745492412
30
0.000000000000000
11
-25.6627927146575
21
15.3891718188572
31
0.000000000000000
  0
LINE
  5
F102CC
330
F102CD
100
AcDbEntity
8
Geo
100
AcDbLine
10
-25.6627927146575
20
15.3891718188572
30
0.000000000000000
11
-25.5627927146575
21
15.3632597976403
31
0.000000000000000
  0
LINE
  5
F102CE
330
F102CF
100
AcDbEntity
8
Geo
100
AcDbLine
10
-25.5627927146575
20
15.3632597976403
30
0.000000000000000
11
-25.4627927146575
21
15.3361425342913
31
0.000000000000000
  0
LINE
  5
F102D0
330
F102D1
100
AcDbEntity
8
Geo
100
AcDbLine
10
-25.4627927146575
20
15.3361425342913
30
0.000000000000000
11
-25.3627927146575
21
15.3078242658273
31
0.000000000000000
  0
LINE
  5
F102D2
330
F102D3
100
AcDbEntity
8
Geo
100
AcDbLine
10
-25.3627927146575
20
15.3078242658273
30
0.000000000000000
11
-25.2627927146575
21
15.2783094169201
31
0.000000000000000
  0
LINE
  5
F102D4
330
F102D5
100
AcDbEntity
8
Geo
100
AcDbLine
10
-25.2627927146575
20
15.2783094169201
30
0.000000000000000
11
-25.1627927146575
21
15.2476025992048
31
0.000000000000000
  0
LINE
  5
F102D6
330
F102D7
100
AcDbEntity
8
Geo
100
AcDbLine
10
-25.1627927146575
20
15.2476025992048
30
0.000000000000000
11
-25.0627927146575
21
15.2157086105593
31
0.000000000000000
  0
LINE
  5
F102D8
330
F102D9
100
AcDbEntity
8
Geo
100
AcDbLine
10
-25.0627927146575
20
15.2157086105593
30
0.000000000000000
11
-24.9627927146575
21
15.1826324343543
31
0.000000000000000
  0
LINE
  5
F102DA
330
F102DB
100
AcDbEntity
8
Geo
100
AcDbLine
10
-24.9627927146575
20
15.1826324343543
30
0.000000000000000
11
-24.8627927146575
21
15.1483792386751
31
0.000000000000000
  0
LINE
  5
F102DC
330
F102DD
100
AcDbEntity
8
Geo
100
AcDbLine
10
-24.8627927146575
20
15.1483792386751
30
0.000000000000000
11
-24.7627927146575
21
15.1129543755139
31
0.000000000000000
  0
LINE
  5
F102DE
330
F102DF
100
AcDbEntity
8
Geo
100
AcDbLine
10
-24.7627927146575
20
15.1129543755139
30
0.000000000000000
11
-24.6627927146575
21
15.0763633799334
31
0.000000000000000
  0
LINE
  5
F102E0
330
F102E1
100
AcDbEntity
8
Geo
100
AcDbLine
10
-24.6627927146575
20
15.0763633799334
30
0.000000000000000
11
-24.5627927146575
21
15.0386119692023
31
0.000000000000000
  0
LINE
  5
F102E2
330
F102E3
100
AcDbEntity
8
Geo
100
AcDbLine
10
-24.5627927146575
20
15.0386119692023
30
0.000000000000000
11
-24.4627927146575
21
14.9997060419017
31
0.000000000000000
  0
LINE
  5
F102E4
330
F102E5
100
AcDbEntity
8
Geo
100
AcDbLine
10
-24.4627927146575
20
14.9997060419017
30
0.000000000000000
11
-24.3627927146575
21
14.9596516770035
31
0.000000000000000
  0
LINE
  5
F102E6
330
F102E7
100
AcDbEntity
8
Geo
100
AcDbLine
10
-24.3627927146575
20
14.9596516770035
30
0.000000000000000
11
-24.2627927146575
21
14.9184551329208
31
0.000000000000000
  0
LINE
  5
F102E8
330
F102E9
100
AcDbEntity
8
Geo
100
AcDbLine
10
-24.2627927146575
20
14.9184551329208
30
0.000000000000000
11
-24.1627927146575
21
14.8761228465298
31
0.000000000000000
  0
LINE
  5
F102EA
330
F102EB
100
AcDbEntity
8
Geo
100
AcDbLine
10
-24.1627927146575
20
14.8761228465298
30
0.000000000000000
11
-24.0627927146575
21
14.8326614321641
31
0.000000000000000
  0
LINE
  5
F102EC
330
F102ED
100
AcDbEntity
8
Geo
100
AcDbLine
10
-24.0627927146575
20
14.8326614321641
30
0.000000000000000
11
-23.9627927146575
21
14.7880776805813
31
0.000000000000000
  0
LINE
  5
F102EE
330
F102EF
100
AcDbEntity
8
Geo
100
AcDbLine
10
-23.9627927146575
20
14.7880776805813
30
0.000000000000000
11
-23.8627927146575
21
14.7423785579018
31
0.000000000000000
  0
LINE
  5
F102F0
330
F102F1
100
AcDbEntity
8
Geo
100
AcDbLine
10
-23.8627927146575
20
14.7423785579018
30
0.000000000000000
11
-23.7627927146575
21
14.6955712045207
31
0.000000000000000
  0
LINE
  5
F102F2
330
F102F3
100
AcDbEntity
8
Geo
100
AcDbLine
10
-23.7627927146575
20
14.6955712045207
30
0.000000000000000
11
-23.6627927146575
21
14.6476629339916
31
0.000000000000000
  0
LINE
  5
F102F4
330
F102F5
100
AcDbEntity
8
Geo
100
AcDbLine
10
-23.6627927146575
20
14.6476629339916
30
0.000000000000000
11
-23.5627927146575
21
14.5986612318843
31
0.000000000000000
  0
LINE
  5
F102F6
330
F102F7
100
AcDbEntity
8
Geo
100
AcDbLine
10
-23.5627927146575
20
14.5986612318843
30
0.000000000000000
11
-23.4627927146575
21
14.5485737546152
31
0.000000000000000
  0
LINE
  5
F102F8
330
F102F9
100
AcDbEntity
8
Geo
100
AcDbLine
10
-23.4627927146575
20
14.5485737546152
30
0.000000000000000
11
-23.3627927146575
21
14.4974083282506
31
0.000000000000000
  0
LINE
  5
F102FA
330
F102FB
100
AcDbEntity
8
Geo
100
AcDbLine
10
-23.3627927146575
20
14.4974083282506
30
0.000000000000000
11
-23.2627927146575
21
14.4451729472843
31
0.000000000000000
  0
LINE
  5
F102FC
330
F102FD
100
AcDbEntity
8
Geo
100
AcDbLine
10
-23.2627927146575
20
14.4451729472843
30
0.000000000000000
11
-23.1627927146575
21
14.3918757733882
31
0.000000000000000
  0
LINE
  5
F102FE
330
F102FF
100
AcDbEntity
8
Geo
100
AcDbLine
10
-23.1627927146575
20
14.3918757733882
30
0.000000000000000
11
-23.0627927146575
21
14.3375251341375
31
0.000000000000000
  0
LINE
  5
F10300
330
F10301
100
AcDbEntity
8
Geo
100
AcDbLine
10
-23.0627927146575
20
14.3375251341375
30
0.000000000000000
11
-22.9627927146575
21
14.2821295217089
31
0.000000000000000
  0
LINE
  5
F10302
330
F10303
100
AcDbEntity
8
Geo
100
AcDbLine
10
-22.9627927146575
20
14.2821295217089
30
0.000000000000000
11
-22.8627927146575
21
14.2256975915541
31
0.000000000000000
  0
LINE
  5
F10304
330
F10305
100
AcDbEntity
8
Geo
100
AcDbLine
10
-22.8627927146575
20
14.2256975915541
30
0.000000000000000
11
-22.7627927146575
21
14.1682381610474
31
0.000000000000000
  0
LINE
  5
F10306
330
F10307
100
AcDbEntity
8
Geo
100
AcDbLine
10
-37.7627927146575
20
15.2580618441513
30
0.000000000000000
11
-37.6627927146574
21
15.2265665468563
31
0.000000000000000
  0
LINE
  5
F10308
330
F10309
100
AcDbEntity
8
Geo
100
AcDbLine
10
-37.6627927146574
20
15.2265665468563
30
0.000000000000000
11
-37.5627927146574
21
15.1938873654714
31
0.000000000000000
  0
LINE
  5
F1030A
330
F1030B
100
AcDbEntity
8
Geo
100
AcDbLine
10
-37.5627927146574
20
15.1938873654714
30
0.000000000000000
11
-37.4627927146575
21
15.1600294060522
31
0.000000000000000
  0
LINE
  5
F1030C
330
F1030D
100
AcDbEntity
8
Geo
100
AcDbLine
10
-37.4627927146575
20
15.1600294060522
30
0.000000000000000
11
-37.3627927146575
21
15.1249979588360
31
0.000000000000000
  0
LINE
  5
F1030E
330
F1030F
100
AcDbEntity
8
Geo
100
AcDbLine
10
-37.3627927146575
20
15.1249979588360
30
0.000000000000000
11
-37.2627927146575
21
15.0887984974151
31
0.000000000000000
  0
LINE
  5
F10310
330
F10311
100
AcDbEntity
8
Geo
100
AcDbLine
10
-37.2627927146575
20
15.0887984974151
30
0.000000000000000
11
-37.1627927146574
21
15.0514366778818
31
0.000000000000000
  0
LINE
  5
F10312
330
F10313
100
AcDbEntity
8
Geo
100
AcDbLine
10
-37.1627927146574
20
15.0514366778818
30
0.000000000000000
11
-37.0627927146574
21
15.0129183379443
31
0.000000000000000
  0
LINE
  5
F10314
330
F10315
100
AcDbEntity
8
Geo
100
AcDbLine
10
-37.0627927146574
20
15.0129183379443
30
0.000000000000000
11
-36.9627927146575
21
14.9732494960149
31
0.000000000000000
  0
LINE
  5
F10316
330
F10317
100
AcDbEntity
8
Geo
100
AcDbLine
10
-36.9627927146575
20
14.9732494960149
30
0.000000000000000
11
-36.8627927146575
21
14.9324363502695
31
0.000000000000000
  0
LINE
  5
F10318
330
F10319
100
AcDbEntity
8
Geo
100
AcDbLine
10
-36.8627927146575
20
14.9324363502695
30
0.000000000000000
11
-36.7627927146575
21
14.8904852776789
31
0.000000000000000
  0
LINE
  5
F1031A
330
F1031B
100
AcDbEntity
8
Geo
100
AcDbLine
10
-36.7627927146575
20
14.8904852776789
30
0.000000000000000
11
-36.6627927146574
21
14.8474028330131
31
0.000000000000000
  0
LINE
  5
F1031C
330
F1031D
100
AcDbEntity
8
Geo
100
AcDbLine
10
-36.6627927146574
20
14.8474028330131
30
0.000000000000000
11
-36.5627927146574
21
14.8031957478162
31
0.000000000000000
  0
LINE
  5
F1031E
330
F1031F
100
AcDbEntity
8
Geo
100
AcDbLine
10
-36.5627927146574
20
14.8031957478162
30
0.000000000000000
11
-36.4627927146575
21
14.7578709293554
31
0.000000000000000
  0
LINE
  5
F10320
330
F10321
100
AcDbEntity
8
Geo
100
AcDbLine
10
-36.4627927146575
20
14.7578709293554
30
0.000000000000000
11
-36.3627927146575
21
14.7114354595414
31
0.000000000000000
  0
LINE
  5
F10322
330
F10323
100
AcDbEntity
8
Geo
100
AcDbLine
10
-36.3627927146575
20
14.7114354595414
30
0.000000000000000
11
-36.2627927146575
21
14.6638965938219
31
0.000000000000000
  0
LINE
  5
F10324
330
F10325
100
AcDbEntity
8
Geo
100
AcDbLine
10
-36.2627927146575
20
14.6638965938219
30
0.000000000000000
11
-36.1627927146574
21
14.6152617600480
31
0.000000000000000
  0
LINE
  5
F10326
330
F10327
100
AcDbEntity
8
Geo
100
AcDbLine
10
-36.1627927146574
20
14.6152617600480
30
0.000000000000000
11
-36.0627927146574
21
14.5655385573133
31
0.000000000000000
  0
LINE
  5
F10328
330
F10329
100
AcDbEntity
8
Geo
100
AcDbLine
10
-36.0627927146574
20
14.5655385573133
30
0.000000000000000
11
-35.9627927146575
21
14.5147347547673
31
0.000000000000000
  0
LINE
  5
F1032A
330
F1032B
100
AcDbEntity
8
Geo
100
AcDbLine
10
-35.9627927146575
20
14.5147347547673
30
0.000000000000000
11
-35.8627927146575
21
14.4628582904007
31
0.000000000000000
  0
LINE
  5
F1032C
330
F1032D
100
AcDbEntity
8
Geo
100
AcDbLine
10
-35.8627927146575
20
14.4628582904007
30
0.000000000000000
11
-35.7627927146575
21
14.4099172698056
31
0.000000000000000
  0
LINE
  5
F1032E
330
F1032F
100
AcDbEntity
8
Geo
100
AcDbLine
10
-35.7627927146575
20
14.4099172698056
30
0.000000000000000
11
-35.6627927146574
21
14.3559199649086
31
0.000000000000000
  0
LINE
  5
F10330
330
F10331
100
AcDbEntity
8
Geo
100
AcDbLine
10
-35.6627927146574
20
14.3559199649086
30
0.000000000000000
11
-35.5627927146574
21
14.3008748126788
31
0.000000000000000
  0
LINE
  5
F10332
330
F10333
100
AcDbEntity
8
Geo
100
AcDbLine
10
-35.5627927146574
20
14.3008748126788
30
0.000000000000000
11
-35.4627927146575
21
14.2447904138093
31
0.000000000000000
  0
LINE
  5
F10334
330
F10335
100
AcDbEntity
8
Geo
100
AcDbLine
10
-35.4627927146575
20
14.2447904138093
30
0.000000000000000
11
-35.3627927146575
21
14.1876755313732
31
0.000000000000000
  0
LINE
  5
F10336
330
F10337
100
AcDbEntity
8
Geo
100
AcDbLine
10
-35.3627927146575
20
14.1876755313732
30
0.000000000000000
11
-35.2627927146575
21
14.1295390894549
31
0.000000000000000
  0
LINE
  5
F10338
330
F10339
100
AcDbEntity
8
Geo
100
AcDbLine
10
-35.2627927146575
20
14.1295390894549
30
0.000000000000000
11
-35.1627927146574
21
14.0703901717549
31
0.000000000000000
  0
LINE
  5
F1033A
330
F1033B
100
AcDbEntity
8
Geo
100
AcDbLine
10
-35.1627927146574
20
14.0703901717549
30
0.000000000000000
11
-35.0627927146574
21
14.0102380201715
31
0.000000000000000
  0
LINE
  5
F1033C
330
F1033D
100
AcDbEntity
8
Geo
100
AcDbLine
10
-35.0627927146574
20
14.0102380201715
30
0.000000000000000
11
-34.9627927146574
21
13.9490920333558
31
0.000000000000000
  0
LINE
  5
F1033E
330
F1033F
100
AcDbEntity
8
Geo
100
AcDbLine
10
-34.9627927146574
20
13.9490920333558
30
0.000000000000000
11
-34.8627927146575
21
13.8869617652440
31
0.000000000000000
  0
LINE
  5
F10340
330
F10341
100
AcDbEntity
8
Geo
100
AcDbLine
10
-34.8627927146575
20
13.8869617652440
30
0.000000000000000
11
-34.7627927146575
21
13.8238569235640
31
0.000000000000000
  0
LINE
  5
F10342
330
F10343
100
AcDbEntity
8
Geo
100
AcDbLine
10
-34.7627927146575
20
13.8238569235640
30
0.000000000000000
11
-34.6627927146574
21
13.7597873683189
31
0.000000000000000
  0
LINE
  5
F10344
330
F10345
100
AcDbEntity
8
Geo
100
AcDbLine
10
-34.6627927146574
20
13.7597873683189
30
0.000000000000000
11
-34.5627927146574
21
13.6947631102464
31
0.000000000000000
  0
LINE
  5
F10346
330
F10347
100
AcDbEntity
8
Geo
100
AcDbLine
10
-34.5627927146574
20
13.6947631102464
30
0.000000000000000
11
-34.4627927146574
21
13.6287943092546
31
0.000000000000000
  0
LINE
  5
F10348
330
F10349
100
AcDbEntity
8
Geo
100
AcDbLine
10
-34.4627927146574
20
13.6287943092546
30
0.000000000000000
11
-34.3627927146575
21
13.5618912728344
31
0.000000000000000
  0
LINE
  5
F1034A
330
F1034B
100
AcDbEntity
8
Geo
100
AcDbLine
10
-34.3627927146575
20
13.5618912728344
30
0.000000000000000
11
-34.2627927146575
21
13.4940644544490
31
0.000000000000000
  0
LINE
  5
F1034C
330
F1034D
100
AcDbEntity
8
Geo
100
AcDbLine
10
-34.2627927146575
20
13.4940644544490
30
0.000000000000000
11
-34.1627927146574
21
13.4253244519009
31
0.000000000000000
  0
LINE
  5
F1034E
330
F1034F
100
AcDbEntity
8
Geo
100
AcDbLine
10
-34.1627927146574
20
13.4253244519009
30
0.000000000000000
11
-34.0627927146574
21
13.3556820056757
31
0.000000000000000
  0
LINE
  5
F10350
330
F10351
100
AcDbEntity
8
Geo
100
AcDbLine
10
-34.0627927146574
20
13.3556820056757
30
0.000000000000000
11
-33.9627927146574
21
13.2851479972638
31
0.000000000000000
  0
LINE
  5
F10352
330
F10353
100
AcDbEntity
8
Geo
100
AcDbLine
10
-33.9627927146574
20
13.2851479972638
30
0.000000000000000
11
-33.8627927146574
21
13.2137334474607
31
0.000000000000000
  0
LINE
  5
F10354
330
F10355
100
AcDbEntity
8
Geo
100
AcDbLine
10
-33.8627927146574
20
13.2137334474607
30
0.000000000000000
11
-33.7627927146575
21
13.1414495146443
31
0.000000000000000
  0
LINE
  5
F10356
330
F10357
100
AcDbEntity
8
Geo
100
AcDbLine
10
-33.7627927146575
20
13.1414495146443
30
0.000000000000000
11
-33.6627927146574
21
13.0683074930321
31
0.000000000000000
  0
LINE
  5
F10358
330
F10359
100
AcDbEntity
8
Geo
100
AcDbLine
10
-33.6627927146574
20
13.0683074930321
30
0.000000000000000
11
-33.5627927146574
21
12.9943188109163
31
0.000000000000000
  0
LINE
  5
F1035A
330
F1035B
100
AcDbEntity
8
Geo
100
AcDbLine
10
-33.5627927146574
20
12.9943188109163
30
0.000000000000000
11
-33.4627927146575
21
12.9194950288778
31
0.000000000000000
  0
LINE
  5
F1035C
330
F1035D
100
AcDbEntity
8
Geo
100
AcDbLine
10
-33.4627927146575
20
12.9194950288778
30
0.000000000000000
11
-33.3627927146575
21
12.8438478379803
31
0.000000000000000
  0
LINE
  5
F1035E
330
F1035F
100
AcDbEntity
8
Geo
100
AcDbLine
10
-33.3627927146575
20
12.8438478379803
30
0.000000000000000
11
-33.2627927146575
21
12.7673890579437
31
0.000000000000000
  0
LINE
  5
F10360
330
F10361
100
AcDbEntity
8
Geo
100
AcDbLine
10
-33.2627927146575
20
12.7673890579437
30
0.000000000000000
11
-33.1627927146574
21
12.6901306352966
31
0.000000000000000
  0
LINE
  5
F10362
330
F10363
100
AcDbEntity
8
Geo
100
AcDbLine
10
-33.1627927146574
20
12.6901306352966
30
0.000000000000000
11
-33.0627927146574
21
12.6120846415104
31
0.000000000000000
  0
LINE
  5
F10364
330
F10365
100
AcDbEntity
8
Geo
100
AcDbLine
10
-33.0627927146574
20
12.6120846415104
30
0.000000000000000
11
-32.9627927146575
21
12.5332632711129
31
0.000000000000000
  0
LINE
  5
F10366
330
F10367
100
AcDbEntity
8
Geo
100
AcDbLine
10
-32.9627927146575
20
12.5332632711129
30
0.000000000000000
11
-32.8627927146575
21
12.4536788397828
31
0.000000000000000
  0
LINE
  5
F10368
330
F10369
100
AcDbEntity
8
Geo
100
AcDbLine
10
-32.8627927146575
20
12.4536788397828
30
0.000000000000000
11
-32.7627927146575
21
12.3733437824256
31
0.000000000000000
  0
LINE
  5
F1036A
330
F1036B
100
AcDbEntity
8
Geo
100
AcDbLine
10
-32.7627927146575
20
12.3733437824256
30
0.000000000000000
11
-32.6627927146575
21
12.2922706512307
31
0.000000000000000
  0
LINE
  5
F1036C
330
F1036D
100
AcDbEntity
8
Geo
100
AcDbLine
10
-32.6627927146575
20
12.2922706512307
30
0.000000000000000
11
-32.5627927146575
21
12.2104721137097
31
0.000000000000000
  0
LINE
  5
F1036E
330
F1036F
100
AcDbEntity
8
Geo
100
AcDbLine
10
-32.5627927146575
20
12.2104721137097
30
0.000000000000000
11
-32.4627927146575
21
12.1279609507178
31
0.000000000000000
  0
LINE
  5
F10370
330
F10371
100
AcDbEntity
8
Geo
100
AcDbLine
10
-32.4627927146575
20
12.1279609507178
30
0.000000000000000
11
-32.3627927146575
21
12.0447500544563
31
0.000000000000000
  0
LINE
  5
F10372
330
F10373
100
AcDbEntity
8
Geo
100
AcDbLine
10
-32.3627927146575
20
12.0447500544563
30
0.000000000000000
11
-32.2627927146575
21
11.9608524264584
31
0.000000000000000
  0
LINE
  5
F10374
330
F10375
100
AcDbEntity
8
Geo
100
AcDbLine
10
-32.2627927146575
20
11.9608524264584
30
0.000000000000000
11
-32.1627927146575
21
11.8762811755579
31
0.000000000000000
  0
LINE
  5
F10376
330
F10377
100
AcDbEntity
8
Geo
100
AcDbLine
10
-32.1627927146575
20
11.8762811755579
30
0.000000000000000
11
-32.0627927146575
21
11.7910495158407
31
0.000000000000000
  0
LINE
  5
F10378
330
F10379
100
AcDbEntity
8
Geo
100
AcDbLine
10
-32.0627927146575
20
11.7910495158407
30
0.000000000000000
11
-31.9627927146575
21
11.7051707645801
31
0.000000000000000
  0
LINE
  5
F1037A
330
F1037B
100
AcDbEntity
8
Geo
100
AcDbLine
10
-31.9627927146575
20
11.7051707645801
30
0.000000000000000
11
-31.8627927146575
21
11.6186583401563
31
0.000000000000000
  0
LINE
  5
F1037C
330
F1037D
100
AcDbEntity
8
Geo
100
AcDbLine
10
-31.8627927146575
20
11.6186583401563
30
0.000000000000000
11
-31.7627927146575
21
11.5315257599597
31
0.000000000000000
  0
LINE
  5
F1037E
330
F1037F
100
AcDbEntity
8
Geo
100
AcDbLine
10
-31.7627927146575
20
11.5315257599597
30
0.000000000000000
11
-31.6627927146575
21
11.4437866382786
31
0.000000000000000
  0
LINE
  5
F10380
330
F10381
100
AcDbEntity
8
Geo
100
AcDbLine
10
-31.6627927146575
20
11.4437866382786
30
0.000000000000000
11
-31.5627927146575
21
11.3554546841723
31
0.000000000000000
  0
LINE
  5
F10382
330
F10383
100
AcDbEntity
8
Geo
100
AcDbLine
10
-31.5627927146575
20
11.3554546841723
30
0.000000000000000
11
-31.4627927146575
21
11.2665436993289
31
0.000000000000000
  0
LINE
  5
F10384
330
F10385
100
AcDbEntity
8
Geo
100
AcDbLine
10
-31.4627927146575
20
11.2665436993289
30
0.000000000000000
11
-31.3627927146575
21
11.1770675759088
31
0.000000000000000
  0
LINE
  5
F10386
330
F10387
100
AcDbEntity
8
Geo
100
AcDbLine
10
-31.3627927146575
20
11.1770675759088
30
0.000000000000000
11
-31.2627927146575
21
11.0870402943745
31
0.000000000000000
  0
LINE
  5
F10388
330
F10389
100
AcDbEntity
8
Geo
100
AcDbLine
10
-31.2627927146575
20
11.0870402943745
30
0.000000000000000
11
-31.1627927146575
21
10.9964759213053
31
0.000000000000000
  0
LINE
  5
F1038A
330
F1038B
100
AcDbEntity
8
Geo
100
AcDbLine
10
-31.1627927146575
20
10.9964759213053
30
0.000000000000000
11
-31.0627927146575
21
10.9053886072004
31
0.000000000000000
  0
LINE
  5
F1038C
330
F1038D
100
AcDbEntity
8
Geo
100
AcDbLine
10
-31.0627927146575
20
10.9053886072004
30
0.000000000000000
11
-30.9627927146575
21
10.8137925842672
31
0.000000000000000
  0
LINE
  5
F1038E
330
F1038F
100
AcDbEntity
8
Geo
100
AcDbLine
10
-30.9627927146575
20
10.8137925842672
30
0.000000000000000
11
-30.8627927146575
21
10.7217021641981
31
0.000000000000000
  0
LINE
  5
F10390
330
F10391
100
AcDbEntity
8
Geo
100
AcDbLine
10
-30.8627927146575
20
10.7217021641981
30
0.000000000000000
11
-30.7627927146575
21
10.6291317359337
31
0.000000000000000
  0
LINE
  5
F10392
330
F10393
100
AcDbEntity
8
Geo
100
AcDbLine
10
-30.7627927146575
20
10.6291317359337
30
0.000000000000000
11
-30.6627927146575
21
10.5360957634152
31
0.000000000000000
  0
LINE
  5
F10394
330
F10395
100
AcDbEntity
8
Geo
100
AcDbLine
10
-30.6627927146575
20
10.5360957634152
30
0.000000000000000
11
-30.5627927146575
21
10.4426087833240
31
0.000000000000000
  0
LINE
  5
F10396
330
F10397
100
AcDbEntity
8
Geo
100
AcDbLine
10
-30.5627927146575
20
10.4426087833240
30
0.000000000000000
11
-30.4627927146575
21
10.3486854028105
31
0.000000000000000
  0
LINE
  5
F10398
330
F10399
100
AcDbEntity
8
Geo
100
AcDbLine
10
-30.4627927146575
20
10.3486854028105
30
0.000000000000000
11
-30.3627927146575
21
10.2543402972119
31
0.000000000000000
  0
LINE
  5
F1039A
330
F1039B
100
AcDbEntity
8
Geo
100
AcDbLine
10
-30.3627927146575
20
10.2543402972119
30
0.000000000000000
11
-30.2627927146575
21
10.1595882077589
31
0.000000000000000
  0
LINE
  5
F1039C
330
F1039D
100
AcDbEntity
8
Geo
100
AcDbLine
10
-30.2627927146575
20
10.1595882077589
30
0.000000000000000
11
-30.1627927146575
21
10.0644439392727
31
0.000000000000000
  0
LINE
  5
F1039E
330
F1039F
100
AcDbEntity
8
Geo
100
AcDbLine
10
-30.1627927146575
20
10.0644439392727
30
0.000000000000000
11
-30.0627927146575
21
9.96892235785184
31
0.000000000000000
  0
LINE
  5
F103A0
330
F103A1
100
AcDbEntity
8
Geo
100
AcDbLine
10
-30.0627927146575
20
9.96892235785184
30
0.000000000000000
11
-29.9627927146575
21
9.87303838854893
31
0.000000000000000
  0
LINE
  5
F103A2
330
F103A3
100
AcDbEntity
8
Geo
100
AcDbLine
10
-29.9627927146575
20
9.87303838854893
30
0.000000000000000
11
-29.8627927146575
21
9.77680701303915
31
0.000000000000000
  0
LINE
  5
F103A4
330
F103A5
100
AcDbEntity
8
Geo
100
AcDbLine
10
-29.8627927146575
20
9.77680701303915
30
0.000000000000000
11
-29.7627927146575
21
9.68024326727912
31
0.000000000000000
  0
LINE
  5
F103A6
330
F103A7
100
AcDbEntity
8
Geo
100
AcDbLine
10
-29.7627927146575
20
9.68024326727912
30
0.000000000000000
11
-29.6627927146575
21
9.58336223915768
31
0.000000000000000
  0
LINE
  5
F103A8
330
F103A9
100
AcDbEntity
8
Geo
100
AcDbLine
10
-29.6627927146575
20
9.58336223915768
30
0.000000000000000
11
-29.5627927146575
21
9.48617906613836
31
0.000000000000000
  0
LINE
  5
F103AA
330
F103AB
100
AcDbEntity
8
Geo
100
AcDbLine
10
-29.5627927146575
20
9.48617906613836
30
0.000000000000000
11
-29.4627927146575
21
9.38870893289423
31
0.000000000000000
  0
LINE
  5
F103AC
330
F103AD
100
AcDbEntity
8
Geo
100
AcDbLine
10
-29.4627927146575
20
9.38870893289423
30
0.000000000000000
11
-29.3627927146575
21
9.29096706893530
31
0.000000000000000
  0
LINE
  5
F103AE
330
F103AF
100
AcDbEntity
8
Geo
100
AcDbLine
10
-29.3627927146575
20
9.29096706893530
30
0.000000000000000
11
-29.2627927146575
21
9.19296874622896
31
0.000000000000000
  0
LINE
  5
F103B0
330
F103B1
100
AcDbEntity
8
Geo
100
AcDbLine
10
-29.2627927146575
20
9.19296874622896
30
0.000000000000000
11
-29.1627927146575
21
9.09472927681376
31
0.000000000000000
  0
LINE
  5
F103B2
330
F103B3
100
AcDbEntity
8
Geo
100
AcDbLine
10
-29.1627927146575
20
9.09472927681376
30
0.000000000000000
11
-29.0627927146575
21
8.99626401040692
31
0.000000000000000
  0
LINE
  5
F103B4
330
F103B5
100
AcDbEntity
8
Geo
100
AcDbLine
10
-29.0627927146575
20
8.99626401040692
30
0.000000000000000
11
-28.9627927146575
21
8.89758833200600
31
0.000000000000000
  0
LINE
  5
F103B6
330
F103B7
100
AcDbEntity
8
Geo
100
AcDbLine
10
-28.9627927146575
20
8.89758833200600
30
0.000000000000000
11
-28.8627927146575
21
8.79871765948498
31
0.000000000000000
  0
LINE
  5
F103B8
330
F103B9
100
AcDbEntity
8
Geo
100
AcDbLine
10
-28.8627927146575
20
8.79871765948498
30
0.000000000000000
11
-28.7627927146575
21
8.69966744118531
31
0.000000000000000
  0
LINE
  5
F103BA
330
F103BB
100
AcDbEntity
8
Geo
100
AcDbLine
10
-28.7627927146575
20
8.69966744118531
30
0.000000000000000
11
-28.6627927146575
21
8.60045315350207
31
0.000000000000000
  0
LINE
  5
F103BC
330
F103BD
100
AcDbEntity
8
Geo
100
AcDbLine
10
-28.6627927146575
20
8.60045315350207
30
0.000000000000000
11
-28.5627927146575
21
8.50109029846585
31
0.000000000000000
  0
LINE
  5
F103BE
330
F103BF
100
AcDbEntity
8
Geo
100
AcDbLine
10
-28.5627927146575
20
8.50109029846585
30
0.000000000000000
11
-28.4627927146575
21
8.40159440132062
31
0.000000000000000
  0
LINE
  5
F103C0
330
F103C1
100
AcDbEntity
8
Geo
100
AcDbLine
10
-28.4627927146575
20
8.40159440132062
30
0.000000000000000
11
-28.3627927146575
21
8.30198100809787
31
0.000000000000000
  0
LINE
  5
F103C2
330
F103C3
100
AcDbEntity
8
Geo
100
AcDbLine
10
-28.3627927146575
20
8.30198100809787
30
0.000000000000000
11
-28.2627927146575
21
8.20226568318762
31
0.000000000000000
  0
LINE
  5
F103C4
330
F103C5
100
AcDbEntity
8
Geo
100
AcDbLine
10
-28.2627927146575
20
8.20226568318762
30
0.000000000000000
11
-28.1627927146575
21
8.10246400690654
31
0.000000000000000
  0
LINE
  5
F103C6
330
F103C7
100
AcDbEntity
8
Geo
100
AcDbLine
10
-28.1627927146575
20
8.10246400690654
30
0.000000000000000
11
-28.0627927146575
21
8.00259157306348
31
0.000000000000000
  0
LINE
  5
F103C8
330
F103C9
100
AcDbEntity
8
Geo
100
AcDbLine
10
-28.0627927146575
20
8.00259157306348
30
0.000000000000000
11
-27.9627927146575
21
7.90266398652306
31
0.000000000000000
  0
LINE
  5
F103CA
330
F103CB
100
AcDbEntity
8
Geo
100
AcDbLine
10
-27.9627927146575
20
7.90266398652306
30
0.000000000000000
11
-27.8627927146575
21
7.80269686076735
31
0.000000000000000
  0
LINE
  5
F103CC
330
F103CD
100
AcDbEntity
8
Geo
100
AcDbLine
10
-27.8627927146575
20
7.80269686076735
30
0.000000000000000
11
-27.7627927146575
21
7.70270581545639
31
0.000000000000000
  0
LINE
  5
F103CE
330
F103CF
100
AcDbEntity
8
Geo
100
AcDbLine
10
-27.7627927146575
20
7.70270581545639
30
0.000000000000000
11
-27.6627927146575
21
7.60270647398756
31
0.000000000000000
  0
LINE
  5
F103D0
330
F103D1
100
AcDbEntity
8
Geo
100
AcDbLine
10
-27.6627927146575
20
7.60270647398756
30
0.000000000000000
11
-27.5627927146575
21
7.50271446105453
31
0.000000000000000
  0
LINE
  5
F103D2
330
F103D3
100
AcDbEntity
8
Geo
100
AcDbLine
10
-27.5627927146575
20
7.50271446105453
30
0.000000000000000
11
-27.4627927146575
21
7.40274540020588
31
0.000000000000000
  0
LINE
  5
F103D4
330
F103D5
100
AcDbEntity
8
Geo
100
AcDbLine
10
-27.4627927146575
20
7.40274540020588
30
0.000000000000000
11
-27.3627927146575
21
7.30281491140399
31
0.000000000000000
  0
LINE
  5
F103D6
330
F103D7
100
AcDbEntity
8
Geo
100
AcDbLine
10
-27.3627927146575
20
7.30281491140399
30
0.000000000000000
11
-27.2627927146575
21
7.20293860858441
31
0.000000000000000
  0
LINE
  5
F103D8
330
F103D9
100
AcDbEntity
8
Geo
100
AcDbLine
10
-27.2627927146575
20
7.20293860858441
30
0.000000000000000
11
-27.1627927146575
21
7.10313209721628
31
0.000000000000000
  0
LINE
  5
F103DA
330
F103DB
100
AcDbEntity
8
Geo
100
AcDbLine
10
-27.1627927146575
20
7.10313209721628
30
0.000000000000000
11
-27.0627927146575
21
7.00341097186393
31
0.000000000000000
  0
LINE
  5
F103DC
330
F103DD
100
AcDbEntity
8
Geo
100
AcDbLine
10
-27.0627927146575
20
7.00341097186393
30
0.000000000000000
11
-26.9627927146575
21
6.90379081375031
31
0.000000000000000
  0
LINE
  5
F103DE
330
F103DF
100
AcDbEntity
8
Geo
100
AcDbLine
10
-26.9627927146575
20
6.90379081375031
30
0.000000000000000
11
-26.8627927146575
21
6.80428718832246
31
0.000000000000000
  0
LINE
  5
F103E0
330
F103E1
100
AcDbEntity
8
Geo
100
AcDbLine
10
-26.8627927146575
20
6.80428718832246
30
0.000000000000000
11
-26.7627927146575
21
6.70491564281942
31
0.000000000000000
  0
LINE
  5
F103E2
330
F103E3
100
AcDbEntity
8
Geo
100
AcDbLine
10
-26.7627927146575
20
6.70491564281942
30
0.000000000000000
11
-26.6627927146575
21
6.60569170384298
31
0.000000000000000
  0
LINE
  5
F103E4
330
F103E5
100
AcDbEntity
8
Geo
100
AcDbLine
10
-26.6627927146575
20
6.60569170384298
30
0.000000000000000
11
-26.5627927146575
21
6.50663087493176
31
0.000000000000000
  0
LINE
  5
F103E6
330
F103E7
100
AcDbEntity
8
Geo
100
AcDbLine
10
-26.5627927146575
20
6.50663087493176
30
0.000000000000000
11
-26.4627927146575
21
6.40774863413872
31
0.000000000000000
  0
LINE
  5
F103E8
330
F103E9
100
AcDbEntity
8
Geo
100
AcDbLine
10
-26.4627927146575
20
6.40774863413872
30
0.000000000000000
11
-26.3627927146575
21
6.30906043161282
31
0.000000000000000
  0
LINE
  5
F103EA
330
F103EB
100
AcDbEntity
8
Geo
100
AcDbLine
10
-26.3627927146575
20
6.30906043161282
30
0.000000000000000
11
-26.2627927146575
21
6.21058168718492
31
0.000000000000000
  0
LINE
  5
F103EC
330
F103ED
100
AcDbEntity
8
Geo
100
AcDbLine
10
-26.2627927146575
20
6.21058168718492
30
0.000000000000000
11
-26.1627927146575
21
6.11232778795848
31
0.000000000000000
  0
LINE
  5
F103EE
330
F103EF
100
AcDbEntity
8
Geo
100
AcDbLine
10
-26.1627927146575
20
6.11232778795848
30
0.000000000000000
11
-26.0627927146575
21
6.01431408590536
31
0.000000000000000
  0
LINE
  5
F103F0
330
F103F1
100
AcDbEntity
8
Geo
100
AcDbLine
10
-26.0627927146575
20
6.01431408590536
30
0.000000000000000
11
-25.9627927146575
21
5.91655589546710
31
0.000000000000000
  0
LINE
  5
F103F2
330
F103F3
100
AcDbEntity
8
Geo
100
AcDbLine
10
-25.9627927146575
20
5.91655589546710
30
0.000000000000000
11
-25.8627927146575
21
5.81906849116206
31
0.000000000000000
  0
LINE
  5
F103F4
330
F103F5
100
AcDbEntity
8
Geo
100
AcDbLine
10
-25.8627927146575
20
5.81906849116206
30
0.000000000000000
11
-25.7627927146575
21
5.72186710519883
31
0.000000000000000
  0
LINE
  5
F103F6
330
F103F7
100
AcDbEntity
8
Geo
100
AcDbLine
10
-25.7627927146575
20
5.72186710519883
30
0.000000000000000
11
-25.6627927146575
21
5.62496692509621
31
0.000000000000000
  0
LINE
  5
F103F8
330
F103F9
100
AcDbEntity
8
Geo
100
AcDbLine
10
-25.6627927146575
20
5.62496692509621
30
0.000000000000000
11
-25.5627927146575
21
5.52838309131020
31
0.000000000000000
  0
LINE
  5
F103FA
330
F103FB
100
AcDbEntity
8
Geo
100
AcDbLine
10
-25.5627927146575
20
5.52838309131020
30
0.000000000000000
11
-25.4627927146575
21
5.43213069486833
31
0.000000000000000
  0
LINE
  5
F103FC
330
F103FD
100
AcDbEntity
8
Geo
100
AcDbLine
10
-25.4627927146575
20
5.43213069486833
30
0.000000000000000
11
-25.3627927146575
21
5.33622477501172
31
0.000000000000000
  0
LINE
  5
F103FE
330
F103FF
100
AcDbEntity
8
Geo
100
AcDbLine
10
-25.3627927146575
20
5.33622477501172
30
0.000000000000000
11
-25.2627927146575
21
5.24068031684522
31
0.000000000000000
  0
LINE
  5
F10400
330
F10401
100
AcDbEntity
8
Geo
100
AcDbLine
10
-25.2627927146575
20
5.24068031684522
30
0.000000000000000
11
-25.1627927146575
21
5.14551224899604
31
0.000000000000000
  0
LINE
  5
F10402
330
F10403
100
AcDbEntity
8
Geo
100
AcDbLine
10
-25.1627927146575
20
5.14551224899604
30
0.000000000000000
11
-25.0627927146575
21
5.05073544128116
31
0.000000000000000
  0
LINE
  5
F10404
330
F10405
100
AcDbEntity
8
Geo
100
AcDbLine
10
-25.0627927146575
20
5.05073544128116
30
0.000000000000000
11
-24.9627927146575
21
4.95636470238396
31
0.000000000000000
  0
LINE
  5
F10406
330
F10407
100
AcDbEntity
8
Geo
100
AcDbLine
10
-24.9627927146575
20
4.95636470238396
30
0.000000000000000
11
-24.8627927146575
21
4.86241477754041
31
0.000000000000000
  0
LINE
  5
F10408
330
F10409
100
AcDbEntity
8
Geo
100
AcDbLine
10
-24.8627927146575
20
4.86241477754041
30
0.000000000000000
11
-24.7627927146575
21
4.76890034623511
31
0.000000000000000
  0
LINE
  5
F1040A
330
F1040B
100
AcDbEntity
8
Geo
100
AcDbLine
10
-24.7627927146575
20
4.76890034623511
30
0.000000000000000
11
-24.6627927146575
21
4.67583601990770
31
0.000000000000000
  0
LINE
  5
F1040C
330
F1040D
100
AcDbEntity
8
Geo
100
AcDbLine
10
-24.6627927146575
20
4.67583601990770
30
0.000000000000000
11
-24.5627927146575
21
4.58323633966984
31
0.000000000000000
  0
LINE
  5
F1040E
330
F1040F
100
AcDbEntity
8
Geo
100
AcDbLine
10
-24.5627927146575
20
4.58323633966984
30
0.000000000000000
11
-24.4627927146575
21
4.49111577403316
31
0.000000000000000
  0
LINE
  5
F10410
330
F10411
100
AcDbEntity
8
Geo
100
AcDbLine
10
-24.4627927146575
20
4.49111577403316
30
0.000000000000000
11
-24.3627927146575
21
4.39948871664863
31
0.000000000000000
  0
LINE
  5
F10412
330
F10413
100
AcDbEntity
8
Geo
100
AcDbLine
10
-24.3627927146575
20
4.39948871664863
30
0.000000000000000
11
-24.2627927146575
21
4.30836948405755
31
0.000000000000000
  0
LINE
  5
F10414
330
F10415
100
AcDbEntity
8
Geo
100
AcDbLine
10
-24.2627927146575
20
4.30836948405755
30
0.000000000000000
11
-24.1627927146575
21
4.21777231345463
31
0.000000000000000
  0
LINE
  5
F10416
330
F10417
100
AcDbEntity
8
Geo
100
AcDbLine
10
-24.1627927146575
20
4.21777231345463
30
0.000000000000000
11
-24.0627927146575
21
4.12771136046346
31
0.000000000000000
  0
LINE
  5
F10418
330
F10419
100
AcDbEntity
8
Geo
100
AcDbLine
10
-24.0627927146575
20
4.12771136046346
30
0.000000000000000
11
-23.9627927146575
21
4.03820069692471
31
0.000000000000000
  0
LINE
  5
F1041A
330
F1041B
100
AcDbEntity
8
Geo
100
AcDbLine
10
-23.9627927146575
20
4.03820069692471
30
0.000000000000000
11
-23.8627927146575
21
3.94925430869745
31
0.000000000000000
  0
LINE
  5
F1041C
330
F1041D
100
AcDbEntity
8
Geo
100
AcDbLine
10
-23.8627927146575
20
3.94925430869745
30
0.000000000000000
11
-23.7627927146575
21
3.86088609347389
31
0.000000000000000
  0
LINE
  5
F1041E
330
F1041F
100
AcDbEntity
8
Geo
100
AcDbLine
10
-23.7627927146575
20
3.86088609347389
30
0.000000000000000
11
-23.6627927146575
21
3.77310985860786
31
0.000000000000000
  0
LINE
  5
F10420
330
F10421
100
AcDbEntity
8
Geo
100
AcDbLine
10
-23.6627927146575
20
3.77310985860786
30
0.000000000000000
11
-23.5627927146575
21
3.68593931895749
31
0.000000000000000
  0
LINE
  5
F10422
330
F10423
100
AcDbEntity
8
Geo
100
AcDbLine
10
-23.5627927146575
20
3.68593931895749
30
0.000000000000000
11
-23.4627927146575
21
3.59938809474225
31
0.000000000000000
  0
LINE
  5
F10424
330
F10425
100
AcDbEntity
8
Geo
100
AcDbLine
10
-23.4627927146575
20
3.59938809474225
30
0.000000000000000
11
-23.3627927146575
21
3.51346970941482
31
0.000000000000000
  0
LINE
  5
F10426
330
F10427
100
AcDbEntity
8
Geo
100
AcDbLine
10
-23.3627927146575
20
3.51346970941482
30
0.000000000000000
11
-23.2627927146575
21
3.42819758754813
31
0.000000000000000
  0
LINE
  5
F10428
330
F10429
100
AcDbEntity
8
Geo
100
AcDbLine
10
-23.2627927146575
20
3.42819758754813
30
0.000000000000000
11
-23.1627927146575
21
3.34358505273772
31
0.000000000000000
  0
LINE
  5
F1042A
330
F1042B
100
AcDbEntity
8
Geo
100
AcDbLine
10
-23.1627927146575
20
3.34358505273772
30
0.000000000000000
11
-23.0627927146575
21
3.25964532552002
31
0.000000000000000
  0
LINE
  5
F1042C
330
F1042D
100
AcDbEntity
8
Geo
100
AcDbLine
10
-23.0627927146575
20
3.25964532552002
30
0.000000000000000
11
-22.9627927146575
21
3.17639152130662
31
0.000000000000000
  0
LINE
  5
F1042E
330
F1042F
100
AcDbEntity
8
Geo
100
AcDbLine
10
-22.9627927146575
20
3.17639152130662
30
0.000000000000000
11
-22.8627927146575
21
3.09383664833507
31
0.000000000000000
  0
LINE
  5
F10430
330
F10431
100
AcDbEntity
8
Geo
100
AcDbLine
10
-22.8627927146575
20
3.09383664833507
30
0.000000000000000
11
-22.7627927146575
21
3.01199360563629
31
0.000000000000000
  0
LINE
  5
F10432
330
F10433
100
AcDbEntity
8
Geo
100
AcDbLine
10
-37.7627927146575
20
5.17747375879056
30
0.000000000000000
11
-37.6627927146574
21
5.08256371695808
31
0.000000000000000
  0
LINE
  5
F10434
330
F10435
100
AcDbEntity
8
Geo
100
AcDbLine
10
-37.6627927146574
20
5.08256371695808
30
0.000000000000000
11
-37.5627927146574
21
4.98805477083997
31
0.000000000000000
  0
LINE
  5
F10436
330
F10437
100
AcDbEntity
8
Geo
100
AcDbLine
10
-37.5627927146574
20
4.98805477083997
30
0.000000000000000
11
-37.4627927146575
21
4.89396168726677
31
0.000000000000000
  0
LINE
  5
F10438
330
F10439
100
AcDbEntity
8
Geo
100
AcDbLine
10
-37.4627927146575
20
4.89396168726677
30
0.000000000000000
11
-37.3627927146575
21
4.80029916809137
31
0.000000000000000
  0
LINE
  5
F1043A
330
F1043B
100
AcDbEntity
8
Geo
100
AcDbLine
10
-37.3627927146575
20
4.80029916809137
30
0.000000000000000
11
-37.2627927146575
21
4.70708184789183
31
0.000000000000000
  0
LINE
  5
F1043C
330
F1043D
100
AcDbEntity
8
Geo
100
AcDbLine
10
-37.2627927146575
20
4.70708184789183
30
0.000000000000000
11
-37.1627927146574
21
4.61432429168477
31
0.000000000000000
  0
LINE
  5
F1043E
330
F1043F
100
AcDbEntity
8
Geo
100
AcDbLine
10
-37.1627927146574
20
4.61432429168477
30
0.000000000000000
11
-37.0627927146574
21
4.52204099264965
31
0.000000000000000
  0
LINE
  5
F10440
330
F10441
100
AcDbEntity
8
Geo
100
AcDbLine
10
-37.0627927146574
20
4.52204099264965
30
0.000000000000000
11
-36.9627927146575
21
4.43024636986418
31
0.000000000000000
  0
LINE
  5
F10442
330
F10443
100
AcDbEntity
8
Geo
100
AcDbLine
10
-36.9627927146575
20
4.43024636986418
30
0.000000000000000
11
-36.8627927146575
21
4.33895476605143
31
0.000000000000000
  0
LINE
  5
F10444
330
F10445
100
AcDbEntity
8
Geo
100
AcDbLine
10
-36.8627927146575
20
4.33895476605143
30
0.000000000000000
11
-36.7627927146575
21
4.24818044533875
31
0.000000000000000
  0
LINE
  5
F10446
330
F10447
100
AcDbEntity
8
Geo
100
AcDbLine
10
-36.7627927146575
20
4.24818044533875
30
0.000000000000000
11
-36.6627927146574
21
4.15793759102908
31
0.000000000000000
  0
LINE
  5
F10448
330
F10449
100
AcDbEntity
8
Geo
100
AcDbLine
10
-36.6627927146574
20
4.15793759102908
30
0.000000000000000
11
-36.5627927146574
21
4.06824030338480
31
0.000000000000000
  0
LINE
  5
F1044A
330
F1044B
100
AcDbEntity
8
Geo
100
AcDbLine
10
-36.5627927146574
20
4.06824030338480
30
0.000000000000000
11
-36.4627927146575
21
3.97910259742461
31
0.000000000000000
  0
LINE
  5
F1044C
330
F1044D
100
AcDbEntity
8
Geo
100
AcDbLine
10
-36.4627927146575
20
3.97910259742461
30
0.000000000000000
11
-36.3627927146575
21
3.89053840073374
31
0.000000000000000
  0
LINE
  5
F1044E
330
F1044F
100
AcDbEntity
8
Geo
100
AcDbLine
10
-36.3627927146575
20
3.89053840073374
30
0.000000000000000
11
-36.2627927146575
21
3.80256155128771
31
0.000000000000000
  0
LINE
  5
F10450
330
F10451
100
AcDbEntity
8
Geo
100
AcDbLine
10
-36.2627927146575
20
3.80256155128771
30
0.000000000000000
11
-36.1627927146574
21
3.71518579529028
31
0.000000000000000
  0
LINE
  5
F10452
330
F10453
100
AcDbEntity
8
Geo
100
AcDbLine
10
-36.1627927146574
20
3.71518579529028
30
0.000000000000000
11
-36.0627927146574
21
3.62842478502556
31
0.000000000000000
  0
LINE
  5
F10454
330
F10455
100
AcDbEntity
8
Geo
100
AcDbLine
10
-36.0627927146574
20
3.62842478502556
30
0.000000000000000
11
-35.9627927146575
21
3.54229207672487
31
0.000000000000000
  0
LINE
  5
F10456
330
F10457
100
AcDbEntity
8
Geo
100
AcDbLine
10
-35.9627927146575
20
3.54229207672487
30
0.000000000000000
11
-35.8627927146575
21
3.45680112844866
31
0.000000000000000
  0
LINE
  5
F10458
330
F10459
100
AcDbEntity
8
Geo
100
AcDbLine
10
-35.8627927146575
20
3.45680112844866
30
0.000000000000000
11
-35.7627927146575
21
3.37196529798366
31
0.000000000000000
  0
LINE
  5
F1045A
330
F1045B
100
AcDbEntity
8
Geo
100
AcDbLine
10
-35.7627927146575
20
3.37196529798366
30
0.000000000000000
11
-35.6627927146574
21
3.28779784075578
31
0.000000000000000
  0
LINE
  5
F1045C
330
F1045D
100
AcDbEntity
8
Geo
100
AcDbLine
10
-35.6627927146574
20
3.28779784075578
30
0.000000000000000
11
-35.5627927146574
21
3.20431190775899
31
0.000000000000000
  0
LINE
  5
F1045E
330
F1045F
100
AcDbEntity
8
Geo
100
AcDbLine
10
-35.5627927146574
20
3.20431190775899
30
0.000000000000000
11
-35.4627927146575
21
3.12152054350045
31
0.000000000000000
  0
LINE
  5
F10460
330
F10461
100
AcDbEntity
8
Geo
100
AcDbLine
10
-35.4627927146575
20
3.12152054350045
30
0.000000000000000
11
-35.3627927146575
21
3.03943668396240
31
0.000000000000000
  0
LINE
  5
F10462
330
F10463
100
AcDbEntity
8
Geo
100
AcDbLine
10
-35.3627927146575
20
3.03943668396240
30
0.000000000000000
11
-35.2627927146575
21
2.95807315458089
31
0.000000000000000
  0
LINE
  5
F10464
330
F10465
100
AcDbEntity
8
Geo
100
AcDbLine
10
-35.2627927146575
20
2.95807315458089
30
0.000000000000000
11
-35.1627927146574
21
2.87744266824184
31
0.000000000000000
  0
LINE
  5
F10466
330
F10467
100
AcDbEntity
8
Geo
100
AcDbLine
10
-35.1627927146574
20
2.87744266824184
30
0.000000000000000
11
-35.0627927146574
21
2.79755782329472
31
0.000000000000000
  0
LINE
  5
F10468
330
F10469
100
AcDbEntity
8
Geo
100
AcDbLine
10
-35.0627927146574
20
2.79755782329472
30
0.000000000000000
11
-34.9627927146574
21
2.71843110158401
31
0.000000000000000
  0
LINE
  5
F1046A
330
F1046B
100
AcDbEntity
8
Geo
100
AcDbLine
10
-34.9627927146574
20
2.71843110158401
30
0.000000000000000
11
-34.8627927146575
21
2.64007486649900
31
0.000000000000000
  0
LINE
  5
F1046C
330
F1046D
100
AcDbEntity
8
Geo
100
AcDbLine
10
-34.8627927146575
20
2.64007486649900
30
0.000000000000000
11
-34.7627927146575
21
2.56250136104201
31
0.000000000000000
  0
LINE
  5
F1046E
330
F1046F
100
AcDbEntity
8
Geo
100
AcDbLine
10
-34.7627927146575
20
2.56250136104201
30
0.000000000000000
11
-34.6627927146574
21
2.48572270591544
31
0.000000000000000
  0
LINE
  5
F10470
330
F10471
100
AcDbEntity
8
Geo
100
AcDbLine
10
-34.6627927146574
20
2.48572270591544
30
0.000000000000000
11
-34.5627927146574
21
2.40975089762796
31
0.000000000000000
  0
LINE
  5
F10472
330
F10473
100
AcDbEntity
8
Geo
100
AcDbLine
10
-34.5627927146574
20
2.40975089762796
30
0.000000000000000
11
-34.4627927146574
21
2.33459780662003
31
0.000000000000000
  0
LINE
  5
F10474
330
F10475
100
AcDbEntity
8
Geo
100
AcDbLine
10
-34.4627927146574
20
2.33459780662003
30
0.000000000000000
11
-34.3627927146575
21
2.26027517540924
31
0.000000000000000
  0
LINE
  5
F10476
330
F10477
100
AcDbEntity
8
Geo
100
AcDbLine
10
-34.3627927146575
20
2.26027517540924
30
0.000000000000000
11
-34.2627927146575
21
2.18679461675549
31
0.000000000000000
  0
LINE
  5
F10478
330
F10479
100
AcDbEntity
8
Geo
100
AcDbLine
10
-34.2627927146575
20
2.18679461675549
30
0.000000000000000
11
-34.1627927146574
21
2.11416761184659
31
0.000000000000000
  0
LINE
  5
F1047A
330
F1047B
100
AcDbEntity
8
Geo
100
AcDbLine
10
-34.1627927146574
20
2.11416761184659
30
0.000000000000000
11
-34.0627927146574
21
2.04240550850429
31
0.000000000000000
  0
LINE
  5
F1047C
330
F1047D
100
AcDbEntity
8
Geo
100
AcDbLine
10
-34.0627927146574
20
2.04240550850429
30
0.000000000000000
11
-33.9627927146574
21
1.97151951941124
31
0.000000000000000
  0
LINE
  5
F1047E
330
F1047F
100
AcDbEntity
8
Geo
100
AcDbLine
10
-33.9627927146574
20
1.97151951941124
30
0.000000000000000
11
-33.8627927146574
21
1.90152072035902
31
0.000000000000000
  0
LINE
  5
F10480
330
F10481
100
AcDbEntity
8
Geo
100
AcDbLine
10
-33.8627927146574
20
1.90152072035902
30
0.000000000000000
11
-33.7627927146575
21
1.83242004851757
31
0.000000000000000
  0
LINE
  5
F10482
330
F10483
100
AcDbEntity
8
Geo
100
AcDbLine
10
-33.7627927146575
20
1.83242004851757
30
0.000000000000000
11
-33.6627927146574
21
1.76422830072627
31
0.000000000000000
  0
LINE
  5
F10484
330
F10485
100
AcDbEntity
8
Geo
100
AcDbLine
10
-33.6627927146574
20
1.76422830072627
30
0.000000000000000
11
-33.5627927146574
21
1.69695613180699
31
0.000000000000000
  0
LINE
  5
F10486
330
F10487
100
AcDbEntity
8
Geo
100
AcDbLine
10
-33.5627927146574
20
1.69695613180699
30
0.000000000000000
11
-33.4627927146575
21
1.63061405289925
31
0.000000000000000
  0
LINE
  5
F10488
330
F10489
100
AcDbEntity
8
Geo
100
AcDbLine
10
-33.4627927146575
20
1.63061405289925
30
0.000000000000000
11
-33.3627927146575
21
1.56521242981791
31
0.000000000000000
  0
LINE
  5
F1048A
330
F1048B
100
AcDbEntity
8
Geo
100
AcDbLine
10
-33.3627927146575
20
1.56521242981791
30
0.000000000000000
11
-33.2627927146575
21
1.50076148143352
31
0.000000000000000
  0
LINE
  5
F1048C
330
F1048D
100
AcDbEntity
8
Geo
100
AcDbLine
10
-33.2627927146575
20
1.50076148143352
30
0.000000000000000
11
-33.1627927146574
21
1.43727127807564
31
0.000000000000000
  0
LINE
  5
F1048E
330
F1048F
100
AcDbEntity
8
Geo
100
AcDbLine
10
-33.1627927146574
20
1.43727127807564
30
0.000000000000000
11
-33.0627927146574
21
1.37475173995936
31
0.000000000000000
  0
LINE
  5
F10490
330
F10491
100
AcDbEntity
8
Geo
100
AcDbLine
10
-33.0627927146574
20
1.37475173995936
30
0.000000000000000
11
-32.9627927146575
21
1.31321263563534
31
0.000000000000000
  0
LINE
  5
F10492
330
F10493
100
AcDbEntity
8
Geo
100
AcDbLine
10
-32.9627927146575
20
1.31321263563534
30
0.000000000000000
11
-32.8627927146575
21
1.25266358046341
31
0.000000000000000
  0
LINE
  5
F10494
330
F10495
100
AcDbEntity
8
Geo
100
AcDbLine
10
-32.8627927146575
20
1.25266358046341
30
0.000000000000000
11
-32.7627927146575
21
1.19311403511026
31
0.000000000000000
  0
LINE
  5
F10496
330
F10497
100
AcDbEntity
8
Geo
100
AcDbLine
10
-32.7627927146575
20
1.19311403511026
30
0.000000000000000
11
-32.6627927146575
21
1.13457330407119
31
0.000000000000000
  0
LINE
  5
F10498
330
F10499
100
AcDbEntity
8
Geo
100
AcDbLine
10
-32.6627927146575
20
1.13457330407119
30
0.000000000000000
11
-32.5627927146575
21
1.07705053421634
31
0.000000000000000
  0
LINE
  5
F1049A
330
F1049B
100
AcDbEntity
8
Geo
100
AcDbLine
10
-32.5627927146575
20
1.07705053421634
30
0.000000000000000
11
-32.4627927146575
21
1.02055471336146
31
0.000000000000000
  0
LINE
  5
F1049C
330
F1049D
100
AcDbEntity
8
Geo
100
AcDbLine
10
-32.4627927146575
20
1.02055471336146
30
0.000000000000000
11
-32.3627927146575
21
0.965094668863625
31
0.000000000000000
  0
LINE
  5
F1049E
330
F1049F
100
AcDbEntity
8
Geo
100
AcDbLine
10
-32.3627927146575
20
0.965094668863625
30
0.000000000000000
11
-32.2627927146575
21
0.910679066241946
31
0.000000000000000
  0
LINE
  5
F104A0
330
F104A1
100
AcDbEntity
8
Geo
100
AcDbLine
10
-32.2627927146575
20
0.910679066241946
30
0.000000000000000
11
-32.1627927146575
21
0.857316407823629
31
0.000000000000000
  0
LINE
  5
F104A2
330
F104A3
100
AcDbEntity
8
Geo
100
AcDbLine
10
-32.1627927146575
20
0.857316407823629
30
0.000000000000000
11
-32.0627927146575
21
0.805015031415484
31
0.000000000000000
  0
LINE
  5
F104A4
330
F104A5
100
AcDbEntity
8
Geo
100
AcDbLine
10
-32.0627927146575
20
0.805015031415484
30
0.000000000000000
11
-31.9627927146575
21
0.753783109001171
31
0.000000000000000
  0
LINE
  5
F104A6
330
F104A7
100
AcDbEntity
8
Geo
100
AcDbLine
10
-31.9627927146575
20
0.753783109001171
30
0.000000000000000
11
-31.8627927146575
21
0.703628645464334
31
0.000000000000000
  0
LINE
  5
F104A8
330
F104A9
100
AcDbEntity
8
Geo
100
AcDbLine
10
-31.8627927146575
20
0.703628645464334
30
0.000000000000000
11
-31.7627927146575
21
0.654559477337861
31
0.000000000000000
  0
LINE
  5
F104AA
330
F104AB
100
AcDbEntity
8
Geo
100
AcDbLine
10
-31.7627927146575
20
0.654559477337861
30
0.000000000000000
11
-31.6627927146575
21
0.606583271579441
31
0.000000000000000
  0
LINE
  5
F104AC
330
F104AD
100
AcDbEntity
8
Geo
100
AcDbLine
10
-31.6627927146575
20
0.606583271579441
30
0.000000000000000
11
-31.5627927146575
21
0.559707524373617
31
0.000000000000000
  0
LINE
  5
F104AE
330
F104AF
100
AcDbEntity
8
Geo
100
AcDbLine
10
-31.5627927146575
20
0.559707524373617
30
0.000000000000000
11
-31.4627927146575
21
0.513939559960522
31
0.000000000000000
  0
LINE
  5
F104B0
330
F104B1
100
AcDbEntity
8
Geo
100
AcDbLine
10
-31.4627927146575
20
0.513939559960522
30
0.000000000000000
11
-31.3627927146575
21
0.469286529491481
31
0.000000000000000
  0
LINE
  5
F104B2
330
F104B3
100
AcDbEntity
8
Geo
100
AcDbLine
10
-31.3627927146575
20
0.469286529491481
30
0.000000000000000
11
-31.2627927146575
21
0.425755409911658
31
0.000000000000000
  0
LINE
  5
F104B4
330
F104B5
100
AcDbEntity
8
Geo
100
AcDbLine
10
-31.2627927146575
20
0.425755409911658
30
0.000000000000000
11
-31.1627927146575
21
0.383353002869923
31
0.000000000000000
  0
LINE
  5
F104B6
330
F104B7
100
AcDbEntity
8
Geo
100
AcDbLine
10
-31.1627927146575
20
0.383353002869923
30
0.000000000000000
11
-31.0627927146575
21
0.342085933656109
31
0.000000000000000
  0
LINE
  5
F104B8
330
F104B9
100
AcDbEntity
8
Geo
100
AcDbLine
10
-31.0627927146575
20
0.342085933656109
30
0.000000000000000
11
-30.9627927146575
21
0.301960650165824
31
0.000000000000000
  0
LINE
  5
F104BA
330
F104BB
100
AcDbEntity
8
Geo
100
AcDbLine
10
-30.9627927146575
20
0.301960650165824
30
0.000000000000000
11
-30.8627927146575
21
0.262983421892976
31
0.000000000000000
  0
LINE
  5
F104BC
330
F104BD
100
AcDbEntity
8
Geo
100
AcDbLine
10
-30.8627927146575
20
0.262983421892976
30
0.000000000000000
11
-30.7627927146575
21
0.225160338950186
31
0.000000000000000
  0
LINE
  5
F104BE
330
F104BF
100
AcDbEntity
8
Geo
100
AcDbLine
10
-30.7627927146575
20
0.225160338950186
30
0.000000000000000
11
-30.6627927146575
21
0.188497311117214
31
0.000000000000000
  0
LINE
  5
F104C0
330
F104C1
100
AcDbEntity
8
Geo
100
AcDbLine
10
-30.6627927146575
20
0.188497311117214
30
0.000000000000000
11
-30.5627927146575
21
0.153000066917565
31
0.000000000000000
  0
LINE
  5
F104C2
330
F104C3
100
AcDbEntity
8
Geo
100
AcDbLine
10
-30.5627927146575
20
0.153000066917565
30
0.000000000000000
11
-30.4627927146575
21
0.118674152723429
31
0.000000000000000
  0
LINE
  5
F104C4
330
F104C5
100
AcDbEntity
8
Geo
100
AcDbLine
10
-30.4627927146575
20
0.118674152723429
30
0.000000000000000
11
-30.3627927146575
21
0.0855249318890605
31
0.000000000000000
  0
LINE
  5
F104C6
330
F104C7
100
AcDbEntity
8
Geo
100
AcDbLine
10
-30.3627927146575
20
0.0855249318890605
30
0.000000000000000
11
-30.2627927146575
21
0.0535575839127755
31
0.000000000000000
  0
LINE
  5
F104C8
330
F104C9
100
AcDbEntity
8
Geo
100
AcDbLine
10
-30.2627927146575
20
0.0535575839127755
30
0.000000000000000
11
-30.1627927146575
21
0.0227771036276572
31
0.000000000000000
  0
LINE
  5
F104CA
330
F104CB
100
AcDbEntity
8
Geo
100
AcDbLine
10
-30.1627927146575
20
0.0227771036276572
30
0.000000000000000
11
-30.0627927146575
21
-0.00681169957887473
31
0.000000000000000
  0
LINE
  5
F104CC
330
F104CD
100
AcDbEntity
8
Geo
100
AcDbLine
10
-30.0627927146575
20
-0.00681169957887473
30
0.000000000000000
11
-29.9627927146575
21
-0.0352042025165158
31
0.000000000000000
  0
LINE
  5
F104CE
330
F104CF
100
AcDbEntity
8
Geo
100
AcDbLine
10
-29.9627927146575
20
-0.0352042025165158
30
0.000000000000000
11
-29.8627927146575
21
-0.0623959689144451
31
0.000000000000000
  0
LINE
  5
F104D0
330
F104D1
100
AcDbEntity
8
Geo
100
AcDbLine
10
-29.8627927146575
20
-0.0623959689144451
30
0.000000000000000
11
-29.7627927146575
21
-0.0883827501144872
31
0.000000000000000
  0
LINE
  5
F104D2
330
F104D3
100
AcDbEntity
8
Geo
100
AcDbLine
10
-29.7627927146575
20
-0.0883827501144872
30
0.000000000000000
11
-29.6627927146575
21
-0.113160485734947
31
0.000000000000000
  0
LINE
  5
F104D4
330
F104D5
100
AcDbEntity
8
Geo
100
AcDbLine
10
-29.6627927146575
20
-0.113160485734947
30
0.000000000000000
11
-29.5627927146575
21
-0.136725304305044
31
0.000000000000000
  0
LINE
  5
F104D6
330
F104D7
100
AcDbEntity
8
Geo
100
AcDbLine
10
-29.5627927146575
20
-0.136725304305044
30
0.000000000000000
11
-29.4627927146575
21
-0.159073523869823
31
0.000000000000000
  0
LINE
  5
F104D8
330
F104D9
100
AcDbEntity
8
Geo
100
AcDbLine
10
-29.4627927146575
20
-0.159073523869823
30
0.000000000000000
11
-29.3627927146575
21
-0.180201652565441
31
0.000000000000000
  0
LINE
  5
F104DA
330
F104DB
100
AcDbEntity
8
Geo
100
AcDbLine
10
-29.3627927146575
20
-0.180201652565441
30
0.000000000000000
11
-29.2627927146575
21
-0.200106389164774
31
0.000000000000000
  0
LINE
  5
F104DC
330
F104DD
100
AcDbEntity
8
Geo
100
AcDbLine
10
-29.2627927146575
20
-0.200106389164774
30
0.000000000000000
11
-29.1627927146575
21
-0.218784623593225
31
0.000000000000000
  0
LINE
  5
F104DE
330
F104DF
100
AcDbEntity
8
Geo
100
AcDbLine
10
-29.1627927146575
20
-0.218784623593225
30
0.000000000000000
11
-29.0627927146575
21
-0.236233437414668
31
0.000000000000000
  0
LINE
  5
F104E0
330
F104E1
100
AcDbEntity
8
Geo
100
AcDbLine
10
-29.0627927146575
20
-0.236233437414668
30
0.000000000000000
11
-28.9627927146575
21
-0.252450104287439
31
0.000000000000000
  0
LINE
  5
F104E2
330
F104E3
100
AcDbEntity
8
Geo
100
AcDbLine
10
-28.9627927146575
20
-0.252450104287439
30
0.000000000000000
11
-28.8627927146575
21
-0.267432090390334
31
0.000000000000000
  0
LINE
  5
F104E4
330
F104E5
100
AcDbEntity
8
Geo
100
AcDbLine
10
-28.8627927146575
20
-0.267432090390334
30
0.000000000000000
11
-28.7627927146575
21
-0.281177054818504
31
0.000000000000000
  0
LINE
  5
F104E6
330
F104E7
100
AcDbEntity
8
Geo
100
AcDbLine
10
-28.7627927146575
20
-0.281177054818504
30
0.000000000000000
11
-28.6627927146575
21
-0.293682849949223
31
0.000000000000000
  0
LINE
  5
F104E8
330
F104E9
100
AcDbEntity
8
Geo
100
AcDbLine
10
-28.6627927146575
20
-0.293682849949223
30
0.000000000000000
11
-28.5627927146575
21
-0.304947521777443
31
0.000000000000000
  0
LINE
  5
F104EA
330
F104EB
100
AcDbEntity
8
Geo
100
AcDbLine
10
-28.5627927146575
20
-0.304947521777443
30
0.000000000000000
11
-28.4627927146575
21
-0.314969310221110
31
0.000000000000000
  0
LINE
  5
F104EC
330
F104ED
100
AcDbEntity
8
Geo
100
AcDbLine
10
-28.4627927146575
20
-0.314969310221110
30
0.000000000000000
11
-28.3627927146575
21
-0.323746649396168
31
0.000000000000000
  0
LINE
  5
F104EE
330
F104EF
100
AcDbEntity
8
Geo
100
AcDbLine
10
-28.3627927146575
20
-0.323746649396168
30
0.000000000000000
11
-28.2627927146575
21
-0.331278167861228
31
0.000000000000000
  0
LINE
  5
F104F0
330
F104F1
100
AcDbEntity
8
Geo
100
AcDbLine
10
-28.2627927146575
20
-0.331278167861228
30
0.000000000000000
11
-28.1627927146575
21
-0.337562688831853
31
0.000000000000000
  0
LINE
  5
F104F2
330
F104F3
100
AcDbEntity
8
Geo
100
AcDbLine
10
-28.1627927146575
20
-0.337562688831853
30
0.000000000000000
11
-28.0627927146575
21
-0.342599230364431
31
0.000000000000000
  0
LINE
  5
F104F4
330
F104F5
100
AcDbEntity
8
Geo
100
AcDbLine
10
-28.0627927146575
20
-0.342599230364431
30
0.000000000000000
11
-27.9627927146575
21
-0.346387005509587
31
0.000000000000000
  0
LINE
  5
F104F6
330
F104F7
100
AcDbEntity
8
Geo
100
AcDbLine
10
-27.9627927146575
20
-0.346387005509587
30
0.000000000000000
11
-27.8627927146575
21
-0.348925422435165
31
0.000000000000000
  0
LINE
  5
F104F8
330
F104F9
100
AcDbEntity
8
Geo
100
AcDbLine
10
-27.8627927146575
20
-0.348925422435165
30
0.000000000000000
11
-27.7627927146575
21
-0.350214084518687
31
0.000000000000000
  0
LINE
  5
F104FA
330
F104FB
100
AcDbEntity
8
Geo
100
AcDbLine
10
-27.7627927146575
20
-0.350214084518687
30
0.000000000000000
11
-27.7096962633345
21
-0.350390286209887
31
0.000000000000000
  0
LINE
  5
F104FC
330
F104FD
100
AcDbEntity
8
Geo
100
AcDbLine
10
-22.7627927146575
20
5.25334166427356
30
0.000000000000000
11
-22.6627927146575
21
5.15812277669534
31
0.000000000000000
  0
LINE
  5
F104FE
330
F104FF
100
AcDbEntity
8
Geo
100
AcDbLine
10
-22.6627927146575
20
5.15812277669534
30
0.000000000000000
11
-22.5627927146575
21
5.06329317888212
31
0.000000000000000
  0
LINE
  5
F10500
330
F10501
100
AcDbEntity
8
Geo
100
AcDbLine
10
-22.5627927146575
20
5.06329317888212
30
0.000000000000000
11
-22.4627927146575
21
4.96886768776565
31
0.000000000000000
  0
LINE
  5
F10502
330
F10503
100
AcDbEntity
8
Geo
100
AcDbLine
10
-22.4627927146575
20
4.96886768776565
30
0.000000000000000
11
-22.3627927146575
21
4.87486105713702
31
0.000000000000000
  0
LINE
  5
F10504
330
F10505
100
AcDbEntity
8
Geo
100
AcDbLine
10
-22.3627927146575
20
4.87486105713702
30
0.000000000000000
11
-22.2627927146575
21
4.78128797534395
31
0.000000000000000
  0
LINE
  5
F10506
330
F10507
100
AcDbEntity
8
Geo
100
AcDbLine
10
-22.2627927146575
20
4.78128797534395
30
0.000000000000000
11
-22.1627927146575
21
4.68816306301233
31
0.000000000000000
  0
LINE
  5
F10508
330
F10509
100
AcDbEntity
8
Geo
100
AcDbLine
10
-22.1627927146575
20
4.68816306301233
30
0.000000000000000
11
-22.0627927146575
21
4.59550087083901
31
0.000000000000000
  0
LINE
  5
F1050A
330
F1050B
100
AcDbEntity
8
Geo
100
AcDbLine
10
-22.0627927146575
20
4.59550087083901
30
0.000000000000000
11
-21.9627927146575
21
4.50331587759510
31
0.000000000000000
  0
LINE
  5
F1050C
330
F1050D
100
AcDbEntity
8
Geo
100
AcDbLine
10
-21.9627927146575
20
4.50331587759510
30
0.000000000000000
11
-21.8627927146575
21
4.41162248868576
31
0.000000000000000
  0
LINE
  5
F1050E
330
F1050F
100
AcDbEntity
8
Geo
100
AcDbLine
10
-21.8627927146575
20
4.41162248868576
30
0.000000000000000
11
-21.7627927146575
21
4.32043503601562
31
0.000000000000000
  0
LINE
  5
F10510
330
F10511
100
AcDbEntity
8
Geo
100
AcDbLine
10
-21.7627927146575
20
4.32043503601562
30
0.000000000000000
11
-21.6627927146575
21
4.22976778062373
31
0.000000000000000
  0
LINE
  5
F10512
330
F10513
100
AcDbEntity
8
Geo
100
AcDbLine
10
-21.6627927146575
20
4.22976778062373
30
0.000000000000000
11
-21.5627927146575
21
4.13963492072712
31
0.000000000000000
  0
LINE
  5
F10514
330
F10515
100
AcDbEntity
8
Geo
100
AcDbLine
10
-21.5627927146575
20
4.13963492072712
30
0.000000000000000
11
-21.4627927146575
21
4.05005060963441
31
0.000000000000000
  0
LINE
  5
F10516
330
F10517
100
AcDbEntity
8
Geo
100
AcDbLine
10
-21.4627927146575
20
4.05005060963441
30
0.000000000000000
11
-21.3627927146575
21
3.96102899068434
31
0.000000000000000
  0
LINE
  5
F10518
330
F10519
100
AcDbEntity
8
Geo
100
AcDbLine
10
-21.3627927146575
20
3.96102899068434
30
0.000000000000000
11
-21.2627927146575
21
3.87258426019191
31
0.000000000000000
  0
LINE
  5
F1051A
330
F1051B
100
AcDbEntity
8
Geo
100
AcDbLine
10
-21.2627927146575
20
3.87258426019191
30
0.000000000000000
11
-21.1627927146575
21
3.78473077464644
31
0.000000000000000
  0
LINE
  5
F1051C
330
F1051D
100
AcDbEntity
8
Geo
100
AcDbLine
10
-21.1627927146575
20
3.78473077464644
30
0.000000000000000
11
-21.0627927146575
21
3.69748322543646
31
0.000000000000000
  0
LINE
  5
F1051E
330
F1051F
100
AcDbEntity
8
Geo
100
AcDbLine
10
-21.0627927146575
20
3.69748322543646
30
0.000000000000000
11
-20.9627927146575
21
3.61085691353994
31
0.000000000000000
  0
LINE
  5
F10520
330
F10521
100
AcDbEntity
8
Geo
100
AcDbLine
10
-20.9627927146575
20
3.61085691353994
30
0.000000000000000
11
-20.8627927146575
21
3.52486816830938
31
0.000000000000000
  0
LINE
  5
F10522
330
F10523
100
AcDbEntity
8
Geo
100
AcDbLine
10
-20.8627927146575
20
3.52486816830938
30
0.000000000000000
11
-20.7627927146575
21
3.43953496910832
31
0.000000000000000
  0
LINE
  5
F10524
330
F10525
100
AcDbEntity
8
Geo
100
AcDbLine
10
-20.7627927146575
20
3.43953496910832
30
0.000000000000000
11
-20.6627927146575
21
3.35487784654937
31
0.000000000000000
  0
LINE
  5
F10526
330
F10527
100
AcDbEntity
8
Geo
100
AcDbLine
10
-20.6627927146575
20
3.35487784654937
30
0.000000000000000
11
-20.5627927146575
21
3.27092116187652
31
0.000000000000000
  0
LINE
  5
F10528
330
F10529
100
AcDbEntity
8
Geo
100
AcDbLine
10
-20.5627927146575
20
3.27092116187652
30
0.000000000000000
11
-20.4627927146575
21
3.18769488907392
31
0.000000000000000
  0
LINE
  5
F1052A
330
F1052B
100
AcDbEntity
8
Geo
100
AcDbLine
10
-20.4627927146575
20
3.18769488907392
30
0.000000000000000
11
-20.3627927146575
21
3.10523705502759
31
0.000000000000000
  0
LINE
  5
F1052C
330
F1052D
100
AcDbEntity
8
Geo
100
AcDbLine
10
-20.3627927146575
20
3.10523705502759
30
0.000000000000000
11
-20.2627927146575
21
3.02359702901606
31
0.000000000000000
  0
LINE
  5
F1052E
330
F1052F
100
AcDbEntity
8
Geo
100
AcDbLine
10
-20.2627927146575
20
3.02359702901606
30
0.000000000000000
11
-20.1627927146575
21
2.94283989455605
31
0.000000000000000
  0
LINE
  5
F10530
330
F10531
100
AcDbEntity
8
Geo
100
AcDbLine
10
-20.1627927146575
20
2.94283989455605
30
0.000000000000000
11
-20.0627927146575
21
2.86305218498205
31
0.000000000000000
  0
LINE
  5
F10532
330
F10533
100
AcDbEntity
8
Geo
100
AcDbLine
10
-20.0627927146575
20
2.86305218498205
30
0.000000000000000
11
-19.9627927146575
21
2.78434932031480
31
0.000000000000000
  0
LINE
  5
F10534
330
F10535
100
AcDbEntity
8
Geo
100
AcDbLine
10
-19.9627927146575
20
2.78434932031480
30
0.000000000000000
11
-19.8627927146575
21
2.70688514898254
31
0.000000000000000
  0
LINE
  5
F10536
330
F10537
100
AcDbEntity
8
Geo
100
AcDbLine
10
-19.8627927146575
20
2.70688514898254
30
0.000000000000000
11
-19.7627927146575
21
2.63086407723432
31
0.000000000000000
  0
LINE
  5
F10538
330
F10539
100
AcDbEntity
8
Geo
100
AcDbLine
10
-19.7627927146575
20
2.63086407723432
30
0.000000000000000
11
-19.6627927146575
21
2.55655636753857
31
0.000000000000000
  0
LINE
  5
F1053A
330
F1053B
100
AcDbEntity
8
Geo
100
AcDbLine
10
-19.6627927146575
20
2.55655636753857
30
0.000000000000000
11
-19.5627927146575
21
2.48431731497663
31
0.000000000000000
  0
LINE
  5
F1053C
330
F1053D
100
AcDbEntity
8
Geo
100
AcDbLine
10
-19.5627927146575
20
2.48431731497663
30
0.000000000000000
11
-19.4627927146575
21
2.41461118453814
31
0.000000000000000
  0
LINE
  5
F1053E
330
F1053F
100
AcDbEntity
8
Geo
100
AcDbLine
10
-19.4627927146575
20
2.41461118453814
30
0.000000000000000
11
-19.3627927146575
21
2.34804104012491
31
0.000000000000000
  0
LINE
  5
F10540
330
F10541
100
AcDbEntity
8
Geo
100
AcDbLine
10
-19.3627927146575
20
2.34804104012491
30
0.000000000000000
11
-19.2627927146575
21
2.28538596274002
31
0.000000000000000
  0
LINE
  5
F10542
330
F10543
100
AcDbEntity
8
Geo
100
AcDbLine
10
-19.2627927146575
20
2.28538596274002
30
0.000000000000000
11
-19.1627927146575
21
2.22764771118809
31
0.000000000000000
  0
LINE
  5
F10544
330
F10545
100
AcDbEntity
8
Geo
100
AcDbLine
10
-19.1627927146575
20
2.22764771118809
30
0.000000000000000
11
-19.0627927146575
21
2.17610973167591
31
0.000000000000000
  0
LINE
  5
F10546
330
F10547
100
AcDbEntity
8
Geo
100
AcDbLine
10
-19.0627927146575
20
2.17610973167591
30
0.000000000000000
11
-18.9627927146575
21
2.13241273423567
31
0.000000000000000
  0
LINE
  5
F10548
330
F10549
100
AcDbEntity
8
Geo
100
AcDbLine
10
-18.9627927146575
20
2.13241273423567
30
0.000000000000000
11
-18.8627927146575
21
2.09865305679418
31
0.000000000000000
  0
LINE
  5
F1054A
330
F1054B
100
AcDbEntity
8
Geo
100
AcDbLine
10
-18.8627927146575
20
2.09865305679418
30
0.000000000000000
11
-18.7627927146575
21
2.07751305428496
31
0.000000000000000
  0
LINE
  5
F1054C
330
F1054D
100
AcDbEntity
8
Geo
100
AcDbLine
10
-18.7627927146575
20
2.07751305428496
30
0.000000000000000
11
-18.6627927146574
21
2.07243719964997
31
0.000000000000000
  0
LINE
  5
F1054E
330
F1054F
100
AcDbEntity
8
Geo
100
AcDbLine
10
-18.6627927146574
20
2.07243719964997
30
0.000000000000000
11
-18.5627927146574
21
2.08787395636330
31
0.000000000000000
  0
LINE
  5
F10550
330
F10551
100
AcDbEntity
8
Geo
100
AcDbLine
10
-18.5627927146574
20
2.08787395636330
30
0.000000000000000
11
-18.4627927146574
21
2.12961223038093
31
0.000000000000000
  0
LINE
  5
F10552
330
F10553
100
AcDbEntity
8
Geo
100
AcDbLine
10
-18.4627927146574
20
2.12961223038093
30
0.000000000000000
11
-18.3627927146574
21
2.20525244480084
31
0.000000000000000
  0
LINE
  5
F10554
330
F10555
100
AcDbEntity
8
Geo
100
AcDbLine
10
-18.3627927146574
20
2.20525244480084
30
0.000000000000000
11
-18.2627927146574
21
2.32486505214312
31
0.000000000000000
  0
LINE
  5
F10556
330
F10557
100
AcDbEntity
8
Geo
100
AcDbLine
10
-18.2627927146574
20
2.32486505214312
30
0.000000000000000
11
-18.1627927146574
21
2.50189998809376
31
0.000000000000000
  0
LINE
  5
F10558
330
F10559
100
AcDbEntity
8
Geo
100
AcDbLine
10
-18.1627927146574
20
2.50189998809376
30
0.000000000000000
11
-18.0627927146574
21
2.75440947959603
31
0.000000000000000
  0
LINE
  5
F1055A
330
F1055B
100
AcDbEntity
8
Geo
100
AcDbLine
10
-18.0627927146574
20
2.75440947959603
30
0.000000000000000
11
-17.9627927146574
21
3.10661100927960
31
0.000000000000000
  0
LINE
  5
F1055C
330
F1055D
100
AcDbEntity
8
Geo
100
AcDbLine
10
-17.9627927146574
20
3.10661100927960
30
0.000000000000000
11
-17.8627927146574
21
3.59069773011341
31
0.000000000000000
  0
LINE
  5
F1055E
330
F1055F
100
AcDbEntity
8
Geo
100
AcDbLine
10
-17.8627927146574
20
3.59069773011341
30
0.000000000000000
11
-17.7627927146575
21
4.24849938106782
31
0.000000000000000
  0
LINE
  5
F10560
330
F10561
100
AcDbEntity
8
Geo
100
AcDbLine
10
-17.7627927146575
20
4.24849938106782
30
0.000000000000000
11
-17.7627927146575
21
4.43154114698131
31
0.000000000000000
  0
LINE
  5
F10562
330
F10563
100
AcDbEntity
8
Geo
100
AcDbLine
10
-17.7627927146575
20
4.43154114698131
30
0.000000000000000
11
-17.8627927146574
21
5.15705443697077
31
0.000000000000000
  0
LINE
  5
F10564
330
F10565
100
AcDbEntity
8
Geo
100
AcDbLine
10
-17.8627927146574
20
5.15705443697077
30
0.000000000000000
11
-17.9627927146574
21
5.84202911747473
31
0.000000000000000
  0
LINE
  5
F10566
330
F10567
100
AcDbEntity
8
Geo
100
AcDbLine
10
-17.9627927146574
20
5.84202911747473
30
0.000000000000000
11
-18.0627927146574
21
6.48142543551512
31
0.000000000000000
  0
LINE
  5
F10568
330
F10569
100
AcDbEntity
8
Geo
100
AcDbLine
10
-18.0627927146574
20
6.48142543551512
30
0.000000000000000
11
-18.1627927146574
21
7.07308726030968
31
0.000000000000000
  0
LINE
  5
F1056A
330
F1056B
100
AcDbEntity
8
Geo
100
AcDbLine
10
-18.1627927146574
20
7.07308726030968
30
0.000000000000000
11
-18.2627927146574
21
7.61692659555886
31
0.000000000000000
  0
LINE
  5
F1056C
330
F1056D
100
AcDbEntity
8
Geo
100
AcDbLine
10
-18.2627927146574
20
7.61692659555886
30
0.000000000000000
11
-18.3627927146574
21
8.11428267293334
31
0.000000000000000
  0
LINE
  5
F1056E
330
F1056F
100
AcDbEntity
8
Geo
100
AcDbLine
10
-18.3627927146574
20
8.11428267293334
30
0.000000000000000
11
-18.4627927146574
21
8.56743080331259
31
0.000000000000000
  0
LINE
  5
F10570
330
F10571
100
AcDbEntity
8
Geo
100
AcDbLine
10
-18.4627927146574
20
8.56743080331259
30
0.000000000000000
11
-18.5627927146574
21
8.97921477883190
31
0.000000000000000
  0
LINE
  5
F10572
330
F10573
100
AcDbEntity
8
Geo
100
AcDbLine
10
-18.5627927146574
20
8.97921477883190
30
0.000000000000000
11
-18.6627927146574
21
9.35277819874763
31
0.000000000000000
  0
LINE
  5
F10574
330
F10575
100
AcDbEntity
8
Geo
100
AcDbLine
10
-18.6627927146574
20
9.35277819874763
30
0.000000000000000
11
-18.7627927146575
21
9.69137308417915
31
0.000000000000000
  0
LINE
  5
F10576
330
F10577
100
AcDbEntity
8
Geo
100
AcDbLine
10
-18.7627927146575
20
9.69137308417915
30
0.000000000000000
11
-18.8627927146575
21
9.99822760855807
31
0.000000000000000
  0
LINE
  5
F10578
330
F10579
100
AcDbEntity
8
Geo
100
AcDbLine
10
-18.8627927146575
20
9.99822760855807
30
0.000000000000000
11
-18.9627927146575
21
10.2764581691436
31
0.000000000000000
  0
LINE
  5
F1057A
330
F1057B
100
AcDbEntity
8
Geo
100
AcDbLine
10
-18.9627927146575
20
10.2764581691436
30
0.000000000000000
11
-19.0627927146575
21
10.5290140902328
31
0.000000000000000
  0
LINE
  5
F1057C
330
F1057D
100
AcDbEntity
8
Geo
100
AcDbLine
10
-19.0627927146575
20
10.5290140902328
30
0.000000000000000
11
-19.1627927146575
21
10.7586458715104
31
0.000000000000000
  0
LINE
  5
F1057E
330
F1057F
100
AcDbEntity
8
Geo
100
AcDbLine
10
-19.1627927146575
20
10.7586458715104
30
0.000000000000000
11
-19.2627927146575
21
10.9678900587548
31
0.000000000000000
  0
LINE
  5
F10580
330
F10581
100
AcDbEntity
8
Geo
100
AcDbLine
10
-19.2627927146575
20
10.9678900587548
30
0.000000000000000
11
-19.3627927146575
21
11.1590655511075
31
0.000000000000000
  0
LINE
  5
F10582
330
F10583
100
AcDbEntity
8
Geo
100
AcDbLine
10
-19.3627927146575
20
11.1590655511075
30
0.000000000000000
11
-19.4627927146575
21
11.3342775235722
31
0.000000000000000
  0
LINE
  5
F10584
330
F10585
100
AcDbEntity
8
Geo
100
AcDbLine
10
-19.4627927146575
20
11.3342775235722
30
0.000000000000000
11
-19.5627927146575
21
11.4954261958941
31
0.000000000000000
  0
LINE
  5
F10586
330
F10587
100
AcDbEntity
8
Geo
100
AcDbLine
10
-19.5627927146575
20
11.4954261958941
30
0.000000000000000
11
-19.6627927146575
21
11.6442184778491
31
0.000000000000000
  0
LINE
  5
F10588
330
F10589
100
AcDbEntity
8
Geo
100
AcDbLine
10
-19.6627927146575
20
11.6442184778491
30
0.000000000000000
11
-19.7627927146575
21
11.7821811183181
31
0.000000000000000
  0
LINE
  5
F1058A
330
F1058B
100
AcDbEntity
8
Geo
100
AcDbLine
10
-19.7627927146575
20
11.7821811183181
30
0.000000000000000
11
-19.8627927146575
21
11.9106744256495
31
0.000000000000000
  0
LINE
  5
F1058C
330
F1058D
100
AcDbEntity
8
Geo
100
AcDbLine
10
-19.8627927146575
20
11.9106744256495
30
0.000000000000000
11
-19.9627927146575
21
12.0309059461639
31
0.000000000000000
  0
LINE
  5
F1058E
330
F1058F
100
AcDbEntity
8
Geo
100
AcDbLine
10
-19.9627927146575
20
12.0309059461639
30
0.000000000000000
11
-20.0627927146575
21
12.1439437155522
31
0.000000000000000
  0
LINE
  5
F10590
330
F10591
100
AcDbEntity
8
Geo
100
AcDbLine
10
-20.0627927146575
20
12.1439437155522
30
0.000000000000000
11
-20.1627927146575
21
12.2507288574349
31
0.000000000000000
  0
LINE
  5
F10592
330
F10593
100
AcDbEntity
8
Geo
100
AcDbLine
10
-20.1627927146575
20
12.2507288574349
30
0.000000000000000
11
-20.2627927146575
21
12.3520874124401
31
0.000000000000000
  0
LINE
  5
F10594
330
F10595
100
AcDbEntity
8
Geo
100
AcDbLine
10
-20.2627927146575
20
12.3520874124401
30
0.000000000000000
11
-20.3627927146575
21
12.4487413535440
31
0.000000000000000
  0
LINE
  5
F10596
330
F10597
100
AcDbEntity
8
Geo
100
AcDbLine
10
-20.3627927146575
20
12.4487413535440
30
0.000000000000000
11
-20.4627927146575
21
12.5413187895117
31
0.000000000000000
  0
LINE
  5
F10598
330
F10599
100
AcDbEntity
8
Geo
100
AcDbLine
10
-20.4627927146575
20
12.5413187895117
30
0.000000000000000
11
-20.5627927146575
21
12.6303633858603
31
0.000000000000000
  0
LINE
  5
F1059A
330
F1059B
100
AcDbEntity
8
Geo
100
AcDbLine
10
-20.5627927146575
20
12.6303633858603
30
0.000000000000000
11
-20.6627927146575
21
12.7163430476003
31
0.000000000000000
  0
LINE
  5
F1059C
330
F1059D
100
AcDbEntity
8
Geo
100
AcDbLine
10
-20.6627927146575
20
12.7163430476003
30
0.000000000000000
11
-20.7627927146575
21
12.7996579143150
31
0.000000000000000
  0
LINE
  5
F1059E
330
F1059F
100
AcDbEntity
8
Geo
100
AcDbLine
10
-20.7627927146575
20
12.7996579143150
30
0.000000000000000
11
-20.8627927146575
21
12.8806477189526
31
0.000000000000000
  0
LINE
  5
F105A0
330
F105A1
100
AcDbEntity
8
Geo
100
AcDbLine
10
-20.8627927146575
20
12.8806477189526
30
0.000000000000000
11
-20.9627927146575
21
12.9595985591889
31
0.000000000000000
  0
LINE
  5
F105A2
330
F105A3
100
AcDbEntity
8
Geo
100
AcDbLine
10
-20.9627927146575
20
12.9595985591889
30
0.000000000000000
11
-21.0627927146575
21
13.0367491258983
31
0.000000000000000
  0
LINE
  5
F105A4
330
F105A5
100
AcDbEntity
8
Geo
100
AcDbLine
10
-21.0627927146575
20
13.0367491258983
30
0.000000000000000
11
-21.1627927146575
21
13.1122964281525
31
0.000000000000000
  0
LINE
  5
F105A6
330
F105A7
100
AcDbEntity
8
Geo
100
AcDbLine
10
-21.1627927146575
20
13.1122964281525
30
0.000000000000000
11
-21.2627927146575
21
13.1864010489581
31
0.000000000000000
  0
LINE
  5
F105A8
330
F105A9
100
AcDbEntity
8
Geo
100
AcDbLine
10
-21.2627927146575
20
13.1864010489581
30
0.000000000000000
11
-21.3627927146575
21
13.2591919610478
31
0.000000000000000
  0
LINE
  5
F105AA
330
F105AB
100
AcDbEntity
8
Geo
100
AcDbLine
10
-21.3627927146575
20
13.2591919610478
30
0.000000000000000
11
-21.4627927146575
21
13.3307709277224
31
0.000000000000000
  0
LINE
  5
F105AC
330
F105AD
100
AcDbEntity
8
Geo
100
AcDbLine
10
-21.4627927146575
20
13.3307709277224
30
0.000000000000000
11
-21.5627927146575
21
13.4012165101166
31
0.000000000000000
  0
LINE
  5
F105AE
330
F105AF
100
AcDbEntity
8
Geo
100
AcDbLine
10
-21.5627927146575
20
13.4012165101166
30
0.000000000000000
11
-21.6627927146575
21
13.4705876993639
31
0.000000000000000
  0
LINE
  5
F105B0
330
F105B1
100
AcDbEntity
8
Geo
100
AcDbLine
10
-21.6627927146575
20
13.4705876993639
30
0.000000000000000
11
-21.7627927146575
21
13.5389271899541
31
0.000000000000000
  0
LINE
  5
F105B2
330
F105B3
100
AcDbEntity
8
Geo
100
AcDbLine
10
-21.7627927146575
20
13.5389271899541
30
0.000000000000000
11
-21.8627927146575
21
13.6062643090411
31
0.000000000000000
  0
LINE
  5
F105B4
330
F105B5
100
AcDbEntity
8
Geo
100
AcDbLine
10
-21.8627927146575
20
13.6062643090411
30
0.000000000000000
11
-21.9627927146575
21
13.6726176155041
31
0.000000000000000
  0
LINE
  5
F105B6
330
F105B7
100
AcDbEntity
8
Geo
100
AcDbLine
10
-21.9627927146575
20
13.6726176155041
30
0.000000000000000
11
-22.0627927146575
21
13.7379971820905
31
0.000000000000000
  0
LINE
  5
F105B8
330
F105B9
100
AcDbEntity
8
Geo
100
AcDbLine
10
-22.0627927146575
20
13.7379971820905
30
0.000000000000000
11
-22.1627927146575
21
13.8024065738961
31
0.000000000000000
  0
LINE
  5
F105BA
330
F105BB
100
AcDbEntity
8
Geo
100
AcDbLine
10
-22.1627927146575
20
13.8024065738961
30
0.000000000000000
11
-22.2627927146575
21
13.8658445366668
31
0.000000000000000
  0
LINE
  5
F105BC
330
F105BD
100
AcDbEntity
8
Geo
100
AcDbLine
10
-22.2627927146575
20
13.8658445366668
30
0.000000000000000
11
-22.3627927146575
21
13.9283064088735
31
0.000000000000000
  0
LINE
  5
F105BE
330
F105BF
100
AcDbEntity
8
Geo
100
AcDbLine
10
-22.3627927146575
20
13.9283064088735
30
0.000000000000000
11
-22.4627927146575
21
13.9897852721267
31
0.000000000000000
  0
LINE
  5
F105C0
330
F105C1
100
AcDbEntity
8
Geo
100
AcDbLine
10
-22.4627927146575
20
13.9897852721267
30
0.000000000000000
11
-22.5627927146575
21
14.0502728552228
31
0.000000000000000
  0
LINE
  5
F105C2
330
F105C3
100
AcDbEntity
8
Geo
100
AcDbLine
10
-22.5627927146575
20
14.0502728552228
30
0.000000000000000
11
-22.6627927146575
21
14.1097602078841
31
0.000000000000000
  0
LINE
  5
F105C4
330
F105C5
100
AcDbEntity
8
Geo
100
AcDbLine
10
-22.6627927146575
20
14.1097602078841
30
0.000000000000000
11
-22.7627927146575
21
14.1682381610474
31
0.000000000000000
  0
LINE
  5
F105C6
330
F105C7
100
AcDbEntity
8
Geo
100
AcDbLine
10
-18.2693640867022
20
-0.350390286209887
30
0.000000000000000
11
-18.3627927146574
21
-0.336883824743622
31
0.000000000000000
  0
LINE
  5
F105C8
330
F105C9
100
AcDbEntity
8
Geo
100
AcDbLine
10
-18.3627927146574
20
-0.336883824743622
30
0.000000000000000
11
-18.4627927146574
21
-0.297566164949945
31
0.000000000000000
  0
LINE
  5
F105CA
330
F105CB
100
AcDbEntity
8
Geo
100
AcDbLine
10
-18.4627927146574
20
-0.297566164949945
30
0.000000000000000
11
-18.5627927146574
21
-0.239125949864442
31
0.000000000000000
  0
LINE
  5
F105CC
330
F105CD
100
AcDbEntity
8
Geo
100
AcDbLine
10
-18.5627927146574
20
-0.239125949864442
30
0.000000000000000
11
-18.6627927146574
21
-0.166989106147342
31
0.000000000000000
  0
LINE
  5
F105CE
330
F105CF
100
AcDbEntity
8
Geo
100
AcDbLine
10
-18.6627927146574
20
-0.166989106147342
30
0.000000000000000
11
-18.7627927146575
21
-0.0854534623796663
31
0.000000000000000
  0
LINE
  5
F105D0
330
F105D1
100
AcDbEntity
8
Geo
100
AcDbLine
10
-18.7627927146575
20
-0.0854534623796663
30
0.000000000000000
11
-18.8627927146575
21
0.00212686095704218
31
0.000000000000000
  0
LINE
  5
F105D2
330
F105D3
100
AcDbEntity
8
Geo
100
AcDbLine
10
-18.8627927146575
20
0.00212686095704218
30
0.000000000000000
11
-18.9627927146575
21
0.0931775402966508
31
0.000000000000000
  0
LINE
  5
F105D4
330
F105D5
100
AcDbEntity
8
Geo
100
AcDbLine
10
-18.9627927146575
20
0.0931775402966508
30
0.000000000000000
11
-19.0627927146575
21
0.185761481348426
31
0.000000000000000
  0
LINE
  5
F105D6
330
F105D7
100
AcDbEntity
8
Geo
100
AcDbLine
10
-19.0627927146575
20
0.185761481348426
30
0.000000000000000
11
-19.1627927146575
21
0.278456875190983
31
0.000000000000000
  0
LINE
  5
F105D8
330
F105D9
100
AcDbEntity
8
Geo
100
AcDbLine
10
-19.1627927146575
20
0.278456875190983
30
0.000000000000000
11
-19.2627927146575
21
0.370254278573263
31
0.000000000000000
  0
LINE
  5
F105DA
330
F105DB
100
AcDbEntity
8
Geo
100
AcDbLine
10
-19.2627927146575
20
0.370254278573263
30
0.000000000000000
11
-19.3627927146575
21
0.460470702342436
31
0.000000000000000
  0
LINE
  5
F105DC
330
F105DD
100
AcDbEntity
8
Geo
100
AcDbLine
10
-19.3627927146575
20
0.460470702342436
30
0.000000000000000
11
-19.4627927146575
21
0.548678568401077
31
0.000000000000000
  0
LINE
  5
F105DE
330
F105DF
100
AcDbEntity
8
Geo
100
AcDbLine
10
-19.4627927146575
20
0.548678568401077
30
0.000000000000000
11
-19.5627927146575
21
0.634647448319453
31
0.000000000000000
  0
LINE
  5
F105E0
330
F105E1
100
AcDbEntity
8
Geo
100
AcDbLine
10
-19.5627927146575
20
0.634647448319453
30
0.000000000000000
11
-19.6627927146575
21
0.718296647559176
31
0.000000000000000
  0
LINE
  5
F105E2
330
F105E3
100
AcDbEntity
8
Geo
100
AcDbLine
10
-19.6627927146575
20
0.718296647559176
30
0.000000000000000
11
-19.7627927146575
21
0.799656897421386
31
0.000000000000000
  0
LINE
  5
F105E4
330
F105E5
100
AcDbEntity
8
Geo
100
AcDbLine
10
-19.7627927146575
20
0.799656897421386
30
0.000000000000000
11
-19.8627927146575
21
0.878839630457859
31
0.000000000000000
  0
LINE
  5
F105E6
330
F105E7
100
AcDbEntity
8
Geo
100
AcDbLine
10
-19.8627927146575
20
0.878839630457859
30
0.000000000000000
11
-19.9627927146575
21
0.956012525118902
31
0.000000000000000
  0
LINE
  5
F105E8
330
F105E9
100
AcDbEntity
8
Geo
100
AcDbLine
10
-19.9627927146575
20
0.956012525118902
30
0.000000000000000
11
-20.0627927146575
21
1.03138020125392
31
0.000000000000000
  0
LINE
  5
F105EA
330
F105EB
100
AcDbEntity
8
Geo
100
AcDbLine
10
-20.0627927146575
20
1.03138020125392
30
0.000000000000000
11
-20.1627927146575
21
1.10516912455826
31
0.000000000000000
  0
LINE
  5
F105EC
330
F105ED
100
AcDbEntity
8
Geo
100
AcDbLine
10
-20.1627927146575
20
1.10516912455826
30
0.000000000000000
11
-20.2627927146575
21
1.17761593337751
31
0.000000000000000
  0
LINE
  5
F105EE
330
F105EF
100
AcDbEntity
8
Geo
100
AcDbLine
10
-20.2627927146575
20
1.17761593337751
30
0.000000000000000
11
-20.3627927146575
21
1.24895853564319
31
0.000000000000000
  0
LINE
  5
F105F0
330
F105F1
100
AcDbEntity
8
Geo
100
AcDbLine
10
-20.3627927146575
20
1.24895853564319
30
0.000000000000000
11
-20.4627927146575
21
1.31942943843431
31
0.000000000000000
  0
LINE
  5
F105F2
330
F105F3
100
AcDbEntity
8
Geo
100
AcDbLine
10
-20.4627927146575
20
1.31942943843431
30
0.000000000000000
11
-20.5627927146575
21
1.38925086958959
31
0.000000000000000
  0
LINE
  5
F105F4
330
F105F5
100
AcDbEntity
8
Geo
100
AcDbLine
10
-20.5627927146575
20
1.38925086958959
30
0.000000000000000
11
-20.6627927146575
21
1.45863133197861
31
0.000000000000000
  0
LINE
  5
F105F6
330
F105F7
100
AcDbEntity
8
Geo
100
AcDbLine
10
-20.6627927146575
20
1.45863133197861
30
0.000000000000000
11
-20.7627927146575
21
1.52776329851064
31
0.000000000000000
  0
LINE
  5
F105F8
330
F105F9
100
AcDbEntity
8
Geo
100
AcDbLine
10
-20.7627927146575
20
1.52776329851064
30
0.000000000000000
11
-20.8627927146575
21
1.59682181162917
31
0.000000000000000
  0
LINE
  5
F105FA
330
F105FB
100
AcDbEntity
8
Geo
100
AcDbLine
10
-20.8627927146575
20
1.59682181162917
30
0.000000000000000
11
-20.9627927146575
21
1.66596379664727
31
0.000000000000000
  0
LINE
  5
F105FC
330
F105FD
100
AcDbEntity
8
Geo
100
AcDbLine
10
-20.9627927146575
20
1.66596379664727
30
0.000000000000000
11
-21.0627927146575
21
1.73532793537346
31
0.000000000000000
  0
LINE
  5
F105FE
330
F105FF
100
AcDbEntity
8
Geo
100
AcDbLine
10
-21.0627927146575
20
1.73532793537346
30
0.000000000000000
11
-21.1627927146575
21
1.80503497641792
31
0.000000000000000
  0
LINE
  5
F10600
330
F10601
100
AcDbEntity
8
Geo
100
AcDbLine
10
-21.1627927146575
20
1.80503497641792
30
0.000000000000000
11
-21.2627927146575
21
1.87518838253895
31
0.000000000000000
  0
LINE
  5
F10602
330
F10603
100
AcDbEntity
8
Geo
100
AcDbLine
10
-21.2627927146575
20
1.87518838253895
30
0.000000000000000
11
-21.3627927146575
21
1.94587523441160
31
0.000000000000000
  0
LINE
  5
F10604
330
F10605
100
AcDbEntity
8
Geo
100
AcDbLine
10
-21.3627927146575
20
1.94587523441160
30
0.000000000000000
11
-21.4627927146575
21
2.01716732515343
31
0.000000000000000
  0
LINE
  5
F10606
330
F10607
100
AcDbEntity
8
Geo
100
AcDbLine
10
-21.4627927146575
20
2.01716732515343
30
0.000000000000000
11
-21.5627927146575
21
2.08912239158070
31
0.000000000000000
  0
LINE
  5
F10608
330
F10609
100
AcDbEntity
8
Geo
100
AcDbLine
10
-21.5627927146575
20
2.08912239158070
30
0.000000000000000
11
-21.6627927146575
21
2.16178543713314
31
0.000000000000000
  0
LINE
  5
F1060A
330
F1060B
100
AcDbEntity
8
Geo
100
AcDbLine
10
-21.6627927146575
20
2.16178543713314
30
0.000000000000000
11
-21.7627927146575
21
2.23519010824146
31
0.000000000000000
  0
LINE
  5
F1060C
330
F1060D
100
AcDbEntity
8
Geo
100
AcDbLine
10
-21.7627927146575
20
2.23519010824146
30
0.000000000000000
11
-21.8627927146575
21
2.30936009107815
31
0.000000000000000
  0
LINE
  5
F1060E
330
F1060F
100
AcDbEntity
8
Geo
100
AcDbLine
10
-21.8627927146575
20
2.30936009107815
30
0.000000000000000
11
-21.9627927146575
21
2.38431049951069
31
0.000000000000000
  0
LINE
  5
F10610
330
F10611
100
AcDbEntity
8
Geo
100
AcDbLine
10
-21.9627927146575
20
2.38431049951069
30
0.000000000000000
11
-22.0627927146575
21
2.46004922798375
31
0.000000000000000
  0
LINE
  5
F10612
330
F10613
100
AcDbEntity
8
Geo
100
AcDbLine
10
-22.0627927146575
20
2.46004922798375
30
0.000000000000000
11
-22.1627927146575
21
2.53657824525106
31
0.000000000000000
  0
LINE
  5
F10614
330
F10615
100
AcDbEntity
8
Geo
100
AcDbLine
10
-22.1627927146575
20
2.53657824525106
30
0.000000000000000
11
-22.2627927146575
21
2.61389480656437
31
0.000000000000000
  0
LINE
  5
F10616
330
F10617
100
AcDbEntity
8
Geo
100
AcDbLine
10
-22.2627927146575
20
2.61389480656437
30
0.000000000000000
11
-22.3627927146575
21
2.69199256326819
31
0.000000000000000
  0
LINE
  5
F10618
330
F10619
100
AcDbEntity
8
Geo
100
AcDbLine
10
-22.3627927146575
20
2.69199256326819
30
0.000000000000000
11
-22.4627927146575
21
2.77086254986871
31
0.000000000000000
  0
LINE
  5
F1061A
330
F1061B
100
AcDbEntity
8
Geo
100
AcDbLine
10
-22.4627927146575
20
2.77086254986871
30
0.000000000000000
11
-22.5627927146575
21
2.85049402963484
31
0.000000000000000
  0
LINE
  5
F1061C
330
F1061D
100
AcDbEntity
8
Geo
100
AcDbLine
10
-22.5627927146575
20
2.85049402963484
30
0.000000000000000
11
-22.6627927146575
21
2.93087518071267
31
0.000000000000000
  0
LINE
  5
F1061E
330
F1061F
100
AcDbEntity
8
Geo
100
AcDbLine
10
-22.6627927146575
20
2.93087518071267
30
0.000000000000000
11
-22.7627927146575
21
3.01199360563629
31
0.000000000000000
  0
LINE
  5
F10620
330
F10621
100
AcDbEntity
8
Geo
100
AcDbLine
10
-22.7627927146575
20
15.2822959666677
30
0.000000000000000
11
-22.6627927146575
21
15.2517471002286
31
0.000000000000000
  0
LINE
  5
F10622
330
F10623
100
AcDbEntity
8
Geo
100
AcDbLine
10
-22.6627927146575
20
15.2517471002286
30
0.000000000000000
11
-22.5627927146575
21
15.2200104152894
31
0.000000000000000
  0
LINE
  5
F10624
330
F10625
100
AcDbEntity
8
Geo
100
AcDbLine
10
-22.5627927146575
20
15.2200104152894
30
0.000000000000000
11
-22.4627927146575
21
15.1870908706426
31
0.000000000000000
  0
LINE
  5
F10626
330
F10627
100
AcDbEntity
8
Geo
100
AcDbLine
10
-22.4627927146575
20
15.1870908706426
30
0.000000000000000
11
-22.3627927146575
21
15.1529936099000
31
0.000000000000000
  0
LINE
  5
F10628
330
F10629
100
AcDbEntity
8
Geo
100
AcDbLine
10
-22.3627927146575
20
15.1529936099000
30
0.000000000000000
11
-22.2627927146575
21
15.1177239606905
31
0.000000000000000
  0
LINE
  5
F1062A
330
F1062B
100
AcDbEntity
8
Geo
100
AcDbLine
10
-22.2627927146575
20
15.1177239606905
30
0.000000000000000
11
-22.1627927146575
21
15.0812874338340
31
0.000000000000000
  0
LINE
  5
F1062C
330
F1062D
100
AcDbEntity
8
Geo
100
AcDbLine
10
-22.1627927146575
20
15.0812874338340
30
0.000000000000000
11
-22.0627927146575
21
15.0436897225138
31
0.000000000000000
  0
LINE
  5
F1062E
330
F1062F
100
AcDbEntity
8
Geo
100
AcDbLine
10
-22.0627927146575
20
15.0436897225138
30
0.000000000000000
11
-21.9627927146575
21
15.0049367015128
31
0.000000000000000
  0
LINE
  5
F10630
330
F10631
100
AcDbEntity
8
Geo
100
AcDbLine
10
-21.9627927146575
20
15.0049367015128
30
0.000000000000000
11
-21.8627927146575
21
14.9650344266869
31
0.000000000000000
  0
LINE
  5
F10632
330
F10633
100
AcDbEntity
8
Geo
100
AcDbLine
10
-21.8627927146575
20
14.9650344266869
30
0.000000000000000
11
-21.7627927146575
21
14.9239891350786
31
0.000000000000000
  0
LINE
  5
F10634
330
F10635
100
AcDbEntity
8
Geo
100
AcDbLine
10
-21.7627927146575
20
14.9239891350786
30
0.000000000000000
11
-21.6627927146575
21
14.8818072465015
31
0.000000000000000
  0
LINE
  5
F10636
330
F10637
100
AcDbEntity
8
Geo
100
AcDbLine
10
-21.6627927146575
20
14.8818072465015
30
0.000000000000000
11
-21.5627927146575
21
14.8384953681918
31
0.000000000000000
  0
LINE
  5
F10638
330
F10639
100
AcDbEntity
8
Geo
100
AcDbLine
10
-21.5627927146575
20
14.8384953681918
30
0.000000000000000
11
-21.4627927146575
21
14.7940603053814
31
0.000000000000000
  0
LINE
  5
F1063A
330
F1063B
100
AcDbEntity
8
Geo
100
AcDbLine
10
-21.4627927146575
20
14.7940603053814
30
0.000000000000000
11
-21.3627927146575
21
14.7485090826453
31
0.000000000000000
  0
LINE
  5
F1063C
330
F1063D
100
AcDbEntity
8
Geo
100
AcDbLine
10
-21.3627927146575
20
14.7485090826453
30
0.000000000000000
11
-21.2627927146575
21
14.7018489838994
31
0.000000000000000
  0
LINE
  5
F1063E
330
F1063F
100
AcDbEntity
8
Geo
100
AcDbLine
10
-21.2627927146575
20
14.7018489838994
30
0.000000000000000
11
-21.1627927146575
21
14.6540876233679
31
0.000000000000000
  0
LINE
  5
F10640
330
F10641
100
AcDbEntity
8
Geo
100
AcDbLine
10
-21.1627927146575
20
14.6540876233679
30
0.000000000000000
11
-21.0627927146575
21
14.6052330661614
31
0.000000000000000
  0
LINE
  5
F10642
330
F10643
100
AcDbEntity
8
Geo
100
AcDbLine
10
-21.0627927146575
20
14.6052330661614
30
0.000000000000000
11
-20.9627927146575
21
14.5552940258964
31
0.000000000000000
  0
LINE
  5
F10644
330
F10645
100
AcDbEntity
8
Geo
100
AcDbLine
10
-20.9627927146575
20
14.5552940258964
30
0.000000000000000
11
-20.8627927146575
21
14.5042801787348
31
0.000000000000000
  0
LINE
  5
F10646
330
F10647
100
AcDbEntity
8
Geo
100
AcDbLine
10
-20.8627927146575
20
14.5042801787348
30
0.000000000000000
11
-20.7627927146575
21
14.4522026491488
31
0.000000000000000
  0
LINE
  5
F10648
330
F10649
100
AcDbEntity
8
Geo
100
AcDbLine
10
-20.7627927146575
20
14.4522026491488
30
0.000000000000000
11
-20.6627927146575
21
14.3990747435911
31
0.000000000000000
  0
LINE
  5
F1064A
330
F1064B
100
AcDbEntity
8
Geo
100
AcDbLine
10
-20.6627927146575
20
14.3990747435911
30
0.000000000000000
11
-20.5627927146575
21
14.3449130351745
31
0.000000000000000
  0
LINE
  5
F1064C
330
F1064D
100
AcDbEntity
8
Geo
100
AcDbLine
10
-20.5627927146575
20
14.3449130351745
30
0.000000000000000
11
-20.4627927146575
21
14.2897389367027
31
0.000000000000000
  0
LINE
  5
F1064E
330
F1064F
100
AcDbEntity
8
Geo
100
AcDbLine
10
-20.4627927146575
20
14.2897389367027
30
0.000000000000000
11
-20.3627927146575
21
14.2335809423338
31
0.000000000000000
  0
LINE
  5
F10650
330
F10651
100
AcDbEntity
8
Geo
100
AcDbLine
10
-20.3627927146575
20
14.2335809423338
30
0.000000000000000
11
-20.2627927146575
21
14.1764777713128
31
0.000000000000000
  0
LINE
  5
F10652
330
F10653
100
AcDbEntity
8
Geo
100
AcDbLine
10
-20.2627927146575
20
14.1764777713128
30
0.000000000000000
11
-20.1627927146575
21
14.1184827121375
31
0.000000000000000
  0
LINE
  5
F10654
330
F10655
100
AcDbEntity
8
Geo
100
AcDbLine
10
-20.1627927146575
20
14.1184827121375
30
0.000000000000000
11
-20.0627927146575
21
14.0596695437301
31
0.000000000000000
  0
LINE
  5
F10656
330
F10657
100
AcDbEntity
8
Geo
100
AcDbLine
10
-20.0627927146575
20
14.0596695437301
30
0.000000000000000
11
-19.9627927146575
21
14.0001405029195
31
0.000000000000000
  0
LINE
  5
F10658
330
F10659
100
AcDbEntity
8
Geo
100
AcDbLine
10
-19.9627927146575
20
14.0001405029195
30
0.000000000000000
11
-19.8627927146575
21
13.9400368754738
31
0.000000000000000
  0
LINE
  5
F1065A
330
F1065B
100
AcDbEntity
8
Geo
100
AcDbLine
10
-19.8627927146575
20
13.9400368754738
30
0.000000000000000
11
-19.7627927146575
21
13.8795529106060
31
0.000000000000000
  0
LINE
  5
F1065C
330
F1065D
100
AcDbEntity
8
Geo
100
AcDbLine
10
-19.7627927146575
20
13.8795529106060
30
0.000000000000000
11
-19.6627927146575
21
13.8189538938660
31
0.000000000000000
  0
LINE
  5
F1065E
330
F1065F
100
AcDbEntity
8
Geo
100
AcDbLine
10
-19.6627927146575
20
13.8189538938660
30
0.000000000000000
11
-19.5627927146575
21
13.7585993548650
31
0.000000000000000
  0
LINE
  5
F10660
330
F10661
100
AcDbEntity
8
Geo
100
AcDbLine
10
-19.5627927146575
20
13.7585993548650
30
0.000000000000000
11
-19.4627927146575
21
13.6989725231056
31
0.000000000000000
  0
LINE
  5
F10662
330
F10663
100
AcDbEntity
8
Geo
100
AcDbLine
10
-19.4627927146575
20
13.6989725231056
30
0.000000000000000
11
-19.3627927146575
21
13.6407172573426
31
0.000000000000000
  0
LINE
  5
F10664
330
F10665
100
AcDbEntity
8
Geo
100
AcDbLine
10
-19.3627927146575
20
13.6407172573426
30
0.000000000000000
11
-19.2627927146575
21
13.5846837275384
31
0.000000000000000
  0
LINE
  5
F10666
330
F10667
100
AcDbEntity
8
Geo
100
AcDbLine
10
-19.2627927146575
20
13.5846837275384
30
0.000000000000000
11
-19.1627927146575
21
13.5319840679383
31
0.000000000000000
  0
LINE
  5
F10668
330
F10669
100
AcDbEntity
8
Geo
100
AcDbLine
10
-19.1627927146575
20
13.5319840679383
30
0.000000000000000
11
-19.0627927146575
21
13.4840589547893
31
0.000000000000000
  0
LINE
  5
F1066A
330
F1066B
100
AcDbEntity
8
Geo
100
AcDbLine
10
-19.0627927146575
20
13.4840589547893
30
0.000000000000000
11
-18.9627927146575
21
13.4427554472233
31
0.000000000000000
  0
LINE
  5
F1066C
330
F1066D
100
AcDbEntity
8
Geo
100
AcDbLine
10
-18.9627927146575
20
13.4427554472233
30
0.000000000000000
11
-18.8627927146575
21
13.4104152297013
31
0.000000000000000
  0
LINE
  5
F1066E
330
F1066F
100
AcDbEntity
8
Geo
100
AcDbLine
10
-18.8627927146575
20
13.4104152297013
30
0.000000000000000
11
-18.7627927146575
21
13.3899702266091
31
0.000000000000000
  0
LINE
  5
F10670
330
F10671
100
AcDbEntity
8
Geo
100
AcDbLine
10
-18.7627927146575
20
13.3899702266091
30
0.000000000000000
11
-18.6627927146574
21
13.3850387951684
31
0.000000000000000
  0
LINE
  5
F10672
330
F10673
100
AcDbEntity
8
Geo
100
AcDbLine
10
-18.6627927146574
20
13.3850387951684
30
0.000000000000000
11
-18.5627927146574
21
13.4000092968243
31
0.000000000000000
  0
LINE
  5
F10674
330
F10675
100
AcDbEntity
8
Geo
100
AcDbLine
10
-18.5627927146574
20
13.4000092968243
30
0.000000000000000
11
-18.4627927146574
21
13.4400870501723
31
0.000000000000000
  0
LINE
  5
F10676
330
F10677
100
AcDbEntity
8
Geo
100
AcDbLine
10
-18.4627927146574
20
13.4400870501723
30
0.000000000000000
11
-18.3627927146574
21
13.5112625461919
31
0.000000000000000
  0
LINE
  5
F10678
330
F10679
100
AcDbEntity
8
Geo
100
AcDbLine
10
-18.3627927146574
20
13.5112625461919
30
0.000000000000000
11
-18.2627927146574
21
13.6201284758628
31
0.000000000000000
  0
LINE
  5
F1067A
330
F1067B
100
AcDbEntity
8
Geo
100
AcDbLine
10
-18.2627927146574
20
13.6201284758628
30
0.000000000000000
11
-18.1627927146574
21
13.7734226256916
31
0.000000000000000
  0
LINE
  5
F1067C
330
F1067D
100
AcDbEntity
8
Geo
100
AcDbLine
10
-18.1627927146574
20
13.7734226256916
30
0.000000000000000
11
-18.0627927146574
21
13.9770906238479
31
0.000000000000000
  0
LINE
  5
F1067E
330
F1067F
100
AcDbEntity
8
Geo
100
AcDbLine
10
-18.0627927146574
20
13.9770906238479
30
0.000000000000000
11
-17.9627927146574
21
14.2345290580810
31
0.000000000000000
  0
LINE
  5
F10680
330
F10681
100
AcDbEntity
8
Geo
100
AcDbLine
10
-17.9627927146574
20
14.2345290580810
30
0.000000000000000
11
-17.8627927146574
21
14.5434644779091
31
0.000000000000000
  0
LINE
  5
F10682
330
F10683
100
AcDbEntity
8
Geo
100
AcDbLine
10
-17.8627927146574
20
14.5434644779091
30
0.000000000000000
11
-17.7627927146575
21
14.8906350903959
31
0.000000000000000
  0
LINE
  5
F10684
330
F10685
100
AcDbEntity
8
Geo
100
AcDbLine
10
-17.7627927146575
20
14.8906350903959
30
0.000000000000000
11
-17.7627927146575
21
14.9738185242567
31
0.000000000000000
  0
LINE
  5
F10686
330
F10687
100
AcDbEntity
8
Geo
100
AcDbLine
10
-17.7627927146575
20
14.9738185242567
30
0.000000000000000
11
-17.8627927146574
21
15.2513968847125
31
0.000000000000000
  0
LINE
  5
F10688
330
F10689
100
AcDbEntity
8
Geo
100
AcDbLine
10
-17.8627927146574
20
15.2513968847125
30
0.000000000000000
11
-17.9627927146574
21
15.4427254185531
31
0.000000000000000
  0
LINE
  5
F1068A
330
F1068B
100
AcDbEntity
8
Geo
100
AcDbLine
10
-17.9627927146574
20
15.4427254185531
30
0.000000000000000
11
-18.0627927146574
21
15.5638592355067
31
0.000000000000000
  0
LINE
  5
F1068C
330
F1068D
100
AcDbEntity
8
Geo
100
AcDbLine
10
-18.0627927146574
20
15.5638592355067
30
0.000000000000000
11
-18.1627927146574
21
15.6288090383234
31
0.000000000000000
  0
LINE
  5
F1068E
330
F1068F
100
AcDbEntity
8
Geo
100
AcDbLine
10
-18.1627927146574
20
15.6288090383234
30
0.000000000000000
11
-18.2627927146574
21
15.6495429518730
31
0.000000000000000
  0
LINE
  5
F10690
330
F10691
100
AcDbEntity
8
Geo
100
AcDbLine
10
-18.2627927146574
20
15.6495429518730
30
0.000000000000000
11
-18.2693640867022
21
15.6496097137901
31
0.000000000000000
  0
LINE
  5
F10692
330
F10693
100
AcDbEntity
8
Geo
100
AcDbLine
10
-37.7627927146575
20
6.86176351138035
30
0.000000000000000
11
-37.6627927146574
21
6.76356410176591
31
0.000000000000000
  0
LINE
  5
F10694
330
F10695
100
AcDbEntity
8
Geo
100
AcDbLine
10
-37.6627927146574
20
6.76356410176591
30
0.000000000000000
11
-37.5627927146574
21
6.66550313497573
31
0.000000000000000
  0
LINE
  5
F10696
330
F10697
100
AcDbEntity
8
Geo
100
AcDbLine
10
-37.5627927146574
20
6.66550313497573
30
0.000000000000000
11
-37.4627927146575
21
6.56759593283633
31
0.000000000000000
  0
LINE
  5
F10698
330
F10699
100
AcDbEntity
8
Geo
100
AcDbLine
10
-37.4627927146575
20
6.56759593283633
30
0.000000000000000
11
-37.3627927146575
21
6.46985779314885
31
0.000000000000000
  0
LINE
  5
F1069A
330
F1069B
100
AcDbEntity
8
Geo
100
AcDbLine
10
-37.3627927146575
20
6.46985779314885
30
0.000000000000000
11
-37.2627927146575
21
6.37230398729877
31
0.000000000000000
  0
LINE
  5
F1069C
330
F1069D
100
AcDbEntity
8
Geo
100
AcDbLine
10
-37.2627927146575
20
6.37230398729877
30
0.000000000000000
11
-37.1627927146574
21
6.27494975786978
31
0.000000000000000
  0
LINE
  5
F1069E
330
F1069F
100
AcDbEntity
8
Geo
100
AcDbLine
10
-37.1627927146574
20
6.27494975786978
30
0.000000000000000
11
-37.0627927146574
21
6.17781031626217
31
0.000000000000000
  0
LINE
  5
F106A0
330
F106A1
100
AcDbEntity
8
Geo
100
AcDbLine
10
-37.0627927146574
20
6.17781031626217
30
0.000000000000000
11
-36.9627927146575
21
6.08090084031606
31
0.000000000000000
  0
LINE
  5
F106A2
330
F106A3
100
AcDbEntity
8
Geo
100
AcDbLine
10
-36.9627927146575
20
6.08090084031606
30
0.000000000000000
11
-36.8627927146575
21
5.98423647193989
31
0.000000000000000
  0
LINE
  5
F106A4
330
F106A5
100
AcDbEntity
8
Geo
100
AcDbLine
10
-36.8627927146575
20
5.98423647193989
30
0.000000000000000
11
-36.7627927146575
21
5.88783231474457
31
0.000000000000000
  0
LINE
  5
F106A6
330
F106A7
100
AcDbEntity
8
Geo
100
AcDbLine
10
-36.7627927146575
20
5.88783231474457
30
0.000000000000000
11
-36.6627927146574
21
5.79170343168353
31
0.000000000000000
  0
LINE
  5
F106A8
330
F106A9
100
AcDbEntity
8
Geo
100
AcDbLine
10
-36.6627927146574
20
5.79170343168353
30
0.000000000000000
11
-36.5627927146574
21
5.69586484269916
31
0.000000000000000
  0
LINE
  5
F106AA
330
F106AB
100
AcDbEntity
8
Geo
100
AcDbLine
10
-36.5627927146574
20
5.69586484269916
30
0.000000000000000
11
-36.4627927146575
21
5.60033152237602
31
0.000000000000000
  0
LINE
  5
F106AC
330
F106AD
100
AcDbEntity
8
Geo
100
AcDbLine
10
-36.4627927146575
20
5.60033152237602
30
0.000000000000000
11
-36.3627927146575
21
5.50511839760104
31
0.000000000000000
  0
LINE
  5
F106AE
330
F106AF
100
AcDbEntity
8
Geo
100
AcDbLine
10
-36.3627927146575
20
5.50511839760104
30
0.000000000000000
11
-36.2627927146575
21
5.41024034523126
31
0.000000000000000
  0
LINE
  5
F106B0
330
F106B1
100
AcDbEntity
8
Geo
100
AcDbLine
10
-36.2627927146575
20
5.41024034523126
30
0.000000000000000
11
-36.1627927146574
21
5.31571218976934
31
0.000000000000000
  0
LINE
  5
F106B2
330
F106B3
100
AcDbEntity
8
Geo
100
AcDbLine
10
-36.1627927146574
20
5.31571218976934
30
0.000000000000000
11
-36.0627927146574
21
5.22154870104723
31
0.000000000000000
  0
LINE
  5
F106B4
330
F106B5
100
AcDbEntity
8
Geo
100
AcDbLine
10
-36.0627927146574
20
5.22154870104723
30
0.000000000000000
11
-35.9627927146575
21
5.12776459191850
31
0.000000000000000
  0
LINE
  5
F106B6
330
F106B7
100
AcDbEntity
8
Geo
100
AcDbLine
10
-35.9627927146575
20
5.12776459191850
30
0.000000000000000
11
-35.8627927146575
21
5.03437451595937
31
0.000000000000000
  0
LINE
  5
F106B8
330
F106B9
100
AcDbEntity
8
Geo
100
AcDbLine
10
-35.8627927146575
20
5.03437451595937
30
0.000000000000000
11
-35.7627927146575
21
4.94139306517923
31
0.000000000000000
  0
LINE
  5
F106BA
330
F106BB
100
AcDbEntity
8
Geo
100
AcDbLine
10
-35.7627927146575
20
4.94139306517923
30
0.000000000000000
11
-35.6627927146574
21
4.84883476774058
31
0.000000000000000
  0
LINE
  5
F106BC
330
F106BD
100
AcDbEntity
8
Geo
100
AcDbLine
10
-35.6627927146574
20
4.84883476774058
30
0.000000000000000
11
-35.5627927146574
21
4.75671408568908
31
0.000000000000000
  0
LINE
  5
F106BE
330
F106BF
100
AcDbEntity
8
Geo
100
AcDbLine
10
-35.5627927146574
20
4.75671408568908
30
0.000000000000000
11
-35.4627927146575
21
4.66504541269390
31
0.000000000000000
  0
LINE
  5
F106C0
330
F106C1
100
AcDbEntity
8
Geo
100
AcDbLine
10
-35.4627927146575
20
4.66504541269390
30
0.000000000000000
11
-35.3627927146575
21
4.57384307179868
31
0.000000000000000
  0
LINE
  5
F106C2
330
F106C3
100
AcDbEntity
8
Geo
100
AcDbLine
10
-35.3627927146575
20
4.57384307179868
30
0.000000000000000
11
-35.2627927146575
21
4.48312131318364
31
0.000000000000000
  0
LINE
  5
F106C4
330
F106C5
100
AcDbEntity
8
Geo
100
AcDbLine
10
-35.2627927146575
20
4.48312131318364
30
0.000000000000000
11
-35.1627927146574
21
4.39289431193900
31
0.000000000000000
  0
LINE
  5
F106C6
330
F106C7
100
AcDbEntity
8
Geo
100
AcDbLine
10
-35.1627927146574
20
4.39289431193900
30
0.000000000000000
11
-35.0627927146574
21
4.30317616585012
31
0.000000000000000
  0
LINE
  5
F106C8
330
F106C9
100
AcDbEntity
8
Geo
100
AcDbLine
10
-35.0627927146574
20
4.30317616585012
30
0.000000000000000
11
-34.9627927146574
21
4.21398089319481
31
0.000000000000000
  0
LINE
  5
F106CA
330
F106CB
100
AcDbEntity
8
Geo
100
AcDbLine
10
-34.9627927146574
20
4.21398089319481
30
0.000000000000000
11
-34.8627927146575
21
4.12532243055295
31
0.000000000000000
  0
LINE
  5
F106CC
330
F106CD
100
AcDbEntity
8
Geo
100
AcDbLine
10
-34.8627927146575
20
4.12532243055295
30
0.000000000000000
11
-34.7627927146575
21
4.03721463062895
31
0.000000000000000
  0
LINE
  5
F106CE
330
F106CF
100
AcDbEntity
8
Geo
100
AcDbLine
10
-34.7627927146575
20
4.03721463062895
30
0.000000000000000
11
-34.6627927146574
21
3.94967126008729
31
0.000000000000000
  0
LINE
  5
F106D0
330
F106D1
100
AcDbEntity
8
Geo
100
AcDbLine
10
-34.6627927146574
20
3.94967126008729
30
0.000000000000000
11
-34.5627927146574
21
3.86270599740153
31
0.000000000000000
  0
LINE
  5
F106D2
330
F106D3
100
AcDbEntity
8
Geo
100
AcDbLine
10
-34.5627927146574
20
3.86270599740153
30
0.000000000000000
11
-34.4627927146574
21
3.77633243071701
31
0.000000000000000
  0
LINE
  5
F106D4
330
F106D5
100
AcDbEntity
8
Geo
100
AcDbLine
10
-34.4627927146574
20
3.77633243071701
30
0.000000000000000
11
-34.3627927146575
21
3.69056405572781
31
0.000000000000000
  0
LINE
  5
F106D6
330
F106D7
100
AcDbEntity
8
Geo
100
AcDbLine
10
-34.3627927146575
20
3.69056405572781
30
0.000000000000000
11
-34.2627927146575
21
3.60541427356803
31
0.000000000000000
  0
LINE
  5
F106D8
330
F106D9
100
AcDbEntity
8
Geo
100
AcDbLine
10
-34.2627927146575
20
3.60541427356803
30
0.000000000000000
11
-34.1627927146574
21
3.52089638871788
31
0.000000000000000
  0
LINE
  5
F106DA
330
F106DB
100
AcDbEntity
8
Geo
100
AcDbLine
10
-34.1627927146574
20
3.52089638871788
30
0.000000000000000
11
-34.0627927146574
21
3.43702360692494
31
0.000000000000000
  0
LINE
  5
F106DC
330
F106DD
100
AcDbEntity
8
Geo
100
AcDbLine
10
-34.0627927146574
20
3.43702360692494
30
0.000000000000000
11
-33.9627927146574
21
3.35380903314071
31
0.000000000000000
  0
LINE
  5
F106DE
330
F106DF
100
AcDbEntity
8
Geo
100
AcDbLine
10
-33.9627927146574
20
3.35380903314071
30
0.000000000000000
11
-33.8627927146574
21
3.27126566947304
31
0.000000000000000
  0
LINE
  5
F106E0
330
F106E1
100
AcDbEntity
8
Geo
100
AcDbLine
10
-33.8627927146574
20
3.27126566947304
30
0.000000000000000
11
-33.7627927146575
21
3.18940641315459
31
0.000000000000000
  0
LINE
  5
F106E2
330
F106E3
100
AcDbEntity
8
Geo
100
AcDbLine
10
-33.7627927146575
20
3.18940641315459
30
0.000000000000000
11
-33.6627927146574
21
3.10824405452760
31
0.000000000000000
  0
LINE
  5
F106E4
330
F106E5
100
AcDbEntity
8
Geo
100
AcDbLine
10
-33.6627927146574
20
3.10824405452760
30
0.000000000000000
11
-33.5627927146574
21
3.02779127504548
31
0.000000000000000
  0
LINE
  5
F106E6
330
F106E7
100
AcDbEntity
8
Geo
100
AcDbLine
10
-33.5627927146574
20
3.02779127504548
30
0.000000000000000
11
-33.4627927146575
21
2.94806064529136
31
0.000000000000000
  0
LINE
  5
F106E8
330
F106E9
100
AcDbEntity
8
Geo
100
AcDbLine
10
-33.4627927146575
20
2.94806064529136
30
0.000000000000000
11
-33.3627927146575
21
2.86906462301391
31
0.000000000000000
  0
LINE
  5
F106EA
330
F106EB
100
AcDbEntity
8
Geo
100
AcDbLine
10
-33.3627927146575
20
2.86906462301391
30
0.000000000000000
11
-33.2627927146575
21
2.79081555118090
31
0.000000000000000
  0
LINE
  5
F106EC
330
F106ED
100
AcDbEntity
8
Geo
100
AcDbLine
10
-33.2627927146575
20
2.79081555118090
30
0.000000000000000
11
-33.1627927146574
21
2.71332565605061
31
0.000000000000000
  0
LINE
  5
F106EE
330
F106EF
100
AcDbEntity
8
Geo
100
AcDbLine
10
-33.1627927146574
20
2.71332565605061
30
0.000000000000000
11
-33.0627927146574
21
2.63660704526149
31
0.000000000000000
  0
LINE
  5
F106F0
330
F106F1
100
AcDbEntity
8
Geo
100
AcDbLine
10
-33.0627927146574
20
2.63660704526149
30
0.000000000000000
11
-32.9627927146575
21
2.56067170594041
31
0.000000000000000
  0
LINE
  5
F106F2
330
F106F3
100
AcDbEntity
8
Geo
100
AcDbLine
10
-32.9627927146575
20
2.56067170594041
30
0.000000000000000
11
-32.8627927146575
21
2.48553150282963
31
0.000000000000000
  0
LINE
  5
F106F4
330
F106F5
100
AcDbEntity
8
Geo
100
AcDbLine
10
-32.8627927146575
20
2.48553150282963
30
0.000000000000000
11
-32.7627927146575
21
2.41119817643304
31
0.000000000000000
  0
LINE
  5
F106F6
330
F106F7
100
AcDbEntity
8
Geo
100
AcDbLine
10
-32.7627927146575
20
2.41119817643304
30
0.000000000000000
11
-32.6627927146575
21
2.33768334118163
31
0.000000000000000
  0
LINE
  5
F106F8
330
F106F9
100
AcDbEntity
8
Geo
100
AcDbLine
10
-32.6627927146575
20
2.33768334118163
30
0.000000000000000
11
-32.5627927146575
21
2.26499848361886
31
0.000000000000000
  0
LINE
  5
F106FA
330
F106FB
100
AcDbEntity
8
Geo
100
AcDbLine
10
-32.5627927146575
20
2.26499848361886
30
0.000000000000000
11
-32.4627927146575
21
2.19315496060583
31
0.000000000000000
  0
LINE
  5
F106FC
330
F106FD
100
AcDbEntity
8
Geo
100
AcDbLine
10
-32.4627927146575
20
2.19315496060583
30
0.000000000000000
11
-32.3627927146575
21
2.12216399754687
31
0.000000000000000
  0
LINE
  5
F106FE
330
F106FF
100
AcDbEntity
8
Geo
100
AcDbLine
10
-32.3627927146575
20
2.12216399754687
30
0.000000000000000
11
-32.2627927146575
21
2.05203668663551
31
0.000000000000000
  0
LINE
  5
F10700
330
F10701
100
AcDbEntity
8
Geo
100
AcDbLine
10
-32.2627927146575
20
2.05203668663551
30
0.000000000000000
11
-32.1627927146575
21
1.98278398512141
31
0.000000000000000
  0
LINE
  5
F10702
330
F10703
100
AcDbEntity
8
Geo
100
AcDbLine
10
-32.1627927146575
20
1.98278398512141
30
0.000000000000000
11
-32.0627927146575
21
1.91441671359829
31
0.000000000000000
  0
LINE
  5
F10704
330
F10705
100
AcDbEntity
8
Geo
100
AcDbLine
10
-32.0627927146575
20
1.91441671359829
30
0.000000000000000
11
-31.9627927146575
21
1.84694555431323
31
0.000000000000000
  0
LINE
  5
F10706
330
F10707
100
AcDbEntity
8
Geo
100
AcDbLine
10
-31.9627927146575
20
1.84694555431323
30
0.000000000000000
11
-31.8627927146575
21
1.78038104949759
31
0.000000000000000
  0
LINE
  5
F10708
330
F10709
100
AcDbEntity
8
Geo
100
AcDbLine
10
-31.8627927146575
20
1.78038104949759
30
0.000000000000000
11
-31.7627927146575
21
1.71473359971985
31
0.000000000000000
  0
LINE
  5
F1070A
330
F1070B
100
AcDbEntity
8
Geo
100
AcDbLine
10
-31.7627927146575
20
1.71473359971985
30
0.000000000000000
11
-31.6627927146575
21
1.65001346226045
31
0.000000000000000
  0
LINE
  5
F1070C
330
F1070D
100
AcDbEntity
8
Geo
100
AcDbLine
10
-31.6627927146575
20
1.65001346226045
30
0.000000000000000
11
-31.5627927146575
21
1.58623074950920
31
0.000000000000000
  0
LINE
  5
F1070E
330
F1070F
100
AcDbEntity
8
Geo
100
AcDbLine
10
-31.5627927146575
20
1.58623074950920
30
0.000000000000000
11
-31.4627927146575
21
1.52339542738522
31
0.000000000000000
  0
LINE
  5
F10710
330
F10711
100
AcDbEntity
8
Geo
100
AcDbLine
10
-31.4627927146575
20
1.52339542738522
30
0.000000000000000
11
-31.3627927146575
21
1.46151731377973
31
0.000000000000000
  0
LINE
  5
F10712
330
F10713
100
AcDbEntity
8
Geo
100
AcDbLine
10
-31.3627927146575
20
1.46151731377973
30
0.000000000000000
11
-31.2627927146575
21
1.40060607702210
31
0.000000000000000
  0
LINE
  5
F10714
330
F10715
100
AcDbEntity
8
Geo
100
AcDbLine
10
-31.2627927146575
20
1.40060607702210
30
0.000000000000000
11
-31.1627927146575
21
1.34067123436916
31
0.000000000000000
  0
LINE
  5
F10716
330
F10717
100
AcDbEntity
8
Geo
100
AcDbLine
10
-31.1627927146575
20
1.34067123436916
30
0.000000000000000
11
-31.0627927146575
21
1.28172215051812
31
0.000000000000000
  0
LINE
  5
F10718
330
F10719
100
AcDbEntity
8
Geo
100
AcDbLine
10
-31.0627927146575
20
1.28172215051812
30
0.000000000000000
11
-30.9627927146575
21
1.22376803614341
31
0.000000000000000
  0
LINE
  5
F1071A
330
F1071B
100
AcDbEntity
8
Geo
100
AcDbLine
10
-30.9627927146575
20
1.22376803614341
30
0.000000000000000
11
-30.8627927146575
21
1.16681794645750
31
0.000000000000000
  0
LINE
  5
F1071C
330
F1071D
100
AcDbEntity
8
Geo
100
AcDbLine
10
-30.8627927146575
20
1.16681794645750
30
0.000000000000000
11
-30.7627927146575
21
1.11088077979602
31
0.000000000000000
  0
LINE
  5
F1071E
330
F1071F
100
AcDbEntity
8
Geo
100
AcDbLine
10
-30.7627927146575
20
1.11088077979602
30
0.000000000000000
11
-30.6627927146575
21
1.05596527622747
31
0.000000000000000
  0
LINE
  5
F10720
330
F10721
100
AcDbEntity
8
Geo
100
AcDbLine
10
-30.6627927146575
20
1.05596527622747
30
0.000000000000000
11
-30.5627927146575
21
1.00208001618756
31
0.000000000000000
  0
LINE
  5
F10722
330
F10723
100
AcDbEntity
8
Geo
100
AcDbLine
10
-30.5627927146575
20
1.00208001618756
30
0.000000000000000
11
-30.4627927146575
21
0.949233419138538
31
0.000000000000000
  0
LINE
  5
F10724
330
F10725
100
AcDbEntity
8
Geo
100
AcDbLine
10
-30.4627927146575
20
0.949233419138538
30
0.000000000000000
11
-30.3627927146575
21
0.897433742253673
31
0.000000000000000
  0
LINE
  5
F10726
330
F10727
100
AcDbEntity
8
Geo
100
AcDbLine
10
-30.3627927146575
20
0.897433742253673
30
0.000000000000000
11
-30.2627927146575
21
0.846689079127094
31
0.000000000000000
  0
LINE
  5
F10728
330
F10729
100
AcDbEntity
8
Geo
100
AcDbLine
10
-30.2627927146575
20
0.846689079127094
30
0.000000000000000
11
-30.1627927146575
21
0.797007358509177
31
0.000000000000000
  0
LINE
  5
F1072A
330
F1072B
100
AcDbEntity
8
Geo
100
AcDbLine
10
-30.1627927146575
20
0.797007358509177
30
0.000000000000000
11
-30.0627927146575
21
0.748396343067687
31
0.000000000000000
  0
LINE
  5
F1072C
330
F1072D
100
AcDbEntity
8
Geo
100
AcDbLine
10
-30.0627927146575
20
0.748396343067687
30
0.000000000000000
11
-29.9627927146575
21
0.700863628174892
31
0.000000000000000
  0
LINE
  5
F1072E
330
F1072F
100
AcDbEntity
8
Geo
100
AcDbLine
10
-29.9627927146575
20
0.700863628174892
30
0.000000000000000
11
-29.8627927146575
21
0.654416640720791
31
0.000000000000000
  0
LINE
  5
F10730
330
F10731
100
AcDbEntity
8
Geo
100
AcDbLine
10
-29.8627927146575
20
0.654416640720791
30
0.000000000000000
11
-29.7627927146575
21
0.609062637952674
31
0.000000000000000
  0
LINE
  5
F10732
330
F10733
100
AcDbEntity
8
Geo
100
AcDbLine
10
-29.7627927146575
20
0.609062637952674
30
0.000000000000000
11
-29.6627927146575
21
0.564808706341197
31
0.000000000000000
  0
LINE
  5
F10734
330
F10735
100
AcDbEntity
8
Geo
100
AcDbLine
10
-29.6627927146575
20
0.564808706341197
30
0.000000000000000
11
-29.5627927146575
21
0.521661760473149
31
0.000000000000000
  0
LINE
  5
F10736
330
F10737
100
AcDbEntity
8
Geo
100
AcDbLine
10
-29.5627927146575
20
0.521661760473149
30
0.000000000000000
11
-29.4627927146575
21
0.479628541971032
31
0.000000000000000
  0
LINE
  5
F10738
330
F10739
100
AcDbEntity
8
Geo
100
AcDbLine
10
-29.4627927146575
20
0.479628541971032
30
0.000000000000000
11
-29.3627927146575
21
0.438715618439725
31
0.000000000000000
  0
LINE
  5
F1073A
330
F1073B
100
AcDbEntity
8
Geo
100
AcDbLine
10
-29.3627927146575
20
0.438715618439725
30
0.000000000000000
11
-29.2627927146575
21
0.398929382440292
31
0.000000000000000
  0
LINE
  5
F1073C
330
F1073D
100
AcDbEntity
8
Geo
100
AcDbLine
10
-29.2627927146575
20
0.398929382440292
30
0.000000000000000
11
-29.1627927146575
21
0.360276050491162
31
0.000000000000000
  0
LINE
  5
F1073E
330
F1073F
100
AcDbEntity
8
Geo
100
AcDbLine
10
-29.1627927146575
20
0.360276050491162
30
0.000000000000000
11
-29.0627927146575
21
0.322761662096811
31
0.000000000000000
  0
LINE
  5
F10740
330
F10741
100
AcDbEntity
8
Geo
100
AcDbLine
10
-29.0627927146575
20
0.322761662096811
30
0.000000000000000
11
-28.9627927146575
21
0.286392078804106
31
0.000000000000000
  0
LINE
  5
F10742
330
F10743
100
AcDbEntity
8
Geo
100
AcDbLine
10
-28.9627927146575
20
0.286392078804106
30
0.000000000000000
11
-28.8627927146575
21
0.251172983286442
31
0.000000000000000
  0
LINE
  5
F10744
330
F10745
100
AcDbEntity
8
Geo
100
AcDbLine
10
-28.8627927146575
20
0.251172983286442
30
0.000000000000000
11
-28.7627927146575
21
0.217109878455836
31
0.000000000000000
  0
LINE
  5
F10746
330
F10747
100
AcDbEntity
8
Geo
100
AcDbLine
10
-28.7627927146575
20
0.217109878455836
30
0.000000000000000
11
-28.6627927146575
21
0.184208086603122
31
0.000000000000000
  0
LINE
  5
F10748
330
F10749
100
AcDbEntity
8
Geo
100
AcDbLine
10
-28.6627927146575
20
0.184208086603122
30
0.000000000000000
11
-28.5627927146575
21
0.152472748566336
31
0.000000000000000
  0
LINE
  5
F1074A
330
F1074B
100
AcDbEntity
8
Geo
100
AcDbLine
10
-28.5627927146575
20
0.152472748566336
30
0.000000000000000
11
-28.4627927146575
21
0.121908822927481
31
0.000000000000000
  0
LINE
  5
F1074C
330
F1074D
100
AcDbEntity
8
Geo
100
AcDbLine
10
-28.4627927146575
20
0.121908822927481
30
0.000000000000000
11
-28.3627927146575
21
0.0925210852377569
31
0.000000000000000
  0
LINE
  5
F1074E
330
F1074F
100
AcDbEntity
8
Geo
100
AcDbLine
10
-28.3627927146575
20
0.0925210852377569
30
0.000000000000000
11
-28.2627927146575
21
0.0643141272713894
31
0.000000000000000
  0
LINE
  5
F10750
330
F10751
100
AcDbEntity
8
Geo
100
AcDbLine
10
-28.2627927146575
20
0.0643141272713894
30
0.000000000000000
11
-28.1627927146575
21
0.0372923563081713
31
0.000000000000000
  0
LINE
  5
F10752
330
F10753
100
AcDbEntity
8
Geo
100
AcDbLine
10
-28.1627927146575
20
0.0372923563081713
30
0.000000000000000
11
-28.0627927146575
21
0.0114599944448406
31
0.000000000000000
  0
LINE
  5
F10754
330
F10755
100
AcDbEntity
8
Geo
100
AcDbLine
10
-28.0627927146575
20
0.0114599944448406
30
0.000000000000000
11
-27.9627927146575
21
-0.0131789220646166
31
0.000000000000000
  0
LINE
  5
F10756
330
F10757
100
AcDbEntity
8
Geo
100
AcDbLine
10
-27.9627927146575
20
-0.0131789220646166
30
0.000000000000000
11
-27.8627927146575
21
-0.0366205434396232
31
0.000000000000000
  0
LINE
  5
F10758
330
F10759
100
AcDbEntity
8
Geo
100
AcDbLine
10
-27.8627927146575
20
-0.0366205434396232
30
0.000000000000000
11
-27.7627927146575
21
-0.0588612069745320
31
0.000000000000000
  0
LINE
  5
F1075A
330
F1075B
100
AcDbEntity
8
Geo
100
AcDbLine
10
-27.7627927146575
20
-0.0588612069745320
30
0.000000000000000
11
-27.6627927146575
21
-0.0798974376109136
31
0.000000000000000
  0
LINE
  5
F1075C
330
F1075D
100
AcDbEntity
8
Geo
100
AcDbLine
10
-27.6627927146575
20
-0.0798974376109136
30
0.000000000000000
11
-27.5627927146575
21
-0.0997259484805308
31
0.000000000000000
  0
LINE
  5
F1075E
330
F1075F
100
AcDbEntity
8
Geo
100
AcDbLine
10
-27.5627927146575
20
-0.0997259484805308
30
0.000000000000000
11
-27.4627927146575
21
-0.118343641418897
31
0.000000000000000
  0
LINE
  5
F10760
330
F10761
100
AcDbEntity
8
Geo
100
AcDbLine
10
-27.4627927146575
20
-0.118343641418897
30
0.000000000000000
11
-27.3627927146575
21
-0.135747607449373
31
0.000000000000000
  0
LINE
  5
F10762
330
F10763
100
AcDbEntity
8
Geo
100
AcDbLine
10
-27.3627927146575
20
-0.135747607449373
30
0.000000000000000
11
-27.2627927146575
21
-0.151935127237673
31
0.000000000000000
  0
LINE
  5
F10764
330
F10765
100
AcDbEntity
8
Geo
100
AcDbLine
10
-27.2627927146575
20
-0.151935127237673
30
0.000000000000000
11
-27.1627927146575
21
-0.166903671516764
31
0.000000000000000
  0
LINE
  5
F10766
330
F10767
100
AcDbEntity
8
Geo
100
AcDbLine
10
-27.1627927146575
20
-0.166903671516764
30
0.000000000000000
11
-27.0627927146575
21
-0.180650901482053
31
0.000000000000000
  0
LINE
  5
F10768
330
F10769
100
AcDbEntity
8
Geo
100
AcDbLine
10
-27.0627927146575
20
-0.180650901482053
30
0.000000000000000
11
-26.9627927146575
21
-0.193174669156830
31
0.000000000000000
  0
LINE
  5
F1076A
330
F1076B
100
AcDbEntity
8
Geo
100
AcDbLine
10
-26.9627927146575
20
-0.193174669156830
30
0.000000000000000
11
-26.8627927146575
21
-0.204473017727874
31
0.000000000000000
  0
LINE
  5
F1076C
330
F1076D
100
AcDbEntity
8
Geo
100
AcDbLine
10
-26.8627927146575
20
-0.204473017727874
30
0.000000000000000
11
-26.7627927146575
21
-0.214544181851208
31
0.000000000000000
  0
LINE
  5
F1076E
330
F1076F
100
AcDbEntity
8
Geo
100
AcDbLine
10
-26.7627927146575
20
-0.214544181851208
30
0.000000000000000
11
-26.6627927146575
21
-0.223386587927926
31
0.000000000000000
  0
LINE
  5
F10770
330
F10771
100
AcDbEntity
8
Geo
100
AcDbLine
10
-26.6627927146575
20
-0.223386587927926
30
0.000000000000000
11
-26.5627927146575
21
-0.230998854350069
31
0.000000000000000
  0
LINE
  5
F10772
330
F10773
100
AcDbEntity
8
Geo
100
AcDbLine
10
-26.5627927146575
20
-0.230998854350069
30
0.000000000000000
11
-26.4627927146575
21
-0.237379791716497
31
0.000000000000000
  0
LINE
  5
F10774
330
F10775
100
AcDbEntity
8
Geo
100
AcDbLine
10
-26.4627927146575
20
-0.237379791716497
30
0.000000000000000
11
-26.3627927146575
21
-0.242528403018728
31
0.000000000000000
  0
LINE
  5
F10776
330
F10777
100
AcDbEntity
8
Geo
100
AcDbLine
10
-26.3627927146575
20
-0.242528403018728
30
0.000000000000000
11
-26.2627927146575
21
-0.246443883796716
31
0.000000000000000
  0
LINE
  5
F10778
330
F10779
100
AcDbEntity
8
Geo
100
AcDbLine
10
-26.2627927146575
20
-0.246443883796716
30
0.000000000000000
11
-26.1627927146575
21
-0.249125622264563
31
0.000000000000000
  0
LINE
  5
F1077A
330
F1077B
100
AcDbEntity
8
Geo
100
AcDbLine
10
-26.1627927146575
20
-0.249125622264563
30
0.000000000000000
11
-26.0627927146575
21
-0.250573199406084
31
0.000000000000000
  0
LINE
  5
F1077C
330
F1077D
100
AcDbEntity
8
Geo
100
AcDbLine
10
-26.0627927146575
20
-0.250573199406084
30
0.000000000000000
11
-25.9955227383342
21
-0.350390286209887
31
0.000000000000000
  0
LINE
  5
F1077E
330
F1077F
100
AcDbEntity
8
Geo
100
AcDbLine
10
-25.9955227383341
20
15.6496097137901
30
0.000000000000000
11
-25.9627927146575
21
15.5500058166205
31
0.000000000000000
  0
LINE
  5
F10780
330
F10781
100
AcDbEntity
8
Geo
100
AcDbLine
10
-25.9627927146575
20
15.5500058166205
30
0.000000000000000
11
-25.8627927146575
21
15.5489845854370
31
0.000000000000000
  0
LINE
  5
F10782
330
F10783
100
AcDbEntity
8
Geo
100
AcDbLine
10
-25.8627927146575
20
15.5489845854370
30
0.000000000000000
11
-25.7627927146575
21
15.5467290930010
31
0.000000000000000
  0
LINE
  5
F10784
330
F10785
100
AcDbEntity
8
Geo
100
AcDbLine
10
-25.7627927146575
20
15.5467290930010
30
0.000000000000000
11
-25.6627927146575
21
15.5432396917286
31
0.000000000000000
  0
LINE
  5
F10786
330
F10787
100
AcDbEntity
8
Geo
100
AcDbLine
10
-25.6627927146575
20
15.5432396917286
30
0.000000000000000
11
-25.5627927146575
21
15.5385169268318
31
0.000000000000000
  0
LINE
  5
F10788
330
F10789
100
AcDbEntity
8
Geo
100
AcDbLine
10
-25.5627927146575
20
15.5385169268318
30
0.000000000000000
11
-25.4627927146575
21
15.5325615362328
31
0.000000000000000
  0
LINE
  5
F1078A
330
F1078B
100
AcDbEntity
8
Geo
100
AcDbLine
10
-25.4627927146575
20
15.5325615362328
30
0.000000000000000
11
-25.3627927146575
21
15.5253744504494
31
0.000000000000000
  0
LINE
  5
F1078C
330
F1078D
100
AcDbEntity
8
Geo
100
AcDbLine
10
-25.3627927146575
20
15.5253744504494
30
0.000000000000000
11
-25.2627927146575
21
15.5169567924491
31
0.000000000000000
  0
LINE
  5
F1078E
330
F1078F
100
AcDbEntity
8
Geo
100
AcDbLine
10
-25.2627927146575
20
15.5169567924491
30
0.000000000000000
11
-25.1627927146575
21
15.5073098774739
31
0.000000000000000
  0
LINE
  5
F10790
330
F10791
100
AcDbEntity
8
Geo
100
AcDbLine
10
-25.1627927146575
20
15.5073098774739
30
0.000000000000000
11
-25.0627927146575
21
15.4964352128345
31
0.000000000000000
  0
LINE
  5
F10792
330
F10793
100
AcDbEntity
8
Geo
100
AcDbLine
10
-25.0627927146575
20
15.4964352128345
30
0.000000000000000
11
-24.9627927146575
21
15.4843344976752
31
0.000000000000000
  0
LINE
  5
F10794
330
F10795
100
AcDbEntity
8
Geo
100
AcDbLine
10
-24.9627927146575
20
15.4843344976752
30
0.000000000000000
11
-24.8627927146575
21
15.4710096227081
31
0.000000000000000
  0
LINE
  5
F10796
330
F10797
100
AcDbEntity
8
Geo
100
AcDbLine
10
-24.8627927146575
20
15.4710096227081
30
0.000000000000000
11
-24.7627927146575
21
15.4564626699179
31
0.000000000000000
  0
LINE
  5
F10798
330
F10799
100
AcDbEntity
8
Geo
100
AcDbLine
10
-24.7627927146575
20
15.4564626699179
30
0.000000000000000
11
-24.6627927146575
21
15.4406959122363
31
0.000000000000000
  0
LINE
  5
F1079A
330
F1079B
100
AcDbEntity
8
Geo
100
AcDbLine
10
-24.6627927146575
20
15.4406959122363
30
0.000000000000000
11
-24.5627927146575
21
15.4237118131871
31
0.000000000000000
  0
LINE
  5
F1079C
330
F1079D
100
AcDbEntity
8
Geo
100
AcDbLine
10
-24.5627927146575
20
15.4237118131871
30
0.000000000000000
11
-24.4627927146575
21
15.4055130265012
31
0.000000000000000
  0
LINE
  5
F1079E
330
F1079F
100
AcDbEntity
8
Geo
100
AcDbLine
10
-24.4627927146575
20
15.4055130265012
30
0.000000000000000
11
-24.3627927146575
21
15.3861023957020
31
0.000000000000000
  0
LINE
  5
F107A0
330
F107A1
100
AcDbEntity
8
Geo
100
AcDbLine
10
-24.3627927146575
20
15.3861023957020
30
0.000000000000000
11
-24.2627927146575
21
15.3654829536612
31
0.000000000000000
  0
LINE
  5
F107A2
330
F107A3
100
AcDbEntity
8
Geo
100
AcDbLine
10
-24.2627927146575
20
15.3654829536612
30
0.000000000000000
11
-24.1627927146575
21
15.3436579221245
31
0.000000000000000
  0
LINE
  5
F107A4
330
F107A5
100
AcDbEntity
8
Geo
100
AcDbLine
10
-24.1627927146575
20
15.3436579221245
30
0.000000000000000
11
-24.0627927146575
21
15.3206307112088
31
0.000000000000000
  0
LINE
  5
F107A6
330
F107A7
100
AcDbEntity
8
Geo
100
AcDbLine
10
-24.0627927146575
20
15.3206307112088
30
0.000000000000000
11
-23.9627927146575
21
15.2964049188689
31
0.000000000000000
  0
LINE
  5
F107A8
330
F107A9
100
AcDbEntity
8
Geo
100
AcDbLine
10
-23.9627927146575
20
15.2964049188689
30
0.000000000000000
11
-23.8627927146575
21
15.2709843303356
31
0.000000000000000
  0
LINE
  5
F107AA
330
F107AB
100
AcDbEntity
8
Geo
100
AcDbLine
10
-23.8627927146575
20
15.2709843303356
30
0.000000000000000
11
-23.7627927146575
21
15.2443729175240
31
0.000000000000000
  0
LINE
  5
F107AC
330
F107AD
100
AcDbEntity
8
Geo
100
AcDbLine
10
-23.7627927146575
20
15.2443729175240
30
0.000000000000000
11
-23.6627927146575
21
15.2165748384134
31
0.000000000000000
  0
LINE
  5
F107AE
330
F107AF
100
AcDbEntity
8
Geo
100
AcDbLine
10
-23.6627927146575
20
15.2165748384134
30
0.000000000000000
11
-23.5627927146575
21
15.1875944363970
31
0.000000000000000
  0
LINE
  5
F107B0
330
F107B1
100
AcDbEntity
8
Geo
100
AcDbLine
10
-23.5627927146575
20
15.1875944363970
30
0.000000000000000
11
-23.4627927146575
21
15.1574362396037
31
0.000000000000000
  0
LINE
  5
F107B2
330
F107B3
100
AcDbEntity
8
Geo
100
AcDbLine
10
-23.4627927146575
20
15.1574362396037
30
0.000000000000000
11
-23.3627927146575
21
15.1261049601904
31
0.000000000000000
  0
LINE
  5
F107B4
330
F107B5
100
AcDbEntity
8
Geo
100
AcDbLine
10
-23.3627927146575
20
15.1261049601904
30
0.000000000000000
11
-23.2627927146575
21
15.0936054936057
31
0.000000000000000
  0
LINE
  5
F107B6
330
F107B7
100
AcDbEntity
8
Geo
100
AcDbLine
10
-23.2627927146575
20
15.0936054936057
30
0.000000000000000
11
-23.1627927146575
21
15.0599429178252
31
0.000000000000000
  0
LINE
  5
F107B8
330
F107B9
100
AcDbEntity
8
Geo
100
AcDbLine
10
-23.1627927146575
20
15.0599429178252
30
0.000000000000000
11
-23.0627927146575
21
15.0251224925578
31
0.000000000000000
  0
LINE
  5
F107BA
330
F107BB
100
AcDbEntity
8
Geo
100
AcDbLine
10
-23.0627927146575
20
15.0251224925578
30
0.000000000000000
11
-22.9627927146575
21
14.9891496584242
31
0.000000000000000
  0
LINE
  5
F107BC
330
F107BD
100
AcDbEntity
8
Geo
100
AcDbLine
10
-22.9627927146575
20
14.9891496584242
30
0.000000000000000
11
-22.8627927146575
21
14.9520300361065
31
0.000000000000000
  0
LINE
  5
F107BE
330
F107BF
100
AcDbEntity
8
Geo
100
AcDbLine
10
-22.8627927146575
20
14.9520300361065
30
0.000000000000000
11
-22.7627927146575
21
14.9137694254702
31
0.000000000000000
  0
LINE
  5
F107C0
330
F107C1
100
AcDbEntity
8
Geo
100
AcDbLine
10
-37.7627927146575
20
15.5106911716566
30
0.000000000000000
11
-37.6627927146574
21
15.5002292115926
31
0.000000000000000
  0
LINE
  5
F107C2
330
F107C3
100
AcDbEntity
8
Geo
100
AcDbLine
10
-37.6627927146574
20
15.5002292115926
30
0.000000000000000
11
-37.5627927146574
21
15.4885406082041
31
0.000000000000000
  0
LINE
  5
F107C4
330
F107C5
100
AcDbEntity
8
Geo
100
AcDbLine
10
-37.5627927146574
20
15.4885406082041
30
0.000000000000000
11
-37.4627927146575
21
15.4756271878116
31
0.000000000000000
  0
LINE
  5
F107C6
330
F107C7
100
AcDbEntity
8
Geo
100
AcDbLine
10
-37.4627927146575
20
15.4756271878116
30
0.000000000000000
11
-37.3627927146575
21
15.4614909681108
31
0.000000000000000
  0
LINE
  5
F107C8
330
F107C9
100
AcDbEntity
8
Geo
100
AcDbLine
10
-37.3627927146575
20
15.4614909681108
30
0.000000000000000
11
-37.2627927146575
21
15.4461341578572
31
0.000000000000000
  0
LINE
  5
F107CA
330
F107CB
100
AcDbEntity
8
Geo
100
AcDbLine
10
-37.2627927146575
20
15.4461341578572
30
0.000000000000000
11
-37.1627927146574
21
15.4295591565212
31
0.000000000000000
  0
LINE
  5
F107CC
330
F107CD
100
AcDbEntity
8
Geo
100
AcDbLine
10
-37.1627927146574
20
15.4295591565212
30
0.000000000000000
11
-37.0627927146574
21
15.4117685539131
31
0.000000000000000
  0
LINE
  5
F107CE
330
F107CF
100
AcDbEntity
8
Geo
100
AcDbLine
10
-37.0627927146574
20
15.4117685539131
30
0.000000000000000
11
-36.9627927146575
21
15.3927651297783
31
0.000000000000000
  0
LINE
  5
F107D0
330
F107D1
100
AcDbEntity
8
Geo
100
AcDbLine
10
-36.9627927146575
20
15.3927651297783
30
0.000000000000000
11
-36.8627927146575
21
15.3725518533631
31
0.000000000000000
  0
LINE
  5
F107D2
330
F107D3
100
AcDbEntity
8
Geo
100
AcDbLine
10
-36.8627927146575
20
15.3725518533631
30
0.000000000000000
11
-36.7627927146575
21
15.3511318829509
31
0.000000000000000
  0
LINE
  5
F107D4
330
F107D5
100
AcDbEntity
8
Geo
100
AcDbLine
10
-36.7627927146575
20
15.3511318829509
30
0.000000000000000
11
-36.6627927146574
21
15.3285085653685
31
0.000000000000000
  0
LINE
  5
F107D6
330
F107D7
100
AcDbEntity
8
Geo
100
AcDbLine
10
-36.6627927146574
20
15.3285085653685
30
0.000000000000000
11
-36.5627927146574
21
15.3046854354632
31
0.000000000000000
  0
LINE
  5
F107D8
330
F107D9
100
AcDbEntity
8
Geo
100
AcDbLine
10
-36.5627927146574
20
15.3046854354632
30
0.000000000000000
11
-36.4627927146575
21
15.2796662155506
31
0.000000000000000
  0
LINE
  5
F107DA
330
F107DB
100
AcDbEntity
8
Geo
100
AcDbLine
10
-36.4627927146575
20
15.2796662155506
30
0.000000000000000
11
-36.3627927146575
21
15.2534548148329
31
0.000000000000000
  0
LINE
  5
F107DC
330
F107DD
100
AcDbEntity
8
Geo
100
AcDbLine
10
-36.3627927146575
20
15.2534548148329
30
0.000000000000000
11
-36.2627927146575
21
15.2260553287882
31
0.000000000000000
  0
LINE
  5
F107DE
330
F107DF
100
AcDbEntity
8
Geo
100
AcDbLine
10
-36.2627927146575
20
15.2260553287882
30
0.000000000000000
11
-36.1627927146574
21
15.1974720385303
31
0.000000000000000
  0
LINE
  5
F107E0
330
F107E1
100
AcDbEntity
8
Geo
100
AcDbLine
10
-36.1627927146574
20
15.1974720385303
30
0.000000000000000
11
-36.0627927146574
21
15.1677094101403
31
0.000000000000000
  0
LINE
  5
F107E2
330
F107E3
100
AcDbEntity
8
Geo
100
AcDbLine
10
-36.0627927146574
20
15.1677094101403
30
0.000000000000000
11
-35.9627927146575
21
15.1367720939683
31
0.000000000000000
  0
LINE
  5
F107E4
330
F107E5
100
AcDbEntity
8
Geo
100
AcDbLine
10
-35.9627927146575
20
15.1367720939683
30
0.000000000000000
11
-35.8627927146575
21
15.1046649239070
31
0.000000000000000
  0
LINE
  5
F107E6
330
F107E7
100
AcDbEntity
8
Geo
100
AcDbLine
10
-35.8627927146575
20
15.1046649239070
30
0.000000000000000
11
-35.7627927146575
21
15.0713929166363
31
0.000000000000000
  0
LINE
  5
F107E8
330
F107E9
100
AcDbEntity
8
Geo
100
AcDbLine
10
-35.7627927146575
20
15.0713929166363
30
0.000000000000000
11
-35.6627927146574
21
15.0369612708398
31
0.000000000000000
  0
LINE
  5
F107EA
330
F107EB
100
AcDbEntity
8
Geo
100
AcDbLine
10
-35.6627927146574
20
15.0369612708398
30
0.000000000000000
11
-35.5627927146574
21
15.0013753663920
31
0.000000000000000
  0
LINE
  5
F107EC
330
F107ED
100
AcDbEntity
8
Geo
100
AcDbLine
10
-35.5627927146574
20
15.0013753663920
30
0.000000000000000
11
-35.4627927146575
21
14.9646407635182
31
0.000000000000000
  0
LINE
  5
F107EE
330
F107EF
100
AcDbEntity
8
Geo
100
AcDbLine
10
-35.4627927146575
20
14.9646407635182
30
0.000000000000000
11
-35.3627927146575
21
14.9267632019252
31
0.000000000000000
  0
LINE
  5
F107F0
330
F107F1
100
AcDbEntity
8
Geo
100
AcDbLine
10
-35.3627927146575
20
14.9267632019252
30
0.000000000000000
11
-35.2627927146575
21
14.8877485999050
31
0.000000000000000
  0
LINE
  5
F107F2
330
F107F3
100
AcDbEntity
8
Geo
100
AcDbLine
10
-35.2627927146575
20
14.8877485999050
30
0.000000000000000
11
-35.1627927146574
21
14.8476030534098
31
0.000000000000000
  0
LINE
  5
F107F4
330
F107F5
100
AcDbEntity
8
Geo
100
AcDbLine
10
-35.1627927146574
20
14.8476030534098
30
0.000000000000000
11
-35.0627927146574
21
14.8063328350996
31
0.000000000000000
  0
LINE
  5
F107F6
330
F107F7
100
AcDbEntity
8
Geo
100
AcDbLine
10
-35.0627927146574
20
14.8063328350996
30
0.000000000000000
11
-34.9627927146574
21
14.7639443933619
31
0.000000000000000
  0
LINE
  5
F107F8
330
F107F9
100
AcDbEntity
8
Geo
100
AcDbLine
10
-34.9627927146574
20
14.7639443933619
30
0.000000000000000
11
-34.8627927146575
21
14.7204443513047
31
0.000000000000000
  0
LINE
  5
F107FA
330
F107FB
100
AcDbEntity
8
Geo
100
AcDbLine
10
-34.8627927146575
20
14.7204443513047
30
0.000000000000000
11
-34.7627927146575
21
14.6758395057210
31
0.000000000000000
  0
LINE
  5
F107FC
330
F107FD
100
AcDbEntity
8
Geo
100
AcDbLine
10
-34.7627927146575
20
14.6758395057210
30
0.000000000000000
11
-34.6627927146574
21
14.6301368260270
31
0.000000000000000
  0
LINE
  5
F107FE
330
F107FF
100
AcDbEntity
8
Geo
100
AcDbLine
10
-34.6627927146574
20
14.6301368260270
30
0.000000000000000
11
-34.5627927146574
21
14.5833434531737
31
0.000000000000000
  0
LINE
  5
F10800
330
F10801
100
AcDbEntity
8
Geo
100
AcDbLine
10
-34.5627927146574
20
14.5833434531737
30
0.000000000000000
11
-34.4627927146574
21
14.5354666985302
31
0.000000000000000
  0
LINE
  5
F10802
330
F10803
100
AcDbEntity
8
Geo
100
AcDbLine
10
-34.4627927146574
20
14.5354666985302
30
0.000000000000000
11
-34.3627927146575
21
14.4865140427420
31
0.000000000000000
  0
LINE
  5
F10804
330
F10805
100
AcDbEntity
8
Geo
100
AcDbLine
10
-34.3627927146575
20
14.4865140427420
30
0.000000000000000
11
-34.2627927146575
21
14.4364931345622
31
0.000000000000000
  0
LINE
  5
F10806
330
F10807
100
AcDbEntity
8
Geo
100
AcDbLine
10
-34.2627927146575
20
14.4364931345622
30
0.000000000000000
11
-34.1627927146574
21
14.3854117896557
31
0.000000000000000
  0
LINE
  5
F10808
330
F10809
100
AcDbEntity
8
Geo
100
AcDbLine
10
-34.1627927146574
20
14.3854117896557
30
0.000000000000000
11
-34.0627927146574
21
14.3332779893788
31
0.000000000000000
  0
LINE
  5
F1080A
330
F1080B
100
AcDbEntity
8
Geo
100
AcDbLine
10
-34.0627927146574
20
14.3332779893788
30
0.000000000000000
11
-33.9627927146574
21
14.2800998795317
31
0.000000000000000
  0
LINE
  5
F1080C
330
F1080D
100
AcDbEntity
8
Geo
100
AcDbLine
10
-33.9627927146574
20
14.2800998795317
30
0.000000000000000
11
-33.8627927146574
21
14.2258857690859
31
0.000000000000000
  0
LINE
  5
F1080E
330
F1080F
100
AcDbEntity
8
Geo
100
AcDbLine
10
-33.8627927146574
20
14.2258857690859
30
0.000000000000000
11
-33.7627927146575
21
14.1706441288859
31
0.000000000000000
  0
LINE
  5
F10810
330
F10811
100
AcDbEntity
8
Geo
100
AcDbLine
10
-33.7627927146575
20
14.1706441288859
30
0.000000000000000
11
-33.6627927146574
21
14.1143835903255
31
0.000000000000000
  0
LINE
  5
F10812
330
F10813
100
AcDbEntity
8
Geo
100
AcDbLine
10
-33.6627927146574
20
14.1143835903255
30
0.000000000000000
11
-33.5627927146574
21
14.0571129439995
31
0.000000000000000
  0
LINE
  5
F10814
330
F10815
100
AcDbEntity
8
Geo
100
AcDbLine
10
-33.5627927146574
20
14.0571129439995
30
0.000000000000000
11
-33.4627927146575
21
13.9988411383298
31
0.000000000000000
  0
LINE
  5
F10816
330
F10817
100
AcDbEntity
8
Geo
100
AcDbLine
10
-33.4627927146575
20
13.9988411383298
30
0.000000000000000
11
-33.3627927146575
21
13.9395772781675
31
0.000000000000000
  0
LINE
  5
F10818
330
F10819
100
AcDbEntity
8
Geo
100
AcDbLine
10
-33.3627927146575
20
13.9395772781675
30
0.000000000000000
11
-33.2627927146575
21
13.8793306233701
31
0.000000000000000
  0
LINE
  5
F1081A
330
F1081B
100
AcDbEntity
8
Geo
100
AcDbLine
10
-33.2627927146575
20
13.8793306233701
30
0.000000000000000
11
-33.1627927146574
21
13.8181105873550
31
0.000000000000000
  0
LINE
  5
F1081C
330
F1081D
100
AcDbEntity
8
Geo
100
AcDbLine
10
-33.1627927146574
20
13.8181105873550
30
0.000000000000000
11
-33.0627927146574
21
13.7559267356281
31
0.000000000000000
  0
LINE
  5
F1081E
330
F1081F
100
AcDbEntity
8
Geo
100
AcDbLine
10
-33.0627927146574
20
13.7559267356281
30
0.000000000000000
11
-32.9627927146575
21
13.6927887842899
31
0.000000000000000
  0
LINE
  5
F10820
330
F10821
100
AcDbEntity
8
Geo
100
AcDbLine
10
-32.9627927146575
20
13.6927887842899
30
0.000000000000000
11
-32.8627927146575
21
13.6287065985167
31
0.000000000000000
  0
LINE
  5
F10822
330
F10823
100
AcDbEntity
8
Geo
100
AcDbLine
10
-32.8627927146575
20
13.6287065985167
30
0.000000000000000
11
-32.7627927146575
21
13.5636901910197
31
0.000000000000000
  0
LINE
  5
F10824
330
F10825
100
AcDbEntity
8
Geo
100
AcDbLine
10
-32.7627927146575
20
13.5636901910197
30
0.000000000000000
11
-32.6627927146575
21
13.4977497204803
31
0.000000000000000
  0
LINE
  5
F10826
330
F10827
100
AcDbEntity
8
Geo
100
AcDbLine
10
-32.6627927146575
20
13.4977497204803
30
0.000000000000000
11
-32.5627927146575
21
13.4308954899628
31
0.000000000000000
  0
LINE
  5
F10828
330
F10829
100
AcDbEntity
8
Geo
100
AcDbLine
10
-32.5627927146575
20
13.4308954899628
30
0.000000000000000
11
-32.4627927146575
21
13.3631379453049
31
0.000000000000000
  0
LINE
  5
F1082A
330
F1082B
100
AcDbEntity
8
Geo
100
AcDbLine
10
-32.4627927146575
20
13.3631379453049
30
0.000000000000000
11
-32.3627927146575
21
13.2944876734849
31
0.000000000000000
  0
LINE
  5
F1082C
330
F1082D
100
AcDbEntity
8
Geo
100
AcDbLine
10
-32.3627927146575
20
13.2944876734849
30
0.000000000000000
11
-32.2627927146575
21
13.2249554009682
31
0.000000000000000
  0
LINE
  5
F1082E
330
F1082F
100
AcDbEntity
8
Geo
100
AcDbLine
10
-32.2627927146575
20
13.2249554009682
30
0.000000000000000
11
-32.1627927146575
21
13.1545519920308
31
0.000000000000000
  0
LINE
  5
F10830
330
F10831
100
AcDbEntity
8
Geo
100
AcDbLine
10
-32.1627927146575
20
13.1545519920308
30
0.000000000000000
11
-32.0627927146575
21
13.0832884470623
31
0.000000000000000
  0
LINE
  5
F10832
330
F10833
100
AcDbEntity
8
Geo
100
AcDbLine
10
-32.0627927146575
20
13.0832884470623
30
0.000000000000000
11
-31.9627927146575
21
13.0111759008465
31
0.000000000000000
  0
LINE
  5
F10834
330
F10835
100
AcDbEntity
8
Geo
100
AcDbLine
10
-31.9627927146575
20
13.0111759008465
30
0.000000000000000
11
-31.8627927146575
21
12.9382256208220
31
0.000000000000000
  0
LINE
  5
F10836
330
F10837
100
AcDbEntity
8
Geo
100
AcDbLine
10
-31.8627927146575
20
12.9382256208220
30
0.000000000000000
11
-31.7627927146575
21
12.8644490053217
31
0.000000000000000
  0
LINE
  5
F10838
330
F10839
100
AcDbEntity
8
Geo
100
AcDbLine
10
-31.7627927146575
20
12.8644490053217
30
0.000000000000000
11
-31.6627927146575
21
12.7898575817917
31
0.000000000000000
  0
LINE
  5
F1083A
330
F1083B
100
AcDbEntity
8
Geo
100
AcDbLine
10
-31.6627927146575
20
12.7898575817917
30
0.000000000000000
11
-31.5627927146575
21
12.7144630049901
31
0.000000000000000
  0
LINE
  5
F1083C
330
F1083D
100
AcDbEntity
8
Geo
100
AcDbLine
10
-31.5627927146575
20
12.7144630049901
30
0.000000000000000
11
-31.4627927146575
21
12.6382770551662
31
0.000000000000000
  0
LINE
  5
F1083E
330
F1083F
100
AcDbEntity
8
Geo
100
AcDbLine
10
-31.4627927146575
20
12.6382770551662
30
0.000000000000000
11
-31.3627927146575
21
12.5613116362196
31
0.000000000000000
  0
LINE
  5
F10840
330
F10841
100
AcDbEntity
8
Geo
100
AcDbLine
10
-31.3627927146575
20
12.5613116362196
30
0.000000000000000
11
-31.2627927146575
21
12.4835787738404
31
0.000000000000000
  0
LINE
  5
F10842
330
F10843
100
AcDbEntity
8
Geo
100
AcDbLine
10
-31.2627927146575
20
12.4835787738404
30
0.000000000000000
11
-31.1627927146575
21
12.4050906136303
31
0.000000000000000
  0
LINE
  5
F10844
330
F10845
100
AcDbEntity
8
Geo
100
AcDbLine
10
-31.1627927146575
20
12.4050906136303
30
0.000000000000000
11
-31.0627927146575
21
12.3258594192046
31
0.000000000000000
  0
LINE
  5
F10846
330
F10847
100
AcDbEntity
8
Geo
100
AcDbLine
10
-31.0627927146575
20
12.3258594192046
30
0.000000000000000
11
-30.9627927146575
21
12.2458975702763
31
0.000000000000000
  0
LINE
  5
F10848
330
F10849
100
AcDbEntity
8
Geo
100
AcDbLine
10
-30.9627927146575
20
12.2458975702763
30
0.000000000000000
11
-30.8627927146575
21
12.1652175607215
31
0.000000000000000
  0
LINE
  5
F1084A
330
F1084B
100
AcDbEntity
8
Geo
100
AcDbLine
10
-30.8627927146575
20
12.1652175607215
30
0.000000000000000
11
-30.7627927146575
21
12.0838319966275
31
0.000000000000000
  0
LINE
  5
F1084C
330
F1084D
100
AcDbEntity
8
Geo
100
AcDbLine
10
-30.7627927146575
20
12.0838319966275
30
0.000000000000000
11
-30.6627927146575
21
12.0017535943233
31
0.000000000000000
  0
LINE
  5
F1084E
330
F1084F
100
AcDbEntity
8
Geo
100
AcDbLine
10
-30.6627927146575
20
12.0017535943233
30
0.000000000000000
11
-30.5627927146575
21
11.9189951783922
31
0.000000000000000
  0
LINE
  5
F10850
330
F10851
100
AcDbEntity
8
Geo
100
AcDbLine
10
-30.5627927146575
20
11.9189951783922
30
0.000000000000000
11
-30.4627927146575
21
11.8355696796683
31
0.000000000000000
  0
LINE
  5
F10852
330
F10853
100
AcDbEntity
8
Geo
100
AcDbLine
10
-30.4627927146575
20
11.8355696796683
30
0.000000000000000
11
-30.3627927146575
21
11.7514901332160
31
0.000000000000000
  0
LINE
  5
F10854
330
F10855
100
AcDbEntity
8
Geo
100
AcDbLine
10
-30.3627927146575
20
11.7514901332160
30
0.000000000000000
11
-30.2627927146575
21
11.6667696762934
31
0.000000000000000
  0
LINE
  5
F10856
330
F10857
100
AcDbEntity
8
Geo
100
AcDbLine
10
-30.2627927146575
20
11.6667696762934
30
0.000000000000000
11
-30.1627927146575
21
11.5814215462996
31
0.000000000000000
  0
LINE
  5
F10858
330
F10859
100
AcDbEntity
8
Geo
100
AcDbLine
10
-30.1627927146575
20
11.5814215462996
30
0.000000000000000
11
-30.0627927146575
21
11.4954590787062
31
0.000000000000000
  0
LINE
  5
F1085A
330
F1085B
100
AcDbEntity
8
Geo
100
AcDbLine
10
-30.0627927146575
20
11.4954590787062
30
0.000000000000000
11
-29.9627927146575
21
11.4088957049739
31
0.000000000000000
  0
LINE
  5
F1085C
330
F1085D
100
AcDbEntity
8
Geo
100
AcDbLine
10
-29.9627927146575
20
11.4088957049739
30
0.000000000000000
11
-29.8627927146575
21
11.3217449504537
31
0.000000000000000
  0
LINE
  5
F1085E
330
F1085F
100
AcDbEntity
8
Geo
100
AcDbLine
10
-29.8627927146575
20
11.3217449504537
30
0.000000000000000
11
-29.7627927146575
21
11.2340204322737
31
0.000000000000000
  0
LINE
  5
F10860
330
F10861
100
AcDbEntity
8
Geo
100
AcDbLine
10
-29.7627927146575
20
11.2340204322737
30
0.000000000000000
11
-29.6627927146575
21
11.1457358572115
31
0.000000000000000
  0
LINE
  5
F10862
330
F10863
100
AcDbEntity
8
Geo
100
AcDbLine
10
-29.6627927146575
20
11.1457358572115
30
0.000000000000000
11
-29.5627927146575
21
11.0569050195521
31
0.000000000000000
  0
LINE
  5
F10864
330
F10865
100
AcDbEntity
8
Geo
100
AcDbLine
10
-29.5627927146575
20
11.0569050195521
30
0.000000000000000
11
-29.4627927146575
21
10.9675417989334
31
0.000000000000000
  0
LINE
  5
F10866
330
F10867
100
AcDbEntity
8
Geo
100
AcDbLine
10
-29.4627927146575
20
10.9675417989334
30
0.000000000000000
11
-29.3627927146575
21
10.8776601581767
31
0.000000000000000
  0
LINE
  5
F10868
330
F10869
100
AcDbEntity
8
Geo
100
AcDbLine
10
-29.3627927146575
20
10.8776601581767
30
0.000000000000000
11
-29.2627927146575
21
10.7872741411055
31
0.000000000000000
  0
LINE
  5
F1086A
330
F1086B
100
AcDbEntity
8
Geo
100
AcDbLine
10
-29.2627927146575
20
10.7872741411055
30
0.000000000000000
11
-29.1627927146575
21
10.6963978703511
31
0.000000000000000
  0
LINE
  5
F1086C
330
F1086D
100
AcDbEntity
8
Geo
100
AcDbLine
10
-29.1627927146575
20
10.6963978703511
30
0.000000000000000
11
-29.0627927146575
21
10.6050455451459
31
0.000000000000000
  0
LINE
  5
F1086E
330
F1086F
100
AcDbEntity
8
Geo
100
AcDbLine
10
-29.0627927146575
20
10.6050455451459
30
0.000000000000000
11
-28.9627927146575
21
10.5132314391048
31
0.000000000000000
  0
LINE
  5
F10870
330
F10871
100
AcDbEntity
8
Geo
100
AcDbLine
10
-28.9627927146575
20
10.5132314391048
30
0.000000000000000
11
-28.8627927146575
21
10.4209698979953
31
0.000000000000000
  0
LINE
  5
F10872
330
F10873
100
AcDbEntity
8
Geo
100
AcDbLine
10
-28.8627927146575
20
10.4209698979953
30
0.000000000000000
11
-28.7627927146575
21
10.3282753374952
31
0.000000000000000
  0
LINE
  5
F10874
330
F10875
100
AcDbEntity
8
Geo
100
AcDbLine
10
-28.7627927146575
20
10.3282753374952
30
0.000000000000000
11
-28.6627927146575
21
10.2351622409412
31
0.000000000000000
  0
LINE
  5
F10876
330
F10877
100
AcDbEntity
8
Geo
100
AcDbLine
10
-28.6627927146575
20
10.2351622409412
30
0.000000000000000
11
-28.5627927146575
21
10.1416451570651
31
0.000000000000000
  0
LINE
  5
F10878
330
F10879
100
AcDbEntity
8
Geo
100
AcDbLine
10
-28.5627927146575
20
10.1416451570651
30
0.000000000000000
11
-28.4627927146575
21
10.0477386977210
31
0.000000000000000
  0
LINE
  5
F1087A
330
F1087B
100
AcDbEntity
8
Geo
100
AcDbLine
10
-28.4627927146575
20
10.0477386977210
30
0.000000000000000
11
-28.3627927146575
21
9.95345753560215
31
0.000000000000000
  0
LINE
  5
F1087C
330
F1087D
100
AcDbEntity
8
Geo
100
AcDbLine
10
-28.3627927146575
20
9.95345753560215
30
0.000000000000000
11
-28.2627927146575
21
9.85881640194832
31
0.000000000000000
  0
LINE
  5
F1087E
330
F1087F
100
AcDbEntity
8
Geo
100
AcDbLine
10
-28.2627927146575
20
9.85881640194832
30
0.000000000000000
11
-28.1627927146575
21
9.76383008424409
31
0.000000000000000
  0
LINE
  5
F10880
330
F10881
100
AcDbEntity
8
Geo
100
AcDbLine
10
-28.1627927146575
20
9.76383008424409
30
0.000000000000000
11
-28.0627927146575
21
9.66851342390834
31
0.000000000000000
  0
LINE
  5
F10882
330
F10883
100
AcDbEntity
8
Geo
100
AcDbLine
10
-28.0627927146575
20
9.66851342390834
30
0.000000000000000
11
-27.9627927146575
21
9.57288131397533
31
0.000000000000000
  0
LINE
  5
F10884
330
F10885
100
AcDbEntity
8
Geo
100
AcDbLine
10
-27.9627927146575
20
9.57288131397533
30
0.000000000000000
11
-27.8627927146575
21
9.47694869676768
31
0.000000000000000
  0
LINE
  5
F10886
330
F10887
100
AcDbEntity
8
Geo
100
AcDbLine
10
-27.8627927146575
20
9.47694869676768
30
0.000000000000000
11
-27.7627927146575
21
9.38073056156165
31
0.000000000000000
  0
LINE
  5
F10888
330
F10889
100
AcDbEntity
8
Geo
100
AcDbLine
10
-27.7627927146575
20
9.38073056156165
30
0.000000000000000
11
-27.6627927146575
21
9.28424194224511
31
0.000000000000000
  0
LINE
  5
F1088A
330
F1088B
100
AcDbEntity
8
Geo
100
AcDbLine
10
-27.6627927146575
20
9.28424194224511
30
0.000000000000000
11
-27.5627927146575
21
9.18749791496853
31
0.000000000000000
  0
LINE
  5
F1088C
330
F1088D
100
AcDbEntity
8
Geo
100
AcDbLine
10
-27.5627927146575
20
9.18749791496853
30
0.000000000000000
11
-27.4627927146575
21
9.09051359578934
31
0.000000000000000
  0
LINE
  5
F1088E
330
F1088F
100
AcDbEntity
8
Geo
100
AcDbLine
10
-27.4627927146575
20
9.09051359578934
30
0.000000000000000
11
-27.3627927146575
21
8.99330413831009
31
0.000000000000000
  0
LINE
  5
F10890
330
F10891
100
AcDbEntity
8
Geo
100
AcDbLine
10
-27.3627927146575
20
8.99330413831009
30
0.000000000000000
11
-27.2627927146575
21
8.89588473131076
31
0.000000000000000
  0
LINE
  5
F10892
330
F10893
100
AcDbEntity
8
Geo
100
AcDbLine
10
-27.2627927146575
20
8.89588473131076
30
0.000000000000000
11
-27.1627927146575
21
8.79827059637548
31
0.000000000000000
  0
LINE
  5
F10894
330
F10895
100
AcDbEntity
8
Geo
100
AcDbLine
10
-27.1627927146575
20
8.79827059637548
30
0.000000000000000
11
-27.0627927146575
21
8.70047698551423
31
0.000000000000000
  0
LINE
  5
F10896
330
F10897
100
AcDbEntity
8
Geo
100
AcDbLine
10
-27.0627927146575
20
8.70047698551423
30
0.000000000000000
11
-26.9627927146575
21
8.60251917877977
31
0.000000000000000
  0
LINE
  5
F10898
330
F10899
100
AcDbEntity
8
Geo
100
AcDbLine
10
-26.9627927146575
20
8.60251917877977
30
0.000000000000000
11
-26.8627927146575
21
8.50441248188009
31
0.000000000000000
  0
LINE
  5
F1089A
330
F1089B
100
AcDbEntity
8
Geo
100
AcDbLine
10
-26.8627927146575
20
8.50441248188009
30
0.000000000000000
11
-26.7627927146575
21
8.40617222378698
31
0.000000000000000
  0
LINE
  5
F1089C
330
F1089D
100
AcDbEntity
8
Geo
100
AcDbLine
10
-26.7627927146575
20
8.40617222378698
30
0.000000000000000
11
-26.6627927146575
21
8.30781375434091
31
0.000000000000000
  0
LINE
  5
F1089E
330
F1089F
100
AcDbEntity
8
Geo
100
AcDbLine
10
-26.6627927146575
20
8.30781375434091
30
0.000000000000000
11
-26.5627927146575
21
8.20935244185262
31
0.000000000000000
  0
LINE
  5
F108A0
330
F108A1
100
AcDbEntity
8
Geo
100
AcDbLine
10
-26.5627927146575
20
8.20935244185262
30
0.000000000000000
11
-26.4627927146575
21
8.11080367070186
31
0.000000000000000
  0
LINE
  5
F108A2
330
F108A3
100
AcDbEntity
8
Geo
100
AcDbLine
10
-26.4627927146575
20
8.11080367070186
30
0.000000000000000
11
-26.3627927146575
21
8.01218283893364
31
0.000000000000000
  0
LINE
  5
F108A4
330
F108A5
100
AcDbEntity
8
Geo
100
AcDbLine
10
-26.3627927146575
20
8.01218283893364
30
0.000000000000000
11
-26.2627927146575
21
7.91350535585226
31
0.000000000000000
  0
LINE
  5
F108A6
330
F108A7
100
AcDbEntity
8
Geo
100
AcDbLine
10
-26.2627927146575
20
7.91350535585226
30
0.000000000000000
11
-26.1627927146575
21
7.81478663961370
31
0.000000000000000
  0
LINE
  5
F108A8
330
F108A9
100
AcDbEntity
8
Geo
100
AcDbLine
10
-26.1627927146575
20
7.81478663961370
30
0.000000000000000
11
-26.0627927146575
21
7.71604211481653
31
0.000000000000000
  0
LINE
  5
F108AA
330
F108AB
100
AcDbEntity
8
Geo
100
AcDbLine
10
-26.0627927146575
20
7.71604211481653
30
0.000000000000000
11
-25.9627927146575
21
7.61728721009186
31
0.000000000000000
  0
LINE
  5
F108AC
330
F108AD
100
AcDbEntity
8
Geo
100
AcDbLine
10
-25.9627927146575
20
7.61728721009186
30
0.000000000000000
11
-25.8627927146575
21
7.51853735569264
31
0.000000000000000
  0
LINE
  5
F108AE
330
F108AF
100
AcDbEntity
8
Geo
100
AcDbLine
10
-25.8627927146575
20
7.51853735569264
30
0.000000000000000
11
-25.7627927146575
21
7.41980798108270
31
0.000000000000000
  0
LINE
  5
F108B0
330
F108B1
100
AcDbEntity
8
Geo
100
AcDbLine
10
-25.7627927146575
20
7.41980798108270
30
0.000000000000000
11
-25.6627927146575
21
7.32111451252596
31
0.000000000000000
  0
LINE
  5
F108B2
330
F108B3
100
AcDbEntity
8
Geo
100
AcDbLine
10
-25.6627927146575
20
7.32111451252596
30
0.000000000000000
11
-25.5627927146575
21
7.22247237067610
31
0.000000000000000
  0
LINE
  5
F108B4
330
F108B5
100
AcDbEntity
8
Geo
100
AcDbLine
10
-25.5627927146575
20
7.22247237067610
30
0.000000000000000
11
-25.4627927146575
21
7.12389696816710
31
0.000000000000000
  0
LINE
  5
F108B6
330
F108B7
100
AcDbEntity
8
Geo
100
AcDbLine
10
-25.4627927146575
20
7.12389696816710
30
0.000000000000000
11
-25.3627927146575
21
7.02540370720503
31
0.000000000000000
  0
LINE
  5
F108B8
330
F108B9
100
AcDbEntity
8
Geo
100
AcDbLine
10
-25.3627927146575
20
7.02540370720503
30
0.000000000000000
11
-25.2627927146575
21
6.92700797716155
31
0.000000000000000
  0
LINE
  5
F108BA
330
F108BB
100
AcDbEntity
8
Geo
100
AcDbLine
10
-25.2627927146575
20
6.92700797716155
30
0.000000000000000
11
-25.1627927146575
21
6.82872515216930
31
0.000000000000000
  0
LINE
  5
F108BC
330
F108BD
100
AcDbEntity
8
Geo
100
AcDbLine
10
-25.1627927146575
20
6.82872515216930
30
0.000000000000000
11
-25.0627927146575
21
6.73057058871971
31
0.000000000000000
  0
LINE
  5
F108BE
330
F108BF
100
AcDbEntity
8
Geo
100
AcDbLine
10
-25.0627927146575
20
6.73057058871971
30
0.000000000000000
11
-24.9627927146575
21
6.63255962326363
31
0.000000000000000
  0
LINE
  5
F108C0
330
F108C1
100
AcDbEntity
8
Geo
100
AcDbLine
10
-24.9627927146575
20
6.63255962326363
30
0.000000000000000
11
-24.8627927146575
21
6.53470756981501
31
0.000000000000000
  0
LINE
  5
F108C2
330
F108C3
100
AcDbEntity
8
Geo
100
AcDbLine
10
-24.8627927146575
20
6.53470756981501
30
0.000000000000000
11
-24.7627927146575
21
6.43702971755813
31
0.000000000000000
  0
LINE
  5
F108C4
330
F108C5
100
AcDbEntity
8
Geo
100
AcDbLine
10
-24.7627927146575
20
6.43702971755813
30
0.000000000000000
11
-24.6627927146575
21
6.33954132845867
31
0.000000000000000
  0
LINE
  5
F108C6
330
F108C7
100
AcDbEntity
8
Geo
100
AcDbLine
10
-24.6627927146575
20
6.33954132845867
30
0.000000000000000
11
-24.5627927146575
21
6.24225763487909
31
0.000000000000000
  0
LINE
  5
F108C8
330
F108C9
100
AcDbEntity
8
Geo
100
AcDbLine
10
-24.5627927146575
20
6.24225763487909
30
0.000000000000000
11
-24.4627927146575
21
6.14519383719859
31
0.000000000000000
  0
LINE
  5
F108CA
330
F108CB
100
AcDbEntity
8
Geo
100
AcDbLine
10
-24.4627927146575
20
6.14519383719859
30
0.000000000000000
11
-24.3627927146575
21
6.04836510143809
31
0.000000000000000
  0
LINE
  5
F108CC
330
F108CD
100
AcDbEntity
8
Geo
100
AcDbLine
10
-24.3627927146575
20
6.04836510143809
30
0.000000000000000
11
-24.2627927146575
21
5.95178655689054
31
0.000000000000000
  0
LINE
  5
F108CE
330
F108CF
100
AcDbEntity
8
Geo
100
AcDbLine
10
-24.2627927146575
20
5.95178655689054
30
0.000000000000000
11
-24.1627927146575
21
5.85547329375704
31
0.000000000000000
  0
LINE
  5
F108D0
330
F108D1
100
AcDbEntity
8
Geo
100
AcDbLine
10
-24.1627927146575
20
5.85547329375704
30
0.000000000000000
11
-24.0627927146575
21
5.75944036078901
31
0.000000000000000
  0
LINE
  5
F108D2
330
F108D3
100
AcDbEntity
8
Geo
100
AcDbLine
10
-24.0627927146575
20
5.75944036078901
30
0.000000000000000
11
-23.9627927146575
21
5.66370276293685
31
0.000000000000000
  0
LINE
  5
F108D4
330
F108D5
100
AcDbEntity
8
Geo
100
AcDbLine
10
-23.9627927146575
20
5.66370276293685
30
0.000000000000000
11
-23.8627927146575
21
5.56827545900544
31
0.000000000000000
  0
LINE
  5
F108D6
330
F108D7
100
AcDbEntity
8
Geo
100
AcDbLine
10
-23.8627927146575
20
5.56827545900544
30
0.000000000000000
11
-23.7627927146575
21
5.47317335931688
31
0.000000000000000
  0
LINE
  5
F108D8
330
F108D9
100
AcDbEntity
8
Geo
100
AcDbLine
10
-23.7627927146575
20
5.47317335931688
30
0.000000000000000
11
-23.6627927146575
21
5.37841132338076
31
0.000000000000000
  0
LINE
  5
F108DA
330
F108DB
100
AcDbEntity
8
Geo
100
AcDbLine
10
-23.6627927146575
20
5.37841132338076
30
0.000000000000000
11
-23.5627927146575
21
5.28400415757240
31
0.000000000000000
  0
LINE
  5
F108DC
330
F108DD
100
AcDbEntity
8
Geo
100
AcDbLine
10
-23.5627927146575
20
5.28400415757240
30
0.000000000000000
11
-23.4627927146575
21
5.18996661281939
31
0.000000000000000
  0
LINE
  5
F108DE
330
F108DF
100
AcDbEntity
8
Geo
100
AcDbLine
10
-23.4627927146575
20
5.18996661281939
30
0.000000000000000
11
-23.3627927146575
21
5.09631338229677
31
0.000000000000000
  0
LINE
  5
F108E0
330
F108E1
100
AcDbEntity
8
Geo
100
AcDbLine
10
-23.3627927146575
20
5.09631338229677
30
0.000000000000000
11
-23.2627927146575
21
5.00305909913128
31
0.000000000000000
  0
LINE
  5
F108E2
330
F108E3
100
AcDbEntity
8
Geo
100
AcDbLine
10
-23.2627927146575
20
5.00305909913128
30
0.000000000000000
11
-23.1627927146575
21
4.91021833411494
31
0.000000000000000
  0
LINE
  5
F108E4
330
F108E5
100
AcDbEntity
8
Geo
100
AcDbLine
10
-23.1627927146575
20
4.91021833411494
30
0.000000000000000
11
-23.0627927146575
21
4.81780559342839
31
0.000000000000000
  0
LINE
  5
F108E6
330
F108E7
100
AcDbEntity
8
Geo
100
AcDbLine
10
-23.0627927146575
20
4.81780559342839
30
0.000000000000000
11
-22.9627927146575
21
4.72583531637436
31
0.000000000000000
  0
LINE
  5
F108E8
330
F108E9
100
AcDbEntity
8
Geo
100
AcDbLine
10
-22.9627927146575
20
4.72583531637436
30
0.000000000000000
11
-22.8627927146575
21
4.63432187312153
31
0.000000000000000
  0
LINE
  5
F108EA
330
F108EB
100
AcDbEntity
8
Geo
100
AcDbLine
10
-22.8627927146575
20
4.63432187312153
30
0.000000000000000
11
-22.7627927146575
21
4.54327956245921
31
0.000000000000000
  0
LINE
  5
F108EC
330
F108ED
100
AcDbEntity
8
Geo
100
AcDbLine
10
45.2372072853425
20
14.6496097137901
30
0.000000000000000
11
45.2372072853425
21
7.64960971379011
31
0.000000000000000
  0
LINE
  5
F108EE
330
F108EF
100
AcDbEntity
8
Geo
100
AcDbLine
10
-37.7627927146575
20
7.64960971379011
30
0.000000000000000
11
-37.7627927146575
21
-0.350390286209887
31
0.000000000000000
  0
LINE
  5
F108F0
330
F108F1
100
AcDbEntity
8
Geo
100
AcDbLine
10
-37.7627927146575
20
-0.350390286209887
30
0.000000000000000
11
-17.7627927146575
21
-0.350390286209887
31
0.000000000000000
  0
LINE
  5
F108F2
330
F108F3
100
AcDbEntity
8
Geo
100
AcDbLine
10
-17.7627927146575
20
-0.350390286209887
30
0.000000000000000
11
44.2372072853425
21
-0.350390286209887
31
0.000000000000000
  0
LINE
  5
F108F4
330
F108F5
100
AcDbEntity
8
Geo
100
AcDbLine
10
44.2372072853425
20
-0.350390286209887
30
0.000000000000000
11
45.2372072853425
21
0.649609713790112
31
0.000000000000000
  0
LINE
  5
F108F6
330
F108F7
100
AcDbEntity
8
Geo
100
AcDbLine
10
-37.7627927146575
20
15.6496097137901
30
0.000000000000000
11
-37.7627927146575
21
-0.350390286209887
31
0.000000000000000
  0
LINE
  5
F108F8
330
F108F9
100
AcDbEntity
8
Geo
100
AcDbLine
10
-17.7627927146575
20
15.6496097137901
30
0.000000000000000
11
-17.7627927146575
21
-0.350390286209887
31
0.000000000000000
  0
LINE
  5
F108FA
330
F108FB
100
AcDbEntity
8
Geo
100
AcDbLine
10
-17.7627927146575
20
15.6496097137901
30
0.000000000000000
11
-17.7627927146575
21
-0.350390286209887
31
0.000000000000000
  0
LINE
  5
F108FC
330
F108FD
100
AcDbEntity
8
Geo
100
AcDbLine
10
44.2372072853425
20
15.6496097137901
30
0.000000000000000
11
44.2372072853425
21
-0.350390286209887
31
0.000000000000000
  0
LINE
  5
F108FE
330
F108FF
100
AcDbEntity
8
Geo
100
AcDbLine
10
45.2372072853425
20
14.6496097137901
30
0.000000000000000
11
45.2372072853425
21
0.649609713790112
31
0.000000000000000
  0
LINE
  5
F10900
330
F10901
100
AcDbEntity
8
Geo
 6
Dashdot
100
AcDbLine
10
-37.7627927146575
20
7.64960971379011
30
0.000000000000000
11
45.2372072853425
21
7.64960971379011
31
0.000000000000000
  0
LWPOLYLINE
  5
F10902
330
F10903
100
AcDbEntity
8
Rahmen
100
AcDbPolyline
90
   4
70
   1
43
   0.0
 10
-134.596704249783
 20
99.9002601908066
 10
143.339115351258
 20
99.9002601908066
 10
143.339115351258
 20
-100.082393755421
 10
-134.596704249783
 20
-100.082393755421
  0
TEXT
  5
F10904
330
F10905
 100
AcDbEntity
8
Text
100
AcDbText
10
-133.503902862099
20
-99.5823937554206
30
0.000000000000000
40
1.00000000000000
1
ISBESketcher - ©ISBE GmbH      lizensiert für: Schmid Werkzeuge
100
AcDbText
  0
LWPOLYLINE
  5
F10906
330
F10907
100
AcDbEntity
8
Rahmen
100
AcDbPolyline
90
   4
70
   1
43
   0.0
 10
103.451864700781
 20
-97.1682567215958
 10
143.339115351258
 20
-97.1682567215958
 10
143.339115351258
 20
-100.082393755421
 10
103.451864700781
 20
-100.082393755421
  0
TEXT
  5
F10908
330
F10909
 100
AcDbEntity
8
Text
100
AcDbText
10
104.500000000000
20
-99.4570685169124
30
0.000000000000000
40
1.50000000000000
1
Ers. durch:
100
AcDbText
  0
TEXT
  5
F1090A
330
F1090B
 100
AcDbEntity
8
Text
100
AcDbText
10
0.000000000000000
20
0.500000000000000
30
0.000000000000000
40
1.50000000000000
1

100
AcDbText
  0
LWPOLYLINE
  5
F1090C
330
F1090D
100
AcDbEntity
8
Rahmen
100
AcDbPolyline
90
   4
70
   1
43
   0.0
 10
63.3824804856895
 20
-97.1682567215958
 10
103.451864700781
 20
-97.1682567215958
 10
103.451864700781
 20
-100.082393755421
 10
63.3824804856895
 20
-100.082393755421
  0
TEXT
  5
F1090E
330
F1090F
 100
AcDbEntity
8
Text
100
AcDbText
10
64.5000000000000
20
-99.4570685169124
30
0.000000000000000
40
1.50000000000000
1
Ers. für:
100
AcDbText
  0
TEXT
  5
F10910
330
F10911
 100
AcDbEntity
8
Text
100
AcDbText
10
0.000000000000000
20
0.500000000000000
30
0.000000000000000
40
1.50000000000000
1

100
AcDbText
  0
LWPOLYLINE
  5
F10912
330
F10913
100
AcDbEntity
8
Rahmen
100
AcDbPolyline
90
   4
70
   1
43
   0.0
 10
130.043365134432
 20
-94.0719861231570
 10
143.339115351258
 20
-94.0719861231570
 10
143.339115351258
 20
-97.1682567215958
 10
130.043365134432
 20
-97.1682567215958
  0
TEXT
  5
F10914
330
F10915
 100
AcDbEntity
8
Text
100
AcDbText
10
131.166666666667
20
-96.4570685169124
30
0.000000000000000
40
1.50000000000000
1
Blätter
100
AcDbText
  0
TEXT
  5
F10916
330
F10917
 100
AcDbEntity
8
Text
100
AcDbText
10
0.000000000000000
20
0.500000000000000
30
0.000000000000000
40
1.50000000000000
1

100
AcDbText
  0
LWPOLYLINE
  5
F10918
330
F10919
100
AcDbEntity
8
Rahmen
100
AcDbPolyline
90
   4
70
   1
43
   0.0
 10
130.043365134432
 20
-91.1578490893322
 10
143.339115351258
 20
-91.1578490893322
 10
143.339115351258
 20
-94.0719861231570
 10
130.043365134432
 20
-94.0719861231570
  0
TEXT
  5
F1091A
330
F1091B
 100
AcDbEntity
8
Text
100
AcDbText
10
131.166666666667
20
-93.4570685169124
30
0.000000000000000
40
1.50000000000000
1
Blatt
100
AcDbText
  0
TEXT
  5
F1091C
330
F1091D
 100
AcDbEntity
8
Text
100
AcDbText
10
0.000000000000000
20
0.500000000000000
30
0.000000000000000
40
1.50000000000000
1

100
AcDbText
  0
LWPOLYLINE
  5
F1091E
330
F1091F
100
AcDbEntity
8
Rahmen
100
AcDbPolyline
90
   4
70
   1
43
   0.0
 10
63.3824804856895
 20
-91.1578490893322
 10
130.043365134432
 20
-91.1578490893322
 10
130.043365134432
 20
-97.1682567215958
 10
63.3824804856895
 20
-97.1682567215958
  0
TEXT
  5
F10920
330
F10921
 100
AcDbEntity
8
Text
100
AcDbText
10
64.5000000000000
20
-93.4570685169124
30
0.000000000000000
40
1.50000000000000
1
Datum:
100
AcDbText
  0
TEXT
  5
F10922
330
F10923
 100
AcDbEntity
8
Text
100
AcDbText
10
90.9139924833767
20
-96.4570685169124
30
0.000000000000000
40
1.50000000000000
1
29.09.2021
100
AcDbText
  0
LWPOLYLINE
  5
F10924
330
F10925
100
AcDbEntity
8
Rahmen
100
AcDbPolyline
90
   4
70
   1
43
   0.0
 10
63.3824804856895
 20
-85.1474414570685
 10
143.339115351258
 20
-85.1474414570685
 10
143.339115351258
 20
-91.1578490893322
 10
63.3824804856895
 20
-91.1578490893322
  0
TEXT
  5
F10926
330
F10927
 100
AcDbEntity
8
Text
100
AcDbText
10
0.000000000000000
20
0.500000000000000
30
0.000000000000000
40
1.50000000000000
1

100
AcDbText
  0
TEXT
  5
F10928
330
F10929
 100
AcDbEntity
8
Text
100
AcDbText
10
72.9926279271466
20
-89.6254697889564
30
0.000000000000000
40
2.50000000000000
1
VHM-Schlichtfräser 0160-160-b
100
AcDbText
  0
LWPOLYLINE
  5
F1092A
330
F1092B
100
AcDbEntity
8
Rahmen
100
AcDbPolyline
90
   4
70
   1
43
   0.0
 10
103.451864700781
 20
-79.1370338248049
 10
143.339115351258
 20
-79.1370338248049
 10
143.339115351258
 20
-85.1474414570685
 10
103.451864700781
 20
-85.1474414570685
  0
TEXT
  5
F1092C
330
F1092D
 100
AcDbEntity
8
Text
100
AcDbText
10
104.500000000000
20
-81.4570685169124
30
0.000000000000000
40
1.50000000000000
1
Zu bearb. Material:
100
AcDbText
  0
TEXT
  5
F1092E
330
F1092F
 100
AcDbEntity
8
Text
100
AcDbText
10
0.000000000000000
20
0.500000000000000
30
0.000000000000000
40
1.50000000000000
1

100
AcDbText
  0
LWPOLYLINE
  5
F10930
330
F10931
100
AcDbEntity
8
Rahmen
100
AcDbPolyline
90
   4
70
   1
43
   0.0
 10
63.3824804856895
 20
-79.1370338248049
 10
103.451864700781
 20
-79.1370338248049
 10
103.451864700781
 20
-85.1474414570685
 10
63.3824804856895
 20
-85.1474414570685
  0
TEXT
  5
F10932
330
F10933
 100
AcDbEntity
8
Text
100
AcDbText
10
64.5000000000000
20
-81.4570685169124
30
0.000000000000000
40
1.50000000000000
1
Werkstoff:
100
AcDbText
  0
TEXT
  5
F10934
330
F10935
 100
AcDbEntity
8
Text
100
AcDbText
10
80.7679965307892
20
-84.4570685169124
30
0.000000000000000
40
1.50000000000000
1
VHM
100
AcDbText
  0
LWPOLYLINE
  5
F10936
330
F10937
100
AcDbEntity
8
Rahmen
100
AcDbPolyline
90
   4
70
   1
43
   0.0
 10
103.451864700781
 20
-76.0407632263660
 10
143.339115351258
 20
-76.0407632263660
 10
143.339115351258
 20
-79.1370338248049
 10
103.451864700781
 20
-79.1370338248049
  0
TEXT
  5
F10938
330
F10939
 100
AcDbEntity
8
Text
100
AcDbText
10
0.000000000000000
20
0.500000000000000
30
0.000000000000000
40
1.50000000000000
1

100
AcDbText
  0
TEXT
  5
F1093A
330
F1093B
 100
AcDbEntity
8
Text
100
AcDbText
10
0.000000000000000
20
0.500000000000000
30
0.000000000000000
40
1.50000000000000
1

100
AcDbText
  0
LWPOLYLINE
  5
F1093C
330
F1093D
100
AcDbEntity
8
Rahmen
100
AcDbPolyline
90
   4
70
   1
43
   0.0
 10
63.3824804856895
 20
-76.0407632263660
 10
103.451864700781
 20
-76.0407632263660
 10
103.451864700781
 20
-79.1370338248049
 10
63.3824804856895
 20
-79.1370338248049
  0
TEXT
  5
F1093E
330
F1093F
 100
AcDbEntity
8
Text
100
AcDbText
10
64.5000000000000
20
-78.4570685169124
30
0.000000000000000
40
1.50000000000000
1
Maßstab:
100
AcDbText
  0
TEXT
  5
F10940
330
F10941
 100
AcDbEntity
8
Text
100
AcDbText
10
89.0411968777103
20
-78.4570685169124
30
0.000000000000000
40
1.50000000000000
1
1 : 1
100
AcDbText
0
VIEWPORT
5
294
102
{ACAD_XDICTIONARY
360
58A
102
}
330
25D
100
AcDbEntity
67
1
8
0
60
1
100
AcDbViewport
10
0.0
20
0.0
30
0.0
40
10.0
41
10.0
68
-1
69
1
12
0.0
22
0.0
13
0.0
23
0.0
14
1.0
24
1.0
15
0.0
25
0.0
16
0.0
26
0.0
36
1.0
17
0.0
27
0.0
37
0.0
42
0.0
43
0.0
44
0.0
45
10.0
50
0.0
51
0.0000000000007958
72
100
90
32800
1

281
0
71
0
74
0
110
0.0
120
0.0
130
0.0
111
1.0
121
0.0
131
0.0
112
0.0
122
1.0
132
0.0
79
0
146
0.0
1001
VD_INVISIBLE_NOT_FOR_READ
1000
VD_INVISIBLE_NOT_FOR_READ
0
VIEWPORT
5
295
102
{ACAD_XDICTIONARY
360
58C
102
}
330
25D
100
AcDbEntity
67
1
8
0
60
1
100
AcDbViewport
10
0.0
20
0.0
30
0.0
40
10.0
41
10.0
68
0
69
2
12
0.0
22
0.0
13
0.0
23
0.0
14
1.0
24
1.0
15
0.0
25
0.0
16
0.0
26
0.0
36
1.0
17
0.0
27
0.0
37
0.0
42
0.0
43
0.0
44
0.0
45
10.0
50
0.0
51
0.0000000000007958
72
100
90
163872
1

281
0
71
0
74
0
110
0.0
120
0.0
130
0.0
111
1.0
121
0.0
131
0.0
112
0.0
122
1.0
132
0.0
79
0
146
0.0
1001
VD_INVISIBLE_NOT_FOR_READ
1000
VD_INVISIBLE_NOT_FOR_READ
0
ENDSEC
0
SECTION
2
OBJECTS
0
DICTIONARY
5
13
330
0
100
AcDbDictionary
281
1
3
ACAD_COLOR
350
FA7
3
ACAD_GROUP
350
14
3
ACAD_LAYOUT
350
FCF
3
ACAD_MATERIAL
350
F7A
3
ACAD_MLEADERSTYLE
350
FCD
3
ACAD_MLINESTYLE
350
16
3
ACAD_PLOTSETTINGS
350
17
3
ACAD_PLOTSTYLENAME
350
18
3
ACAD_SCALELIST
350
FAB
3
ACAD_TABLESTYLE
350
FA8
3
ACAD_VISUALSTYLE
350
F93
3
ACDB_RECOMPOSE_DATA
350
107E
3
AcDbVariableDictionary
350
FF0
3
DWGPROPS
350
107F
0
DICTIONARY
5
F1000F
330
F1000E
100
AcDbDictionary
280
1
281
1
3
ACAD_MTEXT_2008_RT
360
F10010
0
DICTIONARY
5
F10014
330
F10013
100
AcDbDictionary
280
1
281
1
3
ACAD_MTEXT_2008_RT
360
F10015
0
DICTIONARY
5
F10005
330
F10004
100
AcDbDictionary
280
1
281
1
3
ACAD_MTEXT_2008_RT
360
F10006
0
DICTIONARY
5
F1000A
330
F10009
100
AcDbDictionary
280
1
281
1
3
ACAD_MTEXT_2008_RT
360
F1000B
0
DICTIONARY
5
FA7
102
{ACAD_REACTORS
330
13
102
}
330
13
100
AcDbDictionary
281
1
0
DICTIONARY
5
14
330
13
100
AcDbDictionary
281
1
0
DICTIONARY
5
FCF
102
{ACAD_REACTORS
330
13
102
}
330
13
100
AcDbDictionary
281
1
3
Layout1
350
FD1
3
Model
350
FD0
0
DICTIONARY
5
F7A
102
{ACAD_REACTORS
330
13
102
}
330
13
100
AcDbDictionary
281
1
3
ByBlock
350
F83
3
ByLayer
350
F7B
3
Global
350
F8B
0
DICTIONARY
5
FCD
102
{ACAD_REACTORS
330
13
102
}
330
13
100
AcDbDictionary
281
1
3
Standard
350
FCE
0
DICTIONARY
5
16
330
13
100
AcDbDictionary
281
1
3
Standard
350
FAA
0
DICTIONARY
5
17
102
{ACAD_REACTORS
330
13
102
}
330
13
100
AcDbDictionary
281
1
0
ACDBDICTIONARYWDFLT
5
18
102
{ACAD_REACTORS
330
13
102
}
330
13
100
AcDbDictionary
281
1
3
Normal
350
19
100
AcDbDictionaryWithDefault
340
19
0
DICTIONARY
5
FAB
102
{ACAD_REACTORS
330
13
102
}
330
13
100
AcDbDictionary
281
1
3
A0
350
FAC
3
A1
350
FAD
3
A2
350
FAE
3
A3
350
FAF
3
A4
350
FB0
3
A5
350
FB1
3
A6
350
FB2
3
A7
350
FB3
3
A8
350
FB4
3
A9
350
FB5
3
B0
350
FB6
3
B1
350
FB7
3
B2
350
FB8
3
B3
350
FB9
3
B4
350
FBA
3
B5
350
FBB
3
B6
350
FBC
3
B7
350
FBD
3
B8
350
FBE
3
B9
350
FBF
3
C0
350
FC0
3
C1
350
FC1
3
C2
350
FC2
3
C3
350
FC3
3
C4
350
FC4
3
C5
350
FC5
3
C6
350
FC6
3
C7
350
FC7
3
C8
350
FC8
3
C9
350
FC9
3
D0
350
FCA
3
D1
350
FCB
3
D2
350
FCC
0
DICTIONARY
5
FA8
102
{ACAD_REACTORS
330
13
102
}
330
13
100
AcDbDictionary
281
1
3
Standard
350
FA9
0
DICTIONARY
5
F93
102
{ACAD_REACTORS
330
13
102
}
330
13
100
AcDbDictionary
281
1
3
2dWireframe
350
F99
3
3D Hidden
350
F9B
3
3dWireframe
350
F9A
3
Basic
350
F98
3
Brighten
350
F9F
3
ColorChange
350
FA3
3
Conceptual
350
F9C
3
Dim
350
F9E
3
EdgeColorOff
350
FA6
3
Facepattern
350
FA2
3
Flat
350
F94
3
FlatWithEdges
350
F95
3
Gouraud
350
F96
3
GouraudWithEdges
350
F97
3
JitterOff
350
FA4
3
Linepattern
350
FA1
3
OverhangOff
350
FA5
3
Realistic
350
F9D
3
Thicken
350
FA0
0
XRECORD
5
107E
102
{ACAD_REACTORS
330
13
102
}
330
13
100
AcDbXrecord
280
1
90
1
330
FA9
330
F1000E
330
F10013
330
F10004
330
F10009
0
DICTIONARY
5
FF0
102
{ACAD_REACTORS
330
13
102
}
330
13
100
AcDbDictionary
281
1
3
CANNOSCALE
350
FF3
3
CMLEADERSTYLE
350
FF2
3
CTABLESTYLE
350
FF1
3
DIMASSOC
350
FF6
3
INDEXCTL
350
FF5
3
SORTENTS
350
FF4
3
XCLIPFRAME
350
1078
0
XRECORD
5
107F
102
{ACAD_REACTORS
330
13
102
}
330
13
100
AcDbXrecord
280
1
1
DWGPROPS COOKIE
2

3

4

6

7

8

9

300
=
301
=
302
=
303
=
304
=
305
=
306
=
307
=
308
=
309
=
40
0.0
41
0.0
42
0.0
1

90
0
0
XRECORD
5
F10010
102
{ACAD_REACTORS
330
F1000F
102
}
330
F1000F
100
AcDbXrecord
280
1
40
48458.0
1
20
0
XRECORD
5
F10015
102
{ACAD_REACTORS
330
F10014
102
}
330
F10014
100
AcDbXrecord
280
1
40
48458.0
1
83
0
XRECORD
5
F10006
102
{ACAD_REACTORS
330
F10005
102
}
330
F10005
100
AcDbXrecord
280
1
40
48458.0
1
Ø16
0
LAYOUT
5
FD1
102
{ACAD_XDICTIONARY
360
10A9
102
}
102
{ACAD_REACTORS
330
FCF
102
}
330
FCF
100
AcDbPlotSettings
1

2
Microsoft XPS Document Writer
4

6

40
0.0
41
0.0
42
0.0
43
0.0
44
0.0
45
0.0
46
0.0
47
0.0
48
0.0
49
0.0
140
0.0
141
0.0
142
1.0
143
1.0
70
688
72
0
73
0
74
5
7

75
16
147
1.0
148
0.0
149
0.0
100
AcDbLayout
1
Layout1
70
1
71
1
10
0.0
20
0.0
11
12.0
21
9.0
12
0.0
22
0.0
32
0.0
14
1.000000000000000E+20
24
1.000000000000000E+20
34
1.000000000000000E+20
15
-1.000000000000000E+20
25
-1.000000000000000E+20
35
-1.000000000000000E+20
146
0.0
13
0.0
23
0.0
33
0.0
16
1.0
26
0.0
36
0.0
17
0.0
27
1.0
37
0.0
76
0
330
25D
0
LAYOUT
5
FD0
102
{ACAD_XDICTIONARY
360
10A7
102
}
102
{ACAD_REACTORS
330
FCF
102
}
330
FCF
100
AcDbPlotSettings
1

2
Microsoft XPS Document Writer
4

6

40
0.0
41
0.0
42
0.0
43
0.0
44
0.0
45
0.0
46
0.0
47
0.0
48
0.0
49
0.0
140
0.0
141
0.0
142
1.0
143
1.0
70
1712
72
0
73
0
74
0
7

75
0
147
1.0
148
0.0
149
0.0
100
AcDbLayout
1
Model
70
1
71
0
10
0.0
20
0.0
11
12.0
21
9.0
12
0.0
22
0.0
32
0.0
14
0.0
24
0.0
34
0.0
15
0.0
25
0.0
35
0.0
146
0.0
13
0.0
23
0.0
33
0.0
16
1.0
26
0.0
36
0.0
17
0.0
27
1.0
37
0.0
76
0
330
261
331
26B
0
MATERIAL
5
F83
102
{ACAD_XDICTIONARY
360
F84
102
}
102
{ACAD_REACTORS
330
F7A
102
}
330
F7A
100
AcDbMaterial
1
ByBlock
72
0
43
0.0208333333333333
43
0.0
43
0.0
43
0.0
43
0.0
43
0.0208333333333333
43
0.0
43
0.0
43
0.0
43
0.0
43
1.0
43
0.0
43
0.0
43
0.0
43
0.0
43
1.0
77
0
47
0.0208333333333333
47
0.0
47
0.0
47
0.0
47
0.0
47
0.0208333333333333
47
0.0
47
0.0
47
0.0
47
0.0
47
1.0
47
0.0
47
0.0
47
0.0
47
0.0
47
1.0
171
0
49
0.0208333333333333
49
0.0
49
0.0
49
0.0
49
0.0
49
0.0208333333333333
49
0.0
49
0.0
49
0.0
49
0.0
49
1.0
49
0.0
49
0.0
49
0.0
49
0.0
49
1.0
175
0
142
0.0208333333333333
142
0.0
142
0.0
142
0.0
142
0.0
142
0.0208333333333333
142
0.0
142
0.0
142
0.0
142
0.0
142
1.0
142
0.0
142
0.0
142
0.0
142
0.0
142
1.0
179
0
144
0.0208333333333333
144
0.0
144
0.0
144
0.0
144
0.0
144
0.0208333333333333
144
0.0
144
0.0
144
0.0
144
0.0
144
1.0
144
0.0
144
0.0
144
0.0
144
0.0
144
1.0
147
0.0208333333333333
147
0.0
147
0.0
147
0.0
147
0.0
147
0.0208333333333333
147
0.0
147
0.0
147
0.0
147
0.0
147
1.0
147
0.0
147
0.0
147
0.0
147
0.0
147
1.0
0
MATERIAL
5
F7B
102
{ACAD_XDICTIONARY
360
F7C
102
}
102
{ACAD_REACTORS
330
F7A
102
}
330
F7A
100
AcDbMaterial
1
ByLayer
72
0
43
0.0208333333333333
43
0.0
43
0.0
43
0.0
43
0.0
43
0.0208333333333333
43
0.0
43
0.0
43
0.0
43
0.0
43
1.0
43
0.0
43
0.0
43
0.0
43
0.0
43
1.0
77
0
47
0.0208333333333333
47
0.0
47
0.0
47
0.0
47
0.0
47
0.0208333333333333
47
0.0
47
0.0
47
0.0
47
0.0
47
1.0
47
0.0
47
0.0
47
0.0
47
0.0
47
1.0
171
0
49
0.0208333333333333
49
0.0
49
0.0
49
0.0
49
0.0
49
0.0208333333333333
49
0.0
49
0.0
49
0.0
49
0.0
49
1.0
49
0.0
49
0.0
49
0.0
49
0.0
49
1.0
175
0
142
0.0208333333333333
142
0.0
142
0.0
142
0.0
142
0.0
142
0.0208333333333333
142
0.0
142
0.0
142
0.0
142
0.0
142
1.0
142
0.0
142
0.0
142
0.0
142
0.0
142
1.0
179
0
144
0.0208333333333333
144
0.0
144
0.0
144
0.0
144
0.0
144
0.0208333333333333
144
0.0
144
0.0
144
0.0
144
0.0
144
1.0
144
0.0
144
0.0
144
0.0
144
0.0
144
1.0
147
0.0208333333333333
147
0.0
147
0.0
147
0.0
147
0.0
147
0.0208333333333333
147
0.0
147
0.0
147
0.0
147
0.0
147
1.0
147
0.0
147
0.0
147
0.0
147
0.0
147
1.0
0
MATERIAL
5
F8B
102
{ACAD_XDICTIONARY
360
F8C
102
}
102
{ACAD_REACTORS
330
F7A
102
}
330
F7A
100
AcDbMaterial
1
Global
72
0
43
0.0208333333333333
43
0.0
43
0.0
43
0.0
43
0.0
43
0.0208333333333333
43
0.0
43
0.0
43
0.0
43
0.0
43
1.0
43
0.0
43
0.0
43
0.0
43
0.0
43
1.0
77
0
47
0.0208333333333333
47
0.0
47
0.0
47
0.0
47
0.0
47
0.0208333333333333
47
0.0
47
0.0
47
0.0
47
0.0
47
1.0
47
0.0
47
0.0
47
0.0
47
0.0
47
1.0
171
0
49
0.0208333333333333
49
0.0
49
0.0
49
0.0
49
0.0
49
0.0208333333333333
49
0.0
49
0.0
49
0.0
49
0.0
49
1.0
49
0.0
49
0.0
49
0.0
49
0.0
49
1.0
175
0
142
0.0208333333333333
142
0.0
142
0.0
142
0.0
142
0.0
142
0.0208333333333333
142
0.0
142
0.0
142
0.0
142
0.0
142
1.0
142
0.0
142
0.0
142
0.0
142
0.0
142
1.0
179
0
144
0.0208333333333333
144
0.0
144
0.0
144
0.0
144
0.0
144
0.0208333333333333
144
0.0
144
0.0
144
0.0
144
0.0
144
1.0
144
0.0
144
0.0
144
0.0
144
0.0
144
1.0
147
0.0208333333333333
147
0.0
147
0.0
147
0.0
147
0.0
147
0.0208333333333333
147
0.0
147
0.0
147
0.0
147
0.0
147
1.0
147
0.0
147
0.0
147
0.0
147
0.0
147
1.0
0
MLEADERSTYLE
5
FCE
102
{ACAD_REACTORS
330
FCD
102
}
330
FCD
100
AcDbMLeaderStyle
170
2
171
1
172
0
90
2
40
0.0
41
0.0
173
1
91
-1056964608
340
256
92
-2
290
1
42
0.09
291
1
43
0.36
3
Standard
44
0.18
300

342
253
174
1
178
6
175
1
176
0
93
-1056964608
45
0.18
292
0
297
0
46
0.18
94
-1056964608
47
1.0
49
1.0
140
1.0
293
1
141
0.0
294
1
177
0
142
1.0
295
0
296
0
143
0.125
1001
ACAD_MLEADERVER
1070
2
0
MLINESTYLE
5
FAA
102
{ACAD_REACTORS
330
16
102
}
330
16
100
AcDbMlineStyle
2
STANDARD
70
0
3

62
256
51
90.0
52
90.0
71
2
49
0.5
62
256
6
BYLAYER
49
-0.5
62
256
6
BYLAYER
0
ACDBPLACEHOLDER
5
19
102
{ACAD_REACTORS
330
18
102
}
330
18
0
SCALE
5
FAC
102
{ACAD_REACTORS
330
FAB
102
}
330
FAB
100
AcDbScale
70
0
300
1:1
140
1.0
141
1.0
290
1
0
SCALE
5
FAD
102
{ACAD_REACTORS
330
FAB
102
}
330
FAB
100
AcDbScale
70
0
300
1:2
140
1.0
141
2.0
290
0
0
SCALE
5
FAE
102
{ACAD_REACTORS
330
FAB
102
}
330
FAB
100
AcDbScale
70
0
300
1:4
140
1.0
141
4.0
290
0
0
SCALE
5
FAF
102
{ACAD_REACTORS
330
FAB
102
}
330
FAB
100
AcDbScale
70
0
300
1:5
140
1.0
141
5.0
290
0
0
SCALE
5
FB0
102
{ACAD_REACTORS
330
FAB
102
}
330
FAB
100
AcDbScale
70
0
300
1:8
140
1.0
141
8.0
290
0
0
SCALE
5
FB1
102
{ACAD_REACTORS
330
FAB
102
}
330
FAB
100
AcDbScale
70
0
300
1:10
140
1.0
141
10.0
290
0
0
SCALE
5
FB2
102
{ACAD_REACTORS
330
FAB
102
}
330
FAB
100
AcDbScale
70
0
300
1:16
140
1.0
141
16.0
290
0
0
SCALE
5
FB3
102
{ACAD_REACTORS
330
FAB
102
}
330
FAB
100
AcDbScale
70
0
300
1:20
140
1.0
141
20.0
290
0
0
SCALE
5
FB4
102
{ACAD_REACTORS
330
FAB
102
}
330
FAB
100
AcDbScale
70
0
300
1:30
140
1.0
141
30.0
290
0
0
SCALE
5
FB5
102
{ACAD_REACTORS
330
FAB
102
}
330
FAB
100
AcDbScale
70
0
300
1:40
140
1.0
141
40.0
290
0
0
SCALE
5
FB6
102
{ACAD_REACTORS
330
FAB
102
}
330
FAB
100
AcDbScale
70
0
300
1:50
140
1.0
141
50.0
290
0
0
SCALE
5
FB7
102
{ACAD_REACTORS
330
FAB
102
}
330
FAB
100
AcDbScale
70
0
300
1:100
140
1.0
141
100.0
290
0
0
SCALE
5
FB8
102
{ACAD_REACTORS
330
FAB
102
}
330
FAB
100
AcDbScale
70
0
300
2:1
140
2.0
141
1.0
290
0
0
SCALE
5
FB9
102
{ACAD_REACTORS
330
FAB
102
}
330
FAB
100
AcDbScale
70
0
300
4:1
140
4.0
141
1.0
290
0
0
SCALE
5
FBA
102
{ACAD_REACTORS
330
FAB
102
}
330
FAB
100
AcDbScale
70
0
300
8:1
140
8.0
141
1.0
290
0
0
SCALE
5
FBB
102
{ACAD_REACTORS
330
FAB
102
}
330
FAB
100
AcDbScale
70
0
300
10:1
140
10.0
141
1.0
290
0
0
SCALE
5
FBC
102
{ACAD_REACTORS
330
FAB
102
}
330
FAB
100
AcDbScale
70
0
300
100:1
140
100.0
141
1.0
290
0
0
SCALE
5
FBD
102
{ACAD_REACTORS
330
FAB
102
}
330
FAB
100
AcDbScale
70
0
300
1/128" = 1'-0"
140
0.0078125
141
12.0
290
0
0
SCALE
5
FBE
102
{ACAD_REACTORS
330
FAB
102
}
330
FAB
100
AcDbScale
70
0
300
1/64" = 1'-0"
140
0.015625
141
12.0
290
0
0
SCALE
5
FBF
102
{ACAD_REACTORS
330
FAB
102
}
330
FAB
100
AcDbScale
70
0
300
1/32" = 1'-0"
140
0.03125
141
12.0
290
0
0
SCALE
5
FC0
102
{ACAD_REACTORS
330
FAB
102
}
330
FAB
100
AcDbScale
70
0
300
1/16" = 1'-0"
140
0.0625
141
12.0
290
0
0
SCALE
5
FC1
102
{ACAD_REACTORS
330
FAB
102
}
330
FAB
100
AcDbScale
70
0
300
3/32" = 1'-0"
140
0.09375
141
12.0
290
0
0
SCALE
5
FC2
102
{ACAD_REACTORS
330
FAB
102
}
330
FAB
100
AcDbScale
70
0
300
1/8" = 1'-0"
140
0.125
141
12.0
290
0
0
SCALE
5
FC3
102
{ACAD_REACTORS
330
FAB
102
}
330
FAB
100
AcDbScale
70
0
300
3/16" = 1'-0"
140
0.1875
141
12.0
290
0
0
SCALE
5
FC4
102
{ACAD_REACTORS
330
FAB
102
}
330
FAB
100
AcDbScale
70
0
300
1/4" = 1'-0"
140
0.25
141
12.0
290
0
0
SCALE
5
FC5
102
{ACAD_REACTORS
330
FAB
102
}
330
FAB
100
AcDbScale
70
0
300
3/8" = 1'-0"
140
0.375
141
12.0
290
0
0
SCALE
5
FC6
102
{ACAD_REACTORS
330
FAB
102
}
330
FAB
100
AcDbScale
70
0
300
1/2" = 1'-0"
140
0.5
141
12.0
290
0
0
SCALE
5
FC7
102
{ACAD_REACTORS
330
FAB
102
}
330
FAB
100
AcDbScale
70
0
300
3/4" = 1'-0"
140
0.75
141
12.0
290
0
0
SCALE
5
FC8
102
{ACAD_REACTORS
330
FAB
102
}
330
FAB
100
AcDbScale
70
0
300
1" = 1'-0"
140
1.0
141
12.0
290
0
0
SCALE
5
FC9
102
{ACAD_REACTORS
330
FAB
102
}
330
FAB
100
AcDbScale
70
0
300
1-1/2" = 1'-0"
140
1.5
141
12.0
290
0
0
SCALE
5
FCA
102
{ACAD_REACTORS
330
FAB
102
}
330
FAB
100
AcDbScale
70
0
300
3" = 1'-0"
140
3.0
141
12.0
290
0
0
SCALE
5
FCB
102
{ACAD_REACTORS
330
FAB
102
}
330
FAB
100
AcDbScale
70
0
300
6" = 1'-0"
140
6.0
141
12.0
290
0
0
SCALE
5
FCC
102
{ACAD_REACTORS
330
FAB
102
}
330
FAB
100
AcDbScale
70
0
300
1'-0" = 1'-0"
140
12.0
141
12.0
290
0
0
TABLESTYLE
5
FA9
102
{ACAD_XDICTIONARY
360
FF8
102
}
102
{ACAD_REACTORS
330
FA8
102
}
330
FA8
100
AcDbTableStyle
3
Standard
70
0
71
0
40
0.06
41
0.06
280
0
281
0
7
Standard
140
0.18
170
2
62
0
63
7
283
0
274
-2
284
1
64
0
275
-2
285
1
65
0
276
-2
286
1
66
0
277
-2
287
1
67
0
278
-2
288
1
68
0
279
-2
289
1
69
0
7
Standard
140
0.25
170
5
62
0
63
7
283
0
274
-2
284
1
64
0
275
-2
285
1
65
0
276
-2
286
1
66
0
277
-2
287
1
67
0
278
-2
288
1
68
0
279
-2
289
1
69
0
7
Standard
140
0.18
170
5
62
0
63
7
283
0
274
-2
284
1
64
0
275
-2
285
1
65
0
276
-2
286
1
66
0
277
-2
287
1
67
0
278
-2
288
1
68
0
279
-2
289
1
69
0
0
VISUALSTYLE
5
F99
102
{ACAD_XDICTIONARY
360
108A
102
}
102
{ACAD_REACTORS
330
F93
102
}
330
F93
100
AcDbVisualStyle
2

70
4
71
0
72
2
73
0
90
0
40
-0.6
41
-30.0
62
5
63
7
74
1
91
4
64
7
65
257
75
1
175
1
42
1.0
92
0
66
257
43
1.0
76
1
77
6
78
2
67
7
79
5
170
0
171
0
290
0
174
0
93
1
44
0.0
173
0
291
0
45
0.0
1001
ACAD
1000
AcDbSavedByObjectVersion
1070
0
0
VISUALSTYLE
5
F9B
102
{ACAD_XDICTIONARY
360
108E
102
}
102
{ACAD_REACTORS
330
F93
102
}
330
F93
100
AcDbVisualStyle
2

70
6
71
1
72
2
73
2
90
0
40
-0.6
41
-30.0
62
5
63
7
74
2
91
2
64
7
65
257
75
2
175
1
42
179.0
92
0
66
257
43
1.0
76
1
77
6
78
2
67
7
79
3
170
0
171
0
290
0
174
0
93
1
44
0.0
173
0
291
0
45
0.0
1001
ACAD
1000
AcDbSavedByObjectVersion
1070
0
0
VISUALSTYLE
5
F9A
102
{ACAD_XDICTIONARY
360
108C
102
}
102
{ACAD_REACTORS
330
F93
102
}
330
F93
100
AcDbVisualStyle
2

70
5
71
0
72
2
73
0
90
0
40
-0.6
41
-30.0
62
5
63
7
74
1
91
4
64
7
65
257
75
1
175
1
42
1.0
92
0
66
257
43
1.0
76
1
77
6
78
2
67
7
79
5
170
0
171
0
290
0
174
0
93
1
44
0.0
173
0
291
0
45
0.0
1001
ACAD
1000
AcDbSavedByObjectVersion
1070
0
0
VISUALSTYLE
5
F98
102
{ACAD_XDICTIONARY
360
1088
102
}
102
{ACAD_REACTORS
330
F93
102
}
330
F93
100
AcDbVisualStyle
2

70
7
71
1
72
0
73
1
90
0
40
-0.6
41
-30.0
62
5
63
7
74
0
91
4
64
7
65
257
75
1
175
1
42
1.0
92
8
66
7
43
1.0
76
1
77
6
78
2
67
7
79
5
170
0
171
0
290
0
174
0
93
1
44
0.0
173
0
291
1
45
0.0
1001
ACAD
1000
AcDbSavedByObjectVersion
1070
0
0
VISUALSTYLE
5
F9F
102
{ACAD_XDICTIONARY
360
1096
102
}
102
{ACAD_REACTORS
330
F93
102
}
330
F93
100
AcDbVisualStyle
2

70
12
71
2
72
2
73
0
90
0
40
-0.6
41
-30.0
62
5
63
7
74
1
91
4
64
7
65
257
75
1
175
1
42
1.0
92
8
66
7
43
1.0
76
1
77
6
78
2
67
7
79
5
170
0
171
0
290
0
174
0
93
1
44
50.0
173
0
291
1
45
0.0
1001
ACAD
1000
AcDbSavedByObjectVersion
1070
0
0
VISUALSTYLE
5
FA3
102
{ACAD_XDICTIONARY
360
109E
102
}
102
{ACAD_REACTORS
330
F93
102
}
330
F93
100
AcDbVisualStyle
2

70
16
71
2
72
2
73
3
90
0
40
-0.6
41
-30.0
62
5
63
8
74
1
91
4
64
7
65
257
75
1
175
1
42
1.0
92
8
66
8
43
1.0
76
1
77
6
78
2
67
7
79
5
170
0
171
0
290
0
174
0
93
1
44
0.0
173
0
291
1
45
0.0
1001
ACAD
1000
AcDbSavedByObjectVersion
1070
0
0
VISUALSTYLE
5
F9C
102
{ACAD_XDICTIONARY
360
1090
102
}
102
{ACAD_REACTORS
330
F93
102
}
330
F93
100
AcDbVisualStyle
2

70
9
71
3
72
2
73
0
90
0
40
-0.6
41
-30.0
62
5
63
7
74
2
91
2
64
7
65
257
75
1
175
1
42
179.0
92
8
66
7
43
1.0
76
1
77
6
78
2
67
7
79
3
170
0
171
0
290
0
174
0
93
1
44
0.0
173
0
291
0
45
0.0
1001
ACAD
1000
AcDbSavedByObjectVersion
1070
0
0
VISUALSTYLE
5
F9E
102
{ACAD_XDICTIONARY
360
1094
102
}
102
{ACAD_REACTORS
330
F93
102
}
330
F93
100
AcDbVisualStyle
2

70
11
71
2
72
2
73
0
90
0
40
-0.6
41
-30.0
62
5
63
7
74
1
91
4
64
7
65
257
75
1
175
1
42
1.0
92
8
66
7
43
1.0
76
1
77
6
78
2
67
7
79
5
170
0
171
0
290
0
174
0
93
1
44
-50.0
173
0
291
1
45
0.0
1001
ACAD
1000
AcDbSavedByObjectVersion
1070
0
0
VISUALSTYLE
5
FA6
102
{ACAD_XDICTIONARY
360
10A4
102
}
102
{ACAD_REACTORS
330
F93
102
}
330
F93
100
AcDbVisualStyle
2

70
22
71
2
72
2
73
0
90
0
40
-0.6
41
-30.0
62
5
63
7
74
1
91
4
64
7
65
257
75
1
175
1
42
1.0
92
8
66
7
43
1.0
76
1
77
6
78
2
67
7
79
5
170
0
171
0
290
0
174
0
93
1
44
0.0
173
0
291
1
45
0.0
1001
ACAD
1000
AcDbSavedByObjectVersion
1070
0
0
VISUALSTYLE
5
FA2
102
{ACAD_XDICTIONARY
360
109C
102
}
102
{ACAD_REACTORS
330
F93
102
}
330
F93
100
AcDbVisualStyle
2

70
15
71
2
72
2
73
0
90
0
40
-0.6
41
-30.0
62
5
63
7
74
1
91
4
64
7
65
257
75
1
175
1
42
1.0
92
8
66
7
43
1.0
76
1
77
6
78
2
67
7
79
5
170
0
171
0
290
0
174
0
93
1
44
0.0
173
0
291
1
45
0.0
1001
ACAD
1000
AcDbSavedByObjectVersion
1070
0
0
VISUALSTYLE
5
F94
102
{ACAD_XDICTIONARY
360
1080
102
}
102
{ACAD_REACTORS
330
F93
102
}
330
F93
100
AcDbVisualStyle
2

70
0
71
2
72
1
73
1
90
2
40
-0.6
41
30.0
62
5
63
7
74
0
91
4
64
7
65
257
75
1
175
1
42
1.0
92
8
66
7
43
1.0
76
1
77
6
78
2
67
7
79
5
170
0
171
0
290
0
174
0
93
13
44
0.0
173
0
291
1
45
0.0
1001
ACAD
1000
AcDbSavedByObjectVersion
1070
0
0
VISUALSTYLE
5
F95
102
{ACAD_XDICTIONARY
360
1082
102
}
102
{ACAD_REACTORS
330
F93
102
}
330
F93
100
AcDbVisualStyle
2

70
1
71
2
72
1
73
1
90
2
40
-0.6
41
30.0
62
5
63
7
74
1
91
4
64
7
65
257
75
1
175
1
42
1.0
92
0
66
257
43
1.0
76
1
77
6
78
2
67
7
79
5
170
0
171
0
290
0
174
0
93
13
44
0.0
173
0
291
1
45
0.0
1001
ACAD
1000
AcDbSavedByObjectVersion
1070
0
0
VISUALSTYLE
5
F96
102
{ACAD_XDICTIONARY
360
1084
102
}
102
{ACAD_REACTORS
330
F93
102
}
330
F93
100
AcDbVisualStyle
2

70
2
71
2
72
2
73
1
90
2
40
-0.6
41
30.0
62
5
63
7
74
0
91
4
64
7
65
257
75
1
175
1
42
1.0
92
0
66
7
43
1.0
76
1
77
6
78
2
67
7
79
5
170
0
171
0
290
0
174
0
93
13
44
0.0
173
0
291
1
45
0.0
1001
ACAD
1000
AcDbSavedByObjectVersion
1070
0
0
VISUALSTYLE
5
F97
102
{ACAD_XDICTIONARY
360
1086
102
}
102
{ACAD_REACTORS
330
F93
102
}
330
F93
100
AcDbVisualStyle
2

70
3
71
2
72
2
73
1
90
2
40
-0.6
41
30.0
62
5
63
7
74
1
91
4
64
7
65
257
75
1
175
1
42
1.0
92
0
66
257
43
1.0
76
1
77
6
78
2
67
7
79
5
170
0
171
0
290
0
174
0
93
13
44
0.0
173
0
291
1
45
0.0
1001
ACAD
1000
AcDbSavedByObjectVersion
1070
0
0
VISUALSTYLE
5
FA4
102
{ACAD_XDICTIONARY
360
10A0
102
}
102
{ACAD_REACTORS
330
F93
102
}
330
F93
100
AcDbVisualStyle
2

70
20
71
2
72
2
73
0
90
0
40
-0.6
41
-30.0
62
5
63
7
74
1
91
4
64
7
65
257
75
1
175
1
42
1.0
92
10
66
7
43
1.0
76
1
77
6
78
2
67
7
79
5
170
0
171
0
290
0
174
0
93
1
44
0.0
173
0
291
1
45
0.0
1001
ACAD
1000
AcDbSavedByObjectVersion
1070
0
0
VISUALSTYLE
5
FA1
102
{ACAD_XDICTIONARY
360
109A
102
}
102
{ACAD_REACTORS
330
F93
102
}
330
F93
100
AcDbVisualStyle
2

70
14
71
2
72
2
73
0
90
0
40
-0.6
41
-30.0
62
5
63
7
74
1
91
4
64
7
65
257
75
7
175
7
42
1.0
92
8
66
7
43
1.0
76
1
77
6
78
2
67
7
79
5
170
0
171
0
290
0
174
0
93
1
44
0.0
173
0
291
1
45
0.0
1001
ACAD
1000
AcDbSavedByObjectVersion
1070
0
0
VISUALSTYLE
5
FA5
102
{ACAD_XDICTIONARY
360
10A2
102
}
102
{ACAD_REACTORS
330
F93
102
}
330
F93
100
AcDbVisualStyle
2

70
21
71
2
72
2
73
0
90
0
40
-0.6
41
-30.0
62
5
63
7
74
1
91
4
64
7
65
257
75
1
175
1
42
1.0
92
9
66
7
43
1.0
76
1
77
6
78
2
67
7
79
5
170
0
171
0
290
0
174
0
93
1
44
0.0
173
0
291
1
45
0.0
1001
ACAD
1000
AcDbSavedByObjectVersion
1070
0
0
VISUALSTYLE
5
F9D
102
{ACAD_XDICTIONARY
360
1092
102
}
102
{ACAD_REACTORS
330
F93
102
}
330
F93
100
AcDbVisualStyle
2

70
8
71
2
72
2
73
0
90
0
40
-0.6
41
-30.0
62
5
63
7
74
1
91
0
64
7
65
257
75
1
175
1
42
1.0
92
8
66
8
43
1.0
76
1
77
6
78
2
67
7
79
5
170
0
171
0
290
0
174
0
93
13
44
0.0
173
0
291
0
45
0.0
1001
ACAD
1000
AcDbSavedByObjectVersion
1070
0
0
VISUALSTYLE
5
FA0
102
{ACAD_XDICTIONARY
360
1098
102
}
102
{ACAD_REACTORS
330
F93
102
}
330
F93
100
AcDbVisualStyle
2

70
13
71
2
72
2
73
0
90
0
40
-0.6
41
-30.0
62
5
63
7
74
1
91
4
64
7
65
257
75
1
175
1
42
1.0
92
12
66
7
43
1.0
76
1
77
6
78
2
67
7
79
5
170
0
171
0
290
0
174
0
93
1
44
0.0
173
0
291
1
45
0.0
1001
ACAD
1000
AcDbSavedByObjectVersion
1070
0
0
DICTIONARYVAR
5
FF3
102
{ACAD_REACTORS
330
FF0
102
}
330
FF0
100
DictionaryVariables
280
0
1
1:1
0
DICTIONARYVAR
5
FF2
102
{ACAD_REACTORS
330
FF0
102
}
330
FF0
100
DictionaryVariables
280
0
1
STANDARD
0
DICTIONARYVAR
5
FF1
102
{ACAD_REACTORS
330
FF0
102
}
330
FF0
100
DictionaryVariables
280
0
1
STANDARD
0
DICTIONARYVAR
5
FF6
102
{ACAD_REACTORS
330
FF0
102
}
330
FF0
100
DictionaryVariables
280
0
1
1
0
DICTIONARYVAR
5
FF5
102
{ACAD_REACTORS
330
FF0
102
}
330
FF0
100
DictionaryVariables
280
0
1
0
0
DICTIONARYVAR
5
FF4
102
{ACAD_REACTORS
330
FF0
102
}
330
FF0
100
DictionaryVariables
280
0
1
127
0
DICTIONARYVAR
5
1078
102
{ACAD_REACTORS
330
FF0
102
}
330
FF0
100
DictionaryVariables
280
0
1
2
0
DICTIONARY
5
10A9
330
FD1
100
AcDbDictionary
280
1
281
1
3
ACAD_XREC_ROUNDTRIP
360
10AA
0
DICTIONARY
5
10A7
330
FD0
100
AcDbDictionary
280
1
281
1
3
ACAD_XREC_ROUNDTRIP
360
10A8
0
DICTIONARY
5
F84
330
F83
100
AcDbDictionary
280
1
281
1
3
ACAD_XREC_ROUNDTRIP
360
FFF
3
BUMPTILE
360
F86
3
DIFFUSETILE
360
F85
3
OPACITYTILE
360
F89
3
REFLECTIONTILE
360
F88
3
REFRACTIONTILE
360
F8A
3
SPECULARTILE
360
F87
0
DICTIONARY
5
F7C
330
F7B
100
AcDbDictionary
280
1
281
1
3
ACAD_XREC_ROUNDTRIP
360
FFE
3
BUMPTILE
360
F7E
3
DIFFUSETILE
360
F7D
3
OPACITYTILE
360
F81
3
REFLECTIONTILE
360
F80
3
REFRACTIONTILE
360
F82
3
SPECULARTILE
360
F7F
0
DICTIONARY
5
F8C
330
F8B
100
AcDbDictionary
280
1
281
1
3
ACAD_XREC_ROUNDTRIP
360
1000
3
BUMPTILE
360
F8E
3
DIFFUSETILE
360
F8D
3
OPACITYTILE
360
F91
3
REFLECTIONTILE
360
F90
3
REFRACTIONTILE
360
F92
3
SPECULARTILE
360
F8F
0
DICTIONARY
5
FF8
330
FA9
100
AcDbDictionary
280
1
281
1
3
ACAD_ROUNDTRIP_2008_TABLESTYLE_CELLSTYLEMAP
360
1079
3
ACAD_XREC_ROUNDTRIP
360
10A6
0
DICTIONARY
5
108A
330
F99
100
AcDbDictionary
280
1
281
1
3
ACAD_XREC_ROUNDTRIP
360
108B
0
DICTIONARY
5
108E
330
F9B
100
AcDbDictionary
280
1
281
1
3
ACAD_XREC_ROUNDTRIP
360
108F
0
DICTIONARY
5
108C
330
F9A
100
AcDbDictionary
280
1
281
1
3
ACAD_XREC_ROUNDTRIP
360
108D
0
DICTIONARY
5
1088
330
F98
100
AcDbDictionary
280
1
281
1
3
ACAD_XREC_ROUNDTRIP
360
1089
0
DICTIONARY
5
1096
330
F9F
100
AcDbDictionary
280
1
281
1
3
ACAD_XREC_ROUNDTRIP
360
1097
0
DICTIONARY
5
109E
330
FA3
100
AcDbDictionary
280
1
281
1
3
ACAD_XREC_ROUNDTRIP
360
109F
0
DICTIONARY
5
1090
330
F9C
100
AcDbDictionary
280
1
281
1
3
ACAD_XREC_ROUNDTRIP
360
1091
0
DICTIONARY
5
1094
330
F9E
100
AcDbDictionary
280
1
281
1
3
ACAD_XREC_ROUNDTRIP
360
1095
0
DICTIONARY
5
10A4
330
FA6
100
AcDbDictionary
280
1
281
1
3
ACAD_XREC_ROUNDTRIP
360
10A5
0
DICTIONARY
5
109C
330
FA2
100
AcDbDictionary
280
1
281
1
3
ACAD_XREC_ROUNDTRIP
360
109D
0
DICTIONARY
5
1080
330
F94
100
AcDbDictionary
280
1
281
1
3
ACAD_XREC_ROUNDTRIP
360
1081
0
DICTIONARY
5
1082
330
F95
100
AcDbDictionary
280
1
281
1
3
ACAD_XREC_ROUNDTRIP
360
1083
0
DICTIONARY
5
1084
330
F96
100
AcDbDictionary
280
1
281
1
3
ACAD_XREC_ROUNDTRIP
360
1085
0
DICTIONARY
5
1086
330
F97
100
AcDbDictionary
280
1
281
1
3
ACAD_XREC_ROUNDTRIP
360
1087
0
DICTIONARY
5
10A0
330
FA4
100
AcDbDictionary
280
1
281
1
3
ACAD_XREC_ROUNDTRIP
360
10A1
0
DICTIONARY
5
109A
330
FA1
100
AcDbDictionary
280
1
281
1
3
ACAD_XREC_ROUNDTRIP
360
109B
0
DICTIONARY
5
10A2
330
FA5
100
AcDbDictionary
280
1
281
1
3
ACAD_XREC_ROUNDTRIP
360
10A3
0
DICTIONARY
5
1092
330
F9D
100
AcDbDictionary
280
1
281
1
3
ACAD_XREC_ROUNDTRIP
360
1093
0
DICTIONARY
5
1098
330
FA0
100
AcDbDictionary
280
1
281
1
3
ACAD_XREC_ROUNDTRIP
360
1099
0
XRECORD
5
10AA
102
{ACAD_REACTORS
330
10A9
102
}
330
10A9
100
AcDbXrecord
280
1
102
SHADEPLOT
70
0
102
SHADEPLOTRESLEVEL
70
2
102
SHADEPLOTCUSTOMDPI
70
300
0
XRECORD
5
10A8
102
{ACAD_REACTORS
330
10A7
102
}
330
10A7
100
AcDbXrecord
280
1
102
SHADEPLOT
70
0
102
SHADEPLOTRESLEVEL
70
2
102
SHADEPLOTCUSTOMDPI
70
300
0
XRECORD
5
FFF
102
{ACAD_REACTORS
330
F84
102
}
330
F84
100
AcDbXrecord
280
1
102
MATERIAL
148
0.0
149
0.0
149
0.0
93
0
94
127
282
0
72
0
77
0
171
0
175
0
179
0
273
0
0
XRECORD
5
F86
102
{ACAD_REACTORS
330
F84
102
}
330
F84
100
AcDbXrecord
280
1
270
1
271
1
0
XRECORD
5
F85
102
{ACAD_REACTORS
330
F84
102
}
330
F84
100
AcDbXrecord
280
1
270
1
271
1
0
XRECORD
5
F89
102
{ACAD_REACTORS
330
F84
102
}
330
F84
100
AcDbXrecord
280
1
270
1
271
1
0
XRECORD
5
F88
102
{ACAD_REACTORS
330
F84
102
}
330
F84
100
AcDbXrecord
280
1
270
1
271
1
0
XRECORD
5
F8A
102
{ACAD_REACTORS
330
F84
102
}
330
F84
100
AcDbXrecord
280
1
270
1
271
1
0
XRECORD
5
F87
102
{ACAD_REACTORS
330
F84
102
}
330
F84
100
AcDbXrecord
280
1
270
1
271
1
0
XRECORD
5
FFE
102
{ACAD_REACTORS
330
F7C
102
}
330
F7C
100
AcDbXrecord
280
1
102
MATERIAL
148
0.0
149
0.0
149
0.0
93
0
94
127
282
0
72
0
77
0
171
0
175
0
179
0
273
0
0
XRECORD
5
F7E
102
{ACAD_REACTORS
330
F7C
102
}
330
F7C
100
AcDbXrecord
280
1
270
1
271
1
0
XRECORD
5
F7D
102
{ACAD_REACTORS
330
F7C
102
}
330
F7C
100
AcDbXrecord
280
1
270
1
271
1
0
XRECORD
5
F81
102
{ACAD_REACTORS
330
F7C
102
}
330
F7C
100
AcDbXrecord
280
1
270
1
271
1
0
XRECORD
5
F80
102
{ACAD_REACTORS
330
F7C
102
}
330
F7C
100
AcDbXrecord
280
1
270
1
271
1
0
XRECORD
5
F82
102
{ACAD_REACTORS
330
F7C
102
}
330
F7C
100
AcDbXrecord
280
1
270
1
271
1
0
XRECORD
5
F7F
102
{ACAD_REACTORS
330
F7C
102
}
330
F7C
100
AcDbXrecord
280
1
270
1
271
1
0
XRECORD
5
1000
102
{ACAD_REACTORS
330
F8C
102
}
330
F8C
100
AcDbXrecord
280
1
102
MATERIAL
148
0.0
149
0.0
149
0.0
93
0
94
127
282
0
72
0
77
0
171
0
175
0
179
0
273
0
0
XRECORD
5
F8E
102
{ACAD_REACTORS
330
F8C
102
}
330
F8C
100
AcDbXrecord
280
1
270
1
271
1
0
XRECORD
5
F8D
102
{ACAD_REACTORS
330
F8C
102
}
330
F8C
100
AcDbXrecord
280
1
270
1
271
1
0
XRECORD
5
F91
102
{ACAD_REACTORS
330
F8C
102
}
330
F8C
100
AcDbXrecord
280
1
270
1
271
1
0
XRECORD
5
F90
102
{ACAD_REACTORS
330
F8C
102
}
330
F8C
100
AcDbXrecord
280
1
270
1
271
1
0
XRECORD
5
F92
102
{ACAD_REACTORS
330
F8C
102
}
330
F8C
100
AcDbXrecord
280
1
270
1
271
1
0
XRECORD
5
F8F
102
{ACAD_REACTORS
330
F8C
102
}
330
F8C
100
AcDbXrecord
280
1
270
1
271
1
0
CELLSTYLEMAP
5
1079
102
{ACAD_REACTORS
330
FF8
102
}
330
FF8
100
AcDbCellStyleMap
90
3
300
CELLSTYLE
1
TABLEFORMAT_BEGIN
90
5
170
1
91
0
92
32768
62
257
93
1
300
CONTENTFORMAT
1
CONTENTFORMAT_BEGIN
90
0
91
0
92
512
93
0
300

40
0.0
140
1.0
94
5
62
0
340
253
144
0.25
309
CONTENTFORMAT_END
171
1
301
MARGIN
1
CELLMARGIN_BEGIN
40
0.06
40
0.06
40
0.06
40
0.06
40
0.18
40
0.18
309
CELLMARGIN_END
94
6
95
1
302
GRIDFORMAT
1
GRIDFORMAT_BEGIN
90
0
91
1
62
0
92
-2
340
0
93
0
40
0.045
309
GRIDFORMAT_END
95
2
302
GRIDFORMAT
1
GRIDFORMAT_BEGIN
90
0
91
1
62
0
92
-2
340
0
93
0
40
0.045
309
GRIDFORMAT_END
95
4
302
GRIDFORMAT
1
GRIDFORMAT_BEGIN
90
0
91
1
62
0
92
-2
340
0
93
0
40
0.045
309
GRIDFORMAT_END
95
8
302
GRIDFORMAT
1
GRIDFORMAT_BEGIN
90
0
91
1
62
0
92
-2
340
0
93
0
40
0.045
309
GRIDFORMAT_END
95
16
302
GRIDFORMAT
1
GRIDFORMAT_BEGIN
90
0
91
1
62
0
92
-2
340
0
93
0
40
0.045
309
GRIDFORMAT_END
95
32
302
GRIDFORMAT
1
GRIDFORMAT_BEGIN
90
0
91
1
62
0
92
-2
340
0
93
0
40
0.045
309
GRIDFORMAT_END
309
TABLEFORMAT_END
1
CELLSTYLE_BEGIN
90
1
91
1
300
_TITLE
309
CELLSTYLE_END
300
CELLSTYLE
1
TABLEFORMAT_BEGIN
90
5
170
1
91
0
92
0
62
257
93
1
300
CONTENTFORMAT
1
CONTENTFORMAT_BEGIN
90
0
91
0
92
512
93
0
300

40
0.0
140
1.0
94
5
62
0
340
253
144
0.18
309
CONTENTFORMAT_END
171
1
301
MARGIN
1
CELLMARGIN_BEGIN
40
0.06
40
0.06
40
0.06
40
0.06
40
0.18
40
0.18
309
CELLMARGIN_END
94
6
95
1
302
GRIDFORMAT
1
GRIDFORMAT_BEGIN
90
0
91
1
62
0
92
-2
340
0
93
0
40
0.045
309
GRIDFORMAT_END
95
2
302
GRIDFORMAT
1
GRIDFORMAT_BEGIN
90
0
91
1
62
0
92
-2
340
0
93
0
40
0.045
309
GRIDFORMAT_END
95
4
302
GRIDFORMAT
1
GRIDFORMAT_BEGIN
90
0
91
1
62
0
92
-2
340
0
93
0
40
0.045
309
GRIDFORMAT_END
95
8
302
GRIDFORMAT
1
GRIDFORMAT_BEGIN
90
0
91
1
62
0
92
-2
340
0
93
0
40
0.045
309
GRIDFORMAT_END
95
16
302
GRIDFORMAT
1
GRIDFORMAT_BEGIN
90
0
91
1
62
0
92
-2
340
0
93
0
40
0.045
309
GRIDFORMAT_END
95
32
302
GRIDFORMAT
1
GRIDFORMAT_BEGIN
90
0
91
1
62
0
92
-2
340
0
93
0
40
0.045
309
GRIDFORMAT_END
309
TABLEFORMAT_END
1
CELLSTYLE_BEGIN
90
2
91
1
300
_HEADER
309
CELLSTYLE_END
300
CELLSTYLE
1
TABLEFORMAT_BEGIN
90
5
170
1
91
0
92
0
62
257
93
1
300
CONTENTFORMAT
1
CONTENTFORMAT_BEGIN
90
0
91
0
92
512
93
0
300

40
0.0
140
1.0
94
2
62
0
340
253
144
0.18
309
CONTENTFORMAT_END
171
1
301
MARGIN
1
CELLMARGIN_BEGIN
40
0.06
40
0.06
40
0.06
40
0.06
40
0.18
40
0.18
309
CELLMARGIN_END
94
6
95
1
302
GRIDFORMAT
1
GRIDFORMAT_BEGIN
90
0
91
1
62
0
92
-2
340
0
93
0
40
0.045
309
GRIDFORMAT_END
95
2
302
GRIDFORMAT
1
GRIDFORMAT_BEGIN
90
0
91
1
62
0
92
-2
340
0
93
0
40
0.045
309
GRIDFORMAT_END
95
4
302
GRIDFORMAT
1
GRIDFORMAT_BEGIN
90
0
91
1
62
0
92
-2
340
0
93
0
40
0.045
309
GRIDFORMAT_END
95
8
302
GRIDFORMAT
1
GRIDFORMAT_BEGIN
90
0
91
1
62
0
92
-2
340
0
93
0
40
0.045
309
GRIDFORMAT_END
95
16
302
GRIDFORMAT
1
GRIDFORMAT_BEGIN
90
0
91
1
62
0
92
-2
340
0
93
0
40
0.045
309
GRIDFORMAT_END
95
32
302
GRIDFORMAT
1
GRIDFORMAT_BEGIN
90
0
91
1
62
0
92
-2
340
0
93
0
40
0.045
309
GRIDFORMAT_END
309
TABLEFORMAT_END
1
CELLSTYLE_BEGIN
90
3
91
2
300
_DATA
309
CELLSTYLE_END
0
XRECORD
5
10A6
102
{ACAD_REACTORS
330
FF8
102
}
330
FF8
100
AcDbXrecord
280
1
102
ACAD_ROUNDTRIP_PRE2007_TABLESTYLE
90
512
91
0
1

92
512
93
0
2

94
512
95
0
3

0
XRECORD
5
108B
102
{ACAD_REACTORS
330
108A
102
}
330
108A
100
AcDbXrecord
280
1
102
RTVSPropertyOp0
70
1
102
RTVSPropertyOp1
70
1
102
RTVSPropertyOp2
70
1
102
RTVSPropertyOp3
70
1
102
RTVSPropertyOp4
70
1
102
RTVSPropertyOp5
70
1
102
RTVSPropertyOp6
70
1
102
RTVSPropertyOp7
70
1
102
RTVSPropertyOp8
70
1
102
RTVSPropertyOp9
70
1
102
RTVSPropertyOp10
70
1
102
RTVSPropertyOp11
70
1
102
RTVSPropertyOp12
70
1
102
RTVSPropertyOp13
70
1
102
RTVSPropertyOp14
70
1
102
RTVSPropertyOp15
70
1
102
RTVSPropertyOp16
70
1
102
RTVSPropertyOp17
70
1
102
RTVSPropertyOp18
70
1
102
RTVSPropertyOp19
70
1
102
RTVSPropertyOp20
70
1
102
RTVSPropertyOp21
70
1
102
RTVSPropertyOp22
70
1
102
RTVSPropertyOp23
70
1
102
RTVSPropertyOp24
70
1
102
RTVSPropertyOp25
70
1
102
RTVSPropertyOp26
70
1
102
RTVSPropertyOp27
70
1
0
XRECORD
5
108F
102
{ACAD_REACTORS
330
108E
102
}
330
108E
100
AcDbXrecord
280
1
102
RTVSPropertyOp0
70
1
102
RTVSPropertyOp1
70
1
102
RTVSPropertyOp2
70
1
102
RTVSPropertyOp3
70
1
102
RTVSPropertyOp4
70
1
102
RTVSPropertyOp5
70
1
102
RTVSPropertyOp6
70
1
102
RTVSPropertyOp7
70
1
102
RTVSPropertyOp8
70
1
102
RTVSPropertyOp9
70
1
102
RTVSPropertyOp10
70
1
102
RTVSPropertyOp11
70
1
102
RTVSPropertyOp12
70
1
102
RTVSPropertyOp13
70
1
102
RTVSPropertyOp14
70
1
102
RTVSPropertyOp15
70
1
102
RTVSPropertyOp16
70
1
102
RTVSPropertyOp17
70
1
102
RTVSPropertyOp18
70
1
102
RTVSPropertyOp19
70
1
102
RTVSPropertyOp20
70
1
102
RTVSPropertyOp21
70
1
102
RTVSPropertyOp22
70
1
102
RTVSPropertyOp23
70
1
102
RTVSPropertyOp24
70
1
102
RTVSPropertyOp25
70
1
102
RTVSPropertyOp26
70
1
102
RTVSPropertyOp27
70
1
0
XRECORD
5
108D
102
{ACAD_REACTORS
330
108C
102
}
330
108C
100
AcDbXrecord
280
1
102
RTVSPropertyOp0
70
1
102
RTVSPropertyOp1
70
1
102
RTVSPropertyOp2
70
1
102
RTVSPropertyOp3
70
1
102
RTVSPropertyOp4
70
1
102
RTVSPropertyOp5
70
1
102
RTVSPropertyOp6
70
1
102
RTVSPropertyOp7
70
1
102
RTVSPropertyOp8
70
1
102
RTVSPropertyOp9
70
1
102
RTVSPropertyOp10
70
1
102
RTVSPropertyOp11
70
1
102
RTVSPropertyOp12
70
1
102
RTVSPropertyOp13
70
1
102
RTVSPropertyOp14
70
1
102
RTVSPropertyOp15
70
1
102
RTVSPropertyOp16
70
1
102
RTVSPropertyOp17
70
1
102
RTVSPropertyOp18
70
1
102
RTVSPropertyOp19
70
1
102
RTVSPropertyOp20
70
1
102
RTVSPropertyOp21
70
1
102
RTVSPropertyOp22
70
1
102
RTVSPropertyOp23
70
1
102
RTVSPropertyOp24
70
1
102
RTVSPropertyOp25
70
1
102
RTVSPropertyOp26
70
1
102
RTVSPropertyOp27
70
1
0
XRECORD
5
1089
102
{ACAD_REACTORS
330
1088
102
}
330
1088
100
AcDbXrecord
280
1
102
RTVSPropertyOp0
70
1
102
RTVSPropertyOp1
70
1
102
RTVSPropertyOp2
70
1
102
RTVSPropertyOp3
70
1
102
RTVSPropertyOp4
70
1
102
RTVSPropertyOp5
70
1
102
RTVSPropertyOp6
70
1
102
RTVSPropertyOp7
70
1
102
RTVSPropertyOp8
70
1
102
RTVSPropertyOp9
70
1
102
RTVSPropertyOp10
70
1
102
RTVSPropertyOp11
70
1
102
RTVSPropertyOp12
70
1
102
RTVSPropertyOp13
70
1
102
RTVSPropertyOp14
70
1
102
RTVSPropertyOp15
70
1
102
RTVSPropertyOp16
70
1
102
RTVSPropertyOp17
70
1
102
RTVSPropertyOp18
70
1
102
RTVSPropertyOp19
70
1
102
RTVSPropertyOp20
70
1
102
RTVSPropertyOp21
70
1
102
RTVSPropertyOp22
70
1
102
RTVSPropertyOp23
70
1
102
RTVSPropertyOp24
70
1
102
RTVSPropertyOp25
70
1
102
RTVSPropertyOp26
70
1
102
RTVSPropertyOp27
70
1
0
XRECORD
5
1097
102
{ACAD_REACTORS
330
1096
102
}
330
1096
100
AcDbXrecord
280
1
102
RTVSPropertyOp0
70
1
102
RTVSPropertyOp1
70
1
102
RTVSPropertyOp2
70
1
102
RTVSPropertyOp3
70
1
102
RTVSPropertyOp4
70
1
102
RTVSPropertyOp5
70
1
102
RTVSPropertyOp6
70
1
102
RTVSPropertyOp7
70
1
102
RTVSPropertyOp8
70
1
102
RTVSPropertyOp9
70
1
102
RTVSPropertyOp10
70
1
102
RTVSPropertyOp11
70
1
102
RTVSPropertyOp12
70
1
102
RTVSPropertyOp13
70
1
102
RTVSPropertyOp14
70
1
102
RTVSPropertyOp15
70
1
102
RTVSPropertyOp16
70
1
102
RTVSPropertyOp17
70
1
102
RTVSPropertyOp18
70
1
102
RTVSPropertyOp19
70
1
102
RTVSPropertyOp20
70
1
102
RTVSPropertyOp21
70
1
102
RTVSPropertyOp22
70
1
102
RTVSPropertyOp23
70
1
102
RTVSPropertyOp24
70
1
102
RTVSPropertyOp25
70
1
102
RTVSPropertyOp26
70
1
102
RTVSPropertyOp27
70
1
0
XRECORD
5
109F
102
{ACAD_REACTORS
330
109E
102
}
330
109E
100
AcDbXrecord
280
1
102
RTVSPropertyOp0
70
1
102
RTVSPropertyOp1
70
1
102
RTVSPropertyOp2
70
1
102
RTVSPropertyOp3
70
1
102
RTVSPropertyOp4
70
1
102
RTVSPropertyOp5
70
1
102
RTVSPropertyOp6
70
1
102
RTVSPropertyOp7
70
1
102
RTVSPropertyOp8
70
1
102
RTVSPropertyOp9
70
1
102
RTVSPropertyOp10
70
1
102
RTVSPropertyOp11
70
1
102
RTVSPropertyOp12
70
1
102
RTVSPropertyOp13
70
1
102
RTVSPropertyOp14
70
1
102
RTVSPropertyOp15
70
1
102
RTVSPropertyOp16
70
1
102
RTVSPropertyOp17
70
1
102
RTVSPropertyOp18
70
1
102
RTVSPropertyOp19
70
1
102
RTVSPropertyOp20
70
1
102
RTVSPropertyOp21
70
1
102
RTVSPropertyOp22
70
1
102
RTVSPropertyOp23
70
1
102
RTVSPropertyOp24
70
1
102
RTVSPropertyOp25
70
1
102
RTVSPropertyOp26
70
1
102
RTVSPropertyOp27
70
1
0
XRECORD
5
1091
102
{ACAD_REACTORS
330
1090
102
}
330
1090
100
AcDbXrecord
280
1
102
RTVSPropertyOp0
70
1
102
RTVSPropertyOp1
70
1
102
RTVSPropertyOp2
70
1
102
RTVSPropertyOp3
70
1
102
RTVSPropertyOp4
70
1
102
RTVSPropertyOp5
70
1
102
RTVSPropertyOp6
70
1
102
RTVSPropertyOp7
70
1
102
RTVSPropertyOp8
70
1
102
RTVSPropertyOp9
70
1
102
RTVSPropertyOp10
70
1
102
RTVSPropertyOp11
70
1
102
RTVSPropertyOp12
70
1
102
RTVSPropertyOp13
70
1
102
RTVSPropertyOp14
70
1
102
RTVSPropertyOp15
70
1
102
RTVSPropertyOp16
70
1
102
RTVSPropertyOp17
70
1
102
RTVSPropertyOp18
70
1
102
RTVSPropertyOp19
70
1
102
RTVSPropertyOp20
70
1
102
RTVSPropertyOp21
70
1
102
RTVSPropertyOp22
70
1
102
RTVSPropertyOp23
70
1
102
RTVSPropertyOp24
70
1
102
RTVSPropertyOp25
70
1
102
RTVSPropertyOp26
70
1
102
RTVSPropertyOp27
70
1
0
XRECORD
5
1095
102
{ACAD_REACTORS
330
1094
102
}
330
1094
100
AcDbXrecord
280
1
102
RTVSPropertyOp0
70
1
102
RTVSPropertyOp1
70
1
102
RTVSPropertyOp2
70
1
102
RTVSPropertyOp3
70
1
102
RTVSPropertyOp4
70
1
102
RTVSPropertyOp5
70
1
102
RTVSPropertyOp6
70
1
102
RTVSPropertyOp7
70
1
102
RTVSPropertyOp8
70
1
102
RTVSPropertyOp9
70
1
102
RTVSPropertyOp10
70
1
102
RTVSPropertyOp11
70
1
102
RTVSPropertyOp12
70
1
102
RTVSPropertyOp13
70
1
102
RTVSPropertyOp14
70
1
102
RTVSPropertyOp15
70
1
102
RTVSPropertyOp16
70
1
102
RTVSPropertyOp17
70
1
102
RTVSPropertyOp18
70
1
102
RTVSPropertyOp19
70
1
102
RTVSPropertyOp20
70
1
102
RTVSPropertyOp21
70
1
102
RTVSPropertyOp22
70
1
102
RTVSPropertyOp23
70
1
102
RTVSPropertyOp24
70
1
102
RTVSPropertyOp25
70
1
102
RTVSPropertyOp26
70
1
102
RTVSPropertyOp27
70
1
0
XRECORD
5
10A5
102
{ACAD_REACTORS
330
10A4
102
}
330
10A4
100
AcDbXrecord
280
1
102
RTVSPropertyOp0
70
0
102
RTVSPropertyOp1
70
0
102
RTVSPropertyOp2
70
0
102
RTVSPropertyOp3
70
0
102
RTVSPropertyOp4
70
0
102
RTVSPropertyOp5
70
0
102
RTVSPropertyOp6
70
0
102
RTVSPropertyOp7
70
0
102
RTVSPropertyOp8
70
0
102
RTVSPropertyOp9
70
0
102
RTVSPropertyOp10
70
0
102
RTVSPropertyOp11
70
0
102
RTVSPropertyOp12
70
0
102
RTVSPropertyOp13
70
0
102
RTVSPropertyOp14
70
2
102
RTVSPropertyOp15
70
0
102
RTVSPropertyOp16
70
0
102
RTVSPropertyOp17
70
0
102
RTVSPropertyOp18
70
0
102
RTVSPropertyOp19
70
0
102
RTVSPropertyOp20
70
0
102
RTVSPropertyOp21
70
0
102
RTVSPropertyOp22
70
0
102
RTVSPropertyOp23
70
0
102
RTVSPropertyOp24
70
0
102
RTVSPropertyOp25
70
0
102
RTVSPropertyOp26
70
0
102
RTVSPropertyOp27
70
0
0
XRECORD
5
109D
102
{ACAD_REACTORS
330
109C
102
}
330
109C
100
AcDbXrecord
280
1
102
RTVSPropertyOp0
70
1
102
RTVSPropertyOp1
70
1
102
RTVSPropertyOp2
70
1
102
RTVSPropertyOp3
70
1
102
RTVSPropertyOp4
70
1
102
RTVSPropertyOp5
70
1
102
RTVSPropertyOp6
70
1
102
RTVSPropertyOp7
70
1
102
RTVSPropertyOp8
70
1
102
RTVSPropertyOp9
70
1
102
RTVSPropertyOp10
70
1
102
RTVSPropertyOp11
70
1
102
RTVSPropertyOp12
70
1
102
RTVSPropertyOp13
70
1
102
RTVSPropertyOp14
70
1
102
RTVSPropertyOp15
70
1
102
RTVSPropertyOp16
70
1
102
RTVSPropertyOp17
70
1
102
RTVSPropertyOp18
70
1
102
RTVSPropertyOp19
70
1
102
RTVSPropertyOp20
70
1
102
RTVSPropertyOp21
70
1
102
RTVSPropertyOp22
70
1
102
RTVSPropertyOp23
70
1
102
RTVSPropertyOp24
70
1
102
RTVSPropertyOp25
70
1
102
RTVSPropertyOp26
70
1
102
RTVSPropertyOp27
70
1
0
XRECORD
5
1081
102
{ACAD_REACTORS
330
1080
102
}
330
1080
100
AcDbXrecord
280
1
102
RTVSPropertyOp0
70
1
102
RTVSPropertyOp1
70
1
102
RTVSPropertyOp2
70
1
102
RTVSPropertyOp3
70
1
102
RTVSPropertyOp4
70
1
102
RTVSPropertyOp5
70
1
102
RTVSPropertyOp6
70
1
102
RTVSPropertyOp7
70
1
102
RTVSPropertyOp8
70
1
102
RTVSPropertyOp9
70
1
102
RTVSPropertyOp10
70
1
102
RTVSPropertyOp11
70
1
102
RTVSPropertyOp12
70
1
102
RTVSPropertyOp13
70
1
102
RTVSPropertyOp14
70
1
102
RTVSPropertyOp15
70
1
102
RTVSPropertyOp16
70
1
102
RTVSPropertyOp17
70
1
102
RTVSPropertyOp18
70
1
102
RTVSPropertyOp19
70
1
102
RTVSPropertyOp20
70
1
102
RTVSPropertyOp21
70
1
102
RTVSPropertyOp22
70
1
102
RTVSPropertyOp23
70
1
102
RTVSPropertyOp24
70
1
102
RTVSPropertyOp25
70
1
102
RTVSPropertyOp26
70
1
102
RTVSPropertyOp27
70
1
0
XRECORD
5
1083
102
{ACAD_REACTORS
330
1082
102
}
330
1082
100
AcDbXrecord
280
1
102
RTVSPropertyOp0
70
1
102
RTVSPropertyOp1
70
1
102
RTVSPropertyOp2
70
1
102
RTVSPropertyOp3
70
1
102
RTVSPropertyOp4
70
1
102
RTVSPropertyOp5
70
1
102
RTVSPropertyOp6
70
1
102
RTVSPropertyOp7
70
1
102
RTVSPropertyOp8
70
1
102
RTVSPropertyOp9
70
1
102
RTVSPropertyOp10
70
1
102
RTVSPropertyOp11
70
1
102
RTVSPropertyOp12
70
1
102
RTVSPropertyOp13
70
1
102
RTVSPropertyOp14
70
1
102
RTVSPropertyOp15
70
1
102
RTVSPropertyOp16
70
1
102
RTVSPropertyOp17
70
1
102
RTVSPropertyOp18
70
1
102
RTVSPropertyOp19
70
1
102
RTVSPropertyOp20
70
1
102
RTVSPropertyOp21
70
1
102
RTVSPropertyOp22
70
1
102
RTVSPropertyOp23
70
1
102
RTVSPropertyOp24
70
1
102
RTVSPropertyOp25
70
1
102
RTVSPropertyOp26
70
1
102
RTVSPropertyOp27
70
1
0
XRECORD
5
1085
102
{ACAD_REACTORS
330
1084
102
}
330
1084
100
AcDbXrecord
280
1
102
RTVSPropertyOp0
70
1
102
RTVSPropertyOp1
70
1
102
RTVSPropertyOp2
70
1
102
RTVSPropertyOp3
70
1
102
RTVSPropertyOp4
70
1
102
RTVSPropertyOp5
70
1
102
RTVSPropertyOp6
70
1
102
RTVSPropertyOp7
70
1
102
RTVSPropertyOp8
70
1
102
RTVSPropertyOp9
70
1
102
RTVSPropertyOp10
70
1
102
RTVSPropertyOp11
70
1
102
RTVSPropertyOp12
70
1
102
RTVSPropertyOp13
70
1
102
RTVSPropertyOp14
70
1
102
RTVSPropertyOp15
70
1
102
RTVSPropertyOp16
70
1
102
RTVSPropertyOp17
70
1
102
RTVSPropertyOp18
70
1
102
RTVSPropertyOp19
70
1
102
RTVSPropertyOp20
70
1
102
RTVSPropertyOp21
70
1
102
RTVSPropertyOp22
70
1
102
RTVSPropertyOp23
70
1
102
RTVSPropertyOp24
70
1
102
RTVSPropertyOp25
70
1
102
RTVSPropertyOp26
70
1
102
RTVSPropertyOp27
70
1
0
XRECORD
5
1087
102
{ACAD_REACTORS
330
1086
102
}
330
1086
100
AcDbXrecord
280
1
102
RTVSPropertyOp0
70
1
102
RTVSPropertyOp1
70
1
102
RTVSPropertyOp2
70
1
102
RTVSPropertyOp3
70
1
102
RTVSPropertyOp4
70
1
102
RTVSPropertyOp5
70
1
102
RTVSPropertyOp6
70
1
102
RTVSPropertyOp7
70
1
102
RTVSPropertyOp8
70
1
102
RTVSPropertyOp9
70
1
102
RTVSPropertyOp10
70
1
102
RTVSPropertyOp11
70
1
102
RTVSPropertyOp12
70
1
102
RTVSPropertyOp13
70
1
102
RTVSPropertyOp14
70
1
102
RTVSPropertyOp15
70
1
102
RTVSPropertyOp16
70
1
102
RTVSPropertyOp17
70
1
102
RTVSPropertyOp18
70
1
102
RTVSPropertyOp19
70
1
102
RTVSPropertyOp20
70
1
102
RTVSPropertyOp21
70
1
102
RTVSPropertyOp22
70
1
102
RTVSPropertyOp23
70
1
102
RTVSPropertyOp24
70
1
102
RTVSPropertyOp25
70
1
102
RTVSPropertyOp26
70
1
102
RTVSPropertyOp27
70
1
0
XRECORD
5
10A1
102
{ACAD_REACTORS
330
10A0
102
}
330
10A0
100
AcDbXrecord
280
1
102
RTVSPropertyOp0
70
0
102
RTVSPropertyOp1
70
0
102
RTVSPropertyOp2
70
0
102
RTVSPropertyOp3
70
0
102
RTVSPropertyOp4
70
0
102
RTVSPropertyOp5
70
0
102
RTVSPropertyOp6
70
0
102
RTVSPropertyOp7
70
0
102
RTVSPropertyOp8
70
0
102
RTVSPropertyOp9
70
0
102
RTVSPropertyOp10
70
0
102
RTVSPropertyOp11
70
0
102
RTVSPropertyOp12
70
0
102
RTVSPropertyOp13
70
0
102
RTVSPropertyOp14
70
2
102
RTVSPropertyOp15
70
0
102
RTVSPropertyOp16
70
0
102
RTVSPropertyOp17
70
0
102
RTVSPropertyOp18
70
0
102
RTVSPropertyOp19
70
0
102
RTVSPropertyOp20
70
0
102
RTVSPropertyOp21
70
0
102
RTVSPropertyOp22
70
0
102
RTVSPropertyOp23
70
0
102
RTVSPropertyOp24
70
0
102
RTVSPropertyOp25
70
0
102
RTVSPropertyOp26
70
0
102
RTVSPropertyOp27
70
0
0
XRECORD
5
109B
102
{ACAD_REACTORS
330
109A
102
}
330
109A
100
AcDbXrecord
280
1
102
RTVSPropertyOp0
70
1
102
RTVSPropertyOp1
70
1
102
RTVSPropertyOp2
70
1
102
RTVSPropertyOp3
70
1
102
RTVSPropertyOp4
70
1
102
RTVSPropertyOp5
70
1
102
RTVSPropertyOp6
70
1
102
RTVSPropertyOp7
70
1
102
RTVSPropertyOp8
70
1
102
RTVSPropertyOp9
70
1
102
RTVSPropertyOp10
70
1
102
RTVSPropertyOp11
70
1
102
RTVSPropertyOp12
70
1
102
RTVSPropertyOp13
70
1
102
RTVSPropertyOp14
70
1
102
RTVSPropertyOp15
70
1
102
RTVSPropertyOp16
70
1
102
RTVSPropertyOp17
70
1
102
RTVSPropertyOp18
70
1
102
RTVSPropertyOp19
70
1
102
RTVSPropertyOp20
70
1
102
RTVSPropertyOp21
70
1
102
RTVSPropertyOp22
70
1
102
RTVSPropertyOp23
70
1
102
RTVSPropertyOp24
70
1
102
RTVSPropertyOp25
70
1
102
RTVSPropertyOp26
70
1
102
RTVSPropertyOp27
70
1
0
XRECORD
5
10A3
102
{ACAD_REACTORS
330
10A2
102
}
330
10A2
100
AcDbXrecord
280
1
102
RTVSPropertyOp0
70
0
102
RTVSPropertyOp1
70
0
102
RTVSPropertyOp2
70
0
102
RTVSPropertyOp3
70
0
102
RTVSPropertyOp4
70
0
102
RTVSPropertyOp5
70
0
102
RTVSPropertyOp6
70
0
102
RTVSPropertyOp7
70
0
102
RTVSPropertyOp8
70
0
102
RTVSPropertyOp9
70
0
102
RTVSPropertyOp10
70
0
102
RTVSPropertyOp11
70
0
102
RTVSPropertyOp12
70
0
102
RTVSPropertyOp13
70
0
102
RTVSPropertyOp14
70
2
102
RTVSPropertyOp15
70
0
102
RTVSPropertyOp16
70
0
102
RTVSPropertyOp17
70
0
102
RTVSPropertyOp18
70
0
102
RTVSPropertyOp19
70
0
102
RTVSPropertyOp20
70
0
102
RTVSPropertyOp21
70
0
102
RTVSPropertyOp22
70
0
102
RTVSPropertyOp23
70
0
102
RTVSPropertyOp24
70
0
102
RTVSPropertyOp25
70
0
102
RTVSPropertyOp26
70
0
102
RTVSPropertyOp27
70
0
0
XRECORD
5
1093
102
{ACAD_REACTORS
330
1092
102
}
330
1092
100
AcDbXrecord
280
1
102
RTVSPropertyOp0
70
1
102
RTVSPropertyOp1
70
1
102
RTVSPropertyOp2
70
1
102
RTVSPropertyOp3
70
1
102
RTVSPropertyOp4
70
1
102
RTVSPropertyOp5
70
1
102
RTVSPropertyOp6
70
1
102
RTVSPropertyOp7
70
1
102
RTVSPropertyOp8
70
1
102
RTVSPropertyOp9
70
1
102
RTVSPropertyOp10
70
1
102
RTVSPropertyOp11
70
1
102
RTVSPropertyOp12
70
1
102
RTVSPropertyOp13
70
1
102
RTVSPropertyOp14
70
1
102
RTVSPropertyOp15
70
1
102
RTVSPropertyOp16
70
1
102
RTVSPropertyOp17
70
1
102
RTVSPropertyOp18
70
1
102
RTVSPropertyOp19
70
1
102
RTVSPropertyOp20
70
1
102
RTVSPropertyOp21
70
1
102
RTVSPropertyOp22
70
1
102
RTVSPropertyOp23
70
1
102
RTVSPropertyOp24
70
1
102
RTVSPropertyOp25
70
1
102
RTVSPropertyOp26
70
1
102
RTVSPropertyOp27
70
1
0
XRECORD
5
1099
102
{ACAD_REACTORS
330
1098
102
}
330
1098
100
AcDbXrecord
280
1
102
RTVSPropertyOp0
70
1
102
RTVSPropertyOp1
70
1
102
RTVSPropertyOp2
70
1
102
RTVSPropertyOp3
70
1
102
RTVSPropertyOp4
70
1
102
RTVSPropertyOp5
70
1
102
RTVSPropertyOp6
70
1
102
RTVSPropertyOp7
70
1
102
RTVSPropertyOp8
70
1
102
RTVSPropertyOp9
70
1
102
RTVSPropertyOp10
70
1
102
RTVSPropertyOp11
70
1
102
RTVSPropertyOp12
70
1
102
RTVSPropertyOp13
70
1
102
RTVSPropertyOp14
70
1
102
RTVSPropertyOp15
70
1
102
RTVSPropertyOp16
70
1
102
RTVSPropertyOp17
70
1
102
RTVSPropertyOp18
70
1
102
RTVSPropertyOp19
70
1
102
RTVSPropertyOp20
70
1
102
RTVSPropertyOp21
70
1
102
RTVSPropertyOp22
70
1
102
RTVSPropertyOp23
70
1
102
RTVSPropertyOp24
70
1
102
RTVSPropertyOp25
70
1
102
RTVSPropertyOp26
70
1
102
RTVSPropertyOp27
70
1
0
ENDSEC
0
EOF
