0
SECTION
2
HEADER
9
$ACADVER
1
AC1015
9
$ACADMAINTVER
70
20
9
$DWGCODEPAGE
3
ANSI_1252
9
$INSBASE
10
0.0
20
0.0
30
0.0
9
$EXTMIN
10
-150.000000000000
20
-105.000000000000
30
0.0
9
$EXTMAX
10
150.000000000000
20
105.000000000000
30
0.0
9
$LIMMIN
10
0.0
20
0.0
9
$LIMMAX
10
12.0
20
9.0
9
$ORTHOMODE
70
0
9
$REGENMODE
70
1
9
$FILLMODE
70
1
9
$QTEXTMODE
70
0
9
$MIRRTEXT
70
1
9
$LTSCALE
40
1.0
9
$ATTMODE
70
1
9
$TEXTSIZE
40
0.2
9
$TRACEWID
40
0.05
9
$TEXTSTYLE
7
Standard
9
$CLAYER
8
0
9
$CELTYPE
6
ByLayer
9
$CECOLOR
62
256
9
$CELTSCALE
40
1.0
9
$DISPSILH
70
0
9
$DIMSCALE
40
1.0
9
$DIMASZ
40
2.5
9
$DIMEXO
40
0.625
9
$DIMDLI
40
0.38
9
$DIMRND
40
0.0
9
$DIMDLE
40
0.0
9
$DIMEXE
40
1.25
9
$DIMTP
40
0.0
9
$DIMTM
40
0.000000001
9
$DIMTXT
40
2.5
9
$DIMCEN
40
0.09
9
$DIMTSZ
40
0.0
9
$DIMTOL
70
1
9
$DIMLIM
70
0
9
$DIMTIH
70
0
9
$DIMTOH
70
0
9
$DIMSE1
70
0
9
$DIMSE2
70
0
9
$DIMTAD
70
1
9
$DIMZIN
70
0
9
$DIMBLK
1
VDDIM_DEFAULT
9
$DIMASO
70
1
9
$DIMSHO
70
1
9
$DIMPOST
1

9
$DIMAPOST
1

9
$DIMALT
70
0
9
$DIMALTD
70
2
9
$DIMALTF
40
25.4
9
$DIMLFAC
40
1.00000000000000
9
$DIMTOFL
70
0
9
$DIMTVP
40
0.0
9
$DIMTIX
70
0
9
$DIMSOXD
70
0
9
$DIMSAH
70
0
9
$DIMBLK1
1

9
$DIMBLK2
1

9
$DIMSTYLE
2
BEM-ISBE
9
$DIMCLRD
70
0
9
$DIMCLRE
70
0
9
$DIMCLRT
70
0
9
$DIMTFAC
40
0.5
9
$DIMGAP
40
0.625
9
$DIMJUST
70
0
9
$DIMSD1
70
0
9
$DIMSD2
70
0
9
$DIMTOLJ
70
1
9
$DIMTZIN
70
0
9
$DIMALTZ
70
0
9
$DIMALTTZ
70
0
9
$DIMUPT
70
0
9
$DIMDEC
70
3
9
$DIMTDEC
70
3
9
$DIMALTU
70
2
9
$DIMALTTD
70
2
9
$DIMTXSTY
7
Standard
9
$DIMAUNIT
70
0
9
$DIMADEC
70
3
9
$DIMALTRND
40
0.0
9
$DIMAZIN
70
0
9
$DIMDSEP
70
46
9
$DIMATFIT
70
3
9
$DIMFRAC
70
0
9
$DIMLDRBLK
1

9
$DIMLUNIT
70
2
9
$DIMLWD
70
-2
9
$DIMLWE
70
-2
9
$DIMTMOVE
70
0
9
$LUNITS
70
2
9
$LUPREC
70
4
9
$SKETCHINC
40
0.1
9
$FILLETRAD
40
0.5
9
$AUNITS
70
0
9
$AUPREC
70
0
9
$MENU
1
.
9
$ELEVATION
40
0.0
9
$PELEVATION
40
0.0
9
$THICKNESS
40
0.0
9
$LIMCHECK
70
0
9
$CHAMFERA
40
0.5
9
$CHAMFERB
40
0.5
9
$CHAMFERC
40
1.0
9
$CHAMFERD
40
0.0
9
$SKPOLY
70
0
9
$TDCREATE
40
0.0
9
$TDUCREATE
40
0.0
9
$TDUPDATE
40
0.0
9
$TDUUPDATE
40
0.0
9
$TDINDWG
40
0.0
9
$TDUSRTIMER
40
0.0
9
$USRTIMER
70
1
9
$ANGBASE
50
0.0
9
$ANGDIR
70
0
9
$PDMODE
70
0
9
$PDSIZE
40
0.0
9
$PLINEWID
40
0.0
9
$SPLFRAME
70
0
9
$SPLINETYPE
70
6
9
$SPLINESEGS
70
8
9
$HANDSEED
5
10AB
9
$SURFTAB1
70
6
9
$SURFTAB2
70
6
9
$SURFTYPE
70
6
9
$SURFU
70
6
9
$SURFV
70
6
9
$UCSBASE
2

9
$UCSNAME
2

9
$UCSORG
10
0.0
20
0.0
30
0.0
9
$UCSXDIR
10
1.0
20
0.0
30
0.0
9
$UCSYDIR
10
0.0
20
1.0
30
0.0
9
$UCSORTHOREF
2

9
$UCSORTHOVIEW
70
0
9
$UCSORGTOP
10
0.0
20
0.0
30
0.0
9
$UCSORGBOTTOM
10
0.0
20
0.0
30
0.0
9
$UCSORGLEFT
10
0.0
20
0.0
30
0.0
9
$UCSORGRIGHT
10
0.0
20
0.0
30
0.0
9
$UCSORGFRONT
10
0.0
20
0.0
30
0.0
9
$UCSORGBACK
10
0.0
20
0.0
30
0.0
9
$PUCSBASE
2

9
$PUCSNAME
2

9
$PUCSORG
10
0.0
20
0.0
30
0.0
9
$PUCSXDIR
10
1.0
20
0.0
30
0.0
9
$PUCSYDIR
10
0.0
20
1.0
30
0.0
9
$PUCSORTHOREF
2

9
$PUCSORTHOVIEW
70
0
9
$PUCSORGTOP
10
0.0
20
0.0
30
0.0
9
$PUCSORGBOTTOM
10
0.0
20
0.0
30
0.0
9
$PUCSORGLEFT
10
0.0
20
0.0
30
0.0
9
$PUCSORGRIGHT
10
0.0
20
0.0
30
0.0
9
$PUCSORGFRONT
10
0.0
20
0.0
30
0.0
9
$PUCSORGBACK
10
0.0
20
0.0
30
0.0
9
$USERI1
70
0
9
$USERI2
70
0
9
$USERI3
70
0
9
$USERI4
70
0
9
$USERI5
70
0
9
$USERR1
40
0.0
9
$USERR2
40
0.0
9
$USERR3
40
0.0
9
$USERR4
40
0.0
9
$USERR5
40
0.0
9
$WORLDVIEW
70
1
9
$SHADEDGE
70
3
9
$SHADEDIF
70
70
9
$TILEMODE
70
1
9
$MAXACTVP
70
64
9
$PINSBASE
10
0.0
20
0.0
30
0.0
9
$PLIMCHECK
70
0
9
$PEXTMIN
10
1.000000000000000E+20
20
1.000000000000000E+20
30
1.000000000000000E+20
9
$PEXTMAX
10
-1.000000000000000E+20
20
-1.000000000000000E+20
30
-1.000000000000000E+20
9
$PLIMMIN
10
0.0
20
0.0
9
$PLIMMAX
10
12.0
20
9.0
9
$UNITMODE
70
0
9
$VISRETAIN
70
1
9
$PLINEGEN
70
0
9
$PSLTSCALE
70
1
9
$TREEDEPTH
70
3020
9
$CMLSTYLE
2
Standard
9
$CMLJUST
70
0
9
$CMLSCALE
40
1.0
9
$PROXYGRAPHICS
70
1
9
$MEASUREMENT
70
0
9
$CELWEIGHT
370
-1
9
$ENDCAPS
280
0
9
$JOINSTYLE
280
0
9
$LWDISPLAY
290
0
9
$INSUNITS
70
4
9
$HYPERLINKBASE
1

9
$STYLESHEET
1

9
$XEDIT
290
1
9
$CEPSNTYPE
380
0
9
$PSTYLEMODE
290
0
9
$FINGERPRINTGUID
2
{FAEB1C30-E019-11D5-929B-00C0DF256EC4}
9
$VERSIONGUID
2
{04C5C4E4-4947-4D90-8812-D401569E61F7}
9
$EXTNAMES
290
1
9
$PSVPSCALE
40
0.0
9
$OLESTARTUP
290
0
0
ENDSEC
0
SECTION
2
CLASSES
0
CLASS
1
ACDBDICTIONARYWDFLT
2
AcDbDictionaryWithDefault
3
ObjectDBX Classes
90
0
280
0
281
0
0
CLASS
1
ACDBPLACEHOLDER
2
AcDbPlaceHolder
3
ObjectDBX Classes
90
0
280
0
281
0
0
CLASS
1
LAYOUT
2
AcDbLayout
3
ObjectDBX Classes
90
0
280
0
281
0
0
CLASS
1
MATERIAL
2
AcDbMaterial
3
ObjectDBX Classes
90
1153
280
0
281
0
0
CLASS
1
VISUALSTYLE
2
AcDbVisualStyle
3
ObjectDBX Classes
90
4095
280
0
281
0
0
CLASS
1
TABLESTYLE
2
AcDbTableStyle
3
ObjectDBX Classes
90
4095
280
0
281
0
0
CLASS
1
SCALE
2
AcDbScale
3
ObjectDBX Classes
90
1153
280
0
281
0
0
CLASS
1
MLEADERSTYLE
2
AcDbMLeaderStyle
3
ACDB_MLEADERSTYLE_CLASS
90
4095
280
0
281
0
0
CLASS
1
DICTIONARYVAR
2
AcDbDictionaryVar
3
ObjectDBX Classes
90
0
280
0
281
0
0
CLASS
1
CELLSTYLEMAP
2
AcDbCellStyleMap
3
ObjectDBX Classes
90
1152
280
0
281
0
0
ENDSEC
0
SECTION
2
TABLES
0
TABLE
2
VPORT
5
24A
330
0
100
AcDbSymbolTable
70
1
0
VPORT
5
26B
330
24A
100
AcDbSymbolTableRecord
100
AcDbViewportTableRecord
2
*Active
70
0
10
0.0
20
0.0
11
1.0
21
1.0
12
0.000000000000000
22
0.000000000000000
13
0.0
23
0.0
14
10.0
24
10.0
15
10.0
25
10.0
16
0.0
26
0.0
36
1.0
17
0.0
27
0.0
37
0.0
40
210.000000000000
41
1.42857142857143
42
1.0
43
0.0
44
0.0
50
0.0
51
0.0000000000007958
71
0
72
100
73
1
74
3
75
0
76
0
77
0
78
1
281
0
65
1
110
0.0
120
0.0
130
0.0
111
1.0
121
0.0
131
0.0
112
0.0
122
1.0
132
0.0
79
0
146
0.0
0
ENDTAB
0
TABLE
2
LTYPE
5
247
330
0
100
AcDbSymbolTable
70
25
0
LTYPE
5
256
330
247
100
AcDbSymbolTableRecord
100
AcDbLinetypeTableRecord
2
ByBlock
70
0
3

72
65
73
0
40
0.0
0
LTYPE
5
257
330
247
100
AcDbSymbolTableRecord
100
AcDbLinetypeTableRecord
2
ByLayer
70
0
3

72
65
73
0
40
0.0
0
LTYPE
5
258
330
247
100
AcDbSymbolTableRecord
100
AcDbLinetypeTableRecord
2
Continuous
70
0
3
Solid line
72
65
73
0
40
0.0
0
LTYPE
5
273
330
247
100
AcDbSymbolTableRecord
100
AcDbLinetypeTableRecord
2
CENTER
70
0
3
Center ____ _ ____ _ ____ _ ____ _ ____ _ ____
72
65
73
4
40
2.0
49
1.25
74
0
49
-0.25
74
0
49
0.25
74
0
49
-0.25
74
0
0
LTYPE
5
274
330
247
100
AcDbSymbolTableRecord
100
AcDbLinetypeTableRecord
2
DASHDOT
70
0
3
Dashdot __ . __ . __ . __ . __ . __ . __ . __
72
65
73
4
40
1.0
49
0.5
74
0
49
-0.25
74
0
49
0.0
74
0
49
-0.25
74
0
0
LTYPE
5
275
330
247
100
AcDbSymbolTableRecord
100
AcDbLinetypeTableRecord
2
DASHED
70
0
3
Dashed __ __ __ __ __ __ __ __ __ __ __ __ __ _
72
65
73
2
40
0.75
49
0.5
74
0
49
-0.25
74
0
0
LTYPE
5
276
330
247
100
AcDbSymbolTableRecord
100
AcDbLinetypeTableRecord
2
HIDDEN
70
0
3
Hidden __ __ __ __ __ __ __ __ __ __ __ __ __ __
72
65
73
2
40
0.375
49
0.25
74
0
49
-0.125
74
0
0
LTYPE
5
277
330
247
100
AcDbSymbolTableRecord
100
AcDbLinetypeTableRecord
2
HIDDEN2
70
0
3
Hidden2 _ _ _ _ _ _ _ _ _ _ _ _ _ _ _ _ _
72
65
73
2
40
0.1875
49
0.125
74
0
49
-0.0625
74
0
0
LTYPE
5
278
330
247
100
AcDbSymbolTableRecord
100
AcDbLinetypeTableRecord
2
BORDER
70
0
3
Border __ __ . __ __ . __ __ . __ __ . __ __ .
72
65
73
6
40
1.75
49
0.5
74
0
49
-0.25
74
0
49
0.5
74
0
49
-0.25
74
0
49
0.0
74
0
49
-0.25
74
0
0
LTYPE
5
279
330
247
100
AcDbSymbolTableRecord
100
AcDbLinetypeTableRecord
2
BORDER2
70
0
3
Border2 __.__.__.__.__.__.__.__.__.__.__.
72
65
73
6
40
0.875
49
0.25
74
0
49
-0.125
74
0
49
0.25
74
0
49
-0.125
74
0
49
0.0
74
0
49
-0.125
74
0
0
LTYPE
5
27A
330
247
100
AcDbSymbolTableRecord
100
AcDbLinetypeTableRecord
2
BORDERX2
70
0
3
Borderx2  ____  ____  .  ____  ____  .  ___
72
65
73
6
40
3.5
49
1.0
74
0
49
-0.5
74
0
49
1.0
74
0
49
-0.5
74
0
49
0.0
74
0
49
-0.5
74
0
0
LTYPE
5
27B
330
247
100
AcDbSymbolTableRecord
100
AcDbLinetypeTableRecord
2
CENTER2
70
0
3
Center2  ___ _ ___ _ ___ _ ___ _ ___ _ ___
72
65
73
4
40
1.125
49
0.75
74
0
49
-0.125
74
0
49
0.125
74
0
49
-0.125
74
0
0
LTYPE
5
27C
330
247
100
AcDbSymbolTableRecord
100
AcDbLinetypeTableRecord
2
CENTERX2
70
0
3
Centerx2  ________  __  ________  __  _____
72
65
73
4
40
4.0
49
2.5
74
0
49
-0.5
74
0
49
0.5
74
0
49
-0.5
74
0
0
LTYPE
5
27D
330
247
100
AcDbSymbolTableRecord
100
AcDbLinetypeTableRecord
2
DASHDOT2
70
0
3
Dashdot2  _._._._._._._._._._._._._._._.
72
65
73
4
40
0.5
49
0.25
74
0
49
-0.125
74
0
49
0.0
74
0
49
-0.125
74
0
0
LTYPE
5
27E
330
247
100
AcDbSymbolTableRecord
100
AcDbLinetypeTableRecord
2
DASHDOTX2
70
0
3
Dashdotx2 ____  .  ____  .  ____  .  ___
72
65
73
4
40
2.0
49
1.0
74
0
49
-0.5
74
0
49
0.0
74
0
49
-0.5
74
0
0
LTYPE
5
27F
330
247
100
AcDbSymbolTableRecord
100
AcDbLinetypeTableRecord
2
DASHED2
70
0
3
Dashed2 _ _ _ _ _ _ _ _ _ _ _ _ _ _ _ _ _
72
65
73
2
40
0.375
49
0.25
74
0
49
-0.125
74
0
0
LTYPE
5
280
330
247
100
AcDbSymbolTableRecord
100
AcDbLinetypeTableRecord
2
DASHEDX2
70
0
3
Dashedx2 ____  ____  ____  ____  ____  ___
72
65
73
2
40
1.5
49
1.0
74
0
49
-0.5
74
0
0
LTYPE
5
281
330
247
100
AcDbSymbolTableRecord
100
AcDbLinetypeTableRecord
2
DIVIDE
70
0
3
Divide ____ . . ____ . . ____ . . ____ . . ____
72
65
73
6
40
1.25
49
0.5
74
0
49
-0.25
74
0
49
0.0
74
0
49
-0.25
74
0
49
0.0
74
0
49
-0.25
74
0
0
LTYPE
5
282
330
247
100
AcDbSymbolTableRecord
100
AcDbLinetypeTableRecord
2
DIVIDE2
70
0
3
Divide2 __..__..__..__..__..__..__..__.._
72
65
73
6
40
0.625
49
0.25
74
0
49
-0.125
74
0
49
0.0
74
0
49
-0.125
74
0
49
0.0
74
0
49
-0.125
74
0
0
LTYPE
5
283
330
247
100
AcDbSymbolTableRecord
100
AcDbLinetypeTableRecord
2
DIVIDEX2
70
0
3
Dividex2 ________  .  .  ________  .  .  _
72
65
73
6
40
2.5
49
1.0
74
0
49
-0.5
74
0
49
0.0
74
0
49
-0.5
74
0
49
0.0
74
0
49
-0.5
74
0
0
LTYPE
5
284
330
247
100
AcDbSymbolTableRecord
100
AcDbLinetypeTableRecord
2
DOT
70
0
3
Dot . . . . . . . . . . . . . . . . . . . . . . . .
72
65
73
2
40
0.25
49
0.0
74
0
49
-0.25
74
0
0
LTYPE
5
285
330
247
100
AcDbSymbolTableRecord
100
AcDbLinetypeTableRecord
2
DOT2
70
0
3
Dot2 ........................................
72
65
73
2
40
0.125
49
0.0
74
0
49
-0.125
74
0
0
LTYPE
5
286
330
247
100
AcDbSymbolTableRecord
100
AcDbLinetypeTableRecord
2
DOTX2
70
0
3
Dotx2 .  .  .  .  .  .  .  .  .  .  .  .  .  .
72
65
73
2
40
0.5
49
0.0
74
0
49
-0.5
74
0
0
LTYPE
5
287
330
247
100
AcDbSymbolTableRecord
100
AcDbLinetypeTableRecord
2
HIDDENX2
70
0
3
Hiddenx2 ____ ____ ____ ____ ____ ____ ____
72
65
73
2
40
0.75
49
0.5
74
0
49
-0.25
74
0
0
LTYPE
5
288
330
247
100
AcDbSymbolTableRecord
100
AcDbLinetypeTableRecord
2
PHANTOM
70
0
3
Phantom ______  __  __  ______  __  __  ______
72
65
73
6
40
2.5
49
1.25
74
0
49
-0.25
74
0
49
0.25
74
0
49
-0.25
74
0
49
0.25
74
0
49
-0.25
74
0
0
LTYPE
5
289
330
247
100
AcDbSymbolTableRecord
100
AcDbLinetypeTableRecord
2
PHANTOM2
70
0
3
Phantom2 ___ _ _ ___ _ _ ___ _ _ ___ _ _
72
65
73
6
40
1.25
49
0.625
74
0
49
-0.125
74
0
49
0.125
74
0
49
-0.125
74
0
49
0.125
74
0
49
-0.125
74
0
0
LTYPE
5
28A
330
247
100
AcDbSymbolTableRecord
100
AcDbLinetypeTableRecord
2
PHANTOMX2
70
0
3
Phantomx2 ____________    ____    ____   _
72
65
73
6
40
5.0
49
2.5
74
0
49
-0.5
74
0
49
0.5
74
0
49
-0.5
74
0
49
0.5
74
0
49
-0.5
74
0
0
ENDTAB
0
TABLE
2
LAYER
5
244
330
0
100
AcDbSymbolTable
70
6
0
LAYER
5
252
330
244
100
AcDbSymbolTableRecord
100
AcDbLayerTableRecord
2
0
70
0
62
7
6
Continuous
370
0
390
251
0
LAYER
5
23F
330
244
100
AcDbSymbolTableRecord
100
AcDbLayerTableRecord
2
Bemassung
70
0
 62
   7
6
Continuous
370
0
390
251
0
LAYER
5
240
330
244
100
AcDbSymbolTableRecord
100
AcDbLayerTableRecord
2
Rahmen
70
0
 62
   7
6
Continuous
370
0
390
251
0
LAYER
5
241
330
244
100
AcDbSymbolTableRecord
100
AcDbLayerTableRecord
2
Geo
70
0
 62
   7
6
Continuous
370
0
390
251
0
LAYER
5
33A
330
244
100
AcDbSymbolTableRecord
100
AcDbLayerTableRecord
2
Defpoints
70
0
62
7
6
Continuous
290
0
370
-3
390
251
0
LAYER
5
57E
330
244
100
AcDbSymbolTableRecord
100
AcDbLayerTableRecord
2
Text
70
0
 62
   7
6
Continuous
370
0
390
251
1001
AcAecLayerStandard
1000

1000

0
ENDTAB
0
TABLE
2
STYLE
5
245
330
0
100
AcDbSymbolTable
70
2
0
STYLE
5
253
330
245
100
AcDbSymbolTableRecord
100
AcDbTextStyleTableRecord
2
Standard
70
0
40
0.0
41
1.0
50
0.0
71
0
42
0.2
3
Arial
4

1001
ACAD
1000
Arial
1071
0
0
STYLE
5
132
330
245
100
AcDbSymbolTableRecord
100
AcDbTextStyleTableRecord
2
Beschriftung
70
0
40
0.0
41
1.0
50
0.0
71
0
42
0.2
3
Arial
4

1001
ACAD
1000
Arial
1071
0
1001
AcadAnnotative
1000
AnnotativeData
1070
1
1070
1
0
ENDTAB
0
TABLE
2
VIEW
5
248
330
0
100
AcDbSymbolTable
70
0
0
ENDTAB
0
TABLE
2
UCS
5
249
330
0
100
AcDbSymbolTable
70
0
0
ENDTAB
0
TABLE
2
APPID
5
24B
330
0
100
AcDbSymbolTable
70
13
0
APPID
5
254
330
24B
100
AcDbSymbolTableRecord
100
AcDbRegAppTableRecord
2
ACAD
70
0
0
APPID
5
26C
330
24B
100
AcDbSymbolTableRecord
100
AcDbRegAppTableRecord
2
VD_INVISIBLE_NOT_FOR_READ
70
0
0
APPID
5
26D
330
24B
100
AcDbSymbolTableRecord
100
AcDbRegAppTableRecord
2
VD_TEMPHATCH
70
0
0
APPID
5
26E
330
24B
100
AcDbSymbolTableRecord
100
AcDbRegAppTableRecord
2
VDEXTRAPARAM
70
0
0
APPID
5
26F
330
24B
100
AcDbSymbolTableRecord
100
AcDbRegAppTableRecord
2
PE_URL
70
0
0
APPID
5
270
330
24B
100
AcDbSymbolTableRecord
100
AcDbRegAppTableRecord
2
VD_UNKNOWN
70
0
0
APPID
5
28F
330
24B
100
AcDbSymbolTableRecord
100
AcDbRegAppTableRecord
2
AcadAnnotative
70
0
0
APPID
5
290
330
24B
100
AcDbSymbolTableRecord
100
AcDbRegAppTableRecord
2
ACAD_DSTYLE_DIMJAG
70
0
0
APPID
5
291
330
24B
100
AcDbSymbolTableRecord
100
AcDbRegAppTableRecord
2
ACAD_DSTYLE_DIMTALN
70
0
0
APPID
5
293
330
24B
100
AcDbSymbolTableRecord
100
AcDbRegAppTableRecord
2
ACAD_PSEXT
70
0
0
APPID
5
42A
330
24B
100
AcDbSymbolTableRecord
100
AcDbRegAppTableRecord
2
ACAD_MLEADERVER
70
0
0
APPID
5
532
330
24B
100
AcDbSymbolTableRecord
100
AcDbRegAppTableRecord
2
ACAD_EXEMPT_FROM_CAD_STANDARDS
70
0
0
APPID
5
57F
330
24B
100
AcDbSymbolTableRecord
100
AcDbRegAppTableRecord
2
AcAecLayerStandard
70
0
0
ENDTAB
0
TABLE
2
DIMSTYLE
5
24C
330
0
100
AcDbSymbolTable
70
3
100
AcDbDimStyleTable
71
2
340
27
340
269
0
DIMSTYLE
105
269
330
24C
100
AcDbSymbolTableRecord
100
AcDbDimStyleTableRecord
2
Standard
70
0
172
1
174
1
288
1
340
253
342
23C
0
DIMSTYLE
105
137
330
24C
100
AcDbSymbolTableRecord
100
AcDbDimStyleTableRecord
2
Beschriftung
70
0
41
2.5
42
0.625
44
1.25
73
0
74
0
77
1
140
2.5
147
0.625
172
1
174
1
271
2
288
1
340
253
342
23C
1001
AcadAnnotative
1000
AnnotativeData
1070
1
1070
1
1001
ACAD_DSTYLE_DIMJAG
1070
388
1040
1.5
1001
ACAD_DSTYLE_DIMTALN
1070
392
1070
0
0
DIMSTYLE
105
27
102
{ACAD_REACTORS
330
F1000D
330
F10012
330
F10003
330
F10008
102
}
330
24C
100
AcDbSymbolTableRecord
100
AcDbDimStyleTableRecord
2
BEM-ISBE
70
0
41
2.5
42
0.625
44
1.25
48
0.000000001
71
1
73
0
74
0
77
1
140
2.5
144
1.00000000000000
146
0.5
147
0.625
171
 3
172
 1
179
 3
271
 3
272
 3
274
 3
340
253
342
23C
1001
ACAD_DSTYLE_DIMJAG
1070
388
1040
1.5
1001
ACAD_DSTYLE_DIMTALN
1070
392
1070
1
0
ENDTAB
0
TABLE
2
BLOCK_RECORD
5
243
330
0
100
AcDbSymbolTable
70
5
0
BLOCK_RECORD
5
261
330
243
100
AcDbSymbolTableRecord
100
AcDbBlockTableRecord
2
*Model_Space
340
FD0
0
BLOCK_RECORD
5
25D
330
243
100
AcDbSymbolTableRecord
100
AcDbBlockTableRecord
2
*Paper_Space
340
FD1
0
BLOCK_RECORD
5
265
330
243
100
AcDbSymbolTableRecord
100
AcDbBlockTableRecord
2
*Paper_Space0
340
0
0
BLOCK_RECORD
5
23C
330
243
100
AcDbSymbolTableRecord
100
AcDbBlockTableRecord
2
VDDIM_DEFAULT
340
0
102
{BLKREFS
102
}
0
BLOCK_RECORD
5
23E
330
243
100
AcDbSymbolTableRecord
100
AcDbBlockTableRecord
2
VDDIM_NONE
340
0
0
BLOCK_RECORD
5
F1000C
330
243
100
AcDbSymbolTableRecord
100
AcDbBlockTableRecord
2
*D5
340
0
0
BLOCK_RECORD
5
F10011
330
243
100
AcDbSymbolTableRecord
100
AcDbBlockTableRecord
2
*D6
340
0
0
BLOCK_RECORD
5
F10002
330
243
100
AcDbSymbolTableRecord
100
AcDbBlockTableRecord
2
*D3
340
0
0
BLOCK_RECORD
5
F10007
330
243
100
AcDbSymbolTableRecord
100
AcDbBlockTableRecord
2
*D4
340
0
0
ENDTAB
0
ENDSEC
0
SECTION
2
BLOCKS
0
BLOCK
5
262
330
261
100
AcDbEntity
8
0
100
AcDbBlockBegin
2
*Model_Space
70
0
10
0.0
20
0.0
30
0.0
3
*Model_Space
1

0
ENDBLK
5
263
330
261
100
AcDbEntity
8
0
100
AcDbBlockEnd
0
BLOCK
5
25E
330
25D
100
AcDbEntity
67
1
8
0
100
AcDbBlockBegin
2
*Paper_Space
70
0
10
0.0
20
0.0
30
0.0
3
*Paper_Space
1

0
ENDBLK
5
25F
330
25D
100
AcDbEntity
67
1
8
0
100
AcDbBlockEnd
0
BLOCK
5
266
330
265
100
AcDbEntity
8
0
100
AcDbBlockBegin
2
*Paper_Space0
70
0
10
0.0
20
0.0
30
0.0
3
*Paper_Space0
1

0
VIEWPORT
5
296
102
{ACAD_XDICTIONARY
360
58E
102
}
330
265
100
AcDbEntity
8
0
60
1
100
AcDbViewport
10
0.0
20
0.0
30
0.0
40
10.0
41
10.0
69
0
12
0.0
22
0.0
13
0.0
23
0.0
14
1.0
24
1.0
15
0.0
25
0.0
16
0.0
26
0.0
36
1.0
17
0.0
27
0.0
37
0.0
42
0.0
43
0.0
44
0.0
45
10.0
50
0.0
51
0.0000000000007958
72
100
90
163872
1

281
0
71
0
74
0
110
0.0
120
0.0
130
0.0
111
1.0
121
0.0
131
0.0
112
0.0
122
1.0
132
0.0
79
0
146
0.0
1001
VD_INVISIBLE_NOT_FOR_READ
1000
VD_INVISIBLE_NOT_FOR_READ
0
VIEWPORT
5
297
102
{ACAD_XDICTIONARY
360
590
102
}
330
265
100
AcDbEntity
8
0
60
1
100
AcDbViewport
10
0.0
20
0.0
30
0.0
40
10.0
41
10.0
69
0
12
0.0
22
0.0
13
0.0
23
0.0
14
1.0
24
1.0
15
0.0
25
0.0
16
0.0
26
0.0
36
1.0
17
0.0
27
0.0
37
0.0
42
0.0
43
0.0
44
0.0
45
10.0
50
0.0
51
0.0000000000007958
72
100
90
163872
1

281
0
71
0
74
0
110
0.0
120
0.0
130
0.0
111
1.0
121
0.0
131
0.0
112
0.0
122
1.0
132
0.0
79
0
146
0.0
1001
VD_INVISIBLE_NOT_FOR_READ
1000
VD_INVISIBLE_NOT_FOR_READ
0
ENDBLK
5
267
330
265
100
AcDbEntity
8
0
100
AcDbBlockEnd
0
BLOCK
5
28B
330
23C
100
AcDbEntity
8
0
100
AcDbBlockBegin
2
VDDIM_DEFAULT
70
0
10
0.0
20
0.0
30
0.0
3
VDDIM_DEFAULT
1

0
LWPOLYLINE
5
23D
330
23C
100
AcDbEntity
8
0
6
Continuous
62
0
100
AcDbPolyline
90
4
70
0
43
0.0
10
0.0
20
0.0
10
-1.0
20
-0.1665
10
-1.0
20
0.1665
10
0.0
20
0.0
1001
VDEXTRAPARAM
1071
1
1071
0
1071
0
1040
1.0
1000

1000

1040
0.0
1040
0.0
0
HATCH
5
292
330
23C
100
AcDbEntity
8
0
6
Continuous
62
0
100
AcDbHatch
10
0.0
20
0.0
30
0.0
210
0.0
220
0.0
230
1.0
2
SOLID
70
1
71
0
91
1
92
2
72
0
73
1
93
3
10
0.0
20
0.0
10
-1.0
20
-0.1665
10
-1.0
20
0.1665
97
0
75
0
76
1
98
1
10
0.0
20
0.0
1001
VDEXTRAPARAM
1071
1
1071
0
1071
0
1040
1.0
1000

1000

1040
0.0
1040
0.0
1001
VD_TEMPHATCH
1000
VD_TEMPHATCH
0
ENDBLK
5
28C
330
23C
100
AcDbEntity
8
0
100
AcDbBlockEnd
0
BLOCK
5
28D
330
23E
100
AcDbEntity
8
0
100
AcDbBlockBegin
2
VDDIM_NONE
70
0
10
0.0
20
0.0
30
0.0
3
VDDIM_NONE
1

0
ENDBLK
5
28E
330
23E
100
AcDbEntity
8
0
100
AcDbBlockEnd
  0
BLOCK
  5
F10016
330
F1000C
100
AcDbEntity
  8
0
100
AcDbBlockBegin
  2
*D5
 70
     1
 10
0.0
 20
0.0
 30
0.0
  3
*D5
  1

  0
LINE
  5
F10017
330
F1000C
100
AcDbEntity
  8
Bemassung
 62
     0
370
    -2
100
AcDbLine
10
-15.7174038739521
20
-0.245735761780836
30
0.000000000000000
11
-15.7174038739521
21
-10.2457357617808
31
0.000000000000000
  0
LINE
  5
F10018
330
F1000C
100
AcDbEntity
  8
Bemassung
 62
     0
370
    -2
100
AcDbLine
10
-40.7174038739521
20
-10.2457357617808
30
0.000000000000000
11
-40.7174038739521
21
31.7542642382192
31
0.000000000000000
  0
LINE
  5
F10019
330
F1000C
100
AcDbEntity
  8
Bemassung
 62
     0
370
    -2
100
AcDbLine
10
-15.7174038739521
20
-8.24573576178084
30
0.000000000000000
11
-40.7174038739521
21
-8.24573576178084
31
0.000000000000000
  0
INSERT
  5
F1001A
330
F1000C
100
AcDbEntity
  8
Bemassung
 62
     0
370
    -2
100
AcDbBlockReference
  2
VDDIM_DEFAULT
10
-15.7174038739521
20
-8.24573576178084
30
0.000000000000000
 41
2.50000000000000
 42
2.50000000000000
 43
2.50000000000000
  0
INSERT
  5
F1001B
330
F1000C
100
AcDbEntity
  8
Bemassung
 62
     0
370
    -2
100
AcDbBlockReference
  2
VDDIM_DEFAULT
10
-40.7174038739521
20
-8.24573576178084
30
0.000000000000000
 41
2.50000000000000
 42
2.50000000000000
 43
2.50000000000000
 50
180.000000000000
  0
MTEXT
  5
F1001C
330
F1000C
100
AcDbEntity
  8
Bemassung
 62
     0
100
AcDbMText
10
-28.2174038739521
20
-7.57906909511417
30
0.000000000000000
 40
2.50000000000000
 41
0.0
 71
     8
 72
     1
  1
25
 11
1.00000000000000
 21
0.000000000000000
 31
0.0
 73
     1
 44
1.0
1001
ACAD
1000
MTEXTBEGIN
1070
73
1070
1
1070
44
1040
1.0
1070
74
1070
0
1000
MTEXTEND
  0
POINT
  5
F1001D
330
F1000C
100
AcDbEntity
  8
Bemassung
 62
     0
100
AcDbPoint
10
-15.7174038739521
20
-0.245735761780836
30
0.000000000000000
  0
POINT
  5
F1001E
330
F1000C
100
AcDbEntity
  8
Bemassung
 62
     0
100
AcDbPoint
10
-40.7174038739521
20
-10.2457357617808
30
0.000000000000000
  0
ENDBLK
  5
F1001F
330
F1000C
100
AcDbEntity
  8
0
100
AcDbBlockEnd
  0
BLOCK
  5
F10020
330
F10011
100
AcDbEntity
  8
0
100
AcDbBlockBegin
  2
*D6
 70
     1
 10
0.0
 20
0.0
 30
0.0
  3
*D6
  1

  0
LINE
  5
F10021
330
F10011
100
AcDbEntity
  8
Bemassung
 62
     0
370
    -2
100
AcDbLine
10
52.2825961260479
20
18.7542642382192
30
0.000000000000000
11
52.2825961260479
21
31.7542642382192
31
0.000000000000000
  0
LINE
  5
F10022
330
F10011
100
AcDbEntity
  8
Bemassung
 62
     0
370
    -2
100
AcDbLine
10
-40.7174038739521
20
-10.2457357617808
30
0.000000000000000
11
-40.7174038739521
21
31.7542642382192
31
0.000000000000000
  0
LINE
  5
F10023
330
F10011
100
AcDbEntity
  8
Bemassung
 62
     0
370
    -2
100
AcDbLine
10
52.2825961260479
20
29.7542642382192
30
0.000000000000000
11
-40.7174038739521
21
29.7542642382192
31
0.000000000000000
  0
INSERT
  5
F10024
330
F10011
100
AcDbEntity
  8
Bemassung
 62
     0
370
    -2
100
AcDbBlockReference
  2
VDDIM_DEFAULT
10
52.2825961260479
20
29.7542642382192
30
0.000000000000000
 41
2.50000000000000
 42
2.50000000000000
 43
2.50000000000000
  0
INSERT
  5
F10025
330
F10011
100
AcDbEntity
  8
Bemassung
 62
     0
370
    -2
100
AcDbBlockReference
  2
VDDIM_DEFAULT
10
-40.7174038739521
20
29.7542642382192
30
0.000000000000000
 41
2.50000000000000
 42
2.50000000000000
 43
2.50000000000000
 50
180.000000000000
  0
MTEXT
  5
F10026
330
F10011
100
AcDbEntity
  8
Bemassung
 62
     0
100
AcDbMText
10
5.78259612604795
20
30.4209309048858
30
0.000000000000000
 40
2.50000000000000
 41
0.0
 71
     8
 72
     1
  1
93
 11
1.00000000000000
 21
0.000000000000000
 31
0.0
 73
     1
 44
1.0
1001
ACAD
1000
MTEXTBEGIN
1070
73
1070
1
1070
44
1040
1.0
1070
74
1070
0
1000
MTEXTEND
  0
POINT
  5
F10027
330
F10011
100
AcDbEntity
  8
Bemassung
 62
     0
100
AcDbPoint
10
52.2825961260479
20
18.7542642382192
30
0.000000000000000
  0
POINT
  5
F10028
330
F10011
100
AcDbEntity
  8
Bemassung
 62
     0
100
AcDbPoint
10
-40.7174038739521
20
-10.2457357617808
30
0.000000000000000
  0
ENDBLK
  5
F10029
330
F10011
100
AcDbEntity
  8
0
100
AcDbBlockEnd
  0
BLOCK
  5
F1002A
330
F10002
100
AcDbEntity
  8
0
100
AcDbBlockBegin
  2
*D3
 70
     1
 10
0.0
 20
0.0
 30
0.0
  3
*D3
  1

  0
LINE
  5
F1002B
330
F10002
100
AcDbEntity
  8
Bemassung
 62
     0
370
    -2
100
AcDbLine
10
-40.7174038739521
20
-0.245735761780836
30
0.000000000000000
11
-52.7174038739521
21
-0.245735761780836
31
0.000000000000000
  0
LINE
  5
F1002C
330
F10002
100
AcDbEntity
  8
Bemassung
 62
     0
370
    -2
100
AcDbLine
10
-40.7174038739521
20
19.7542642382192
30
0.000000000000000
11
-52.7174038739521
21
19.7542642382192
31
0.000000000000000
  0
LINE
  5
F1002D
330
F10002
100
AcDbEntity
  8
Bemassung
 62
     0
370
    -2
100
AcDbLine
10
-50.7174038739521
20
-0.245735761780836
30
0.000000000000000
11
-50.7174038739521
21
19.7542642382192
31
0.000000000000000
  0
INSERT
  5
F1002E
330
F10002
100
AcDbEntity
  8
Bemassung
 62
     0
370
    -2
100
AcDbBlockReference
  2
VDDIM_DEFAULT
10
-50.7174038739521
20
-0.245735761780836
30
0.000000000000000
 41
2.50000000000000
 42
2.50000000000000
 43
2.50000000000000
 50
270.000000000000
  0
INSERT
  5
F1002F
330
F10002
100
AcDbEntity
  8
Bemassung
 62
     0
370
    -2
100
AcDbBlockReference
  2
VDDIM_DEFAULT
10
-50.7174038739521
20
19.7542642382192
30
0.000000000000000
 41
2.50000000000000
 42
2.50000000000000
 43
2.50000000000000
 50
90.0000000000000
  0
MTEXT
  5
F10030
330
F10002
100
AcDbEntity
  8
Bemassung
 62
     0
100
AcDbMText
10
-51.3840705406187
20
9.75426423821916
30
0.000000000000000
 40
2.50000000000000
 41
0.0
 71
     8
 72
     1
  1
Ø20
 11
6.12323399573677e-17
 21
1.00000000000000
 31
0.0
 73
     1
 44
1.0
1001
ACAD
1000
MTEXTBEGIN
1070
73
1070
1
1070
44
1040
1.0
1070
74
1070
0
1000
MTEXTEND
  0
POINT
  5
F10031
330
F10002
100
AcDbEntity
  8
Bemassung
 62
     0
100
AcDbPoint
10
-40.7174038739521
20
-0.245735761780836
30
0.000000000000000
  0
POINT
  5
F10032
330
F10002
100
AcDbEntity
  8
Bemassung
 62
     0
100
AcDbPoint
10
-40.7174038739521
20
19.7542642382192
30
0.000000000000000
  0
ENDBLK
  5
F10033
330
F10002
100
AcDbEntity
  8
0
100
AcDbBlockEnd
  0
BLOCK
  5
F10034
330
F10007
100
AcDbEntity
  8
0
100
AcDbBlockBegin
  2
*D4
 70
     1
 10
0.0
 20
0.0
 30
0.0
  3
*D4
  1

  0
LINE
  5
F10035
330
F10007
100
AcDbEntity
  8
Bemassung
 62
     0
370
    -2
100
AcDbLine
10
51.2825961260479
20
-0.245735761780836
30
0.000000000000000
11
64.2825961260479
21
-0.245735761780836
31
0.000000000000000
  0
LINE
  5
F10036
330
F10007
100
AcDbEntity
  8
Bemassung
 62
     0
370
    -2
100
AcDbLine
10
51.2825961260479
20
19.7542642382192
30
0.000000000000000
11
64.2825961260479
21
19.7542642382192
31
0.000000000000000
  0
LINE
  5
F10037
330
F10007
100
AcDbEntity
  8
Bemassung
 62
     0
370
    -2
100
AcDbLine
10
62.2825961260479
20
-0.245735761780836
30
0.000000000000000
11
62.2825961260479
21
19.7542642382192
31
0.000000000000000
  0
INSERT
  5
F10038
330
F10007
100
AcDbEntity
  8
Bemassung
 62
     0
370
    -2
100
AcDbBlockReference
  2
VDDIM_DEFAULT
10
62.2825961260479
20
-0.245735761780836
30
0.000000000000000
 41
2.50000000000000
 42
2.50000000000000
 43
2.50000000000000
 50
270.000000000000
  0
INSERT
  5
F10039
330
F10007
100
AcDbEntity
  8
Bemassung
 62
     0
370
    -2
100
AcDbBlockReference
  2
VDDIM_DEFAULT
10
62.2825961260479
20
19.7542642382192
30
0.000000000000000
 41
2.50000000000000
 42
2.50000000000000
 43
2.50000000000000
 50
90.0000000000000
  0
MTEXT
  5
F1003A
330
F10007
100
AcDbEntity
  8
Bemassung
 62
     0
100
AcDbMText
10
61.6159294593813
20
9.75426423821916
30
0.000000000000000
 40
2.50000000000000
 41
0.0
 71
     8
 72
     1
  1
Ø20h6
 11
6.12323399573677e-17
 21
1.00000000000000
 31
0.0
 73
     1
 44
1.0
  0
POINT
  5
F1003B
330
F10007
100
AcDbEntity
  8
Bemassung
 62
     0
100
AcDbPoint
10
51.2825961260479
20
-0.245735761780836
30
0.000000000000000
  0
POINT
  5
F1003C
330
F10007
100
AcDbEntity
  8
Bemassung
 62
     0
100
AcDbPoint
10
51.2825961260479
20
19.7542642382192
30
0.000000000000000
  0
ENDBLK
  5
F1003D
330
F10007
100
AcDbEntity
  8
0
100
AcDbBlockEnd
0
ENDSEC
0
SECTION
2
ENTITIES
  0
DIMENSION
  5
F1000D
330
261
100
AcDbEntity
  8
Bemassung
100
AcDbDimension
  2
*D5
10
-40.7174038739521
20
-8.24573576178084
30
0.000000000000000
11
-28.2174038739521
21
-7.57906909511417
31
0.000000000000000
 70
32
 1
25
 71
     8
  3
BEM-ISBE
100
AcDbAlignedDimension
13
-15.7174038739521
23
-0.245735761780836
33
0.000000000000000
14
-40.7174038739521
24
-10.2457357617808
34
0.000000000000000
100
AcDbRotatedDimension
1001
ACAD
1000
DSTYLE
1002
{
1070
284
1070
8
1070
78
1070
8
1070
144
1040
1.00000000000000
1070
147
1040
0.625
1070
 72
1070
 0
1070
 71
1070
 0
1002
}
  0
DIMENSION
  5
F10012
330
261
100
AcDbEntity
  8
Bemassung
100
AcDbDimension
  2
*D6
10
-40.7174038739521
20
29.7542642382192
30
0.000000000000000
11
5.78259612604795
21
30.4209309048858
31
0.000000000000000
 70
32
 1
93
 71
     8
  3
BEM-ISBE
100
AcDbAlignedDimension
13
52.2825961260479
23
18.7542642382192
33
0.000000000000000
14
-40.7174038739521
24
-10.2457357617808
34
0.000000000000000
100
AcDbRotatedDimension
1001
ACAD
1000
DSTYLE
1002
{
1070
284
1070
8
1070
78
1070
8
1070
144
1040
1.00000000000000
1070
147
1040
0.625
1070
 72
1070
 0
1070
 71
1070
 0
1002
}
  0
DIMENSION
  5
F10003
330
261
100
AcDbEntity
  8
Bemassung
100
AcDbDimension
  2
*D3
10
-50.7174038739521
20
19.7542642382192
30
0.000000000000000
11
-51.3840705406187
21
9.75426423821916
31
0.000000000000000
 70
32
 1
Ø20
 71
     8
  3
BEM-ISBE
100
AcDbAlignedDimension
13
-40.7174038739521
23
-0.245735761780836
33
0.000000000000000
14
-40.7174038739521
24
19.7542642382192
34
0.000000000000000
50
90.0000000000000
100
AcDbRotatedDimension
1001
ACAD
1000
DSTYLE
1002
{
1070
284
1070
8
1070
78
1070
8
1070
144
1040
1.00000000000000
1070
147
1040
0.625
1070
 72
1070
 0
1070
 71
1070
 0
1002
}
  0
DIMENSION
  5
F10008
330
261
100
AcDbEntity
  8
Bemassung
100
AcDbDimension
  2
*D4
10
62.2825961260479
20
19.7542642382192
30
0.000000000000000
11
61.6159294593813
21
9.75426423821916
31
0.000000000000000
 70
32
 1
Ø20h6
 71
     8
  3
BEM-ISBE
100
AcDbAlignedDimension
13
51.2825961260479
23
-0.245735761780836
33
0.000000000000000
14
51.2825961260479
24
19.7542642382192
34
0.000000000000000
50
90.0000000000000
100
AcDbRotatedDimension
1001
ACAD
1000
DSTYLE
1002
{
1070
284
1070
8
1070
78
1070
8
1070
144
1040
1.00000000000000
1070
147
1040
0.625
1070
 72
1070
 0
1070
 71
1070
 0
1002
}
  0
LINE
  5
F1003E
330
F1003F
100
AcDbEntity
8
Geo
100
AcDbLine
10
-40.7174038739521
20
9.75426423821916
30
0.000000000000000
11
-40.7174038739521
21
19.7542642382192
31
0.000000000000000
  0
LINE
  5
F10040
330
F10041
100
AcDbEntity
8
Geo
100
AcDbLine
10
-40.7174038739521
20
19.7542642382192
30
0.000000000000000
11
-15.7174038739521
21
19.7542642382192
31
0.000000000000000
  0
LINE
  5
F10042
330
F10043
100
AcDbEntity
8
Geo
100
AcDbLine
10
-15.7174038739521
20
19.7542642382192
30
0.000000000000000
11
51.2825961260479
21
19.7542642382192
31
0.000000000000000
  0
LINE
  5
F10044
330
F10045
100
AcDbEntity
8
Geo
100
AcDbLine
10
51.2825961260479
20
19.7542642382192
30
0.000000000000000
11
52.2825961260479
21
18.7542642382192
31
0.000000000000000
  0
LINE
  5
F10046
330
F10047
100
AcDbEntity
8
Geo
100
AcDbLine
10
-40.7174038739521
20
19.7542642382192
30
0.000000000000000
11
-40.6174038739520
21
19.7537642423858
31
0.000000000000000
  0
LINE
  5
F10048
330
F10049
100
AcDbEntity
8
Geo
100
AcDbLine
10
-40.6174038739520
20
19.7537642423858
30
0.000000000000000
11
-40.5174038739520
21
19.7522643048849
31
0.000000000000000
  0
LINE
  5
F1004A
330
F1004B
100
AcDbEntity
8
Geo
100
AcDbLine
10
-40.5174038739520
20
19.7522643048849
30
0.000000000000000
11
-40.4174038739521
21
19.7497645757090
31
0.000000000000000
  0
LINE
  5
F1004C
330
F1004D
100
AcDbEntity
8
Geo
100
AcDbLine
10
-40.4174038739521
20
19.7497645757090
30
0.000000000000000
11
-40.3174038739521
21
19.7462653048289
31
0.000000000000000
  0
LINE
  5
F1004E
330
F1004F
100
AcDbEntity
8
Geo
100
AcDbLine
10
-40.3174038739521
20
19.7462653048289
30
0.000000000000000
11
-40.2174038739521
21
19.7417668421688
31
0.000000000000000
  0
LINE
  5
F10050
330
F10051
100
AcDbEntity
8
Geo
100
AcDbLine
10
-40.2174038739521
20
19.7417668421688
30
0.000000000000000
11
-40.1174038739520
21
19.7362696375712
31
0.000000000000000
  0
LINE
  5
F10052
330
F10053
100
AcDbEntity
8
Geo
100
AcDbLine
10
-40.1174038739520
20
19.7362696375712
30
0.000000000000000
11
-40.0174038739520
21
19.7297742407520
31
0.000000000000000
  0
LINE
  5
F10054
330
F10055
100
AcDbEntity
8
Geo
100
AcDbLine
10
-40.0174038739520
20
19.7297742407520
30
0.000000000000000
11
-39.9174038739521
21
19.7222813012454
31
0.000000000000000
  0
LINE
  5
F10056
330
F10057
100
AcDbEntity
8
Geo
100
AcDbLine
10
-39.9174038739521
20
19.7222813012454
30
0.000000000000000
11
-39.8174038739521
21
19.7137915683391
31
0.000000000000000
  0
LINE
  5
F10058
330
F10059
100
AcDbEntity
8
Geo
100
AcDbLine
10
-39.8174038739521
20
19.7137915683391
30
0.000000000000000
11
-39.7174038739521
21
19.7043058909994
31
0.000000000000000
  0
LINE
  5
F1005A
330
F1005B
100
AcDbEntity
8
Geo
100
AcDbLine
10
-39.7174038739521
20
19.7043058909994
30
0.000000000000000
11
-39.6174038739520
21
19.6938252177861
31
0.000000000000000
  0
LINE
  5
F1005C
330
F1005D
100
AcDbEntity
8
Geo
100
AcDbLine
10
-39.6174038739520
20
19.6938252177861
30
0.000000000000000
11
-39.5174038739520
21
19.6823505967578
31
0.000000000000000
  0
LINE
  5
F1005E
330
F1005F
100
AcDbEntity
8
Geo
100
AcDbLine
10
-39.5174038739520
20
19.6823505967578
30
0.000000000000000
11
-39.4174038739521
21
19.6698831753670
31
0.000000000000000
  0
LINE
  5
F10060
330
F10061
100
AcDbEntity
8
Geo
100
AcDbLine
10
-39.4174038739521
20
19.6698831753670
30
0.000000000000000
11
-39.3174038739521
21
19.6564242003455
31
0.000000000000000
  0
LINE
  5
F10062
330
F10063
100
AcDbEntity
8
Geo
100
AcDbLine
10
-39.3174038739521
20
19.6564242003455
30
0.000000000000000
11
-39.2174038739521
21
19.6419750175796
31
0.000000000000000
  0
LINE
  5
F10064
330
F10065
100
AcDbEntity
8
Geo
100
AcDbLine
10
-39.2174038739521
20
19.6419750175796
30
0.000000000000000
11
-39.1174038739520
21
19.6265370719754
31
0.000000000000000
  0
LINE
  5
F10066
330
F10067
100
AcDbEntity
8
Geo
100
AcDbLine
10
-39.1174038739520
20
19.6265370719754
30
0.000000000000000
11
-39.0174038739520
21
19.6101119073148
31
0.000000000000000
  0
LINE
  5
F10068
330
F10069
100
AcDbEntity
8
Geo
100
AcDbLine
10
-39.0174038739520
20
19.6101119073148
30
0.000000000000000
11
-38.9174038739521
21
19.5927011661004
31
0.000000000000000
  0
LINE
  5
F1006A
330
F1006B
100
AcDbEntity
8
Geo
100
AcDbLine
10
-38.9174038739521
20
19.5927011661004
30
0.000000000000000
11
-38.8174038739521
21
19.5743065893919
31
0.000000000000000
  0
LINE
  5
F1006C
330
F1006D
100
AcDbEntity
8
Geo
100
AcDbLine
10
-38.8174038739521
20
19.5743065893919
30
0.000000000000000
11
-38.7174038739521
21
19.5549300166316
31
0.000000000000000
  0
LINE
  5
F1006E
330
F1006F
100
AcDbEntity
8
Geo
100
AcDbLine
10
-38.7174038739521
20
19.5549300166316
30
0.000000000000000
11
-38.6174038739520
21
19.5345733854606
31
0.000000000000000
  0
LINE
  5
F10070
330
F10071
100
AcDbEntity
8
Geo
100
AcDbLine
10
-38.6174038739520
20
19.5345733854606
30
0.000000000000000
11
-38.5174038739520
21
19.5132387315252
31
0.000000000000000
  0
LINE
  5
F10072
330
F10073
100
AcDbEntity
8
Geo
100
AcDbLine
10
-38.5174038739520
20
19.5132387315252
30
0.000000000000000
11
-38.4174038739521
21
19.4909281882729
31
0.000000000000000
  0
LINE
  5
F10074
330
F10075
100
AcDbEntity
8
Geo
100
AcDbLine
10
-38.4174038739521
20
19.4909281882729
30
0.000000000000000
11
-38.3174038739521
21
19.4676439867395
31
0.000000000000000
  0
LINE
  5
F10076
330
F10077
100
AcDbEntity
8
Geo
100
AcDbLine
10
-38.3174038739521
20
19.4676439867395
30
0.000000000000000
11
-38.2174038739521
21
19.4433884553256
31
0.000000000000000
  0
LINE
  5
F10078
330
F10079
100
AcDbEntity
8
Geo
100
AcDbLine
10
-38.2174038739521
20
19.4433884553256
30
0.000000000000000
11
-38.1174038739520
21
19.4181640195643
31
0.000000000000000
  0
LINE
  5
F1007A
330
F1007B
100
AcDbEntity
8
Geo
100
AcDbLine
10
-38.1174038739520
20
19.4181640195643
30
0.000000000000000
11
-38.0174038739520
21
19.3919732018781
31
0.000000000000000
  0
LINE
  5
F1007C
330
F1007D
100
AcDbEntity
8
Geo
100
AcDbLine
10
-38.0174038739520
20
19.3919732018781
30
0.000000000000000
11
-37.9174038739520
21
19.3648186213269
31
0.000000000000000
  0
LINE
  5
F1007E
330
F1007F
100
AcDbEntity
8
Geo
100
AcDbLine
10
-37.9174038739520
20
19.3648186213269
30
0.000000000000000
11
-37.8174038739521
21
19.3367029933461
31
0.000000000000000
  0
LINE
  5
F10080
330
F10081
100
AcDbEntity
8
Geo
100
AcDbLine
10
-37.8174038739521
20
19.3367029933461
30
0.000000000000000
11
-37.7174038739521
21
19.3076291294752
31
0.000000000000000
  0
LINE
  5
F10082
330
F10083
100
AcDbEntity
8
Geo
100
AcDbLine
10
-37.7174038739521
20
19.3076291294752
30
0.000000000000000
11
-37.6174038739520
21
19.2775999370763
31
0.000000000000000
  0
LINE
  5
F10084
330
F10085
100
AcDbEntity
8
Geo
100
AcDbLine
10
-37.6174038739520
20
19.2775999370763
30
0.000000000000000
11
-37.5174038739520
21
19.2466184190436
31
0.000000000000000
  0
LINE
  5
F10086
330
F10087
100
AcDbEntity
8
Geo
100
AcDbLine
10
-37.5174038739520
20
19.2466184190436
30
0.000000000000000
11
-37.4174038739520
21
19.2146876735030
31
0.000000000000000
  0
LINE
  5
F10088
330
F10089
100
AcDbEntity
8
Geo
100
AcDbLine
10
-37.4174038739520
20
19.2146876735030
30
0.000000000000000
11
-37.3174038739521
21
19.1818108935026
31
0.000000000000000
  0
LINE
  5
F1008A
330
F1008B
100
AcDbEntity
8
Geo
100
AcDbLine
10
-37.3174038739521
20
19.1818108935026
30
0.000000000000000
11
-37.2174038739521
21
19.1479913666930
31
0.000000000000000
  0
LINE
  5
F1008C
330
F1008D
100
AcDbEntity
8
Geo
100
AcDbLine
10
-37.2174038739521
20
19.1479913666930
30
0.000000000000000
11
-37.1174038739520
21
19.1132324749985
31
0.000000000000000
  0
LINE
  5
F1008E
330
F1008F
100
AcDbEntity
8
Geo
100
AcDbLine
10
-37.1174038739520
20
19.1132324749985
30
0.000000000000000
11
-37.0174038739520
21
19.0775376942795
31
0.000000000000000
  0
LINE
  5
F10090
330
F10091
100
AcDbEntity
8
Geo
100
AcDbLine
10
-37.0174038739520
20
19.0775376942795
30
0.000000000000000
11
-36.9174038739520
21
19.0409105939843
31
0.000000000000000
  0
LINE
  5
F10092
330
F10093
100
AcDbEntity
8
Geo
100
AcDbLine
10
-36.9174038739520
20
19.0409105939843
30
0.000000000000000
11
-36.8174038739520
21
19.0033548367923
31
0.000000000000000
  0
LINE
  5
F10094
330
F10095
100
AcDbEntity
8
Geo
100
AcDbLine
10
-36.8174038739520
20
19.0033548367923
30
0.000000000000000
11
-36.7174038739521
21
18.9648741782480
31
0.000000000000000
  0
LINE
  5
F10096
330
F10097
100
AcDbEntity
8
Geo
100
AcDbLine
10
-36.7174038739521
20
18.9648741782480
30
0.000000000000000
11
-36.6174038739520
21
18.9254724663852
31
0.000000000000000
  0
LINE
  5
F10098
330
F10099
100
AcDbEntity
8
Geo
100
AcDbLine
10
-36.6174038739520
20
18.9254724663852
30
0.000000000000000
11
-36.5174038739520
21
18.8851536413422
31
0.000000000000000
  0
LINE
  5
F1009A
330
F1009B
100
AcDbEntity
8
Geo
100
AcDbLine
10
-36.5174038739520
20
18.8851536413422
30
0.000000000000000
11
-36.4174038739521
21
18.8439217349680
31
0.000000000000000
  0
LINE
  5
F1009C
330
F1009D
100
AcDbEntity
8
Geo
100
AcDbLine
10
-36.4174038739521
20
18.8439217349680
30
0.000000000000000
11
-36.3174038739521
21
18.8017808704188
31
0.000000000000000
  0
LINE
  5
F1009E
330
F1009F
100
AcDbEntity
8
Geo
100
AcDbLine
10
-36.3174038739521
20
18.8017808704188
30
0.000000000000000
11
-36.2174038739521
21
18.7587352617459
31
0.000000000000000
  0
LINE
  5
F100A0
330
F100A1
100
AcDbEntity
8
Geo
100
AcDbLine
10
-36.2174038739521
20
18.7587352617459
30
0.000000000000000
11
-36.1174038739520
21
18.7147892134744
31
0.000000000000000
  0
LINE
  5
F100A2
330
F100A3
100
AcDbEntity
8
Geo
100
AcDbLine
10
-36.1174038739520
20
18.7147892134744
30
0.000000000000000
11
-36.0174038739520
21
18.6699471201725
31
0.000000000000000
  0
LINE
  5
F100A4
330
F100A5
100
AcDbEntity
8
Geo
100
AcDbLine
10
-36.0174038739520
20
18.6699471201725
30
0.000000000000000
11
-35.9174038739521
21
18.6242134660120
31
0.000000000000000
  0
LINE
  5
F100A6
330
F100A7
100
AcDbEntity
8
Geo
100
AcDbLine
10
-35.9174038739521
20
18.6242134660120
30
0.000000000000000
11
-35.8174038739521
21
18.5775928243204
31
0.000000000000000
  0
LINE
  5
F100A8
330
F100A9
100
AcDbEntity
8
Geo
100
AcDbLine
10
-35.8174038739521
20
18.5775928243204
30
0.000000000000000
11
-35.7174038739521
21
18.5300898571229
31
0.000000000000000
  0
LINE
  5
F100AA
330
F100AB
100
AcDbEntity
8
Geo
100
AcDbLine
10
-35.7174038739521
20
18.5300898571229
30
0.000000000000000
11
-35.6174038739521
21
18.4817093146767
31
0.000000000000000
  0
LINE
  5
F100AC
330
F100AD
100
AcDbEntity
8
Geo
100
AcDbLine
10
-35.6174038739521
20
18.4817093146767
30
0.000000000000000
11
-35.5174038739521
21
18.4324560349957
31
0.000000000000000
  0
LINE
  5
F100AE
330
F100AF
100
AcDbEntity
8
Geo
100
AcDbLine
10
-35.5174038739521
20
18.4324560349957
30
0.000000000000000
11
-35.4174038739521
21
18.3823349433668
31
0.000000000000000
  0
LINE
  5
F100B0
330
F100B1
100
AcDbEntity
8
Geo
100
AcDbLine
10
-35.4174038739521
20
18.3823349433668
30
0.000000000000000
11
-35.3174038739521
21
18.3313510518574
31
0.000000000000000
  0
LINE
  5
F100B2
330
F100B3
100
AcDbEntity
8
Geo
100
AcDbLine
10
-35.3174038739521
20
18.3313510518574
30
0.000000000000000
11
-35.2174038739521
21
18.2795094588142
31
0.000000000000000
  0
LINE
  5
F100B4
330
F100B5
100
AcDbEntity
8
Geo
100
AcDbLine
10
-35.2174038739521
20
18.2795094588142
30
0.000000000000000
11
-35.1174038739521
21
18.2268153483533
31
0.000000000000000
  0
LINE
  5
F100B6
330
F100B7
100
AcDbEntity
8
Geo
100
AcDbLine
10
-35.1174038739521
20
18.2268153483533
30
0.000000000000000
11
-35.0174038739521
21
18.1732739898419
31
0.000000000000000
  0
LINE
  5
F100B8
330
F100B9
100
AcDbEntity
8
Geo
100
AcDbLine
10
-35.0174038739521
20
18.1732739898419
30
0.000000000000000
11
-34.9174038739521
21
18.1188907373710
31
0.000000000000000
  0
LINE
  5
F100BA
330
F100BB
100
AcDbEntity
8
Geo
100
AcDbLine
10
-34.9174038739521
20
18.1188907373710
30
0.000000000000000
11
-34.8174038739521
21
18.0636710292208
31
0.000000000000000
  0
LINE
  5
F100BC
330
F100BD
100
AcDbEntity
8
Geo
100
AcDbLine
10
-34.8174038739521
20
18.0636710292208
30
0.000000000000000
11
-34.7174038739521
21
18.0076203873159
31
0.000000000000000
  0
LINE
  5
F100BE
330
F100BF
100
AcDbEntity
8
Geo
100
AcDbLine
10
-34.7174038739521
20
18.0076203873159
30
0.000000000000000
11
-34.6174038739521
21
17.9507444166740
31
0.000000000000000
  0
LINE
  5
F100C0
330
F100C1
100
AcDbEntity
8
Geo
100
AcDbLine
10
-34.6174038739521
20
17.9507444166740
30
0.000000000000000
11
-34.5174038739521
21
17.8930488048445
31
0.000000000000000
  0
LINE
  5
F100C2
330
F100C3
100
AcDbEntity
8
Geo
100
AcDbLine
10
-34.5174038739521
20
17.8930488048445
30
0.000000000000000
11
-34.4174038739521
21
17.8345393213407
31
0.000000000000000
  0
LINE
  5
F100C4
330
F100C5
100
AcDbEntity
8
Geo
100
AcDbLine
10
-34.4174038739521
20
17.8345393213407
30
0.000000000000000
11
-34.3174038739521
21
17.7752218170621
31
0.000000000000000
  0
LINE
  5
F100C6
330
F100C7
100
AcDbEntity
8
Geo
100
AcDbLine
10
-34.3174038739521
20
17.7752218170621
30
0.000000000000000
11
-34.2174038739521
21
17.7151022237097
31
0.000000000000000
  0
LINE
  5
F100C8
330
F100C9
100
AcDbEntity
8
Geo
100
AcDbLine
10
-34.2174038739521
20
17.7151022237097
30
0.000000000000000
11
-34.1174038739521
21
17.6541865531928
31
0.000000000000000
  0
LINE
  5
F100CA
330
F100CB
100
AcDbEntity
8
Geo
100
AcDbLine
10
-34.1174038739521
20
17.6541865531928
30
0.000000000000000
11
-34.0174038739521
21
17.5924808970277
31
0.000000000000000
  0
LINE
  5
F100CC
330
F100CD
100
AcDbEntity
8
Geo
100
AcDbLine
10
-34.0174038739521
20
17.5924808970277
30
0.000000000000000
11
-33.9174038739521
21
17.5299914257284
31
0.000000000000000
  0
LINE
  5
F100CE
330
F100CF
100
AcDbEntity
8
Geo
100
AcDbLine
10
-33.9174038739521
20
17.5299914257284
30
0.000000000000000
11
-33.8174038739521
21
17.4667243881902
31
0.000000000000000
  0
LINE
  5
F100D0
330
F100D1
100
AcDbEntity
8
Geo
100
AcDbLine
10
-33.8174038739521
20
17.4667243881902
30
0.000000000000000
11
-33.7174038739521
21
17.4026861110640
31
0.000000000000000
  0
LINE
  5
F100D2
330
F100D3
100
AcDbEntity
8
Geo
100
AcDbLine
10
-33.7174038739521
20
17.4026861110640
30
0.000000000000000
11
-33.6174038739521
21
17.3378829981242
31
0.000000000000000
  0
LINE
  5
F100D4
330
F100D5
100
AcDbEntity
8
Geo
100
AcDbLine
10
-33.6174038739521
20
17.3378829981242
30
0.000000000000000
11
-33.5174038739521
21
17.2723215296281
31
0.000000000000000
  0
LINE
  5
F100D6
330
F100D7
100
AcDbEntity
8
Geo
100
AcDbLine
10
-33.5174038739521
20
17.2723215296281
30
0.000000000000000
11
-33.4174038739521
21
17.2060082616679
31
0.000000000000000
  0
LINE
  5
F100D8
330
F100D9
100
AcDbEntity
8
Geo
100
AcDbLine
10
-33.4174038739521
20
17.2060082616679
30
0.000000000000000
11
-33.3174038739521
21
17.1389498255150
31
0.000000000000000
  0
LINE
  5
F100DA
330
F100DB
100
AcDbEntity
8
Geo
100
AcDbLine
10
-33.3174038739521
20
17.1389498255150
30
0.000000000000000
11
-33.2174038739521
21
17.0711529269574
31
0.000000000000000
  0
LINE
  5
F100DC
330
F100DD
100
AcDbEntity
8
Geo
100
AcDbLine
10
-33.2174038739521
20
17.0711529269574
30
0.000000000000000
11
-33.1174038739521
21
17.0026243456282
31
0.000000000000000
  0
LINE
  5
F100DE
330
F100DF
100
AcDbEntity
8
Geo
100
AcDbLine
10
-33.1174038739521
20
17.0026243456282
30
0.000000000000000
11
-33.0174038739521
21
16.9333709343286
31
0.000000000000000
  0
LINE
  5
F100E0
330
F100E1
100
AcDbEntity
8
Geo
100
AcDbLine
10
-33.0174038739521
20
16.9333709343286
30
0.000000000000000
11
-32.9174038739521
21
16.8633996183419
31
0.000000000000000
  0
LINE
  5
F100E2
330
F100E3
100
AcDbEntity
8
Geo
100
AcDbLine
10
-32.9174038739521
20
16.8633996183419
30
0.000000000000000
11
-32.8174038739521
21
16.7927173947415
31
0.000000000000000
  0
LINE
  5
F100E4
330
F100E5
100
AcDbEntity
8
Geo
100
AcDbLine
10
-32.8174038739521
20
16.7927173947415
30
0.000000000000000
11
-32.7174038739521
21
16.7213313316908
31
0.000000000000000
  0
LINE
  5
F100E6
330
F100E7
100
AcDbEntity
8
Geo
100
AcDbLine
10
-32.7174038739521
20
16.7213313316908
30
0.000000000000000
11
-32.6174038739521
21
16.6492485677366
31
0.000000000000000
  0
LINE
  5
F100E8
330
F100E9
100
AcDbEntity
8
Geo
100
AcDbLine
10
-32.6174038739521
20
16.6492485677366
30
0.000000000000000
11
-32.5174038739521
21
16.5764763110953
31
0.000000000000000
  0
LINE
  5
F100EA
330
F100EB
100
AcDbEntity
8
Geo
100
AcDbLine
10
-32.5174038739521
20
16.5764763110953
30
0.000000000000000
11
-32.4174038739521
21
16.5030218389318
31
0.000000000000000
  0
LINE
  5
F100EC
330
F100ED
100
AcDbEntity
8
Geo
100
AcDbLine
10
-32.4174038739521
20
16.5030218389318
30
0.000000000000000
11
-32.3174038739521
21
16.4288924966322
31
0.000000000000000
  0
LINE
  5
F100EE
330
F100EF
100
AcDbEntity
8
Geo
100
AcDbLine
10
-32.3174038739521
20
16.4288924966322
30
0.000000000000000
11
-32.2174038739521
21
16.3540956970690
31
0.000000000000000
  0
LINE
  5
F100F0
330
F100F1
100
AcDbEntity
8
Geo
100
AcDbLine
10
-32.2174038739521
20
16.3540956970690
30
0.000000000000000
11
-32.1174038739521
21
16.2786389198597
31
0.000000000000000
  0
LINE
  5
F100F2
330
F100F3
100
AcDbEntity
8
Geo
100
AcDbLine
10
-32.1174038739521
20
16.2786389198597
30
0.000000000000000
11
-32.0174038739521
21
16.2025297106192
31
0.000000000000000
  0
LINE
  5
F100F4
330
F100F5
100
AcDbEntity
8
Geo
100
AcDbLine
10
-32.0174038739521
20
16.2025297106192
30
0.000000000000000
11
-31.9174038739521
21
16.1257756802050
31
0.000000000000000
  0
LINE
  5
F100F6
330
F100F7
100
AcDbEntity
8
Geo
100
AcDbLine
10
-31.9174038739521
20
16.1257756802050
30
0.000000000000000
11
-31.8174038739521
21
16.0483845039561
31
0.000000000000000
  0
LINE
  5
F100F8
330
F100F9
100
AcDbEntity
8
Geo
100
AcDbLine
10
-31.8174038739521
20
16.0483845039561
30
0.000000000000000
11
-31.7174038739521
21
15.9703639209258
31
0.000000000000000
  0
LINE
  5
F100FA
330
F100FB
100
AcDbEntity
8
Geo
100
AcDbLine
10
-31.7174038739521
20
15.9703639209258
30
0.000000000000000
11
-31.6174038739521
21
15.8917217331073
31
0.000000000000000
  0
LINE
  5
F100FC
330
F100FD
100
AcDbEntity
8
Geo
100
AcDbLine
10
-31.6174038739521
20
15.8917217331073
30
0.000000000000000
11
-31.5174038739521
21
15.8124658046538
31
0.000000000000000
  0
LINE
  5
F100FE
330
F100FF
100
AcDbEntity
8
Geo
100
AcDbLine
10
-31.5174038739521
20
15.8124658046538
30
0.000000000000000
11
-31.4174038739521
21
15.7326040610921
31
0.000000000000000
  0
LINE
  5
F10100
330
F10101
100
AcDbEntity
8
Geo
100
AcDbLine
10
-31.4174038739521
20
15.7326040610921
30
0.000000000000000
11
-31.3174038739521
21
15.6521444885301
31
0.000000000000000
  0
LINE
  5
F10102
330
F10103
100
AcDbEntity
8
Geo
100
AcDbLine
10
-31.3174038739521
20
15.6521444885301
30
0.000000000000000
11
-31.2174038739521
21
15.5710951328580
31
0.000000000000000
  0
LINE
  5
F10104
330
F10105
100
AcDbEntity
8
Geo
100
AcDbLine
10
-31.2174038739521
20
15.5710951328580
30
0.000000000000000
11
-31.1174038739521
21
15.4894640989437
31
0.000000000000000
  0
LINE
  5
F10106
330
F10107
100
AcDbEntity
8
Geo
100
AcDbLine
10
-31.1174038739521
20
15.4894640989437
30
0.000000000000000
11
-31.0174038739521
21
15.4072595498227
31
0.000000000000000
  0
LINE
  5
F10108
330
F10109
100
AcDbEntity
8
Geo
100
AcDbLine
10
-31.0174038739521
20
15.4072595498227
30
0.000000000000000
11
-30.9174038739521
21
15.3244897058813
31
0.000000000000000
  0
LINE
  5
F1010A
330
F1010B
100
AcDbEntity
8
Geo
100
AcDbLine
10
-30.9174038739521
20
15.3244897058813
30
0.000000000000000
11
-30.8174038739521
21
15.2411628440350
31
0.000000000000000
  0
LINE
  5
F1010C
330
F1010D
100
AcDbEntity
8
Geo
100
AcDbLine
10
-30.8174038739521
20
15.2411628440350
30
0.000000000000000
11
-30.7174038739521
21
15.1572872969006
31
0.000000000000000
  0
LINE
  5
F1010E
330
F1010F
100
AcDbEntity
8
Geo
100
AcDbLine
10
-30.7174038739521
20
15.1572872969006
30
0.000000000000000
11
-30.6174038739521
21
15.0728714519627
31
0.000000000000000
  0
LINE
  5
F10110
330
F10111
100
AcDbEntity
8
Geo
100
AcDbLine
10
-30.6174038739521
20
15.0728714519627
30
0.000000000000000
11
-30.5174038739521
21
14.9879237507357
31
0.000000000000000
  0
LINE
  5
F10112
330
F10113
100
AcDbEntity
8
Geo
100
AcDbLine
10
-30.5174038739521
20
14.9879237507357
30
0.000000000000000
11
-30.4174038739521
21
14.9024526879187
31
0.000000000000000
  0
LINE
  5
F10114
330
F10115
100
AcDbEntity
8
Geo
100
AcDbLine
10
-30.4174038739521
20
14.9024526879187
30
0.000000000000000
11
-30.3174038739521
21
14.8164668105469
31
0.000000000000000
  0
LINE
  5
F10116
330
F10117
100
AcDbEntity
8
Geo
100
AcDbLine
10
-30.3174038739521
20
14.8164668105469
30
0.000000000000000
11
-30.2174038739521
21
14.7299747171364
31
0.000000000000000
  0
LINE
  5
F10118
330
F10119
100
AcDbEntity
8
Geo
100
AcDbLine
10
-30.2174038739521
20
14.7299747171364
30
0.000000000000000
11
-30.1174038739521
21
14.6429850568244
31
0.000000000000000
  0
LINE
  5
F1011A
330
F1011B
100
AcDbEntity
8
Geo
100
AcDbLine
10
-30.1174038739521
20
14.6429850568244
30
0.000000000000000
11
-30.0174038739521
21
14.5555065285045
31
0.000000000000000
  0
LINE
  5
F1011C
330
F1011D
100
AcDbEntity
8
Geo
100
AcDbLine
10
-30.0174038739521
20
14.5555065285045
30
0.000000000000000
11
-29.9174038739521
21
14.4675478799566
31
0.000000000000000
  0
LINE
  5
F1011E
330
F1011F
100
AcDbEntity
8
Geo
100
AcDbLine
10
-29.9174038739521
20
14.4675478799566
30
0.000000000000000
11
-29.8174038739521
21
14.3791179069722
31
0.000000000000000
  0
LINE
  5
F10120
330
F10121
100
AcDbEntity
8
Geo
100
AcDbLine
10
-29.8174038739521
20
14.3791179069722
30
0.000000000000000
11
-29.7174038739521
21
14.2902254524749
31
0.000000000000000
  0
LINE
  5
F10122
330
F10123
100
AcDbEntity
8
Geo
100
AcDbLine
10
-29.7174038739521
20
14.2902254524749
30
0.000000000000000
11
-29.6174038739521
21
14.2008794056362
31
0.000000000000000
  0
LINE
  5
F10124
330
F10125
100
AcDbEntity
8
Geo
100
AcDbLine
10
-29.6174038739521
20
14.2008794056362
30
0.000000000000000
11
-29.5174038739521
21
14.1110887009863
31
0.000000000000000
  0
LINE
  5
F10126
330
F10127
100
AcDbEntity
8
Geo
100
AcDbLine
10
-29.5174038739521
20
14.1110887009863
30
0.000000000000000
11
-29.4174038739521
21
14.0208623175207
31
0.000000000000000
  0
LINE
  5
F10128
330
F10129
100
AcDbEntity
8
Geo
100
AcDbLine
10
-29.4174038739521
20
14.0208623175207
30
0.000000000000000
11
-29.3174038739521
21
13.9302092778027
31
0.000000000000000
  0
LINE
  5
F1012A
330
F1012B
100
AcDbEntity
8
Geo
100
AcDbLine
10
-29.3174038739521
20
13.9302092778027
30
0.000000000000000
11
-29.2174038739521
21
13.8391386470607
31
0.000000000000000
  0
LINE
  5
F1012C
330
F1012D
100
AcDbEntity
8
Geo
100
AcDbLine
10
-29.2174038739521
20
13.8391386470607
30
0.000000000000000
11
-29.1174038739521
21
13.7476595322819
31
0.000000000000000
  0
LINE
  5
F1012E
330
F1012F
100
AcDbEntity
8
Geo
100
AcDbLine
10
-29.1174038739521
20
13.7476595322819
30
0.000000000000000
11
-29.0174038739521
21
13.6557810813015
31
0.000000000000000
  0
LINE
  5
F10130
330
F10131
100
AcDbEntity
8
Geo
100
AcDbLine
10
-29.0174038739521
20
13.6557810813015
30
0.000000000000000
11
-28.9174038739521
21
13.5635124818880
31
0.000000000000000
  0
LINE
  5
F10132
330
F10133
100
AcDbEntity
8
Geo
100
AcDbLine
10
-28.9174038739521
20
13.5635124818880
30
0.000000000000000
11
-28.8174038739521
21
13.4708629608245
31
0.000000000000000
  0
LINE
  5
F10134
330
F10135
100
AcDbEntity
8
Geo
100
AcDbLine
10
-28.8174038739521
20
13.4708629608245
30
0.000000000000000
11
-28.7174038739521
21
13.3778417829859
31
0.000000000000000
  0
LINE
  5
F10136
330
F10137
100
AcDbEntity
8
Geo
100
AcDbLine
10
-28.7174038739521
20
13.3778417829859
30
0.000000000000000
11
-28.6174038739521
21
13.2844582504125
31
0.000000000000000
  0
LINE
  5
F10138
330
F10139
100
AcDbEntity
8
Geo
100
AcDbLine
10
-28.6174038739521
20
13.2844582504125
30
0.000000000000000
11
-28.5174038739521
21
13.1907217013796
31
0.000000000000000
  0
LINE
  5
F1013A
330
F1013B
100
AcDbEntity
8
Geo
100
AcDbLine
10
-28.5174038739521
20
13.1907217013796
30
0.000000000000000
11
-28.4174038739521
21
13.0966415094642
31
0.000000000000000
  0
LINE
  5
F1013C
330
F1013D
100
AcDbEntity
8
Geo
100
AcDbLine
10
-28.4174038739521
20
13.0966415094642
30
0.000000000000000
11
-28.3174038739521
21
13.0022270826069
31
0.000000000000000
  0
LINE
  5
F1013E
330
F1013F
100
AcDbEntity
8
Geo
100
AcDbLine
10
-28.3174038739521
20
13.0022270826069
30
0.000000000000000
11
-28.2174038739521
21
12.9074878621718
31
0.000000000000000
  0
LINE
  5
F10140
330
F10141
100
AcDbEntity
8
Geo
100
AcDbLine
10
-28.2174038739521
20
12.9074878621718
30
0.000000000000000
11
-28.1174038739521
21
12.8124333220021
31
0.000000000000000
  0
LINE
  5
F10142
330
F10143
100
AcDbEntity
8
Geo
100
AcDbLine
10
-28.1174038739521
20
12.8124333220021
30
0.000000000000000
11
-28.0174038739521
21
12.7170729674723
31
0.000000000000000
  0
LINE
  5
F10144
330
F10145
100
AcDbEntity
8
Geo
100
AcDbLine
10
-28.0174038739521
20
12.7170729674723
30
0.000000000000000
11
-27.9174038739521
21
12.6214163345387
31
0.000000000000000
  0
LINE
  5
F10146
330
F10147
100
AcDbEntity
8
Geo
100
AcDbLine
10
-27.9174038739521
20
12.6214163345387
30
0.000000000000000
11
-27.8174038739521
21
12.5254729887847
31
0.000000000000000
  0
LINE
  5
F10148
330
F10149
100
AcDbEntity
8
Geo
100
AcDbLine
10
-27.8174038739521
20
12.5254729887847
30
0.000000000000000
11
-27.7174038739521
21
12.4292525244650
31
0.000000000000000
  0
LINE
  5
F1014A
330
F1014B
100
AcDbEntity
8
Geo
100
AcDbLine
10
-27.7174038739521
20
12.4292525244650
30
0.000000000000000
11
-27.6174038739521
21
12.3327645635459
31
0.000000000000000
  0
LINE
  5
F1014C
330
F1014D
100
AcDbEntity
8
Geo
100
AcDbLine
10
-27.6174038739521
20
12.3327645635459
30
0.000000000000000
11
-27.5174038739521
21
12.2360187547429
31
0.000000000000000
  0
LINE
  5
F1014E
330
F1014F
100
AcDbEntity
8
Geo
100
AcDbLine
10
-27.5174038739521
20
12.2360187547429
30
0.000000000000000
11
-27.4174038739521
21
12.1390247725564
31
0.000000000000000
  0
LINE
  5
F10150
330
F10151
100
AcDbEntity
8
Geo
100
AcDbLine
10
-27.4174038739521
20
12.1390247725564
30
0.000000000000000
11
-27.3174038739521
21
12.0417923163038
31
0.000000000000000
  0
LINE
  5
F10152
330
F10153
100
AcDbEntity
8
Geo
100
AcDbLine
10
-27.3174038739521
20
12.0417923163038
30
0.000000000000000
11
-27.2174038739521
21
11.9443311091496
31
0.000000000000000
  0
LINE
  5
F10154
330
F10155
100
AcDbEntity
8
Geo
100
AcDbLine
10
-27.2174038739521
20
11.9443311091496
30
0.000000000000000
11
-27.1174038739521
21
11.8466508971334
31
0.000000000000000
  0
LINE
  5
F10156
330
F10157
100
AcDbEntity
8
Geo
100
AcDbLine
10
-27.1174038739521
20
11.8466508971334
30
0.000000000000000
11
-27.0174038739521
21
11.7487614481949
31
0.000000000000000
  0
LINE
  5
F10158
330
F10159
100
AcDbEntity
8
Geo
100
AcDbLine
10
-27.0174038739521
20
11.7487614481949
30
0.000000000000000
11
-26.9174038739521
21
11.6506725511975
31
0.000000000000000
  0
LINE
  5
F1015A
330
F1015B
100
AcDbEntity
8
Geo
100
AcDbLine
10
-26.9174038739521
20
11.6506725511975
30
0.000000000000000
11
-26.8174038739521
21
11.5523940149492
31
0.000000000000000
  0
LINE
  5
F1015C
330
F1015D
100
AcDbEntity
8
Geo
100
AcDbLine
10
-26.8174038739521
20
11.5523940149492
30
0.000000000000000
11
-26.7174038739521
21
11.4539356672216
31
0.000000000000000
  0
LINE
  5
F1015E
330
F1015F
100
AcDbEntity
8
Geo
100
AcDbLine
10
-26.7174038739521
20
11.4539356672216
30
0.000000000000000
11
-26.6174038739521
21
11.3553073537675
31
0.000000000000000
  0
LINE
  5
F10160
330
F10161
100
AcDbEntity
8
Geo
100
AcDbLine
10
-26.6174038739521
20
11.3553073537675
30
0.000000000000000
11
-26.5174038739521
21
11.2565189373360
31
0.000000000000000
  0
LINE
  5
F10162
330
F10163
100
AcDbEntity
8
Geo
100
AcDbLine
10
-26.5174038739521
20
11.2565189373360
30
0.000000000000000
11
-26.4174038739521
21
11.1575802966865
31
0.000000000000000
  0
LINE
  5
F10164
330
F10165
100
AcDbEntity
8
Geo
100
AcDbLine
10
-26.4174038739521
20
11.1575802966865
30
0.000000000000000
11
-26.3174038739521
21
11.0585013256006
31
0.000000000000000
  0
LINE
  5
F10166
330
F10167
100
AcDbEntity
8
Geo
100
AcDbLine
10
-26.3174038739521
20
11.0585013256006
30
0.000000000000000
11
-26.2174038739521
21
10.9592919318928
31
0.000000000000000
  0
LINE
  5
F10168
330
F10169
100
AcDbEntity
8
Geo
100
AcDbLine
10
-26.2174038739521
20
10.9592919318928
30
0.000000000000000
11
-26.1174038739521
21
10.8599620364199
31
0.000000000000000
  0
LINE
  5
F1016A
330
F1016B
100
AcDbEntity
8
Geo
100
AcDbLine
10
-26.1174038739521
20
10.8599620364199
30
0.000000000000000
11
-26.0174038739521
21
10.7605215720885
31
0.000000000000000
  0
LINE
  5
F1016C
330
F1016D
100
AcDbEntity
8
Geo
100
AcDbLine
10
-26.0174038739521
20
10.7605215720885
30
0.000000000000000
11
-25.9174038739521
21
10.6609804828623
31
0.000000000000000
  0
LINE
  5
F1016E
330
F1016F
100
AcDbEntity
8
Geo
100
AcDbLine
10
-25.9174038739521
20
10.6609804828623
30
0.000000000000000
11
-25.8174038739521
21
10.5613487227672
31
0.000000000000000
  0
LINE
  5
F10170
330
F10171
100
AcDbEntity
8
Geo
100
AcDbLine
10
-25.8174038739521
20
10.5613487227672
30
0.000000000000000
11
-25.7174038739521
21
10.4616362548962
31
0.000000000000000
  0
LINE
  5
F10172
330
F10173
100
AcDbEntity
8
Geo
100
AcDbLine
10
-25.7174038739521
20
10.4616362548962
30
0.000000000000000
11
-25.6174038739521
21
10.3618530504130
31
0.000000000000000
  0
LINE
  5
F10174
330
F10175
100
AcDbEntity
8
Geo
100
AcDbLine
10
-25.6174038739521
20
10.3618530504130
30
0.000000000000000
11
-25.5174038739521
21
10.2620090875550
31
0.000000000000000
  0
LINE
  5
F10176
330
F10177
100
AcDbEntity
8
Geo
100
AcDbLine
10
-25.5174038739521
20
10.2620090875550
30
0.000000000000000
11
-25.4174038739521
21
10.1621143506351
31
0.000000000000000
  0
LINE
  5
F10178
330
F10179
100
AcDbEntity
8
Geo
100
AcDbLine
10
-25.4174038739521
20
10.1621143506351
30
0.000000000000000
11
-25.3174038739521
21
10.0621788290438
31
0.000000000000000
  0
LINE
  5
F1017A
330
F1017B
100
AcDbEntity
8
Geo
100
AcDbLine
10
-25.3174038739521
20
10.0621788290438
30
0.000000000000000
11
-25.2174038739521
21
9.96221251625008
31
0.000000000000000
  0
LINE
  5
F1017C
330
F1017D
100
AcDbEntity
8
Geo
100
AcDbLine
10
-25.2174038739521
20
9.96221251625008
30
0.000000000000000
11
-25.1174038739521
21
9.86222540880183
31
0.000000000000000
  0
LINE
  5
F1017E
330
F1017F
100
AcDbEntity
8
Geo
100
AcDbLine
10
-25.1174038739521
20
9.86222540880183
30
0.000000000000000
11
-25.0174038739521
21
9.76222750532649
31
0.000000000000000
  0
LINE
  5
F10180
330
F10181
100
AcDbEntity
8
Geo
100
AcDbLine
10
-25.0174038739521
20
9.76222750532649
30
0.000000000000000
11
-24.9174038739521
21
9.66222880553108
31
0.000000000000000
  0
LINE
  5
F10182
330
F10183
100
AcDbEntity
8
Geo
100
AcDbLine
10
-24.9174038739521
20
9.66222880553108
30
0.000000000000000
11
-24.8174038739521
21
9.56223930920223
31
0.000000000000000
  0
LINE
  5
F10184
330
F10185
100
AcDbEntity
8
Geo
100
AcDbLine
10
-24.8174038739521
20
9.56223930920223
30
0.000000000000000
11
-24.7174038739521
21
9.46226901520627
31
0.000000000000000
  0
LINE
  5
F10186
330
F10187
100
AcDbEntity
8
Geo
100
AcDbLine
10
-24.7174038739521
20
9.46226901520627
30
0.000000000000000
11
-24.6174038739521
21
9.36232792048928
31
0.000000000000000
  0
LINE
  5
F10188
330
F10189
100
AcDbEntity
8
Geo
100
AcDbLine
10
-24.6174038739521
20
9.36232792048928
30
0.000000000000000
11
-24.5174038739521
21
9.26242601907745
31
0.000000000000000
  0
LINE
  5
F1018A
330
F1018B
100
AcDbEntity
8
Geo
100
AcDbLine
10
-24.5174038739521
20
9.26242601907745
30
0.000000000000000
11
-24.4174038739521
21
9.16257330107767
31
0.000000000000000
  0
LINE
  5
F1018C
330
F1018D
100
AcDbEntity
8
Geo
100
AcDbLine
10
-24.4174038739521
20
9.16257330107767
30
0.000000000000000
11
-24.3174038739521
21
9.06277975167853
31
0.000000000000000
  0
LINE
  5
F1018E
330
F1018F
100
AcDbEntity
8
Geo
100
AcDbLine
10
-24.3174038739521
20
9.06277975167853
30
0.000000000000000
11
-24.2174038739521
21
8.96305535015181
31
0.000000000000000
  0
LINE
  5
F10190
330
F10191
100
AcDbEntity
8
Geo
100
AcDbLine
10
-24.2174038739521
20
8.96305535015181
30
0.000000000000000
11
-24.1174038739521
21
8.86341006885456
31
0.000000000000000
  0
LINE
  5
F10192
330
F10193
100
AcDbEntity
8
Geo
100
AcDbLine
10
-24.1174038739521
20
8.86341006885456
30
0.000000000000000
11
-24.0174038739521
21
8.76385387223186
31
0.000000000000000
  0
LINE
  5
F10194
330
F10195
100
AcDbEntity
8
Geo
100
AcDbLine
10
-24.0174038739521
20
8.76385387223186
30
0.000000000000000
11
-23.9174038739521
21
8.66439671582043
31
0.000000000000000
  0
LINE
  5
F10196
330
F10197
100
AcDbEntity
8
Geo
100
AcDbLine
10
-23.9174038739521
20
8.66439671582043
30
0.000000000000000
11
-23.8174038739521
21
8.56504854525302
31
0.000000000000000
  0
LINE
  5
F10198
330
F10199
100
AcDbEntity
8
Geo
100
AcDbLine
10
-23.8174038739521
20
8.56504854525302
30
0.000000000000000
11
-23.7174038739521
21
8.46581929526389
31
0.000000000000000
  0
LINE
  5
F1019A
330
F1019B
100
AcDbEntity
8
Geo
100
AcDbLine
10
-23.7174038739521
20
8.46581929526389
30
0.000000000000000
11
-23.6174038739521
21
8.36671888869536
31
0.000000000000000
  0
LINE
  5
F1019C
330
F1019D
100
AcDbEntity
8
Geo
100
AcDbLine
10
-23.6174038739521
20
8.36671888869536
30
0.000000000000000
11
-23.5174038739521
21
8.26775723550550
31
0.000000000000000
  0
LINE
  5
F1019E
330
F1019F
100
AcDbEntity
8
Geo
100
AcDbLine
10
-23.5174038739521
20
8.26775723550550
30
0.000000000000000
11
-23.4174038739521
21
8.16894423177715
31
0.000000000000000
  0
LINE
  5
F101A0
330
F101A1
100
AcDbEntity
8
Geo
100
AcDbLine
10
-23.4174038739521
20
8.16894423177715
30
0.000000000000000
11
-23.3174038739521
21
8.07028975872836
31
0.000000000000000
  0
LINE
  5
F101A2
330
F101A3
100
AcDbEntity
8
Geo
100
AcDbLine
10
-23.3174038739521
20
8.07028975872836
30
0.000000000000000
11
-23.2174038739521
21
7.97180368172421
31
0.000000000000000
  0
LINE
  5
F101A4
330
F101A5
100
AcDbEntity
8
Geo
100
AcDbLine
10
-23.2174038739521
20
7.97180368172421
30
0.000000000000000
11
-23.1174038739521
21
7.87349584929032
31
0.000000000000000
  0
LINE
  5
F101A6
330
F101A7
100
AcDbEntity
8
Geo
100
AcDbLine
10
-23.1174038739521
20
7.87349584929032
30
0.000000000000000
11
-23.0174038739521
21
7.77537609212803
31
0.000000000000000
  0
LINE
  5
F101A8
330
F101A9
100
AcDbEntity
8
Geo
100
AcDbLine
10
-23.0174038739521
20
7.77537609212803
30
0.000000000000000
11
-22.9174038739521
21
7.67745422213128
31
0.000000000000000
  0
LINE
  5
F101AA
330
F101AB
100
AcDbEntity
8
Geo
100
AcDbLine
10
-22.9174038739521
20
7.67745422213128
30
0.000000000000000
11
-22.8174038739521
21
7.57974003140547
31
0.000000000000000
  0
LINE
  5
F101AC
330
F101AD
100
AcDbEntity
8
Geo
100
AcDbLine
10
-22.8174038739521
20
7.57974003140547
30
0.000000000000000
11
-22.7174038739521
21
7.48224329128825
31
0.000000000000000
  0
LINE
  5
F101AE
330
F101AF
100
AcDbEntity
8
Geo
100
AcDbLine
10
-22.7174038739521
20
7.48224329128825
30
0.000000000000000
11
-22.6174038739521
21
7.38497375137237
31
0.000000000000000
  0
LINE
  5
F101B0
330
F101B1
100
AcDbEntity
8
Geo
100
AcDbLine
10
-22.6174038739521
20
7.38497375137237
30
0.000000000000000
11
-22.5174038739521
21
7.28794113853077
31
0.000000000000000
  0
LINE
  5
F101B2
330
F101B3
100
AcDbEntity
8
Geo
100
AcDbLine
10
-22.5174038739521
20
7.28794113853077
30
0.000000000000000
11
-22.4174038739521
21
7.19115515594388
31
0.000000000000000
  0
LINE
  5
F101B4
330
F101B5
100
AcDbEntity
8
Geo
100
AcDbLine
10
-22.4174038739521
20
7.19115515594388
30
0.000000000000000
11
-22.3174038739521
21
7.09462548212931
31
0.000000000000000
  0
LINE
  5
F101B6
330
F101B7
100
AcDbEntity
8
Geo
100
AcDbLine
10
-22.3174038739521
20
7.09462548212931
30
0.000000000000000
11
-22.2174038739521
21
6.99836176997398
31
0.000000000000000
  0
LINE
  5
F101B8
330
F101B9
100
AcDbEntity
8
Geo
100
AcDbLine
10
-22.2174038739521
20
6.99836176997398
30
0.000000000000000
11
-22.1174038739521
21
6.90237364576890
31
0.000000000000000
  0
LINE
  5
F101BA
330
F101BB
100
AcDbEntity
8
Geo
100
AcDbLine
10
-22.1174038739521
20
6.90237364576890
30
0.000000000000000
11
-22.0174038739521
21
6.80667070824649
31
0.000000000000000
  0
LINE
  5
F101BC
330
F101BD
100
AcDbEntity
8
Geo
100
AcDbLine
10
-22.0174038739521
20
6.80667070824649
30
0.000000000000000
11
-21.9174038739521
21
6.71126252762077
31
0.000000000000000
  0
LINE
  5
F101BE
330
F101BF
100
AcDbEntity
8
Geo
100
AcDbLine
10
-21.9174038739521
20
6.71126252762077
30
0.000000000000000
11
-21.8174038739521
21
6.61615864463027
31
0.000000000000000
  0
LINE
  5
F101C0
330
F101C1
100
AcDbEntity
8
Geo
100
AcDbLine
10
-21.8174038739521
20
6.61615864463027
30
0.000000000000000
11
-21.7174038739521
21
6.52136856958406
31
0.000000000000000
  0
LINE
  5
F101C2
330
F101C3
100
AcDbEntity
8
Geo
100
AcDbLine
10
-21.7174038739521
20
6.52136856958406
30
0.000000000000000
11
-21.6174038739520
21
6.42690178141064
31
0.000000000000000
  0
LINE
  5
F101C4
330
F101C5
100
AcDbEntity
8
Geo
100
AcDbLine
10
-21.6174038739520
20
6.42690178141064
30
0.000000000000000
11
-21.5174038739520
21
6.33276772671011
31
0.000000000000000
  0
LINE
  5
F101C6
330
F101C7
100
AcDbEntity
8
Geo
100
AcDbLine
10
-21.5174038739520
20
6.33276772671011
30
0.000000000000000
11
-21.4174038739520
21
6.23897581880949
31
0.000000000000000
  0
LINE
  5
F101C8
330
F101C9
100
AcDbEntity
8
Geo
100
AcDbLine
10
-21.4174038739520
20
6.23897581880949
30
0.000000000000000
11
-21.3174038739520
21
6.14553543682142
31
0.000000000000000
  0
LINE
  5
F101CA
330
F101CB
100
AcDbEntity
8
Geo
100
AcDbLine
10
-21.3174038739520
20
6.14553543682142
30
0.000000000000000
11
-21.2174038739520
21
6.05245592470622
31
0.000000000000000
  0
LINE
  5
F101CC
330
F101CD
100
AcDbEntity
8
Geo
100
AcDbLine
10
-21.2174038739520
20
6.05245592470622
30
0.000000000000000
11
-21.1174038739520
21
5.95974659033754
31
0.000000000000000
  0
LINE
  5
F101CE
330
F101CF
100
AcDbEntity
8
Geo
100
AcDbLine
10
-21.1174038739520
20
5.95974659033754
30
0.000000000000000
11
-21.0174038739520
21
5.86741670457156
31
0.000000000000000
  0
LINE
  5
F101D0
330
F101D1
100
AcDbEntity
8
Geo
100
AcDbLine
10
-21.0174038739520
20
5.86741670457156
30
0.000000000000000
11
-20.9174038739520
21
5.77547550031992
31
0.000000000000000
  0
LINE
  5
F101D2
330
F101D3
100
AcDbEntity
8
Geo
100
AcDbLine
10
-20.9174038739520
20
5.77547550031992
30
0.000000000000000
11
-20.8174038739520
21
5.68393217162642
31
0.000000000000000
  0
LINE
  5
F101D4
330
F101D5
100
AcDbEntity
8
Geo
100
AcDbLine
10
-40.7174038739521
20
9.75426423821916
30
0.000000000000000
11
-40.6174038739520
21
9.65426590487746
31
0.000000000000000
  0
LINE
  5
F101D6
330
F101D7
100
AcDbEntity
8
Geo
100
AcDbLine
10
-40.6174038739520
20
9.65426590487746
30
0.000000000000000
11
-40.5174038739520
21
9.55427757128580
31
0.000000000000000
  0
LINE
  5
F101D8
330
F101D9
100
AcDbEntity
8
Geo
100
AcDbLine
10
-40.5174038739520
20
9.55427757128580
30
0.000000000000000
11
-40.4174038739521
21
9.45430923619417
31
0.000000000000000
  0
LINE
  5
F101DA
330
F101DB
100
AcDbEntity
8
Geo
100
AcDbLine
10
-40.4174038739521
20
9.45430923619417
30
0.000000000000000
11
-40.3174038739521
21
9.35437089635279
31
0.000000000000000
  0
LINE
  5
F101DC
330
F101DD
100
AcDbEntity
8
Geo
100
AcDbLine
10
-40.3174038739521
20
9.35437089635279
30
0.000000000000000
11
-40.2174038739521
21
9.25447254551235
31
0.000000000000000
  0
LINE
  5
F101DE
330
F101DF
100
AcDbEntity
8
Geo
100
AcDbLine
10
-40.2174038739521
20
9.25447254551235
30
0.000000000000000
11
-40.1174038739520
21
9.15462417342468
31
0.000000000000000
  0
LINE
  5
F101E0
330
F101E1
100
AcDbEntity
8
Geo
100
AcDbLine
10
-40.1174038739520
20
9.15462417342468
30
0.000000000000000
11
-40.0174038739520
21
9.05483576484380
31
0.000000000000000
  0
LINE
  5
F101E2
330
F101E3
100
AcDbEntity
8
Geo
100
AcDbLine
10
-40.0174038739520
20
9.05483576484380
30
0.000000000000000
11
-39.9174038739521
21
8.95511729852740
31
0.000000000000000
  0
LINE
  5
F101E4
330
F101E5
100
AcDbEntity
8
Geo
100
AcDbLine
10
-39.9174038739521
20
8.95511729852740
30
0.000000000000000
11
-39.8174038739521
21
8.85547874623902
31
0.000000000000000
  0
LINE
  5
F101E6
330
F101E7
100
AcDbEntity
8
Geo
100
AcDbLine
10
-39.8174038739521
20
8.85547874623902
30
0.000000000000000
11
-39.7174038739521
21
8.75593007175085
31
0.000000000000000
  0
LINE
  5
F101E8
330
F101E9
100
AcDbEntity
8
Geo
100
AcDbLine
10
-39.7174038739521
20
8.75593007175085
30
0.000000000000000
11
-39.6174038739520
21
8.65648122984738
31
0.000000000000000
  0
LINE
  5
F101EA
330
F101EB
100
AcDbEntity
8
Geo
100
AcDbLine
10
-39.6174038739520
20
8.65648122984738
30
0.000000000000000
11
-39.5174038739520
21
8.55714216532994
31
0.000000000000000
  0
LINE
  5
F101EC
330
F101ED
100
AcDbEntity
8
Geo
100
AcDbLine
10
-39.5174038739520
20
8.55714216532994
30
0.000000000000000
11
-39.4174038739521
21
8.45792281202218
31
0.000000000000000
  0
LINE
  5
F101EE
330
F101EF
100
AcDbEntity
8
Geo
100
AcDbLine
10
-39.4174038739521
20
8.45792281202218
30
0.000000000000000
11
-39.3174038739521
21
8.35883309177677
31
0.000000000000000
  0
LINE
  5
F101F0
330
F101F1
100
AcDbEntity
8
Geo
100
AcDbLine
10
-39.3174038739521
20
8.35883309177677
30
0.000000000000000
11
-39.2174038739521
21
8.25988291348314
31
0.000000000000000
  0
LINE
  5
F101F2
330
F101F3
100
AcDbEntity
8
Geo
100
AcDbLine
10
-39.2174038739521
20
8.25988291348314
30
0.000000000000000
11
-39.1174038739520
21
8.16108217207667
31
0.000000000000000
  0
LINE
  5
F101F4
330
F101F5
100
AcDbEntity
8
Geo
100
AcDbLine
10
-39.1174038739520
20
8.16108217207667
30
0.000000000000000
11
-39.0174038739520
21
8.06244074754917
31
0.000000000000000
  0
LINE
  5
F101F6
330
F101F7
100
AcDbEntity
8
Geo
100
AcDbLine
10
-39.0174038739520
20
8.06244074754917
30
0.000000000000000
11
-38.9174038739521
21
7.96396850396089
31
0.000000000000000
  0
LINE
  5
F101F8
330
F101F9
100
AcDbEntity
8
Geo
100
AcDbLine
10
-38.9174038739521
20
7.96396850396089
30
0.000000000000000
11
-38.8174038739521
21
7.86567528845412
31
0.000000000000000
  0
LINE
  5
F101FA
330
F101FB
100
AcDbEntity
8
Geo
100
AcDbLine
10
-38.8174038739521
20
7.86567528845412
30
0.000000000000000
11
-38.7174038739521
21
7.76757093026852
31
0.000000000000000
  0
LINE
  5
F101FC
330
F101FD
100
AcDbEntity
8
Geo
100
AcDbLine
10
-38.7174038739521
20
7.76757093026852
30
0.000000000000000
11
-38.6174038739520
21
7.66966523975814
31
0.000000000000000
  0
LINE
  5
F101FE
330
F101FF
100
AcDbEntity
8
Geo
100
AcDbLine
10
-38.6174038739520
20
7.66966523975814
30
0.000000000000000
11
-38.5174038739520
21
7.57196800741044
31
0.000000000000000
  0
LINE
  5
F10200
330
F10201
100
AcDbEntity
8
Geo
100
AcDbLine
10
-38.5174038739520
20
7.57196800741044
30
0.000000000000000
11
-38.4174038739521
21
7.47448900286725
31
0.000000000000000
  0
LINE
  5
F10202
330
F10203
100
AcDbEntity
8
Geo
100
AcDbLine
10
-38.4174038739521
20
7.47448900286725
30
0.000000000000000
11
-38.3174038739521
21
7.37723797394778
31
0.000000000000000
  0
LINE
  5
F10204
330
F10205
100
AcDbEntity
8
Geo
100
AcDbLine
10
-38.3174038739521
20
7.37723797394778
30
0.000000000000000
11
-38.2174038739521
21
7.28022464567390
31
0.000000000000000
  0
LINE
  5
F10206
330
F10207
100
AcDbEntity
8
Geo
100
AcDbLine
10
-38.2174038739521
20
7.28022464567390
30
0.000000000000000
11
-38.1174038739520
21
7.18345871929758
31
0.000000000000000
  0
LINE
  5
F10208
330
F10209
100
AcDbEntity
8
Geo
100
AcDbLine
10
-38.1174038739520
20
7.18345871929758
30
0.000000000000000
11
-38.0174038739520
21
7.08694987133082
31
0.000000000000000
  0
LINE
  5
F1020A
330
F1020B
100
AcDbEntity
8
Geo
100
AcDbLine
10
-38.0174038739520
20
7.08694987133082
30
0.000000000000000
11
-37.9174038739520
21
6.99070775257799
31
0.000000000000000
  0
LINE
  5
F1020C
330
F1020D
100
AcDbEntity
8
Geo
100
AcDbLine
10
-37.9174038739520
20
6.99070775257799
30
0.000000000000000
11
-37.8174038739521
21
6.89474198717078
31
0.000000000000000
  0
LINE
  5
F1020E
330
F1020F
100
AcDbEntity
8
Geo
100
AcDbLine
10
-37.8174038739521
20
6.89474198717078
30
0.000000000000000
11
-37.7174038739521
21
6.79906217160574
31
0.000000000000000
  0
LINE
  5
F10210
330
F10211
100
AcDbEntity
8
Geo
100
AcDbLine
10
-37.7174038739521
20
6.79906217160574
30
0.000000000000000
11
-37.6174038739520
21
6.70367787378470
31
0.000000000000000
  0
LINE
  5
F10212
330
F10213
100
AcDbEntity
8
Geo
100
AcDbLine
10
-37.6174038739520
20
6.70367787378470
30
0.000000000000000
11
-37.5174038739520
21
6.60859863205795
31
0.000000000000000
  0
LINE
  5
F10214
330
F10215
100
AcDbEntity
8
Geo
100
AcDbLine
10
-37.5174038739520
20
6.60859863205795
30
0.000000000000000
11
-37.4174038739520
21
6.51383395427045
31
0.000000000000000
  0
LINE
  5
F10216
330
F10217
100
AcDbEntity
8
Geo
100
AcDbLine
10
-37.4174038739520
20
6.51383395427045
30
0.000000000000000
11
-37.3174038739521
21
6.41939331681099
31
0.000000000000000
  0
LINE
  5
F10218
330
F10219
100
AcDbEntity
8
Geo
100
AcDbLine
10
-37.3174038739521
20
6.41939331681099
30
0.000000000000000
11
-37.2174038739521
21
6.32528616366462
31
0.000000000000000
  0
LINE
  5
F1021A
330
F1021B
100
AcDbEntity
8
Geo
100
AcDbLine
10
-37.2174038739521
20
6.32528616366462
30
0.000000000000000
11
-37.1174038739520
21
6.23152190546823
31
0.000000000000000
  0
LINE
  5
F1021C
330
F1021D
100
AcDbEntity
8
Geo
100
AcDbLine
10
-37.1174038739520
20
6.23152190546823
30
0.000000000000000
11
-37.0174038739520
21
6.13810991856951
31
0.000000000000000
  0
LINE
  5
F1021E
330
F1021F
100
AcDbEntity
8
Geo
100
AcDbLine
10
-37.0174038739520
20
6.13810991856951
30
0.000000000000000
11
-36.9174038739520
21
6.04505954408930
31
0.000000000000000
  0
LINE
  5
F10220
330
F10221
100
AcDbEntity
8
Geo
100
AcDbLine
10
-36.9174038739520
20
6.04505954408930
30
0.000000000000000
11
-36.8174038739520
21
5.95238008698752
31
0.000000000000000
  0
LINE
  5
F10222
330
F10223
100
AcDbEntity
8
Geo
100
AcDbLine
10
-36.8174038739520
20
5.95238008698752
30
0.000000000000000
11
-36.7174038739521
21
5.86008081513263
31
0.000000000000000
  0
LINE
  5
F10224
330
F10225
100
AcDbEntity
8
Geo
100
AcDbLine
10
-36.7174038739521
20
5.86008081513263
30
0.000000000000000
11
-36.6174038739520
21
5.76817095837490
31
0.000000000000000
  0
LINE
  5
F10226
330
F10227
100
AcDbEntity
8
Geo
100
AcDbLine
10
-36.6174038739520
20
5.76817095837490
30
0.000000000000000
11
-36.5174038739520
21
5.67665970762343
31
0.000000000000000
  0
LINE
  5
F10228
330
F10229
100
AcDbEntity
8
Geo
100
AcDbLine
10
-36.5174038739520
20
5.67665970762343
30
0.000000000000000
11
-36.4174038739521
21
5.58555621392703
31
0.000000000000000
  0
LINE
  5
F1022A
330
F1022B
100
AcDbEntity
8
Geo
100
AcDbLine
10
-36.4174038739521
20
5.58555621392703
30
0.000000000000000
11
-36.3174038739521
21
5.49486958755914
31
0.000000000000000
  0
LINE
  5
F1022C
330
F1022D
100
AcDbEntity
8
Geo
100
AcDbLine
10
-36.3174038739521
20
5.49486958755914
30
0.000000000000000
11
-36.2174038739521
21
5.40460889710683
31
0.000000000000000
  0
LINE
  5
F1022E
330
F1022F
100
AcDbEntity
8
Geo
100
AcDbLine
10
-36.2174038739521
20
5.40460889710683
30
0.000000000000000
11
-36.1174038739520
21
5.31478316856394
31
0.000000000000000
  0
LINE
  5
F10230
330
F10231
100
AcDbEntity
8
Geo
100
AcDbLine
10
-36.1174038739520
20
5.31478316856394
30
0.000000000000000
11
-36.0174038739520
21
5.22540138442845
31
0.000000000000000
  0
LINE
  5
F10232
330
F10233
100
AcDbEntity
8
Geo
100
AcDbLine
10
-36.0174038739520
20
5.22540138442845
30
0.000000000000000
11
-35.9174038739521
21
5.13647248280431
31
0.000000000000000
  0
LINE
  5
F10234
330
F10235
100
AcDbEntity
8
Geo
100
AcDbLine
10
-35.9174038739521
20
5.13647248280431
30
0.000000000000000
11
-35.8174038739521
21
5.04800535650756
31
0.000000000000000
  0
LINE
  5
F10236
330
F10237
100
AcDbEntity
8
Geo
100
AcDbLine
10
-35.8174038739521
20
5.04800535650756
30
0.000000000000000
11
-35.7174038739521
21
4.96000885217711
31
0.000000000000000
  0
LINE
  5
F10238
330
F10239
100
AcDbEntity
8
Geo
100
AcDbLine
10
-35.7174038739521
20
4.96000885217711
30
0.000000000000000
11
-35.6174038739521
21
4.87249176939006
31
0.000000000000000
  0
LINE
  5
F1023A
330
F1023B
100
AcDbEntity
8
Geo
100
AcDbLine
10
-35.6174038739521
20
4.87249176939006
30
0.000000000000000
11
-35.5174038739521
21
4.78546285978177
31
0.000000000000000
  0
LINE
  5
F1023C
330
F1023D
100
AcDbEntity
8
Geo
100
AcDbLine
10
-35.5174038739521
20
4.78546285978177
30
0.000000000000000
11
-35.4174038739521
21
4.69893082617067
31
0.000000000000000
  0
LINE
  5
F1023E
330
F1023F
100
AcDbEntity
8
Geo
100
AcDbLine
10
-35.4174038739521
20
4.69893082617067
30
0.000000000000000
11
-35.3174038739521
21
4.61290432168801
31
0.000000000000000
  0
LINE
  5
F10240
330
F10241
100
AcDbEntity
8
Geo
100
AcDbLine
10
-35.3174038739521
20
4.61290432168801
30
0.000000000000000
11
-35.2174038739521
21
4.52739194891255
31
0.000000000000000
  0
LINE
  5
F10242
330
F10243
100
AcDbEntity
8
Geo
100
AcDbLine
10
-35.2174038739521
20
4.52739194891255
30
0.000000000000000
11
-35.1174038739521
21
4.44240225901030
31
0.000000000000000
  0
LINE
  5
F10244
330
F10245
100
AcDbEntity
8
Geo
100
AcDbLine
10
-35.1174038739521
20
4.44240225901030
30
0.000000000000000
11
-35.0174038739521
21
4.35794375087945
31
0.000000000000000
  0
LINE
  5
F10246
330
F10247
100
AcDbEntity
8
Geo
100
AcDbLine
10
-35.0174038739521
20
4.35794375087945
30
0.000000000000000
11
-34.9174038739521
21
4.27402487030040
31
0.000000000000000
  0
LINE
  5
F10248
330
F10249
100
AcDbEntity
8
Geo
100
AcDbLine
10
-34.9174038739521
20
4.27402487030040
30
0.000000000000000
11
-34.8174038739521
21
4.19065400909130
31
0.000000000000000
  0
LINE
  5
F1024A
330
F1024B
100
AcDbEntity
8
Geo
100
AcDbLine
10
-34.8174038739521
20
4.19065400909130
30
0.000000000000000
11
-34.7174038739521
21
4.10783950426879
31
0.000000000000000
  0
LINE
  5
F1024C
330
F1024D
100
AcDbEntity
8
Geo
100
AcDbLine
10
-34.7174038739521
20
4.10783950426879
30
0.000000000000000
11
-34.6174038739521
21
4.02558963721433
31
0.000000000000000
  0
LINE
  5
F1024E
330
F1024F
100
AcDbEntity
8
Geo
100
AcDbLine
10
-34.6174038739521
20
4.02558963721433
30
0.000000000000000
11
-34.5174038739521
21
3.94391263284609
31
0.000000000000000
  0
LINE
  5
F10250
330
F10251
100
AcDbEntity
8
Geo
100
AcDbLine
10
-34.5174038739521
20
3.94391263284609
30
0.000000000000000
11
-34.4174038739521
21
3.86281665879644
31
0.000000000000000
  0
LINE
  5
F10252
330
F10253
100
AcDbEntity
8
Geo
100
AcDbLine
10
-34.4174038739521
20
3.86281665879644
30
0.000000000000000
11
-34.3174038739521
21
3.78230982459522
31
0.000000000000000
  0
LINE
  5
F10254
330
F10255
100
AcDbEntity
8
Geo
100
AcDbLine
10
-34.3174038739521
20
3.78230982459522
30
0.000000000000000
11
-34.2174038739521
21
3.70240018085874
31
0.000000000000000
  0
LINE
  5
F10256
330
F10257
100
AcDbEntity
8
Geo
100
AcDbLine
10
-34.2174038739521
20
3.70240018085874
30
0.000000000000000
11
-34.1174038739521
21
3.62309571848480
31
0.000000000000000
  0
LINE
  5
F10258
330
F10259
100
AcDbEntity
8
Geo
100
AcDbLine
10
-34.1174038739521
20
3.62309571848480
30
0.000000000000000
11
-34.0174038739521
21
3.54440436785354
31
0.000000000000000
  0
LINE
  5
F1025A
330
F1025B
100
AcDbEntity
8
Geo
100
AcDbLine
10
-34.0174038739521
20
3.54440436785354
30
0.000000000000000
11
-33.9174038739521
21
3.46633399803445
31
0.000000000000000
  0
LINE
  5
F1025C
330
F1025D
100
AcDbEntity
8
Geo
100
AcDbLine
10
-33.9174038739521
20
3.46633399803445
30
0.000000000000000
11
-33.8174038739521
21
3.38889241599946
31
0.000000000000000
  0
LINE
  5
F1025E
330
F1025F
100
AcDbEntity
8
Geo
100
AcDbLine
10
-33.8174038739521
20
3.38889241599946
30
0.000000000000000
11
-33.7174038739521
21
3.31208736584223
31
0.000000000000000
  0
LINE
  5
F10260
330
F10261
100
AcDbEntity
8
Geo
100
AcDbLine
10
-33.7174038739521
20
3.31208736584223
30
0.000000000000000
11
-33.6174038739521
21
3.23592652800377
31
0.000000000000000
  0
LINE
  5
F10262
330
F10263
100
AcDbEntity
8
Geo
100
AcDbLine
10
-33.6174038739521
20
3.23592652800377
30
0.000000000000000
11
-33.5174038739521
21
3.16041751850441
31
0.000000000000000
  0
LINE
  5
F10264
330
F10265
100
AcDbEntity
8
Geo
100
AcDbLine
10
-33.5174038739521
20
3.16041751850441
30
0.000000000000000
11
-33.4174038739521
21
3.08556788818216
31
0.000000000000000
  0
LINE
  5
F10266
330
F10267
100
AcDbEntity
8
Geo
100
AcDbLine
10
-33.4174038739521
20
3.08556788818216
30
0.000000000000000
11
-33.3174038739521
21
3.01138512193769
31
0.000000000000000
  0
LINE
  5
F10268
330
F10269
100
AcDbEntity
8
Geo
100
AcDbLine
10
-33.3174038739521
20
3.01138512193769
30
0.000000000000000
11
-33.2174038739521
21
2.93787663798580
31
0.000000000000000
  0
LINE
  5
F1026A
330
F1026B
100
AcDbEntity
8
Geo
100
AcDbLine
10
-33.2174038739521
20
2.93787663798580
30
0.000000000000000
11
-33.1174038739521
21
2.86504978711363
31
0.000000000000000
  0
LINE
  5
F1026C
330
F1026D
100
AcDbEntity
8
Geo
100
AcDbLine
10
-33.1174038739521
20
2.86504978711363
30
0.000000000000000
11
-33.0174038739521
21
2.79291185194557
31
0.000000000000000
  0
LINE
  5
F1026E
330
F1026F
100
AcDbEntity
8
Geo
100
AcDbLine
10
-33.0174038739521
20
2.79291185194557
30
0.000000000000000
11
-32.9174038739521
21
2.72147004621504
31
0.000000000000000
  0
LINE
  5
F10270
330
F10271
100
AcDbEntity
8
Geo
100
AcDbLine
10
-32.9174038739521
20
2.72147004621504
30
0.000000000000000
11
-32.8174038739521
21
2.65073151404306
31
0.000000000000000
  0
LINE
  5
F10272
330
F10273
100
AcDbEntity
8
Geo
100
AcDbLine
10
-32.8174038739521
20
2.65073151404306
30
0.000000000000000
11
-32.7174038739521
21
2.58070332922391
31
0.000000000000000
  0
LINE
  5
F10274
330
F10275
100
AcDbEntity
8
Geo
100
AcDbLine
10
-32.7174038739521
20
2.58070332922391
30
0.000000000000000
11
-32.6174038739521
21
2.51139249451772
31
0.000000000000000
  0
LINE
  5
F10276
330
F10277
100
AcDbEntity
8
Geo
100
AcDbLine
10
-32.6174038739521
20
2.51139249451772
30
0.000000000000000
11
-32.5174038739521
21
2.44280594095018
31
0.000000000000000
  0
LINE
  5
F10278
330
F10279
100
AcDbEntity
8
Geo
100
AcDbLine
10
-32.5174038739521
20
2.44280594095018
30
0.000000000000000
11
-32.4174038739521
21
2.37495052711951
31
0.000000000000000
  0
LINE
  5
F1027A
330
F1027B
100
AcDbEntity
8
Geo
100
AcDbLine
10
-32.4174038739521
20
2.37495052711951
30
0.000000000000000
11
-32.3174038739521
21
2.30783303851055
31
0.000000000000000
  0
LINE
  5
F1027C
330
F1027D
100
AcDbEntity
8
Geo
100
AcDbLine
10
-32.3174038739521
20
2.30783303851055
30
0.000000000000000
11
-32.2174038739521
21
2.24146018681622
31
0.000000000000000
  0
LINE
  5
F1027E
330
F1027F
100
AcDbEntity
8
Geo
100
AcDbLine
10
-32.2174038739521
20
2.24146018681622
30
0.000000000000000
11
-32.1174038739521
21
2.17583860926637
31
0.000000000000000
  0
LINE
  5
F10280
330
F10281
100
AcDbEntity
8
Geo
100
AcDbLine
10
-32.1174038739521
20
2.17583860926637
30
0.000000000000000
11
-32.0174038739521
21
2.11097486796409
31
0.000000000000000
  0
LINE
  5
F10282
330
F10283
100
AcDbEntity
8
Geo
100
AcDbLine
10
-32.0174038739521
20
2.11097486796409
30
0.000000000000000
11
-31.9174038739521
21
2.04687544922945
31
0.000000000000000
  0
LINE
  5
F10284
330
F10285
100
AcDbEntity
8
Geo
100
AcDbLine
10
-31.9174038739521
20
2.04687544922945
30
0.000000000000000
11
-31.8174038739521
21
1.98354676295090
31
0.000000000000000
  0
LINE
  5
F10286
330
F10287
100
AcDbEntity
8
Geo
100
AcDbLine
10
-31.8174038739521
20
1.98354676295090
30
0.000000000000000
11
-31.7174038739521
21
1.92099514194431
31
0.000000000000000
  0
LINE
  5
F10288
330
F10289
100
AcDbEntity
8
Geo
100
AcDbLine
10
-31.7174038739521
20
1.92099514194431
30
0.000000000000000
11
-31.6174038739521
21
1.85922684131964
31
0.000000000000000
  0
LINE
  5
F1028A
330
F1028B
100
AcDbEntity
8
Geo
100
AcDbLine
10
-31.6174038739521
20
1.85922684131964
30
0.000000000000000
11
-31.5174038739521
21
1.79824803785548
31
0.000000000000000
  0
LINE
  5
F1028C
330
F1028D
100
AcDbEntity
8
Geo
100
AcDbLine
10
-31.5174038739521
20
1.79824803785548
30
0.000000000000000
11
-31.4174038739521
21
1.73806482938137
31
0.000000000000000
  0
LINE
  5
F1028E
330
F1028F
100
AcDbEntity
8
Geo
100
AcDbLine
10
-31.4174038739521
20
1.73806482938137
30
0.000000000000000
11
-31.3174038739521
21
1.67868323416800
31
0.000000000000000
  0
LINE
  5
F10290
330
F10291
100
AcDbEntity
8
Geo
100
AcDbLine
10
-31.3174038739521
20
1.67868323416800
30
0.000000000000000
11
-31.2174038739521
21
1.62010919032541
31
0.000000000000000
  0
LINE
  5
F10292
330
F10293
100
AcDbEntity
8
Geo
100
AcDbLine
10
-31.2174038739521
20
1.62010919032541
30
0.000000000000000
11
-31.1174038739521
21
1.56234855520916
31
0.000000000000000
  0
LINE
  5
F10294
330
F10295
100
AcDbEntity
8
Geo
100
AcDbLine
10
-31.1174038739521
20
1.56234855520916
30
0.000000000000000
11
-31.0174038739521
21
1.50540710483464
31
0.000000000000000
  0
LINE
  5
F10296
330
F10297
100
AcDbEntity
8
Geo
100
AcDbLine
10
-31.0174038739521
20
1.50540710483464
30
0.000000000000000
11
-30.9174038739521
21
1.44929053329944
31
0.000000000000000
  0
LINE
  5
F10298
330
F10299
100
AcDbEntity
8
Geo
100
AcDbLine
10
-30.9174038739521
20
1.44929053329944
30
0.000000000000000
11
-30.8174038739521
21
1.39400445221394
31
0.000000000000000
  0
LINE
  5
F1029A
330
F1029B
100
AcDbEntity
8
Geo
100
AcDbLine
10
-30.8174038739521
20
1.39400445221394
30
0.000000000000000
11
-30.7174038739521
21
1.33955439014018
31
0.000000000000000
  0
LINE
  5
F1029C
330
F1029D
100
AcDbEntity
8
Geo
100
AcDbLine
10
-30.7174038739521
20
1.33955439014018
30
0.000000000000000
11
-30.6174038739521
21
1.28594579203899
31
0.000000000000000
  0
LINE
  5
F1029E
330
F1029F
100
AcDbEntity
8
Geo
100
AcDbLine
10
-30.6174038739521
20
1.28594579203899
30
0.000000000000000
11
-30.5174038739521
21
1.23318401872552
31
0.000000000000000
  0
LINE
  5
F102A0
330
F102A1
100
AcDbEntity
8
Geo
100
AcDbLine
10
-30.5174038739521
20
1.23318401872552
30
0.000000000000000
11
-30.4174038739521
21
1.18127434633311
31
0.000000000000000
  0
LINE
  5
F102A2
330
F102A3
100
AcDbEntity
8
Geo
100
AcDbLine
10
-30.4174038739521
20
1.18127434633311
30
0.000000000000000
11
-30.3174038739521
21
1.13022196578576
31
0.000000000000000
  0
LINE
  5
F102A4
330
F102A5
100
AcDbEntity
8
Geo
100
AcDbLine
10
-30.3174038739521
20
1.13022196578576
30
0.000000000000000
11
-30.2174038739521
21
1.08003198227898
31
0.000000000000000
  0
LINE
  5
F102A6
330
F102A7
100
AcDbEntity
8
Geo
100
AcDbLine
10
-30.2174038739521
20
1.08003198227898
30
0.000000000000000
11
-30.1174038739521
21
1.03070941476928
31
0.000000000000000
  0
LINE
  5
F102A8
330
F102A9
100
AcDbEntity
8
Geo
100
AcDbLine
10
-30.1174038739521
20
1.03070941476928
30
0.000000000000000
11
-30.0174038739521
21
0.982259195472333
31
0.000000000000000
  0
LINE
  5
F102AA
330
F102AB
100
AcDbEntity
8
Geo
100
AcDbLine
10
-30.0174038739521
20
0.982259195472333
30
0.000000000000000
11
-29.9174038739521
21
0.934686169369673
31
0.000000000000000
  0
LINE
  5
F102AC
330
F102AD
100
AcDbEntity
8
Geo
100
AcDbLine
10
-29.9174038739521
20
0.934686169369673
30
0.000000000000000
11
-29.8174038739521
21
0.887995093724276
31
0.000000000000000
  0
LINE
  5
F102AE
330
F102AF
100
AcDbEntity
8
Geo
100
AcDbLine
10
-29.8174038739521
20
0.887995093724276
30
0.000000000000000
11
-29.7174038739521
21
0.842190637604794
31
0.000000000000000
  0
LINE
  5
F102B0
330
F102B1
100
AcDbEntity
8
Geo
100
AcDbLine
10
-29.7174038739521
20
0.842190637604794
30
0.000000000000000
11
-29.6174038739521
21
0.797277381418672
31
0.000000000000000
  0
LINE
  5
F102B2
330
F102B3
100
AcDbEntity
8
Geo
100
AcDbLine
10
-29.6174038739521
20
0.797277381418672
30
0.000000000000000
11
-29.5174038739521
21
0.753259816454097
31
0.000000000000000
  0
LINE
  5
F102B4
330
F102B5
100
AcDbEntity
8
Geo
100
AcDbLine
10
-29.5174038739521
20
0.753259816454097
30
0.000000000000000
11
-29.4174038739521
21
0.710142344430890
31
0.000000000000000
  0
LINE
  5
F102B6
330
F102B7
100
AcDbEntity
8
Geo
100
AcDbLine
10
-29.4174038739521
20
0.710142344430890
30
0.000000000000000
11
-29.3174038739521
21
0.667929277060317
31
0.000000000000000
  0
LINE
  5
F102B8
330
F102B9
100
AcDbEntity
8
Geo
100
AcDbLine
10
-29.3174038739521
20
0.667929277060317
30
0.000000000000000
11
-29.2174038739521
21
0.626624835613939
31
0.000000000000000
  0
LINE
  5
F102BA
330
F102BB
100
AcDbEntity
8
Geo
100
AcDbLine
10
-29.2174038739521
20
0.626624835613939
30
0.000000000000000
11
-29.1174038739521
21
0.586233150501482
31
0.000000000000000
  0
LINE
  5
F102BC
330
F102BD
100
AcDbEntity
8
Geo
100
AcDbLine
10
-29.1174038739521
20
0.586233150501482
30
0.000000000000000
11
-29.0174038739521
21
0.546758260857793
31
0.000000000000000
  0
LINE
  5
F102BE
330
F102BF
100
AcDbEntity
8
Geo
100
AcDbLine
10
-29.0174038739521
20
0.546758260857793
30
0.000000000000000
11
-28.9174038739521
21
0.508204114138948
31
0.000000000000000
  0
LINE
  5
F102C0
330
F102C1
100
AcDbEntity
8
Geo
100
AcDbLine
10
-28.9174038739521
20
0.508204114138948
30
0.000000000000000
11
-28.8174038739521
21
0.470574565727485
31
0.000000000000000
  0
LINE
  5
F102C2
330
F102C3
100
AcDbEntity
8
Geo
100
AcDbLine
10
-28.8174038739521
20
0.470574565727485
30
0.000000000000000
11
-28.7174038739521
21
0.433873378546888
31
0.000000000000000
  0
LINE
  5
F102C4
330
F102C5
100
AcDbEntity
8
Geo
100
AcDbLine
10
-28.7174038739521
20
0.433873378546888
30
0.000000000000000
11
-28.6174038739521
21
0.398104222685292
31
0.000000000000000
  0
LINE
  5
F102C6
330
F102C7
100
AcDbEntity
8
Geo
100
AcDbLine
10
-28.6174038739521
20
0.398104222685292
30
0.000000000000000
11
-28.5174038739521
21
0.363270675028476
31
0.000000000000000
  0
LINE
  5
F102C8
330
F102C9
100
AcDbEntity
8
Geo
100
AcDbLine
10
-28.5174038739521
20
0.363270675028476
30
0.000000000000000
11
-28.4174038739521
21
0.329376218902176
31
0.000000000000000
  0
LINE
  5
F102CA
330
F102CB
100
AcDbEntity
8
Geo
100
AcDbLine
10
-28.4174038739521
20
0.329376218902176
30
0.000000000000000
11
-28.3174038739521
21
0.296424243723763
31
0.000000000000000
  0
LINE
  5
F102CC
330
F102CD
100
AcDbEntity
8
Geo
100
AcDbLine
10
-28.3174038739521
20
0.296424243723763
30
0.000000000000000
11
-28.2174038739521
21
0.264418044663291
31
0.000000000000000
  0
LINE
  5
F102CE
330
F102CF
100
AcDbEntity
8
Geo
100
AcDbLine
10
-28.2174038739521
20
0.264418044663291
30
0.000000000000000
11
-28.1174038739521
21
0.233360822313996
31
0.000000000000000
  0
LINE
  5
F102D0
330
F102D1
100
AcDbEntity
8
Geo
100
AcDbLine
10
-28.1174038739521
20
0.233360822313996
30
0.000000000000000
11
-28.0174038739521
21
0.203255682372230
31
0.000000000000000
  0
LINE
  5
F102D2
330
F102D3
100
AcDbEntity
8
Geo
100
AcDbLine
10
-28.0174038739521
20
0.203255682372230
30
0.000000000000000
11
-27.9174038739521
21
0.174105635326903
31
0.000000000000000
  0
LINE
  5
F102D4
330
F102D5
100
AcDbEntity
8
Geo
100
AcDbLine
10
-27.9174038739521
20
0.174105635326903
30
0.000000000000000
11
-27.8174038739521
21
0.145913596158428
31
0.000000000000000
  0
LINE
  5
F102D6
330
F102D7
100
AcDbEntity
8
Geo
100
AcDbLine
10
-27.8174038739521
20
0.145913596158428
30
0.000000000000000
11
-27.7174038739521
21
0.118682384047224
31
0.000000000000000
  0
LINE
  5
F102D8
330
F102D9
100
AcDbEntity
8
Geo
100
AcDbLine
10
-27.7174038739521
20
0.118682384047224
30
0.000000000000000
11
-27.6174038739521
21
0.0924147220918154
31
0.000000000000000
  0
LINE
  5
F102DA
330
F102DB
100
AcDbEntity
8
Geo
100
AcDbLine
10
-27.6174038739521
20
0.0924147220918154
30
0.000000000000000
11
-27.5174038739521
21
0.0671132370365015
31
0.000000000000000
  0
LINE
  5
F102DC
330
F102DD
100
AcDbEntity
8
Geo
100
AcDbLine
10
-27.5174038739521
20
0.0671132370365015
30
0.000000000000000
11
-27.4174038739521
21
0.0427804590087089
31
0.000000000000000
  0
LINE
  5
F102DE
330
F102DF
100
AcDbEntity
8
Geo
100
AcDbLine
10
-27.4174038739521
20
0.0427804590087089
30
0.000000000000000
11
-27.3174038739521
21
0.0194188212659636
31
0.000000000000000
  0
LINE
  5
F102E0
330
F102E1
100
AcDbEntity
8
Geo
100
AcDbLine
10
-27.3174038739521
20
0.0194188212659636
30
0.000000000000000
11
-27.2174038739521
21
-0.00296934004743399
31
0.000000000000000
  0
LINE
  5
F102E2
330
F102E3
100
AcDbEntity
8
Geo
100
AcDbLine
10
-27.2174038739521
20
-0.00296934004743399
30
0.000000000000000
11
-27.1174038739521
21
-0.0243817861340059
31
0.000000000000000
  0
LINE
  5
F102E4
330
F102E5
100
AcDbEntity
8
Geo
100
AcDbLine
10
-27.1174038739521
20
-0.0243817861340059
30
0.000000000000000
11
-27.0174038739521
21
-0.0448163757669864
31
0.000000000000000
  0
LINE
  5
F102E6
330
F102E7
100
AcDbEntity
8
Geo
100
AcDbLine
10
-27.0174038739521
20
-0.0448163757669864
30
0.000000000000000
11
-26.9174038739521
21
-0.0642710655044407
31
0.000000000000000
  0
LINE
  5
F102E8
330
F102E9
100
AcDbEntity
8
Geo
100
AcDbLine
10
-26.9174038739521
20
-0.0642710655044407
30
0.000000000000000
11
-26.8174038739521
21
-0.0827439098936082
31
0.000000000000000
  0
LINE
  5
F102EA
330
F102EB
100
AcDbEntity
8
Geo
100
AcDbLine
10
-26.8174038739521
20
-0.0827439098936082
30
0.000000000000000
11
-26.7174038739521
21
-0.100233061665444
31
0.000000000000000
  0
LINE
  5
F102EC
330
F102ED
100
AcDbEntity
8
Geo
100
AcDbLine
10
-26.7174038739521
20
-0.100233061665444
30
0.000000000000000
11
-26.6174038739521
21
-0.116736771919344
31
0.000000000000000
  0
LINE
  5
F102EE
330
F102EF
100
AcDbEntity
8
Geo
100
AcDbLine
10
-26.6174038739521
20
-0.116736771919344
30
0.000000000000000
11
-26.5174038739521
21
-0.132253390298040
31
0.000000000000000
  0
LINE
  5
F102F0
330
F102F1
100
AcDbEntity
8
Geo
100
AcDbLine
10
-26.5174038739521
20
-0.132253390298040
30
0.000000000000000
11
-26.4174038739521
21
-0.146781365152620
31
0.000000000000000
  0
LINE
  5
F102F2
330
F102F3
100
AcDbEntity
8
Geo
100
AcDbLine
10
-26.4174038739521
20
-0.146781365152620
30
0.000000000000000
11
-26.3174038739521
21
-0.160319243697707
31
0.000000000000000
  0
LINE
  5
F102F4
330
F102F5
100
AcDbEntity
8
Geo
100
AcDbLine
10
-26.3174038739521
20
-0.160319243697707
30
0.000000000000000
11
-26.2174038739521
21
-0.172865672156725
31
0.000000000000000
  0
LINE
  5
F102F6
330
F102F7
100
AcDbEntity
8
Geo
100
AcDbLine
10
-26.2174038739521
20
-0.172865672156725
30
0.000000000000000
11
-26.1174038739521
21
-0.184419395897288
31
0.000000000000000
  0
LINE
  5
F102F8
330
F102F9
100
AcDbEntity
8
Geo
100
AcDbLine
10
-26.1174038739521
20
-0.184419395897288
30
0.000000000000000
11
-26.0174038739521
21
-0.194979259556648
31
0.000000000000000
  0
LINE
  5
F102FA
330
F102FB
100
AcDbEntity
8
Geo
100
AcDbLine
10
-26.0174038739521
20
-0.194979259556648
30
0.000000000000000
11
-25.9174038739521
21
-0.204544207157241
31
0.000000000000000
  0
LINE
  5
F102FC
330
F102FD
100
AcDbEntity
8
Geo
100
AcDbLine
10
-25.9174038739521
20
-0.204544207157241
30
0.000000000000000
11
-25.8174038739521
21
-0.213113282212273
31
0.000000000000000
  0
LINE
  5
F102FE
330
F102FF
100
AcDbEntity
8
Geo
100
AcDbLine
10
-25.8174038739521
20
-0.213113282212273
30
0.000000000000000
11
-25.7174038739521
21
-0.220685627821382
31
0.000000000000000
  0
LINE
  5
F10300
330
F10301
100
AcDbEntity
8
Geo
100
AcDbLine
10
-25.7174038739521
20
-0.220685627821382
30
0.000000000000000
11
-25.6174038739521
21
-0.227260486756318
31
0.000000000000000
  0
LINE
  5
F10302
330
F10303
100
AcDbEntity
8
Geo
100
AcDbLine
10
-25.6174038739521
20
-0.227260486756318
30
0.000000000000000
11
-25.5174038739521
21
-0.232837201536666
31
0.000000000000000
  0
LINE
  5
F10304
330
F10305
100
AcDbEntity
8
Geo
100
AcDbLine
10
-25.5174038739521
20
-0.232837201536666
30
0.000000000000000
11
-25.4174038739521
21
-0.237415214495597
31
0.000000000000000
  0
LINE
  5
F10306
330
F10307
100
AcDbEntity
8
Geo
100
AcDbLine
10
-25.4174038739521
20
-0.237415214495597
30
0.000000000000000
11
-25.3174038739521
21
-0.240994067835627
31
0.000000000000000
  0
LINE
  5
F10308
330
F10309
100
AcDbEntity
8
Geo
100
AcDbLine
10
-25.3174038739521
20
-0.240994067835627
30
0.000000000000000
11
-25.2174038739521
21
-0.243573403674405
31
0.000000000000000
  0
LINE
  5
F1030A
330
F1030B
100
AcDbEntity
8
Geo
100
AcDbLine
10
-25.2174038739521
20
-0.243573403674405
30
0.000000000000000
11
-25.1174038739521
21
-0.245152964080498
31
0.000000000000000
  0
LINE
  5
F1030C
330
F1030D
100
AcDbEntity
8
Geo
100
AcDbLine
10
-25.1174038739521
20
-0.245152964080498
30
0.000000000000000
11
-25.0174038739521
21
-0.245732591099182
31
0.000000000000000
  0
LINE
  5
F1030E
330
F1030F
100
AcDbEntity
8
Geo
100
AcDbLine
10
-25.0174038739521
20
-0.245732591099182
30
0.000000000000000
11
-25.0094405033047
21
-0.245735761780836
31
0.000000000000000
  0
LINE
  5
F10310
330
F10311
100
AcDbEntity
8
Geo
100
AcDbLine
10
-40.7174038739521
20
-0.245735761780836
30
0.000000000000000
11
-40.7174038739521
21
-0.245735761780836
31
0.000000000000000
  0
LINE
  5
F10312
330
F10313
100
AcDbEntity
8
Geo
100
AcDbLine
10
-25.0094405033047
20
19.7542642382192
30
0.000000000000000
11
-24.9174038739521
21
19.7538407032066
31
0.000000000000000
  0
LINE
  5
F10314
330
F10315
100
AcDbEntity
8
Geo
100
AcDbLine
10
-24.9174038739521
20
19.7538407032066
30
0.000000000000000
11
-24.8174038739521
21
19.7524203895621
31
0.000000000000000
  0
LINE
  5
F10316
330
F10317
100
AcDbEntity
8
Geo
100
AcDbLine
10
-24.8174038739521
20
19.7524203895621
30
0.000000000000000
11
-24.7174038739521
21
19.7500002686342
31
0.000000000000000
  0
LINE
  5
F10318
330
F10319
100
AcDbEntity
8
Geo
100
AcDbLine
10
-24.7174038739521
20
19.7500002686342
30
0.000000000000000
11
-24.6174038739521
21
19.7465805824331
31
0.000000000000000
  0
LINE
  5
F1031A
330
F1031B
100
AcDbEntity
8
Geo
100
AcDbLine
10
-24.6174038739521
20
19.7465805824331
30
0.000000000000000
11
-24.5174038739521
21
19.7421616729244
31
0.000000000000000
  0
LINE
  5
F1031C
330
F1031D
100
AcDbEntity
8
Geo
100
AcDbLine
10
-24.5174038739521
20
19.7421616729244
30
0.000000000000000
11
-24.4174038739521
21
19.7367439819955
31
0.000000000000000
  0
LINE
  5
F1031E
330
F1031F
100
AcDbEntity
8
Geo
100
AcDbLine
10
-24.4174038739521
20
19.7367439819955
30
0.000000000000000
11
-24.3174038739521
21
19.7303280514109
31
0.000000000000000
  0
LINE
  5
F10320
330
F10321
100
AcDbEntity
8
Geo
100
AcDbLine
10
-24.3174038739521
20
19.7303280514109
30
0.000000000000000
11
-24.2174038739521
21
19.7229145227584
31
0.000000000000000
  0
LINE
  5
F10322
330
F10323
100
AcDbEntity
8
Geo
100
AcDbLine
10
-24.2174038739521
20
19.7229145227584
30
0.000000000000000
11
-24.1174038739521
21
19.7145041373845
31
0.000000000000000
  0
LINE
  5
F10324
330
F10325
100
AcDbEntity
8
Geo
100
AcDbLine
10
-24.1174038739521
20
19.7145041373845
30
0.000000000000000
11
-24.0174038739521
21
19.7050977363210
31
0.000000000000000
  0
LINE
  5
F10326
330
F10327
100
AcDbEntity
8
Geo
100
AcDbLine
10
-24.0174038739521
20
19.7050977363210
30
0.000000000000000
11
-23.9174038739521
21
19.6946962601999
31
0.000000000000000
  0
LINE
  5
F10328
330
F10329
100
AcDbEntity
8
Geo
100
AcDbLine
10
-23.9174038739521
20
19.6946962601999
30
0.000000000000000
11
-23.8174038739521
21
19.6833007491603
31
0.000000000000000
  0
LINE
  5
F1032A
330
F1032B
100
AcDbEntity
8
Geo
100
AcDbLine
10
-23.8174038739521
20
19.6833007491603
30
0.000000000000000
11
-23.7174038739521
21
19.6709123427438
31
0.000000000000000
  0
LINE
  5
F1032C
330
F1032D
100
AcDbEntity
8
Geo
100
AcDbLine
10
-23.7174038739521
20
19.6709123427438
30
0.000000000000000
11
-23.6174038739521
21
19.6575322797807
31
0.000000000000000
  0
LINE
  5
F1032E
330
F1032F
100
AcDbEntity
8
Geo
100
AcDbLine
10
-23.6174038739521
20
19.6575322797807
30
0.000000000000000
11
-23.5174038739521
21
19.6431618982662
31
0.000000000000000
  0
LINE
  5
F10330
330
F10331
100
AcDbEntity
8
Geo
100
AcDbLine
10
-23.5174038739521
20
19.6431618982662
30
0.000000000000000
11
-23.4174038739521
21
19.6278026352263
31
0.000000000000000
  0
LINE
  5
F10332
330
F10333
100
AcDbEntity
8
Geo
100
AcDbLine
10
-23.4174038739521
20
19.6278026352263
30
0.000000000000000
11
-23.3174038739521
21
19.6114560265747
31
0.000000000000000
  0
LINE
  5
F10334
330
F10335
100
AcDbEntity
8
Geo
100
AcDbLine
10
-23.3174038739521
20
19.6114560265747
30
0.000000000000000
11
-23.2174038739521
21
19.5941237069585
31
0.000000000000000
  0
LINE
  5
F10336
330
F10337
100
AcDbEntity
8
Geo
100
AcDbLine
10
-23.2174038739521
20
19.5941237069585
30
0.000000000000000
11
-23.1174038739521
21
19.5758074095953
31
0.000000000000000
  0
LINE
  5
F10338
330
F10339
100
AcDbEntity
8
Geo
100
AcDbLine
10
-23.1174038739521
20
19.5758074095953
30
0.000000000000000
11
-23.0174038739521
21
19.5565089660996
31
0.000000000000000
  0
LINE
  5
F1033A
330
F1033B
100
AcDbEntity
8
Geo
100
AcDbLine
10
-23.0174038739521
20
19.5565089660996
30
0.000000000000000
11
-22.9174038739521
21
19.5362303062996
31
0.000000000000000
  0
LINE
  5
F1033C
330
F1033D
100
AcDbEntity
8
Geo
100
AcDbLine
10
-22.9174038739521
20
19.5362303062996
30
0.000000000000000
11
-22.8174038739521
21
19.5149734580444
31
0.000000000000000
  0
LINE
  5
F1033E
330
F1033F
100
AcDbEntity
8
Geo
100
AcDbLine
10
-22.8174038739521
20
19.5149734580444
30
0.000000000000000
11
-22.7174038739521
21
19.4927405470011
31
0.000000000000000
  0
LINE
  5
F10340
330
F10341
100
AcDbEntity
8
Geo
100
AcDbLine
10
-22.7174038739521
20
19.4927405470011
30
0.000000000000000
11
-22.6174038739521
21
19.4695337964423
31
0.000000000000000
  0
LINE
  5
F10342
330
F10343
100
AcDbEntity
8
Geo
100
AcDbLine
10
-22.6174038739521
20
19.4695337964423
30
0.000000000000000
11
-22.5174038739521
21
19.4453555270237
31
0.000000000000000
  0
LINE
  5
F10344
330
F10345
100
AcDbEntity
8
Geo
100
AcDbLine
10
-22.5174038739521
20
19.4453555270237
30
0.000000000000000
11
-22.4174038739521
21
19.4202081565521
31
0.000000000000000
  0
LINE
  5
F10346
330
F10347
100
AcDbEntity
8
Geo
100
AcDbLine
10
-22.4174038739521
20
19.4202081565521
30
0.000000000000000
11
-22.3174038739521
21
19.3940941997436
31
0.000000000000000
  0
LINE
  5
F10348
330
F10349
100
AcDbEntity
8
Geo
100
AcDbLine
10
-22.3174038739521
20
19.3940941997436
30
0.000000000000000
11
-22.2174038739521
21
19.3670162679721
31
0.000000000000000
  0
LINE
  5
F1034A
330
F1034B
100
AcDbEntity
8
Geo
100
AcDbLine
10
-22.2174038739521
20
19.3670162679721
30
0.000000000000000
11
-22.1174038739521
21
19.3389770690083
31
0.000000000000000
  0
LINE
  5
F1034C
330
F1034D
100
AcDbEntity
8
Geo
100
AcDbLine
10
-22.1174038739521
20
19.3389770690083
30
0.000000000000000
11
-22.0174038739521
21
19.3099794067486
31
0.000000000000000
  0
LINE
  5
F1034E
330
F1034F
100
AcDbEntity
8
Geo
100
AcDbLine
10
-22.0174038739521
20
19.3099794067486
30
0.000000000000000
11
-21.9174038739521
21
19.2800261809351
31
0.000000000000000
  0
LINE
  5
F10350
330
F10351
100
AcDbEntity
8
Geo
100
AcDbLine
10
-21.9174038739521
20
19.2800261809351
30
0.000000000000000
11
-21.8174038739521
21
19.2491203868654
31
0.000000000000000
  0
LINE
  5
F10352
330
F10353
100
AcDbEntity
8
Geo
100
AcDbLine
10
-21.8174038739521
20
19.2491203868654
30
0.000000000000000
11
-21.7174038739521
21
19.2172651150933
31
0.000000000000000
  0
LINE
  5
F10354
330
F10355
100
AcDbEntity
8
Geo
100
AcDbLine
10
-21.7174038739521
20
19.2172651150933
30
0.000000000000000
11
-21.6174038739520
21
19.1844635511192
31
0.000000000000000
  0
LINE
  5
F10356
330
F10357
100
AcDbEntity
8
Geo
100
AcDbLine
10
-21.6174038739520
20
19.1844635511192
30
0.000000000000000
11
-21.5174038739520
21
19.1507189750724
31
0.000000000000000
  0
LINE
  5
F10358
330
F10359
100
AcDbEntity
8
Geo
100
AcDbLine
10
-21.5174038739520
20
19.1507189750724
30
0.000000000000000
11
-21.4174038739520
21
19.1160347613822
31
0.000000000000000
  0
LINE
  5
F1035A
330
F1035B
100
AcDbEntity
8
Geo
100
AcDbLine
10
-21.4174038739520
20
19.1160347613822
30
0.000000000000000
11
-21.3174038739520
21
19.0804143784411
31
0.000000000000000
  0
LINE
  5
F1035C
330
F1035D
100
AcDbEntity
8
Geo
100
AcDbLine
10
-21.3174038739520
20
19.0804143784411
30
0.000000000000000
11
-21.2174038739520
21
19.0438613882578
31
0.000000000000000
  0
LINE
  5
F1035E
330
F1035F
100
AcDbEntity
8
Geo
100
AcDbLine
10
-21.2174038739520
20
19.0438613882578
30
0.000000000000000
11
-21.1174038739520
21
19.0063794461008
31
0.000000000000000
  0
LINE
  5
F10360
330
F10361
100
AcDbEntity
8
Geo
100
AcDbLine
10
-21.1174038739520
20
19.0063794461008
30
0.000000000000000
11
-21.0174038739520
21
18.9679723001331
31
0.000000000000000
  0
LINE
  5
F10362
330
F10363
100
AcDbEntity
8
Geo
100
AcDbLine
10
-21.0174038739520
20
18.9679723001331
30
0.000000000000000
11
-20.9174038739520
21
18.9286437910372
31
0.000000000000000
  0
LINE
  5
F10364
330
F10365
100
AcDbEntity
8
Geo
100
AcDbLine
10
-20.9174038739520
20
18.9286437910372
30
0.000000000000000
11
-20.8174038739520
21
18.8883978516314
31
0.000000000000000
  0
LINE
  5
F10366
330
F10367
100
AcDbEntity
8
Geo
100
AcDbLine
10
-28.1510333813908
20
19.7542642382192
30
0.000000000000000
11
-28.1174038739521
21
19.7542076914935
31
0.000000000000000
  0
LINE
  5
F10368
330
F10369
100
AcDbEntity
8
Geo
100
AcDbLine
10
-28.1174038739521
20
19.7542076914935
30
0.000000000000000
11
-28.0174038739521
21
19.7533714108698
31
0.000000000000000
  0
LINE
  5
F1036A
330
F1036B
100
AcDbEntity
8
Geo
100
AcDbLine
10
-28.0174038739521
20
19.7533714108698
30
0.000000000000000
11
-27.9174038739521
21
19.7515352278614
31
0.000000000000000
  0
LINE
  5
F1036C
330
F1036D
100
AcDbEntity
8
Geo
100
AcDbLine
10
-27.9174038739521
20
19.7515352278614
30
0.000000000000000
11
-27.8174038739521
21
19.7486993260851
31
0.000000000000000
  0
LINE
  5
F1036E
330
F1036F
100
AcDbEntity
8
Geo
100
AcDbLine
10
-27.8174038739521
20
19.7486993260851
30
0.000000000000000
11
-27.7174038739521
21
19.7448639891286
31
0.000000000000000
  0
LINE
  5
F10370
330
F10371
100
AcDbEntity
8
Geo
100
AcDbLine
10
-27.7174038739521
20
19.7448639891286
30
0.000000000000000
11
-27.6174038739521
21
19.7400296005225
31
0.000000000000000
  0
LINE
  5
F10372
330
F10373
100
AcDbEntity
8
Geo
100
AcDbLine
10
-27.6174038739521
20
19.7400296005225
30
0.000000000000000
11
-27.5174038739521
21
19.7341966437017
31
0.000000000000000
  0
LINE
  5
F10374
330
F10375
100
AcDbEntity
8
Geo
100
AcDbLine
10
-27.5174038739521
20
19.7341966437017
30
0.000000000000000
11
-27.4174038739521
21
19.7273657019568
31
0.000000000000000
  0
LINE
  5
F10376
330
F10377
100
AcDbEntity
8
Geo
100
AcDbLine
10
-27.4174038739521
20
19.7273657019568
30
0.000000000000000
11
-27.3174038739521
21
19.7195374583765
31
0.000000000000000
  0
LINE
  5
F10378
330
F10379
100
AcDbEntity
8
Geo
100
AcDbLine
10
-27.3174038739521
20
19.7195374583765
30
0.000000000000000
11
-27.2174038739521
21
19.7107126957785
31
0.000000000000000
  0
LINE
  5
F1037A
330
F1037B
100
AcDbEntity
8
Geo
100
AcDbLine
10
-27.2174038739521
20
19.7107126957785
30
0.000000000000000
11
-27.1174038739521
21
19.7008922966318
31
0.000000000000000
  0
LINE
  5
F1037C
330
F1037D
100
AcDbEntity
8
Geo
100
AcDbLine
10
-27.1174038739521
20
19.7008922966318
30
0.000000000000000
11
-27.0174038739521
21
19.6900772429681
31
0.000000000000000
  0
LINE
  5
F1037E
330
F1037F
100
AcDbEntity
8
Geo
100
AcDbLine
10
-27.0174038739521
20
19.6900772429681
30
0.000000000000000
11
-26.9174038739521
21
19.6782686162837
31
0.000000000000000
  0
LINE
  5
F10380
330
F10381
100
AcDbEntity
8
Geo
100
AcDbLine
10
-26.9174038739521
20
19.6782686162837
30
0.000000000000000
11
-26.8174038739521
21
19.6654675974315
31
0.000000000000000
  0
LINE
  5
F10382
330
F10383
100
AcDbEntity
8
Geo
100
AcDbLine
10
-26.8174038739521
20
19.6654675974315
30
0.000000000000000
11
-26.7174038739521
21
19.6516754665027
31
0.000000000000000
  0
LINE
  5
F10384
330
F10385
100
AcDbEntity
8
Geo
100
AcDbLine
10
-26.7174038739521
20
19.6516754665027
30
0.000000000000000
11
-26.6174038739521
21
19.6368936026989
31
0.000000000000000
  0
LINE
  5
F10386
330
F10387
100
AcDbEntity
8
Geo
100
AcDbLine
10
-26.6174038739521
20
19.6368936026989
30
0.000000000000000
11
-26.5174038739521
21
19.6211234841941
31
0.000000000000000
  0
LINE
  5
F10388
330
F10389
100
AcDbEntity
8
Geo
100
AcDbLine
10
-26.5174038739521
20
19.6211234841941
30
0.000000000000000
11
-26.4174038739521
21
19.6043666879871
31
0.000000000000000
  0
LINE
  5
F1038A
330
F1038B
100
AcDbEntity
8
Geo
100
AcDbLine
10
-26.4174038739521
20
19.6043666879871
30
0.000000000000000
11
-26.3174038739521
21
19.5866248897434
31
0.000000000000000
  0
LINE
  5
F1038C
330
F1038D
100
AcDbEntity
8
Geo
100
AcDbLine
10
-26.3174038739521
20
19.5866248897434
30
0.000000000000000
11
-26.2174038739521
21
19.5678998636283
31
0.000000000000000
  0
LINE
  5
F1038E
330
F1038F
100
AcDbEntity
8
Geo
100
AcDbLine
10
-26.2174038739521
20
19.5678998636283
30
0.000000000000000
11
-26.1174038739521
21
19.5481934821286
31
0.000000000000000
  0
LINE
  5
F10390
330
F10391
100
AcDbEntity
8
Geo
100
AcDbLine
10
-26.1174038739521
20
19.5481934821286
30
0.000000000000000
11
-26.0174038739521
21
19.5275077158661
31
0.000000000000000
  0
LINE
  5
F10392
330
F10393
100
AcDbEntity
8
Geo
100
AcDbLine
10
-26.0174038739521
20
19.5275077158661
30
0.000000000000000
11
-25.9174038739521
21
19.5058446334001
31
0.000000000000000
  0
LINE
  5
F10394
330
F10395
100
AcDbEntity
8
Geo
100
AcDbLine
10
-25.9174038739521
20
19.5058446334001
30
0.000000000000000
11
-25.8174038739521
21
19.4832064010210
31
0.000000000000000
  0
LINE
  5
F10396
330
F10397
100
AcDbEntity
8
Geo
100
AcDbLine
10
-25.8174038739521
20
19.4832064010210
30
0.000000000000000
11
-25.7174038739521
21
19.4595952825330
31
0.000000000000000
  0
LINE
  5
F10398
330
F10399
100
AcDbEntity
8
Geo
100
AcDbLine
10
-25.7174038739521
20
19.4595952825330
30
0.000000000000000
11
-25.6174038739521
21
19.4350136390283
31
0.000000000000000
  0
LINE
  5
F1039A
330
F1039B
100
AcDbEntity
8
Geo
100
AcDbLine
10
-25.6174038739521
20
19.4350136390283
30
0.000000000000000
11
-25.5174038739521
21
19.4094639286508
31
0.000000000000000
  0
LINE
  5
F1039C
330
F1039D
100
AcDbEntity
8
Geo
100
AcDbLine
10
-25.5174038739521
20
19.4094639286508
30
0.000000000000000
11
-25.4174038739521
21
19.3829487063502
31
0.000000000000000
  0
LINE
  5
F1039E
330
F1039F
100
AcDbEntity
8
Geo
100
AcDbLine
10
-25.4174038739521
20
19.3829487063502
30
0.000000000000000
11
-25.3174038739521
21
19.3554706236267
31
0.000000000000000
  0
LINE
  5
F103A0
330
F103A1
100
AcDbEntity
8
Geo
100
AcDbLine
10
-25.3174038739521
20
19.3554706236267
30
0.000000000000000
11
-25.2174038739521
21
19.3270324282656
31
0.000000000000000
  0
LINE
  5
F103A2
330
F103A3
100
AcDbEntity
8
Geo
100
AcDbLine
10
-25.2174038739521
20
19.3270324282656
30
0.000000000000000
11
-25.1174038739521
21
19.2976369640628
31
0.000000000000000
  0
LINE
  5
F103A4
330
F103A5
100
AcDbEntity
8
Geo
100
AcDbLine
10
-25.1174038739521
20
19.2976369640628
30
0.000000000000000
11
-25.0174038739521
21
19.2672871705402
31
0.000000000000000
  0
LINE
  5
F103A6
330
F103A7
100
AcDbEntity
8
Geo
100
AcDbLine
10
-25.0174038739521
20
19.2672871705402
30
0.000000000000000
11
-24.9174038739521
21
19.2359860826518
31
0.000000000000000
  0
LINE
  5
F103A8
330
F103A9
100
AcDbEntity
8
Geo
100
AcDbLine
10
-24.9174038739521
20
19.2359860826518
30
0.000000000000000
11
-24.8174038739521
21
19.2037368304804
31
0.000000000000000
  0
LINE
  5
F103AA
330
F103AB
100
AcDbEntity
8
Geo
100
AcDbLine
10
-24.8174038739521
20
19.2037368304804
30
0.000000000000000
11
-24.7174038739521
21
19.1705426389244
31
0.000000000000000
  0
LINE
  5
F103AC
330
F103AD
100
AcDbEntity
8
Geo
100
AcDbLine
10
-24.7174038739521
20
19.1705426389244
30
0.000000000000000
11
-24.6174038739521
21
19.1364068273751
31
0.000000000000000
  0
LINE
  5
F103AE
330
F103AF
100
AcDbEntity
8
Geo
100
AcDbLine
10
-24.6174038739521
20
19.1364068273751
30
0.000000000000000
11
-24.5174038739521
21
19.1013328093853
31
0.000000000000000
  0
LINE
  5
F103B0
330
F103B1
100
AcDbEntity
8
Geo
100
AcDbLine
10
-24.5174038739521
20
19.1013328093853
30
0.000000000000000
11
-24.4174038739521
21
19.0653240923276
31
0.000000000000000
  0
LINE
  5
F103B2
330
F103B3
100
AcDbEntity
8
Geo
100
AcDbLine
10
-24.4174038739521
20
19.0653240923276
30
0.000000000000000
11
-24.3174038739521
21
19.0283842770438
31
0.000000000000000
  0
LINE
  5
F103B4
330
F103B5
100
AcDbEntity
8
Geo
100
AcDbLine
10
-24.3174038739521
20
19.0283842770438
30
0.000000000000000
11
-24.2174038739521
21
18.9905170574844
31
0.000000000000000
  0
LINE
  5
F103B6
330
F103B7
100
AcDbEntity
8
Geo
100
AcDbLine
10
-24.2174038739521
20
18.9905170574844
30
0.000000000000000
11
-24.1174038739521
21
18.9517262203399
31
0.000000000000000
  0
LINE
  5
F103B8
330
F103B9
100
AcDbEntity
8
Geo
100
AcDbLine
10
-24.1174038739521
20
18.9517262203399
30
0.000000000000000
11
-24.0174038739521
21
18.9120156446618
31
0.000000000000000
  0
LINE
  5
F103BA
330
F103BB
100
AcDbEntity
8
Geo
100
AcDbLine
10
-24.0174038739521
20
18.9120156446618
30
0.000000000000000
11
-23.9174038739521
21
18.8713893014744
31
0.000000000000000
  0
LINE
  5
F103BC
330
F103BD
100
AcDbEntity
8
Geo
100
AcDbLine
10
-23.9174038739521
20
18.8713893014744
30
0.000000000000000
11
-23.8174038739521
21
18.8298512533784
31
0.000000000000000
  0
LINE
  5
F103BE
330
F103BF
100
AcDbEntity
8
Geo
100
AcDbLine
10
-23.8174038739521
20
18.8298512533784
30
0.000000000000000
11
-23.7174038739521
21
18.7874056541437
31
0.000000000000000
  0
LINE
  5
F103C0
330
F103C1
100
AcDbEntity
8
Geo
100
AcDbLine
10
-23.7174038739521
20
18.7874056541437
30
0.000000000000000
11
-23.6174038739521
21
18.7440567482951
31
0.000000000000000
  0
LINE
  5
F103C2
330
F103C3
100
AcDbEntity
8
Geo
100
AcDbLine
10
-23.6174038739521
20
18.7440567482951
30
0.000000000000000
11
-23.5174038739521
21
18.6998088706869
31
0.000000000000000
  0
LINE
  5
F103C4
330
F103C5
100
AcDbEntity
8
Geo
100
AcDbLine
10
-23.5174038739521
20
18.6998088706869
30
0.000000000000000
11
-23.4174038739521
21
18.6546664460700
31
0.000000000000000
  0
LINE
  5
F103C6
330
F103C7
100
AcDbEntity
8
Geo
100
AcDbLine
10
-23.4174038739521
20
18.6546664460700
30
0.000000000000000
11
-23.3174038739521
21
18.6086339886494
31
0.000000000000000
  0
LINE
  5
F103C8
330
F103C9
100
AcDbEntity
8
Geo
100
AcDbLine
10
-23.3174038739521
20
18.6086339886494
30
0.000000000000000
11
-23.2174038739521
21
18.5617161016323
31
0.000000000000000
  0
LINE
  5
F103CA
330
F103CB
100
AcDbEntity
8
Geo
100
AcDbLine
10
-23.2174038739521
20
18.5617161016323
30
0.000000000000000
11
-23.1174038739521
21
18.5139174767684
31
0.000000000000000
  0
LINE
  5
F103CC
330
F103CD
100
AcDbEntity
8
Geo
100
AcDbLine
10
-23.1174038739521
20
18.5139174767684
30
0.000000000000000
11
-23.0174038739521
21
18.4652428938804
31
0.000000000000000
  0
LINE
  5
F103CE
330
F103CF
100
AcDbEntity
8
Geo
100
AcDbLine
10
-23.0174038739521
20
18.4652428938804
30
0.000000000000000
11
-22.9174038739521
21
18.4156972203859
31
0.000000000000000
  0
LINE
  5
F103D0
330
F103D1
100
AcDbEntity
8
Geo
100
AcDbLine
10
-22.9174038739521
20
18.4156972203859
30
0.000000000000000
11
-22.8174038739521
21
18.3652854108110
31
0.000000000000000
  0
LINE
  5
F103D2
330
F103D3
100
AcDbEntity
8
Geo
100
AcDbLine
10
-22.8174038739521
20
18.3652854108110
30
0.000000000000000
11
-22.7174038739521
21
18.3140125062947
31
0.000000000000000
  0
LINE
  5
F103D4
330
F103D5
100
AcDbEntity
8
Geo
100
AcDbLine
10
-22.7174038739521
20
18.3140125062947
30
0.000000000000000
11
-22.6174038739521
21
18.2618836340847
31
0.000000000000000
  0
LINE
  5
F103D6
330
F103D7
100
AcDbEntity
8
Geo
100
AcDbLine
10
-22.6174038739521
20
18.2618836340847
30
0.000000000000000
11
-22.5174038739521
21
18.2089040070247
31
0.000000000000000
  0
LINE
  5
F103D8
330
F103D9
100
AcDbEntity
8
Geo
100
AcDbLine
10
-22.5174038739521
20
18.2089040070247
30
0.000000000000000
11
-22.4174038739521
21
18.1550789230334
31
0.000000000000000
  0
LINE
  5
F103DA
330
F103DB
100
AcDbEntity
8
Geo
100
AcDbLine
10
-22.4174038739521
20
18.1550789230334
30
0.000000000000000
11
-22.3174038739521
21
18.1004137645743
31
0.000000000000000
  0
LINE
  5
F103DC
330
F103DD
100
AcDbEntity
8
Geo
100
AcDbLine
10
-22.3174038739521
20
18.1004137645743
30
0.000000000000000
11
-22.2174038739521
21
18.0449139981176
31
0.000000000000000
  0
LINE
  5
F103DE
330
F103DF
100
AcDbEntity
8
Geo
100
AcDbLine
10
-22.2174038739521
20
18.0449139981176
30
0.000000000000000
11
-22.1174038739521
21
17.9885851735938
31
0.000000000000000
  0
LINE
  5
F103E0
330
F103E1
100
AcDbEntity
8
Geo
100
AcDbLine
10
-22.1174038739521
20
17.9885851735938
30
0.000000000000000
11
-22.0174038739521
21
17.9314329238383
31
0.000000000000000
  0
LINE
  5
F103E2
330
F103E3
100
AcDbEntity
8
Geo
100
AcDbLine
10
-22.0174038739521
20
17.9314329238383
30
0.000000000000000
11
-21.9174038739521
21
17.8734629640286
31
0.000000000000000
  0
LINE
  5
F103E4
330
F103E5
100
AcDbEntity
8
Geo
100
AcDbLine
10
-21.9174038739521
20
17.8734629640286
30
0.000000000000000
11
-21.8174038739521
21
17.8146810911123
31
0.000000000000000
  0
LINE
  5
F103E6
330
F103E7
100
AcDbEntity
8
Geo
100
AcDbLine
10
-21.8174038739521
20
17.8146810911123
30
0.000000000000000
11
-21.7174038739521
21
17.7550931832276
31
0.000000000000000
  0
LINE
  5
F103E8
330
F103E9
100
AcDbEntity
8
Geo
100
AcDbLine
10
-21.7174038739521
20
17.7550931832276
30
0.000000000000000
11
-21.6174038739520
21
17.6947051991159
31
0.000000000000000
  0
LINE
  5
F103EA
330
F103EB
100
AcDbEntity
8
Geo
100
AcDbLine
10
-21.6174038739520
20
17.6947051991159
30
0.000000000000000
11
-21.5174038739520
21
17.6335231775250
31
0.000000000000000
  0
LINE
  5
F103EC
330
F103ED
100
AcDbEntity
8
Geo
100
AcDbLine
10
-21.5174038739520
20
17.6335231775250
30
0.000000000000000
11
-21.4174038739520
21
17.5715532366062
31
0.000000000000000
  0
LINE
  5
F103EE
330
F103EF
100
AcDbEntity
8
Geo
100
AcDbLine
10
-21.4174038739520
20
17.5715532366062
30
0.000000000000000
11
-21.3174038739520
21
17.5088015733020
31
0.000000000000000
  0
LINE
  5
F103F0
330
F103F1
100
AcDbEntity
8
Geo
100
AcDbLine
10
-21.3174038739520
20
17.5088015733020
30
0.000000000000000
11
-21.2174038739520
21
17.4452744627264
31
0.000000000000000
  0
LINE
  5
F103F2
330
F103F3
100
AcDbEntity
8
Geo
100
AcDbLine
10
-21.2174038739520
20
17.4452744627264
30
0.000000000000000
11
-21.1174038739520
21
17.3809782575374
31
0.000000000000000
  0
LINE
  5
F103F4
330
F103F5
100
AcDbEntity
8
Geo
100
AcDbLine
10
-21.1174038739520
20
17.3809782575374
30
0.000000000000000
11
-21.0174038739520
21
17.3159193873021
31
0.000000000000000
  0
LINE
  5
F103F6
330
F103F7
100
AcDbEntity
8
Geo
100
AcDbLine
10
-21.0174038739520
20
17.3159193873021
30
0.000000000000000
11
-20.9174038739520
21
17.2501043578533
31
0.000000000000000
  0
LINE
  5
F103F8
330
F103F9
100
AcDbEntity
8
Geo
100
AcDbLine
10
-20.9174038739520
20
17.2501043578533
30
0.000000000000000
11
-20.8174038739520
21
17.1835397506390
31
0.000000000000000
  0
LINE
  5
F103FA
330
F103FB
100
AcDbEntity
8
Geo
100
AcDbLine
10
-40.7174038739521
20
19.2648294011707
30
0.000000000000000
11
-40.6174038739520
21
19.2334526924635
31
0.000000000000000
  0
LINE
  5
F103FC
330
F103FD
100
AcDbEntity
8
Geo
100
AcDbLine
10
-40.6174038739520
20
19.2334526924635
30
0.000000000000000
11
-40.5174038739520
21
19.2011280728102
31
0.000000000000000
  0
LINE
  5
F103FE
330
F103FF
100
AcDbEntity
8
Geo
100
AcDbLine
10
-40.5174038739520
20
19.2011280728102
30
0.000000000000000
11
-40.4174038739521
21
19.1678587746458
31
0.000000000000000
  0
LINE
  5
F10400
330
F10401
100
AcDbEntity
8
Geo
100
AcDbLine
10
-40.4174038739521
20
19.1678587746458
30
0.000000000000000
11
-40.3174038739521
21
19.1336481248724
31
0.000000000000000
  0
LINE
  5
F10402
330
F10403
100
AcDbEntity
8
Geo
100
AcDbLine
10
-40.3174038739521
20
19.1336481248724
30
0.000000000000000
11
-40.2174038739521
21
19.0984995445265
31
0.000000000000000
  0
LINE
  5
F10404
330
F10405
100
AcDbEntity
8
Geo
100
AcDbLine
10
-40.2174038739521
20
19.0984995445265
30
0.000000000000000
11
-40.1174038739520
21
19.0624165484367
31
0.000000000000000
  0
LINE
  5
F10406
330
F10407
100
AcDbEntity
8
Geo
100
AcDbLine
10
-40.1174038739520
20
19.0624165484367
30
0.000000000000000
11
-40.0174038739520
21
19.0254027448727
31
0.000000000000000
  0
LINE
  5
F10408
330
F10409
100
AcDbEntity
8
Geo
100
AcDbLine
10
-40.0174038739520
20
19.0254027448727
30
0.000000000000000
11
-39.9174038739521
21
18.9874618351840
31
0.000000000000000
  0
LINE
  5
F1040A
330
F1040B
100
AcDbEntity
8
Geo
100
AcDbLine
10
-39.9174038739521
20
18.9874618351840
30
0.000000000000000
11
-39.8174038739521
21
18.9485976134299
31
0.000000000000000
  0
LINE
  5
F1040C
330
F1040D
100
AcDbEntity
8
Geo
100
AcDbLine
10
-39.8174038739521
20
18.9485976134299
30
0.000000000000000
11
-39.7174038739521
21
18.9088139660002
31
0.000000000000000
  0
LINE
  5
F1040E
330
F1040F
100
AcDbEntity
8
Geo
100
AcDbLine
10
-39.7174038739521
20
18.9088139660002
30
0.000000000000000
11
-39.6174038739520
21
18.8681148712264
31
0.000000000000000
  0
LINE
  5
F10410
330
F10411
100
AcDbEntity
8
Geo
100
AcDbLine
10
-39.6174038739520
20
18.8681148712264
30
0.000000000000000
11
-39.5174038739520
21
18.8265043989842
31
0.000000000000000
  0
LINE
  5
F10412
330
F10413
100
AcDbEntity
8
Geo
100
AcDbLine
10
-39.5174038739520
20
18.8265043989842
30
0.000000000000000
11
-39.4174038739521
21
18.7839867102862
31
0.000000000000000
  0
LINE
  5
F10414
330
F10415
100
AcDbEntity
8
Geo
100
AcDbLine
10
-39.4174038739521
20
18.7839867102862
30
0.000000000000000
11
-39.3174038739521
21
18.7405660568656
31
0.000000000000000
  0
LINE
  5
F10416
330
F10417
100
AcDbEntity
8
Geo
100
AcDbLine
10
-39.3174038739521
20
18.7405660568656
30
0.000000000000000
11
-39.2174038739521
21
18.6962467807517
31
0.000000000000000
  0
LINE
  5
F10418
330
F10419
100
AcDbEntity
8
Geo
100
AcDbLine
10
-39.2174038739521
20
18.6962467807517
30
0.000000000000000
11
-39.1174038739520
21
18.6510333138353
31
0.000000000000000
  0
LINE
  5
F1041A
330
F1041B
100
AcDbEntity
8
Geo
100
AcDbLine
10
-39.1174038739520
20
18.6510333138353
30
0.000000000000000
11
-39.0174038739520
21
18.6049301774252
31
0.000000000000000
  0
LINE
  5
F1041C
330
F1041D
100
AcDbEntity
8
Geo
100
AcDbLine
10
-39.0174038739520
20
18.6049301774252
30
0.000000000000000
11
-38.9174038739521
21
18.5579419817967
31
0.000000000000000
  0
LINE
  5
F1041E
330
F1041F
100
AcDbEntity
8
Geo
100
AcDbLine
10
-38.9174038739521
20
18.5579419817967
30
0.000000000000000
11
-38.8174038739521
21
18.5100734257302
31
0.000000000000000
  0
LINE
  5
F10420
330
F10421
100
AcDbEntity
8
Geo
100
AcDbLine
10
-38.8174038739521
20
18.5100734257302
30
0.000000000000000
11
-38.7174038739521
21
18.4613292960415
31
0.000000000000000
  0
LINE
  5
F10422
330
F10423
100
AcDbEntity
8
Geo
100
AcDbLine
10
-38.7174038739521
20
18.4613292960415
30
0.000000000000000
11
-38.6174038739520
21
18.4117144671028
31
0.000000000000000
  0
LINE
  5
F10424
330
F10425
100
AcDbEntity
8
Geo
100
AcDbLine
10
-38.6174038739520
20
18.4117144671028
30
0.000000000000000
11
-38.5174038739520
21
18.3612339003558
31
0.000000000000000
  0
LINE
  5
F10426
330
F10427
100
AcDbEntity
8
Geo
100
AcDbLine
10
-38.5174038739520
20
18.3612339003558
30
0.000000000000000
11
-38.4174038739521
21
18.3098926438150
31
0.000000000000000
  0
LINE
  5
F10428
330
F10429
100
AcDbEntity
8
Geo
100
AcDbLine
10
-38.4174038739521
20
18.3098926438150
30
0.000000000000000
11
-38.3174038739521
21
18.2576958315633
31
0.000000000000000
  0
LINE
  5
F1042A
330
F1042B
100
AcDbEntity
8
Geo
100
AcDbLine
10
-38.3174038739521
20
18.2576958315633
30
0.000000000000000
11
-38.2174038739521
21
18.2046486832385
31
0.000000000000000
  0
LINE
  5
F1042C
330
F1042D
100
AcDbEntity
8
Geo
100
AcDbLine
10
-38.2174038739521
20
18.2046486832385
30
0.000000000000000
11
-38.1174038739520
21
18.1507565035111
31
0.000000000000000
  0
LINE
  5
F1042E
330
F1042F
100
AcDbEntity
8
Geo
100
AcDbLine
10
-38.1174038739520
20
18.1507565035111
30
0.000000000000000
11
-38.0174038739520
21
18.0960246815542
31
0.000000000000000
  0
LINE
  5
F10430
330
F10431
100
AcDbEntity
8
Geo
100
AcDbLine
10
-38.0174038739520
20
18.0960246815542
30
0.000000000000000
11
-37.9174038739520
21
18.0404586905045
31
0.000000000000000
  0
LINE
  5
F10432
330
F10433
100
AcDbEntity
8
Geo
100
AcDbLine
10
-37.9174038739520
20
18.0404586905045
30
0.000000000000000
11
-37.8174038739521
21
17.9840640869146
31
0.000000000000000
  0
LINE
  5
F10434
330
F10435
100
AcDbEntity
8
Geo
100
AcDbLine
10
-37.8174038739521
20
17.9840640869146
30
0.000000000000000
11
-37.7174038739521
21
17.9268465101981
31
0.000000000000000
  0
LINE
  5
F10436
330
F10437
100
AcDbEntity
8
Geo
100
AcDbLine
10
-37.7174038739521
20
17.9268465101981
30
0.000000000000000
11
-37.6174038739520
21
17.8688116820648
31
0.000000000000000
  0
LINE
  5
F10438
330
F10439
100
AcDbEntity
8
Geo
100
AcDbLine
10
-37.6174038739520
20
17.8688116820648
30
0.000000000000000
11
-37.5174038739520
21
17.8099654059492
31
0.000000000000000
  0
LINE
  5
F1043A
330
F1043B
100
AcDbEntity
8
Geo
100
AcDbLine
10
-37.5174038739520
20
17.8099654059492
30
0.000000000000000
11
-37.4174038739520
21
17.7503135664299
31
0.000000000000000
  0
LINE
  5
F1043C
330
F1043D
100
AcDbEntity
8
Geo
100
AcDbLine
10
-37.4174038739520
20
17.7503135664299
30
0.000000000000000
11
-37.3174038739521
21
17.6898621286411
31
0.000000000000000
  0
LINE
  5
F1043E
330
F1043F
100
AcDbEntity
8
Geo
100
AcDbLine
10
-37.3174038739521
20
17.6898621286411
30
0.000000000000000
11
-37.2174038739521
21
17.6286171376763
31
0.000000000000000
  0
LINE
  5
F10440
330
F10441
100
AcDbEntity
8
Geo
100
AcDbLine
10
-37.2174038739521
20
17.6286171376763
30
0.000000000000000
11
-37.1174038739520
21
17.5665847179834
31
0.000000000000000
  0
LINE
  5
F10442
330
F10443
100
AcDbEntity
8
Geo
100
AcDbLine
10
-37.1174038739520
20
17.5665847179834
30
0.000000000000000
11
-37.0174038739520
21
17.5037710727529
31
0.000000000000000
  0
LINE
  5
F10444
330
F10445
100
AcDbEntity
8
Geo
100
AcDbLine
10
-37.0174038739520
20
17.5037710727529
30
0.000000000000000
11
-36.9174038739520
21
17.4401824832967
31
0.000000000000000
  0
LINE
  5
F10446
330
F10447
100
AcDbEntity
8
Geo
100
AcDbLine
10
-36.9174038739520
20
17.4401824832967
30
0.000000000000000
11
-36.8174038739520
21
17.3758253084210
31
0.000000000000000
  0
LINE
  5
F10448
330
F10449
100
AcDbEntity
8
Geo
100
AcDbLine
10
-36.8174038739520
20
17.3758253084210
30
0.000000000000000
11
-36.7174038739521
21
17.3107059837896
31
0.000000000000000
  0
LINE
  5
F1044A
330
F1044B
100
AcDbEntity
8
Geo
100
AcDbLine
10
-36.7174038739521
20
17.3107059837896
30
0.000000000000000
11
-36.6174038739520
21
17.2448310212806
31
0.000000000000000
  0
LINE
  5
F1044C
330
F1044D
100
AcDbEntity
8
Geo
100
AcDbLine
10
-36.6174038739520
20
17.2448310212806
30
0.000000000000000
11
-36.5174038739520
21
17.1782070083354
31
0.000000000000000
  0
LINE
  5
F1044E
330
F1044F
100
AcDbEntity
8
Geo
100
AcDbLine
10
-36.5174038739520
20
17.1782070083354
30
0.000000000000000
11
-36.4174038739521
21
17.1108406072998
31
0.000000000000000
  0
LINE
  5
F10450
330
F10451
100
AcDbEntity
8
Geo
100
AcDbLine
10
-36.4174038739521
20
17.1108406072998
30
0.000000000000000
11
-36.3174038739521
21
17.0427385547577
31
0.000000000000000
  0
LINE
  5
F10452
330
F10453
100
AcDbEntity
8
Geo
100
AcDbLine
10
-36.3174038739521
20
17.0427385547577
30
0.000000000000000
11
-36.2174038739521
21
16.9739076608577
31
0.000000000000000
  0
LINE
  5
F10454
330
F10455
100
AcDbEntity
8
Geo
100
AcDbLine
10
-36.2174038739521
20
16.9739076608577
30
0.000000000000000
11
-36.1174038739520
21
16.9043548086318
31
0.000000000000000
  0
LINE
  5
F10456
330
F10457
100
AcDbEntity
8
Geo
100
AcDbLine
10
-36.1174038739520
20
16.9043548086318
30
0.000000000000000
11
-36.0174038739520
21
16.8340869533072
31
0.000000000000000
  0
LINE
  5
F10458
330
F10459
100
AcDbEntity
8
Geo
100
AcDbLine
10
-36.0174038739520
20
16.8340869533072
30
0.000000000000000
11
-35.9174038739521
21
16.7631111216110
31
0.000000000000000
  0
LINE
  5
F1045A
330
F1045B
100
AcDbEntity
8
Geo
100
AcDbLine
10
-35.9174038739521
20
16.7631111216110
30
0.000000000000000
11
-35.8174038739521
21
16.6914344110671
31
0.000000000000000
  0
LINE
  5
F1045C
330
F1045D
100
AcDbEntity
8
Geo
100
AcDbLine
10
-35.8174038739521
20
16.6914344110671
30
0.000000000000000
11
-35.7174038739521
21
16.6190639892869
31
0.000000000000000
  0
LINE
  5
F1045E
330
F1045F
100
AcDbEntity
8
Geo
100
AcDbLine
10
-35.7174038739521
20
16.6190639892869
30
0.000000000000000
11
-35.6174038739521
21
16.5460070932522
31
0.000000000000000
  0
LINE
  5
F10460
330
F10461
100
AcDbEntity
8
Geo
100
AcDbLine
10
-35.6174038739521
20
16.5460070932522
30
0.000000000000000
11
-35.5174038739521
21
16.4722710285918
31
0.000000000000000
  0
LINE
  5
F10462
330
F10463
100
AcDbEntity
8
Geo
100
AcDbLine
10
-35.5174038739521
20
16.4722710285918
30
0.000000000000000
11
-35.4174038739521
21
16.3978631688506
31
0.000000000000000
  0
LINE
  5
F10464
330
F10465
100
AcDbEntity
8
Geo
100
AcDbLine
10
-35.4174038739521
20
16.3978631688506
30
0.000000000000000
11
-35.3174038739521
21
16.3227909547527
31
0.000000000000000
  0
LINE
  5
F10466
330
F10467
100
AcDbEntity
8
Geo
100
AcDbLine
10
-35.3174038739521
20
16.3227909547527
30
0.000000000000000
11
-35.2174038739521
21
16.2470618934570
31
0.000000000000000
  0
LINE
  5
F10468
330
F10469
100
AcDbEntity
8
Geo
100
AcDbLine
10
-35.2174038739521
20
16.2470618934570
30
0.000000000000000
11
-35.1174038739521
21
16.1706835578063
31
0.000000000000000
  0
LINE
  5
F1046A
330
F1046B
100
AcDbEntity
8
Geo
100
AcDbLine
10
-35.1174038739521
20
16.1706835578063
30
0.000000000000000
11
-35.0174038739521
21
16.0936635855707
31
0.000000000000000
  0
LINE
  5
F1046C
330
F1046D
100
AcDbEntity
8
Geo
100
AcDbLine
10
-35.0174038739521
20
16.0936635855707
30
0.000000000000000
11
-34.9174038739521
21
16.0160096786831
31
0.000000000000000
  0
LINE
  5
F1046E
330
F1046F
100
AcDbEntity
8
Geo
100
AcDbLine
10
-34.9174038739521
20
16.0160096786831
30
0.000000000000000
11
-34.8174038739521
21
15.9377296024696
31
0.000000000000000
  0
LINE
  5
F10470
330
F10471
100
AcDbEntity
8
Geo
100
AcDbLine
10
-34.8174038739521
20
15.9377296024696
30
0.000000000000000
11
-34.7174038739521
21
15.8588311848726
31
0.000000000000000
  0
LINE
  5
F10472
330
F10473
100
AcDbEntity
8
Geo
100
AcDbLine
10
-34.7174038739521
20
15.8588311848726
30
0.000000000000000
11
-34.6174038739521
21
15.7793223156680
31
0.000000000000000
  0
LINE
  5
F10474
330
F10475
100
AcDbEntity
8
Geo
100
AcDbLine
10
-34.6174038739521
20
15.7793223156680
30
0.000000000000000
11
-34.5174038739521
21
15.6992109456766
31
0.000000000000000
  0
LINE
  5
F10476
330
F10477
100
AcDbEntity
8
Geo
100
AcDbLine
10
-34.5174038739521
20
15.6992109456766
30
0.000000000000000
11
-34.4174038739521
21
15.6185050859685
31
0.000000000000000
  0
LINE
  5
F10478
330
F10479
100
AcDbEntity
8
Geo
100
AcDbLine
10
-34.4174038739521
20
15.6185050859685
30
0.000000000000000
11
-34.3174038739521
21
15.5372128070624
31
0.000000000000000
  0
LINE
  5
F1047A
330
F1047B
100
AcDbEntity
8
Geo
100
AcDbLine
10
-34.3174038739521
20
15.5372128070624
30
0.000000000000000
11
-34.2174038739521
21
15.4553422381186
31
0.000000000000000
  0
LINE
  5
F1047C
330
F1047D
100
AcDbEntity
8
Geo
100
AcDbLine
10
-34.2174038739521
20
15.4553422381186
30
0.000000000000000
11
-34.1174038739521
21
15.3729015661257
31
0.000000000000000
  0
LINE
  5
F1047E
330
F1047F
100
AcDbEntity
8
Geo
100
AcDbLine
10
-34.1174038739521
20
15.3729015661257
30
0.000000000000000
11
-34.0174038739521
21
15.2898990350822
31
0.000000000000000
  0
LINE
  5
F10480
330
F10481
100
AcDbEntity
8
Geo
100
AcDbLine
10
-34.0174038739521
20
15.2898990350822
30
0.000000000000000
11
-33.9174038739521
21
15.2063429451720
31
0.000000000000000
  0
LINE
  5
F10482
330
F10483
100
AcDbEntity
8
Geo
100
AcDbLine
10
-33.9174038739521
20
15.2063429451720
30
0.000000000000000
11
-33.8174038739521
21
15.1222416519345
31
0.000000000000000
  0
LINE
  5
F10484
330
F10485
100
AcDbEntity
8
Geo
100
AcDbLine
10
-33.8174038739521
20
15.1222416519345
30
0.000000000000000
11
-33.7174038739521
21
15.0376035654289
31
0.000000000000000
  0
LINE
  5
F10486
330
F10487
100
AcDbEntity
8
Geo
100
AcDbLine
10
-33.7174038739521
20
15.0376035654289
30
0.000000000000000
11
-33.6174038739521
21
14.9524371493934
31
0.000000000000000
  0
LINE
  5
F10488
330
F10489
100
AcDbEntity
8
Geo
100
AcDbLine
10
-33.6174038739521
20
14.9524371493934
30
0.000000000000000
11
-33.5174038739521
21
14.8667509203986
31
0.000000000000000
  0
LINE
  5
F1048A
330
F1048B
100
AcDbEntity
8
Geo
100
AcDbLine
10
-33.5174038739521
20
14.8667509203986
30
0.000000000000000
11
-33.4174038739521
21
14.7805534469959
31
0.000000000000000
  0
LINE
  5
F1048C
330
F1048D
100
AcDbEntity
8
Geo
100
AcDbLine
10
-33.4174038739521
20
14.7805534469959
30
0.000000000000000
11
-33.3174038739521
21
14.6938533488609
31
0.000000000000000
  0
LINE
  5
F1048E
330
F1048F
100
AcDbEntity
8
Geo
100
AcDbLine
10
-33.3174038739521
20
14.6938533488609
30
0.000000000000000
11
-33.2174038739521
21
14.6066592959311
31
0.000000000000000
  0
LINE
  5
F10490
330
F10491
100
AcDbEntity
8
Geo
100
AcDbLine
10
-33.2174038739521
20
14.6066592959311
30
0.000000000000000
11
-33.1174038739521
21
14.5189800075393
31
0.000000000000000
  0
LINE
  5
F10492
330
F10493
100
AcDbEntity
8
Geo
100
AcDbLine
10
-33.1174038739521
20
14.5189800075393
30
0.000000000000000
11
-33.0174038739521
21
14.4308242515411
31
0.000000000000000
  0
LINE
  5
F10494
330
F10495
100
AcDbEntity
8
Geo
100
AcDbLine
10
-33.0174038739521
20
14.4308242515411
30
0.000000000000000
11
-32.9174038739521
21
14.3422008434386
31
0.000000000000000
  0
LINE
  5
F10496
330
F10497
100
AcDbEntity
8
Geo
100
AcDbLine
10
-32.9174038739521
20
14.3422008434386
30
0.000000000000000
11
-32.8174038739521
21
14.2531186454989
31
0.000000000000000
  0
LINE
  5
F10498
330
F10499
100
AcDbEntity
8
Geo
100
AcDbLine
10
-32.8174038739521
20
14.2531186454989
30
0.000000000000000
11
-32.7174038739521
21
14.1635865658676
31
0.000000000000000
  0
LINE
  5
F1049A
330
F1049B
100
AcDbEntity
8
Geo
100
AcDbLine
10
-32.7174038739521
20
14.1635865658676
30
0.000000000000000
11
-32.6174038739521
21
14.0736135576778
31
0.000000000000000
  0
LINE
  5
F1049C
330
F1049D
100
AcDbEntity
8
Geo
100
AcDbLine
10
-32.6174038739521
20
14.0736135576778
30
0.000000000000000
11
-32.5174038739521
21
13.9832086181556
31
0.000000000000000
  0
LINE
  5
F1049E
330
F1049F
100
AcDbEntity
8
Geo
100
AcDbLine
10
-32.5174038739521
20
13.9832086181556
30
0.000000000000000
11
-32.4174038739521
21
13.8923807877195
31
0.000000000000000
  0
LINE
  5
F104A0
330
F104A1
100
AcDbEntity
8
Geo
100
AcDbLine
10
-32.4174038739521
20
13.8923807877195
30
0.000000000000000
11
-32.3174038739521
21
13.8011391490769
31
0.000000000000000
  0
LINE
  5
F104A2
330
F104A3
100
AcDbEntity
8
Geo
100
AcDbLine
10
-32.3174038739521
20
13.8011391490769
30
0.000000000000000
11
-32.2174038739521
21
13.7094928263155
31
0.000000000000000
  0
LINE
  5
F104A4
330
F104A5
100
AcDbEntity
8
Geo
100
AcDbLine
10
-32.2174038739521
20
13.7094928263155
30
0.000000000000000
11
-32.1174038739521
21
13.6174509839914
31
0.000000000000000
  0
LINE
  5
F104A6
330
F104A7
100
AcDbEntity
8
Geo
100
AcDbLine
10
-32.1174038739521
20
13.6174509839914
30
0.000000000000000
11
-32.0174038739521
21
13.5250228262120
31
0.000000000000000
  0
LINE
  5
F104A8
330
F104A9
100
AcDbEntity
8
Geo
100
AcDbLine
10
-32.0174038739521
20
13.5250228262120
30
0.000000000000000
11
-31.9174038739521
21
13.4322175957161
31
0.000000000000000
  0
LINE
  5
F104AA
330
F104AB
100
AcDbEntity
8
Geo
100
AcDbLine
10
-31.9174038739521
20
13.4322175957161
30
0.000000000000000
11
-31.8174038739521
21
13.3390445729494
31
0.000000000000000
  0
LINE
  5
F104AC
330
F104AD
100
AcDbEntity
8
Geo
100
AcDbLine
10
-31.8174038739521
20
13.3390445729494
30
0.000000000000000
11
-31.7174038739521
21
13.2455130751365
31
0.000000000000000
  0
LINE
  5
F104AE
330
F104AF
100
AcDbEntity
8
Geo
100
AcDbLine
10
-31.7174038739521
20
13.2455130751365
30
0.000000000000000
11
-31.6174038739521
21
13.1516324553493
31
0.000000000000000
  0
LINE
  5
F104B0
330
F104B1
100
AcDbEntity
8
Geo
100
AcDbLine
10
-31.6174038739521
20
13.1516324553493
30
0.000000000000000
11
-31.5174038739521
21
13.0574121015715
31
0.000000000000000
  0
LINE
  5
F104B2
330
F104B3
100
AcDbEntity
8
Geo
100
AcDbLine
10
-31.5174038739521
20
13.0574121015715
30
0.000000000000000
11
-31.4174038739521
21
12.9628614357600
31
0.000000000000000
  0
LINE
  5
F104B4
330
F104B5
100
AcDbEntity
8
Geo
100
AcDbLine
10
-31.4174038739521
20
12.9628614357600
30
0.000000000000000
11
-31.3174038739521
21
12.8679899129026
31
0.000000000000000
  0
LINE
  5
F104B6
330
F104B7
100
AcDbEntity
8
Geo
100
AcDbLine
10
-31.3174038739521
20
12.8679899129026
30
0.000000000000000
11
-31.2174038739521
21
12.7728070200724
31
0.000000000000000
  0
LINE
  5
F104B8
330
F104B9
100
AcDbEntity
8
Geo
100
AcDbLine
10
-31.2174038739521
20
12.7728070200724
30
0.000000000000000
11
-31.1174038739521
21
12.6773222754795
31
0.000000000000000
  0
LINE
  5
F104BA
330
F104BB
100
AcDbEntity
8
Geo
100
AcDbLine
10
-31.1174038739521
20
12.6773222754795
30
0.000000000000000
11
-31.0174038739521
21
12.5815452275188
31
0.000000000000000
  0
LINE
  5
F104BC
330
F104BD
100
AcDbEntity
8
Geo
100
AcDbLine
10
-31.0174038739521
20
12.5815452275188
30
0.000000000000000
11
-30.9174038739521
21
12.4854854538152
31
0.000000000000000
  0
LINE
  5
F104BE
330
F104BF
100
AcDbEntity
8
Geo
100
AcDbLine
10
-30.9174038739521
20
12.4854854538152
30
0.000000000000000
11
-30.8174038739521
21
12.3891525602660
31
0.000000000000000
  0
LINE
  5
F104C0
330
F104C1
100
AcDbEntity
8
Geo
100
AcDbLine
10
-30.8174038739521
20
12.3891525602660
30
0.000000000000000
11
-30.7174038739521
21
12.2925561800804
31
0.000000000000000
  0
LINE
  5
F104C2
330
F104C3
100
AcDbEntity
8
Geo
100
AcDbLine
10
-30.7174038739521
20
12.2925561800804
30
0.000000000000000
11
-30.6174038739521
21
12.1957059728158
31
0.000000000000000
  0
LINE
  5
F104C4
330
F104C5
100
AcDbEntity
8
Geo
100
AcDbLine
10
-30.6174038739521
20
12.1957059728158
30
0.000000000000000
11
-30.5174038739521
21
12.0986116234123
31
0.000000000000000
  0
LINE
  5
F104C6
330
F104C7
100
AcDbEntity
8
Geo
100
AcDbLine
10
-30.5174038739521
20
12.0986116234123
30
0.000000000000000
11
-30.4174038739521
21
12.0012828412239
31
0.000000000000000
  0
LINE
  5
F104C8
330
F104C9
100
AcDbEntity
8
Geo
100
AcDbLine
10
-30.4174038739521
20
12.0012828412239
30
0.000000000000000
11
-30.3174038739521
21
11.9037293590477
31
0.000000000000000
  0
LINE
  5
F104CA
330
F104CB
100
AcDbEntity
8
Geo
100
AcDbLine
10
-30.3174038739521
20
11.9037293590477
30
0.000000000000000
11
-30.2174038739521
21
11.8059609321506
31
0.000000000000000
  0
LINE
  5
F104CC
330
F104CD
100
AcDbEntity
8
Geo
100
AcDbLine
10
-30.2174038739521
20
11.8059609321506
30
0.000000000000000
11
-30.1174038739521
21
11.7079873372939
31
0.000000000000000
  0
LINE
  5
F104CE
330
F104CF
100
AcDbEntity
8
Geo
100
AcDbLine
10
-30.1174038739521
20
11.7079873372939
30
0.000000000000000
11
-30.0174038739521
21
11.6098183717554
31
0.000000000000000
  0
LINE
  5
F104D0
330
F104D1
100
AcDbEntity
8
Geo
100
AcDbLine
10
-30.0174038739521
20
11.6098183717554
30
0.000000000000000
11
-29.9174038739521
21
11.5114638523498
31
0.000000000000000
  0
LINE
  5
F104D2
330
F104D3
100
AcDbEntity
8
Geo
100
AcDbLine
10
-29.9174038739521
20
11.5114638523498
30
0.000000000000000
11
-29.8174038739521
21
11.4129336144471
31
0.000000000000000
  0
LINE
  5
F104D4
330
F104D5
100
AcDbEntity
8
Geo
100
AcDbLine
10
-29.8174038739521
20
11.4129336144471
30
0.000000000000000
11
-29.7174038739521
21
11.3142375109890
31
0.000000000000000
  0
LINE
  5
F104D6
330
F104D7
100
AcDbEntity
8
Geo
100
AcDbLine
10
-29.7174038739521
20
11.3142375109890
30
0.000000000000000
11
-29.6174038739521
21
11.2153854115036
31
0.000000000000000
  0
LINE
  5
F104D8
330
F104D9
100
AcDbEntity
8
Geo
100
AcDbLine
10
-29.6174038739521
20
11.2153854115036
30
0.000000000000000
11
-29.5174038739521
21
11.1163872011185
31
0.000000000000000
  0
LINE
  5
F104DA
330
F104DB
100
AcDbEntity
8
Geo
100
AcDbLine
10
-29.5174038739521
20
11.1163872011185
30
0.000000000000000
11
-29.4174038739521
21
11.0172527795722
31
0.000000000000000
  0
LINE
  5
F104DC
330
F104DD
100
AcDbEntity
8
Geo
100
AcDbLine
10
-29.4174038739521
20
11.0172527795722
30
0.000000000000000
11
-29.3174038739521
21
10.9179920602242
31
0.000000000000000
  0
LINE
  5
F104DE
330
F104DF
100
AcDbEntity
8
Geo
100
AcDbLine
10
-29.3174038739521
20
10.9179920602242
30
0.000000000000000
11
-29.2174038739521
21
10.8186149690638
31
0.000000000000000
  0
LINE
  5
F104E0
330
F104E1
100
AcDbEntity
8
Geo
100
AcDbLine
10
-29.2174038739521
20
10.8186149690638
30
0.000000000000000
11
-29.1174038739521
21
10.7191314437173
31
0.000000000000000
  0
LINE
  5
F104E2
330
F104E3
100
AcDbEntity
8
Geo
100
AcDbLine
10
-29.1174038739521
20
10.7191314437173
30
0.000000000000000
11
-29.0174038739521
21
10.6195514324543
31
0.000000000000000
  0
LINE
  5
F104E4
330
F104E5
100
AcDbEntity
8
Geo
100
AcDbLine
10
-29.0174038739521
20
10.6195514324543
30
0.000000000000000
11
-28.9174038739521
21
10.5198848931929
31
0.000000000000000
  0
LINE
  5
F104E6
330
F104E7
100
AcDbEntity
8
Geo
100
AcDbLine
10
-28.9174038739521
20
10.5198848931929
30
0.000000000000000
11
-28.8174038739521
21
10.4201417925041
31
0.000000000000000
  0
LINE
  5
F104E8
330
F104E9
100
AcDbEntity
8
Geo
100
AcDbLine
10
-28.8174038739521
20
10.4201417925041
30
0.000000000000000
11
-28.7174038739521
21
10.3203321046147
31
0.000000000000000
  0
LINE
  5
F104EA
330
F104EB
100
AcDbEntity
8
Geo
100
AcDbLine
10
-28.7174038739521
20
10.3203321046147
30
0.000000000000000
11
-28.6174038739521
21
10.2204658104104
31
0.000000000000000
  0
LINE
  5
F104EC
330
F104ED
100
AcDbEntity
8
Geo
100
AcDbLine
10
-28.6174038739521
20
10.2204658104104
30
0.000000000000000
11
-28.5174038739521
21
10.1205528964373
31
0.000000000000000
  0
LINE
  5
F104EE
330
F104EF
100
AcDbEntity
8
Geo
100
AcDbLine
10
-28.5174038739521
20
10.1205528964373
30
0.000000000000000
11
-28.4174038739521
21
10.0206033539037
31
0.000000000000000
  0
LINE
  5
F104F0
330
F104F1
100
AcDbEntity
8
Geo
100
AcDbLine
10
-28.4174038739521
20
10.0206033539037
30
0.000000000000000
11
-28.3174038739521
21
9.92062717768052
31
0.000000000000000
  0
LINE
  5
F104F2
330
F104F3
100
AcDbEntity
8
Geo
100
AcDbLine
10
-28.3174038739521
20
9.92062717768052
30
0.000000000000000
11
-28.2174038739521
21
9.82063436530198
31
0.000000000000000
  0
LINE
  5
F104F4
330
F104F5
100
AcDbEntity
8
Geo
100
AcDbLine
10
-28.2174038739521
20
9.82063436530198
30
0.000000000000000
11
-28.1174038739521
21
9.72063491596604
31
0.000000000000000
  0
LINE
  5
F104F6
330
F104F7
100
AcDbEntity
8
Geo
100
AcDbLine
10
-28.1174038739521
20
9.72063491596604
30
0.000000000000000
11
-28.0174038739521
21
9.62063882953431
31
0.000000000000000
  0
LINE
  5
F104F8
330
F104F9
100
AcDbEntity
8
Geo
100
AcDbLine
10
-28.0174038739521
20
9.62063882953431
30
0.000000000000000
11
-27.9174038739521
21
9.52065610553209
31
0.000000000000000
  0
LINE
  5
F104FA
330
F104FB
100
AcDbEntity
8
Geo
100
AcDbLine
10
-27.9174038739521
20
9.52065610553209
30
0.000000000000000
11
-27.8174038739521
21
9.42069674214847
31
0.000000000000000
  0
LINE
  5
F104FC
330
F104FD
100
AcDbEntity
8
Geo
100
AcDbLine
10
-27.8174038739521
20
9.42069674214847
30
0.000000000000000
11
-27.7174038739521
21
9.32077073523648
31
0.000000000000000
  0
LINE
  5
F104FE
330
F104FF
100
AcDbEntity
8
Geo
100
AcDbLine
10
-27.7174038739521
20
9.32077073523648
30
0.000000000000000
11
-27.6174038739521
21
9.22088807731354
31
0.000000000000000
  0
LINE
  5
F10500
330
F10501
100
AcDbEntity
8
Geo
100
AcDbLine
10
-27.6174038739521
20
9.22088807731354
30
0.000000000000000
11
-27.5174038739521
21
9.12105875656222
31
0.000000000000000
  0
LINE
  5
F10502
330
F10503
100
AcDbEntity
8
Geo
100
AcDbLine
10
-27.5174038739521
20
9.12105875656222
30
0.000000000000000
11
-27.4174038739521
21
9.02129275583140
31
0.000000000000000
  0
LINE
  5
F10504
330
F10505
100
AcDbEntity
8
Geo
100
AcDbLine
10
-27.4174038739521
20
9.02129275583140
30
0.000000000000000
11
-27.3174038739521
21
8.92160005163800
31
0.000000000000000
  0
LINE
  5
F10506
330
F10507
100
AcDbEntity
8
Geo
100
AcDbLine
10
-27.3174038739521
20
8.92160005163800
30
0.000000000000000
11
-27.2174038739521
21
8.82199061316938
31
0.000000000000000
  0
LINE
  5
F10508
330
F10509
100
AcDbEntity
8
Geo
100
AcDbLine
10
-27.2174038739521
20
8.82199061316938
30
0.000000000000000
11
-27.1174038739521
21
8.72247440128637
31
0.000000000000000
  0
LINE
  5
F1050A
330
F1050B
100
AcDbEntity
8
Geo
100
AcDbLine
10
-27.1174038739521
20
8.72247440128637
30
0.000000000000000
11
-27.0174038739521
21
8.62306136752724
31
0.000000000000000
  0
LINE
  5
F1050C
330
F1050D
100
AcDbEntity
8
Geo
100
AcDbLine
10
-27.0174038739521
20
8.62306136752724
30
0.000000000000000
11
-26.9174038739521
21
8.52376145311250
31
0.000000000000000
  0
LINE
  5
F1050E
330
F1050F
100
AcDbEntity
8
Geo
100
AcDbLine
10
-26.9174038739521
20
8.52376145311250
30
0.000000000000000
11
-26.8174038739521
21
8.42458458795086
31
0.000000000000000
  0
LINE
  5
F10510
330
F10511
100
AcDbEntity
8
Geo
100
AcDbLine
10
-26.8174038739521
20
8.42458458795086
30
0.000000000000000
11
-26.7174038739521
21
8.32554068964619
31
0.000000000000000
  0
LINE
  5
F10512
330
F10513
100
AcDbEntity
8
Geo
100
AcDbLine
10
-26.7174038739521
20
8.32554068964619
30
0.000000000000000
11
-26.6174038739521
21
8.22663966250577
31
0.000000000000000
  0
LINE
  5
F10514
330
F10515
100
AcDbEntity
8
Geo
100
AcDbLine
10
-26.6174038739521
20
8.22663966250577
30
0.000000000000000
11
-26.5174038739521
21
8.12789139654991
31
0.000000000000000
  0
LINE
  5
F10516
330
F10517
100
AcDbEntity
8
Geo
100
AcDbLine
10
-26.5174038739521
20
8.12789139654991
30
0.000000000000000
11
-26.4174038739521
21
8.02930576652291
31
0.000000000000000
  0
LINE
  5
F10518
330
F10519
100
AcDbEntity
8
Geo
100
AcDbLine
10
-26.4174038739521
20
8.02930576652291
30
0.000000000000000
11
-26.3174038739521
21
7.93089263090562
31
0.000000000000000
  0
LINE
  5
F1051A
330
F1051B
100
AcDbEntity
8
Geo
100
AcDbLine
10
-26.3174038739521
20
7.93089263090562
30
0.000000000000000
11
-26.2174038739521
21
7.83266183092959
31
0.000000000000000
  0
LINE
  5
F1051C
330
F1051D
100
AcDbEntity
8
Geo
100
AcDbLine
10
-26.2174038739521
20
7.83266183092959
30
0.000000000000000
11
-26.1174038739521
21
7.73462318959296
31
0.000000000000000
  0
LINE
  5
F1051E
330
F1051F
100
AcDbEntity
8
Geo
100
AcDbLine
10
-26.1174038739521
20
7.73462318959296
30
0.000000000000000
11
-26.0174038739521
21
7.63678651067816
31
0.000000000000000
  0
LINE
  5
F10520
330
F10521
100
AcDbEntity
8
Geo
100
AcDbLine
10
-26.0174038739521
20
7.63678651067816
30
0.000000000000000
11
-25.9174038739521
21
7.53916157777156
31
0.000000000000000
  0
LINE
  5
F10522
330
F10523
100
AcDbEntity
8
Geo
100
AcDbLine
10
-25.9174038739521
20
7.53916157777156
30
0.000000000000000
11
-25.8174038739521
21
7.44175815328509
31
0.000000000000000
  0
LINE
  5
F10524
330
F10525
100
AcDbEntity
8
Geo
100
AcDbLine
10
-25.8174038739521
20
7.44175815328509
30
0.000000000000000
11
-25.7174038739521
21
7.34458597748003
31
0.000000000000000
  0
LINE
  5
F10526
330
F10527
100
AcDbEntity
8
Geo
100
AcDbLine
10
-25.7174038739521
20
7.34458597748003
30
0.000000000000000
11
-25.6174038739521
21
7.24765476749298
31
0.000000000000000
  0
LINE
  5
F10528
330
F10529
100
AcDbEntity
8
Geo
100
AcDbLine
10
-25.6174038739521
20
7.24765476749298
30
0.000000000000000
11
-25.5174038739521
21
7.15097421636418
31
0.000000000000000
  0
LINE
  5
F1052A
330
F1052B
100
AcDbEntity
8
Geo
100
AcDbLine
10
-25.5174038739521
20
7.15097421636418
30
0.000000000000000
11
-25.4174038739521
21
7.05455399206815
31
0.000000000000000
  0
LINE
  5
F1052C
330
F1052D
100
AcDbEntity
8
Geo
100
AcDbLine
10
-25.4174038739521
20
7.05455399206815
30
0.000000000000000
11
-25.3174038739521
21
6.95840373654700
31
0.000000000000000
  0
LINE
  5
F1052E
330
F1052F
100
AcDbEntity
8
Geo
100
AcDbLine
10
-25.3174038739521
20
6.95840373654700
30
0.000000000000000
11
-25.2174038739521
21
6.86253306474613
31
0.000000000000000
  0
LINE
  5
F10530
330
F10531
100
AcDbEntity
8
Geo
100
AcDbLine
10
-25.2174038739521
20
6.86253306474613
30
0.000000000000000
11
-25.1174038739521
21
6.76695156365284
31
0.000000000000000
  0
LINE
  5
F10532
330
F10533
100
AcDbEntity
8
Geo
100
AcDbLine
10
-25.1174038739521
20
6.76695156365284
30
0.000000000000000
11
-25.0174038739521
21
6.67166879133759
31
0.000000000000000
  0
LINE
  5
F10534
330
F10535
100
AcDbEntity
8
Geo
100
AcDbLine
10
-25.0174038739521
20
6.67166879133759
30
0.000000000000000
11
-24.9174038739521
21
6.57669427599821
31
0.000000000000000
  0
LINE
  5
F10536
330
F10537
100
AcDbEntity
8
Geo
100
AcDbLine
10
-24.9174038739521
20
6.57669427599821
30
0.000000000000000
11
-24.8174038739521
21
6.48203751500709
31
0.000000000000000
  0
LINE
  5
F10538
330
F10539
100
AcDbEntity
8
Geo
100
AcDbLine
10
-24.8174038739521
20
6.48203751500709
30
0.000000000000000
11
-24.7174038739521
21
6.38770797396144
31
0.000000000000000
  0
LINE
  5
F1053A
330
F1053B
100
AcDbEntity
8
Geo
100
AcDbLine
10
-24.7174038739521
20
6.38770797396144
30
0.000000000000000
11
-24.6174038739521
21
6.29371508573676
31
0.000000000000000
  0
LINE
  5
F1053C
330
F1053D
100
AcDbEntity
8
Geo
100
AcDbLine
10
-24.6174038739521
20
6.29371508573676
30
0.000000000000000
11
-24.5174038739521
21
6.20006824954354
31
0.000000000000000
  0
LINE
  5
F1053E
330
F1053F
100
AcDbEntity
8
Geo
100
AcDbLine
10
-24.5174038739521
20
6.20006824954354
30
0.000000000000000
11
-24.4174038739521
21
6.10677682998737
31
0.000000000000000
  0
LINE
  5
F10540
330
F10541
100
AcDbEntity
8
Geo
100
AcDbLine
10
-24.4174038739521
20
6.10677682998737
30
0.000000000000000
11
-24.3174038739521
21
6.01385015613247
31
0.000000000000000
  0
LINE
  5
F10542
330
F10543
100
AcDbEntity
8
Geo
100
AcDbLine
10
-24.3174038739521
20
6.01385015613247
30
0.000000000000000
11
-24.2174038739521
21
5.92129752056877
31
0.000000000000000
  0
LINE
  5
F10544
330
F10545
100
AcDbEntity
8
Geo
100
AcDbLine
10
-24.2174038739521
20
5.92129752056877
30
0.000000000000000
11
-24.1174038739521
21
5.82912817848270
31
0.000000000000000
  0
LINE
  5
F10546
330
F10547
100
AcDbEntity
8
Geo
100
AcDbLine
10
-24.1174038739521
20
5.82912817848270
30
0.000000000000000
11
-24.0174038739521
21
5.73735134673168
31
0.000000000000000
  0
LINE
  5
F10548
330
F10549
100
AcDbEntity
8
Geo
100
AcDbLine
10
-24.0174038739521
20
5.73735134673168
30
0.000000000000000
11
-23.9174038739521
21
5.64597620292239
31
0.000000000000000
  0
LINE
  5
F1054A
330
F1054B
100
AcDbEntity
8
Geo
100
AcDbLine
10
-23.9174038739521
20
5.64597620292239
30
0.000000000000000
11
-23.8174038739521
21
5.55501188449306
31
0.000000000000000
  0
LINE
  5
F1054C
330
F1054D
100
AcDbEntity
8
Geo
100
AcDbLine
10
-23.8174038739521
20
5.55501188449306
30
0.000000000000000
11
-23.7174038739521
21
5.46446748779975
31
0.000000000000000
  0
LINE
  5
F1054E
330
F1054F
100
AcDbEntity
8
Geo
100
AcDbLine
10
-23.7174038739521
20
5.46446748779975
30
0.000000000000000
11
-23.6174038739521
21
5.37435206720665
31
0.000000000000000
  0
LINE
  5
F10550
330
F10551
100
AcDbEntity
8
Geo
100
AcDbLine
10
-23.6174038739521
20
5.37435206720665
30
0.000000000000000
11
-23.5174038739521
21
5.28467463418074
31
0.000000000000000
  0
LINE
  5
F10552
330
F10553
100
AcDbEntity
8
Geo
100
AcDbLine
10
-23.5174038739521
20
5.28467463418074
30
0.000000000000000
11
-23.4174038739521
21
5.19544415639060
31
0.000000000000000
  0
LINE
  5
F10554
330
F10555
100
AcDbEntity
8
Geo
100
AcDbLine
10
-23.4174038739521
20
5.19544415639060
30
0.000000000000000
11
-23.3174038739521
21
5.10666955680963
31
0.000000000000000
  0
LINE
  5
F10556
330
F10557
100
AcDbEntity
8
Geo
100
AcDbLine
10
-23.3174038739521
20
5.10666955680963
30
0.000000000000000
11
-23.2174038739521
21
5.01835971282381
31
0.000000000000000
  0
LINE
  5
F10558
330
F10559
100
AcDbEntity
8
Geo
100
AcDbLine
10
-23.2174038739521
20
5.01835971282381
30
0.000000000000000
11
-23.1174038739521
21
4.93052345534397
31
0.000000000000000
  0
LINE
  5
F1055A
330
F1055B
100
AcDbEntity
8
Geo
100
AcDbLine
10
-23.1174038739521
20
4.93052345534397
30
0.000000000000000
11
-23.0174038739521
21
4.84316956792264
31
0.000000000000000
  0
LINE
  5
F1055C
330
F1055D
100
AcDbEntity
8
Geo
100
AcDbLine
10
-23.0174038739521
20
4.84316956792264
30
0.000000000000000
11
-22.9174038739521
21
4.75630678587577
31
0.000000000000000
  0
LINE
  5
F1055E
330
F1055F
100
AcDbEntity
8
Geo
100
AcDbLine
10
-22.9174038739521
20
4.75630678587577
30
0.000000000000000
11
-22.8174038739521
21
4.66994379540919
31
0.000000000000000
  0
LINE
  5
F10560
330
F10561
100
AcDbEntity
8
Geo
100
AcDbLine
10
-22.8174038739521
20
4.66994379540919
30
0.000000000000000
11
-22.7174038739521
21
4.58408923274997
31
0.000000000000000
  0
LINE
  5
F10562
330
F10563
100
AcDbEntity
8
Geo
100
AcDbLine
10
-22.7174038739521
20
4.58408923274997
30
0.000000000000000
11
-22.6174038739521
21
4.49875168328283
31
0.000000000000000
  0
LINE
  5
F10564
330
F10565
100
AcDbEntity
8
Geo
100
AcDbLine
10
-22.6174038739521
20
4.49875168328283
30
0.000000000000000
11
-22.5174038739521
21
4.41393968069161
31
0.000000000000000
  0
LINE
  5
F10566
330
F10567
100
AcDbEntity
8
Geo
100
AcDbLine
10
-22.5174038739521
20
4.41393968069161
30
0.000000000000000
11
-22.4174038739521
21
4.32966170610588
31
0.000000000000000
  0
LINE
  5
F10568
330
F10569
100
AcDbEntity
8
Geo
100
AcDbLine
10
-22.4174038739521
20
4.32966170610588
30
0.000000000000000
11
-22.3174038739521
21
4.24592618725288
31
0.000000000000000
  0
LINE
  5
F1056A
330
F1056B
100
AcDbEntity
8
Geo
100
AcDbLine
10
-22.3174038739521
20
4.24592618725288
30
0.000000000000000
11
-22.2174038739521
21
4.16274149761471
31
0.000000000000000
  0
LINE
  5
F1056C
330
F1056D
100
AcDbEntity
8
Geo
100
AcDbLine
10
-22.2174038739521
20
4.16274149761471
30
0.000000000000000
11
-22.1174038739521
21
4.08011595559101
31
0.000000000000000
  0
LINE
  5
F1056E
330
F1056F
100
AcDbEntity
8
Geo
100
AcDbLine
10
-22.1174038739521
20
4.08011595559101
30
0.000000000000000
11
-22.0174038739521
21
3.99805782366714
31
0.000000000000000
  0
LINE
  5
F10570
330
F10571
100
AcDbEntity
8
Geo
100
AcDbLine
10
-22.0174038739521
20
3.99805782366714
30
0.000000000000000
11
-21.9174038739521
21
3.91657530758789
31
0.000000000000000
  0
LINE
  5
F10572
330
F10573
100
AcDbEntity
8
Geo
100
AcDbLine
10
-21.9174038739521
20
3.91657530758789
30
0.000000000000000
11
-21.8174038739521
21
3.83567655553699
31
0.000000000000000
  0
LINE
  5
F10574
330
F10575
100
AcDbEntity
8
Geo
100
AcDbLine
10
-21.8174038739521
20
3.83567655553699
30
0.000000000000000
11
-21.7174038739521
21
3.75536965732221
31
0.000000000000000
  0
LINE
  5
F10576
330
F10577
100
AcDbEntity
8
Geo
100
AcDbLine
10
-21.7174038739521
20
3.75536965732221
30
0.000000000000000
11
-21.6174038739520
21
3.67566264356646
31
0.000000000000000
  0
LINE
  5
F10578
330
F10579
100
AcDbEntity
8
Geo
100
AcDbLine
10
-21.6174038739520
20
3.67566264356646
30
0.000000000000000
11
-21.5174038739520
21
3.59656348490469
31
0.000000000000000
  0
LINE
  5
F1057A
330
F1057B
100
AcDbEntity
8
Geo
100
AcDbLine
10
-21.5174038739520
20
3.59656348490469
30
0.000000000000000
11
-21.4174038739520
21
3.51808009118686
31
0.000000000000000
  0
LINE
  5
F1057C
330
F1057D
100
AcDbEntity
8
Geo
100
AcDbLine
10
-21.4174038739520
20
3.51808009118686
30
0.000000000000000
11
-21.3174038739520
21
3.44022031068692
31
0.000000000000000
  0
LINE
  5
F1057E
330
F1057F
100
AcDbEntity
8
Geo
100
AcDbLine
10
-21.3174038739520
20
3.44022031068692
30
0.000000000000000
11
-21.2174038739520
21
3.36299192931805
31
0.000000000000000
  0
LINE
  5
F10580
330
F10581
100
AcDbEntity
8
Geo
100
AcDbLine
10
-21.2174038739520
20
3.36299192931805
30
0.000000000000000
11
-21.1174038739520
21
3.28640266985403
31
0.000000000000000
  0
LINE
  5
F10582
330
F10583
100
AcDbEntity
8
Geo
100
AcDbLine
10
-21.1174038739520
20
3.28640266985403
30
0.000000000000000
11
-21.0174038739520
21
3.21046019115698
31
0.000000000000000
  0
LINE
  5
F10584
330
F10585
100
AcDbEntity
8
Geo
100
AcDbLine
10
-21.0174038739520
20
3.21046019115698
30
0.000000000000000
11
-20.9174038739520
21
3.13517208741148
31
0.000000000000000
  0
LINE
  5
F10586
330
F10587
100
AcDbEntity
8
Geo
100
AcDbLine
10
-20.9174038739520
20
3.13517208741148
30
0.000000000000000
11
-20.8174038739520
21
3.06054588736517
31
0.000000000000000
  0
LINE
  5
F10588
330
F10589
100
AcDbEntity
8
Geo
100
AcDbLine
10
-40.7174038739521
20
6.66409429446972
30
0.000000000000000
11
-40.6174038739520
21
6.56914473513609
31
0.000000000000000
  0
LINE
  5
F1058A
330
F1058B
100
AcDbEntity
8
Geo
100
AcDbLine
10
-40.6174038739520
20
6.56914473513609
30
0.000000000000000
11
-40.5174038739520
21
6.47451368509852
31
0.000000000000000
  0
LINE
  5
F1058C
330
F1058D
100
AcDbEntity
8
Geo
100
AcDbLine
10
-40.5174038739520
20
6.47451368509852
30
0.000000000000000
11
-40.4174038739521
21
6.38021060738314
31
0.000000000000000
  0
LINE
  5
F1058E
330
F1058F
100
AcDbEntity
8
Geo
100
AcDbLine
10
-40.4174038739521
20
6.38021060738314
30
0.000000000000000
11
-40.3174038739521
21
6.28624493221914
31
0.000000000000000
  0
LINE
  5
F10590
330
F10591
100
AcDbEntity
8
Geo
100
AcDbLine
10
-40.3174038739521
20
6.28624493221914
30
0.000000000000000
11
-40.2174038739521
21
6.19262605609574
31
0.000000000000000
  0
LINE
  5
F10592
330
F10593
100
AcDbEntity
8
Geo
100
AcDbLine
10
-40.2174038739521
20
6.19262605609574
30
0.000000000000000
11
-40.1174038739520
21
6.09936334082252
31
0.000000000000000
  0
LINE
  5
F10594
330
F10595
100
AcDbEntity
8
Geo
100
AcDbLine
10
-40.1174038739520
20
6.09936334082252
30
0.000000000000000
11
-40.0174038739520
21
6.00646611259331
31
0.000000000000000
  0
LINE
  5
F10596
330
F10597
100
AcDbEntity
8
Geo
100
AcDbLine
10
-40.0174038739520
20
6.00646611259331
30
0.000000000000000
11
-39.9174038739521
21
5.91394366105350
31
0.000000000000000
  0
LINE
  5
F10598
330
F10599
100
AcDbEntity
8
Geo
100
AcDbLine
10
-39.9174038739521
20
5.91394366105350
30
0.000000000000000
11
-39.8174038739521
21
5.82180523837116
31
0.000000000000000
  0
LINE
  5
F1059A
330
F1059B
100
AcDbEntity
8
Geo
100
AcDbLine
10
-39.8174038739521
20
5.82180523837116
30
0.000000000000000
11
-39.7174038739521
21
5.73006005831175
31
0.000000000000000
  0
LINE
  5
F1059C
330
F1059D
100
AcDbEntity
8
Geo
100
AcDbLine
10
-39.7174038739521
20
5.73006005831175
30
0.000000000000000
11
-39.6174038739520
21
5.63871729531685
31
0.000000000000000
  0
LINE
  5
F1059E
330
F1059F
100
AcDbEntity
8
Geo
100
AcDbLine
10
-39.6174038739520
20
5.63871729531685
30
0.000000000000000
11
-39.5174038739520
21
5.54778608358663
31
0.000000000000000
  0
LINE
  5
F105A0
330
F105A1
100
AcDbEntity
8
Geo
100
AcDbLine
10
-39.5174038739520
20
5.54778608358663
30
0.000000000000000
11
-39.4174038739521
21
5.45727551616648
31
0.000000000000000
  0
LINE
  5
F105A2
330
F105A3
100
AcDbEntity
8
Geo
100
AcDbLine
10
-39.4174038739521
20
5.45727551616648
30
0.000000000000000
11
-39.3174038739521
21
5.36719464403773
31
0.000000000000000
  0
LINE
  5
F105A4
330
F105A5
100
AcDbEntity
8
Geo
100
AcDbLine
10
-39.3174038739521
20
5.36719464403773
30
0.000000000000000
11
-39.2174038739521
21
5.27755247521252
31
0.000000000000000
  0
LINE
  5
F105A6
330
F105A7
100
AcDbEntity
8
Geo
100
AcDbLine
10
-39.2174038739521
20
5.27755247521252
30
0.000000000000000
11
-39.1174038739520
21
5.18835797383302
31
0.000000000000000
  0
LINE
  5
F105A8
330
F105A9
100
AcDbEntity
8
Geo
100
AcDbLine
10
-39.1174038739520
20
5.18835797383302
30
0.000000000000000
11
-39.0174038739520
21
5.09962005927506
31
0.000000000000000
  0
LINE
  5
F105AA
330
F105AB
100
AcDbEntity
8
Geo
100
AcDbLine
10
-39.0174038739520
20
5.09962005927506
30
0.000000000000000
11
-38.9174038739521
21
5.01134760525613
31
0.000000000000000
  0
LINE
  5
F105AC
330
F105AD
100
AcDbEntity
8
Geo
100
AcDbLine
10
-38.9174038739521
20
5.01134760525613
30
0.000000000000000
11
-38.8174038739521
21
4.92354943894808
31
0.000000000000000
  0
LINE
  5
F105AE
330
F105AF
100
AcDbEntity
8
Geo
100
AcDbLine
10
-38.8174038739521
20
4.92354943894808
30
0.000000000000000
11
-38.7174038739521
21
4.83623434009438
31
0.000000000000000
  0
LINE
  5
F105B0
330
F105B1
100
AcDbEntity
8
Geo
100
AcDbLine
10
-38.7174038739521
20
4.83623434009438
30
0.000000000000000
11
-38.6174038739520
21
4.74941104013214
31
0.000000000000000
  0
LINE
  5
F105B2
330
F105B3
100
AcDbEntity
8
Geo
100
AcDbLine
10
-38.6174038739520
20
4.74941104013214
30
0.000000000000000
11
-38.5174038739520
21
4.66308822131902
31
0.000000000000000
  0
LINE
  5
F105B4
330
F105B5
100
AcDbEntity
8
Geo
100
AcDbLine
10
-38.5174038739520
20
4.66308822131902
30
0.000000000000000
11
-38.4174038739521
21
4.57727451586495
31
0.000000000000000
  0
LINE
  5
F105B6
330
F105B7
100
AcDbEntity
8
Geo
100
AcDbLine
10
-38.4174038739521
20
4.57727451586495
30
0.000000000000000
11
-38.3174038739521
21
4.49197850506898
31
0.000000000000000
  0
LINE
  5
F105B8
330
F105B9
100
AcDbEntity
8
Geo
100
AcDbLine
10
-38.3174038739521
20
4.49197850506898
30
0.000000000000000
11
-38.2174038739521
21
4.40720871846109
31
0.000000000000000
  0
LINE
  5
F105BA
330
F105BB
100
AcDbEntity
8
Geo
100
AcDbLine
10
-38.2174038739521
20
4.40720871846109
30
0.000000000000000
11
-38.1174038739520
21
4.32297363294932
31
0.000000000000000
  0
LINE
  5
F105BC
330
F105BD
100
AcDbEntity
8
Geo
100
AcDbLine
10
-38.1174038739520
20
4.32297363294932
30
0.000000000000000
11
-38.0174038739520
21
4.23928167197202
31
0.000000000000000
  0
LINE
  5
F105BE
330
F105BF
100
AcDbEntity
8
Geo
100
AcDbLine
10
-38.0174038739520
20
4.23928167197202
30
0.000000000000000
11
-37.9174038739520
21
4.15614120465553
31
0.000000000000000
  0
LINE
  5
F105C0
330
F105C1
100
AcDbEntity
8
Geo
100
AcDbLine
10
-37.9174038739520
20
4.15614120465553
30
0.000000000000000
11
-37.8174038739521
21
4.07356054497732
31
0.000000000000000
  0
LINE
  5
F105C2
330
F105C3
100
AcDbEntity
8
Geo
100
AcDbLine
10
-37.8174038739521
20
4.07356054497732
30
0.000000000000000
11
-37.7174038739521
21
3.99154795093452
31
0.000000000000000
  0
LINE
  5
F105C4
330
F105C5
100
AcDbEntity
8
Geo
100
AcDbLine
10
-37.7174038739521
20
3.99154795093452
30
0.000000000000000
11
-37.6174038739520
21
3.91011162371821
31
0.000000000000000
  0
LINE
  5
F105C6
330
F105C7
100
AcDbEntity
8
Geo
100
AcDbLine
10
-37.6174038739520
20
3.91011162371821
30
0.000000000000000
11
-37.5174038739520
21
3.82925970689323
31
0.000000000000000
  0
LINE
  5
F105C8
330
F105C9
100
AcDbEntity
8
Geo
100
AcDbLine
10
-37.5174038739520
20
3.82925970689323
30
0.000000000000000
11
-37.4174038739520
21
3.74900028558390
31
0.000000000000000
  0
LINE
  5
F105CA
330
F105CB
100
AcDbEntity
8
Geo
100
AcDbLine
10
-37.4174038739520
20
3.74900028558390
30
0.000000000000000
11
-37.3174038739521
21
3.66934138566547
31
0.000000000000000
  0
LINE
  5
F105CC
330
F105CD
100
AcDbEntity
8
Geo
100
AcDbLine
10
-37.3174038739521
20
3.66934138566547
30
0.000000000000000
11
-37.2174038739521
21
3.59029097296153
31
0.000000000000000
  0
LINE
  5
F105CE
330
F105CF
100
AcDbEntity
8
Geo
100
AcDbLine
10
-37.2174038739521
20
3.59029097296153
30
0.000000000000000
11
-37.1174038739520
21
3.51185695244750
31
0.000000000000000
  0
LINE
  5
F105D0
330
F105D1
100
AcDbEntity
8
Geo
100
AcDbLine
10
-37.1174038739520
20
3.51185695244750
30
0.000000000000000
11
-37.0174038739520
21
3.43404716746005
31
0.000000000000000
  0
LINE
  5
F105D2
330
F105D3
100
AcDbEntity
8
Geo
100
AcDbLine
10
-37.0174038739520
20
3.43404716746005
30
0.000000000000000
11
-36.9174038739520
21
3.35686939891285
31
0.000000000000000
  0
LINE
  5
F105D4
330
F105D5
100
AcDbEntity
8
Geo
100
AcDbLine
10
-36.9174038739520
20
3.35686939891285
30
0.000000000000000
11
-36.8174038739520
21
3.28033136451844
31
0.000000000000000
  0
LINE
  5
F105D6
330
F105D7
100
AcDbEntity
8
Geo
100
AcDbLine
10
-36.8174038739520
20
3.28033136451844
30
0.000000000000000
11
-36.7174038739521
21
3.20444071801647
31
0.000000000000000
  0
LINE
  5
F105D8
330
F105D9
100
AcDbEntity
8
Geo
100
AcDbLine
10
-36.7174038739521
20
3.20444071801647
30
0.000000000000000
11
-36.6174038739520
21
3.12920504840835
31
0.000000000000000
  0
LINE
  5
F105DA
330
F105DB
100
AcDbEntity
8
Geo
100
AcDbLine
10
-36.6174038739520
20
3.12920504840835
30
0.000000000000000
11
-36.5174038739520
21
3.05463187919835
31
0.000000000000000
  0
LINE
  5
F105DC
330
F105DD
100
AcDbEntity
8
Geo
100
AcDbLine
10
-36.5174038739520
20
3.05463187919835
30
0.000000000000000
11
-36.4174038739521
21
2.98072866764125
31
0.000000000000000
  0
LINE
  5
F105DE
330
F105DF
100
AcDbEntity
8
Geo
100
AcDbLine
10
-36.4174038739521
20
2.98072866764125
30
0.000000000000000
11
-36.3174038739521
21
2.90750280399660
31
0.000000000000000
  0
LINE
  5
F105E0
330
F105E1
100
AcDbEntity
8
Geo
100
AcDbLine
10
-36.3174038739521
20
2.90750280399660
30
0.000000000000000
11
-36.2174038739521
21
2.83496161078977
31
0.000000000000000
  0
LINE
  5
F105E2
330
F105E3
100
AcDbEntity
8
Geo
100
AcDbLine
10
-36.2174038739521
20
2.83496161078977
30
0.000000000000000
11
-36.1174038739520
21
2.76311234207961
31
0.000000000000000
  0
LINE
  5
F105E4
330
F105E5
100
AcDbEntity
8
Geo
100
AcDbLine
10
-36.1174038739520
20
2.76311234207961
30
0.000000000000000
11
-36.0174038739520
21
2.69196218273312
31
0.000000000000000
  0
LINE
  5
F105E6
330
F105E7
100
AcDbEntity
8
Geo
100
AcDbLine
10
-36.0174038739520
20
2.69196218273312
30
0.000000000000000
11
-35.9174038739521
21
2.62151824770695
31
0.000000000000000
  0
LINE
  5
F105E8
330
F105E9
100
AcDbEntity
8
Geo
100
AcDbLine
10
-35.9174038739521
20
2.62151824770695
30
0.000000000000000
11
-35.8174038739521
21
2.55178758133590
31
0.000000000000000
  0
LINE
  5
F105EA
330
F105EB
100
AcDbEntity
8
Geo
100
AcDbLine
10
-35.8174038739521
20
2.55178758133590
30
0.000000000000000
11
-35.7174038739521
21
2.48277715662849
31
0.000000000000000
  0
LINE
  5
F105EC
330
F105ED
100
AcDbEntity
8
Geo
100
AcDbLine
10
-35.7174038739521
20
2.48277715662849
30
0.000000000000000
11
-35.6174038739521
21
2.41449387456968
31
0.000000000000000
  0
LINE
  5
F105EE
330
F105EF
100
AcDbEntity
8
Geo
100
AcDbLine
10
-35.6174038739521
20
2.41449387456968
30
0.000000000000000
11
-35.5174038739521
21
2.34694456343079
31
0.000000000000000
  0
LINE
  5
F105F0
330
F105F1
100
AcDbEntity
8
Geo
100
AcDbLine
10
-35.5174038739521
20
2.34694456343079
30
0.000000000000000
11
-35.4174038739521
21
2.28013597808663
31
0.000000000000000
  0
LINE
  5
F105F2
330
F105F3
100
AcDbEntity
8
Geo
100
AcDbLine
10
-35.4174038739521
20
2.28013597808663
30
0.000000000000000
11
-35.3174038739521
21
2.21407479934006
31
0.000000000000000
  0
LINE
  5
F105F4
330
F105F5
100
AcDbEntity
8
Geo
100
AcDbLine
10
-35.3174038739521
20
2.21407479934006
30
0.000000000000000
11
-35.2174038739521
21
2.14876763325392
31
0.000000000000000
  0
LINE
  5
F105F6
330
F105F7
100
AcDbEntity
8
Geo
100
AcDbLine
10
-35.2174038739521
20
2.14876763325392
30
0.000000000000000
11
-35.1174038739521
21
2.08422101049037
31
0.000000000000000
  0
LINE
  5
F105F8
330
F105F9
100
AcDbEntity
8
Geo
100
AcDbLine
10
-35.1174038739521
20
2.08422101049037
30
0.000000000000000
11
-35.0174038739521
21
2.02044138565792
31
0.000000000000000
  0
LINE
  5
F105FA
330
F105FB
100
AcDbEntity
8
Geo
100
AcDbLine
10
-35.0174038739521
20
2.02044138565792
30
0.000000000000000
11
-34.9174038739521
21
1.95743513666589
31
0.000000000000000
  0
LINE
  5
F105FC
330
F105FD
100
AcDbEntity
8
Geo
100
AcDbLine
10
-34.9174038739521
20
1.95743513666589
30
0.000000000000000
11
-34.8174038739521
21
1.89520856408668
31
0.000000000000000
  0
LINE
  5
F105FE
330
F105FF
100
AcDbEntity
8
Geo
100
AcDbLine
10
-34.8174038739521
20
1.89520856408668
30
0.000000000000000
11
-34.7174038739521
21
1.83376789052569
31
0.000000000000000
  0
LINE
  5
F10600
330
F10601
100
AcDbEntity
8
Geo
100
AcDbLine
10
-34.7174038739521
20
1.83376789052569
30
0.000000000000000
11
-34.6174038739521
21
1.77311925999909
31
0.000000000000000
  0
LINE
  5
F10602
330
F10603
100
AcDbEntity
8
Geo
100
AcDbLine
10
-34.6174038739521
20
1.77311925999909
30
0.000000000000000
11
-34.5174038739521
21
1.71326873731937
31
0.000000000000000
  0
LINE
  5
F10604
330
F10605
100
AcDbEntity
8
Geo
100
AcDbLine
10
-34.5174038739521
20
1.71326873731937
30
0.000000000000000
11
-34.4174038739521
21
1.65422230748893
31
0.000000000000000
  0
LINE
  5
F10606
330
F10607
100
AcDbEntity
8
Geo
100
AcDbLine
10
-34.4174038739521
20
1.65422230748893
30
0.000000000000000
11
-34.3174038739521
21
1.59598587510156
31
0.000000000000000
  0
LINE
  5
F10608
330
F10609
100
AcDbEntity
8
Geo
100
AcDbLine
10
-34.3174038739521
20
1.59598587510156
30
0.000000000000000
11
-34.2174038739521
21
1.53856526375195
31
0.000000000000000
  0
LINE
  5
F1060A
330
F1060B
100
AcDbEntity
8
Geo
100
AcDbLine
10
-34.2174038739521
20
1.53856526375195
30
0.000000000000000
11
-34.1174038739521
21
1.48196621545340
31
0.000000000000000
  0
LINE
  5
F1060C
330
F1060D
100
AcDbEntity
8
Geo
100
AcDbLine
10
-34.1174038739521
20
1.48196621545340
30
0.000000000000000
11
-34.0174038739521
21
1.42619439006356
31
0.000000000000000
  0
LINE
  5
F1060E
330
F1060F
100
AcDbEntity
8
Geo
100
AcDbLine
10
-34.0174038739521
20
1.42619439006356
30
0.000000000000000
11
-33.9174038739521
21
1.37125536471851
31
0.000000000000000
  0
LINE
  5
F10610
330
F10611
100
AcDbEntity
8
Geo
100
AcDbLine
10
-33.9174038739521
20
1.37125536471851
30
0.000000000000000
11
-33.8174038739521
21
1.31715463327498
31
0.000000000000000
  0
LINE
  5
F10612
330
F10613
100
AcDbEntity
8
Geo
100
AcDbLine
10
-33.8174038739521
20
1.31715463327498
30
0.000000000000000
11
-33.7174038739521
21
1.26389760576106
31
0.000000000000000
  0
LINE
  5
F10614
330
F10615
100
AcDbEntity
8
Geo
100
AcDbLine
10
-33.7174038739521
20
1.26389760576106
30
0.000000000000000
11
-33.6174038739521
21
1.21148960783509
31
0.000000000000000
  0
LINE
  5
F10616
330
F10617
100
AcDbEntity
8
Geo
100
AcDbLine
10
-33.6174038739521
20
1.21148960783509
30
0.000000000000000
11
-33.5174038739521
21
1.15993588025321
31
0.000000000000000
  0
LINE
  5
F10618
330
F10619
100
AcDbEntity
8
Geo
100
AcDbLine
10
-33.5174038739521
20
1.15993588025321
30
0.000000000000000
11
-33.4174038739521
21
1.10924157834521
31
0.000000000000000
  0
LINE
  5
F1061A
330
F1061B
100
AcDbEntity
8
Geo
100
AcDbLine
10
-33.4174038739521
20
1.10924157834521
30
0.000000000000000
11
-33.3174038739521
21
1.05941177149903
31
0.000000000000000
  0
LINE
  5
F1061C
330
F1061D
100
AcDbEntity
8
Geo
100
AcDbLine
10
-33.3174038739521
20
1.05941177149903
30
0.000000000000000
11
-33.2174038739521
21
1.01045144265385
31
0.000000000000000
  0
LINE
  5
F1061E
330
F1061F
100
AcDbEntity
8
Geo
100
AcDbLine
10
-33.2174038739521
20
1.01045144265385
30
0.000000000000000
11
-33.1174038739521
21
0.962365487801726
31
0.000000000000000
  0
LINE
  5
F10620
330
F10621
100
AcDbEntity
8
Geo
100
AcDbLine
10
-33.1174038739521
20
0.962365487801726
30
0.000000000000000
11
-33.0174038739521
21
0.915158715498091
31
0.000000000000000
  0
LINE
  5
F10622
330
F10623
100
AcDbEntity
8
Geo
100
AcDbLine
10
-33.0174038739521
20
0.915158715498091
30
0.000000000000000
11
-32.9174038739521
21
0.868835846380829
31
0.000000000000000
  0
LINE
  5
F10624
330
F10625
100
AcDbEntity
8
Geo
100
AcDbLine
10
-32.9174038739521
20
0.868835846380829
30
0.000000000000000
11
-32.8174038739521
21
0.823401512698254
31
0.000000000000000
  0
LINE
  5
F10626
330
F10627
100
AcDbEntity
8
Geo
100
AcDbLine
10
-32.8174038739521
20
0.823401512698254
30
0.000000000000000
11
-32.7174038739521
21
0.778860257845873
31
0.000000000000000
  0
LINE
  5
F10628
330
F10629
100
AcDbEntity
8
Geo
100
AcDbLine
10
-32.7174038739521
20
0.778860257845873
30
0.000000000000000
11
-32.6174038739521
21
0.735216535912047
31
0.000000000000000
  0
LINE
  5
F1062A
330
F1062B
100
AcDbEntity
8
Geo
100
AcDbLine
10
-32.6174038739521
20
0.735216535912047
30
0.000000000000000
11
-32.5174038739521
21
0.692474711232604
31
0.000000000000000
  0
LINE
  5
F1062C
330
F1062D
100
AcDbEntity
8
Geo
100
AcDbLine
10
-32.5174038739521
20
0.692474711232604
30
0.000000000000000
11
-32.4174038739521
21
0.650639057954393
31
0.000000000000000
  0
LINE
  5
F1062E
330
F1062F
100
AcDbEntity
8
Geo
100
AcDbLine
10
-32.4174038739521
20
0.650639057954393
30
0.000000000000000
11
-32.3174038739521
21
0.609713759607880
31
0.000000000000000
  0
LINE
  5
F10630
330
F10631
100
AcDbEntity
8
Geo
100
AcDbLine
10
-32.3174038739521
20
0.609713759607880
30
0.000000000000000
11
-32.2174038739521
21
0.569702908688797
31
0.000000000000000
  0
LINE
  5
F10632
330
F10633
100
AcDbEntity
8
Geo
100
AcDbLine
10
-32.2174038739521
20
0.569702908688797
30
0.000000000000000
11
-32.1174038739521
21
0.530610506248889
31
0.000000000000000
  0
LINE
  5
F10634
330
F10635
100
AcDbEntity
8
Geo
100
AcDbLine
10
-32.1174038739521
20
0.530610506248889
30
0.000000000000000
11
-32.0174038739521
21
0.492440461495828
31
0.000000000000000
  0
LINE
  5
F10636
330
F10637
100
AcDbEntity
8
Geo
100
AcDbLine
10
-32.0174038739521
20
0.492440461495828
30
0.000000000000000
11
-31.9174038739521
21
0.455196591402277
31
0.000000000000000
  0
LINE
  5
F10638
330
F10639
100
AcDbEntity
8
Geo
100
AcDbLine
10
-31.9174038739521
20
0.455196591402277
30
0.000000000000000
11
-31.8174038739521
21
0.418882620324210
31
0.000000000000000
  0
LINE
  5
F1063A
330
F1063B
100
AcDbEntity
8
Geo
100
AcDbLine
10
-31.8174038739521
20
0.418882620324210
30
0.000000000000000
11
-31.7174038739521
21
0.383502179628474
31
0.000000000000000
  0
LINE
  5
F1063C
330
F1063D
100
AcDbEntity
8
Geo
100
AcDbLine
10
-31.7174038739521
20
0.383502179628474
30
0.000000000000000
11
-31.6174038739521
21
0.349058807329655
31
0.000000000000000
  0
LINE
  5
F1063E
330
F1063F
100
AcDbEntity
8
Geo
100
AcDbLine
10
-31.6174038739521
20
0.349058807329655
30
0.000000000000000
11
-31.5174038739521
21
0.315555947736280
31
0.000000000000000
  0
LINE
  5
F10640
330
F10641
100
AcDbEntity
8
Geo
100
AcDbLine
10
-31.5174038739521
20
0.315555947736280
30
0.000000000000000
11
-31.4174038739521
21
0.282996951106391
31
0.000000000000000
  0
LINE
  5
F10642
330
F10643
100
AcDbEntity
8
Geo
100
AcDbLine
10
-31.4174038739521
20
0.282996951106391
30
0.000000000000000
11
-31.3174038739521
21
0.251385073312514
31
0.000000000000000
  0
LINE
  5
F10644
330
F10645
100
AcDbEntity
8
Geo
100
AcDbLine
10
-31.3174038739521
20
0.251385073312514
30
0.000000000000000
11
-31.2174038739521
21
0.220723475516087
31
0.000000000000000
  0
LINE
  5
F10646
330
F10647
100
AcDbEntity
8
Geo
100
AcDbLine
10
-31.2174038739521
20
0.220723475516087
30
0.000000000000000
11
-31.1174038739521
21
0.191015223851343
31
0.000000000000000
  0
LINE
  5
F10648
330
F10649
100
AcDbEntity
8
Geo
100
AcDbLine
10
-31.1174038739521
20
0.191015223851343
30
0.000000000000000
11
-31.0174038739521
21
0.162263289118686
31
0.000000000000000
  0
LINE
  5
F1064A
330
F1064B
100
AcDbEntity
8
Geo
100
AcDbLine
10
-31.0174038739521
20
0.162263289118686
30
0.000000000000000
11
-30.9174038739521
21
0.134470546487632
31
0.000000000000000
  0
LINE
  5
F1064C
330
F1064D
100
AcDbEntity
8
Geo
100
AcDbLine
10
-30.9174038739521
20
0.134470546487632
30
0.000000000000000
11
-30.8174038739521
21
0.107639775209284
31
0.000000000000000
  0
LINE
  5
F1064E
330
F1064F
100
AcDbEntity
8
Geo
100
AcDbLine
10
-30.8174038739521
20
0.107639775209284
30
0.000000000000000
11
-30.7174038739521
21
0.0817736583384114
31
0.000000000000000
  0
LINE
  5
F10650
330
F10651
100
AcDbEntity
8
Geo
100
AcDbLine
10
-30.7174038739521
20
0.0817736583384114
30
0.000000000000000
11
-30.6174038739521
21
0.0568747824651403
31
0.000000000000000
  0
LINE
  5
F10652
330
F10653
100
AcDbEntity
8
Geo
100
AcDbLine
10
-30.6174038739521
20
0.0568747824651403
30
0.000000000000000
11
-30.5174038739521
21
0.0329456374563168
31
0.000000000000000
  0
LINE
  5
F10654
330
F10655
100
AcDbEntity
8
Geo
100
AcDbLine
10
-30.5174038739521
20
0.0329456374563168
30
0.000000000000000
11
-30.4174038739521
21
0.00998861620649905
31
0.000000000000000
  0
LINE
  5
F10656
330
F10657
100
AcDbEntity
8
Geo
100
AcDbLine
10
-30.4174038739521
20
0.00998861620649905
30
0.000000000000000
11
-30.3174038739521
21
-0.0119939856013236
31
0.000000000000000
  0
LINE
  5
F10658
330
F10659
100
AcDbEntity
8
Geo
100
AcDbLine
10
-30.3174038739521
20
-0.0119939856013236
30
0.000000000000000
11
-30.2174038739521
21
-0.0329999697252816
31
0.000000000000000
  0
LINE
  5
F1065A
330
F1065B
100
AcDbEntity
8
Geo
100
AcDbLine
10
-30.2174038739521
20
-0.0329999697252816
30
0.000000000000000
11
-30.1174038739521
21
-0.0530272355844730
31
0.000000000000000
  0
LINE
  5
F1065C
330
F1065D
100
AcDbEntity
8
Geo
100
AcDbLine
10
-30.1174038739521
20
-0.0530272355844730
30
0.000000000000000
11
-30.0174038739521
21
-0.0720737804690028
31
0.000000000000000
  0
LINE
  5
F1065E
330
F1065F
100
AcDbEntity
8
Geo
100
AcDbLine
10
-30.0174038739521
20
-0.0720737804690028
30
0.000000000000000
11
-29.9174038739521
21
-0.0901376997402483
31
0.000000000000000
  0
LINE
  5
F10660
330
F10661
100
AcDbEntity
8
Geo
100
AcDbLine
10
-29.9174038739521
20
-0.0901376997402483
30
0.000000000000000
11
-29.8174038739521
21
-0.107217187021339
31
0.000000000000000
  0
LINE
  5
F10662
330
F10663
100
AcDbEntity
8
Geo
100
AcDbLine
10
-29.8174038739521
20
-0.107217187021339
30
0.000000000000000
11
-29.7174038739521
21
-0.123310534377781
31
0.000000000000000
  0
LINE
  5
F10664
330
F10665
100
AcDbEntity
8
Geo
100
AcDbLine
10
-29.7174038739521
20
-0.123310534377781
30
0.000000000000000
11
-29.6174038739521
21
-0.138416132488246
31
0.000000000000000
  0
LINE
  5
F10666
330
F10667
100
AcDbEntity
8
Geo
100
AcDbLine
10
-29.6174038739521
20
-0.138416132488246
30
0.000000000000000
11
-29.5174038739521
21
-0.152532470805516
31
0.000000000000000
  0
LINE
  5
F10668
330
F10669
100
AcDbEntity
8
Geo
100
AcDbLine
10
-29.5174038739521
20
-0.152532470805516
30
0.000000000000000
11
-29.4174038739521
21
-0.165658137707519
31
0.000000000000000
  0
LINE
  5
F1066A
330
F1066B
100
AcDbEntity
8
Geo
100
AcDbLine
10
-29.4174038739521
20
-0.165658137707519
30
0.000000000000000
11
-29.3174038739521
21
-0.177791820638500
31
0.000000000000000
  0
LINE
  5
F1066C
330
F1066D
100
AcDbEntity
8
Geo
100
AcDbLine
10
-29.3174038739521
20
-0.177791820638500
30
0.000000000000000
11
-29.2174038739521
21
-0.188932306240284
31
0.000000000000000
  0
LINE
  5
F1066E
330
F1066F
100
AcDbEntity
8
Geo
100
AcDbLine
10
-29.2174038739521
20
-0.188932306240284
30
0.000000000000000
11
-29.1174038739521
21
-0.199078480473590
31
0.000000000000000
  0
LINE
  5
F10670
330
F10671
100
AcDbEntity
8
Geo
100
AcDbLine
10
-29.1174038739521
20
-0.199078480473590
30
0.000000000000000
11
-29.0174038739521
21
-0.208229328729454
31
0.000000000000000
  0
LINE
  5
F10672
330
F10673
100
AcDbEntity
8
Geo
100
AcDbLine
10
-29.0174038739521
20
-0.208229328729454
30
0.000000000000000
11
-28.9174038739521
21
-0.216383935930674
31
0.000000000000000
  0
LINE
  5
F10674
330
F10675
100
AcDbEntity
8
Geo
100
AcDbLine
10
-28.9174038739521
20
-0.216383935930674
30
0.000000000000000
11
-28.8174038739521
21
-0.223541486623322
31
0.000000000000000
  0
LINE
  5
F10676
330
F10677
100
AcDbEntity
8
Geo
100
AcDbLine
10
-28.8174038739521
20
-0.223541486623322
30
0.000000000000000
11
-28.7174038739521
21
-0.229701265058297
31
0.000000000000000
  0
LINE
  5
F10678
330
F10679
100
AcDbEntity
8
Geo
100
AcDbLine
10
-28.7174038739521
20
-0.229701265058297
30
0.000000000000000
11
-28.6174038739521
21
-0.234862655262889
31
0.000000000000000
  0
LINE
  5
F1067A
330
F1067B
100
AcDbEntity
8
Geo
100
AcDbLine
10
-28.6174038739521
20
-0.234862655262889
30
0.000000000000000
11
-28.5174038739521
21
-0.239025141102376
31
0.000000000000000
  0
LINE
  5
F1067C
330
F1067D
100
AcDbEntity
8
Geo
100
AcDbLine
10
-28.5174038739521
20
-0.239025141102376
30
0.000000000000000
11
-28.4174038739521
21
-0.242188306331645
31
0.000000000000000
  0
LINE
  5
F1067E
330
F1067F
100
AcDbEntity
8
Geo
100
AcDbLine
10
-28.4174038739521
20
-0.242188306331645
30
0.000000000000000
11
-28.3174038739521
21
-0.244351834636808
31
0.000000000000000
  0
LINE
  5
F10680
330
F10681
100
AcDbEntity
8
Geo
100
AcDbLine
10
-28.3174038739521
20
-0.244351834636808
30
0.000000000000000
11
-28.2174038739521
21
-0.245515509666838
31
0.000000000000000
  0
LINE
  5
F10682
330
F10683
100
AcDbEntity
8
Geo
100
AcDbLine
10
-28.2174038739521
20
-0.245515509666838
30
0.000000000000000
11
-28.1510333813907
21
-0.245735761780836
31
0.000000000000000
  0
LINE
  5
F10684
330
F10685
100
AcDbEntity
8
Geo
100
AcDbLine
10
-20.8174038739520
20
5.68393217162642
30
0.000000000000000
11
-20.6174038739520
21
5.50207571723755
31
0.000000000000000
  0
LINE
  5
F10686
330
F10687
100
AcDbEntity
8
Geo
100
AcDbLine
10
-20.6174038739520
20
5.50207571723755
30
0.000000000000000
11
-20.5174038739520
21
5.41178077703607
31
0.000000000000000
  0
LINE
  5
F10688
330
F10689
100
AcDbEntity
8
Geo
100
AcDbLine
10
-20.5174038739520
20
5.41178077703607
30
0.000000000000000
11
-20.4174038739520
21
5.32192008156199
31
0.000000000000000
  0
LINE
  5
F1068A
330
F1068B
100
AcDbEntity
8
Geo
100
AcDbLine
10
-20.4174038739520
20
5.32192008156199
30
0.000000000000000
11
-20.3174038739520
21
5.23250261681025
31
0.000000000000000
  0
LINE
  5
F1068C
330
F1068D
100
AcDbEntity
8
Geo
100
AcDbLine
10
-20.3174038739520
20
5.23250261681025
30
0.000000000000000
11
-20.2174038739520
21
5.14353732445629
31
0.000000000000000
  0
LINE
  5
F1068E
330
F1068F
100
AcDbEntity
8
Geo
100
AcDbLine
10
-20.2174038739520
20
5.14353732445629
30
0.000000000000000
11
-20.1174038739520
21
5.05503310098162
31
0.000000000000000
  0
LINE
  5
F10690
330
F10691
100
AcDbEntity
8
Geo
100
AcDbLine
10
-20.1174038739520
20
5.05503310098162
30
0.000000000000000
11
-20.0174038739520
21
4.96699879687581
31
0.000000000000000
  0
LINE
  5
F10692
330
F10693
100
AcDbEntity
8
Geo
100
AcDbLine
10
-20.0174038739520
20
4.96699879687581
30
0.000000000000000
11
-19.9174038739520
21
4.87944321607994
31
0.000000000000000
  0
LINE
  5
F10694
330
F10695
100
AcDbEntity
8
Geo
100
AcDbLine
10
-19.9174038739520
20
4.87944321607994
30
0.000000000000000
11
-19.8174038739520
21
4.79237511608141
31
0.000000000000000
  0
LINE
  5
F10696
330
F10697
100
AcDbEntity
8
Geo
100
AcDbLine
10
-19.8174038739520
20
4.79237511608141
30
0.000000000000000
11
-19.7174038739520
21
4.70580320954857
31
0.000000000000000
  0
LINE
  5
F10698
330
F10699
100
AcDbEntity
8
Geo
100
AcDbLine
10
-19.7174038739520
20
4.70580320954857
30
0.000000000000000
11
-19.6174038739520
21
4.61973616924165
31
0.000000000000000
  0
LINE
  5
F1069A
330
F1069B
100
AcDbEntity
8
Geo
100
AcDbLine
10
-19.6174038739520
20
4.61973616924165
30
0.000000000000000
11
-19.5174038739520
21
4.53418263933299
31
0.000000000000000
  0
LINE
  5
F1069C
330
F1069D
100
AcDbEntity
8
Geo
100
AcDbLine
10
-19.5174038739520
20
4.53418263933299
30
0.000000000000000
11
-19.4174038739520
21
4.44915125843693
31
0.000000000000000
  0
LINE
  5
F1069E
330
F1069F
100
AcDbEntity
8
Geo
100
AcDbLine
10
-19.4174038739520
20
4.44915125843693
30
0.000000000000000
11
-19.3174038739520
21
4.36465070285911
31
0.000000000000000
  0
LINE
  5
F106A0
330
F106A1
100
AcDbEntity
8
Geo
100
AcDbLine
10
-19.3174038739520
20
4.36465070285911
30
0.000000000000000
11
-19.2174038739520
21
4.28068976314536
31
0.000000000000000
  0
LINE
  5
F106A2
330
F106A3
100
AcDbEntity
8
Geo
100
AcDbLine
10
-19.2174038739520
20
4.28068976314536
30
0.000000000000000
11
-19.1174038739520
21
4.19727747330903
31
0.000000000000000
  0
LINE
  5
F106A4
330
F106A5
100
AcDbEntity
8
Geo
100
AcDbLine
10
-19.1174038739520
20
4.19727747330903
30
0.000000000000000
11
-19.0174038739520
21
4.11442332055685
31
0.000000000000000
  0
LINE
  5
F106A6
330
F106A7
100
AcDbEntity
8
Geo
100
AcDbLine
10
-19.0174038739520
20
4.11442332055685
30
0.000000000000000
11
-18.9174038739520
21
4.03213757437709
31
0.000000000000000
  0
LINE
  5
F106A8
330
F106A9
100
AcDbEntity
8
Geo
100
AcDbLine
10
-18.9174038739520
20
4.03213757437709
30
0.000000000000000
11
-18.8174038739520
21
3.95043178799971
31
0.000000000000000
  0
LINE
  5
F106AA
330
F106AB
100
AcDbEntity
8
Geo
100
AcDbLine
10
-18.8174038739520
20
3.95043178799971
30
0.000000000000000
11
-18.7174038739520
21
3.86931954302483
31
0.000000000000000
  0
LINE
  5
F106AC
330
F106AD
100
AcDbEntity
8
Geo
100
AcDbLine
10
-18.7174038739520
20
3.86931954302483
30
0.000000000000000
11
-18.6174038739520
21
3.78881753001511
31
0.000000000000000
  0
LINE
  5
F106AE
330
F106AF
100
AcDbEntity
8
Geo
100
AcDbLine
10
-18.6174038739520
20
3.78881753001511
30
0.000000000000000
11
-18.5174038739520
21
3.70894708466270
31
0.000000000000000
  0
LINE
  5
F106B0
330
F106B1
100
AcDbEntity
8
Geo
100
AcDbLine
10
-18.5174038739520
20
3.70894708466270
30
0.000000000000000
11
-18.4174038739520
21
3.62973633141296
31
0.000000000000000
  0
LINE
  5
F106B2
330
F106B3
100
AcDbEntity
8
Geo
100
AcDbLine
10
-18.4174038739520
20
3.62973633141296
30
0.000000000000000
11
-18.3174038739520
21
3.55122312484329
31
0.000000000000000
  0
LINE
  5
F106B4
330
F106B5
100
AcDbEntity
8
Geo
100
AcDbLine
10
-18.3174038739520
20
3.55122312484329
30
0.000000000000000
11
-18.2174038739520
21
3.47345902443663
31
0.000000000000000
  0
LINE
  5
F106B6
330
F106B7
100
AcDbEntity
8
Geo
100
AcDbLine
10
-18.2174038739520
20
3.47345902443663
30
0.000000000000000
11
-18.1174038739520
21
3.39651459159681
31
0.000000000000000
  0
LINE
  5
F106B8
330
F106B9
100
AcDbEntity
8
Geo
100
AcDbLine
10
-18.1174038739520
20
3.39651459159681
30
0.000000000000000
11
-18.0174038739520
21
3.32048636008854
31
0.000000000000000
  0
LINE
  5
F106BA
330
F106BB
100
AcDbEntity
8
Geo
100
AcDbLine
10
-18.0174038739520
20
3.32048636008854
30
0.000000000000000
11
-17.9174038739520
21
3.24550590439621
31
0.000000000000000
  0
LINE
  5
F106BC
330
F106BD
100
AcDbEntity
8
Geo
100
AcDbLine
10
-17.9174038739520
20
3.24550590439621
30
0.000000000000000
11
-17.8174038739520
21
3.17175151769850
31
0.000000000000000
  0
LINE
  5
F106BE
330
F106BF
100
AcDbEntity
8
Geo
100
AcDbLine
10
-17.8174038739520
20
3.17175151769850
30
0.000000000000000
11
-17.7174038739520
21
3.09946311703582
31
0.000000000000000
  0
LINE
  5
F106C0
330
F106C1
100
AcDbEntity
8
Geo
100
AcDbLine
10
-17.7174038739520
20
3.09946311703582
30
0.000000000000000
11
-17.6174038739520
21
3.02896112578904
31
0.000000000000000
  0
LINE
  5
F106C2
330
F106C3
100
AcDbEntity
8
Geo
100
AcDbLine
10
-17.6174038739520
20
3.02896112578904
30
0.000000000000000
11
-17.5174038739520
21
2.96067025609342
31
0.000000000000000
  0
LINE
  5
F106C4
330
F106C5
100
AcDbEntity
8
Geo
100
AcDbLine
10
-17.5174038739520
20
2.96067025609342
30
0.000000000000000
11
-17.4174038739520
21
2.89514934821539
31
0.000000000000000
  0
LINE
  5
F106C6
330
F106C7
100
AcDbEntity
8
Geo
100
AcDbLine
10
-17.4174038739520
20
2.89514934821539
30
0.000000000000000
11
-17.3174038739520
21
2.83312875583910
31
0.000000000000000
  0
LINE
  5
F106C8
330
F106C9
100
AcDbEntity
8
Geo
100
AcDbLine
10
-17.3174038739520
20
2.83312875583910
30
0.000000000000000
11
-17.2174038739520
21
2.77555725240706
31
0.000000000000000
  0
LINE
  5
F106CA
330
F106CB
100
AcDbEntity
8
Geo
100
AcDbLine
10
-17.2174038739520
20
2.77555725240706
30
0.000000000000000
11
-17.1174038739520
21
2.72366116274606
31
0.000000000000000
  0
LINE
  5
F106CC
330
F106CD
100
AcDbEntity
8
Geo
100
AcDbLine
10
-17.1174038739520
20
2.72366116274606
30
0.000000000000000
11
-17.0174038739520
21
2.67901953132754
31
0.000000000000000
  0
LINE
  5
F106CE
330
F106CF
100
AcDbEntity
8
Geo
100
AcDbLine
10
-17.0174038739520
20
2.67901953132754
30
0.000000000000000
11
-16.9174038739520
21
2.64366082430189
31
0.000000000000000
  0
LINE
  5
F106D0
330
F106D1
100
AcDbEntity
8
Geo
100
AcDbLine
10
-16.9174038739520
20
2.64366082430189
30
0.000000000000000
11
-16.8174038739520
21
2.62018921517515
31
0.000000000000000
  0
LINE
  5
F106D2
330
F106D3
100
AcDbEntity
8
Geo
100
AcDbLine
10
-16.8174038739520
20
2.62018921517515
30
0.000000000000000
11
-16.7174038739520
21
2.61195232019289
31
0.000000000000000
  0
LINE
  5
F106D4
330
F106D5
100
AcDbEntity
8
Geo
100
AcDbLine
10
-16.7174038739520
20
2.61195232019289
30
0.000000000000000
11
-16.6174038739520
21
2.62326784052349
31
0.000000000000000
  0
LINE
  5
F106D6
330
F106D7
100
AcDbEntity
8
Geo
100
AcDbLine
10
-16.6174038739520
20
2.62326784052349
30
0.000000000000000
11
-16.5174038739520
21
2.65973452325955
31
0.000000000000000
  0
LINE
  5
F106D8
330
F106D9
100
AcDbEntity
8
Geo
100
AcDbLine
10
-16.5174038739520
20
2.65973452325955
30
0.000000000000000
11
-16.4174038739520
21
2.72866369245859
31
0.000000000000000
  0
LINE
  5
F106DA
330
F106DB
100
AcDbEntity
8
Geo
100
AcDbLine
10
-16.4174038739520
20
2.72866369245859
30
0.000000000000000
11
-16.3174038739520
21
2.83968138118915
31
0.000000000000000
  0
LINE
  5
F106DC
330
F106DD
100
AcDbEntity
8
Geo
100
AcDbLine
10
-16.3174038739520
20
2.83968138118915
30
0.000000000000000
11
-16.2174038739520
21
3.00556647271955
31
0.000000000000000
  0
LINE
  5
F106DE
330
F106DF
100
AcDbEntity
8
Geo
100
AcDbLine
10
-16.2174038739520
20
3.00556647271955
30
0.000000000000000
11
-16.1174038739520
21
3.24340242466480
31
0.000000000000000
  0
LINE
  5
F106E0
330
F106E1
100
AcDbEntity
8
Geo
100
AcDbLine
10
-16.1174038739520
20
3.24340242466480
30
0.000000000000000
11
-16.0174038739520
21
3.57611646414617
31
0.000000000000000
  0
LINE
  5
F106E2
330
F106E3
100
AcDbEntity
8
Geo
100
AcDbLine
10
-16.0174038739520
20
3.57611646414617
30
0.000000000000000
11
-15.9174038739520
21
4.03443126736842
31
0.000000000000000
  0
LINE
  5
F106E4
330
F106E5
100
AcDbEntity
8
Geo
100
AcDbLine
10
-15.9174038739520
20
4.03443126736842
30
0.000000000000000
11
-15.8174038739520
21
4.65909684004343
31
0.000000000000000
  0
LINE
  5
F106E6
330
F106E7
100
AcDbEntity
8
Geo
100
AcDbLine
10
-15.8174038739520
20
4.65909684004343
30
0.000000000000000
11
-15.7174038739521
21
5.50287632231618
31
0.000000000000000
  0
LINE
  5
F106E8
330
F106E9
100
AcDbEntity
8
Geo
100
AcDbLine
10
-15.7174038739521
20
5.50287632231618
30
0.000000000000000
11
-15.7174038739521
21
5.73167852970804
31
0.000000000000000
  0
LINE
  5
F106EA
330
F106EB
100
AcDbEntity
8
Geo
100
AcDbLine
10
-15.7174038739521
20
5.73167852970804
30
0.000000000000000
11
-15.8174038739520
21
6.61482431856950
31
0.000000000000000
  0
LINE
  5
F106EC
330
F106ED
100
AcDbEntity
8
Geo
100
AcDbLine
10
-15.8174038739520
20
6.61482431856950
30
0.000000000000000
11
-15.9174038739520
21
7.44610996600292
31
0.000000000000000
  0
LINE
  5
F106EE
330
F106EF
100
AcDbEntity
8
Geo
100
AcDbLine
10
-15.9174038739520
20
7.44610996600292
30
0.000000000000000
11
-16.0174038739520
21
8.21987956548109
31
0.000000000000000
  0
LINE
  5
F106F0
330
F106F1
100
AcDbEntity
8
Geo
100
AcDbLine
10
-16.0174038739520
20
8.21987956548109
30
0.000000000000000
11
-16.1174038739520
21
8.93390887448930
31
0.000000000000000
  0
LINE
  5
F106F2
330
F106F3
100
AcDbEntity
8
Geo
100
AcDbLine
10
-16.1174038739520
20
8.93390887448930
30
0.000000000000000
11
-16.2174038739520
21
9.58841783040943
31
0.000000000000000
  0
LINE
  5
F106F4
330
F106F5
100
AcDbEntity
8
Geo
100
AcDbLine
10
-16.2174038739520
20
9.58841783040943
30
0.000000000000000
11
-16.3174038739520
21
10.1852989553306
31
0.000000000000000
  0
LINE
  5
F106F6
330
F106F7
100
AcDbEntity
8
Geo
100
AcDbLine
10
-16.3174038739520
20
10.1852989553306
30
0.000000000000000
11
-16.4174038739520
21
10.7275293287405
31
0.000000000000000
  0
LINE
  5
F106F8
330
F106F9
100
AcDbEntity
8
Geo
100
AcDbLine
10
-16.4174038739520
20
10.7275293287405
30
0.000000000000000
11
-16.5174038739520
21
11.2187329353730
31
0.000000000000000
  0
LINE
  5
F106FA
330
F106FB
100
AcDbEntity
8
Geo
100
AcDbLine
10
-16.5174038739520
20
11.2187329353730
30
0.000000000000000
11
-16.6174038739520
21
11.6628626808715
31
0.000000000000000
  0
LINE
  5
F106FC
330
F106FD
100
AcDbEntity
8
Geo
100
AcDbLine
10
-16.6174038739520
20
11.6628626808715
30
0.000000000000000
11
-16.7174038739520
21
12.0639753831274
31
0.000000000000000
  0
LINE
  5
F106FE
330
F106FF
100
AcDbEntity
8
Geo
100
AcDbLine
10
-16.7174038739520
20
12.0639753831274
30
0.000000000000000
11
-16.8174038739520
21
12.4260774975034
31
0.000000000000000
  0
LINE
  5
F10700
330
F10701
100
AcDbEntity
8
Geo
100
AcDbLine
10
-16.8174038739520
20
12.4260774975034
30
0.000000000000000
11
-16.9174038739520
21
12.7530236124837
31
0.000000000000000
  0
LINE
  5
F10702
330
F10703
100
AcDbEntity
8
Geo
100
AcDbLine
10
-16.9174038739520
20
12.7530236124837
30
0.000000000000000
11
-17.0174038739520
21
13.0484535611730
31
0.000000000000000
  0
LINE
  5
F10704
330
F10705
100
AcDbEntity
8
Geo
100
AcDbLine
10
-17.0174038739520
20
13.0484535611730
30
0.000000000000000
11
-17.1174038739520
21
13.3157572231114
31
0.000000000000000
  0
LINE
  5
F10706
330
F10707
100
AcDbEntity
8
Geo
100
AcDbLine
10
-17.1174038739520
20
13.3157572231114
30
0.000000000000000
11
-17.2174038739520
21
13.5580587355853
31
0.000000000000000
  0
LINE
  5
F10708
330
F10709
100
AcDbEntity
8
Geo
100
AcDbLine
10
-17.2174038739520
20
13.5580587355853
30
0.000000000000000
11
-17.3174038739520
21
13.7782139438772
31
0.000000000000000
  0
LINE
  5
F1070A
330
F1070B
100
AcDbEntity
8
Geo
100
AcDbLine
10
-17.3174038739520
20
13.7782139438772
30
0.000000000000000
11
-17.4174038739520
21
13.9788165686930
31
0.000000000000000
  0
LINE
  5
F1070C
330
F1070D
100
AcDbEntity
8
Geo
100
AcDbLine
10
-17.4174038739520
20
13.9788165686930
30
0.000000000000000
11
-17.5174038739520
21
14.1622098344339
31
0.000000000000000
  0
LINE
  5
F1070E
330
F1070F
100
AcDbEntity
8
Geo
100
AcDbLine
10
-17.5174038739520
20
14.1622098344339
30
0.000000000000000
11
-17.6174038739520
21
14.3305012577704
31
0.000000000000000
  0
LINE
  5
F10710
330
F10711
100
AcDbEntity
8
Geo
100
AcDbLine
10
-17.6174038739520
20
14.3305012577704
30
0.000000000000000
11
-17.7174038739520
21
14.4855790070535
31
0.000000000000000
  0
LINE
  5
F10712
330
F10713
100
AcDbEntity
8
Geo
100
AcDbLine
10
-17.7174038739520
20
14.4855790070535
30
0.000000000000000
11
-17.8174038739520
21
14.6291287641854
31
0.000000000000000
  0
LINE
  5
F10714
330
F10715
100
AcDbEntity
8
Geo
100
AcDbLine
10
-17.8174038739520
20
14.6291287641854
30
0.000000000000000
11
-17.9174038739520
21
14.7626503964204
31
0.000000000000000
  0
LINE
  5
F10716
330
F10717
100
AcDbEntity
8
Geo
100
AcDbLine
10
-17.9174038739520
20
14.7626503964204
30
0.000000000000000
11
-18.0174038739520
21
14.8874740119125
31
0.000000000000000
  0
LINE
  5
F10718
330
F10719
100
AcDbEntity
8
Geo
100
AcDbLine
10
-18.0174038739520
20
14.8874740119125
30
0.000000000000000
11
-18.1174038739520
21
15.0047751577133
31
0.000000000000000
  0
LINE
  5
F1071A
330
F1071B
100
AcDbEntity
8
Geo
100
AcDbLine
10
-18.1174038739520
20
15.0047751577133
30
0.000000000000000
11
-18.2174038739520
21
15.1155890440386
31
0.000000000000000
  0
LINE
  5
F1071C
330
F1071D
100
AcDbEntity
8
Geo
100
AcDbLine
10
-18.2174038739520
20
15.1155890440386
30
0.000000000000000
11
-18.3174038739520
21
15.2208237604913
31
0.000000000000000
  0
LINE
  5
F1071E
330
F1071F
100
AcDbEntity
8
Geo
100
AcDbLine
10
-18.3174038739520
20
15.2208237604913
30
0.000000000000000
11
-18.4174038739520
21
15.3212725010269
31
0.000000000000000
  0
LINE
  5
F10720
330
F10721
100
AcDbEntity
8
Geo
100
AcDbLine
10
-18.4174038739520
20
15.3212725010269
30
0.000000000000000
11
-18.5174038739520
21
15.4176248440574
31
0.000000000000000
  0
LINE
  5
F10722
330
F10723
100
AcDbEntity
8
Geo
100
AcDbLine
10
-18.5174038739520
20
15.4176248440574
30
0.000000000000000
11
-18.6174038739520
21
15.5104771490505
31
0.000000000000000
  0
LINE
  5
F10724
330
F10725
100
AcDbEntity
8
Geo
100
AcDbLine
10
-18.6174038739520
20
15.5104771490505
30
0.000000000000000
11
-18.7174038739520
21
15.6003421362650
31
0.000000000000000
  0
LINE
  5
F10726
330
F10727
100
AcDbEntity
8
Geo
100
AcDbLine
10
-18.7174038739520
20
15.6003421362650
30
0.000000000000000
11
-18.8174038739520
21
15.6876577154349
31
0.000000000000000
  0
LINE
  5
F10728
330
F10729
100
AcDbEntity
8
Geo
100
AcDbLine
10
-18.8174038739520
20
15.6876577154349
30
0.000000000000000
11
-18.9174038739520
21
15.7727951247854
31
0.000000000000000
  0
LINE
  5
F1072A
330
F1072B
100
AcDbEntity
8
Geo
100
AcDbLine
10
-18.9174038739520
20
15.7727951247854
30
0.000000000000000
11
-19.0174038739520
21
15.8560664354726
31
0.000000000000000
  0
LINE
  5
F1072C
330
F1072D
100
AcDbEntity
8
Geo
100
AcDbLine
10
-19.0174038739520
20
15.8560664354726
30
0.000000000000000
11
-19.1174038739520
21
15.9377314695478
31
0.000000000000000
  0
LINE
  5
F1072E
330
F1072F
100
AcDbEntity
8
Geo
100
AcDbLine
10
-19.1174038739520
20
15.9377314695478
30
0.000000000000000
11
-19.2174038739520
21
16.0180041726173
31
0.000000000000000
  0
LINE
  5
F10730
330
F10731
100
AcDbEntity
8
Geo
100
AcDbLine
10
-19.2174038739520
20
16.0180041726173
30
0.000000000000000
11
-19.3174038739520
21
16.0970584759624
31
0.000000000000000
  0
LINE
  5
F10732
330
F10733
100
AcDbEntity
8
Geo
100
AcDbLine
10
-19.3174038739520
20
16.0970584759624
30
0.000000000000000
11
-19.4174038739520
21
16.1750336772545
31
0.000000000000000
  0
LINE
  5
F10734
330
F10735
100
AcDbEntity
8
Geo
100
AcDbLine
10
-19.4174038739520
20
16.1750336772545
30
0.000000000000000
11
-19.5174038739520
21
16.2520393642678
31
0.000000000000000
  0
LINE
  5
F10736
330
F10737
100
AcDbEntity
8
Geo
100
AcDbLine
10
-19.5174038739520
20
16.2520393642678
30
0.000000000000000
11
-19.6174038739520
21
16.3281599021706
31
0.000000000000000
  0
LINE
  5
F10738
330
F10739
100
AcDbEntity
8
Geo
100
AcDbLine
10
-19.6174038739520
20
16.3281599021706
30
0.000000000000000
11
-19.7174038739520
21
16.4034585020270
31
0.000000000000000
  0
LINE
  5
F1073A
330
F1073B
100
AcDbEntity
8
Geo
100
AcDbLine
10
-19.7174038739520
20
16.4034585020270
30
0.000000000000000
11
-19.8174038739520
21
16.4779808859838
31
0.000000000000000
  0
LINE
  5
F1073C
330
F1073D
100
AcDbEntity
8
Geo
100
AcDbLine
10
-19.8174038739520
20
16.4779808859838
30
0.000000000000000
11
-19.9174038739520
21
16.5517585631495
31
0.000000000000000
  0
LINE
  5
F1073E
330
F1073F
100
AcDbEntity
8
Geo
100
AcDbLine
10
-19.9174038739520
20
16.5517585631495
30
0.000000000000000
11
-20.0174038739520
21
16.6248117292869
31
0.000000000000000
  0
LINE
  5
F10740
330
F10741
100
AcDbEntity
8
Geo
100
AcDbLine
10
-20.0174038739520
20
16.6248117292869
30
0.000000000000000
11
-20.1174038739520
21
16.6971518030289
31
0.000000000000000
  0
LINE
  5
F10742
330
F10743
100
AcDbEntity
8
Geo
100
AcDbLine
10
-20.1174038739520
20
16.6971518030289
30
0.000000000000000
11
-20.2174038739520
21
16.7687836112886
31
0.000000000000000
  0
LINE
  5
F10744
330
F10745
100
AcDbEntity
8
Geo
100
AcDbLine
10
-20.2174038739520
20
16.7687836112886
30
0.000000000000000
11
-20.3174038739520
21
16.8397072367700
31
0.000000000000000
  0
LINE
  5
F10746
330
F10747
100
AcDbEntity
8
Geo
100
AcDbLine
10
-20.3174038739520
20
16.8397072367700
30
0.000000000000000
11
-20.4174038739520
21
16.9099195409219
31
0.000000000000000
  0
LINE
  5
F10748
330
F10749
100
AcDbEntity
8
Geo
100
AcDbLine
10
-20.4174038739520
20
16.9099195409219
30
0.000000000000000
11
-20.5174038739520
21
16.9794153762451
31
0.000000000000000
  0
LINE
  5
F1074A
330
F1074B
100
AcDbEntity
8
Geo
100
AcDbLine
10
-20.5174038739520
20
16.9794153762451
30
0.000000000000000
11
-20.6174038739520
21
17.0481885025020
31
0.000000000000000
  0
LINE
  5
F1074C
330
F1074D
100
AcDbEntity
8
Geo
100
AcDbLine
10
-20.6174038739520
20
17.0481885025020
30
0.000000000000000
11
-20.8174038739520
21
17.1835397506390
31
0.000000000000000
  0
LINE
  5
F1074E
330
F1074F
100
AcDbEntity
8
Geo
100
AcDbLine
10
-16.2451893744286
20
-0.245735761780836
30
0.000000000000000
11
-16.3174038739520
21
-0.236441896616586
31
0.000000000000000
  0
LINE
  5
F10750
330
F10751
100
AcDbEntity
8
Geo
100
AcDbLine
10
-16.3174038739520
20
-0.236441896616586
30
0.000000000000000
11
-16.4174038739520
21
-0.198260821461545
31
0.000000000000000
  0
LINE
  5
F10752
330
F10753
100
AcDbEntity
8
Geo
100
AcDbLine
10
-16.4174038739520
20
-0.198260821461545
30
0.000000000000000
11
-16.5174038739520
21
-0.137921133833695
31
0.000000000000000
  0
LINE
  5
F10754
330
F10755
100
AcDbEntity
8
Geo
100
AcDbLine
10
-16.5174038739520
20
-0.137921133833695
30
0.000000000000000
11
-16.6174038739520
21
-0.0619087423626876
31
0.000000000000000
  0
LINE
  5
F10756
330
F10757
100
AcDbEntity
8
Geo
100
AcDbLine
10
-16.6174038739520
20
-0.0619087423626876
30
0.000000000000000
11
-16.7174038739520
21
0.0246581605258402
31
0.000000000000000
  0
LINE
  5
F10758
330
F10759
100
AcDbEntity
8
Geo
100
AcDbLine
10
-16.7174038739520
20
0.0246581605258402
30
0.000000000000000
11
-16.8174038739520
21
0.117801510251345
31
0.000000000000000
  0
LINE
  5
F1075A
330
F1075B
100
AcDbEntity
8
Geo
100
AcDbLine
10
-16.8174038739520
20
0.117801510251345
30
0.000000000000000
11
-16.9174038739520
21
0.214482153954302
31
0.000000000000000
  0
LINE
  5
F1075C
330
F1075D
100
AcDbEntity
8
Geo
100
AcDbLine
10
-16.9174038739520
20
0.214482153954302
30
0.000000000000000
11
-17.0174038739520
21
0.312425608771111
31
0.000000000000000
  0
LINE
  5
F1075E
330
F1075F
100
AcDbEntity
8
Geo
100
AcDbLine
10
-17.0174038739520
20
0.312425608771111
30
0.000000000000000
11
-17.1174038739520
21
0.409973589991045
31
0.000000000000000
  0
LINE
  5
F10760
330
F10761
100
AcDbEntity
8
Geo
100
AcDbLine
10
-17.1174038739520
20
0.409973589991045
30
0.000000000000000
11
-17.2174038739520
21
0.505959127453865
31
0.000000000000000
  0
LINE
  5
F10762
330
F10763
100
AcDbEntity
8
Geo
100
AcDbLine
10
-17.2174038739520
20
0.505959127453865
30
0.000000000000000
11
-17.3174038739520
21
0.599602651555509
31
0.000000000000000
  0
LINE
  5
F10764
330
F10765
100
AcDbEntity
8
Geo
100
AcDbLine
10
-17.3174038739520
20
0.599602651555509
30
0.000000000000000
11
-17.4174038739520
21
0.690426331069228
31
0.000000000000000
  0
LINE
  5
F10766
330
F10767
100
AcDbEntity
8
Geo
100
AcDbLine
10
-17.4174038739520
20
0.690426331069228
30
0.000000000000000
11
-17.5174038739520
21
0.778184045795983
31
0.000000000000000
  0
LINE
  5
F10768
330
F10769
100
AcDbEntity
8
Geo
100
AcDbLine
10
-17.5174038739520
20
0.778184045795983
30
0.000000000000000
11
-17.6174038739520
21
0.862804586345941
31
0.000000000000000
  0
LINE
  5
F1076A
330
F1076B
100
AcDbEntity
8
Geo
100
AcDbLine
10
-17.6174038739520
20
0.862804586345941
30
0.000000000000000
11
-17.7174038739520
21
0.944345932229597
31
0.000000000000000
  0
LINE
  5
F1076C
330
F1076D
100
AcDbEntity
8
Geo
100
AcDbLine
10
-17.7174038739520
20
0.944345932229597
30
0.000000000000000
11
-17.8174038739520
21
1.02295873139626
31
0.000000000000000
  0
LINE
  5
F1076E
330
F1076F
100
AcDbEntity
8
Geo
100
AcDbLine
10
-17.8174038739520
20
1.02295873139626
30
0.000000000000000
11
-17.9174038739520
21
1.09885736792484
31
0.000000000000000
  0
LINE
  5
F10770
330
F10771
100
AcDbEntity
8
Geo
100
AcDbLine
10
-17.9174038739520
20
1.09885736792484
30
0.000000000000000
11
-18.0174038739520
21
1.17229724811370
31
0.000000000000000
  0
LINE
  5
F10772
330
F10773
100
AcDbEntity
8
Geo
100
AcDbLine
10
-18.0174038739520
20
1.17229724811370
30
0.000000000000000
11
-18.1174038739520
21
1.24355715335991
31
0.000000000000000
  0
LINE
  5
F10774
330
F10775
100
AcDbEntity
8
Geo
100
AcDbLine
10
-18.1174038739520
20
1.24355715335991
30
0.000000000000000
11
-18.2174038739520
21
1.31292569942655
31
0.000000000000000
  0
LINE
  5
F10776
330
F10777
100
AcDbEntity
8
Geo
100
AcDbLine
10
-18.2174038739520
20
1.31292569942655
30
0.000000000000000
11
-18.3174038739520
21
1.38069110666679
31
0.000000000000000
  0
LINE
  5
F10778
330
F10779
100
AcDbEntity
8
Geo
100
AcDbLine
10
-18.3174038739520
20
1.38069110666679
30
0.000000000000000
11
-18.4174038739520
21
1.44713362639955
31
0.000000000000000
  0
LINE
  5
F1077A
330
F1077B
100
AcDbEntity
8
Geo
100
AcDbLine
10
-18.4174038739520
20
1.44713362639955
30
0.000000000000000
11
-18.5174038739520
21
1.51252008735886
31
0.000000000000000
  0
LINE
  5
F1077C
330
F1077D
100
AcDbEntity
8
Geo
100
AcDbLine
10
-18.5174038739520
20
1.51252008735886
30
0.000000000000000
11
-18.6174038739520
21
1.57710012557111
31
0.000000000000000
  0
LINE
  5
F1077E
330
F1077F
100
AcDbEntity
8
Geo
100
AcDbLine
10
-18.6174038739520
20
1.57710012557111
30
0.000000000000000
11
-18.7174038739520
21
1.64110374369051
31
0.000000000000000
  0
LINE
  5
F10780
330
F10781
100
AcDbEntity
8
Geo
100
AcDbLine
10
-18.7174038739520
20
1.64110374369051
30
0.000000000000000
11
-18.8174038739520
21
1.70473991410320
31
0.000000000000000
  0
LINE
  5
F10782
330
F10783
100
AcDbEntity
8
Geo
100
AcDbLine
10
-18.8174038739520
20
1.70473991410320
30
0.000000000000000
11
-18.9174038739520
21
1.76819599612098
31
0.000000000000000
  0
LINE
  5
F10784
330
F10785
100
AcDbEntity
8
Geo
100
AcDbLine
10
-18.9174038739520
20
1.76819599612098
30
0.000000000000000
11
-19.0174038739520
21
1.83163778321112
31
0.000000000000000
  0
LINE
  5
F10786
330
F10787
100
AcDbEntity
8
Geo
100
AcDbLine
10
-19.0174038739520
20
1.83163778321112
30
0.000000000000000
11
-19.1174038739520
21
1.89521003309468
31
0.000000000000000
  0
LINE
  5
F10788
330
F10789
100
AcDbEntity
8
Geo
100
AcDbLine
10
-19.1174038739520
20
1.89521003309468
30
0.000000000000000
11
-19.2174038739520
21
1.95903736312272
31
0.000000000000000
  0
LINE
  5
F1078A
330
F1078B
100
AcDbEntity
8
Geo
100
AcDbLine
10
-19.2174038739520
20
1.95903736312272
30
0.000000000000000
11
-19.3174038739520
21
2.02322541684129
31
0.000000000000000
  0
LINE
  5
F1078C
330
F1078D
100
AcDbEntity
8
Geo
100
AcDbLine
10
-19.3174038739520
20
2.02322541684129
30
0.000000000000000
11
-19.4174038739520
21
2.08786222614395
31
0.000000000000000
  0
LINE
  5
F1078E
330
F1078F
100
AcDbEntity
8
Geo
100
AcDbLine
10
-19.4174038739520
20
2.08786222614395
30
0.000000000000000
11
-19.5174038739520
21
2.15301970779496
31
0.000000000000000
  0
LINE
  5
F10790
330
F10791
100
AcDbEntity
8
Geo
100
AcDbLine
10
-19.5174038739520
20
2.15301970779496
30
0.000000000000000
11
-19.6174038739520
21
2.21875524416438
31
0.000000000000000
  0
LINE
  5
F10792
330
F10793
100
AcDbEntity
8
Geo
100
AcDbLine
10
-19.6174038739520
20
2.21875524416438
30
0.000000000000000
11
-19.7174038739520
21
2.28511330641000
31
0.000000000000000
  0
LINE
  5
F10794
330
F10795
100
AcDbEntity
8
Geo
100
AcDbLine
10
-19.7174038739520
20
2.28511330641000
30
0.000000000000000
11
-19.8174038739520
21
2.35212708462808
31
0.000000000000000
  0
LINE
  5
F10796
330
F10797
100
AcDbEntity
8
Geo
100
AcDbLine
10
-19.8174038739520
20
2.35212708462808
30
0.000000000000000
11
-19.9174038739520
21
2.41982009414528
31
0.000000000000000
  0
LINE
  5
F10798
330
F10799
100
AcDbEntity
8
Geo
100
AcDbLine
10
-19.9174038739520
20
2.41982009414528
30
0.000000000000000
11
-20.0174038739520
21
2.48820773052652
31
0.000000000000000
  0
LINE
  5
F1079A
330
F1079B
100
AcDbEntity
8
Geo
100
AcDbLine
10
-20.0174038739520
20
2.48820773052652
30
0.000000000000000
11
-20.1174038739520
21
2.55729874834704
31
0.000000000000000
  0
LINE
  5
F1079C
330
F1079D
100
AcDbEntity
8
Geo
100
AcDbLine
10
-20.1174038739520
20
2.55729874834704
30
0.000000000000000
11
-20.2174038739520
21
2.62709664058028
31
0.000000000000000
  0
LINE
  5
F1079E
330
F1079F
100
AcDbEntity
8
Geo
100
AcDbLine
10
-20.2174038739520
20
2.62709664058028
30
0.000000000000000
11
-20.3174038739520
21
2.69760089678875
31
0.000000000000000
  0
LINE
  5
F107A0
330
F107A1
100
AcDbEntity
8
Geo
100
AcDbLine
10
-20.3174038739520
20
2.69760089678875
30
0.000000000000000
11
-20.4174038739520
21
2.76880811933173
31
0.000000000000000
  0
LINE
  5
F107A2
330
F107A3
100
AcDbEntity
8
Geo
100
AcDbLine
10
-20.4174038739520
20
2.76880811933173
30
0.000000000000000
11
-20.5174038739520
21
2.84071297763803
31
0.000000000000000
  0
LINE
  5
F107A4
330
F107A5
100
AcDbEntity
8
Geo
100
AcDbLine
10
-20.5174038739520
20
2.84071297763803
30
0.000000000000000
11
-20.6174038739520
21
2.91330898131922
31
0.000000000000000
  0
LINE
  5
F107A6
330
F107A7
100
AcDbEntity
8
Geo
100
AcDbLine
10
-20.6174038739520
20
2.91330898131922
30
0.000000000000000
11
-20.8174038739520
21
3.06054588736517
31
0.000000000000000
  0
LINE
  5
F107A8
330
F107A9
100
AcDbEntity
8
Geo
100
AcDbLine
10
-20.8174038739520
20
18.8883978516314
30
0.000000000000000
11
-20.6174038739520
21
18.8051698714711
31
0.000000000000000
  0
LINE
  5
F107AA
330
F107AB
100
AcDbEntity
8
Geo
100
AcDbLine
10
-20.6174038739520
20
18.8051698714711
30
0.000000000000000
11
-20.5174038739520
21
18.7621961534454
31
0.000000000000000
  0
LINE
  5
F107AC
330
F107AD
100
AcDbEntity
8
Geo
100
AcDbLine
10
-20.5174038739520
20
18.7621961534454
30
0.000000000000000
11
-20.4174038739520
21
18.7183216497347
31
0.000000000000000
  0
LINE
  5
F107AE
330
F107AF
100
AcDbEntity
8
Geo
100
AcDbLine
10
-20.4174038739520
20
18.7183216497347
30
0.000000000000000
11
-20.3174038739520
21
18.6735507477531
31
0.000000000000000
  0
LINE
  5
F107B0
330
F107B1
100
AcDbEntity
8
Geo
100
AcDbLine
10
-20.3174038739520
20
18.6735507477531
30
0.000000000000000
11
-20.2174038739520
21
18.6278879245551
31
0.000000000000000
  0
LINE
  5
F107B2
330
F107B3
100
AcDbEntity
8
Geo
100
AcDbLine
10
-20.2174038739520
20
18.6278879245551
30
0.000000000000000
11
-20.1174038739520
21
18.5813377463994
31
0.000000000000000
  0
LINE
  5
F107B4
330
F107B5
100
AcDbEntity
8
Geo
100
AcDbLine
10
-20.1174038739520
20
18.5813377463994
30
0.000000000000000
11
-20.0174038739520
21
18.5339048683429
31
0.000000000000000
  0
LINE
  5
F107B6
330
F107B7
100
AcDbEntity
8
Geo
100
AcDbLine
10
-20.0174038739520
20
18.5339048683429
30
0.000000000000000
11
-19.9174038739520
21
18.4855940339667
31
0.000000000000000
  0
LINE
  5
F107B8
330
F107B9
100
AcDbEntity
8
Geo
100
AcDbLine
10
-19.9174038739520
20
18.4855940339667
30
0.000000000000000
11
-19.8174038739520
21
18.4364100754884
31
0.000000000000000
  0
LINE
  5
F107BA
330
F107BB
100
AcDbEntity
8
Geo
100
AcDbLine
10
-19.8174038739520
20
18.4364100754884
30
0.000000000000000
11
-19.7174038739520
21
18.3863579148421
31
0.000000000000000
  0
LINE
  5
F107BC
330
F107BD
100
AcDbEntity
8
Geo
100
AcDbLine
10
-19.7174038739520
20
18.3863579148421
30
0.000000000000000
11
-19.6174038739520
21
18.3354425669152
31
0.000000000000000
  0
LINE
  5
F107BE
330
F107BF
100
AcDbEntity
8
Geo
100
AcDbLine
10
-19.6174038739520
20
18.3354425669152
30
0.000000000000000
11
-19.5174038739520
21
18.2836691471779
31
0.000000000000000
  0
LINE
  5
F107C0
330
F107C1
100
AcDbEntity
8
Geo
100
AcDbLine
10
-19.5174038739520
20
18.2836691471779
30
0.000000000000000
11
-19.4174038739520
21
18.2310428876677
31
0.000000000000000
  0
LINE
  5
F107C2
330
F107C3
100
AcDbEntity
8
Geo
100
AcDbLine
10
-19.4174038739520
20
18.2310428876677
30
0.000000000000000
11
-19.3174038739520
21
18.1775691679640
31
0.000000000000000
  0
LINE
  5
F107C4
330
F107C5
100
AcDbEntity
8
Geo
100
AcDbLine
10
-19.3174038739520
20
18.1775691679640
30
0.000000000000000
11
-19.2174038739520
21
18.1232535718138
31
0.000000000000000
  0
LINE
  5
F107C6
330
F107C7
100
AcDbEntity
8
Geo
100
AcDbLine
10
-19.2174038739520
20
18.1232535718138
30
0.000000000000000
11
-19.1174038739520
21
18.0681019858910
31
0.000000000000000
  0
LINE
  5
F107C8
330
F107C9
100
AcDbEntity
8
Geo
100
AcDbLine
10
-19.1174038739520
20
18.0681019858910
30
0.000000000000000
11
-19.0174038739520
21
18.0121207653975
31
0.000000000000000
  0
LINE
  5
F107CA
330
F107CB
100
AcDbEntity
8
Geo
100
AcDbLine
10
-19.0174038739520
20
18.0121207653975
30
0.000000000000000
11
-18.9174038739520
21
17.9553170025262
31
0.000000000000000
  0
LINE
  5
F107CC
330
F107CD
100
AcDbEntity
8
Geo
100
AcDbLine
10
-18.9174038739520
20
17.9553170025262
30
0.000000000000000
11
-18.8174038739520
21
17.8976989490632
31
0.000000000000000
  0
LINE
  5
F107CE
330
F107CF
100
AcDbEntity
8
Geo
100
AcDbLine
10
-18.8174038739520
20
17.8976989490632
30
0.000000000000000
11
-18.7174038739520
21
17.8392766645859
31
0.000000000000000
  0
LINE
  5
F107D0
330
F107D1
100
AcDbEntity
8
Geo
100
AcDbLine
10
-18.7174038739520
20
17.8392766645859
30
0.000000000000000
11
-18.6174038739520
21
17.7800629879747
31
0.000000000000000
  0
LINE
  5
F107D2
330
F107D3
100
AcDbEntity
8
Geo
100
AcDbLine
10
-18.6174038739520
20
17.7800629879747
30
0.000000000000000
11
-18.5174038739520
21
17.7200749636203
31
0.000000000000000
  0
LINE
  5
F107D4
330
F107D5
100
AcDbEntity
8
Geo
100
AcDbLine
10
-18.5174038739520
20
17.7200749636203
30
0.000000000000000
11
-18.4174038739520
21
17.6593358962595
31
0.000000000000000
  0
LINE
  5
F107D6
330
F107D7
100
AcDbEntity
8
Geo
100
AcDbLine
10
-18.4174038739520
20
17.6593358962595
30
0.000000000000000
11
-18.3174038739520
21
17.5978782614720
31
0.000000000000000
  0
LINE
  5
F107D8
330
F107D9
100
AcDbEntity
8
Geo
100
AcDbLine
10
-18.3174038739520
20
17.5978782614720
30
0.000000000000000
11
-18.2174038739520
21
17.5357477642907
31
0.000000000000000
  0
LINE
  5
F107DA
330
F107DB
100
AcDbEntity
8
Geo
100
AcDbLine
10
-18.2174038739520
20
17.5357477642907
30
0.000000000000000
11
-18.1174038739520
21
17.4730089179500
31
0.000000000000000
  0
LINE
  5
F107DC
330
F107DD
100
AcDbEntity
8
Geo
100
AcDbLine
10
-18.1174038739520
20
17.4730089179500
30
0.000000000000000
11
-18.0174038739520
21
17.4097526102877
31
0.000000000000000
  0
LINE
  5
F107DE
330
F107DF
100
AcDbEntity
8
Geo
100
AcDbLine
10
-18.0174038739520
20
17.4097526102877
30
0.000000000000000
11
-17.9174038739520
21
17.3461062381484
31
0.000000000000000
  0
LINE
  5
F107E0
330
F107E1
100
AcDbEntity
8
Geo
100
AcDbLine
10
-17.9174038739520
20
17.3461062381484
30
0.000000000000000
11
-17.8174038739520
21
17.2822471210493
31
0.000000000000000
  0
LINE
  5
F107E2
330
F107E3
100
AcDbEntity
8
Geo
100
AcDbLine
10
-17.8174038739520
20
17.2822471210493
30
0.000000000000000
11
-17.7174038739520
21
17.2184200536813
31
0.000000000000000
  0
LINE
  5
F107E4
330
F107E5
100
AcDbEntity
8
Geo
100
AcDbLine
10
-17.7174038739520
20
17.2184200536813
30
0.000000000000000
11
-17.6174038739520
21
17.1549600194236
31
0.000000000000000
  0
LINE
  5
F107E6
330
F107E7
100
AcDbEntity
8
Geo
100
AcDbLine
10
-17.6174038739520
20
17.1549600194236
30
0.000000000000000
11
-17.5174038739520
21
17.0923212566693
31
0.000000000000000
  0
LINE
  5
F107E8
330
F107E9
100
AcDbEntity
8
Geo
100
AcDbLine
10
-17.5174038739520
20
17.0923212566693
30
0.000000000000000
11
-17.4174038739520
21
17.0311140323078
31
0.000000000000000
  0
LINE
  5
F107EA
330
F107EB
100
AcDbEntity
8
Geo
100
AcDbLine
10
-17.4174038739520
20
17.0311140323078
30
0.000000000000000
11
-17.3174038739520
21
16.9721506071321
31
0.000000000000000
  0
LINE
  5
F107EC
330
F107ED
100
AcDbEntity
8
Geo
100
AcDbLine
10
-17.3174038739520
20
16.9721506071321
30
0.000000000000000
11
-17.2174038739520
21
16.9165019336728
31
0.000000000000000
  0
LINE
  5
F107EE
330
F107EF
100
AcDbEntity
8
Geo
100
AcDbLine
10
-17.2174038739520
20
16.9165019336728
30
0.000000000000000
11
-17.1174038739520
21
16.8655665377384
31
0.000000000000000
  0
LINE
  5
F107F0
330
F107F1
100
AcDbEntity
8
Geo
100
AcDbLine
10
-17.1174038739520
20
16.8655665377384
30
0.000000000000000
11
-17.0174038739520
21
16.8211526862988
31
0.000000000000000
  0
LINE
  5
F107F2
330
F107F3
100
AcDbEntity
8
Geo
100
AcDbLine
10
-17.0174038739520
20
16.8211526862988
30
0.000000000000000
11
-16.9174038739520
21
16.7855741510297
31
0.000000000000000
  0
LINE
  5
F107F4
330
F107F5
100
AcDbEntity
8
Geo
100
AcDbLine
10
-16.9174038739520
20
16.7855741510297
30
0.000000000000000
11
-16.8174038739520
21
16.7617583385078
31
0.000000000000000
  0
LINE
  5
F107F6
330
F107F7
100
AcDbEntity
8
Geo
100
AcDbLine
10
-16.8174038739520
20
16.7617583385078
30
0.000000000000000
11
-16.7174038739520
21
16.7533627848621
31
0.000000000000000
  0
LINE
  5
F107F8
330
F107F9
100
AcDbEntity
8
Geo
100
AcDbLine
10
-16.7174038739520
20
16.7533627848621
30
0.000000000000000
11
-16.6174038739520
21
16.7648911984882
31
0.000000000000000
  0
LINE
  5
F107FA
330
F107FB
100
AcDbEntity
8
Geo
100
AcDbLine
10
-16.6174038739520
20
16.7648911984882
30
0.000000000000000
11
-16.5174038739520
21
16.8017920404740
31
0.000000000000000
  0
LINE
  5
F107FC
330
F107FD
100
AcDbEntity
8
Geo
100
AcDbLine
10
-16.5174038739520
20
16.8017920404740
30
0.000000000000000
11
-16.4174038739520
21
16.8705088216641
31
0.000000000000000
  0
LINE
  5
F107FE
330
F107FF
100
AcDbEntity
8
Geo
100
AcDbLine
10
-16.4174038739520
20
16.8705088216641
30
0.000000000000000
11
-16.3174038739520
21
16.9784281284743
31
0.000000000000000
  0
LINE
  5
F10800
330
F10801
100
AcDbEntity
8
Geo
100
AcDbLine
10
-16.3174038739520
20
16.9784281284743
30
0.000000000000000
11
-16.2174038739520
21
17.1336326712181
31
0.000000000000000
  0
LINE
  5
F10802
330
F10803
100
AcDbEntity
8
Geo
100
AcDbLine
10
-16.2174038739520
20
17.1336326712181
30
0.000000000000000
11
-16.1174038739520
21
17.3443023438415
31
0.000000000000000
  0
LINE
  5
F10804
330
F10805
100
AcDbEntity
8
Geo
100
AcDbLine
10
-16.1174038739520
20
17.3443023438415
30
0.000000000000000
11
-16.0174038739520
21
17.6175008543790
31
0.000000000000000
  0
LINE
  5
F10806
330
F10807
100
AcDbEntity
8
Geo
100
AcDbLine
10
-16.0174038739520
20
17.6175008543790
30
0.000000000000000
11
-15.9174038739520
21
17.9569169058364
31
0.000000000000000
  0
LINE
  5
F10808
330
F10809
100
AcDbEntity
8
Geo
100
AcDbLine
10
-15.9174038739520
20
17.9569169058364
30
0.000000000000000
11
-15.8174038739520
21
18.3588716775256
31
0.000000000000000
  0
LINE
  5
F1080A
330
F1080B
100
AcDbEntity
8
Geo
100
AcDbLine
10
-15.8174038739520
20
18.3588716775256
30
0.000000000000000
11
-15.7174038739521
21
18.8055459589764
31
0.000000000000000
  0
LINE
  5
F1080C
330
F1080D
100
AcDbEntity
8
Geo
100
AcDbLine
10
-15.7174038739521
20
18.8055459589764
30
0.000000000000000
11
-15.7174038739521
21
18.9095252513024
31
0.000000000000000
  0
LINE
  5
F1080E
330
F1080F
100
AcDbEntity
8
Geo
100
AcDbLine
10
-15.7174038739521
20
18.9095252513024
30
0.000000000000000
11
-15.8174038739520
21
19.2486792802800
31
0.000000000000000
  0
LINE
  5
F10810
330
F10811
100
AcDbEntity
8
Geo
100
AcDbLine
10
-15.8174038739520
20
19.2486792802800
30
0.000000000000000
11
-15.9174038739520
21
19.4842397703390
31
0.000000000000000
  0
LINE
  5
F10812
330
F10813
100
AcDbEntity
8
Geo
100
AcDbLine
10
-15.9174038739520
20
19.4842397703390
30
0.000000000000000
11
-16.0174038739520
21
19.6358462813976
31
0.000000000000000
  0
LINE
  5
F10814
330
F10815
100
AcDbEntity
8
Geo
100
AcDbLine
10
-16.0174038739520
20
19.6358462813976
30
0.000000000000000
11
-16.1174038739520
21
19.7205582875235
31
0.000000000000000
  0
LINE
  5
F10816
330
F10817
100
AcDbEntity
8
Geo
100
AcDbLine
10
-16.1174038739520
20
19.7205582875235
30
0.000000000000000
11
-16.2174038739520
21
19.7528888920911
31
0.000000000000000
  0
LINE
  5
F10818
330
F10819
100
AcDbEntity
8
Geo
100
AcDbLine
10
-16.2174038739520
20
19.7528888920911
30
0.000000000000000
11
-16.2451893744286
21
19.7542642382192
31
0.000000000000000
  0
LINE
  5
F1081A
330
F1081B
100
AcDbEntity
8
Geo
100
AcDbLine
10
-40.7174038739521
20
8.76945648520696
30
0.000000000000000
11
-40.6174038739520
21
8.67124384467802
31
0.000000000000000
  0
LINE
  5
F1081C
330
F1081D
100
AcDbEntity
8
Geo
100
AcDbLine
10
-40.6174038739520
20
8.67124384467802
30
0.000000000000000
11
-40.5174038739520
21
8.57313950528596
31
0.000000000000000
  0
LINE
  5
F1081E
330
F1081F
100
AcDbEntity
8
Geo
100
AcDbLine
10
-40.5174038739520
20
8.57313950528596
30
0.000000000000000
11
-40.4174038739521
21
8.47515327738293
31
0.000000000000000
  0
LINE
  5
F10820
330
F10821
100
AcDbEntity
8
Geo
100
AcDbLine
10
-40.4174038739521
20
8.47515327738293
30
0.000000000000000
11
-40.3174038739521
21
8.37729495951005
31
0.000000000000000
  0
LINE
  5
F10822
330
F10823
100
AcDbEntity
8
Geo
100
AcDbLine
10
-40.3174038739521
20
8.37729495951005
30
0.000000000000000
11
-40.2174038739521
21
8.27957433741758
31
0.000000000000000
  0
LINE
  5
F10824
330
F10825
100
AcDbEntity
8
Geo
100
AcDbLine
10
-40.2174038739521
20
8.27957433741758
30
0.000000000000000
11
-40.1174038739520
21
8.18200118308629
31
0.000000000000000
  0
LINE
  5
F10826
330
F10827
100
AcDbEntity
8
Geo
100
AcDbLine
10
-40.1174038739520
20
8.18200118308629
30
0.000000000000000
11
-40.0174038739520
21
8.08458525375029
31
0.000000000000000
  0
LINE
  5
F10828
330
F10829
100
AcDbEntity
8
Geo
100
AcDbLine
10
-40.0174038739520
20
8.08458525375029
30
0.000000000000000
11
-39.9174038739521
21
7.98733629092134
31
0.000000000000000
  0
LINE
  5
F1082A
330
F1082B
100
AcDbEntity
8
Geo
100
AcDbLine
10
-39.9174038739521
20
7.98733629092134
30
0.000000000000000
11
-39.8174038739521
21
7.89026401941469
31
0.000000000000000
  0
LINE
  5
F1082C
330
F1082D
100
AcDbEntity
8
Geo
100
AcDbLine
10
-39.8174038739521
20
7.89026401941469
30
0.000000000000000
11
-39.7174038739521
21
7.79337814637659
31
0.000000000000000
  0
LINE
  5
F1082E
330
F1082F
100
AcDbEntity
8
Geo
100
AcDbLine
10
-39.7174038739521
20
7.79337814637659
30
0.000000000000000
11
-39.6174038739520
21
7.69668836031361
31
0.000000000000000
  0
LINE
  5
F10830
330
F10831
100
AcDbEntity
8
Geo
100
AcDbLine
10
-39.6174038739520
20
7.69668836031361
30
0.000000000000000
11
-39.5174038739520
21
7.60020433012378
31
0.000000000000000
  0
LINE
  5
F10832
330
F10833
100
AcDbEntity
8
Geo
100
AcDbLine
10
-39.5174038739520
20
7.60020433012378
30
0.000000000000000
11
-39.4174038739521
21
7.50393570412972
31
0.000000000000000
  0
LINE
  5
F10834
330
F10835
100
AcDbEntity
8
Geo
100
AcDbLine
10
-39.4174038739521
20
7.50393570412972
30
0.000000000000000
11
-39.3174038739521
21
7.40789210911379
31
0.000000000000000
  0
LINE
  5
F10836
330
F10837
100
AcDbEntity
8
Geo
100
AcDbLine
10
-39.3174038739521
20
7.40789210911379
30
0.000000000000000
11
-39.2174038739521
21
7.31208314935548
31
0.000000000000000
  0
LINE
  5
F10838
330
F10839
100
AcDbEntity
8
Geo
100
AcDbLine
10
-39.2174038739521
20
7.31208314935548
30
0.000000000000000
11
-39.1174038739520
21
7.21651840567090
31
0.000000000000000
  0
LINE
  5
F1083A
330
F1083B
100
AcDbEntity
8
Geo
100
AcDbLine
10
-39.1174038739520
20
7.21651840567090
30
0.000000000000000
11
-39.0174038739520
21
7.12120743445480
31
0.000000000000000
  0
LINE
  5
F1083C
330
F1083D
100
AcDbEntity
8
Geo
100
AcDbLine
10
-39.0174038739520
20
7.12120743445480
30
0.000000000000000
11
-38.9174038739521
21
7.02615976672487
31
0.000000000000000
  0
LINE
  5
F1083E
330
F1083F
100
AcDbEntity
8
Geo
100
AcDbLine
10
-38.9174038739521
20
7.02615976672487
30
0.000000000000000
11
-38.8174038739521
21
6.93138490716867
31
0.000000000000000
  0
LINE
  5
F10840
330
F10841
100
AcDbEntity
8
Geo
100
AcDbLine
10
-38.8174038739521
20
6.93138490716867
30
0.000000000000000
11
-38.7174038739521
21
6.83689233319319
31
0.000000000000000
  0
LINE
  5
F10842
330
F10843
100
AcDbEntity
8
Geo
100
AcDbLine
10
-38.7174038739521
20
6.83689233319319
30
0.000000000000000
11
-38.6174038739520
21
6.74269149397708
31
0.000000000000000
  0
LINE
  5
F10844
330
F10845
100
AcDbEntity
8
Geo
100
AcDbLine
10
-38.6174038739520
20
6.74269149397708
30
0.000000000000000
11
-38.5174038739520
21
6.64879180952575
31
0.000000000000000
  0
LINE
  5
F10846
330
F10847
100
AcDbEntity
8
Geo
100
AcDbLine
10
-38.5174038739520
20
6.64879180952575
30
0.000000000000000
11
-38.4174038739521
21
6.55520266972941
31
0.000000000000000
  0
LINE
  5
F10848
330
F10849
100
AcDbEntity
8
Geo
100
AcDbLine
10
-38.4174038739521
20
6.55520266972941
30
0.000000000000000
11
-38.3174038739521
21
6.46193343342405
31
0.000000000000000
  0
LINE
  5
F1084A
330
F1084B
100
AcDbEntity
8
Geo
100
AcDbLine
10
-38.3174038739521
20
6.46193343342405
30
0.000000000000000
11
-38.2174038739521
21
6.36899342745556
31
0.000000000000000
  0
LINE
  5
F1084C
330
F1084D
100
AcDbEntity
8
Geo
100
AcDbLine
10
-38.2174038739521
20
6.36899342745556
30
0.000000000000000
11
-38.1174038739520
21
6.27639194574710
31
0.000000000000000
  0
LINE
  5
F1084E
330
F1084F
100
AcDbEntity
8
Geo
100
AcDbLine
10
-38.1174038739520
20
6.27639194574710
30
0.000000000000000
11
-38.0174038739520
21
6.18413824836966
31
0.000000000000000
  0
LINE
  5
F10850
330
F10851
100
AcDbEntity
8
Geo
100
AcDbLine
10
-38.0174038739520
20
6.18413824836966
30
0.000000000000000
11
-37.9174038739520
21
6.09224156061612
31
0.000000000000000
  0
LINE
  5
F10852
330
F10853
100
AcDbEntity
8
Geo
100
AcDbLine
10
-37.9174038739520
20
6.09224156061612
30
0.000000000000000
11
-37.8174038739521
21
6.00071107207867
31
0.000000000000000
  0
LINE
  5
F10854
330
F10855
100
AcDbEntity
8
Geo
100
AcDbLine
10
-37.8174038739521
20
6.00071107207867
30
0.000000000000000
11
-37.7174038739521
21
5.90955593572987
31
0.000000000000000
  0
LINE
  5
F10856
330
F10857
100
AcDbEntity
8
Geo
100
AcDbLine
10
-37.7174038739521
20
5.90955593572987
30
0.000000000000000
11
-37.6174038739520
21
5.81878526700742
31
0.000000000000000
  0
LINE
  5
F10858
330
F10859
100
AcDbEntity
8
Geo
100
AcDbLine
10
-37.6174038739520
20
5.81878526700742
30
0.000000000000000
11
-37.5174038739520
21
5.72840814290253
31
0.000000000000000
  0
LINE
  5
F1085A
330
F1085B
100
AcDbEntity
8
Geo
100
AcDbLine
10
-37.5174038739520
20
5.72840814290253
30
0.000000000000000
11
-37.4174038739520
21
5.63843360105230
31
0.000000000000000
  0
LINE
  5
F1085C
330
F1085D
100
AcDbEntity
8
Geo
100
AcDbLine
10
-37.4174038739520
20
5.63843360105230
30
0.000000000000000
11
-37.3174038739521
21
5.54887063883594
31
0.000000000000000
  0
LINE
  5
F1085E
330
F1085F
100
AcDbEntity
8
Geo
100
AcDbLine
10
-37.3174038739521
20
5.54887063883594
30
0.000000000000000
11
-37.2174038739521
21
5.45972821247504
31
0.000000000000000
  0
LINE
  5
F10860
330
F10861
100
AcDbEntity
8
Geo
100
AcDbLine
10
-37.2174038739521
20
5.45972821247504
30
0.000000000000000
11
-37.1174038739520
21
5.37101523613794
31
0.000000000000000
  0
LINE
  5
F10862
330
F10863
100
AcDbEntity
8
Geo
100
AcDbLine
10
-37.1174038739520
20
5.37101523613794
30
0.000000000000000
11
-37.0174038739520
21
5.28274058104835
31
0.000000000000000
  0
LINE
  5
F10864
330
F10865
100
AcDbEntity
8
Geo
100
AcDbLine
10
-37.0174038739520
20
5.28274058104835
30
0.000000000000000
11
-36.9174038739520
21
5.19491307459823
31
0.000000000000000
  0
LINE
  5
F10866
330
F10867
100
AcDbEntity
8
Geo
100
AcDbLine
10
-36.9174038739520
20
5.19491307459823
30
0.000000000000000
11
-36.8174038739520
21
5.10754149946502
31
0.000000000000000
  0
LINE
  5
F10868
330
F10869
100
AcDbEntity
8
Geo
100
AcDbLine
10
-36.8174038739520
20
5.10754149946502
30
0.000000000000000
11
-36.7174038739521
21
5.02063459273343
31
0.000000000000000
  0
LINE
  5
F1086A
330
F1086B
100
AcDbEntity
8
Geo
100
AcDbLine
10
-36.7174038739521
20
5.02063459273343
30
0.000000000000000
11
-36.6174038739520
21
4.93420104502171
31
0.000000000000000
  0
LINE
  5
F1086C
330
F1086D
100
AcDbEntity
8
Geo
100
AcDbLine
10
-36.6174038739520
20
4.93420104502171
30
0.000000000000000
11
-36.5174038739520
21
4.84824949961261
31
0.000000000000000
  0
LINE
  5
F1086E
330
F1086F
100
AcDbEntity
8
Geo
100
AcDbLine
10
-36.5174038739520
20
4.84824949961261
30
0.000000000000000
11
-36.4174038739521
21
4.76278855158903
31
0.000000000000000
  0
LINE
  5
F10870
330
F10871
100
AcDbEntity
8
Geo
100
AcDbLine
10
-36.4174038739521
20
4.76278855158903
30
0.000000000000000
11
-36.3174038739521
21
4.67782674697457
31
0.000000000000000
  0
LINE
  5
F10872
330
F10873
100
AcDbEntity
8
Geo
100
AcDbLine
10
-36.3174038739521
20
4.67782674697457
30
0.000000000000000
11
-36.2174038739521
21
4.59337258187888
31
0.000000000000000
  0
LINE
  5
F10874
330
F10875
100
AcDbEntity
8
Geo
100
AcDbLine
10
-36.2174038739521
20
4.59337258187888
30
0.000000000000000
11
-36.1174038739520
21
4.50943450164809
31
0.000000000000000
  0
LINE
  5
F10876
330
F10877
100
AcDbEntity
8
Geo
100
AcDbLine
10
-36.1174038739520
20
4.50943450164809
30
0.000000000000000
11
-36.0174038739520
21
4.42602090002029
31
0.000000000000000
  0
LINE
  5
F10878
330
F10879
100
AcDbEntity
8
Geo
100
AcDbLine
10
-36.0174038739520
20
4.42602090002029
30
0.000000000000000
11
-35.9174038739521
21
4.34314011828612
31
0.000000000000000
  0
LINE
  5
F1087A
330
F1087B
100
AcDbEntity
8
Geo
100
AcDbLine
10
-35.9174038739521
20
4.34314011828612
30
0.000000000000000
11
-35.8174038739521
21
4.26080044445469
31
0.000000000000000
  0
LINE
  5
F1087C
330
F1087D
100
AcDbEntity
8
Geo
100
AcDbLine
10
-35.8174038739521
20
4.26080044445469
30
0.000000000000000
11
-35.7174038739521
21
4.17901011242476
31
0.000000000000000
  0
LINE
  5
F1087E
330
F1087F
100
AcDbEntity
8
Geo
100
AcDbLine
10
-35.7174038739521
20
4.17901011242476
30
0.000000000000000
11
-35.6174038739521
21
4.09777730116138
31
0.000000000000000
  0
LINE
  5
F10880
330
F10881
100
AcDbEntity
8
Geo
100
AcDbLine
10
-35.6174038739521
20
4.09777730116138
30
0.000000000000000
11
-35.5174038739521
21
4.01711013387799
31
0.000000000000000
  0
LINE
  5
F10882
330
F10883
100
AcDbEntity
8
Geo
100
AcDbLine
10
-35.5174038739521
20
4.01711013387799
30
0.000000000000000
11
-35.4174038739521
21
3.93701667722408
31
0.000000000000000
  0
LINE
  5
F10884
330
F10885
100
AcDbEntity
8
Geo
100
AcDbLine
10
-35.4174038739521
20
3.93701667722408
30
0.000000000000000
11
-35.3174038739521
21
3.85750494047858
31
0.000000000000000
  0
LINE
  5
F10886
330
F10887
100
AcDbEntity
8
Geo
100
AcDbLine
10
-35.3174038739521
20
3.85750494047858
30
0.000000000000000
11
-35.2174038739521
21
3.77858287474891
31
0.000000000000000
  0
LINE
  5
F10888
330
F10889
100
AcDbEntity
8
Geo
100
AcDbLine
10
-35.2174038739521
20
3.77858287474891
30
0.000000000000000
11
-35.1174038739521
21
3.70025837217586
31
0.000000000000000
  0
LINE
  5
F1088A
330
F1088B
100
AcDbEntity
8
Geo
100
AcDbLine
10
-35.1174038739521
20
3.70025837217586
30
0.000000000000000
11
-35.0174038739521
21
3.62253926514444
31
0.000000000000000
  0
LINE
  5
F1088C
330
F1088D
100
AcDbEntity
8
Geo
100
AcDbLine
10
-35.0174038739521
20
3.62253926514444
30
0.000000000000000
11
-34.9174038739521
21
3.54543332550056
31
0.000000000000000
  0
LINE
  5
F1088E
330
F1088F
100
AcDbEntity
8
Geo
100
AcDbLine
10
-34.9174038739521
20
3.54543332550056
30
0.000000000000000
11
-34.8174038739521
21
3.46894826377395
31
0.000000000000000
  0
LINE
  5
F10890
330
F10891
100
AcDbEntity
8
Geo
100
AcDbLine
10
-34.8174038739521
20
3.46894826377395
30
0.000000000000000
11
-34.7174038739521
21
3.39309172840703
31
0.000000000000000
  0
LINE
  5
F10892
330
F10893
100
AcDbEntity
8
Geo
100
AcDbLine
10
-34.7174038739521
20
3.39309172840703
30
0.000000000000000
11
-34.6174038739521
21
3.31787130499015
31
0.000000000000000
  0
LINE
  5
F10894
330
F10895
100
AcDbEntity
8
Geo
100
AcDbLine
10
-34.6174038739521
20
3.31787130499015
30
0.000000000000000
11
-34.5174038739521
21
3.24329451550293
31
0.000000000000000
  0
LINE
  5
F10896
330
F10897
100
AcDbEntity
8
Geo
100
AcDbLine
10
-34.5174038739521
20
3.24329451550293
30
0.000000000000000
11
-34.4174038739521
21
3.16936881756220
31
0.000000000000000
  0
LINE
  5
F10898
330
F10899
100
AcDbEntity
8
Geo
100
AcDbLine
10
-34.4174038739521
20
3.16936881756220
30
0.000000000000000
11
-34.3174038739521
21
3.09610160367614
31
0.000000000000000
  0
LINE
  5
F1089A
330
F1089B
100
AcDbEntity
8
Geo
100
AcDbLine
10
-34.3174038739521
20
3.09610160367614
30
0.000000000000000
11
-34.2174038739521
21
3.02350020050509
31
0.000000000000000
  0
LINE
  5
F1089C
330
F1089D
100
AcDbEntity
8
Geo
100
AcDbLine
10
-34.2174038739521
20
3.02350020050509
30
0.000000000000000
11
-34.1174038739521
21
2.95157186812886
31
0.000000000000000
  0
LINE
  5
F1089E
330
F1089F
100
AcDbEntity
8
Geo
100
AcDbLine
10
-34.1174038739521
20
2.95157186812886
30
0.000000000000000
11
-34.0174038739521
21
2.88032379932074
31
0.000000000000000
  0
LINE
  5
F108A0
330
F108A1
100
AcDbEntity
8
Geo
100
AcDbLine
10
-34.0174038739521
20
2.88032379932074
30
0.000000000000000
11
-33.9174038739521
21
2.80976311882825
31
0.000000000000000
  0
LINE
  5
F108A2
330
F108A3
100
AcDbEntity
8
Geo
100
AcDbLine
10
-33.9174038739521
20
2.80976311882825
30
0.000000000000000
11
-33.8174038739521
21
2.73989688266063
31
0.000000000000000
  0
LINE
  5
F108A4
330
F108A5
100
AcDbEntity
8
Geo
100
AcDbLine
10
-33.8174038739521
20
2.73989688266063
30
0.000000000000000
11
-33.7174038739521
21
2.67073207738328
31
0.000000000000000
  0
LINE
  5
F108A6
330
F108A7
100
AcDbEntity
8
Geo
100
AcDbLine
10
-33.7174038739521
20
2.67073207738328
30
0.000000000000000
11
-33.6174038739521
21
2.60227561941909
31
0.000000000000000
  0
LINE
  5
F108A8
330
F108A9
100
AcDbEntity
8
Geo
100
AcDbLine
10
-33.6174038739521
20
2.60227561941909
30
0.000000000000000
11
-33.5174038739521
21
2.53453435435681
31
0.000000000000000
  0
LINE
  5
F108AA
330
F108AB
100
AcDbEntity
8
Geo
100
AcDbLine
10
-33.5174038739521
20
2.53453435435681
30
0.000000000000000
11
-33.4174038739521
21
2.46751505626650
31
0.000000000000000
  0
LINE
  5
F108AC
330
F108AD
100
AcDbEntity
8
Geo
100
AcDbLine
10
-33.4174038739521
20
2.46751505626650
30
0.000000000000000
11
-33.3174038739521
21
2.40122442702211
31
0.000000000000000
  0
LINE
  5
F108AE
330
F108AF
100
AcDbEntity
8
Geo
100
AcDbLine
10
-33.3174038739521
20
2.40122442702211
30
0.000000000000000
11
-33.2174038739521
21
2.33566909563133
31
0.000000000000000
  0
LINE
  5
F108B0
330
F108B1
100
AcDbEntity
8
Geo
100
AcDbLine
10
-33.2174038739521
20
2.33566909563133
30
0.000000000000000
11
-33.1174038739521
21
2.27085561757266
31
0.000000000000000
  0
LINE
  5
F108B2
330
F108B3
100
AcDbEntity
8
Geo
100
AcDbLine
10
-33.1174038739521
20
2.27085561757266
30
0.000000000000000
11
-33.0174038739521
21
2.20679047413991
31
0.000000000000000
  0
LINE
  5
F108B4
330
F108B5
100
AcDbEntity
8
Geo
100
AcDbLine
10
-33.0174038739521
20
2.20679047413991
30
0.000000000000000
11
-32.9174038739521
21
2.14348007179402
31
0.000000000000000
  0
LINE
  5
F108B6
330
F108B7
100
AcDbEntity
8
Geo
100
AcDbLine
10
-32.9174038739521
20
2.14348007179402
30
0.000000000000000
11
-32.8174038739521
21
2.08093074152248
31
0.000000000000000
  0
LINE
  5
F108B8
330
F108B9
100
AcDbEntity
8
Geo
100
AcDbLine
10
-32.8174038739521
20
2.08093074152248
30
0.000000000000000
11
-32.7174038739521
21
2.01914873820618
31
0.000000000000000
  0
LINE
  5
F108BA
330
F108BB
100
AcDbEntity
8
Geo
100
AcDbLine
10
-32.7174038739521
20
2.01914873820618
30
0.000000000000000
11
-32.6174038739521
21
1.95814023999397
31
0.000000000000000
  0
LINE
  5
F108BC
330
F108BD
100
AcDbEntity
8
Geo
100
AcDbLine
10
-32.6174038739521
20
1.95814023999397
30
0.000000000000000
11
-32.5174038739521
21
1.89791134768485
31
0.000000000000000
  0
LINE
  5
F108BE
330
F108BF
100
AcDbEntity
8
Geo
100
AcDbLine
10
-32.5174038739521
20
1.89791134768485
30
0.000000000000000
11
-32.4174038739521
21
1.83846808411783
31
0.000000000000000
  0
LINE
  5
F108C0
330
F108C1
100
AcDbEntity
8
Geo
100
AcDbLine
10
-32.4174038739521
20
1.83846808411783
30
0.000000000000000
11
-32.3174038739521
21
1.77981639356975
31
0.000000000000000
  0
LINE
  5
F108C2
330
F108C3
100
AcDbEntity
8
Geo
100
AcDbLine
10
-32.3174038739521
20
1.77981639356975
30
0.000000000000000
11
-32.2174038739521
21
1.72196214116079
31
0.000000000000000
  0
LINE
  5
F108C4
330
F108C5
100
AcDbEntity
8
Geo
100
AcDbLine
10
-32.2174038739521
20
1.72196214116079
30
0.000000000000000
11
-32.1174038739521
21
1.66491111226796
31
0.000000000000000
  0
LINE
  5
F108C6
330
F108C7
100
AcDbEntity
8
Geo
100
AcDbLine
10
-32.1174038739521
20
1.66491111226796
30
0.000000000000000
11
-32.0174038739521
21
1.60866901194663
31
0.000000000000000
  0
LINE
  5
F108C8
330
F108C9
100
AcDbEntity
8
Geo
100
AcDbLine
10
-32.0174038739521
20
1.60866901194663
30
0.000000000000000
11
-31.9174038739521
21
1.55324146435995
31
0.000000000000000
  0
LINE
  5
F108CA
330
F108CB
100
AcDbEntity
8
Geo
100
AcDbLine
10
-31.9174038739521
20
1.55324146435995
30
0.000000000000000
11
-31.8174038739521
21
1.49863401221649
31
0.000000000000000
  0
LINE
  5
F108CC
330
F108CD
100
AcDbEntity
8
Geo
100
AcDbLine
10
-31.8174038739521
20
1.49863401221649
30
0.000000000000000
11
-31.7174038739521
21
1.44485211621597
31
0.000000000000000
  0
LINE
  5
F108CE
330
F108CF
100
AcDbEntity
8
Geo
100
AcDbLine
10
-31.7174038739521
20
1.44485211621597
30
0.000000000000000
11
-31.6174038739521
21
1.39190115450316
31
0.000000000000000
  0
LINE
  5
F108D0
330
F108D1
100
AcDbEntity
8
Geo
100
AcDbLine
10
-31.6174038739521
20
1.39190115450316
30
0.000000000000000
11
-31.5174038739521
21
1.33978642213011
31
0.000000000000000
  0
LINE
  5
F108D2
330
F108D3
100
AcDbEntity
8
Geo
100
AcDbLine
10
-31.5174038739521
20
1.33978642213011
30
0.000000000000000
11
-31.4174038739521
21
1.28851313052662
31
0.000000000000000
  0
LINE
  5
F108D4
330
F108D5
100
AcDbEntity
8
Geo
100
AcDbLine
10
-31.4174038739521
20
1.28851313052662
30
0.000000000000000
11
-31.3174038739521
21
1.23808640697914
31
0.000000000000000
  0
LINE
  5
F108D6
330
F108D7
100
AcDbEntity
8
Geo
100
AcDbLine
10
-31.3174038739521
20
1.23808640697914
30
0.000000000000000
11
-31.2174038739521
21
1.18851129411799
31
0.000000000000000
  0
LINE
  5
F108D8
330
F108D9
100
AcDbEntity
8
Geo
100
AcDbLine
10
-31.2174038739521
20
1.18851129411799
30
0.000000000000000
11
-31.1174038739521
21
1.13979274941314
31
0.000000000000000
  0
LINE
  5
F108DA
330
F108DB
100
AcDbEntity
8
Geo
100
AcDbLine
10
-31.1174038739521
20
1.13979274941314
30
0.000000000000000
11
-31.0174038739521
21
1.09193564467847
31
0.000000000000000
  0
LINE
  5
F108DC
330
F108DD
100
AcDbEntity
8
Geo
100
AcDbLine
10
-31.0174038739521
20
1.09193564467847
30
0.000000000000000
11
-30.9174038739521
21
1.04494476558458
31
0.000000000000000
  0
LINE
  5
F108DE
330
F108DF
100
AcDbEntity
8
Geo
100
AcDbLine
10
-30.9174038739521
20
1.04494476558458
30
0.000000000000000
11
-30.8174038739521
21
0.998824811180199
31
0.000000000000000
  0
LINE
  5
F108E0
330
F108E1
100
AcDbEntity
8
Geo
100
AcDbLine
10
-30.8174038739521
20
0.998824811180199
30
0.000000000000000
11
-30.7174038739521
21
0.953580393422355
31
0.000000000000000
  0
LINE
  5
F108E2
330
F108E3
100
AcDbEntity
8
Geo
100
AcDbLine
10
-30.7174038739521
20
0.953580393422355
30
0.000000000000000
11
-30.6174038739521
21
0.909216036715110
31
0.000000000000000
  0
LINE
  5
F108E4
330
F108E5
100
AcDbEntity
8
Geo
100
AcDbLine
10
-30.6174038739521
20
0.909216036715110
30
0.000000000000000
11
-30.5174038739521
21
0.865736177457165
31
0.000000000000000
  0
LINE
  5
F108E6
330
F108E7
100
AcDbEntity
8
Geo
100
AcDbLine
10
-30.5174038739521
20
0.865736177457165
30
0.000000000000000
11
-30.4174038739521
21
0.823145163598218
31
0.000000000000000
  0
LINE
  5
F108E8
330
F108E9
100
AcDbEntity
8
Geo
100
AcDbLine
10
-30.4174038739521
20
0.823145163598218
30
0.000000000000000
11
-30.3174038739521
21
0.781447254204155
31
0.000000000000000
  0
LINE
  5
F108EA
330
F108EB
100
AcDbEntity
8
Geo
100
AcDbLine
10
-30.3174038739521
20
0.781447254204155
30
0.000000000000000
11
-30.2174038739521
21
0.740646619031171
31
0.000000000000000
  0
LINE
  5
F108EC
330
F108ED
100
AcDbEntity
8
Geo
100
AcDbLine
10
-30.2174038739521
20
0.740646619031171
30
0.000000000000000
11
-30.1174038739521
21
0.700747338108783
31
0.000000000000000
  0
LINE
  5
F108EE
330
F108EF
100
AcDbEntity
8
Geo
100
AcDbLine
10
-30.1174038739521
20
0.700747338108783
30
0.000000000000000
11
-30.0174038739521
21
0.661753401331834
31
0.000000000000000
  0
LINE
  5
F108F0
330
F108F1
100
AcDbEntity
8
Geo
100
AcDbLine
10
-30.0174038739521
20
0.661753401331834
30
0.000000000000000
11
-29.9174038739521
21
0.623668708061508
31
0.000000000000000
  0
LINE
  5
F108F2
330
F108F3
100
AcDbEntity
8
Geo
100
AcDbLine
10
-29.9174038739521
20
0.623668708061508
30
0.000000000000000
11
-29.8174038739521
21
0.586497066735394
31
0.000000000000000
  0
LINE
  5
F108F4
330
F108F5
100
AcDbEntity
8
Geo
100
AcDbLine
10
-29.8174038739521
20
0.586497066735394
30
0.000000000000000
11
-29.7174038739521
21
0.550242194486646
31
0.000000000000000
  0
LINE
  5
F108F6
330
F108F7
100
AcDbEntity
8
Geo
100
AcDbLine
10
-29.7174038739521
20
0.550242194486646
30
0.000000000000000
11
-29.6174038739521
21
0.514907716772278
31
0.000000000000000
  0
LINE
  5
F108F8
330
F108F9
100
AcDbEntity
8
Geo
100
AcDbLine
10
-29.6174038739521
20
0.514907716772278
30
0.000000000000000
11
-29.5174038739521
21
0.480497167010617
31
0.000000000000000
  0
LINE
  5
F108FA
330
F108FB
100
AcDbEntity
8
Geo
100
AcDbLine
10
-29.5174038739521
20
0.480497167010617
30
0.000000000000000
11
-29.4174038739521
21
0.447013986227965
31
0.000000000000000
  0
LINE
  5
F108FC
330
F108FD
100
AcDbEntity
8
Geo
100
AcDbLine
10
-29.4174038739521
20
0.447013986227965
30
0.000000000000000
11
-29.3174038739521
21
0.414461522714499
31
0.000000000000000
  0
LINE
  5
F108FE
330
F108FF
100
AcDbEntity
8
Geo
100
AcDbLine
10
-29.3174038739521
20
0.414461522714499
30
0.000000000000000
11
-29.2174038739521
21
0.382843031689436
31
0.000000000000000
  0
LINE
  5
F10900
330
F10901
100
AcDbEntity
8
Geo
100
AcDbLine
10
-29.2174038739521
20
0.382843031689436
30
0.000000000000000
11
-29.1174038739521
21
0.352161674975532
31
0.000000000000000
  0
LINE
  5
F10902
330
F10903
100
AcDbEntity
8
Geo
100
AcDbLine
10
-29.1174038739521
20
0.352161674975532
30
0.000000000000000
11
-29.0174038739521
21
0.322420520682897
31
0.000000000000000
  0
LINE
  5
F10904
330
F10905
100
AcDbEntity
8
Geo
100
AcDbLine
10
-29.0174038739521
20
0.322420520682897
30
0.000000000000000
11
-28.9174038739521
21
0.293622542902174
31
0.000000000000000
  0
LINE
  5
F10906
330
F10907
100
AcDbEntity
8
Geo
100
AcDbLine
10
-28.9174038739521
20
0.293622542902174
30
0.000000000000000
11
-28.8174038739521
21
0.265770621407135
31
0.000000000000000
  0
LINE
  5
F10908
330
F10909
100
AcDbEntity
8
Geo
100
AcDbLine
10
-28.8174038739521
20
0.265770621407135
30
0.000000000000000
11
-28.7174038739521
21
0.238867541366728
31
0.000000000000000
  0
LINE
  5
F1090A
330
F1090B
100
AcDbEntity
8
Geo
100
AcDbLine
10
-28.7174038739521
20
0.238867541366728
30
0.000000000000000
11
-28.6174038739521
21
0.212915993066538
31
0.000000000000000
  0
LINE
  5
F1090C
330
F1090D
100
AcDbEntity
8
Geo
100
AcDbLine
10
-28.6174038739521
20
0.212915993066538
30
0.000000000000000
11
-28.5174038739521
21
0.187918571639763
31
0.000000000000000
  0
LINE
  5
F1090E
330
F1090F
100
AcDbEntity
8
Geo
100
AcDbLine
10
-28.5174038739521
20
0.187918571639763
30
0.000000000000000
11
-28.4174038739521
21
0.163877776807720
31
0.000000000000000
  0
LINE
  5
F10910
330
F10911
100
AcDbEntity
8
Geo
100
AcDbLine
10
-28.4174038739521
20
0.163877776807720
30
0.000000000000000
11
-28.3174038739521
21
0.140796012629854
31
0.000000000000000
  0
LINE
  5
F10912
330
F10913
100
AcDbEntity
8
Geo
100
AcDbLine
10
-28.3174038739521
20
0.140796012629854
30
0.000000000000000
11
-28.2174038739521
21
0.118675587263352
31
0.000000000000000
  0
LINE
  5
F10914
330
F10915
100
AcDbEntity
8
Geo
100
AcDbLine
10
-28.2174038739521
20
0.118675587263352
30
0.000000000000000
11
-28.1174038739521
21
0.0975187127323132
31
0.000000000000000
  0
LINE
  5
F10916
330
F10917
100
AcDbEntity
8
Geo
100
AcDbLine
10
-28.1174038739521
20
0.0975187127323132
30
0.000000000000000
11
-28.0174038739521
21
0.0773275047065631
31
0.000000000000000
  0
LINE
  5
F10918
330
F10919
100
AcDbEntity
8
Geo
100
AcDbLine
10
-28.0174038739521
20
0.0773275047065631
30
0.000000000000000
11
-27.9174038739521
21
0.0581039822900777
31
0.000000000000000
  0
LINE
  5
F1091A
330
F1091B
100
AcDbEntity
8
Geo
100
AcDbLine
10
-27.9174038739521
20
0.0581039822900777
30
0.000000000000000
11
-27.8174038739521
21
0.0398500678190779
31
0.000000000000000
  0
LINE
  5
F1091C
330
F1091D
100
AcDbEntity
8
Geo
100
AcDbLine
10
-27.8174038739521
20
0.0398500678190779
30
0.000000000000000
11
-27.7174038739521
21
0.0225675866697976
31
0.000000000000000
  0
LINE
  5
F1091E
330
F1091F
100
AcDbEntity
8
Geo
100
AcDbLine
10
-27.7174038739521
20
0.0225675866697976
30
0.000000000000000
11
-27.6174038739521
21
0.00625826707595856
31
0.000000000000000
  0
LINE
  5
F10920
330
F10921
100
AcDbEntity
8
Geo
100
AcDbLine
10
-27.6174038739521
20
0.00625826707595856
30
0.000000000000000
11
-27.5174038739521
21
-0.00907626004408435
31
0.000000000000000
  0
LINE
  5
F10922
330
F10923
100
AcDbEntity
8
Geo
100
AcDbLine
10
-27.5174038739521
20
-0.00907626004408435
30
0.000000000000000
11
-27.4174038739521
21
-0.0234344612503854
31
0.000000000000000
  0
LINE
  5
F10924
330
F10925
100
AcDbEntity
8
Geo
100
AcDbLine
10
-27.4174038739521
20
-0.0234344612503854
30
0.000000000000000
11
-27.3174038739521
21
-0.0368149007347984
31
0.000000000000000
  0
LINE
  5
F10926
330
F10927
100
AcDbEntity
8
Geo
100
AcDbLine
10
-27.3174038739521
20
-0.0368149007347984
30
0.000000000000000
11
-27.2174038739521
21
-0.0492162404645171
31
0.000000000000000
  0
LINE
  5
F10928
330
F10929
100
AcDbEntity
8
Geo
100
AcDbLine
10
-27.2174038739521
20
-0.0492162404645171
30
0.000000000000000
11
-27.1174038739521
21
-0.0606372403159128
31
0.000000000000000
  0
LINE
  5
F1092A
330
F1092B
100
AcDbEntity
8
Geo
100
AcDbLine
10
-27.1174038739521
20
-0.0606372403159128
30
0.000000000000000
11
-27.0174038739521
21
-0.0710767581985099
31
0.000000000000000
  0
LINE
  5
F1092C
330
F1092D
100
AcDbEntity
8
Geo
100
AcDbLine
10
-27.0174038739521
20
-0.0710767581985099
30
0.000000000000000
11
-26.9174038739521
21
-0.0805337501692218
31
0.000000000000000
  0
LINE
  5
F1092E
330
F1092F
100
AcDbEntity
8
Geo
100
AcDbLine
10
-26.9174038739521
20
-0.0805337501692218
30
0.000000000000000
11
-26.8174038739521
21
-0.0890072705367331
31
0.000000000000000
  0
LINE
  5
F10930
330
F10931
100
AcDbEntity
8
Geo
100
AcDbLine
10
-26.8174038739521
20
-0.0890072705367331
30
0.000000000000000
11
-26.7174038739521
21
-0.0964964719560637
31
0.000000000000000
  0
LINE
  5
F10932
330
F10933
100
AcDbEntity
8
Geo
100
AcDbLine
10
-26.7174038739521
20
-0.0964964719560637
30
0.000000000000000
11
-26.6174038739521
21
-0.103000605513321
31
0.000000000000000
  0
LINE
  5
F10934
330
F10935
100
AcDbEntity
8
Geo
100
AcDbLine
10
-26.6174038739521
20
-0.103000605513321
30
0.000000000000000
11
-26.5174038739521
21
-0.108519020800568
31
0.000000000000000
  0
LINE
  5
F10936
330
F10937
100
AcDbEntity
8
Geo
100
AcDbLine
10
-26.5174038739521
20
-0.108519020800568
30
0.000000000000000
11
-26.4174038739521
21
-0.113051165980869
31
0.000000000000000
  0
LINE
  5
F10938
330
F10939
100
AcDbEntity
8
Geo
100
AcDbLine
10
-26.4174038739521
20
-0.113051165980869
30
0.000000000000000
11
-26.3174038739521
21
-0.116596587843484
31
0.000000000000000
  0
LINE
  5
F1093A
330
F1093B
100
AcDbEntity
8
Geo
100
AcDbLine
10
-26.3174038739521
20
-0.116596587843484
30
0.000000000000000
11
-26.2174038739521
21
-0.119154931849179
31
0.000000000000000
  0
LINE
  5
F1093C
330
F1093D
100
AcDbEntity
8
Geo
100
AcDbLine
10
-26.2174038739521
20
-0.119154931849179
30
0.000000000000000
11
-26.1174038739521
21
-0.120725942165697
31
0.000000000000000
  0
LINE
  5
F1093E
330
F1093F
100
AcDbEntity
8
Geo
100
AcDbLine
10
-26.1174038739521
20
-0.120725942165697
30
0.000000000000000
11
-26.0174038739521
21
-0.121309461693302
31
0.000000000000000
  0
LINE
  5
F10940
330
F10941
100
AcDbEntity
8
Geo
100
AcDbLine
10
-26.0174038739521
20
-0.121309461693302
30
0.000000000000000
11
-26.0083160433205
21
-0.245735761780836
31
0.000000000000000
  0
LINE
  5
F10942
330
F10943
100
AcDbEntity
8
Geo
100
AcDbLine
10
-26.0083160433205
20
19.7542642382192
30
0.000000000000000
11
-25.9174038739521
21
19.6294339085189
31
0.000000000000000
  0
LINE
  5
F10944
330
F10945
100
AcDbEntity
8
Geo
100
AcDbLine
10
-25.9174038739521
20
19.6294339085189
30
0.000000000000000
11
-25.8174038739521
21
19.6280423701683
31
0.000000000000000
  0
LINE
  5
F10946
330
F10947
100
AcDbEntity
8
Geo
100
AcDbLine
10
-25.8174038739521
20
19.6280423701683
30
0.000000000000000
11
-25.7174038739521
21
19.6256634622328
31
0.000000000000000
  0
LINE
  5
F10948
330
F10949
100
AcDbEntity
8
Geo
100
AcDbLine
10
-25.7174038739521
20
19.6256634622328
30
0.000000000000000
11
-25.6174038739521
21
19.6222974226009
31
0.000000000000000
  0
LINE
  5
F1094A
330
F1094B
100
AcDbEntity
8
Geo
100
AcDbLine
10
-25.6174038739521
20
19.6222974226009
30
0.000000000000000
11
-25.5174038739521
21
19.6179445878739
31
0.000000000000000
  0
LINE
  5
F1094C
330
F1094D
100
AcDbEntity
8
Geo
100
AcDbLine
10
-25.5174038739521
20
19.6179445878739
30
0.000000000000000
11
-25.4174038739521
21
19.6126053933317
31
0.000000000000000
  0
LINE
  5
F1094E
330
F1094F
100
AcDbEntity
8
Geo
100
AcDbLine
10
-25.4174038739521
20
19.6126053933317
30
0.000000000000000
11
-25.3174038739521
21
19.6062803728893
31
0.000000000000000
  0
LINE
  5
F10950
330
F10951
100
AcDbEntity
8
Geo
100
AcDbLine
10
-25.3174038739521
20
19.6062803728893
30
0.000000000000000
11
-25.2174038739521
21
19.5989701590433
31
0.000000000000000
  0
LINE
  5
F10952
330
F10953
100
AcDbEntity
8
Geo
100
AcDbLine
10
-25.2174038739521
20
19.5989701590433
30
0.000000000000000
11
-25.1174038739521
21
19.5906754828092
31
0.000000000000000
  0
LINE
  5
F10954
330
F10955
100
AcDbEntity
8
Geo
100
AcDbLine
10
-25.1174038739521
20
19.5906754828092
30
0.000000000000000
11
-25.0174038739521
21
19.5813971736474
31
0.000000000000000
  0
LINE
  5
F10956
330
F10957
100
AcDbEntity
8
Geo
100
AcDbLine
10
-25.0174038739521
20
19.5813971736474
30
0.000000000000000
11
-24.9174038739521
21
19.5711361593816
31
0.000000000000000
  0
LINE
  5
F10958
330
F10959
100
AcDbEntity
8
Geo
100
AcDbLine
10
-24.9174038739521
20
19.5711361593816
30
0.000000000000000
11
-24.8174038739521
21
19.5598934661043
31
0.000000000000000
  0
LINE
  5
F1095A
330
F1095B
100
AcDbEntity
8
Geo
100
AcDbLine
10
-24.8174038739521
20
19.5598934661043
30
0.000000000000000
11
-24.7174038739521
21
19.5476702180755
31
0.000000000000000
  0
LINE
  5
F1095C
330
F1095D
100
AcDbEntity
8
Geo
100
AcDbLine
10
-24.7174038739521
20
19.5476702180755
30
0.000000000000000
11
-24.6174038739521
21
19.5344676376099
31
0.000000000000000
  0
LINE
  5
F1095E
330
F1095F
100
AcDbEntity
8
Geo
100
AcDbLine
10
-24.6174038739521
20
19.5344676376099
30
0.000000000000000
11
-24.5174038739521
21
19.5202870449545
31
0.000000000000000
  0
LINE
  5
F10960
330
F10961
100
AcDbEntity
8
Geo
100
AcDbLine
10
-24.5174038739521
20
19.5202870449545
30
0.000000000000000
11
-24.4174038739521
21
19.5051298581567
31
0.000000000000000
  0
LINE
  5
F10962
330
F10963
100
AcDbEntity
8
Geo
100
AcDbLine
10
-24.4174038739521
20
19.5051298581567
30
0.000000000000000
11
-24.3174038739521
21
19.4889975929226
31
0.000000000000000
  0
LINE
  5
F10964
330
F10965
100
AcDbEntity
8
Geo
100
AcDbLine
10
-24.3174038739521
20
19.4889975929226
30
0.000000000000000
11
-24.2174038739521
21
19.4718918624653
31
0.000000000000000
  0
LINE
  5
F10966
330
F10967
100
AcDbEntity
8
Geo
100
AcDbLine
10
-24.2174038739521
20
19.4718918624653
30
0.000000000000000
11
-24.1174038739521
21
19.4538143773436
31
0.000000000000000
  0
LINE
  5
F10968
330
F10969
100
AcDbEntity
8
Geo
100
AcDbLine
10
-24.1174038739521
20
19.4538143773436
30
0.000000000000000
11
-24.0174038739521
21
19.4347669452909
31
0.000000000000000
  0
LINE
  5
F1096A
330
F1096B
100
AcDbEntity
8
Geo
100
AcDbLine
10
-24.0174038739521
20
19.4347669452909
30
0.000000000000000
11
-23.9174038739521
21
19.4147514710346
31
0.000000000000000
  0
LINE
  5
F1096C
330
F1096D
100
AcDbEntity
8
Geo
100
AcDbLine
10
-23.9174038739521
20
19.4147514710346
30
0.000000000000000
11
-23.8174038739521
21
19.3937699561053
31
0.000000000000000
  0
LINE
  5
F1096E
330
F1096F
100
AcDbEntity
8
Geo
100
AcDbLine
10
-23.8174038739521
20
19.3937699561053
30
0.000000000000000
11
-23.7174038739521
21
19.3718244986372
31
0.000000000000000
  0
LINE
  5
F10970
330
F10971
100
AcDbEntity
8
Geo
100
AcDbLine
10
-23.7174038739521
20
19.3718244986372
30
0.000000000000000
11
-23.6174038739521
21
19.3489172931576
31
0.000000000000000
  0
LINE
  5
F10972
330
F10973
100
AcDbEntity
8
Geo
100
AcDbLine
10
-23.6174038739521
20
19.3489172931576
30
0.000000000000000
11
-23.5174038739521
21
19.3250506303681
31
0.000000000000000
  0
LINE
  5
F10974
330
F10975
100
AcDbEntity
8
Geo
100
AcDbLine
10
-23.5174038739521
20
19.3250506303681
30
0.000000000000000
11
-23.4174038739521
21
19.3002268969149
31
0.000000000000000
  0
LINE
  5
F10976
330
F10977
100
AcDbEntity
8
Geo
100
AcDbLine
10
-23.4174038739521
20
19.3002268969149
30
0.000000000000000
11
-23.3174038739521
21
19.2744485751508
31
0.000000000000000
  0
LINE
  5
F10978
330
F10979
100
AcDbEntity
8
Geo
100
AcDbLine
10
-23.3174038739521
20
19.2744485751508
30
0.000000000000000
11
-23.2174038739521
21
19.2477182428865
31
0.000000000000000
  0
LINE
  5
F1097A
330
F1097B
100
AcDbEntity
8
Geo
100
AcDbLine
10
-23.2174038739521
20
19.2477182428865
30
0.000000000000000
11
-23.1174038739521
21
19.2200385731329
31
0.000000000000000
  0
LINE
  5
F1097C
330
F1097D
100
AcDbEntity
8
Geo
100
AcDbLine
10
-23.1174038739521
20
19.2200385731329
30
0.000000000000000
11
-23.0174038739521
21
19.1914123338340
31
0.000000000000000
  0
LINE
  5
F1097E
330
F1097F
100
AcDbEntity
8
Geo
100
AcDbLine
10
-23.0174038739521
20
19.1914123338340
30
0.000000000000000
11
-22.9174038739521
21
19.1618423875897
31
0.000000000000000
  0
LINE
  5
F10980
330
F10981
100
AcDbEntity
8
Geo
100
AcDbLine
10
-22.9174038739521
20
19.1618423875897
30
0.000000000000000
11
-22.8174038739521
21
19.1313316913702
31
0.000000000000000
  0
LINE
  5
F10982
330
F10983
100
AcDbEntity
8
Geo
100
AcDbLine
10
-22.8174038739521
20
19.1313316913702
30
0.000000000000000
11
-22.7174038739521
21
19.0998832962195
31
0.000000000000000
  0
LINE
  5
F10984
330
F10985
100
AcDbEntity
8
Geo
100
AcDbLine
10
-22.7174038739521
20
19.0998832962195
30
0.000000000000000
11
-22.6174038739521
21
19.0675003469510
31
0.000000000000000
  0
LINE
  5
F10986
330
F10987
100
AcDbEntity
8
Geo
100
AcDbLine
10
-22.6174038739521
20
19.0675003469510
30
0.000000000000000
11
-22.5174038739521
21
19.0341860818326
31
0.000000000000000
  0
LINE
  5
F10988
330
F10989
100
AcDbEntity
8
Geo
100
AcDbLine
10
-22.5174038739521
20
19.0341860818326
30
0.000000000000000
11
-22.4174038739521
21
18.9999438322631
31
0.000000000000000
  0
LINE
  5
F1098A
330
F1098B
100
AcDbEntity
8
Geo
100
AcDbLine
10
-22.4174038739521
20
18.9999438322631
30
0.000000000000000
11
-22.3174038739521
21
18.9647770224389
31
0.000000000000000
  0
LINE
  5
F1098C
330
F1098D
100
AcDbEntity
8
Geo
100
AcDbLine
10
-22.3174038739521
20
18.9647770224389
30
0.000000000000000
11
-22.2174038739521
21
18.9286891690117
31
0.000000000000000
  0
LINE
  5
F1098E
330
F1098F
100
AcDbEntity
8
Geo
100
AcDbLine
10
-22.2174038739521
20
18.9286891690117
30
0.000000000000000
11
-22.1174038739521
21
18.8916838807368
31
0.000000000000000
  0
LINE
  5
F10990
330
F10991
100
AcDbEntity
8
Geo
100
AcDbLine
10
-22.1174038739521
20
18.8916838807368
30
0.000000000000000
11
-22.0174038739521
21
18.8537648581121
31
0.000000000000000
  0
LINE
  5
F10992
330
F10993
100
AcDbEntity
8
Geo
100
AcDbLine
10
-22.0174038739521
20
18.8537648581121
30
0.000000000000000
11
-21.9174038739521
21
18.8149358930083
31
0.000000000000000
  0
LINE
  5
F10994
330
F10995
100
AcDbEntity
8
Geo
100
AcDbLine
10
-21.9174038739521
20
18.8149358930083
30
0.000000000000000
11
-21.8174038739521
21
18.7752008682895
31
0.000000000000000
  0
LINE
  5
F10996
330
F10997
100
AcDbEntity
8
Geo
100
AcDbLine
10
-21.8174038739521
20
18.7752008682895
30
0.000000000000000
11
-21.7174038739521
21
18.7345637574252
31
0.000000000000000
  0
LINE
  5
F10998
330
F10999
100
AcDbEntity
8
Geo
100
AcDbLine
10
-21.7174038739521
20
18.7345637574252
30
0.000000000000000
11
-21.6174038739520
21
18.6930286240925
31
0.000000000000000
  0
LINE
  5
F1099A
330
F1099B
100
AcDbEntity
8
Geo
100
AcDbLine
10
-21.6174038739520
20
18.6930286240925
30
0.000000000000000
11
-21.5174038739520
21
18.6505996217701
31
0.000000000000000
  0
LINE
  5
F1099C
330
F1099D
100
AcDbEntity
8
Geo
100
AcDbLine
10
-21.5174038739520
20
18.6505996217701
30
0.000000000000000
11
-21.4174038739520
21
18.6072809933230
31
0.000000000000000
  0
LINE
  5
F1099E
330
F1099F
100
AcDbEntity
8
Geo
100
AcDbLine
10
-21.4174038739520
20
18.6072809933230
30
0.000000000000000
11
-21.3174038739520
21
18.5630770705779
31
0.000000000000000
  0
LINE
  5
F109A0
330
F109A1
100
AcDbEntity
8
Geo
100
AcDbLine
10
-21.3174038739520
20
18.5630770705779
30
0.000000000000000
11
-21.2174038739520
21
18.5179922738902
31
0.000000000000000
  0
LINE
  5
F109A2
330
F109A3
100
AcDbEntity
8
Geo
100
AcDbLine
10
-21.2174038739520
20
18.5179922738902
30
0.000000000000000
11
-21.1174038739520
21
18.4720311117020
31
0.000000000000000
  0
LINE
  5
F109A4
330
F109A5
100
AcDbEntity
8
Geo
100
AcDbLine
10
-21.1174038739520
20
18.4720311117020
30
0.000000000000000
11
-21.0174038739520
21
18.4251981800912
31
0.000000000000000
  0
LINE
  5
F109A6
330
F109A7
100
AcDbEntity
8
Geo
100
AcDbLine
10
-21.0174038739520
20
18.4251981800912
30
0.000000000000000
11
-20.9174038739520
21
18.3774981623120
31
0.000000000000000
  0
LINE
  5
F109A8
330
F109A9
100
AcDbEntity
8
Geo
100
AcDbLine
10
-20.9174038739520
20
18.3774981623120
30
0.000000000000000
11
-20.8174038739520
21
18.3289358283264
31
0.000000000000000
  0
LINE
  5
F109AA
330
F109AB
100
AcDbEntity
8
Geo
100
AcDbLine
10
-40.7174038739521
20
19.5806160605522
30
0.000000000000000
11
-40.6174038739520
21
19.5702768336591
31
0.000000000000000
  0
LINE
  5
F109AC
330
F109AD
100
AcDbEntity
8
Geo
100
AcDbLine
10
-40.6174038739520
20
19.5702768336591
30
0.000000000000000
11
-40.5174038739520
21
19.5589560136864
31
0.000000000000000
  0
LINE
  5
F109AE
330
F109AF
100
AcDbEntity
8
Geo
100
AcDbLine
10
-40.5174038739520
20
19.5589560136864
30
0.000000000000000
11
-40.4174038739521
21
19.5466547327067
31
0.000000000000000
  0
LINE
  5
F109B0
330
F109B1
100
AcDbEntity
8
Geo
100
AcDbLine
10
-40.4174038739521
20
19.5466547327067
30
0.000000000000000
11
-40.3174038739521
21
19.5333742208379
31
0.000000000000000
  0
LINE
  5
F109B2
330
F109B3
100
AcDbEntity
8
Geo
100
AcDbLine
10
-40.3174038739521
20
19.5333742208379
30
0.000000000000000
11
-40.2174038739521
21
19.5191158061200
31
0.000000000000000
  0
LINE
  5
F109B4
330
F109B5
100
AcDbEntity
8
Geo
100
AcDbLine
10
-40.2174038739521
20
19.5191158061200
30
0.000000000000000
11
-40.1174038739520
21
19.5038809143827
31
0.000000000000000
  0
LINE
  5
F109B6
330
F109B7
100
AcDbEntity
8
Geo
100
AcDbLine
10
-40.1174038739520
20
19.5038809143827
30
0.000000000000000
11
-40.0174038739520
21
19.4876710691024
31
0.000000000000000
  0
LINE
  5
F109B8
330
F109B9
100
AcDbEntity
8
Geo
100
AcDbLine
10
-40.0174038739520
20
19.4876710691024
30
0.000000000000000
11
-39.9174038739521
21
19.4704878912502
31
0.000000000000000
  0
LINE
  5
F109BA
330
F109BB
100
AcDbEntity
8
Geo
100
AcDbLine
10
-39.9174038739521
20
19.4704878912502
30
0.000000000000000
11
-39.8174038739521
21
19.4523330991295
31
0.000000000000000
  0
LINE
  5
F109BC
330
F109BD
100
AcDbEntity
8
Geo
100
AcDbLine
10
-39.8174038739521
20
19.4523330991295
30
0.000000000000000
11
-39.7174038739521
21
19.4332085082044
31
0.000000000000000
  0
LINE
  5
F109BE
330
F109BF
100
AcDbEntity
8
Geo
100
AcDbLine
10
-39.7174038739521
20
19.4332085082044
30
0.000000000000000
11
-39.6174038739520
21
19.4131160309181
31
0.000000000000000
  0
LINE
  5
F109C0
330
F109C1
100
AcDbEntity
8
Geo
100
AcDbLine
10
-39.6174038739520
20
19.4131160309181
30
0.000000000000000
11
-39.5174038739520
21
19.3920576765015
31
0.000000000000000
  0
LINE
  5
F109C2
330
F109C3
100
AcDbEntity
8
Geo
100
AcDbLine
10
-39.5174038739520
20
19.3920576765015
30
0.000000000000000
11
-39.4174038739521
21
19.3700355507725
31
0.000000000000000
  0
LINE
  5
F109C4
330
F109C5
100
AcDbEntity
8
Geo
100
AcDbLine
10
-39.4174038739521
20
19.3700355507725
30
0.000000000000000
11
-39.3174038739521
21
19.3470518559255
31
0.000000000000000
  0
LINE
  5
F109C6
330
F109C7
100
AcDbEntity
8
Geo
100
AcDbLine
10
-39.3174038739521
20
19.3470518559255
30
0.000000000000000
11
-39.2174038739521
21
19.3231088903106
31
0.000000000000000
  0
LINE
  5
F109C8
330
F109C9
100
AcDbEntity
8
Geo
100
AcDbLine
10
-39.2174038739521
20
19.3231088903106
30
0.000000000000000
11
-39.1174038739520
21
19.2982090482045
31
0.000000000000000
  0
LINE
  5
F109CA
330
F109CB
100
AcDbEntity
8
Geo
100
AcDbLine
10
-39.1174038739520
20
19.2982090482045
30
0.000000000000000
11
-39.0174038739520
21
19.2723548195706
31
0.000000000000000
  0
LINE
  5
F109CC
330
F109CD
100
AcDbEntity
8
Geo
100
AcDbLine
10
-39.0174038739520
20
19.2723548195706
30
0.000000000000000
11
-38.9174038739521
21
19.2455487898104
31
0.000000000000000
  0
LINE
  5
F109CE
330
F109CF
100
AcDbEntity
8
Geo
100
AcDbLine
10
-38.9174038739521
20
19.2455487898104
30
0.000000000000000
11
-38.8174038739521
21
19.2177936395044
31
0.000000000000000
  0
LINE
  5
F109D0
330
F109D1
100
AcDbEntity
8
Geo
100
AcDbLine
10
-38.8174038739521
20
19.2177936395044
30
0.000000000000000
11
-38.7174038739521
21
19.1890921441445
31
0.000000000000000
  0
LINE
  5
F109D2
330
F109D3
100
AcDbEntity
8
Geo
100
AcDbLine
10
-38.7174038739521
20
19.1890921441445
30
0.000000000000000
11
-38.6174038739520
21
19.1594471738563
31
0.000000000000000
  0
LINE
  5
F109D4
330
F109D5
100
AcDbEntity
8
Geo
100
AcDbLine
10
-38.6174038739520
20
19.1594471738563
30
0.000000000000000
11
-38.5174038739520
21
19.1288616931122
31
0.000000000000000
  0
LINE
  5
F109D6
330
F109D7
100
AcDbEntity
8
Geo
100
AcDbLine
10
-38.5174038739520
20
19.1288616931122
30
0.000000000000000
11
-38.4174038739521
21
19.0973387604347
31
0.000000000000000
  0
LINE
  5
F109D8
330
F109D9
100
AcDbEntity
8
Geo
100
AcDbLine
10
-38.4174038739521
20
19.0973387604347
30
0.000000000000000
11
-38.3174038739521
21
19.0648815280909
31
0.000000000000000
  0
LINE
  5
F109DA
330
F109DB
100
AcDbEntity
8
Geo
100
AcDbLine
10
-38.3174038739521
20
19.0648815280909
30
0.000000000000000
11
-38.2174038739521
21
19.0314932417769
31
0.000000000000000
  0
LINE
  5
F109DC
330
F109DD
100
AcDbEntity
8
Geo
100
AcDbLine
10
-38.2174038739521
20
19.0314932417769
30
0.000000000000000
11
-38.1174038739520
21
18.9971772402936
31
0.000000000000000
  0
LINE
  5
F109DE
330
F109DF
100
AcDbEntity
8
Geo
100
AcDbLine
10
-38.1174038739520
20
18.9971772402936
30
0.000000000000000
11
-38.0174038739520
21
18.9619369552125
31
0.000000000000000
  0
LINE
  5
F109E0
330
F109E1
100
AcDbEntity
8
Geo
100
AcDbLine
10
-38.0174038739520
20
18.9619369552125
30
0.000000000000000
11
-37.9174038739520
21
18.9257759105327
31
0.000000000000000
  0
LINE
  5
F109E2
330
F109E3
100
AcDbEntity
8
Geo
100
AcDbLine
10
-37.9174038739520
20
18.9257759105327
30
0.000000000000000
11
-37.8174038739521
21
18.8886977223285
31
0.000000000000000
  0
LINE
  5
F109E4
330
F109E5
100
AcDbEntity
8
Geo
100
AcDbLine
10
-37.8174038739521
20
18.8886977223285
30
0.000000000000000
11
-37.7174038739521
21
18.8507060983880
31
0.000000000000000
  0
LINE
  5
F109E6
330
F109E7
100
AcDbEntity
8
Geo
100
AcDbLine
10
-37.7174038739521
20
18.8507060983880
30
0.000000000000000
11
-37.6174038739520
21
18.8118048378418
31
0.000000000000000
  0
LINE
  5
F109E8
330
F109E9
100
AcDbEntity
8
Geo
100
AcDbLine
10
-37.6174038739520
20
18.8118048378418
30
0.000000000000000
11
-37.5174038739520
21
18.7719978307835
31
0.000000000000000
  0
LINE
  5
F109EA
330
F109EB
100
AcDbEntity
8
Geo
100
AcDbLine
10
-37.5174038739520
20
18.7719978307835
30
0.000000000000000
11
-37.4174038739520
21
18.7312890578808
31
0.000000000000000
  0
LINE
  5
F109EC
330
F109ED
100
AcDbEntity
8
Geo
100
AcDbLine
10
-37.4174038739520
20
18.7312890578808
30
0.000000000000000
11
-37.3174038739521
21
18.6896825899769
31
0.000000000000000
  0
LINE
  5
F109EE
330
F109EF
100
AcDbEntity
8
Geo
100
AcDbLine
10
-37.3174038739521
20
18.6896825899769
30
0.000000000000000
11
-37.2174038739521
21
18.6471825876839
31
0.000000000000000
  0
LINE
  5
F109F0
330
F109F1
100
AcDbEntity
8
Geo
100
AcDbLine
10
-37.2174038739521
20
18.6471825876839
30
0.000000000000000
11
-37.1174038739520
21
18.6037933009668
31
0.000000000000000
  0
LINE
  5
F109F2
330
F109F3
100
AcDbEntity
8
Geo
100
AcDbLine
10
-37.1174038739520
20
18.6037933009668
30
0.000000000000000
11
-37.0174038739520
21
18.5595190687180
31
0.000000000000000
  0
LINE
  5
F109F4
330
F109F5
100
AcDbEntity
8
Geo
100
AcDbLine
10
-37.0174038739520
20
18.5595190687180
30
0.000000000000000
11
-36.9174038739520
21
18.5143643183238
31
0.000000000000000
  0
LINE
  5
F109F6
330
F109F7
100
AcDbEntity
8
Geo
100
AcDbLine
10
-36.9174038739520
20
18.5143643183238
30
0.000000000000000
11
-36.8174038739520
21
18.4683335652217
31
0.000000000000000
  0
LINE
  5
F109F8
330
F109F9
100
AcDbEntity
8
Geo
100
AcDbLine
10
-36.8174038739520
20
18.4683335652217
30
0.000000000000000
11
-36.7174038739521
21
18.4214314124486
31
0.000000000000000
  0
LINE
  5
F109FA
330
F109FB
100
AcDbEntity
8
Geo
100
AcDbLine
10
-36.7174038739521
20
18.4214314124486
30
0.000000000000000
11
-36.6174038739520
21
18.3736625501807
31
0.000000000000000
  0
LINE
  5
F109FC
330
F109FD
100
AcDbEntity
8
Geo
100
AcDbLine
10
-36.6174038739520
20
18.3736625501807
30
0.000000000000000
11
-36.5174038739520
21
18.3250317552644
31
0.000000000000000
  0
LINE
  5
F109FE
330
F109FF
100
AcDbEntity
8
Geo
100
AcDbLine
10
-36.5174038739520
20
18.3250317552644
30
0.000000000000000
11
-36.4174038739521
21
18.2755438907386
31
0.000000000000000
  0
LINE
  5
F10A00
330
F10A01
100
AcDbEntity
8
Geo
100
AcDbLine
10
-36.4174038739521
20
18.2755438907386
30
0.000000000000000
11
-36.3174038739521
21
18.2252039053487
31
0.000000000000000
  0
LINE
  5
F10A02
330
F10A03
100
AcDbEntity
8
Geo
100
AcDbLine
10
-36.3174038739521
20
18.2252039053487
30
0.000000000000000
11
-36.2174038739521
21
18.1740168330511
31
0.000000000000000
  0
LINE
  5
F10A04
330
F10A05
100
AcDbEntity
8
Geo
100
AcDbLine
10
-36.2174038739521
20
18.1740168330511
30
0.000000000000000
11
-36.1174038739520
21
18.1219877925105
31
0.000000000000000
  0
LINE
  5
F10A06
330
F10A07
100
AcDbEntity
8
Geo
100
AcDbLine
10
-36.1174038739520
20
18.1219877925105
30
0.000000000000000
11
-36.0174038739520
21
18.0691219865875
31
0.000000000000000
  0
LINE
  5
F10A08
330
F10A09
100
AcDbEntity
8
Geo
100
AcDbLine
10
-36.0174038739520
20
18.0691219865875
30
0.000000000000000
11
-35.9174038739521
21
18.0154247018187
31
0.000000000000000
  0
LINE
  5
F10A0A
330
F10A0B
100
AcDbEntity
8
Geo
100
AcDbLine
10
-35.9174038739521
20
18.0154247018187
30
0.000000000000000
11
-35.8174038739521
21
17.9609013078879
31
0.000000000000000
  0
LINE
  5
F10A0C
330
F10A0D
100
AcDbEntity
8
Geo
100
AcDbLine
10
-35.8174038739521
20
17.9609013078879
30
0.000000000000000
11
-35.7174038739521
21
17.9055572570889
31
0.000000000000000
  0
LINE
  5
F10A0E
330
F10A0F
100
AcDbEntity
8
Geo
100
AcDbLine
10
-35.7174038739521
20
17.9055572570889
30
0.000000000000000
11
-35.6174038739521
21
17.8493980837807
31
0.000000000000000
  0
LINE
  5
F10A10
330
F10A11
100
AcDbEntity
8
Geo
100
AcDbLine
10
-35.6174038739521
20
17.8493980837807
30
0.000000000000000
11
-35.5174038739521
21
17.7924294038339
31
0.000000000000000
  0
LINE
  5
F10A12
330
F10A13
100
AcDbEntity
8
Geo
100
AcDbLine
10
-35.5174038739521
20
17.7924294038339
30
0.000000000000000
11
-35.4174038739521
21
17.7346569140690
31
0.000000000000000
  0
LINE
  5
F10A14
330
F10A15
100
AcDbEntity
8
Geo
100
AcDbLine
10
-35.4174038739521
20
17.7346569140690
30
0.000000000000000
11
-35.3174038739521
21
17.6760863916869
31
0.000000000000000
  0
LINE
  5
F10A16
330
F10A17
100
AcDbEntity
8
Geo
100
AcDbLine
10
-35.3174038739521
20
17.6760863916869
30
0.000000000000000
11
-35.2174038739521
21
17.6167236936908
31
0.000000000000000
  0
LINE
  5
F10A18
330
F10A19
100
AcDbEntity
8
Geo
100
AcDbLine
10
-35.2174038739521
20
17.6167236936908
30
0.000000000000000
11
-35.1174038739521
21
17.5565747563013
31
0.000000000000000
  0
LINE
  5
F10A1A
330
F10A1B
100
AcDbEntity
8
Geo
100
AcDbLine
10
-35.1174038739521
20
17.5565747563013
30
0.000000000000000
11
-35.0174038739521
21
17.4956455943618
31
0.000000000000000
  0
LINE
  5
F10A1C
330
F10A1D
100
AcDbEntity
8
Geo
100
AcDbLine
10
-35.0174038739521
20
17.4956455943618
30
0.000000000000000
11
-34.9174038739521
21
17.4339423007379
31
0.000000000000000
  0
LINE
  5
F10A1E
330
F10A1F
100
AcDbEntity
8
Geo
100
AcDbLine
10
-34.9174038739521
20
17.4339423007379
30
0.000000000000000
11
-34.8174038739521
21
17.3714710457074
31
0.000000000000000
  0
LINE
  5
F10A20
330
F10A21
100
AcDbEntity
8
Geo
100
AcDbLine
10
-34.8174038739521
20
17.3714710457074
30
0.000000000000000
11
-34.7174038739521
21
17.3082380763438
31
0.000000000000000
  0
LINE
  5
F10A22
330
F10A23
100
AcDbEntity
8
Geo
100
AcDbLine
10
-34.7174038739521
20
17.3082380763438
30
0.000000000000000
11
-34.6174038739521
21
17.2442497158914
31
0.000000000000000
  0
LINE
  5
F10A24
330
F10A25
100
AcDbEntity
8
Geo
100
AcDbLine
10
-34.6174038739521
20
17.2442497158914
30
0.000000000000000
11
-34.5174038739521
21
17.1795123631329
31
0.000000000000000
  0
LINE
  5
F10A26
330
F10A27
100
AcDbEntity
8
Geo
100
AcDbLine
10
-34.5174038739521
20
17.1795123631329
30
0.000000000000000
11
-34.4174038739521
21
17.1140324917495
31
0.000000000000000
  0
LINE
  5
F10A28
330
F10A29
100
AcDbEntity
8
Geo
100
AcDbLine
10
-34.4174038739521
20
17.1140324917495
30
0.000000000000000
11
-34.3174038739521
21
17.0478166496739
31
0.000000000000000
  0
LINE
  5
F10A2A
330
F10A2B
100
AcDbEntity
8
Geo
100
AcDbLine
10
-34.3174038739521
20
17.0478166496739
30
0.000000000000000
11
-34.2174038739521
21
16.9808714584351
31
0.000000000000000
  0
LINE
  5
F10A2C
330
F10A2D
100
AcDbEntity
8
Geo
100
AcDbLine
10
-34.2174038739521
20
16.9808714584351
30
0.000000000000000
11
-34.1174038739521
21
16.9132036124964
31
0.000000000000000
  0
LINE
  5
F10A2E
330
F10A2F
100
AcDbEntity
8
Geo
100
AcDbLine
10
-34.1174038739521
20
16.9132036124964
30
0.000000000000000
11
-34.0174038739521
21
16.8448198785861
31
0.000000000000000
  0
LINE
  5
F10A30
330
F10A31
100
AcDbEntity
8
Geo
100
AcDbLine
10
-34.0174038739521
20
16.8448198785861
30
0.000000000000000
11
-33.9174038739521
21
16.7757270950205
31
0.000000000000000
  0
LINE
  5
F10A32
330
F10A33
100
AcDbEntity
8
Geo
100
AcDbLine
10
-33.9174038739521
20
16.7757270950205
30
0.000000000000000
11
-33.8174038739521
21
16.7059321710204
31
0.000000000000000
  0
LINE
  5
F10A34
330
F10A35
100
AcDbEntity
8
Geo
100
AcDbLine
10
-33.8174038739521
20
16.7059321710204
30
0.000000000000000
11
-33.7174038739521
21
16.6354420860200
31
0.000000000000000
  0
LINE
  5
F10A36
330
F10A37
100
AcDbEntity
8
Geo
100
AcDbLine
10
-33.7174038739521
20
16.6354420860200
30
0.000000000000000
11
-33.6174038739521
21
16.5642638889692
31
0.000000000000000
  0
LINE
  5
F10A38
330
F10A39
100
AcDbEntity
8
Geo
100
AcDbLine
10
-33.6174038739521
20
16.5642638889692
30
0.000000000000000
11
-33.5174038739521
21
16.4924046976283
31
0.000000000000000
  0
LINE
  5
F10A3A
330
F10A3B
100
AcDbEntity
8
Geo
100
AcDbLine
10
-33.5174038739521
20
16.4924046976283
30
0.000000000000000
11
-33.4174038739521
21
16.4198716978566
31
0.000000000000000
  0
LINE
  5
F10A3C
330
F10A3D
100
AcDbEntity
8
Geo
100
AcDbLine
10
-33.4174038739521
20
16.4198716978566
30
0.000000000000000
11
-33.3174038739521
21
16.3466721428935
31
0.000000000000000
  0
LINE
  5
F10A3E
330
F10A3F
100
AcDbEntity
8
Geo
100
AcDbLine
10
-33.3174038739521
20
16.3466721428935
30
0.000000000000000
11
-33.2174038739521
21
16.2728133526337
31
0.000000000000000
  0
LINE
  5
F10A40
330
F10A41
100
AcDbEntity
8
Geo
100
AcDbLine
10
-33.2174038739521
20
16.2728133526337
30
0.000000000000000
11
-33.1174038739521
21
16.1983027128944
31
0.000000000000000
  0
LINE
  5
F10A42
330
F10A43
100
AcDbEntity
8
Geo
100
AcDbLine
10
-33.1174038739521
20
16.1983027128944
30
0.000000000000000
11
-33.0174038739521
21
16.1231476746778
31
0.000000000000000
  0
LINE
  5
F10A44
330
F10A45
100
AcDbEntity
8
Geo
100
AcDbLine
10
-33.0174038739521
20
16.1231476746778
30
0.000000000000000
11
-32.9174038739521
21
16.0473557534249
31
0.000000000000000
  0
LINE
  5
F10A46
330
F10A47
100
AcDbEntity
8
Geo
100
AcDbLine
10
-32.9174038739521
20
16.0473557534249
30
0.000000000000000
11
-32.8174038739521
21
15.9709345282647
31
0.000000000000000
  0
LINE
  5
F10A48
330
F10A49
100
AcDbEntity
8
Geo
100
AcDbLine
10
-32.8174038739521
20
15.9709345282647
30
0.000000000000000
11
-32.7174038739521
21
15.8938916412560
31
0.000000000000000
  0
LINE
  5
F10A4A
330
F10A4B
100
AcDbEntity
8
Geo
100
AcDbLine
10
-32.7174038739521
20
15.8938916412560
30
0.000000000000000
11
-32.6174038739521
21
15.8162347966233
31
0.000000000000000
  0
LINE
  5
F10A4C
330
F10A4D
100
AcDbEntity
8
Geo
100
AcDbLine
10
-32.6174038739521
20
15.8162347966233
30
0.000000000000000
11
-32.5174038739521
21
15.7379717599865
31
0.000000000000000
  0
LINE
  5
F10A4E
330
F10A4F
100
AcDbEntity
8
Geo
100
AcDbLine
10
-32.5174038739521
20
15.7379717599865
30
0.000000000000000
11
-32.4174038739521
21
15.6591103575839
31
0.000000000000000
  0
LINE
  5
F10A50
330
F10A51
100
AcDbEntity
8
Geo
100
AcDbLine
10
-32.4174038739521
20
15.6591103575839
30
0.000000000000000
11
-32.3174038739521
21
15.5796584754900
31
0.000000000000000
  0
LINE
  5
F10A52
330
F10A53
100
AcDbEntity
8
Geo
100
AcDbLine
10
-32.3174038739521
20
15.5796584754900
30
0.000000000000000
11
-32.2174038739521
21
15.4996240588269
31
0.000000000000000
  0
LINE
  5
F10A54
330
F10A55
100
AcDbEntity
8
Geo
100
AcDbLine
10
-32.2174038739521
20
15.4996240588269
30
0.000000000000000
11
-32.1174038739521
21
15.4190151109695
31
0.000000000000000
  0
LINE
  5
F10A56
330
F10A57
100
AcDbEntity
8
Geo
100
AcDbLine
10
-32.1174038739521
20
15.4190151109695
30
0.000000000000000
11
-32.0174038739521
21
15.3378396927454
31
0.000000000000000
  0
LINE
  5
F10A58
330
F10A59
100
AcDbEntity
8
Geo
100
AcDbLine
10
-32.0174038739521
20
15.3378396927454
30
0.000000000000000
11
-31.9174038739521
21
15.2561059216288
31
0.000000000000000
  0
LINE
  5
F10A5A
330
F10A5B
100
AcDbEntity
8
Geo
100
AcDbLine
10
-31.9174038739521
20
15.2561059216288
30
0.000000000000000
11
-31.8174038739521
21
15.1738219709288
31
0.000000000000000
  0
LINE
  5
F10A5C
330
F10A5D
100
AcDbEntity
8
Geo
100
AcDbLine
10
-31.8174038739521
20
15.1738219709288
30
0.000000000000000
11
-31.7174038739521
21
15.0909960689718
31
0.000000000000000
  0
LINE
  5
F10A5E
330
F10A5F
100
AcDbEntity
8
Geo
100
AcDbLine
10
-31.7174038739521
20
15.0909960689718
30
0.000000000000000
11
-31.6174038739521
21
15.0076364982789
31
0.000000000000000
  0
LINE
  5
F10A60
330
F10A61
100
AcDbEntity
8
Geo
100
AcDbLine
10
-31.6174038739521
20
15.0076364982789
30
0.000000000000000
11
-31.5174038739521
21
14.9237515947379
31
0.000000000000000
  0
LINE
  5
F10A62
330
F10A63
100
AcDbEntity
8
Geo
100
AcDbLine
10
-31.5174038739521
20
14.9237515947379
30
0.000000000000000
11
-31.4174038739521
21
14.8393497467691
31
0.000000000000000
  0
LINE
  5
F10A64
330
F10A65
100
AcDbEntity
8
Geo
100
AcDbLine
10
-31.4174038739521
20
14.8393497467691
30
0.000000000000000
11
-31.3174038739521
21
14.7544393944870
31
0.000000000000000
  0
LINE
  5
F10A66
330
F10A67
100
AcDbEntity
8
Geo
100
AcDbLine
10
-31.3174038739521
20
14.7544393944870
30
0.000000000000000
11
-31.2174038739521
21
14.6690290288560
31
0.000000000000000
  0
LINE
  5
F10A68
330
F10A69
100
AcDbEntity
8
Geo
100
AcDbLine
10
-31.2174038739521
20
14.6690290288560
30
0.000000000000000
11
-31.1174038739521
21
14.5831271908416
31
0.000000000000000
  0
LINE
  5
F10A6A
330
F10A6B
100
AcDbEntity
8
Geo
100
AcDbLine
10
-31.1174038739521
20
14.5831271908416
30
0.000000000000000
11
-31.0174038739521
21
14.4967424705560
31
0.000000000000000
  0
LINE
  5
F10A6C
330
F10A6D
100
AcDbEntity
8
Geo
100
AcDbLine
10
-31.0174038739521
20
14.4967424705560
30
0.000000000000000
11
-30.9174038739521
21
14.4098835063992
31
0.000000000000000
  0
LINE
  5
F10A6E
330
F10A6F
100
AcDbEntity
8
Geo
100
AcDbLine
10
-30.9174038739521
20
14.4098835063992
30
0.000000000000000
11
-30.8174038739521
21
14.3225589841953
31
0.000000000000000
  0
LINE
  5
F10A70
330
F10A71
100
AcDbEntity
8
Geo
100
AcDbLine
10
-30.8174038739521
20
14.3225589841953
30
0.000000000000000
11
-30.7174038739521
21
14.2347776363237
31
0.000000000000000
  0
LINE
  5
F10A72
330
F10A73
100
AcDbEntity
8
Geo
100
AcDbLine
10
-30.7174038739521
20
14.2347776363237
30
0.000000000000000
11
-30.6174038739521
21
14.1465482408460
31
0.000000000000000
  0
LINE
  5
F10A74
330
F10A75
100
AcDbEntity
8
Geo
100
AcDbLine
10
-30.6174038739521
20
14.1465482408460
30
0.000000000000000
11
-30.5174038739521
21
14.0578796206283
31
0.000000000000000
  0
LINE
  5
F10A76
330
F10A77
100
AcDbEntity
8
Geo
100
AcDbLine
10
-30.5174038739521
20
14.0578796206283
30
0.000000000000000
11
-30.4174038739521
21
13.9687806424586
31
0.000000000000000
  0
LINE
  5
F10A78
330
F10A79
100
AcDbEntity
8
Geo
100
AcDbLine
10
-30.4174038739521
20
13.9687806424586
30
0.000000000000000
11
-30.3174038739521
21
13.8792602161607
31
0.000000000000000
  0
LINE
  5
F10A7A
330
F10A7B
100
AcDbEntity
8
Geo
100
AcDbLine
10
-30.3174038739521
20
13.8792602161607
30
0.000000000000000
11
-30.2174038739521
21
13.7893272937024
31
0.000000000000000
  0
LINE
  5
F10A7C
330
F10A7D
100
AcDbEntity
8
Geo
100
AcDbLine
10
-30.2174038739521
20
13.7893272937024
30
0.000000000000000
11
-30.1174038739521
21
13.6989908683011
31
0.000000000000000
  0
LINE
  5
F10A7E
330
F10A7F
100
AcDbEntity
8
Geo
100
AcDbLine
10
-30.1174038739521
20
13.6989908683011
30
0.000000000000000
11
-30.0174038739521
21
13.6082599735240
31
0.000000000000000
  0
LINE
  5
F10A80
330
F10A81
100
AcDbEntity
8
Geo
100
AcDbLine
10
-30.0174038739521
20
13.6082599735240
30
0.000000000000000
11
-29.9174038739521
21
13.5171436823851
31
0.000000000000000
  0
LINE
  5
F10A82
330
F10A83
100
AcDbEntity
8
Geo
100
AcDbLine
10
-29.9174038739521
20
13.5171436823851
30
0.000000000000000
11
-29.8174038739521
21
13.4256511064375
31
0.000000000000000
  0
LINE
  5
F10A84
330
F10A85
100
AcDbEntity
8
Geo
100
AcDbLine
10
-29.8174038739521
20
13.4256511064375
30
0.000000000000000
11
-29.7174038739521
21
13.3337913948626
31
0.000000000000000
  0
LINE
  5
F10A86
330
F10A87
100
AcDbEntity
8
Geo
100
AcDbLine
10
-29.7174038739521
20
13.3337913948626
30
0.000000000000000
11
-29.6174038739521
21
13.2415737335549
31
0.000000000000000
  0
LINE
  5
F10A88
330
F10A89
100
AcDbEntity
8
Geo
100
AcDbLine
10
-29.6174038739521
20
13.2415737335549
30
0.000000000000000
11
-29.5174038739521
21
13.1490073442037
31
0.000000000000000
  0
LINE
  5
F10A8A
330
F10A8B
100
AcDbEntity
8
Geo
100
AcDbLine
10
-29.5174038739521
20
13.1490073442037
30
0.000000000000000
11
-29.4174038739521
21
13.0561014833709
31
0.000000000000000
  0
LINE
  5
F10A8C
330
F10A8D
100
AcDbEntity
8
Geo
100
AcDbLine
10
-29.4174038739521
20
13.0561014833709
30
0.000000000000000
11
-29.3174038739521
21
12.9628654415651
31
0.000000000000000
  0
LINE
  5
F10A8E
330
F10A8F
100
AcDbEntity
8
Geo
100
AcDbLine
10
-29.3174038739521
20
12.9628654415651
30
0.000000000000000
11
-29.2174038739521
21
12.8693085423128
31
0.000000000000000
  0
LINE
  5
F10A90
330
F10A91
100
AcDbEntity
8
Geo
100
AcDbLine
10
-29.2174038739521
20
12.8693085423128
30
0.000000000000000
11
-29.1174038739521
21
12.7754401412260
31
0.000000000000000
  0
LINE
  5
F10A92
330
F10A93
100
AcDbEntity
8
Geo
100
AcDbLine
10
-29.1174038739521
20
12.7754401412260
30
0.000000000000000
11
-29.0174038739521
21
12.6812696250665
31
0.000000000000000
  0
LINE
  5
F10A94
330
F10A95
100
AcDbEntity
8
Geo
100
AcDbLine
10
-29.0174038739521
20
12.6812696250665
30
0.000000000000000
11
-28.9174038739521
21
12.5868064108075
31
0.000000000000000
  0
LINE
  5
F10A96
330
F10A97
100
AcDbEntity
8
Geo
100
AcDbLine
10
-28.9174038739521
20
12.5868064108075
30
0.000000000000000
11
-28.8174038739521
21
12.4920599446916
31
0.000000000000000
  0
LINE
  5
F10A98
330
F10A99
100
AcDbEntity
8
Geo
100
AcDbLine
10
-28.8174038739521
20
12.4920599446916
30
0.000000000000000
11
-28.7174038739521
21
12.3970397012866
31
0.000000000000000
  0
LINE
  5
F10A9A
330
F10A9B
100
AcDbEntity
8
Geo
100
AcDbLine
10
-28.7174038739521
20
12.3970397012866
30
0.000000000000000
11
-28.6174038739521
21
12.3017551825376
31
0.000000000000000
  0
LINE
  5
F10A9C
330
F10A9D
100
AcDbEntity
8
Geo
100
AcDbLine
10
-28.6174038739521
20
12.3017551825376
30
0.000000000000000
11
-28.5174038739521
21
12.2062159168171
31
0.000000000000000
  0
LINE
  5
F10A9E
330
F10A9F
100
AcDbEntity
8
Geo
100
AcDbLine
10
-28.5174038739521
20
12.2062159168171
30
0.000000000000000
11
-28.4174038739521
21
12.1104314579720
31
0.000000000000000
  0
LINE
  5
F10AA0
330
F10AA1
100
AcDbEntity
8
Geo
100
AcDbLine
10
-28.4174038739521
20
12.1104314579720
30
0.000000000000000
11
-28.3174038739521
21
12.0144113843683
31
0.000000000000000
  0
LINE
  5
F10AA2
330
F10AA3
100
AcDbEntity
8
Geo
100
AcDbLine
10
-28.3174038739521
20
12.0144113843683
30
0.000000000000000
11
-28.2174038739521
21
11.9181652979336
31
0.000000000000000
  0
LINE
  5
F10AA4
330
F10AA5
100
AcDbEntity
8
Geo
100
AcDbLine
10
-28.2174038739521
20
11.9181652979336
30
0.000000000000000
11
-28.1174038739521
21
11.8217028231961
31
0.000000000000000
  0
LINE
  5
F10AA6
330
F10AA7
100
AcDbEntity
8
Geo
100
AcDbLine
10
-28.1174038739521
20
11.8217028231961
30
0.000000000000000
11
-28.0174038739521
21
11.7250336063229
31
0.000000000000000
  0
LINE
  5
F10AA8
330
F10AA9
100
AcDbEntity
8
Geo
100
AcDbLine
10
-28.0174038739521
20
11.7250336063229
30
0.000000000000000
11
-27.9174038739521
21
11.6281673141552
31
0.000000000000000
  0
LINE
  5
F10AAA
330
F10AAB
100
AcDbEntity
8
Geo
100
AcDbLine
10
-27.9174038739521
20
11.6281673141552
30
0.000000000000000
11
-27.8174038739521
21
11.5311136332416
31
0.000000000000000
  0
LINE
  5
F10AAC
330
F10AAD
100
AcDbEntity
8
Geo
100
AcDbLine
10
-27.8174038739521
20
11.5311136332416
30
0.000000000000000
11
-27.7174038739521
21
11.4338822688691
31
0.000000000000000
  0
LINE
  5
F10AAE
330
F10AAF
100
AcDbEntity
8
Geo
100
AcDbLine
10
-27.7174038739521
20
11.4338822688691
30
0.000000000000000
11
-27.6174038739521
21
11.3364829440933
31
0.000000000000000
  0
LINE
  5
F10AB0
330
F10AB1
100
AcDbEntity
8
Geo
100
AcDbLine
10
-27.6174038739521
20
11.3364829440933
30
0.000000000000000
11
-27.5174038739521
21
11.2389253987653
31
0.000000000000000
  0
LINE
  5
F10AB2
330
F10AB3
100
AcDbEntity
8
Geo
100
AcDbLine
10
-27.5174038739521
20
11.2389253987653
30
0.000000000000000
11
-27.4174038739521
21
11.1412193885586
31
0.000000000000000
  0
LINE
  5
F10AB4
330
F10AB5
100
AcDbEntity
8
Geo
100
AcDbLine
10
-27.4174038739521
20
11.1412193885586
30
0.000000000000000
11
-27.3174038739521
21
11.0433746839925
31
0.000000000000000
  0
LINE
  5
F10AB6
330
F10AB7
100
AcDbEntity
8
Geo
100
AcDbLine
10
-27.3174038739521
20
11.0433746839925
30
0.000000000000000
11
-27.2174038739521
21
10.9454010694562
31
0.000000000000000
  0
LINE
  5
F10AB8
330
F10AB9
100
AcDbEntity
8
Geo
100
AcDbLine
10
-27.2174038739521
20
10.9454010694562
30
0.000000000000000
11
-27.1174038739521
21
10.8473083422294
31
0.000000000000000
  0
LINE
  5
F10ABA
330
F10ABB
100
AcDbEntity
8
Geo
100
AcDbLine
10
-27.1174038739521
20
10.8473083422294
30
0.000000000000000
11
-27.0174038739521
21
10.7491063115030
31
0.000000000000000
  0
LINE
  5
F10ABC
330
F10ABD
100
AcDbEntity
8
Geo
100
AcDbLine
10
-27.0174038739521
20
10.7491063115030
30
0.000000000000000
11
-26.9174038739521
21
10.6508047973983
31
0.000000000000000
  0
LINE
  5
F10ABE
330
F10ABF
100
AcDbEntity
8
Geo
100
AcDbLine
10
-26.9174038739521
20
10.6508047973983
30
0.000000000000000
11
-26.8174038739521
21
10.5524136299848
31
0.000000000000000
  0
LINE
  5
F10AC0
330
F10AC1
100
AcDbEntity
8
Geo
100
AcDbLine
10
-26.8174038739521
20
10.5524136299848
30
0.000000000000000
11
-26.7174038739521
21
10.4539426482973
31
0.000000000000000
  0
LINE
  5
F10AC2
330
F10AC3
100
AcDbEntity
8
Geo
100
AcDbLine
10
-26.7174038739521
20
10.4539426482973
30
0.000000000000000
11
-26.6174038739521
21
10.3554016993518
31
0.000000000000000
  0
LINE
  5
F10AC4
330
F10AC5
100
AcDbEntity
8
Geo
100
AcDbLine
10
-26.6174038739521
20
10.3554016993518
30
0.000000000000000
11
-26.5174038739521
21
10.2568006371611
31
0.000000000000000
  0
LINE
  5
F10AC6
330
F10AC7
100
AcDbEntity
8
Geo
100
AcDbLine
10
-26.5174038739521
20
10.2568006371611
30
0.000000000000000
11
-26.4174038739521
21
10.1581493217494
31
0.000000000000000
  0
LINE
  5
F10AC8
330
F10AC9
100
AcDbEntity
8
Geo
100
AcDbLine
10
-26.4174038739521
20
10.1581493217494
30
0.000000000000000
11
-26.3174038739521
21
10.0594576181658
31
0.000000000000000
  0
LINE
  5
F10ACA
330
F10ACB
100
AcDbEntity
8
Geo
100
AcDbLine
10
-26.3174038739521
20
10.0594576181658
30
0.000000000000000
11
-26.2174038739521
21
9.96073539549861
31
0.000000000000000
  0
LINE
  5
F10ACC
330
F10ACD
100
AcDbEntity
8
Geo
100
AcDbLine
10
-26.2174038739521
20
9.96073539549861
30
0.000000000000000
11
-26.1174038739521
21
9.86199252588773
31
0.000000000000000
  0
LINE
  5
F10ACE
330
F10ACF
100
AcDbEntity
8
Geo
100
AcDbLine
10
-26.1174038739521
20
9.86199252588773
30
0.000000000000000
11
-26.0174038739521
21
9.76323888353785
31
0.000000000000000
  0
LINE
  5
F10AD0
330
F10AD1
100
AcDbEntity
8
Geo
100
AcDbLine
10
-26.0174038739521
20
9.76323888353785
30
0.000000000000000
11
-25.9174038739521
21
9.66448434373092
31
0.000000000000000
  0
LINE
  5
F10AD2
330
F10AD3
100
AcDbEntity
8
Geo
100
AcDbLine
10
-25.9174038739521
20
9.66448434373092
30
0.000000000000000
11
-25.8174038739521
21
9.56573878183862
31
0.000000000000000
  0
LINE
  5
F10AD4
330
F10AD5
100
AcDbEntity
8
Geo
100
AcDbLine
10
-25.8174038739521
20
9.56573878183862
30
0.000000000000000
11
-25.7174038739521
21
9.46701207233485
31
0.000000000000000
  0
LINE
  5
F10AD6
330
F10AD7
100
AcDbEntity
8
Geo
100
AcDbLine
10
-25.7174038739521
20
9.46701207233485
30
0.000000000000000
11
-25.6174038739521
21
9.36831408780830
31
0.000000000000000
  0
LINE
  5
F10AD8
330
F10AD9
100
AcDbEntity
8
Geo
100
AcDbLine
10
-25.6174038739521
20
9.36831408780830
30
0.000000000000000
11
-25.5174038739521
21
9.26965469797517
31
0.000000000000000
  0
LINE
  5
F10ADA
330
F10ADB
100
AcDbEntity
8
Geo
100
AcDbLine
10
-25.5174038739521
20
9.26965469797517
30
0.000000000000000
11
-25.4174038739521
21
9.17104376869221
31
0.000000000000000
  0
LINE
  5
F10ADC
330
F10ADD
100
AcDbEntity
8
Geo
100
AcDbLine
10
-25.4174038739521
20
9.17104376869221
30
0.000000000000000
11
-25.3174038739521
21
9.07249116097020
31
0.000000000000000
  0
LINE
  5
F10ADE
330
F10ADF
100
AcDbEntity
8
Geo
100
AcDbLine
10
-25.3174038739521
20
9.07249116097020
30
0.000000000000000
11
-25.2174038739521
21
8.97400672998777
31
0.000000000000000
  0
LINE
  5
F10AE0
330
F10AE1
100
AcDbEntity
8
Geo
100
AcDbLine
10
-25.2174038739521
20
8.97400672998777
30
0.000000000000000
11
-25.1174038739521
21
8.87560032410595
31
0.000000000000000
  0
LINE
  5
F10AE2
330
F10AE3
100
AcDbEntity
8
Geo
100
AcDbLine
10
-25.1174038739521
20
8.87560032410595
30
0.000000000000000
11
-25.0174038739521
21
8.77728178388333
31
0.000000000000000
  0
LINE
  5
F10AE4
330
F10AE5
100
AcDbEntity
8
Geo
100
AcDbLine
10
-25.0174038739521
20
8.77728178388333
30
0.000000000000000
11
-24.9174038739521
21
8.67906094109198
31
0.000000000000000
  0
LINE
  5
F10AE6
330
F10AE7
100
AcDbEntity
8
Geo
100
AcDbLine
10
-24.9174038739521
20
8.67906094109198
30
0.000000000000000
11
-24.8174038739521
21
8.58094761773435
31
0.000000000000000
  0
LINE
  5
F10AE8
330
F10AE9
100
AcDbEntity
8
Geo
100
AcDbLine
10
-24.8174038739521
20
8.58094761773435
30
0.000000000000000
11
-24.7174038739521
21
8.48295162506101
31
0.000000000000000
  0
LINE
  5
F10AEA
330
F10AEB
100
AcDbEntity
8
Geo
100
AcDbLine
10
-24.7174038739521
20
8.48295162506101
30
0.000000000000000
11
-24.6174038739521
21
8.38508276258957
31
0.000000000000000
  0
LINE
  5
F10AEC
330
F10AED
100
AcDbEntity
8
Geo
100
AcDbLine
10
-24.6174038739521
20
8.38508276258957
30
0.000000000000000
11
-24.5174038739521
21
8.28735081712470
31
0.000000000000000
  0
LINE
  5
F10AEE
330
F10AEF
100
AcDbEntity
8
Geo
100
AcDbLine
10
-24.5174038739521
20
8.28735081712470
30
0.000000000000000
11
-24.4174038739521
21
8.18976556177951
31
0.000000000000000
  0
LINE
  5
F10AF0
330
F10AF1
100
AcDbEntity
8
Geo
100
AcDbLine
10
-24.4174038739521
20
8.18976556177951
30
0.000000000000000
11
-24.3174038739521
21
8.09233675499823
31
0.000000000000000
  0
LINE
  5
F10AF2
330
F10AF3
100
AcDbEntity
8
Geo
100
AcDbLine
10
-24.3174038739521
20
8.09233675499823
30
0.000000000000000
11
-24.2174038739521
21
7.99507413958033
31
0.000000000000000
  0
LINE
  5
F10AF4
330
F10AF5
100
AcDbEntity
8
Geo
100
AcDbLine
10
-24.2174038739521
20
7.99507413958033
30
0.000000000000000
11
-24.1174038739521
21
7.89798744170631
31
0.000000000000000
  0
LINE
  5
F10AF6
330
F10AF7
100
AcDbEntity
8
Geo
100
AcDbLine
10
-24.1174038739521
20
7.89798744170631
30
0.000000000000000
11
-24.0174038739521
21
7.80108636996505
31
0.000000000000000
  0
LINE
  5
F10AF8
330
F10AF9
100
AcDbEntity
8
Geo
100
AcDbLine
10
-24.0174038739521
20
7.80108636996505
30
0.000000000000000
11
-23.9174038739521
21
7.70438061438298
31
0.000000000000000
  0
LINE
  5
F10AFA
330
F10AFB
100
AcDbEntity
8
Geo
100
AcDbLine
10
-23.9174038739521
20
7.70438061438298
30
0.000000000000000
11
-23.8174038739521
21
7.60787984545505
31
0.000000000000000
  0
LINE
  5
F10AFC
330
F10AFD
100
AcDbEntity
8
Geo
100
AcDbLine
10
-23.8174038739521
20
7.60787984545505
30
0.000000000000000
11
-23.7174038739521
21
7.51159371317775
31
0.000000000000000
  0
LINE
  5
F10AFE
330
F10AFF
100
AcDbEntity
8
Geo
100
AcDbLine
10
-23.7174038739521
20
7.51159371317775
30
0.000000000000000
11
-23.6174038739521
21
7.41553184608408
31
0.000000000000000
  0
LINE
  5
F10B00
330
F10B01
100
AcDbEntity
8
Geo
100
AcDbLine
10
-23.6174038739521
20
7.41553184608408
30
0.000000000000000
11
-23.5174038739521
21
7.31970385028067
31
0.000000000000000
  0
LINE
  5
F10B02
330
F10B03
100
AcDbEntity
8
Geo
100
AcDbLine
10
-23.5174038739521
20
7.31970385028067
30
0.000000000000000
11
-23.4174038739521
21
7.22411930848727
31
0.000000000000000
  0
LINE
  5
F10B04
330
F10B05
100
AcDbEntity
8
Geo
100
AcDbLine
10
-23.4174038739521
20
7.22411930848727
30
0.000000000000000
11
-23.3174038739521
21
7.12878777907840
31
0.000000000000000
  0
LINE
  5
F10B06
330
F10B07
100
AcDbEntity
8
Geo
100
AcDbLine
10
-23.3174038739521
20
7.12878777907840
30
0.000000000000000
11
-23.2174038739521
21
7.03371879512755
31
0.000000000000000
  0
LINE
  5
F10B08
330
F10B09
100
AcDbEntity
8
Geo
100
AcDbLine
10
-23.2174038739521
20
7.03371879512755
30
0.000000000000000
11
-23.1174038739521
21
6.93892186345389
31
0.000000000000000
  0
LINE
  5
F10B0A
330
F10B0B
100
AcDbEntity
8
Geo
100
AcDbLine
10
-23.1174038739521
20
6.93892186345389
30
0.000000000000000
11
-23.0174038739521
21
6.84440646367160
31
0.000000000000000
  0
LINE
  5
F10B0C
330
F10B0D
100
AcDbEntity
8
Geo
100
AcDbLine
10
-23.0174038739521
20
6.84440646367160
30
0.000000000000000
11
-22.9174038739521
21
6.75018204724189
31
0.000000000000000
  0
LINE
  5
F10B0E
330
F10B0F
100
AcDbEntity
8
Geo
100
AcDbLine
10
-22.9174038739521
20
6.75018204724189
30
0.000000000000000
11
-22.8174038739521
21
6.65625803652789
31
0.000000000000000
  0
LINE
  5
F10B10
330
F10B11
100
AcDbEntity
8
Geo
100
AcDbLine
10
-22.8174038739521
20
6.65625803652789
30
0.000000000000000
11
-22.7174038739521
21
6.56264382385239
31
0.000000000000000
  0
LINE
  5
F10B12
330
F10B13
100
AcDbEntity
8
Geo
100
AcDbLine
10
-22.7174038739521
20
6.56264382385239
30
0.000000000000000
11
-22.6174038739521
21
6.46934877055866
31
0.000000000000000
  0
LINE
  5
F10B14
330
F10B15
100
AcDbEntity
8
Geo
100
AcDbLine
10
-22.6174038739521
20
6.46934877055866
30
0.000000000000000
11
-22.5174038739521
21
6.37638220607427
31
0.000000000000000
  0
LINE
  5
F10B16
330
F10B17
100
AcDbEntity
8
Geo
100
AcDbLine
10
-22.5174038739521
20
6.37638220607427
30
0.000000000000000
11
-22.4174038739521
21
6.28375342697820
31
0.000000000000000
  0
LINE
  5
F10B18
330
F10B19
100
AcDbEntity
8
Geo
100
AcDbLine
10
-22.4174038739521
20
6.28375342697820
30
0.000000000000000
11
-22.3174038739521
21
6.19147169607117
31
0.000000000000000
  0
LINE
  5
F10B1A
330
F10B1B
100
AcDbEntity
8
Geo
100
AcDbLine
10
-22.3174038739521
20
6.19147169607117
30
0.000000000000000
11
-22.2174038739521
21
6.09954624144938
31
0.000000000000000
  0
LINE
  5
F10B1C
330
F10B1D
100
AcDbEntity
8
Geo
100
AcDbLine
10
-22.2174038739521
20
6.09954624144938
30
0.000000000000000
11
-22.1174038739521
21
6.00798625558167
31
0.000000000000000
  0
LINE
  5
F10B1E
330
F10B1F
100
AcDbEntity
8
Geo
100
AcDbLine
10
-22.1174038739521
20
6.00798625558167
30
0.000000000000000
11
-22.0174038739521
21
5.91680089439034
31
0.000000000000000
  0
LINE
  5
F10B20
330
F10B21
100
AcDbEntity
8
Geo
100
AcDbLine
10
-22.0174038739521
20
5.91680089439034
30
0.000000000000000
11
-21.9174038739521
21
5.82599927633551
31
0.000000000000000
  0
LINE
  5
F10B22
330
F10B23
100
AcDbEntity
8
Geo
100
AcDbLine
10
-21.9174038739521
20
5.82599927633551
30
0.000000000000000
11
-21.8174038739521
21
5.73559048150334
31
0.000000000000000
  0
LINE
  5
F10B24
330
F10B25
100
AcDbEntity
8
Geo
100
AcDbLine
10
-21.8174038739521
20
5.73559048150334
30
0.000000000000000
11
-21.7174038739521
21
5.64558355069795
31
0.000000000000000
  0
LINE
  5
F10B26
330
F10B27
100
AcDbEntity
8
Geo
100
AcDbLine
10
-21.7174038739521
20
5.64558355069795
30
0.000000000000000
11
-21.6174038739520
21
5.55598748453742
31
0.000000000000000
  0
LINE
  5
F10B28
330
F10B29
100
AcDbEntity
8
Geo
100
AcDbLine
10
-21.6174038739520
20
5.55598748453742
30
0.000000000000000
11
-21.5174038739520
21
5.46681124255371
31
0.000000000000000
  0
LINE
  5
F10B2A
330
F10B2B
100
AcDbEntity
8
Geo
100
AcDbLine
10
-21.5174038739520
20
5.46681124255371
30
0.000000000000000
11
-21.4174038739520
21
5.37806374229670
31
0.000000000000000
  0
LINE
  5
F10B2C
330
F10B2D
100
AcDbEntity
8
Geo
100
AcDbLine
10
-21.4174038739520
20
5.37806374229670
30
0.000000000000000
11
-21.3174038739520
21
5.28975385844246
31
0.000000000000000
  0
LINE
  5
F10B2E
330
F10B2F
100
AcDbEntity
8
Geo
100
AcDbLine
10
-21.3174038739520
20
5.28975385844246
30
0.000000000000000
11
-21.2174038739520
21
5.20189042190578
31
0.000000000000000
  0
LINE
  5
F10B30
330
F10B31
100
AcDbEntity
8
Geo
100
AcDbLine
10
-21.2174038739520
20
5.20189042190578
30
0.000000000000000
11
-21.1174038739520
21
5.11448221895710
31
0.000000000000000
  0
LINE
  5
F10B32
330
F10B33
100
AcDbEntity
8
Geo
100
AcDbLine
10
-21.1174038739520
20
5.11448221895710
30
0.000000000000000
11
-21.0174038739520
21
5.02753799034388
31
0.000000000000000
  0
LINE
  5
F10B34
330
F10B35
100
AcDbEntity
8
Geo
100
AcDbLine
10
-21.0174038739520
20
5.02753799034388
30
0.000000000000000
11
-20.9174038739520
21
4.94106643041652
31
0.000000000000000
  0
LINE
  5
F10B36
330
F10B37
100
AcDbEntity
8
Geo
100
AcDbLine
10
-20.9174038739520
20
4.94106643041652
30
0.000000000000000
11
-20.8174038739520
21
4.85507618625896
31
0.000000000000000
  0
LINE
  5
F10B38
330
F10B39
100
AcDbEntity
8
Geo
100
AcDbLine
10
52.2825961260479
20
18.7542642382192
30
0.000000000000000
11
52.2825961260479
21
9.75426423821916
31
0.000000000000000
  0
LINE
  5
F10B3A
330
F10B3B
100
AcDbEntity
8
Geo
100
AcDbLine
10
-40.7174038739521
20
9.75426423821916
30
0.000000000000000
11
-40.7174038739521
21
-0.245735761780836
31
0.000000000000000
  0
LINE
  5
F10B3C
330
F10B3D
100
AcDbEntity
8
Geo
100
AcDbLine
10
-40.7174038739521
20
-0.245735761780836
30
0.000000000000000
11
-15.7174038739521
21
-0.245735761780836
31
0.000000000000000
  0
LINE
  5
F10B3E
330
F10B3F
100
AcDbEntity
8
Geo
100
AcDbLine
10
-15.7174038739521
20
-0.245735761780836
30
0.000000000000000
11
51.2825961260479
21
-0.245735761780836
31
0.000000000000000
  0
LINE
  5
F10B40
330
F10B41
100
AcDbEntity
8
Geo
100
AcDbLine
10
51.2825961260479
20
-0.245735761780836
30
0.000000000000000
11
52.2825961260479
21
0.754264238219164
31
0.000000000000000
  0
LINE
  5
F10B42
330
F10B43
100
AcDbEntity
8
Geo
100
AcDbLine
10
-40.7174038739521
20
19.7542642382192
30
0.000000000000000
11
-40.7174038739521
21
-0.245735761780836
31
0.000000000000000
  0
LINE
  5
F10B44
330
F10B45
100
AcDbEntity
8
Geo
100
AcDbLine
10
-15.7174038739521
20
19.7542642382192
30
0.000000000000000
11
-15.7174038739521
21
-0.245735761780836
31
0.000000000000000
  0
LINE
  5
F10B46
330
F10B47
100
AcDbEntity
8
Geo
100
AcDbLine
10
-15.7174038739521
20
19.7542642382192
30
0.000000000000000
11
-15.7174038739521
21
-0.245735761780836
31
0.000000000000000
  0
LINE
  5
F10B48
330
F10B49
100
AcDbEntity
8
Geo
100
AcDbLine
10
51.2825961260479
20
19.7542642382192
30
0.000000000000000
11
51.2825961260479
21
-0.245735761780836
31
0.000000000000000
  0
LINE
  5
F10B4A
330
F10B4B
100
AcDbEntity
8
Geo
100
AcDbLine
10
52.2825961260479
20
18.7542642382192
30
0.000000000000000
11
52.2825961260479
21
0.754264238219164
31
0.000000000000000
  0
LINE
  5
F10B4C
330
F10B4D
100
AcDbEntity
8
Geo
 6
Dashdot
100
AcDbLine
10
-40.7174038739521
20
9.75426423821916
30
0.000000000000000
11
52.2825961260479
21
9.75426423821916
31
0.000000000000000
  0
LWPOLYLINE
  5
F10B4E
330
F10B4F
100
AcDbEntity
8
Rahmen
100
AcDbPolyline
90
   4
70
   1
43
   0.0
 10
-134.657415437988
 20
99.9812084417462
 10
143.399826539462
 20
99.9812084417462
 10
143.399826539462
 20
-100.163342006360
 10
-134.657415437988
 20
-100.163342006360
  0
TEXT
  5
F10B50
330
F10B51
 100
AcDbEntity
8
Text
100
AcDbText
10
-133.645562301243
20
-99.6633420063602
30
0.000000000000000
40
1.00000000000000
1
ISBESketcher - ©ISBE GmbH      lizensiert für: Schmid Werkzeuge
100
AcDbText
  0
LWPOLYLINE
  5
F10B52
330
F10B53
100
AcDbEntity
8
Rahmen
100
AcDbPolyline
90
   4
70
   1
43
   0.0
 10
103.330442324371
 20
-97.1277825961260
 10
143.399826539462
 20
-97.1277825961260
 10
143.399826539462
 20
-100.163342006360
 10
103.330442324371
 20
-100.163342006360
  0
TEXT
  5
F10B54
330
F10B55
 100
AcDbEntity
8
Text
100
AcDbText
10
104.500000000000
20
-99.5177797051171
30
0.000000000000000
40
1.50000000000000
1
Ers. durch:
100
AcDbText
  0
TEXT
  5
F10B56
330
F10B57
 100
AcDbEntity
8
Text
100
AcDbText
10
0.000000000000000
20
0.500000000000000
30
0.000000000000000
40
1.50000000000000
1

100
AcDbText
  0
LWPOLYLINE
  5
F10B58
330
F10B59
100
AcDbEntity
8
Rahmen
100
AcDbPolyline
90
   4
70
   1
43
   0.0
 10
63.4634287366290
 20
-97.1277825961260
 10
103.330442324371
 20
-97.1277825961260
 10
103.330442324371
 20
-100.163342006360
 10
63.4634287366290
 20
-100.163342006360
  0
TEXT
  5
F10B5A
330
F10B5B
 100
AcDbEntity
8
Text
100
AcDbText
10
64.5000000000000
20
-99.5177797051171
30
0.000000000000000
40
1.50000000000000
1
Ers. für:
100
AcDbText
  0
TEXT
  5
F10B5C
330
F10B5D
 100
AcDbEntity
8
Text
100
AcDbText
10
0.000000000000000
20
0.500000000000000
30
0.000000000000000
40
1.50000000000000
1

100
AcDbText
  0
LWPOLYLINE
  5
F10B5E
330
F10B5F
100
AcDbEntity
8
Rahmen
100
AcDbPolyline
90
   4
70
   1
43
   0.0
 10
130.043365134432
 20
-94.0922231858918
 10
143.399826539462
 20
-94.0922231858918
 10
143.399826539462
 20
-97.1277825961260
 10
130.043365134432
 20
-97.1277825961260
  0
TEXT
  5
F10B60
330
F10B61
 100
AcDbEntity
8
Text
100
AcDbText
10
131.166666666667
20
-96.5177797051171
30
0.000000000000000
40
1.50000000000000
1
Blätter
100
AcDbText
  0
TEXT
  5
F10B62
330
F10B63
 100
AcDbEntity
8
Text
100
AcDbText
10
0.000000000000000
20
0.500000000000000
30
0.000000000000000
40
1.50000000000000
1

100
AcDbText
  0
LWPOLYLINE
  5
F10B64
330
F10B65
100
AcDbEntity
8
Rahmen
100
AcDbPolyline
90
   4
70
   1
43
   0.0
 10
130.043365134432
 20
-91.0566637756577
 10
143.399826539462
 20
-91.0566637756577
 10
143.399826539462
 20
-94.0922231858918
 10
130.043365134432
 20
-94.0922231858918
  0
TEXT
  5
F10B66
330
F10B67
 100
AcDbEntity
8
Text
100
AcDbText
10
131.166666666667
20
-93.5177797051171
30
0.000000000000000
40
1.50000000000000
1
Blatt
100
AcDbText
  0
TEXT
  5
F10B68
330
F10B69
 100
AcDbEntity
8
Text
100
AcDbText
10
0.000000000000000
20
0.500000000000000
30
0.000000000000000
40
1.50000000000000
1

100
AcDbText
  0
LWPOLYLINE
  5
F10B6A
330
F10B6B
100
AcDbEntity
8
Rahmen
100
AcDbPolyline
90
   4
70
   1
43
   0.0
 10
63.4634287366290
 20
-91.0566637756577
 10
130.043365134432
 20
-91.0566637756577
 10
130.043365134432
 20
-97.1277825961260
 10
63.4634287366290
 20
-97.1277825961260
  0
TEXT
  5
F10B6C
330
F10B6D
 100
AcDbEntity
8
Text
100
AcDbText
10
64.5000000000000
20
-93.5177797051171
30
0.000000000000000
40
1.50000000000000
1
Datum:
100
AcDbText
  0
TEXT
  5
F10B6E
330
F10B6F
 100
AcDbEntity
8
Text
100
AcDbText
10
90.4586585718416
20
-96.5177797051171
30
0.000000000000000
40
1.50000000000000
1
29.09.2021
100
AcDbText
  0
LWPOLYLINE
  5
F10B70
330
F10B71
100
AcDbEntity
8
Rahmen
100
AcDbPolyline
90
   4
70
   1
43
   0.0
 10
63.4634287366290
 20
-85.1879155825383
 10
143.399826539462
 20
-85.1879155825383
 10
143.399826539462
 20
-91.0566637756577
 10
63.4634287366290
 20
-91.0566637756577
  0
TEXT
  5
F10B72
330
F10B73
 100
AcDbEntity
8
Text
100
AcDbText
10
0.000000000000000
20
0.500000000000000
30
0.000000000000000
40
1.50000000000000
1

100
AcDbText
  0
TEXT
  5
F10B74
330
F10B75
 100
AcDbEntity
8
Text
100
AcDbText
10
72.7396646429604
20
-89.6962995085285
30
0.000000000000000
40
2.50000000000000
1
VHM-Schlichtfräser 0160-200-b
100
AcDbText
  0
LWPOLYLINE
  5
F10B76
330
F10B77
100
AcDbEntity
8
Rahmen
100
AcDbPolyline
90
   4
70
   1
43
   0.0
 10
103.330442324371
 20
-79.1167967620699
 10
143.399826539462
 20
-79.1167967620699
 10
143.399826539462
 20
-85.1879155825383
 10
103.330442324371
 20
-85.1879155825383
  0
TEXT
  5
F10B78
330
F10B79
 100
AcDbEntity
8
Text
100
AcDbText
10
104.500000000000
20
-81.5177797051171
30
0.000000000000000
40
1.50000000000000
1
Zu bearb. Material:
100
AcDbText
  0
TEXT
  5
F10B7A
330
F10B7B
 100
AcDbEntity
8
Text
100
AcDbText
10
0.000000000000000
20
0.500000000000000
30
0.000000000000000
40
1.50000000000000
1

100
AcDbText
  0
LWPOLYLINE
  5
F10B7C
330
F10B7D
100
AcDbEntity
8
Rahmen
100
AcDbPolyline
90
   4
70
   1
43
   0.0
 10
63.4634287366290
 20
-79.1167967620699
 10
103.330442324371
 20
-79.1167967620699
 10
103.330442324371
 20
-85.1879155825383
 10
63.4634287366290
 20
-85.1879155825383
  0
TEXT
  5
F10B7E
330
F10B7F
 100
AcDbEntity
8
Text
100
AcDbText
10
64.5000000000000
20
-81.5177797051171
30
0.000000000000000
40
1.50000000000000
1
Werkstoff:
100
AcDbText
  0
TEXT
  5
F10B80
330
F10B81
 100
AcDbEntity
8
Text
100
AcDbText
10
80.8691818444637
20
-84.5177797051171
30
0.000000000000000
40
1.50000000000000
1
VHM
100
AcDbText
  0
LWPOLYLINE
  5
F10B82
330
F10B83
100
AcDbEntity
8
Rahmen
100
AcDbPolyline
90
   4
70
   1
43
   0.0
 10
103.330442324371
 20
-76.0812373518358
 10
143.399826539462
 20
-76.0812373518358
 10
143.399826539462
 20
-79.1167967620699
 10
103.330442324371
 20
-79.1167967620699
  0
TEXT
  5
F10B84
330
F10B85
 100
AcDbEntity
8
Text
100
AcDbText
10
0.000000000000000
20
0.500000000000000
30
0.000000000000000
40
1.50000000000000
1

100
AcDbText
  0
TEXT
  5
F10B86
330
F10B87
 100
AcDbEntity
8
Text
100
AcDbText
10
0.000000000000000
20
0.500000000000000
30
0.000000000000000
40
1.50000000000000
1

100
AcDbText
  0
LWPOLYLINE
  5
F10B88
330
F10B89
100
AcDbEntity
8
Rahmen
100
AcDbPolyline
90
   4
70
   1
43
   0.0
 10
63.4634287366290
 20
-76.0812373518358
 10
103.330442324371
 20
-76.0812373518358
 10
103.330442324371
 20
-79.1167967620699
 10
63.4634287366290
 20
-79.1167967620699
  0
TEXT
  5
F10B8A
330
F10B8B
 100
AcDbEntity
8
Text
100
AcDbText
10
64.5000000000000
20
-78.5177797051171
30
0.000000000000000
40
1.50000000000000
1
Maßstab:
100
AcDbText
  0
TEXT
  5
F10B8C
330
F10B8D
 100
AcDbEntity
8
Text
100
AcDbText
10
89.0715524718127
20
-78.5177797051171
30
0.000000000000000
40
1.50000000000000
1
1 : 1
100
AcDbText
0
VIEWPORT
5
294
102
{ACAD_XDICTIONARY
360
58A
102
}
330
25D
100
AcDbEntity
67
1
8
0
60
1
100
AcDbViewport
10
0.0
20
0.0
30
0.0
40
10.0
41
10.0
68
-1
69
1
12
0.0
22
0.0
13
0.0
23
0.0
14
1.0
24
1.0
15
0.0
25
0.0
16
0.0
26
0.0
36
1.0
17
0.0
27
0.0
37
0.0
42
0.0
43
0.0
44
0.0
45
10.0
50
0.0
51
0.0000000000007958
72
100
90
32800
1

281
0
71
0
74
0
110
0.0
120
0.0
130
0.0
111
1.0
121
0.0
131
0.0
112
0.0
122
1.0
132
0.0
79
0
146
0.0
1001
VD_INVISIBLE_NOT_FOR_READ
1000
VD_INVISIBLE_NOT_FOR_READ
0
VIEWPORT
5
295
102
{ACAD_XDICTIONARY
360
58C
102
}
330
25D
100
AcDbEntity
67
1
8
0
60
1
100
AcDbViewport
10
0.0
20
0.0
30
0.0
40
10.0
41
10.0
68
0
69
2
12
0.0
22
0.0
13
0.0
23
0.0
14
1.0
24
1.0
15
0.0
25
0.0
16
0.0
26
0.0
36
1.0
17
0.0
27
0.0
37
0.0
42
0.0
43
0.0
44
0.0
45
10.0
50
0.0
51
0.0000000000007958
72
100
90
163872
1

281
0
71
0
74
0
110
0.0
120
0.0
130
0.0
111
1.0
121
0.0
131
0.0
112
0.0
122
1.0
132
0.0
79
0
146
0.0
1001
VD_INVISIBLE_NOT_FOR_READ
1000
VD_INVISIBLE_NOT_FOR_READ
0
ENDSEC
0
SECTION
2
OBJECTS
0
DICTIONARY
5
13
330
0
100
AcDbDictionary
281
1
3
ACAD_COLOR
350
FA7
3
ACAD_GROUP
350
14
3
ACAD_LAYOUT
350
FCF
3
ACAD_MATERIAL
350
F7A
3
ACAD_MLEADERSTYLE
350
FCD
3
ACAD_MLINESTYLE
350
16
3
ACAD_PLOTSETTINGS
350
17
3
ACAD_PLOTSTYLENAME
350
18
3
ACAD_SCALELIST
350
FAB
3
ACAD_TABLESTYLE
350
FA8
3
ACAD_VISUALSTYLE
350
F93
3
ACDB_RECOMPOSE_DATA
350
107E
3
AcDbVariableDictionary
350
FF0
3
DWGPROPS
350
107F
0
DICTIONARY
5
F1000F
330
F1000E
100
AcDbDictionary
280
1
281
1
3
ACAD_MTEXT_2008_RT
360
F10010
0
DICTIONARY
5
F10014
330
F10013
100
AcDbDictionary
280
1
281
1
3
ACAD_MTEXT_2008_RT
360
F10015
0
DICTIONARY
5
F10005
330
F10004
100
AcDbDictionary
280
1
281
1
3
ACAD_MTEXT_2008_RT
360
F10006
0
DICTIONARY
5
F1000A
330
F10009
100
AcDbDictionary
280
1
281
1
3
ACAD_MTEXT_2008_RT
360
F1000B
0
DICTIONARY
5
FA7
102
{ACAD_REACTORS
330
13
102
}
330
13
100
AcDbDictionary
281
1
0
DICTIONARY
5
14
330
13
100
AcDbDictionary
281
1
0
DICTIONARY
5
FCF
102
{ACAD_REACTORS
330
13
102
}
330
13
100
AcDbDictionary
281
1
3
Layout1
350
FD1
3
Model
350
FD0
0
DICTIONARY
5
F7A
102
{ACAD_REACTORS
330
13
102
}
330
13
100
AcDbDictionary
281
1
3
ByBlock
350
F83
3
ByLayer
350
F7B
3
Global
350
F8B
0
DICTIONARY
5
FCD
102
{ACAD_REACTORS
330
13
102
}
330
13
100
AcDbDictionary
281
1
3
Standard
350
FCE
0
DICTIONARY
5
16
330
13
100
AcDbDictionary
281
1
3
Standard
350
FAA
0
DICTIONARY
5
17
102
{ACAD_REACTORS
330
13
102
}
330
13
100
AcDbDictionary
281
1
0
ACDBDICTIONARYWDFLT
5
18
102
{ACAD_REACTORS
330
13
102
}
330
13
100
AcDbDictionary
281
1
3
Normal
350
19
100
AcDbDictionaryWithDefault
340
19
0
DICTIONARY
5
FAB
102
{ACAD_REACTORS
330
13
102
}
330
13
100
AcDbDictionary
281
1
3
A0
350
FAC
3
A1
350
FAD
3
A2
350
FAE
3
A3
350
FAF
3
A4
350
FB0
3
A5
350
FB1
3
A6
350
FB2
3
A7
350
FB3
3
A8
350
FB4
3
A9
350
FB5
3
B0
350
FB6
3
B1
350
FB7
3
B2
350
FB8
3
B3
350
FB9
3
B4
350
FBA
3
B5
350
FBB
3
B6
350
FBC
3
B7
350
FBD
3
B8
350
FBE
3
B9
350
FBF
3
C0
350
FC0
3
C1
350
FC1
3
C2
350
FC2
3
C3
350
FC3
3
C4
350
FC4
3
C5
350
FC5
3
C6
350
FC6
3
C7
350
FC7
3
C8
350
FC8
3
C9
350
FC9
3
D0
350
FCA
3
D1
350
FCB
3
D2
350
FCC
0
DICTIONARY
5
FA8
102
{ACAD_REACTORS
330
13
102
}
330
13
100
AcDbDictionary
281
1
3
Standard
350
FA9
0
DICTIONARY
5
F93
102
{ACAD_REACTORS
330
13
102
}
330
13
100
AcDbDictionary
281
1
3
2dWireframe
350
F99
3
3D Hidden
350
F9B
3
3dWireframe
350
F9A
3
Basic
350
F98
3
Brighten
350
F9F
3
ColorChange
350
FA3
3
Conceptual
350
F9C
3
Dim
350
F9E
3
EdgeColorOff
350
FA6
3
Facepattern
350
FA2
3
Flat
350
F94
3
FlatWithEdges
350
F95
3
Gouraud
350
F96
3
GouraudWithEdges
350
F97
3
JitterOff
350
FA4
3
Linepattern
350
FA1
3
OverhangOff
350
FA5
3
Realistic
350
F9D
3
Thicken
350
FA0
0
XRECORD
5
107E
102
{ACAD_REACTORS
330
13
102
}
330
13
100
AcDbXrecord
280
1
90
1
330
FA9
330
F1000E
330
F10013
330
F10004
330
F10009
0
DICTIONARY
5
FF0
102
{ACAD_REACTORS
330
13
102
}
330
13
100
AcDbDictionary
281
1
3
CANNOSCALE
350
FF3
3
CMLEADERSTYLE
350
FF2
3
CTABLESTYLE
350
FF1
3
DIMASSOC
350
FF6
3
INDEXCTL
350
FF5
3
SORTENTS
350
FF4
3
XCLIPFRAME
350
1078
0
XRECORD
5
107F
102
{ACAD_REACTORS
330
13
102
}
330
13
100
AcDbXrecord
280
1
1
DWGPROPS COOKIE
2

3

4

6

7

8

9

300
=
301
=
302
=
303
=
304
=
305
=
306
=
307
=
308
=
309
=
40
0.0
41
0.0
42
0.0
1

90
0
0
XRECORD
5
F10010
102
{ACAD_REACTORS
330
F1000F
102
}
330
F1000F
100
AcDbXrecord
280
1
40
48458.0
1
25
0
XRECORD
5
F10015
102
{ACAD_REACTORS
330
F10014
102
}
330
F10014
100
AcDbXrecord
280
1
40
48458.0
1
93
0
XRECORD
5
F10006
102
{ACAD_REACTORS
330
F10005
102
}
330
F10005
100
AcDbXrecord
280
1
40
48458.0
1
Ø20
0
LAYOUT
5
FD1
102
{ACAD_XDICTIONARY
360
10A9
102
}
102
{ACAD_REACTORS
330
FCF
102
}
330
FCF
100
AcDbPlotSettings
1

2
Microsoft XPS Document Writer
4

6

40
0.0
41
0.0
42
0.0
43
0.0
44
0.0
45
0.0
46
0.0
47
0.0
48
0.0
49
0.0
140
0.0
141
0.0
142
1.0
143
1.0
70
688
72
0
73
0
74
5
7

75
16
147
1.0
148
0.0
149
0.0
100
AcDbLayout
1
Layout1
70
1
71
1
10
0.0
20
0.0
11
12.0
21
9.0
12
0.0
22
0.0
32
0.0
14
1.000000000000000E+20
24
1.000000000000000E+20
34
1.000000000000000E+20
15
-1.000000000000000E+20
25
-1.000000000000000E+20
35
-1.000000000000000E+20
146
0.0
13
0.0
23
0.0
33
0.0
16
1.0
26
0.0
36
0.0
17
0.0
27
1.0
37
0.0
76
0
330
25D
0
LAYOUT
5
FD0
102
{ACAD_XDICTIONARY
360
10A7
102
}
102
{ACAD_REACTORS
330
FCF
102
}
330
FCF
100
AcDbPlotSettings
1

2
Microsoft XPS Document Writer
4

6

40
0.0
41
0.0
42
0.0
43
0.0
44
0.0
45
0.0
46
0.0
47
0.0
48
0.0
49
0.0
140
0.0
141
0.0
142
1.0
143
1.0
70
1712
72
0
73
0
74
0
7

75
0
147
1.0
148
0.0
149
0.0
100
AcDbLayout
1
Model
70
1
71
0
10
0.0
20
0.0
11
12.0
21
9.0
12
0.0
22
0.0
32
0.0
14
0.0
24
0.0
34
0.0
15
0.0
25
0.0
35
0.0
146
0.0
13
0.0
23
0.0
33
0.0
16
1.0
26
0.0
36
0.0
17
0.0
27
1.0
37
0.0
76
0
330
261
331
26B
0
MATERIAL
5
F83
102
{ACAD_XDICTIONARY
360
F84
102
}
102
{ACAD_REACTORS
330
F7A
102
}
330
F7A
100
AcDbMaterial
1
ByBlock
72
0
43
0.0208333333333333
43
0.0
43
0.0
43
0.0
43
0.0
43
0.0208333333333333
43
0.0
43
0.0
43
0.0
43
0.0
43
1.0
43
0.0
43
0.0
43
0.0
43
0.0
43
1.0
77
0
47
0.0208333333333333
47
0.0
47
0.0
47
0.0
47
0.0
47
0.0208333333333333
47
0.0
47
0.0
47
0.0
47
0.0
47
1.0
47
0.0
47
0.0
47
0.0
47
0.0
47
1.0
171
0
49
0.0208333333333333
49
0.0
49
0.0
49
0.0
49
0.0
49
0.0208333333333333
49
0.0
49
0.0
49
0.0
49
0.0
49
1.0
49
0.0
49
0.0
49
0.0
49
0.0
49
1.0
175
0
142
0.0208333333333333
142
0.0
142
0.0
142
0.0
142
0.0
142
0.0208333333333333
142
0.0
142
0.0
142
0.0
142
0.0
142
1.0
142
0.0
142
0.0
142
0.0
142
0.0
142
1.0
179
0
144
0.0208333333333333
144
0.0
144
0.0
144
0.0
144
0.0
144
0.0208333333333333
144
0.0
144
0.0
144
0.0
144
0.0
144
1.0
144
0.0
144
0.0
144
0.0
144
0.0
144
1.0
147
0.0208333333333333
147
0.0
147
0.0
147
0.0
147
0.0
147
0.0208333333333333
147
0.0
147
0.0
147
0.0
147
0.0
147
1.0
147
0.0
147
0.0
147
0.0
147
0.0
147
1.0
0
MATERIAL
5
F7B
102
{ACAD_XDICTIONARY
360
F7C
102
}
102
{ACAD_REACTORS
330
F7A
102
}
330
F7A
100
AcDbMaterial
1
ByLayer
72
0
43
0.0208333333333333
43
0.0
43
0.0
43
0.0
43
0.0
43
0.0208333333333333
43
0.0
43
0.0
43
0.0
43
0.0
43
1.0
43
0.0
43
0.0
43
0.0
43
0.0
43
1.0
77
0
47
0.0208333333333333
47
0.0
47
0.0
47
0.0
47
0.0
47
0.0208333333333333
47
0.0
47
0.0
47
0.0
47
0.0
47
1.0
47
0.0
47
0.0
47
0.0
47
0.0
47
1.0
171
0
49
0.0208333333333333
49
0.0
49
0.0
49
0.0
49
0.0
49
0.0208333333333333
49
0.0
49
0.0
49
0.0
49
0.0
49
1.0
49
0.0
49
0.0
49
0.0
49
0.0
49
1.0
175
0
142
0.0208333333333333
142
0.0
142
0.0
142
0.0
142
0.0
142
0.0208333333333333
142
0.0
142
0.0
142
0.0
142
0.0
142
1.0
142
0.0
142
0.0
142
0.0
142
0.0
142
1.0
179
0
144
0.0208333333333333
144
0.0
144
0.0
144
0.0
144
0.0
144
0.0208333333333333
144
0.0
144
0.0
144
0.0
144
0.0
144
1.0
144
0.0
144
0.0
144
0.0
144
0.0
144
1.0
147
0.0208333333333333
147
0.0
147
0.0
147
0.0
147
0.0
147
0.0208333333333333
147
0.0
147
0.0
147
0.0
147
0.0
147
1.0
147
0.0
147
0.0
147
0.0
147
0.0
147
1.0
0
MATERIAL
5
F8B
102
{ACAD_XDICTIONARY
360
F8C
102
}
102
{ACAD_REACTORS
330
F7A
102
}
330
F7A
100
AcDbMaterial
1
Global
72
0
43
0.0208333333333333
43
0.0
43
0.0
43
0.0
43
0.0
43
0.0208333333333333
43
0.0
43
0.0
43
0.0
43
0.0
43
1.0
43
0.0
43
0.0
43
0.0
43
0.0
43
1.0
77
0
47
0.0208333333333333
47
0.0
47
0.0
47
0.0
47
0.0
47
0.0208333333333333
47
0.0
47
0.0
47
0.0
47
0.0
47
1.0
47
0.0
47
0.0
47
0.0
47
0.0
47
1.0
171
0
49
0.0208333333333333
49
0.0
49
0.0
49
0.0
49
0.0
49
0.0208333333333333
49
0.0
49
0.0
49
0.0
49
0.0
49
1.0
49
0.0
49
0.0
49
0.0
49
0.0
49
1.0
175
0
142
0.0208333333333333
142
0.0
142
0.0
142
0.0
142
0.0
142
0.0208333333333333
142
0.0
142
0.0
142
0.0
142
0.0
142
1.0
142
0.0
142
0.0
142
0.0
142
0.0
142
1.0
179
0
144
0.0208333333333333
144
0.0
144
0.0
144
0.0
144
0.0
144
0.0208333333333333
144
0.0
144
0.0
144
0.0
144
0.0
144
1.0
144
0.0
144
0.0
144
0.0
144
0.0
144
1.0
147
0.0208333333333333
147
0.0
147
0.0
147
0.0
147
0.0
147
0.0208333333333333
147
0.0
147
0.0
147
0.0
147
0.0
147
1.0
147
0.0
147
0.0
147
0.0
147
0.0
147
1.0
0
MLEADERSTYLE
5
FCE
102
{ACAD_REACTORS
330
FCD
102
}
330
FCD
100
AcDbMLeaderStyle
170
2
171
1
172
0
90
2
40
0.0
41
0.0
173
1
91
-1056964608
340
256
92
-2
290
1
42
0.09
291
1
43
0.36
3
Standard
44
0.18
300

342
253
174
1
178
6
175
1
176
0
93
-1056964608
45
0.18
292
0
297
0
46
0.18
94
-1056964608
47
1.0
49
1.0
140
1.0
293
1
141
0.0
294
1
177
0
142
1.0
295
0
296
0
143
0.125
1001
ACAD_MLEADERVER
1070
2
0
MLINESTYLE
5
FAA
102
{ACAD_REACTORS
330
16
102
}
330
16
100
AcDbMlineStyle
2
STANDARD
70
0
3

62
256
51
90.0
52
90.0
71
2
49
0.5
62
256
6
BYLAYER
49
-0.5
62
256
6
BYLAYER
0
ACDBPLACEHOLDER
5
19
102
{ACAD_REACTORS
330
18
102
}
330
18
0
SCALE
5
FAC
102
{ACAD_REACTORS
330
FAB
102
}
330
FAB
100
AcDbScale
70
0
300
1:1
140
1.0
141
1.0
290
1
0
SCALE
5
FAD
102
{ACAD_REACTORS
330
FAB
102
}
330
FAB
100
AcDbScale
70
0
300
1:2
140
1.0
141
2.0
290
0
0
SCALE
5
FAE
102
{ACAD_REACTORS
330
FAB
102
}
330
FAB
100
AcDbScale
70
0
300
1:4
140
1.0
141
4.0
290
0
0
SCALE
5
FAF
102
{ACAD_REACTORS
330
FAB
102
}
330
FAB
100
AcDbScale
70
0
300
1:5
140
1.0
141
5.0
290
0
0
SCALE
5
FB0
102
{ACAD_REACTORS
330
FAB
102
}
330
FAB
100
AcDbScale
70
0
300
1:8
140
1.0
141
8.0
290
0
0
SCALE
5
FB1
102
{ACAD_REACTORS
330
FAB
102
}
330
FAB
100
AcDbScale
70
0
300
1:10
140
1.0
141
10.0
290
0
0
SCALE
5
FB2
102
{ACAD_REACTORS
330
FAB
102
}
330
FAB
100
AcDbScale
70
0
300
1:16
140
1.0
141
16.0
290
0
0
SCALE
5
FB3
102
{ACAD_REACTORS
330
FAB
102
}
330
FAB
100
AcDbScale
70
0
300
1:20
140
1.0
141
20.0
290
0
0
SCALE
5
FB4
102
{ACAD_REACTORS
330
FAB
102
}
330
FAB
100
AcDbScale
70
0
300
1:30
140
1.0
141
30.0
290
0
0
SCALE
5
FB5
102
{ACAD_REACTORS
330
FAB
102
}
330
FAB
100
AcDbScale
70
0
300
1:40
140
1.0
141
40.0
290
0
0
SCALE
5
FB6
102
{ACAD_REACTORS
330
FAB
102
}
330
FAB
100
AcDbScale
70
0
300
1:50
140
1.0
141
50.0
290
0
0
SCALE
5
FB7
102
{ACAD_REACTORS
330
FAB
102
}
330
FAB
100
AcDbScale
70
0
300
1:100
140
1.0
141
100.0
290
0
0
SCALE
5
FB8
102
{ACAD_REACTORS
330
FAB
102
}
330
FAB
100
AcDbScale
70
0
300
2:1
140
2.0
141
1.0
290
0
0
SCALE
5
FB9
102
{ACAD_REACTORS
330
FAB
102
}
330
FAB
100
AcDbScale
70
0
300
4:1
140
4.0
141
1.0
290
0
0
SCALE
5
FBA
102
{ACAD_REACTORS
330
FAB
102
}
330
FAB
100
AcDbScale
70
0
300
8:1
140
8.0
141
1.0
290
0
0
SCALE
5
FBB
102
{ACAD_REACTORS
330
FAB
102
}
330
FAB
100
AcDbScale
70
0
300
10:1
140
10.0
141
1.0
290
0
0
SCALE
5
FBC
102
{ACAD_REACTORS
330
FAB
102
}
330
FAB
100
AcDbScale
70
0
300
100:1
140
100.0
141
1.0
290
0
0
SCALE
5
FBD
102
{ACAD_REACTORS
330
FAB
102
}
330
FAB
100
AcDbScale
70
0
300
1/128" = 1'-0"
140
0.0078125
141
12.0
290
0
0
SCALE
5
FBE
102
{ACAD_REACTORS
330
FAB
102
}
330
FAB
100
AcDbScale
70
0
300
1/64" = 1'-0"
140
0.015625
141
12.0
290
0
0
SCALE
5
FBF
102
{ACAD_REACTORS
330
FAB
102
}
330
FAB
100
AcDbScale
70
0
300
1/32" = 1'-0"
140
0.03125
141
12.0
290
0
0
SCALE
5
FC0
102
{ACAD_REACTORS
330
FAB
102
}
330
FAB
100
AcDbScale
70
0
300
1/16" = 1'-0"
140
0.0625
141
12.0
290
0
0
SCALE
5
FC1
102
{ACAD_REACTORS
330
FAB
102
}
330
FAB
100
AcDbScale
70
0
300
3/32" = 1'-0"
140
0.09375
141
12.0
290
0
0
SCALE
5
FC2
102
{ACAD_REACTORS
330
FAB
102
}
330
FAB
100
AcDbScale
70
0
300
1/8" = 1'-0"
140
0.125
141
12.0
290
0
0
SCALE
5
FC3
102
{ACAD_REACTORS
330
FAB
102
}
330
FAB
100
AcDbScale
70
0
300
3/16" = 1'-0"
140
0.1875
141
12.0
290
0
0
SCALE
5
FC4
102
{ACAD_REACTORS
330
FAB
102
}
330
FAB
100
AcDbScale
70
0
300
1/4" = 1'-0"
140
0.25
141
12.0
290
0
0
SCALE
5
FC5
102
{ACAD_REACTORS
330
FAB
102
}
330
FAB
100
AcDbScale
70
0
300
3/8" = 1'-0"
140
0.375
141
12.0
290
0
0
SCALE
5
FC6
102
{ACAD_REACTORS
330
FAB
102
}
330
FAB
100
AcDbScale
70
0
300
1/2" = 1'-0"
140
0.5
141
12.0
290
0
0
SCALE
5
FC7
102
{ACAD_REACTORS
330
FAB
102
}
330
FAB
100
AcDbScale
70
0
300
3/4" = 1'-0"
140
0.75
141
12.0
290
0
0
SCALE
5
FC8
102
{ACAD_REACTORS
330
FAB
102
}
330
FAB
100
AcDbScale
70
0
300
1" = 1'-0"
140
1.0
141
12.0
290
0
0
SCALE
5
FC9
102
{ACAD_REACTORS
330
FAB
102
}
330
FAB
100
AcDbScale
70
0
300
1-1/2" = 1'-0"
140
1.5
141
12.0
290
0
0
SCALE
5
FCA
102
{ACAD_REACTORS
330
FAB
102
}
330
FAB
100
AcDbScale
70
0
300
3" = 1'-0"
140
3.0
141
12.0
290
0
0
SCALE
5
FCB
102
{ACAD_REACTORS
330
FAB
102
}
330
FAB
100
AcDbScale
70
0
300
6" = 1'-0"
140
6.0
141
12.0
290
0
0
SCALE
5
FCC
102
{ACAD_REACTORS
330
FAB
102
}
330
FAB
100
AcDbScale
70
0
300
1'-0" = 1'-0"
140
12.0
141
12.0
290
0
0
TABLESTYLE
5
FA9
102
{ACAD_XDICTIONARY
360
FF8
102
}
102
{ACAD_REACTORS
330
FA8
102
}
330
FA8
100
AcDbTableStyle
3
Standard
70
0
71
0
40
0.06
41
0.06
280
0
281
0
7
Standard
140
0.18
170
2
62
0
63
7
283
0
274
-2
284
1
64
0
275
-2
285
1
65
0
276
-2
286
1
66
0
277
-2
287
1
67
0
278
-2
288
1
68
0
279
-2
289
1
69
0
7
Standard
140
0.25
170
5
62
0
63
7
283
0
274
-2
284
1
64
0
275
-2
285
1
65
0
276
-2
286
1
66
0
277
-2
287
1
67
0
278
-2
288
1
68
0
279
-2
289
1
69
0
7
Standard
140
0.18
170
5
62
0
63
7
283
0
274
-2
284
1
64
0
275
-2
285
1
65
0
276
-2
286
1
66
0
277
-2
287
1
67
0
278
-2
288
1
68
0
279
-2
289
1
69
0
0
VISUALSTYLE
5
F99
102
{ACAD_XDICTIONARY
360
108A
102
}
102
{ACAD_REACTORS
330
F93
102
}
330
F93
100
AcDbVisualStyle
2

70
4
71
0
72
2
73
0
90
0
40
-0.6
41
-30.0
62
5
63
7
74
1
91
4
64
7
65
257
75
1
175
1
42
1.0
92
0
66
257
43
1.0
76
1
77
6
78
2
67
7
79
5
170
0
171
0
290
0
174
0
93
1
44
0.0
173
0
291
0
45
0.0
1001
ACAD
1000
AcDbSavedByObjectVersion
1070
0
0
VISUALSTYLE
5
F9B
102
{ACAD_XDICTIONARY
360
108E
102
}
102
{ACAD_REACTORS
330
F93
102
}
330
F93
100
AcDbVisualStyle
2

70
6
71
1
72
2
73
2
90
0
40
-0.6
41
-30.0
62
5
63
7
74
2
91
2
64
7
65
257
75
2
175
1
42
179.0
92
0
66
257
43
1.0
76
1
77
6
78
2
67
7
79
3
170
0
171
0
290
0
174
0
93
1
44
0.0
173
0
291
0
45
0.0
1001
ACAD
1000
AcDbSavedByObjectVersion
1070
0
0
VISUALSTYLE
5
F9A
102
{ACAD_XDICTIONARY
360
108C
102
}
102
{ACAD_REACTORS
330
F93
102
}
330
F93
100
AcDbVisualStyle
2

70
5
71
0
72
2
73
0
90
0
40
-0.6
41
-30.0
62
5
63
7
74
1
91
4
64
7
65
257
75
1
175
1
42
1.0
92
0
66
257
43
1.0
76
1
77
6
78
2
67
7
79
5
170
0
171
0
290
0
174
0
93
1
44
0.0
173
0
291
0
45
0.0
1001
ACAD
1000
AcDbSavedByObjectVersion
1070
0
0
VISUALSTYLE
5
F98
102
{ACAD_XDICTIONARY
360
1088
102
}
102
{ACAD_REACTORS
330
F93
102
}
330
F93
100
AcDbVisualStyle
2

70
7
71
1
72
0
73
1
90
0
40
-0.6
41
-30.0
62
5
63
7
74
0
91
4
64
7
65
257
75
1
175
1
42
1.0
92
8
66
7
43
1.0
76
1
77
6
78
2
67
7
79
5
170
0
171
0
290
0
174
0
93
1
44
0.0
173
0
291
1
45
0.0
1001
ACAD
1000
AcDbSavedByObjectVersion
1070
0
0
VISUALSTYLE
5
F9F
102
{ACAD_XDICTIONARY
360
1096
102
}
102
{ACAD_REACTORS
330
F93
102
}
330
F93
100
AcDbVisualStyle
2

70
12
71
2
72
2
73
0
90
0
40
-0.6
41
-30.0
62
5
63
7
74
1
91
4
64
7
65
257
75
1
175
1
42
1.0
92
8
66
7
43
1.0
76
1
77
6
78
2
67
7
79
5
170
0
171
0
290
0
174
0
93
1
44
50.0
173
0
291
1
45
0.0
1001
ACAD
1000
AcDbSavedByObjectVersion
1070
0
0
VISUALSTYLE
5
FA3
102
{ACAD_XDICTIONARY
360
109E
102
}
102
{ACAD_REACTORS
330
F93
102
}
330
F93
100
AcDbVisualStyle
2

70
16
71
2
72
2
73
3
90
0
40
-0.6
41
-30.0
62
5
63
8
74
1
91
4
64
7
65
257
75
1
175
1
42
1.0
92
8
66
8
43
1.0
76
1
77
6
78
2
67
7
79
5
170
0
171
0
290
0
174
0
93
1
44
0.0
173
0
291
1
45
0.0
1001
ACAD
1000
AcDbSavedByObjectVersion
1070
0
0
VISUALSTYLE
5
F9C
102
{ACAD_XDICTIONARY
360
1090
102
}
102
{ACAD_REACTORS
330
F93
102
}
330
F93
100
AcDbVisualStyle
2

70
9
71
3
72
2
73
0
90
0
40
-0.6
41
-30.0
62
5
63
7
74
2
91
2
64
7
65
257
75
1
175
1
42
179.0
92
8
66
7
43
1.0
76
1
77
6
78
2
67
7
79
3
170
0
171
0
290
0
174
0
93
1
44
0.0
173
0
291
0
45
0.0
1001
ACAD
1000
AcDbSavedByObjectVersion
1070
0
0
VISUALSTYLE
5
F9E
102
{ACAD_XDICTIONARY
360
1094
102
}
102
{ACAD_REACTORS
330
F93
102
}
330
F93
100
AcDbVisualStyle
2

70
11
71
2
72
2
73
0
90
0
40
-0.6
41
-30.0
62
5
63
7
74
1
91
4
64
7
65
257
75
1
175
1
42
1.0
92
8
66
7
43
1.0
76
1
77
6
78
2
67
7
79
5
170
0
171
0
290
0
174
0
93
1
44
-50.0
173
0
291
1
45
0.0
1001
ACAD
1000
AcDbSavedByObjectVersion
1070
0
0
VISUALSTYLE
5
FA6
102
{ACAD_XDICTIONARY
360
10A4
102
}
102
{ACAD_REACTORS
330
F93
102
}
330
F93
100
AcDbVisualStyle
2

70
22
71
2
72
2
73
0
90
0
40
-0.6
41
-30.0
62
5
63
7
74
1
91
4
64
7
65
257
75
1
175
1
42
1.0
92
8
66
7
43
1.0
76
1
77
6
78
2
67
7
79
5
170
0
171
0
290
0
174
0
93
1
44
0.0
173
0
291
1
45
0.0
1001
ACAD
1000
AcDbSavedByObjectVersion
1070
0
0
VISUALSTYLE
5
FA2
102
{ACAD_XDICTIONARY
360
109C
102
}
102
{ACAD_REACTORS
330
F93
102
}
330
F93
100
AcDbVisualStyle
2

70
15
71
2
72
2
73
0
90
0
40
-0.6
41
-30.0
62
5
63
7
74
1
91
4
64
7
65
257
75
1
175
1
42
1.0
92
8
66
7
43
1.0
76
1
77
6
78
2
67
7
79
5
170
0
171
0
290
0
174
0
93
1
44
0.0
173
0
291
1
45
0.0
1001
ACAD
1000
AcDbSavedByObjectVersion
1070
0
0
VISUALSTYLE
5
F94
102
{ACAD_XDICTIONARY
360
1080
102
}
102
{ACAD_REACTORS
330
F93
102
}
330
F93
100
AcDbVisualStyle
2

70
0
71
2
72
1
73
1
90
2
40
-0.6
41
30.0
62
5
63
7
74
0
91
4
64
7
65
257
75
1
175
1
42
1.0
92
8
66
7
43
1.0
76
1
77
6
78
2
67
7
79
5
170
0
171
0
290
0
174
0
93
13
44
0.0
173
0
291
1
45
0.0
1001
ACAD
1000
AcDbSavedByObjectVersion
1070
0
0
VISUALSTYLE
5
F95
102
{ACAD_XDICTIONARY
360
1082
102
}
102
{ACAD_REACTORS
330
F93
102
}
330
F93
100
AcDbVisualStyle
2

70
1
71
2
72
1
73
1
90
2
40
-0.6
41
30.0
62
5
63
7
74
1
91
4
64
7
65
257
75
1
175
1
42
1.0
92
0
66
257
43
1.0
76
1
77
6
78
2
67
7
79
5
170
0
171
0
290
0
174
0
93
13
44
0.0
173
0
291
1
45
0.0
1001
ACAD
1000
AcDbSavedByObjectVersion
1070
0
0
VISUALSTYLE
5
F96
102
{ACAD_XDICTIONARY
360
1084
102
}
102
{ACAD_REACTORS
330
F93
102
}
330
F93
100
AcDbVisualStyle
2

70
2
71
2
72
2
73
1
90
2
40
-0.6
41
30.0
62
5
63
7
74
0
91
4
64
7
65
257
75
1
175
1
42
1.0
92
0
66
7
43
1.0
76
1
77
6
78
2
67
7
79
5
170
0
171
0
290
0
174
0
93
13
44
0.0
173
0
291
1
45
0.0
1001
ACAD
1000
AcDbSavedByObjectVersion
1070
0
0
VISUALSTYLE
5
F97
102
{ACAD_XDICTIONARY
360
1086
102
}
102
{ACAD_REACTORS
330
F93
102
}
330
F93
100
AcDbVisualStyle
2

70
3
71
2
72
2
73
1
90
2
40
-0.6
41
30.0
62
5
63
7
74
1
91
4
64
7
65
257
75
1
175
1
42
1.0
92
0
66
257
43
1.0
76
1
77
6
78
2
67
7
79
5
170
0
171
0
290
0
174
0
93
13
44
0.0
173
0
291
1
45
0.0
1001
ACAD
1000
AcDbSavedByObjectVersion
1070
0
0
VISUALSTYLE
5
FA4
102
{ACAD_XDICTIONARY
360
10A0
102
}
102
{ACAD_REACTORS
330
F93
102
}
330
F93
100
AcDbVisualStyle
2

70
20
71
2
72
2
73
0
90
0
40
-0.6
41
-30.0
62
5
63
7
74
1
91
4
64
7
65
257
75
1
175
1
42
1.0
92
10
66
7
43
1.0
76
1
77
6
78
2
67
7
79
5
170
0
171
0
290
0
174
0
93
1
44
0.0
173
0
291
1
45
0.0
1001
ACAD
1000
AcDbSavedByObjectVersion
1070
0
0
VISUALSTYLE
5
FA1
102
{ACAD_XDICTIONARY
360
109A
102
}
102
{ACAD_REACTORS
330
F93
102
}
330
F93
100
AcDbVisualStyle
2

70
14
71
2
72
2
73
0
90
0
40
-0.6
41
-30.0
62
5
63
7
74
1
91
4
64
7
65
257
75
7
175
7
42
1.0
92
8
66
7
43
1.0
76
1
77
6
78
2
67
7
79
5
170
0
171
0
290
0
174
0
93
1
44
0.0
173
0
291
1
45
0.0
1001
ACAD
1000
AcDbSavedByObjectVersion
1070
0
0
VISUALSTYLE
5
FA5
102
{ACAD_XDICTIONARY
360
10A2
102
}
102
{ACAD_REACTORS
330
F93
102
}
330
F93
100
AcDbVisualStyle
2

70
21
71
2
72
2
73
0
90
0
40
-0.6
41
-30.0
62
5
63
7
74
1
91
4
64
7
65
257
75
1
175
1
42
1.0
92
9
66
7
43
1.0
76
1
77
6
78
2
67
7
79
5
170
0
171
0
290
0
174
0
93
1
44
0.0
173
0
291
1
45
0.0
1001
ACAD
1000
AcDbSavedByObjectVersion
1070
0
0
VISUALSTYLE
5
F9D
102
{ACAD_XDICTIONARY
360
1092
102
}
102
{ACAD_REACTORS
330
F93
102
}
330
F93
100
AcDbVisualStyle
2

70
8
71
2
72
2
73
0
90
0
40
-0.6
41
-30.0
62
5
63
7
74
1
91
0
64
7
65
257
75
1
175
1
42
1.0
92
8
66
8
43
1.0
76
1
77
6
78
2
67
7
79
5
170
0
171
0
290
0
174
0
93
13
44
0.0
173
0
291
0
45
0.0
1001
ACAD
1000
AcDbSavedByObjectVersion
1070
0
0
VISUALSTYLE
5
FA0
102
{ACAD_XDICTIONARY
360
1098
102
}
102
{ACAD_REACTORS
330
F93
102
}
330
F93
100
AcDbVisualStyle
2

70
13
71
2
72
2
73
0
90
0
40
-0.6
41
-30.0
62
5
63
7
74
1
91
4
64
7
65
257
75
1
175
1
42
1.0
92
12
66
7
43
1.0
76
1
77
6
78
2
67
7
79
5
170
0
171
0
290
0
174
0
93
1
44
0.0
173
0
291
1
45
0.0
1001
ACAD
1000
AcDbSavedByObjectVersion
1070
0
0
DICTIONARYVAR
5
FF3
102
{ACAD_REACTORS
330
FF0
102
}
330
FF0
100
DictionaryVariables
280
0
1
1:1
0
DICTIONARYVAR
5
FF2
102
{ACAD_REACTORS
330
FF0
102
}
330
FF0
100
DictionaryVariables
280
0
1
STANDARD
0
DICTIONARYVAR
5
FF1
102
{ACAD_REACTORS
330
FF0
102
}
330
FF0
100
DictionaryVariables
280
0
1
STANDARD
0
DICTIONARYVAR
5
FF6
102
{ACAD_REACTORS
330
FF0
102
}
330
FF0
100
DictionaryVariables
280
0
1
1
0
DICTIONARYVAR
5
FF5
102
{ACAD_REACTORS
330
FF0
102
}
330
FF0
100
DictionaryVariables
280
0
1
0
0
DICTIONARYVAR
5
FF4
102
{ACAD_REACTORS
330
FF0
102
}
330
FF0
100
DictionaryVariables
280
0
1
127
0
DICTIONARYVAR
5
1078
102
{ACAD_REACTORS
330
FF0
102
}
330
FF0
100
DictionaryVariables
280
0
1
2
0
DICTIONARY
5
10A9
330
FD1
100
AcDbDictionary
280
1
281
1
3
ACAD_XREC_ROUNDTRIP
360
10AA
0
DICTIONARY
5
10A7
330
FD0
100
AcDbDictionary
280
1
281
1
3
ACAD_XREC_ROUNDTRIP
360
10A8
0
DICTIONARY
5
F84
330
F83
100
AcDbDictionary
280
1
281
1
3
ACAD_XREC_ROUNDTRIP
360
FFF
3
BUMPTILE
360
F86
3
DIFFUSETILE
360
F85
3
OPACITYTILE
360
F89
3
REFLECTIONTILE
360
F88
3
REFRACTIONTILE
360
F8A
3
SPECULARTILE
360
F87
0
DICTIONARY
5
F7C
330
F7B
100
AcDbDictionary
280
1
281
1
3
ACAD_XREC_ROUNDTRIP
360
FFE
3
BUMPTILE
360
F7E
3
DIFFUSETILE
360
F7D
3
OPACITYTILE
360
F81
3
REFLECTIONTILE
360
F80
3
REFRACTIONTILE
360
F82
3
SPECULARTILE
360
F7F
0
DICTIONARY
5
F8C
330
F8B
100
AcDbDictionary
280
1
281
1
3
ACAD_XREC_ROUNDTRIP
360
1000
3
BUMPTILE
360
F8E
3
DIFFUSETILE
360
F8D
3
OPACITYTILE
360
F91
3
REFLECTIONTILE
360
F90
3
REFRACTIONTILE
360
F92
3
SPECULARTILE
360
F8F
0
DICTIONARY
5
FF8
330
FA9
100
AcDbDictionary
280
1
281
1
3
ACAD_ROUNDTRIP_2008_TABLESTYLE_CELLSTYLEMAP
360
1079
3
ACAD_XREC_ROUNDTRIP
360
10A6
0
DICTIONARY
5
108A
330
F99
100
AcDbDictionary
280
1
281
1
3
ACAD_XREC_ROUNDTRIP
360
108B
0
DICTIONARY
5
108E
330
F9B
100
AcDbDictionary
280
1
281
1
3
ACAD_XREC_ROUNDTRIP
360
108F
0
DICTIONARY
5
108C
330
F9A
100
AcDbDictionary
280
1
281
1
3
ACAD_XREC_ROUNDTRIP
360
108D
0
DICTIONARY
5
1088
330
F98
100
AcDbDictionary
280
1
281
1
3
ACAD_XREC_ROUNDTRIP
360
1089
0
DICTIONARY
5
1096
330
F9F
100
AcDbDictionary
280
1
281
1
3
ACAD_XREC_ROUNDTRIP
360
1097
0
DICTIONARY
5
109E
330
FA3
100
AcDbDictionary
280
1
281
1
3
ACAD_XREC_ROUNDTRIP
360
109F
0
DICTIONARY
5
1090
330
F9C
100
AcDbDictionary
280
1
281
1
3
ACAD_XREC_ROUNDTRIP
360
1091
0
DICTIONARY
5
1094
330
F9E
100
AcDbDictionary
280
1
281
1
3
ACAD_XREC_ROUNDTRIP
360
1095
0
DICTIONARY
5
10A4
330
FA6
100
AcDbDictionary
280
1
281
1
3
ACAD_XREC_ROUNDTRIP
360
10A5
0
DICTIONARY
5
109C
330
FA2
100
AcDbDictionary
280
1
281
1
3
ACAD_XREC_ROUNDTRIP
360
109D
0
DICTIONARY
5
1080
330
F94
100
AcDbDictionary
280
1
281
1
3
ACAD_XREC_ROUNDTRIP
360
1081
0
DICTIONARY
5
1082
330
F95
100
AcDbDictionary
280
1
281
1
3
ACAD_XREC_ROUNDTRIP
360
1083
0
DICTIONARY
5
1084
330
F96
100
AcDbDictionary
280
1
281
1
3
ACAD_XREC_ROUNDTRIP
360
1085
0
DICTIONARY
5
1086
330
F97
100
AcDbDictionary
280
1
281
1
3
ACAD_XREC_ROUNDTRIP
360
1087
0
DICTIONARY
5
10A0
330
FA4
100
AcDbDictionary
280
1
281
1
3
ACAD_XREC_ROUNDTRIP
360
10A1
0
DICTIONARY
5
109A
330
FA1
100
AcDbDictionary
280
1
281
1
3
ACAD_XREC_ROUNDTRIP
360
109B
0
DICTIONARY
5
10A2
330
FA5
100
AcDbDictionary
280
1
281
1
3
ACAD_XREC_ROUNDTRIP
360
10A3
0
DICTIONARY
5
1092
330
F9D
100
AcDbDictionary
280
1
281
1
3
ACAD_XREC_ROUNDTRIP
360
1093
0
DICTIONARY
5
1098
330
FA0
100
AcDbDictionary
280
1
281
1
3
ACAD_XREC_ROUNDTRIP
360
1099
0
XRECORD
5
10AA
102
{ACAD_REACTORS
330
10A9
102
}
330
10A9
100
AcDbXrecord
280
1
102
SHADEPLOT
70
0
102
SHADEPLOTRESLEVEL
70
2
102
SHADEPLOTCUSTOMDPI
70
300
0
XRECORD
5
10A8
102
{ACAD_REACTORS
330
10A7
102
}
330
10A7
100
AcDbXrecord
280
1
102
SHADEPLOT
70
0
102
SHADEPLOTRESLEVEL
70
2
102
SHADEPLOTCUSTOMDPI
70
300
0
XRECORD
5
FFF
102
{ACAD_REACTORS
330
F84
102
}
330
F84
100
AcDbXrecord
280
1
102
MATERIAL
148
0.0
149
0.0
149
0.0
93
0
94
127
282
0
72
0
77
0
171
0
175
0
179
0
273
0
0
XRECORD
5
F86
102
{ACAD_REACTORS
330
F84
102
}
330
F84
100
AcDbXrecord
280
1
270
1
271
1
0
XRECORD
5
F85
102
{ACAD_REACTORS
330
F84
102
}
330
F84
100
AcDbXrecord
280
1
270
1
271
1
0
XRECORD
5
F89
102
{ACAD_REACTORS
330
F84
102
}
330
F84
100
AcDbXrecord
280
1
270
1
271
1
0
XRECORD
5
F88
102
{ACAD_REACTORS
330
F84
102
}
330
F84
100
AcDbXrecord
280
1
270
1
271
1
0
XRECORD
5
F8A
102
{ACAD_REACTORS
330
F84
102
}
330
F84
100
AcDbXrecord
280
1
270
1
271
1
0
XRECORD
5
F87
102
{ACAD_REACTORS
330
F84
102
}
330
F84
100
AcDbXrecord
280
1
270
1
271
1
0
XRECORD
5
FFE
102
{ACAD_REACTORS
330
F7C
102
}
330
F7C
100
AcDbXrecord
280
1
102
MATERIAL
148
0.0
149
0.0
149
0.0
93
0
94
127
282
0
72
0
77
0
171
0
175
0
179
0
273
0
0
XRECORD
5
F7E
102
{ACAD_REACTORS
330
F7C
102
}
330
F7C
100
AcDbXrecord
280
1
270
1
271
1
0
XRECORD
5
F7D
102
{ACAD_REACTORS
330
F7C
102
}
330
F7C
100
AcDbXrecord
280
1
270
1
271
1
0
XRECORD
5
F81
102
{ACAD_REACTORS
330
F7C
102
}
330
F7C
100
AcDbXrecord
280
1
270
1
271
1
0
XRECORD
5
F80
102
{ACAD_REACTORS
330
F7C
102
}
330
F7C
100
AcDbXrecord
280
1
270
1
271
1
0
XRECORD
5
F82
102
{ACAD_REACTORS
330
F7C
102
}
330
F7C
100
AcDbXrecord
280
1
270
1
271
1
0
XRECORD
5
F7F
102
{ACAD_REACTORS
330
F7C
102
}
330
F7C
100
AcDbXrecord
280
1
270
1
271
1
0
XRECORD
5
1000
102
{ACAD_REACTORS
330
F8C
102
}
330
F8C
100
AcDbXrecord
280
1
102
MATERIAL
148
0.0
149
0.0
149
0.0
93
0
94
127
282
0
72
0
77
0
171
0
175
0
179
0
273
0
0
XRECORD
5
F8E
102
{ACAD_REACTORS
330
F8C
102
}
330
F8C
100
AcDbXrecord
280
1
270
1
271
1
0
XRECORD
5
F8D
102
{ACAD_REACTORS
330
F8C
102
}
330
F8C
100
AcDbXrecord
280
1
270
1
271
1
0
XRECORD
5
F91
102
{ACAD_REACTORS
330
F8C
102
}
330
F8C
100
AcDbXrecord
280
1
270
1
271
1
0
XRECORD
5
F90
102
{ACAD_REACTORS
330
F8C
102
}
330
F8C
100
AcDbXrecord
280
1
270
1
271
1
0
XRECORD
5
F92
102
{ACAD_REACTORS
330
F8C
102
}
330
F8C
100
AcDbXrecord
280
1
270
1
271
1
0
XRECORD
5
F8F
102
{ACAD_REACTORS
330
F8C
102
}
330
F8C
100
AcDbXrecord
280
1
270
1
271
1
0
CELLSTYLEMAP
5
1079
102
{ACAD_REACTORS
330
FF8
102
}
330
FF8
100
AcDbCellStyleMap
90
3
300
CELLSTYLE
1
TABLEFORMAT_BEGIN
90
5
170
1
91
0
92
32768
62
257
93
1
300
CONTENTFORMAT
1
CONTENTFORMAT_BEGIN
90
0
91
0
92
512
93
0
300

40
0.0
140
1.0
94
5
62
0
340
253
144
0.25
309
CONTENTFORMAT_END
171
1
301
MARGIN
1
CELLMARGIN_BEGIN
40
0.06
40
0.06
40
0.06
40
0.06
40
0.18
40
0.18
309
CELLMARGIN_END
94
6
95
1
302
GRIDFORMAT
1
GRIDFORMAT_BEGIN
90
0
91
1
62
0
92
-2
340
0
93
0
40
0.045
309
GRIDFORMAT_END
95
2
302
GRIDFORMAT
1
GRIDFORMAT_BEGIN
90
0
91
1
62
0
92
-2
340
0
93
0
40
0.045
309
GRIDFORMAT_END
95
4
302
GRIDFORMAT
1
GRIDFORMAT_BEGIN
90
0
91
1
62
0
92
-2
340
0
93
0
40
0.045
309
GRIDFORMAT_END
95
8
302
GRIDFORMAT
1
GRIDFORMAT_BEGIN
90
0
91
1
62
0
92
-2
340
0
93
0
40
0.045
309
GRIDFORMAT_END
95
16
302
GRIDFORMAT
1
GRIDFORMAT_BEGIN
90
0
91
1
62
0
92
-2
340
0
93
0
40
0.045
309
GRIDFORMAT_END
95
32
302
GRIDFORMAT
1
GRIDFORMAT_BEGIN
90
0
91
1
62
0
92
-2
340
0
93
0
40
0.045
309
GRIDFORMAT_END
309
TABLEFORMAT_END
1
CELLSTYLE_BEGIN
90
1
91
1
300
_TITLE
309
CELLSTYLE_END
300
CELLSTYLE
1
TABLEFORMAT_BEGIN
90
5
170
1
91
0
92
0
62
257
93
1
300
CONTENTFORMAT
1
CONTENTFORMAT_BEGIN
90
0
91
0
92
512
93
0
300

40
0.0
140
1.0
94
5
62
0
340
253
144
0.18
309
CONTENTFORMAT_END
171
1
301
MARGIN
1
CELLMARGIN_BEGIN
40
0.06
40
0.06
40
0.06
40
0.06
40
0.18
40
0.18
309
CELLMARGIN_END
94
6
95
1
302
GRIDFORMAT
1
GRIDFORMAT_BEGIN
90
0
91
1
62
0
92
-2
340
0
93
0
40
0.045
309
GRIDFORMAT_END
95
2
302
GRIDFORMAT
1
GRIDFORMAT_BEGIN
90
0
91
1
62
0
92
-2
340
0
93
0
40
0.045
309
GRIDFORMAT_END
95
4
302
GRIDFORMAT
1
GRIDFORMAT_BEGIN
90
0
91
1
62
0
92
-2
340
0
93
0
40
0.045
309
GRIDFORMAT_END
95
8
302
GRIDFORMAT
1
GRIDFORMAT_BEGIN
90
0
91
1
62
0
92
-2
340
0
93
0
40
0.045
309
GRIDFORMAT_END
95
16
302
GRIDFORMAT
1
GRIDFORMAT_BEGIN
90
0
91
1
62
0
92
-2
340
0
93
0
40
0.045
309
GRIDFORMAT_END
95
32
302
GRIDFORMAT
1
GRIDFORMAT_BEGIN
90
0
91
1
62
0
92
-2
340
0
93
0
40
0.045
309
GRIDFORMAT_END
309
TABLEFORMAT_END
1
CELLSTYLE_BEGIN
90
2
91
1
300
_HEADER
309
CELLSTYLE_END
300
CELLSTYLE
1
TABLEFORMAT_BEGIN
90
5
170
1
91
0
92
0
62
257
93
1
300
CONTENTFORMAT
1
CONTENTFORMAT_BEGIN
90
0
91
0
92
512
93
0
300

40
0.0
140
1.0
94
2
62
0
340
253
144
0.18
309
CONTENTFORMAT_END
171
1
301
MARGIN
1
CELLMARGIN_BEGIN
40
0.06
40
0.06
40
0.06
40
0.06
40
0.18
40
0.18
309
CELLMARGIN_END
94
6
95
1
302
GRIDFORMAT
1
GRIDFORMAT_BEGIN
90
0
91
1
62
0
92
-2
340
0
93
0
40
0.045
309
GRIDFORMAT_END
95
2
302
GRIDFORMAT
1
GRIDFORMAT_BEGIN
90
0
91
1
62
0
92
-2
340
0
93
0
40
0.045
309
GRIDFORMAT_END
95
4
302
GRIDFORMAT
1
GRIDFORMAT_BEGIN
90
0
91
1
62
0
92
-2
340
0
93
0
40
0.045
309
GRIDFORMAT_END
95
8
302
GRIDFORMAT
1
GRIDFORMAT_BEGIN
90
0
91
1
62
0
92
-2
340
0
93
0
40
0.045
309
GRIDFORMAT_END
95
16
302
GRIDFORMAT
1
GRIDFORMAT_BEGIN
90
0
91
1
62
0
92
-2
340
0
93
0
40
0.045
309
GRIDFORMAT_END
95
32
302
GRIDFORMAT
1
GRIDFORMAT_BEGIN
90
0
91
1
62
0
92
-2
340
0
93
0
40
0.045
309
GRIDFORMAT_END
309
TABLEFORMAT_END
1
CELLSTYLE_BEGIN
90
3
91
2
300
_DATA
309
CELLSTYLE_END
0
XRECORD
5
10A6
102
{ACAD_REACTORS
330
FF8
102
}
330
FF8
100
AcDbXrecord
280
1
102
ACAD_ROUNDTRIP_PRE2007_TABLESTYLE
90
512
91
0
1

92
512
93
0
2

94
512
95
0
3

0
XRECORD
5
108B
102
{ACAD_REACTORS
330
108A
102
}
330
108A
100
AcDbXrecord
280
1
102
RTVSPropertyOp0
70
1
102
RTVSPropertyOp1
70
1
102
RTVSPropertyOp2
70
1
102
RTVSPropertyOp3
70
1
102
RTVSPropertyOp4
70
1
102
RTVSPropertyOp5
70
1
102
RTVSPropertyOp6
70
1
102
RTVSPropertyOp7
70
1
102
RTVSPropertyOp8
70
1
102
RTVSPropertyOp9
70
1
102
RTVSPropertyOp10
70
1
102
RTVSPropertyOp11
70
1
102
RTVSPropertyOp12
70
1
102
RTVSPropertyOp13
70
1
102
RTVSPropertyOp14
70
1
102
RTVSPropertyOp15
70
1
102
RTVSPropertyOp16
70
1
102
RTVSPropertyOp17
70
1
102
RTVSPropertyOp18
70
1
102
RTVSPropertyOp19
70
1
102
RTVSPropertyOp20
70
1
102
RTVSPropertyOp21
70
1
102
RTVSPropertyOp22
70
1
102
RTVSPropertyOp23
70
1
102
RTVSPropertyOp24
70
1
102
RTVSPropertyOp25
70
1
102
RTVSPropertyOp26
70
1
102
RTVSPropertyOp27
70
1
0
XRECORD
5
108F
102
{ACAD_REACTORS
330
108E
102
}
330
108E
100
AcDbXrecord
280
1
102
RTVSPropertyOp0
70
1
102
RTVSPropertyOp1
70
1
102
RTVSPropertyOp2
70
1
102
RTVSPropertyOp3
70
1
102
RTVSPropertyOp4
70
1
102
RTVSPropertyOp5
70
1
102
RTVSPropertyOp6
70
1
102
RTVSPropertyOp7
70
1
102
RTVSPropertyOp8
70
1
102
RTVSPropertyOp9
70
1
102
RTVSPropertyOp10
70
1
102
RTVSPropertyOp11
70
1
102
RTVSPropertyOp12
70
1
102
RTVSPropertyOp13
70
1
102
RTVSPropertyOp14
70
1
102
RTVSPropertyOp15
70
1
102
RTVSPropertyOp16
70
1
102
RTVSPropertyOp17
70
1
102
RTVSPropertyOp18
70
1
102
RTVSPropertyOp19
70
1
102
RTVSPropertyOp20
70
1
102
RTVSPropertyOp21
70
1
102
RTVSPropertyOp22
70
1
102
RTVSPropertyOp23
70
1
102
RTVSPropertyOp24
70
1
102
RTVSPropertyOp25
70
1
102
RTVSPropertyOp26
70
1
102
RTVSPropertyOp27
70
1
0
XRECORD
5
108D
102
{ACAD_REACTORS
330
108C
102
}
330
108C
100
AcDbXrecord
280
1
102
RTVSPropertyOp0
70
1
102
RTVSPropertyOp1
70
1
102
RTVSPropertyOp2
70
1
102
RTVSPropertyOp3
70
1
102
RTVSPropertyOp4
70
1
102
RTVSPropertyOp5
70
1
102
RTVSPropertyOp6
70
1
102
RTVSPropertyOp7
70
1
102
RTVSPropertyOp8
70
1
102
RTVSPropertyOp9
70
1
102
RTVSPropertyOp10
70
1
102
RTVSPropertyOp11
70
1
102
RTVSPropertyOp12
70
1
102
RTVSPropertyOp13
70
1
102
RTVSPropertyOp14
70
1
102
RTVSPropertyOp15
70
1
102
RTVSPropertyOp16
70
1
102
RTVSPropertyOp17
70
1
102
RTVSPropertyOp18
70
1
102
RTVSPropertyOp19
70
1
102
RTVSPropertyOp20
70
1
102
RTVSPropertyOp21
70
1
102
RTVSPropertyOp22
70
1
102
RTVSPropertyOp23
70
1
102
RTVSPropertyOp24
70
1
102
RTVSPropertyOp25
70
1
102
RTVSPropertyOp26
70
1
102
RTVSPropertyOp27
70
1
0
XRECORD
5
1089
102
{ACAD_REACTORS
330
1088
102
}
330
1088
100
AcDbXrecord
280
1
102
RTVSPropertyOp0
70
1
102
RTVSPropertyOp1
70
1
102
RTVSPropertyOp2
70
1
102
RTVSPropertyOp3
70
1
102
RTVSPropertyOp4
70
1
102
RTVSPropertyOp5
70
1
102
RTVSPropertyOp6
70
1
102
RTVSPropertyOp7
70
1
102
RTVSPropertyOp8
70
1
102
RTVSPropertyOp9
70
1
102
RTVSPropertyOp10
70
1
102
RTVSPropertyOp11
70
1
102
RTVSPropertyOp12
70
1
102
RTVSPropertyOp13
70
1
102
RTVSPropertyOp14
70
1
102
RTVSPropertyOp15
70
1
102
RTVSPropertyOp16
70
1
102
RTVSPropertyOp17
70
1
102
RTVSPropertyOp18
70
1
102
RTVSPropertyOp19
70
1
102
RTVSPropertyOp20
70
1
102
RTVSPropertyOp21
70
1
102
RTVSPropertyOp22
70
1
102
RTVSPropertyOp23
70
1
102
RTVSPropertyOp24
70
1
102
RTVSPropertyOp25
70
1
102
RTVSPropertyOp26
70
1
102
RTVSPropertyOp27
70
1
0
XRECORD
5
1097
102
{ACAD_REACTORS
330
1096
102
}
330
1096
100
AcDbXrecord
280
1
102
RTVSPropertyOp0
70
1
102
RTVSPropertyOp1
70
1
102
RTVSPropertyOp2
70
1
102
RTVSPropertyOp3
70
1
102
RTVSPropertyOp4
70
1
102
RTVSPropertyOp5
70
1
102
RTVSPropertyOp6
70
1
102
RTVSPropertyOp7
70
1
102
RTVSPropertyOp8
70
1
102
RTVSPropertyOp9
70
1
102
RTVSPropertyOp10
70
1
102
RTVSPropertyOp11
70
1
102
RTVSPropertyOp12
70
1
102
RTVSPropertyOp13
70
1
102
RTVSPropertyOp14
70
1
102
RTVSPropertyOp15
70
1
102
RTVSPropertyOp16
70
1
102
RTVSPropertyOp17
70
1
102
RTVSPropertyOp18
70
1
102
RTVSPropertyOp19
70
1
102
RTVSPropertyOp20
70
1
102
RTVSPropertyOp21
70
1
102
RTVSPropertyOp22
70
1
102
RTVSPropertyOp23
70
1
102
RTVSPropertyOp24
70
1
102
RTVSPropertyOp25
70
1
102
RTVSPropertyOp26
70
1
102
RTVSPropertyOp27
70
1
0
XRECORD
5
109F
102
{ACAD_REACTORS
330
109E
102
}
330
109E
100
AcDbXrecord
280
1
102
RTVSPropertyOp0
70
1
102
RTVSPropertyOp1
70
1
102
RTVSPropertyOp2
70
1
102
RTVSPropertyOp3
70
1
102
RTVSPropertyOp4
70
1
102
RTVSPropertyOp5
70
1
102
RTVSPropertyOp6
70
1
102
RTVSPropertyOp7
70
1
102
RTVSPropertyOp8
70
1
102
RTVSPropertyOp9
70
1
102
RTVSPropertyOp10
70
1
102
RTVSPropertyOp11
70
1
102
RTVSPropertyOp12
70
1
102
RTVSPropertyOp13
70
1
102
RTVSPropertyOp14
70
1
102
RTVSPropertyOp15
70
1
102
RTVSPropertyOp16
70
1
102
RTVSPropertyOp17
70
1
102
RTVSPropertyOp18
70
1
102
RTVSPropertyOp19
70
1
102
RTVSPropertyOp20
70
1
102
RTVSPropertyOp21
70
1
102
RTVSPropertyOp22
70
1
102
RTVSPropertyOp23
70
1
102
RTVSPropertyOp24
70
1
102
RTVSPropertyOp25
70
1
102
RTVSPropertyOp26
70
1
102
RTVSPropertyOp27
70
1
0
XRECORD
5
1091
102
{ACAD_REACTORS
330
1090
102
}
330
1090
100
AcDbXrecord
280
1
102
RTVSPropertyOp0
70
1
102
RTVSPropertyOp1
70
1
102
RTVSPropertyOp2
70
1
102
RTVSPropertyOp3
70
1
102
RTVSPropertyOp4
70
1
102
RTVSPropertyOp5
70
1
102
RTVSPropertyOp6
70
1
102
RTVSPropertyOp7
70
1
102
RTVSPropertyOp8
70
1
102
RTVSPropertyOp9
70
1
102
RTVSPropertyOp10
70
1
102
RTVSPropertyOp11
70
1
102
RTVSPropertyOp12
70
1
102
RTVSPropertyOp13
70
1
102
RTVSPropertyOp14
70
1
102
RTVSPropertyOp15
70
1
102
RTVSPropertyOp16
70
1
102
RTVSPropertyOp17
70
1
102
RTVSPropertyOp18
70
1
102
RTVSPropertyOp19
70
1
102
RTVSPropertyOp20
70
1
102
RTVSPropertyOp21
70
1
102
RTVSPropertyOp22
70
1
102
RTVSPropertyOp23
70
1
102
RTVSPropertyOp24
70
1
102
RTVSPropertyOp25
70
1
102
RTVSPropertyOp26
70
1
102
RTVSPropertyOp27
70
1
0
XRECORD
5
1095
102
{ACAD_REACTORS
330
1094
102
}
330
1094
100
AcDbXrecord
280
1
102
RTVSPropertyOp0
70
1
102
RTVSPropertyOp1
70
1
102
RTVSPropertyOp2
70
1
102
RTVSPropertyOp3
70
1
102
RTVSPropertyOp4
70
1
102
RTVSPropertyOp5
70
1
102
RTVSPropertyOp6
70
1
102
RTVSPropertyOp7
70
1
102
RTVSPropertyOp8
70
1
102
RTVSPropertyOp9
70
1
102
RTVSPropertyOp10
70
1
102
RTVSPropertyOp11
70
1
102
RTVSPropertyOp12
70
1
102
RTVSPropertyOp13
70
1
102
RTVSPropertyOp14
70
1
102
RTVSPropertyOp15
70
1
102
RTVSPropertyOp16
70
1
102
RTVSPropertyOp17
70
1
102
RTVSPropertyOp18
70
1
102
RTVSPropertyOp19
70
1
102
RTVSPropertyOp20
70
1
102
RTVSPropertyOp21
70
1
102
RTVSPropertyOp22
70
1
102
RTVSPropertyOp23
70
1
102
RTVSPropertyOp24
70
1
102
RTVSPropertyOp25
70
1
102
RTVSPropertyOp26
70
1
102
RTVSPropertyOp27
70
1
0
XRECORD
5
10A5
102
{ACAD_REACTORS
330
10A4
102
}
330
10A4
100
AcDbXrecord
280
1
102
RTVSPropertyOp0
70
0
102
RTVSPropertyOp1
70
0
102
RTVSPropertyOp2
70
0
102
RTVSPropertyOp3
70
0
102
RTVSPropertyOp4
70
0
102
RTVSPropertyOp5
70
0
102
RTVSPropertyOp6
70
0
102
RTVSPropertyOp7
70
0
102
RTVSPropertyOp8
70
0
102
RTVSPropertyOp9
70
0
102
RTVSPropertyOp10
70
0
102
RTVSPropertyOp11
70
0
102
RTVSPropertyOp12
70
0
102
RTVSPropertyOp13
70
0
102
RTVSPropertyOp14
70
2
102
RTVSPropertyOp15
70
0
102
RTVSPropertyOp16
70
0
102
RTVSPropertyOp17
70
0
102
RTVSPropertyOp18
70
0
102
RTVSPropertyOp19
70
0
102
RTVSPropertyOp20
70
0
102
RTVSPropertyOp21
70
0
102
RTVSPropertyOp22
70
0
102
RTVSPropertyOp23
70
0
102
RTVSPropertyOp24
70
0
102
RTVSPropertyOp25
70
0
102
RTVSPropertyOp26
70
0
102
RTVSPropertyOp27
70
0
0
XRECORD
5
109D
102
{ACAD_REACTORS
330
109C
102
}
330
109C
100
AcDbXrecord
280
1
102
RTVSPropertyOp0
70
1
102
RTVSPropertyOp1
70
1
102
RTVSPropertyOp2
70
1
102
RTVSPropertyOp3
70
1
102
RTVSPropertyOp4
70
1
102
RTVSPropertyOp5
70
1
102
RTVSPropertyOp6
70
1
102
RTVSPropertyOp7
70
1
102
RTVSPropertyOp8
70
1
102
RTVSPropertyOp9
70
1
102
RTVSPropertyOp10
70
1
102
RTVSPropertyOp11
70
1
102
RTVSPropertyOp12
70
1
102
RTVSPropertyOp13
70
1
102
RTVSPropertyOp14
70
1
102
RTVSPropertyOp15
70
1
102
RTVSPropertyOp16
70
1
102
RTVSPropertyOp17
70
1
102
RTVSPropertyOp18
70
1
102
RTVSPropertyOp19
70
1
102
RTVSPropertyOp20
70
1
102
RTVSPropertyOp21
70
1
102
RTVSPropertyOp22
70
1
102
RTVSPropertyOp23
70
1
102
RTVSPropertyOp24
70
1
102
RTVSPropertyOp25
70
1
102
RTVSPropertyOp26
70
1
102
RTVSPropertyOp27
70
1
0
XRECORD
5
1081
102
{ACAD_REACTORS
330
1080
102
}
330
1080
100
AcDbXrecord
280
1
102
RTVSPropertyOp0
70
1
102
RTVSPropertyOp1
70
1
102
RTVSPropertyOp2
70
1
102
RTVSPropertyOp3
70
1
102
RTVSPropertyOp4
70
1
102
RTVSPropertyOp5
70
1
102
RTVSPropertyOp6
70
1
102
RTVSPropertyOp7
70
1
102
RTVSPropertyOp8
70
1
102
RTVSPropertyOp9
70
1
102
RTVSPropertyOp10
70
1
102
RTVSPropertyOp11
70
1
102
RTVSPropertyOp12
70
1
102
RTVSPropertyOp13
70
1
102
RTVSPropertyOp14
70
1
102
RTVSPropertyOp15
70
1
102
RTVSPropertyOp16
70
1
102
RTVSPropertyOp17
70
1
102
RTVSPropertyOp18
70
1
102
RTVSPropertyOp19
70
1
102
RTVSPropertyOp20
70
1
102
RTVSPropertyOp21
70
1
102
RTVSPropertyOp22
70
1
102
RTVSPropertyOp23
70
1
102
RTVSPropertyOp24
70
1
102
RTVSPropertyOp25
70
1
102
RTVSPropertyOp26
70
1
102
RTVSPropertyOp27
70
1
0
XRECORD
5
1083
102
{ACAD_REACTORS
330
1082
102
}
330
1082
100
AcDbXrecord
280
1
102
RTVSPropertyOp0
70
1
102
RTVSPropertyOp1
70
1
102
RTVSPropertyOp2
70
1
102
RTVSPropertyOp3
70
1
102
RTVSPropertyOp4
70
1
102
RTVSPropertyOp5
70
1
102
RTVSPropertyOp6
70
1
102
RTVSPropertyOp7
70
1
102
RTVSPropertyOp8
70
1
102
RTVSPropertyOp9
70
1
102
RTVSPropertyOp10
70
1
102
RTVSPropertyOp11
70
1
102
RTVSPropertyOp12
70
1
102
RTVSPropertyOp13
70
1
102
RTVSPropertyOp14
70
1
102
RTVSPropertyOp15
70
1
102
RTVSPropertyOp16
70
1
102
RTVSPropertyOp17
70
1
102
RTVSPropertyOp18
70
1
102
RTVSPropertyOp19
70
1
102
RTVSPropertyOp20
70
1
102
RTVSPropertyOp21
70
1
102
RTVSPropertyOp22
70
1
102
RTVSPropertyOp23
70
1
102
RTVSPropertyOp24
70
1
102
RTVSPropertyOp25
70
1
102
RTVSPropertyOp26
70
1
102
RTVSPropertyOp27
70
1
0
XRECORD
5
1085
102
{ACAD_REACTORS
330
1084
102
}
330
1084
100
AcDbXrecord
280
1
102
RTVSPropertyOp0
70
1
102
RTVSPropertyOp1
70
1
102
RTVSPropertyOp2
70
1
102
RTVSPropertyOp3
70
1
102
RTVSPropertyOp4
70
1
102
RTVSPropertyOp5
70
1
102
RTVSPropertyOp6
70
1
102
RTVSPropertyOp7
70
1
102
RTVSPropertyOp8
70
1
102
RTVSPropertyOp9
70
1
102
RTVSPropertyOp10
70
1
102
RTVSPropertyOp11
70
1
102
RTVSPropertyOp12
70
1
102
RTVSPropertyOp13
70
1
102
RTVSPropertyOp14
70
1
102
RTVSPropertyOp15
70
1
102
RTVSPropertyOp16
70
1
102
RTVSPropertyOp17
70
1
102
RTVSPropertyOp18
70
1
102
RTVSPropertyOp19
70
1
102
RTVSPropertyOp20
70
1
102
RTVSPropertyOp21
70
1
102
RTVSPropertyOp22
70
1
102
RTVSPropertyOp23
70
1
102
RTVSPropertyOp24
70
1
102
RTVSPropertyOp25
70
1
102
RTVSPropertyOp26
70
1
102
RTVSPropertyOp27
70
1
0
XRECORD
5
1087
102
{ACAD_REACTORS
330
1086
102
}
330
1086
100
AcDbXrecord
280
1
102
RTVSPropertyOp0
70
1
102
RTVSPropertyOp1
70
1
102
RTVSPropertyOp2
70
1
102
RTVSPropertyOp3
70
1
102
RTVSPropertyOp4
70
1
102
RTVSPropertyOp5
70
1
102
RTVSPropertyOp6
70
1
102
RTVSPropertyOp7
70
1
102
RTVSPropertyOp8
70
1
102
RTVSPropertyOp9
70
1
102
RTVSPropertyOp10
70
1
102
RTVSPropertyOp11
70
1
102
RTVSPropertyOp12
70
1
102
RTVSPropertyOp13
70
1
102
RTVSPropertyOp14
70
1
102
RTVSPropertyOp15
70
1
102
RTVSPropertyOp16
70
1
102
RTVSPropertyOp17
70
1
102
RTVSPropertyOp18
70
1
102
RTVSPropertyOp19
70
1
102
RTVSPropertyOp20
70
1
102
RTVSPropertyOp21
70
1
102
RTVSPropertyOp22
70
1
102
RTVSPropertyOp23
70
1
102
RTVSPropertyOp24
70
1
102
RTVSPropertyOp25
70
1
102
RTVSPropertyOp26
70
1
102
RTVSPropertyOp27
70
1
0
XRECORD
5
10A1
102
{ACAD_REACTORS
330
10A0
102
}
330
10A0
100
AcDbXrecord
280
1
102
RTVSPropertyOp0
70
0
102
RTVSPropertyOp1
70
0
102
RTVSPropertyOp2
70
0
102
RTVSPropertyOp3
70
0
102
RTVSPropertyOp4
70
0
102
RTVSPropertyOp5
70
0
102
RTVSPropertyOp6
70
0
102
RTVSPropertyOp7
70
0
102
RTVSPropertyOp8
70
0
102
RTVSPropertyOp9
70
0
102
RTVSPropertyOp10
70
0
102
RTVSPropertyOp11
70
0
102
RTVSPropertyOp12
70
0
102
RTVSPropertyOp13
70
0
102
RTVSPropertyOp14
70
2
102
RTVSPropertyOp15
70
0
102
RTVSPropertyOp16
70
0
102
RTVSPropertyOp17
70
0
102
RTVSPropertyOp18
70
0
102
RTVSPropertyOp19
70
0
102
RTVSPropertyOp20
70
0
102
RTVSPropertyOp21
70
0
102
RTVSPropertyOp22
70
0
102
RTVSPropertyOp23
70
0
102
RTVSPropertyOp24
70
0
102
RTVSPropertyOp25
70
0
102
RTVSPropertyOp26
70
0
102
RTVSPropertyOp27
70
0
0
XRECORD
5
109B
102
{ACAD_REACTORS
330
109A
102
}
330
109A
100
AcDbXrecord
280
1
102
RTVSPropertyOp0
70
1
102
RTVSPropertyOp1
70
1
102
RTVSPropertyOp2
70
1
102
RTVSPropertyOp3
70
1
102
RTVSPropertyOp4
70
1
102
RTVSPropertyOp5
70
1
102
RTVSPropertyOp6
70
1
102
RTVSPropertyOp7
70
1
102
RTVSPropertyOp8
70
1
102
RTVSPropertyOp9
70
1
102
RTVSPropertyOp10
70
1
102
RTVSPropertyOp11
70
1
102
RTVSPropertyOp12
70
1
102
RTVSPropertyOp13
70
1
102
RTVSPropertyOp14
70
1
102
RTVSPropertyOp15
70
1
102
RTVSPropertyOp16
70
1
102
RTVSPropertyOp17
70
1
102
RTVSPropertyOp18
70
1
102
RTVSPropertyOp19
70
1
102
RTVSPropertyOp20
70
1
102
RTVSPropertyOp21
70
1
102
RTVSPropertyOp22
70
1
102
RTVSPropertyOp23
70
1
102
RTVSPropertyOp24
70
1
102
RTVSPropertyOp25
70
1
102
RTVSPropertyOp26
70
1
102
RTVSPropertyOp27
70
1
0
XRECORD
5
10A3
102
{ACAD_REACTORS
330
10A2
102
}
330
10A2
100
AcDbXrecord
280
1
102
RTVSPropertyOp0
70
0
102
RTVSPropertyOp1
70
0
102
RTVSPropertyOp2
70
0
102
RTVSPropertyOp3
70
0
102
RTVSPropertyOp4
70
0
102
RTVSPropertyOp5
70
0
102
RTVSPropertyOp6
70
0
102
RTVSPropertyOp7
70
0
102
RTVSPropertyOp8
70
0
102
RTVSPropertyOp9
70
0
102
RTVSPropertyOp10
70
0
102
RTVSPropertyOp11
70
0
102
RTVSPropertyOp12
70
0
102
RTVSPropertyOp13
70
0
102
RTVSPropertyOp14
70
2
102
RTVSPropertyOp15
70
0
102
RTVSPropertyOp16
70
0
102
RTVSPropertyOp17
70
0
102
RTVSPropertyOp18
70
0
102
RTVSPropertyOp19
70
0
102
RTVSPropertyOp20
70
0
102
RTVSPropertyOp21
70
0
102
RTVSPropertyOp22
70
0
102
RTVSPropertyOp23
70
0
102
RTVSPropertyOp24
70
0
102
RTVSPropertyOp25
70
0
102
RTVSPropertyOp26
70
0
102
RTVSPropertyOp27
70
0
0
XRECORD
5
1093
102
{ACAD_REACTORS
330
1092
102
}
330
1092
100
AcDbXrecord
280
1
102
RTVSPropertyOp0
70
1
102
RTVSPropertyOp1
70
1
102
RTVSPropertyOp2
70
1
102
RTVSPropertyOp3
70
1
102
RTVSPropertyOp4
70
1
102
RTVSPropertyOp5
70
1
102
RTVSPropertyOp6
70
1
102
RTVSPropertyOp7
70
1
102
RTVSPropertyOp8
70
1
102
RTVSPropertyOp9
70
1
102
RTVSPropertyOp10
70
1
102
RTVSPropertyOp11
70
1
102
RTVSPropertyOp12
70
1
102
RTVSPropertyOp13
70
1
102
RTVSPropertyOp14
70
1
102
RTVSPropertyOp15
70
1
102
RTVSPropertyOp16
70
1
102
RTVSPropertyOp17
70
1
102
RTVSPropertyOp18
70
1
102
RTVSPropertyOp19
70
1
102
RTVSPropertyOp20
70
1
102
RTVSPropertyOp21
70
1
102
RTVSPropertyOp22
70
1
102
RTVSPropertyOp23
70
1
102
RTVSPropertyOp24
70
1
102
RTVSPropertyOp25
70
1
102
RTVSPropertyOp26
70
1
102
RTVSPropertyOp27
70
1
0
XRECORD
5
1099
102
{ACAD_REACTORS
330
1098
102
}
330
1098
100
AcDbXrecord
280
1
102
RTVSPropertyOp0
70
1
102
RTVSPropertyOp1
70
1
102
RTVSPropertyOp2
70
1
102
RTVSPropertyOp3
70
1
102
RTVSPropertyOp4
70
1
102
RTVSPropertyOp5
70
1
102
RTVSPropertyOp6
70
1
102
RTVSPropertyOp7
70
1
102
RTVSPropertyOp8
70
1
102
RTVSPropertyOp9
70
1
102
RTVSPropertyOp10
70
1
102
RTVSPropertyOp11
70
1
102
RTVSPropertyOp12
70
1
102
RTVSPropertyOp13
70
1
102
RTVSPropertyOp14
70
1
102
RTVSPropertyOp15
70
1
102
RTVSPropertyOp16
70
1
102
RTVSPropertyOp17
70
1
102
RTVSPropertyOp18
70
1
102
RTVSPropertyOp19
70
1
102
RTVSPropertyOp20
70
1
102
RTVSPropertyOp21
70
1
102
RTVSPropertyOp22
70
1
102
RTVSPropertyOp23
70
1
102
RTVSPropertyOp24
70
1
102
RTVSPropertyOp25
70
1
102
RTVSPropertyOp26
70
1
102
RTVSPropertyOp27
70
1
0
ENDSEC
0
EOF
