0
SECTION
2
HEADER
9
$ACADVER
1
AC1015
9
$ACADMAINTVER
70
20
9
$DWGCODEPAGE
3
ANSI_1252
9
$INSBASE
10
0.0
20
0.0
30
0.0
9
$EXTMIN
10
-150.000000000000
20
-105.000000000000
30
0.0
9
$EXTMAX
10
150.000000000000
20
105.000000000000
30
0.0
9
$LIMMIN
10
0.0
20
0.0
9
$LIMMAX
10
12.0
20
9.0
9
$ORTHOMODE
70
0
9
$REGENMODE
70
1
9
$FILLMODE
70
1
9
$QTEXTMODE
70
0
9
$MIRRTEXT
70
1
9
$LTSCALE
40
1.0
9
$ATTMODE
70
1
9
$TEXTSIZE
40
0.2
9
$TRACEWID
40
0.05
9
$TEXTSTYLE
7
Standard
9
$CLAYER
8
0
9
$CELTYPE
6
ByLayer
9
$CECOLOR
62
256
9
$CELTSCALE
40
1.0
9
$DISPSILH
70
0
9
$DIMSCALE
40
1.0
9
$DIMASZ
40
2.5
9
$DIMEXO
40
0.625
9
$DIMDLI
40
0.38
9
$DIMRND
40
0.0
9
$DIMDLE
40
0.0
9
$DIMEXE
40
1.25
9
$DIMTP
40
0.0
9
$DIMTM
40
0.000000001
9
$DIMTXT
40
2.5
9
$DIMCEN
40
0.09
9
$DIMTSZ
40
0.0
9
$DIMTOL
70
1
9
$DIMLIM
70
0
9
$DIMTIH
70
0
9
$DIMTOH
70
0
9
$DIMSE1
70
0
9
$DIMSE2
70
0
9
$DIMTAD
70
1
9
$DIMZIN
70
0
9
$DIMBLK
1
VDDIM_DEFAULT
9
$DIMASO
70
1
9
$DIMSHO
70
1
9
$DIMPOST
1

9
$DIMAPOST
1

9
$DIMALT
70
0
9
$DIMALTD
70
2
9
$DIMALTF
40
25.4
9
$DIMLFAC
40
1.00000000000000
9
$DIMTOFL
70
0
9
$DIMTVP
40
0.0
9
$DIMTIX
70
0
9
$DIMSOXD
70
0
9
$DIMSAH
70
0
9
$DIMBLK1
1

9
$DIMBLK2
1

9
$DIMSTYLE
2
BEM-ISBE
9
$DIMCLRD
70
0
9
$DIMCLRE
70
0
9
$DIMCLRT
70
0
9
$DIMTFAC
40
0.5
9
$DIMGAP
40
0.625
9
$DIMJUST
70
0
9
$DIMSD1
70
0
9
$DIMSD2
70
0
9
$DIMTOLJ
70
1
9
$DIMTZIN
70
0
9
$DIMALTZ
70
0
9
$DIMALTTZ
70
0
9
$DIMUPT
70
0
9
$DIMDEC
70
3
9
$DIMTDEC
70
3
9
$DIMALTU
70
2
9
$DIMALTTD
70
2
9
$DIMTXSTY
7
Standard
9
$DIMAUNIT
70
0
9
$DIMADEC
70
3
9
$DIMALTRND
40
0.0
9
$DIMAZIN
70
0
9
$DIMDSEP
70
46
9
$DIMATFIT
70
3
9
$DIMFRAC
70
0
9
$DIMLDRBLK
1

9
$DIMLUNIT
70
2
9
$DIMLWD
70
-2
9
$DIMLWE
70
-2
9
$DIMTMOVE
70
0
9
$LUNITS
70
2
9
$LUPREC
70
4
9
$SKETCHINC
40
0.1
9
$FILLETRAD
40
0.5
9
$AUNITS
70
0
9
$AUPREC
70
0
9
$MENU
1
.
9
$ELEVATION
40
0.0
9
$PELEVATION
40
0.0
9
$THICKNESS
40
0.0
9
$LIMCHECK
70
0
9
$CHAMFERA
40
0.5
9
$CHAMFERB
40
0.5
9
$CHAMFERC
40
1.0
9
$CHAMFERD
40
0.0
9
$SKPOLY
70
0
9
$TDCREATE
40
0.0
9
$TDUCREATE
40
0.0
9
$TDUPDATE
40
0.0
9
$TDUUPDATE
40
0.0
9
$TDINDWG
40
0.0
9
$TDUSRTIMER
40
0.0
9
$USRTIMER
70
1
9
$ANGBASE
50
0.0
9
$ANGDIR
70
0
9
$PDMODE
70
0
9
$PDSIZE
40
0.0
9
$PLINEWID
40
0.0
9
$SPLFRAME
70
0
9
$SPLINETYPE
70
6
9
$SPLINESEGS
70
8
9
$HANDSEED
5
10AB
9
$SURFTAB1
70
6
9
$SURFTAB2
70
6
9
$SURFTYPE
70
6
9
$SURFU
70
6
9
$SURFV
70
6
9
$UCSBASE
2

9
$UCSNAME
2

9
$UCSORG
10
0.0
20
0.0
30
0.0
9
$UCSXDIR
10
1.0
20
0.0
30
0.0
9
$UCSYDIR
10
0.0
20
1.0
30
0.0
9
$UCSORTHOREF
2

9
$UCSORTHOVIEW
70
0
9
$UCSORGTOP
10
0.0
20
0.0
30
0.0
9
$UCSORGBOTTOM
10
0.0
20
0.0
30
0.0
9
$UCSORGLEFT
10
0.0
20
0.0
30
0.0
9
$UCSORGRIGHT
10
0.0
20
0.0
30
0.0
9
$UCSORGFRONT
10
0.0
20
0.0
30
0.0
9
$UCSORGBACK
10
0.0
20
0.0
30
0.0
9
$PUCSBASE
2

9
$PUCSNAME
2

9
$PUCSORG
10
0.0
20
0.0
30
0.0
9
$PUCSXDIR
10
1.0
20
0.0
30
0.0
9
$PUCSYDIR
10
0.0
20
1.0
30
0.0
9
$PUCSORTHOREF
2

9
$PUCSORTHOVIEW
70
0
9
$PUCSORGTOP
10
0.0
20
0.0
30
0.0
9
$PUCSORGBOTTOM
10
0.0
20
0.0
30
0.0
9
$PUCSORGLEFT
10
0.0
20
0.0
30
0.0
9
$PUCSORGRIGHT
10
0.0
20
0.0
30
0.0
9
$PUCSORGFRONT
10
0.0
20
0.0
30
0.0
9
$PUCSORGBACK
10
0.0
20
0.0
30
0.0
9
$USERI1
70
0
9
$USERI2
70
0
9
$USERI3
70
0
9
$USERI4
70
0
9
$USERI5
70
0
9
$USERR1
40
0.0
9
$USERR2
40
0.0
9
$USERR3
40
0.0
9
$USERR4
40
0.0
9
$USERR5
40
0.0
9
$WORLDVIEW
70
1
9
$SHADEDGE
70
3
9
$SHADEDIF
70
70
9
$TILEMODE
70
1
9
$MAXACTVP
70
64
9
$PINSBASE
10
0.0
20
0.0
30
0.0
9
$PLIMCHECK
70
0
9
$PEXTMIN
10
1.000000000000000E+20
20
1.000000000000000E+20
30
1.000000000000000E+20
9
$PEXTMAX
10
-1.000000000000000E+20
20
-1.000000000000000E+20
30
-1.000000000000000E+20
9
$PLIMMIN
10
0.0
20
0.0
9
$PLIMMAX
10
12.0
20
9.0
9
$UNITMODE
70
0
9
$VISRETAIN
70
1
9
$PLINEGEN
70
0
9
$PSLTSCALE
70
1
9
$TREEDEPTH
70
3020
9
$CMLSTYLE
2
Standard
9
$CMLJUST
70
0
9
$CMLSCALE
40
1.0
9
$PROXYGRAPHICS
70
1
9
$MEASUREMENT
70
0
9
$CELWEIGHT
370
-1
9
$ENDCAPS
280
0
9
$JOINSTYLE
280
0
9
$LWDISPLAY
290
0
9
$INSUNITS
70
4
9
$HYPERLINKBASE
1

9
$STYLESHEET
1

9
$XEDIT
290
1
9
$CEPSNTYPE
380
0
9
$PSTYLEMODE
290
0
9
$FINGERPRINTGUID
2
{FAEB1C30-E019-11D5-929B-00C0DF256EC4}
9
$VERSIONGUID
2
{04C5C4E4-4947-4D90-8812-D401569E61F7}
9
$EXTNAMES
290
1
9
$PSVPSCALE
40
0.0
9
$OLESTARTUP
290
0
0
ENDSEC
0
SECTION
2
CLASSES
0
CLASS
1
ACDBDICTIONARYWDFLT
2
AcDbDictionaryWithDefault
3
ObjectDBX Classes
90
0
280
0
281
0
0
CLASS
1
ACDBPLACEHOLDER
2
AcDbPlaceHolder
3
ObjectDBX Classes
90
0
280
0
281
0
0
CLASS
1
LAYOUT
2
AcDbLayout
3
ObjectDBX Classes
90
0
280
0
281
0
0
CLASS
1
MATERIAL
2
AcDbMaterial
3
ObjectDBX Classes
90
1153
280
0
281
0
0
CLASS
1
VISUALSTYLE
2
AcDbVisualStyle
3
ObjectDBX Classes
90
4095
280
0
281
0
0
CLASS
1
TABLESTYLE
2
AcDbTableStyle
3
ObjectDBX Classes
90
4095
280
0
281
0
0
CLASS
1
SCALE
2
AcDbScale
3
ObjectDBX Classes
90
1153
280
0
281
0
0
CLASS
1
MLEADERSTYLE
2
AcDbMLeaderStyle
3
ACDB_MLEADERSTYLE_CLASS
90
4095
280
0
281
0
0
CLASS
1
DICTIONARYVAR
2
AcDbDictionaryVar
3
ObjectDBX Classes
90
0
280
0
281
0
0
CLASS
1
CELLSTYLEMAP
2
AcDbCellStyleMap
3
ObjectDBX Classes
90
1152
280
0
281
0
0
ENDSEC
0
SECTION
2
TABLES
0
TABLE
2
VPORT
5
24A
330
0
100
AcDbSymbolTable
70
1
0
VPORT
5
26B
330
24A
100
AcDbSymbolTableRecord
100
AcDbViewportTableRecord
2
*Active
70
0
10
0.0
20
0.0
11
1.0
21
1.0
12
0.000000000000000
22
0.000000000000000
13
0.0
23
0.0
14
10.0
24
10.0
15
10.0
25
10.0
16
0.0
26
0.0
36
1.0
17
0.0
27
0.0
37
0.0
40
210.000000000000
41
1.42857142857143
42
1.0
43
0.0
44
0.0
50
0.0
51
0.0000000000007958
71
0
72
100
73
1
74
3
75
0
76
0
77
0
78
1
281
0
65
1
110
0.0
120
0.0
130
0.0
111
1.0
121
0.0
131
0.0
112
0.0
122
1.0
132
0.0
79
0
146
0.0
0
ENDTAB
0
TABLE
2
LTYPE
5
247
330
0
100
AcDbSymbolTable
70
25
0
LTYPE
5
256
330
247
100
AcDbSymbolTableRecord
100
AcDbLinetypeTableRecord
2
ByBlock
70
0
3

72
65
73
0
40
0.0
0
LTYPE
5
257
330
247
100
AcDbSymbolTableRecord
100
AcDbLinetypeTableRecord
2
ByLayer
70
0
3

72
65
73
0
40
0.0
0
LTYPE
5
258
330
247
100
AcDbSymbolTableRecord
100
AcDbLinetypeTableRecord
2
Continuous
70
0
3
Solid line
72
65
73
0
40
0.0
0
LTYPE
5
273
330
247
100
AcDbSymbolTableRecord
100
AcDbLinetypeTableRecord
2
CENTER
70
0
3
Center ____ _ ____ _ ____ _ ____ _ ____ _ ____
72
65
73
4
40
2.0
49
1.25
74
0
49
-0.25
74
0
49
0.25
74
0
49
-0.25
74
0
0
LTYPE
5
274
330
247
100
AcDbSymbolTableRecord
100
AcDbLinetypeTableRecord
2
DASHDOT
70
0
3
Dashdot __ . __ . __ . __ . __ . __ . __ . __
72
65
73
4
40
1.0
49
0.5
74
0
49
-0.25
74
0
49
0.0
74
0
49
-0.25
74
0
0
LTYPE
5
275
330
247
100
AcDbSymbolTableRecord
100
AcDbLinetypeTableRecord
2
DASHED
70
0
3
Dashed __ __ __ __ __ __ __ __ __ __ __ __ __ _
72
65
73
2
40
0.75
49
0.5
74
0
49
-0.25
74
0
0
LTYPE
5
276
330
247
100
AcDbSymbolTableRecord
100
AcDbLinetypeTableRecord
2
HIDDEN
70
0
3
Hidden __ __ __ __ __ __ __ __ __ __ __ __ __ __
72
65
73
2
40
0.375
49
0.25
74
0
49
-0.125
74
0
0
LTYPE
5
277
330
247
100
AcDbSymbolTableRecord
100
AcDbLinetypeTableRecord
2
HIDDEN2
70
0
3
Hidden2 _ _ _ _ _ _ _ _ _ _ _ _ _ _ _ _ _
72
65
73
2
40
0.1875
49
0.125
74
0
49
-0.0625
74
0
0
LTYPE
5
278
330
247
100
AcDbSymbolTableRecord
100
AcDbLinetypeTableRecord
2
BORDER
70
0
3
Border __ __ . __ __ . __ __ . __ __ . __ __ .
72
65
73
6
40
1.75
49
0.5
74
0
49
-0.25
74
0
49
0.5
74
0
49
-0.25
74
0
49
0.0
74
0
49
-0.25
74
0
0
LTYPE
5
279
330
247
100
AcDbSymbolTableRecord
100
AcDbLinetypeTableRecord
2
BORDER2
70
0
3
Border2 __.__.__.__.__.__.__.__.__.__.__.
72
65
73
6
40
0.875
49
0.25
74
0
49
-0.125
74
0
49
0.25
74
0
49
-0.125
74
0
49
0.0
74
0
49
-0.125
74
0
0
LTYPE
5
27A
330
247
100
AcDbSymbolTableRecord
100
AcDbLinetypeTableRecord
2
BORDERX2
70
0
3
Borderx2  ____  ____  .  ____  ____  .  ___
72
65
73
6
40
3.5
49
1.0
74
0
49
-0.5
74
0
49
1.0
74
0
49
-0.5
74
0
49
0.0
74
0
49
-0.5
74
0
0
LTYPE
5
27B
330
247
100
AcDbSymbolTableRecord
100
AcDbLinetypeTableRecord
2
CENTER2
70
0
3
Center2  ___ _ ___ _ ___ _ ___ _ ___ _ ___
72
65
73
4
40
1.125
49
0.75
74
0
49
-0.125
74
0
49
0.125
74
0
49
-0.125
74
0
0
LTYPE
5
27C
330
247
100
AcDbSymbolTableRecord
100
AcDbLinetypeTableRecord
2
CENTERX2
70
0
3
Centerx2  ________  __  ________  __  _____
72
65
73
4
40
4.0
49
2.5
74
0
49
-0.5
74
0
49
0.5
74
0
49
-0.5
74
0
0
LTYPE
5
27D
330
247
100
AcDbSymbolTableRecord
100
AcDbLinetypeTableRecord
2
DASHDOT2
70
0
3
Dashdot2  _._._._._._._._._._._._._._._.
72
65
73
4
40
0.5
49
0.25
74
0
49
-0.125
74
0
49
0.0
74
0
49
-0.125
74
0
0
LTYPE
5
27E
330
247
100
AcDbSymbolTableRecord
100
AcDbLinetypeTableRecord
2
DASHDOTX2
70
0
3
Dashdotx2 ____  .  ____  .  ____  .  ___
72
65
73
4
40
2.0
49
1.0
74
0
49
-0.5
74
0
49
0.0
74
0
49
-0.5
74
0
0
LTYPE
5
27F
330
247
100
AcDbSymbolTableRecord
100
AcDbLinetypeTableRecord
2
DASHED2
70
0
3
Dashed2 _ _ _ _ _ _ _ _ _ _ _ _ _ _ _ _ _
72
65
73
2
40
0.375
49
0.25
74
0
49
-0.125
74
0
0
LTYPE
5
280
330
247
100
AcDbSymbolTableRecord
100
AcDbLinetypeTableRecord
2
DASHEDX2
70
0
3
Dashedx2 ____  ____  ____  ____  ____  ___
72
65
73
2
40
1.5
49
1.0
74
0
49
-0.5
74
0
0
LTYPE
5
281
330
247
100
AcDbSymbolTableRecord
100
AcDbLinetypeTableRecord
2
DIVIDE
70
0
3
Divide ____ . . ____ . . ____ . . ____ . . ____
72
65
73
6
40
1.25
49
0.5
74
0
49
-0.25
74
0
49
0.0
74
0
49
-0.25
74
0
49
0.0
74
0
49
-0.25
74
0
0
LTYPE
5
282
330
247
100
AcDbSymbolTableRecord
100
AcDbLinetypeTableRecord
2
DIVIDE2
70
0
3
Divide2 __..__..__..__..__..__..__..__.._
72
65
73
6
40
0.625
49
0.25
74
0
49
-0.125
74
0
49
0.0
74
0
49
-0.125
74
0
49
0.0
74
0
49
-0.125
74
0
0
LTYPE
5
283
330
247
100
AcDbSymbolTableRecord
100
AcDbLinetypeTableRecord
2
DIVIDEX2
70
0
3
Dividex2 ________  .  .  ________  .  .  _
72
65
73
6
40
2.5
49
1.0
74
0
49
-0.5
74
0
49
0.0
74
0
49
-0.5
74
0
49
0.0
74
0
49
-0.5
74
0
0
LTYPE
5
284
330
247
100
AcDbSymbolTableRecord
100
AcDbLinetypeTableRecord
2
DOT
70
0
3
Dot . . . . . . . . . . . . . . . . . . . . . . . .
72
65
73
2
40
0.25
49
0.0
74
0
49
-0.25
74
0
0
LTYPE
5
285
330
247
100
AcDbSymbolTableRecord
100
AcDbLinetypeTableRecord
2
DOT2
70
0
3
Dot2 ........................................
72
65
73
2
40
0.125
49
0.0
74
0
49
-0.125
74
0
0
LTYPE
5
286
330
247
100
AcDbSymbolTableRecord
100
AcDbLinetypeTableRecord
2
DOTX2
70
0
3
Dotx2 .  .  .  .  .  .  .  .  .  .  .  .  .  .
72
65
73
2
40
0.5
49
0.0
74
0
49
-0.5
74
0
0
LTYPE
5
287
330
247
100
AcDbSymbolTableRecord
100
AcDbLinetypeTableRecord
2
HIDDENX2
70
0
3
Hiddenx2 ____ ____ ____ ____ ____ ____ ____
72
65
73
2
40
0.75
49
0.5
74
0
49
-0.25
74
0
0
LTYPE
5
288
330
247
100
AcDbSymbolTableRecord
100
AcDbLinetypeTableRecord
2
PHANTOM
70
0
3
Phantom ______  __  __  ______  __  __  ______
72
65
73
6
40
2.5
49
1.25
74
0
49
-0.25
74
0
49
0.25
74
0
49
-0.25
74
0
49
0.25
74
0
49
-0.25
74
0
0
LTYPE
5
289
330
247
100
AcDbSymbolTableRecord
100
AcDbLinetypeTableRecord
2
PHANTOM2
70
0
3
Phantom2 ___ _ _ ___ _ _ ___ _ _ ___ _ _
72
65
73
6
40
1.25
49
0.625
74
0
49
-0.125
74
0
49
0.125
74
0
49
-0.125
74
0
49
0.125
74
0
49
-0.125
74
0
0
LTYPE
5
28A
330
247
100
AcDbSymbolTableRecord
100
AcDbLinetypeTableRecord
2
PHANTOMX2
70
0
3
Phantomx2 ____________    ____    ____   _
72
65
73
6
40
5.0
49
2.5
74
0
49
-0.5
74
0
49
0.5
74
0
49
-0.5
74
0
49
0.5
74
0
49
-0.5
74
0
0
ENDTAB
0
TABLE
2
LAYER
5
244
330
0
100
AcDbSymbolTable
70
6
0
LAYER
5
252
330
244
100
AcDbSymbolTableRecord
100
AcDbLayerTableRecord
2
0
70
0
62
7
6
Continuous
370
0
390
251
0
LAYER
5
23F
330
244
100
AcDbSymbolTableRecord
100
AcDbLayerTableRecord
2
Bemassung
70
0
 62
   7
6
Continuous
370
0
390
251
0
LAYER
5
240
330
244
100
AcDbSymbolTableRecord
100
AcDbLayerTableRecord
2
Rahmen
70
0
 62
   7
6
Continuous
370
0
390
251
0
LAYER
5
241
330
244
100
AcDbSymbolTableRecord
100
AcDbLayerTableRecord
2
Geo
70
0
 62
   7
6
Continuous
370
0
390
251
0
LAYER
5
33A
330
244
100
AcDbSymbolTableRecord
100
AcDbLayerTableRecord
2
Defpoints
70
0
62
7
6
Continuous
290
0
370
-3
390
251
0
LAYER
5
57E
330
244
100
AcDbSymbolTableRecord
100
AcDbLayerTableRecord
2
Text
70
0
 62
   7
6
Continuous
370
0
390
251
1001
AcAecLayerStandard
1000

1000

0
ENDTAB
0
TABLE
2
STYLE
5
245
330
0
100
AcDbSymbolTable
70
2
0
STYLE
5
253
330
245
100
AcDbSymbolTableRecord
100
AcDbTextStyleTableRecord
2
Standard
70
0
40
0.0
41
1.0
50
0.0
71
0
42
0.2
3
Arial
4

1001
ACAD
1000
Arial
1071
0
0
STYLE
5
132
330
245
100
AcDbSymbolTableRecord
100
AcDbTextStyleTableRecord
2
Beschriftung
70
0
40
0.0
41
1.0
50
0.0
71
0
42
0.2
3
Arial
4

1001
ACAD
1000
Arial
1071
0
1001
AcadAnnotative
1000
AnnotativeData
1070
1
1070
1
0
ENDTAB
0
TABLE
2
VIEW
5
248
330
0
100
AcDbSymbolTable
70
0
0
ENDTAB
0
TABLE
2
UCS
5
249
330
0
100
AcDbSymbolTable
70
0
0
ENDTAB
0
TABLE
2
APPID
5
24B
330
0
100
AcDbSymbolTable
70
13
0
APPID
5
254
330
24B
100
AcDbSymbolTableRecord
100
AcDbRegAppTableRecord
2
ACAD
70
0
0
APPID
5
26C
330
24B
100
AcDbSymbolTableRecord
100
AcDbRegAppTableRecord
2
VD_INVISIBLE_NOT_FOR_READ
70
0
0
APPID
5
26D
330
24B
100
AcDbSymbolTableRecord
100
AcDbRegAppTableRecord
2
VD_TEMPHATCH
70
0
0
APPID
5
26E
330
24B
100
AcDbSymbolTableRecord
100
AcDbRegAppTableRecord
2
VDEXTRAPARAM
70
0
0
APPID
5
26F
330
24B
100
AcDbSymbolTableRecord
100
AcDbRegAppTableRecord
2
PE_URL
70
0
0
APPID
5
270
330
24B
100
AcDbSymbolTableRecord
100
AcDbRegAppTableRecord
2
VD_UNKNOWN
70
0
0
APPID
5
28F
330
24B
100
AcDbSymbolTableRecord
100
AcDbRegAppTableRecord
2
AcadAnnotative
70
0
0
APPID
5
290
330
24B
100
AcDbSymbolTableRecord
100
AcDbRegAppTableRecord
2
ACAD_DSTYLE_DIMJAG
70
0
0
APPID
5
291
330
24B
100
AcDbSymbolTableRecord
100
AcDbRegAppTableRecord
2
ACAD_DSTYLE_DIMTALN
70
0
0
APPID
5
293
330
24B
100
AcDbSymbolTableRecord
100
AcDbRegAppTableRecord
2
ACAD_PSEXT
70
0
0
APPID
5
42A
330
24B
100
AcDbSymbolTableRecord
100
AcDbRegAppTableRecord
2
ACAD_MLEADERVER
70
0
0
APPID
5
532
330
24B
100
AcDbSymbolTableRecord
100
AcDbRegAppTableRecord
2
ACAD_EXEMPT_FROM_CAD_STANDARDS
70
0
0
APPID
5
57F
330
24B
100
AcDbSymbolTableRecord
100
AcDbRegAppTableRecord
2
AcAecLayerStandard
70
0
0
ENDTAB
0
TABLE
2
DIMSTYLE
5
24C
330
0
100
AcDbSymbolTable
70
3
100
AcDbDimStyleTable
71
2
340
27
340
269
0
DIMSTYLE
105
269
330
24C
100
AcDbSymbolTableRecord
100
AcDbDimStyleTableRecord
2
Standard
70
0
172
1
174
1
288
1
340
253
342
23C
0
DIMSTYLE
105
137
330
24C
100
AcDbSymbolTableRecord
100
AcDbDimStyleTableRecord
2
Beschriftung
70
0
41
2.5
42
0.625
44
1.25
73
0
74
0
77
1
140
2.5
147
0.625
172
1
174
1
271
2
288
1
340
253
342
23C
1001
AcadAnnotative
1000
AnnotativeData
1070
1
1070
1
1001
ACAD_DSTYLE_DIMJAG
1070
388
1040
1.5
1001
ACAD_DSTYLE_DIMTALN
1070
392
1070
0
0
DIMSTYLE
105
27
102
{ACAD_REACTORS
330
F1000D
330
F10012
330
F10003
330
F10008
102
}
330
24C
100
AcDbSymbolTableRecord
100
AcDbDimStyleTableRecord
2
BEM-ISBE
70
0
41
2.5
42
0.625
44
1.25
48
0.000000001
71
1
73
0
74
0
77
1
140
2.5
144
1.00000000000000
146
0.5
147
0.625
171
 3
172
 1
179
 3
271
 3
272
 3
274
 3
340
253
342
23C
1001
ACAD_DSTYLE_DIMJAG
1070
388
1040
1.5
1001
ACAD_DSTYLE_DIMTALN
1070
392
1070
1
0
ENDTAB
0
TABLE
2
BLOCK_RECORD
5
243
330
0
100
AcDbSymbolTable
70
5
0
BLOCK_RECORD
5
261
330
243
100
AcDbSymbolTableRecord
100
AcDbBlockTableRecord
2
*Model_Space
340
FD0
0
BLOCK_RECORD
5
25D
330
243
100
AcDbSymbolTableRecord
100
AcDbBlockTableRecord
2
*Paper_Space
340
FD1
0
BLOCK_RECORD
5
265
330
243
100
AcDbSymbolTableRecord
100
AcDbBlockTableRecord
2
*Paper_Space0
340
0
0
BLOCK_RECORD
5
23C
330
243
100
AcDbSymbolTableRecord
100
AcDbBlockTableRecord
2
VDDIM_DEFAULT
340
0
102
{BLKREFS
102
}
0
BLOCK_RECORD
5
23E
330
243
100
AcDbSymbolTableRecord
100
AcDbBlockTableRecord
2
VDDIM_NONE
340
0
0
BLOCK_RECORD
5
F1000C
330
243
100
AcDbSymbolTableRecord
100
AcDbBlockTableRecord
2
*D5
340
0
0
BLOCK_RECORD
5
F10011
330
243
100
AcDbSymbolTableRecord
100
AcDbBlockTableRecord
2
*D6
340
0
0
BLOCK_RECORD
5
F10002
330
243
100
AcDbSymbolTableRecord
100
AcDbBlockTableRecord
2
*D3
340
0
0
BLOCK_RECORD
5
F10007
330
243
100
AcDbSymbolTableRecord
100
AcDbBlockTableRecord
2
*D4
340
0
0
ENDTAB
0
ENDSEC
0
SECTION
2
BLOCKS
0
BLOCK
5
262
330
261
100
AcDbEntity
8
0
100
AcDbBlockBegin
2
*Model_Space
70
0
10
0.0
20
0.0
30
0.0
3
*Model_Space
1

0
ENDBLK
5
263
330
261
100
AcDbEntity
8
0
100
AcDbBlockEnd
0
BLOCK
5
25E
330
25D
100
AcDbEntity
67
1
8
0
100
AcDbBlockBegin
2
*Paper_Space
70
0
10
0.0
20
0.0
30
0.0
3
*Paper_Space
1

0
ENDBLK
5
25F
330
25D
100
AcDbEntity
67
1
8
0
100
AcDbBlockEnd
0
BLOCK
5
266
330
265
100
AcDbEntity
8
0
100
AcDbBlockBegin
2
*Paper_Space0
70
0
10
0.0
20
0.0
30
0.0
3
*Paper_Space0
1

0
VIEWPORT
5
296
102
{ACAD_XDICTIONARY
360
58E
102
}
330
265
100
AcDbEntity
8
0
60
1
100
AcDbViewport
10
0.0
20
0.0
30
0.0
40
10.0
41
10.0
69
0
12
0.0
22
0.0
13
0.0
23
0.0
14
1.0
24
1.0
15
0.0
25
0.0
16
0.0
26
0.0
36
1.0
17
0.0
27
0.0
37
0.0
42
0.0
43
0.0
44
0.0
45
10.0
50
0.0
51
0.0000000000007958
72
100
90
163872
1

281
0
71
0
74
0
110
0.0
120
0.0
130
0.0
111
1.0
121
0.0
131
0.0
112
0.0
122
1.0
132
0.0
79
0
146
0.0
1001
VD_INVISIBLE_NOT_FOR_READ
1000
VD_INVISIBLE_NOT_FOR_READ
0
VIEWPORT
5
297
102
{ACAD_XDICTIONARY
360
590
102
}
330
265
100
AcDbEntity
8
0
60
1
100
AcDbViewport
10
0.0
20
0.0
30
0.0
40
10.0
41
10.0
69
0
12
0.0
22
0.0
13
0.0
23
0.0
14
1.0
24
1.0
15
0.0
25
0.0
16
0.0
26
0.0
36
1.0
17
0.0
27
0.0
37
0.0
42
0.0
43
0.0
44
0.0
45
10.0
50
0.0
51
0.0000000000007958
72
100
90
163872
1

281
0
71
0
74
0
110
0.0
120
0.0
130
0.0
111
1.0
121
0.0
131
0.0
112
0.0
122
1.0
132
0.0
79
0
146
0.0
1001
VD_INVISIBLE_NOT_FOR_READ
1000
VD_INVISIBLE_NOT_FOR_READ
0
ENDBLK
5
267
330
265
100
AcDbEntity
8
0
100
AcDbBlockEnd
0
BLOCK
5
28B
330
23C
100
AcDbEntity
8
0
100
AcDbBlockBegin
2
VDDIM_DEFAULT
70
0
10
0.0
20
0.0
30
0.0
3
VDDIM_DEFAULT
1

0
LWPOLYLINE
5
23D
330
23C
100
AcDbEntity
8
0
6
Continuous
62
0
100
AcDbPolyline
90
4
70
0
43
0.0
10
0.0
20
0.0
10
-1.0
20
-0.1665
10
-1.0
20
0.1665
10
0.0
20
0.0
1001
VDEXTRAPARAM
1071
1
1071
0
1071
0
1040
1.0
1000

1000

1040
0.0
1040
0.0
0
HATCH
5
292
330
23C
100
AcDbEntity
8
0
6
Continuous
62
0
100
AcDbHatch
10
0.0
20
0.0
30
0.0
210
0.0
220
0.0
230
1.0
2
SOLID
70
1
71
0
91
1
92
2
72
0
73
1
93
3
10
0.0
20
0.0
10
-1.0
20
-0.1665
10
-1.0
20
0.1665
97
0
75
0
76
1
98
1
10
0.0
20
0.0
1001
VDEXTRAPARAM
1071
1
1071
0
1071
0
1040
1.0
1000

1000

1040
0.0
1040
0.0
1001
VD_TEMPHATCH
1000
VD_TEMPHATCH
0
ENDBLK
5
28C
330
23C
100
AcDbEntity
8
0
100
AcDbBlockEnd
0
BLOCK
5
28D
330
23E
100
AcDbEntity
8
0
100
AcDbBlockBegin
2
VDDIM_NONE
70
0
10
0.0
20
0.0
30
0.0
3
VDDIM_NONE
1

0
ENDBLK
5
28E
330
23E
100
AcDbEntity
8
0
100
AcDbBlockEnd
  0
BLOCK
  5
F10016
330
F1000C
100
AcDbEntity
  8
0
100
AcDbBlockBegin
  2
*D5
 70
     1
 10
0.0
 20
0.0
 30
0.0
  3
*D5
  1

  0
LINE
  5
F10017
330
F1000C
100
AcDbEntity
  8
Bemassung
 62
     0
370
    -2
100
AcDbLine
10
-5.47745013009543
20
7.56721595836949
30
0.000000000000000
11
-5.47745013009543
21
-2.43278404163051
31
0.000000000000000
  0
LINE
  5
F10018
330
F1000C
100
AcDbEntity
  8
Bemassung
 62
     0
370
    -2
100
AcDbLine
10
-30.4774501300954
20
-2.43278404163051
30
0.000000000000000
11
-30.4774501300954
21
29.5672159583695
31
0.000000000000000
  0
LINE
  5
F10019
330
F1000C
100
AcDbEntity
  8
Bemassung
 62
     0
370
    -2
100
AcDbLine
10
-5.47745013009543
20
-0.432784041630512
30
0.000000000000000
11
-30.4774501300954
21
-0.432784041630512
31
0.000000000000000
  0
INSERT
  5
F1001A
330
F1000C
100
AcDbEntity
  8
Bemassung
 62
     0
370
    -2
100
AcDbBlockReference
  2
VDDIM_DEFAULT
10
-5.47745013009543
20
-0.432784041630512
30
0.000000000000000
 41
2.50000000000000
 42
2.50000000000000
 43
2.50000000000000
  0
INSERT
  5
F1001B
330
F1000C
100
AcDbEntity
  8
Bemassung
 62
     0
370
    -2
100
AcDbBlockReference
  2
VDDIM_DEFAULT
10
-30.4774501300954
20
-0.432784041630512
30
0.000000000000000
 41
2.50000000000000
 42
2.50000000000000
 43
2.50000000000000
 50
180.000000000000
  0
MTEXT
  5
F1001C
330
F1000C
100
AcDbEntity
  8
Bemassung
 62
     0
100
AcDbMText
10
-17.9774501300954
20
0.233882625036154
30
0.000000000000000
 40
2.50000000000000
 41
0.0
 71
     8
 72
     1
  1
25
 11
1.00000000000000
 21
0.000000000000000
 31
0.0
 73
     1
 44
1.0
1001
ACAD
1000
MTEXTBEGIN
1070
73
1070
1
1070
44
1040
1.0
1070
74
1070
0
1000
MTEXTEND
  0
POINT
  5
F1001D
330
F1000C
100
AcDbEntity
  8
Bemassung
 62
     0
100
AcDbPoint
10
-5.47745013009543
20
7.56721595836949
30
0.000000000000000
  0
POINT
  5
F1001E
330
F1000C
100
AcDbEntity
  8
Bemassung
 62
     0
100
AcDbPoint
10
-30.4774501300954
20
-2.43278404163051
30
0.000000000000000
  0
ENDBLK
  5
F1001F
330
F1000C
100
AcDbEntity
  8
0
100
AcDbBlockEnd
  0
BLOCK
  5
F10020
330
F10011
100
AcDbEntity
  8
0
100
AcDbBlockBegin
  2
*D6
 70
     1
 10
0.0
 20
0.0
 30
0.0
  3
*D6
  1

  0
LINE
  5
F10021
330
F10011
100
AcDbEntity
  8
Bemassung
 62
     0
370
    -2
100
AcDbLine
10
42.5225498699046
20
16.5672159583695
30
0.000000000000000
11
42.5225498699046
21
29.5672159583695
31
0.000000000000000
  0
LINE
  5
F10022
330
F10011
100
AcDbEntity
  8
Bemassung
 62
     0
370
    -2
100
AcDbLine
10
-30.4774501300954
20
-2.43278404163051
30
0.000000000000000
11
-30.4774501300954
21
29.5672159583695
31
0.000000000000000
  0
LINE
  5
F10023
330
F10011
100
AcDbEntity
  8
Bemassung
 62
     0
370
    -2
100
AcDbLine
10
42.5225498699046
20
27.5672159583695
30
0.000000000000000
11
-30.4774501300954
21
27.5672159583695
31
0.000000000000000
  0
INSERT
  5
F10024
330
F10011
100
AcDbEntity
  8
Bemassung
 62
     0
370
    -2
100
AcDbBlockReference
  2
VDDIM_DEFAULT
10
42.5225498699046
20
27.5672159583695
30
0.000000000000000
 41
2.50000000000000
 42
2.50000000000000
 43
2.50000000000000
  0
INSERT
  5
F10025
330
F10011
100
AcDbEntity
  8
Bemassung
 62
     0
370
    -2
100
AcDbBlockReference
  2
VDDIM_DEFAULT
10
-30.4774501300954
20
27.5672159583695
30
0.000000000000000
 41
2.50000000000000
 42
2.50000000000000
 43
2.50000000000000
 50
180.000000000000
  0
MTEXT
  5
F10026
330
F10011
100
AcDbEntity
  8
Bemassung
 62
     0
100
AcDbMText
10
6.02254986990457
20
28.2338826250362
30
0.000000000000000
 40
2.50000000000000
 41
0.0
 71
     8
 72
     1
  1
73
 11
1.00000000000000
 21
0.000000000000000
 31
0.0
 73
     1
 44
1.0
1001
ACAD
1000
MTEXTBEGIN
1070
73
1070
1
1070
44
1040
1.0
1070
74
1070
0
1000
MTEXTEND
  0
POINT
  5
F10027
330
F10011
100
AcDbEntity
  8
Bemassung
 62
     0
100
AcDbPoint
10
42.5225498699046
20
16.5672159583695
30
0.000000000000000
  0
POINT
  5
F10028
330
F10011
100
AcDbEntity
  8
Bemassung
 62
     0
100
AcDbPoint
10
-30.4774501300954
20
-2.43278404163051
30
0.000000000000000
  0
ENDBLK
  5
F10029
330
F10011
100
AcDbEntity
  8
0
100
AcDbBlockEnd
  0
BLOCK
  5
F1002A
330
F10002
100
AcDbEntity
  8
0
100
AcDbBlockBegin
  2
*D3
 70
     1
 10
0.0
 20
0.0
 30
0.0
  3
*D3
  1

  0
LINE
  5
F1002B
330
F10002
100
AcDbEntity
  8
Bemassung
 62
     0
370
    -2
100
AcDbLine
10
-30.4774501300954
20
7.56721595836949
30
0.000000000000000
11
-42.4774501300954
21
7.56721595836949
31
0.000000000000000
  0
LINE
  5
F1002C
330
F10002
100
AcDbEntity
  8
Bemassung
 62
     0
370
    -2
100
AcDbLine
10
-30.4774501300954
20
17.5672159583695
30
0.000000000000000
11
-42.4774501300954
21
17.5672159583695
31
0.000000000000000
  0
LINE
  5
F1002D
330
F10002
100
AcDbEntity
  8
Bemassung
 62
     0
370
    -2
100
AcDbLine
10
-40.4774501300954
20
7.56721595836949
30
0.000000000000000
11
-40.4774501300954
21
17.5672159583695
31
0.000000000000000
  0
INSERT
  5
F1002E
330
F10002
100
AcDbEntity
  8
Bemassung
 62
     0
370
    -2
100
AcDbBlockReference
  2
VDDIM_DEFAULT
10
-40.4774501300954
20
7.56721595836949
30
0.000000000000000
 41
2.50000000000000
 42
2.50000000000000
 43
2.50000000000000
 50
90.0000000000000
  0
INSERT
  5
F1002F
330
F10002
100
AcDbEntity
  8
Bemassung
 62
     0
370
    -2
100
AcDbBlockReference
  2
VDDIM_DEFAULT
10
-40.4774501300954
20
17.5672159583695
30
0.000000000000000
 41
2.50000000000000
 42
2.50000000000000
 43
2.50000000000000
 50
270.000000000000
  0
MTEXT
  5
F10030
330
F10002
100
AcDbEntity
  8
Bemassung
 62
     0
100
AcDbMText
10
-41.1441167967621
20
12.5672159583695
30
0.000000000000000
 40
2.50000000000000
 41
0.0
 71
     8
 72
     1
  1
Ø10
 11
6.12323399573677e-17
 21
1.00000000000000
 31
0.0
 73
     1
 44
1.0
1001
ACAD
1000
MTEXTBEGIN
1070
73
1070
1
1070
44
1040
1.0
1070
74
1070
0
1000
MTEXTEND
  0
POINT
  5
F10031
330
F10002
100
AcDbEntity
  8
Bemassung
 62
     0
100
AcDbPoint
10
-30.4774501300954
20
7.56721595836949
30
0.000000000000000
  0
POINT
  5
F10032
330
F10002
100
AcDbEntity
  8
Bemassung
 62
     0
100
AcDbPoint
10
-30.4774501300954
20
17.5672159583695
30
0.000000000000000
  0
ENDBLK
  5
F10033
330
F10002
100
AcDbEntity
  8
0
100
AcDbBlockEnd
  0
BLOCK
  5
F10034
330
F10007
100
AcDbEntity
  8
0
100
AcDbBlockBegin
  2
*D4
 70
     1
 10
0.0
 20
0.0
 30
0.0
  3
*D4
  1

  0
LINE
  5
F10035
330
F10007
100
AcDbEntity
  8
Bemassung
 62
     0
370
    -2
100
AcDbLine
10
41.5225498699046
20
7.56721595836949
30
0.000000000000000
11
54.5225498699046
21
7.56721595836949
31
0.000000000000000
  0
LINE
  5
F10036
330
F10007
100
AcDbEntity
  8
Bemassung
 62
     0
370
    -2
100
AcDbLine
10
41.5225498699046
20
17.5672159583695
30
0.000000000000000
11
54.5225498699046
21
17.5672159583695
31
0.000000000000000
  0
LINE
  5
F10037
330
F10007
100
AcDbEntity
  8
Bemassung
 62
     0
370
    -2
100
AcDbLine
10
52.5225498699046
20
7.56721595836949
30
0.000000000000000
11
52.5225498699046
21
17.5672159583695
31
0.000000000000000
  0
INSERT
  5
F10038
330
F10007
100
AcDbEntity
  8
Bemassung
 62
     0
370
    -2
100
AcDbBlockReference
  2
VDDIM_DEFAULT
10
52.5225498699046
20
7.56721595836949
30
0.000000000000000
 41
2.50000000000000
 42
2.50000000000000
 43
2.50000000000000
 50
90.0000000000000
  0
INSERT
  5
F10039
330
F10007
100
AcDbEntity
  8
Bemassung
 62
     0
370
    -2
100
AcDbBlockReference
  2
VDDIM_DEFAULT
10
52.5225498699046
20
17.5672159583695
30
0.000000000000000
 41
2.50000000000000
 42
2.50000000000000
 43
2.50000000000000
 50
270.000000000000
  0
MTEXT
  5
F1003A
330
F10007
100
AcDbEntity
  8
Bemassung
 62
     0
100
AcDbMText
10
51.8558832032379
20
12.5672159583695
30
0.000000000000000
 40
2.50000000000000
 41
0.0
 71
     8
 72
     1
  1
Ø10h6
 11
6.12323399573677e-17
 21
1.00000000000000
 31
0.0
 73
     1
 44
1.0
  0
POINT
  5
F1003B
330
F10007
100
AcDbEntity
  8
Bemassung
 62
     0
100
AcDbPoint
10
41.5225498699046
20
7.56721595836949
30
0.000000000000000
  0
POINT
  5
F1003C
330
F10007
100
AcDbEntity
  8
Bemassung
 62
     0
100
AcDbPoint
10
41.5225498699046
20
17.5672159583695
30
0.000000000000000
  0
ENDBLK
  5
F1003D
330
F10007
100
AcDbEntity
  8
0
100
AcDbBlockEnd
0
ENDSEC
0
SECTION
2
ENTITIES
  0
DIMENSION
  5
F1000D
330
261
100
AcDbEntity
  8
Bemassung
100
AcDbDimension
  2
*D5
10
-30.4774501300954
20
-0.432784041630512
30
0.000000000000000
11
-17.9774501300954
21
0.233882625036154
31
0.000000000000000
 70
32
 1
25
 71
     8
  3
BEM-ISBE
100
AcDbAlignedDimension
13
-5.47745013009543
23
7.56721595836949
33
0.000000000000000
14
-30.4774501300954
24
-2.43278404163051
34
0.000000000000000
100
AcDbRotatedDimension
1001
ACAD
1000
DSTYLE
1002
{
1070
284
1070
8
1070
78
1070
8
1070
144
1040
1.00000000000000
1070
147
1040
0.625
1070
 72
1070
 0
1070
 71
1070
 0
1002
}
  0
DIMENSION
  5
F10012
330
261
100
AcDbEntity
  8
Bemassung
100
AcDbDimension
  2
*D6
10
-30.4774501300954
20
27.5672159583695
30
0.000000000000000
11
6.02254986990457
21
28.2338826250362
31
0.000000000000000
 70
32
 1
73
 71
     8
  3
BEM-ISBE
100
AcDbAlignedDimension
13
42.5225498699046
23
16.5672159583695
33
0.000000000000000
14
-30.4774501300954
24
-2.43278404163051
34
0.000000000000000
100
AcDbRotatedDimension
1001
ACAD
1000
DSTYLE
1002
{
1070
284
1070
8
1070
78
1070
8
1070
144
1040
1.00000000000000
1070
147
1040
0.625
1070
 72
1070
 0
1070
 71
1070
 0
1002
}
  0
DIMENSION
  5
F10003
330
261
100
AcDbEntity
  8
Bemassung
100
AcDbDimension
  2
*D3
10
-40.4774501300954
20
17.5672159583695
30
0.000000000000000
11
-41.1441167967621
21
12.5672159583695
31
0.000000000000000
 70
32
 1
Ø10
 71
     8
  3
BEM-ISBE
100
AcDbAlignedDimension
13
-30.4774501300954
23
7.56721595836949
33
0.000000000000000
14
-30.4774501300954
24
17.5672159583695
34
0.000000000000000
50
90.0000000000000
100
AcDbRotatedDimension
1001
ACAD
1000
DSTYLE
1002
{
1070
284
1070
8
1070
78
1070
8
1070
144
1040
1.00000000000000
1070
147
1040
0.625
1070
 72
1070
 0
1070
 71
1070
 0
1002
}
  0
DIMENSION
  5
F10008
330
261
100
AcDbEntity
  8
Bemassung
100
AcDbDimension
  2
*D4
10
52.5225498699046
20
17.5672159583695
30
0.000000000000000
11
51.8558832032379
21
12.5672159583695
31
0.000000000000000
 70
32
 1
Ø10h6
 71
     8
  3
BEM-ISBE
100
AcDbAlignedDimension
13
41.5225498699046
23
7.56721595836949
33
0.000000000000000
14
41.5225498699046
24
17.5672159583695
34
0.000000000000000
50
90.0000000000000
100
AcDbRotatedDimension
1001
ACAD
1000
DSTYLE
1002
{
1070
284
1070
8
1070
78
1070
8
1070
144
1040
1.00000000000000
1070
147
1040
0.625
1070
 72
1070
 0
1070
 71
1070
 0
1002
}
  0
LINE
  5
F1003E
330
F1003F
100
AcDbEntity
8
Geo
100
AcDbLine
10
-30.4774501300954
20
12.5672159583695
30
0.000000000000000
11
-30.4774501300954
21
17.5672159583695
31
0.000000000000000
  0
LINE
  5
F10040
330
F10041
100
AcDbEntity
8
Geo
100
AcDbLine
10
-30.4774501300954
20
17.5672159583695
30
0.000000000000000
11
-5.47745013009543
21
17.5672159583695
31
0.000000000000000
  0
LINE
  5
F10042
330
F10043
100
AcDbEntity
8
Geo
100
AcDbLine
10
-5.47745013009543
20
17.5672159583695
30
0.000000000000000
11
41.5225498699046
21
17.5672159583695
31
0.000000000000000
  0
LINE
  5
F10044
330
F10045
100
AcDbEntity
8
Geo
100
AcDbLine
10
41.5225498699046
20
17.5672159583695
30
0.000000000000000
11
42.5225498699046
21
16.5672159583695
31
0.000000000000000
  0
LINE
  5
F10046
330
F10047
100
AcDbEntity
8
Geo
100
AcDbLine
10
-30.4774501300954
20
17.5672159583695
30
0.000000000000000
11
-30.3774501300954
21
17.5662159917024
31
0.000000000000000
  0
LINE
  5
F10048
330
F10049
100
AcDbEntity
8
Geo
100
AcDbLine
10
-30.3774501300954
20
17.5662159917024
30
0.000000000000000
11
-30.2774501300954
21
17.5632164916744
31
0.000000000000000
  0
LINE
  5
F1004A
330
F1004B
100
AcDbEntity
8
Geo
100
AcDbLine
10
-30.2774501300954
20
17.5632164916744
30
0.000000000000000
11
-30.1774501300954
21
17.5582186580455
31
0.000000000000000
  0
LINE
  5
F1004C
330
F1004D
100
AcDbEntity
8
Geo
100
AcDbLine
10
-30.1774501300954
20
17.5582186580455
30
0.000000000000000
11
-30.0774501300954
21
17.5512244898826
31
0.000000000000000
  0
LINE
  5
F1004E
330
F1004F
100
AcDbEntity
8
Geo
100
AcDbLine
10
-30.0774501300954
20
17.5512244898826
30
0.000000000000000
11
-29.9774501300954
21
17.5422367847596
31
0.000000000000000
  0
LINE
  5
F10050
330
F10051
100
AcDbEntity
8
Geo
100
AcDbLine
10
-29.9774501300954
20
17.5422367847596
30
0.000000000000000
11
-29.8774501300954
21
17.5312591376388
31
0.000000000000000
  0
LINE
  5
F10052
330
F10053
100
AcDbEntity
8
Geo
100
AcDbLine
10
-29.8774501300954
20
17.5312591376388
30
0.000000000000000
11
-29.7774501300954
21
17.5182959394327
31
0.000000000000000
  0
LINE
  5
F10054
330
F10055
100
AcDbEntity
8
Geo
100
AcDbLine
10
-29.7774501300954
20
17.5182959394327
30
0.000000000000000
11
-29.6774501300954
21
17.5033523752476
31
0.000000000000000
  0
LINE
  5
F10056
330
F10057
100
AcDbEntity
8
Geo
100
AcDbLine
10
-29.6774501300954
20
17.5033523752476
30
0.000000000000000
11
-29.5774501300954
21
17.4864344223101
31
0.000000000000000
  0
LINE
  5
F10058
330
F10059
100
AcDbEntity
8
Geo
100
AcDbLine
10
-29.5774501300954
20
17.4864344223101
30
0.000000000000000
11
-29.4774501300954
21
17.4675488475757
31
0.000000000000000
  0
LINE
  5
F1005A
330
F1005B
100
AcDbEntity
8
Geo
100
AcDbLine
10
-29.4774501300954
20
17.4675488475757
30
0.000000000000000
11
-29.3774501300954
21
17.4467032050225
31
0.000000000000000
  0
LINE
  5
F1005C
330
F1005D
100
AcDbEntity
8
Geo
100
AcDbLine
10
-29.3774501300954
20
17.4467032050225
30
0.000000000000000
11
-29.2774501300954
21
17.4239058326296
31
0.000000000000000
  0
LINE
  5
F1005E
330
F1005F
100
AcDbEntity
8
Geo
100
AcDbLine
10
-29.2774501300954
20
17.4239058326296
30
0.000000000000000
11
-29.1774501300954
21
17.3991658490421
31
0.000000000000000
  0
LINE
  5
F10060
330
F10061
100
AcDbEntity
8
Geo
100
AcDbLine
10
-29.1774501300954
20
17.3991658490421
30
0.000000000000000
11
-29.0774501300954
21
17.3724931499233
31
0.000000000000000
  0
LINE
  5
F10062
330
F10063
100
AcDbEntity
8
Geo
100
AcDbLine
10
-29.0774501300954
20
17.3724931499233
30
0.000000000000000
11
-28.9774501300954
21
17.3438984039975
31
0.000000000000000
  0
LINE
  5
F10064
330
F10065
100
AcDbEntity
8
Geo
100
AcDbLine
10
-28.9774501300954
20
17.3438984039975
30
0.000000000000000
11
-28.8774501300954
21
17.3133930487817
31
0.000000000000000
  0
LINE
  5
F10066
330
F10067
100
AcDbEntity
8
Geo
100
AcDbLine
10
-28.8774501300954
20
17.3133930487817
30
0.000000000000000
11
-28.7774501300954
21
17.2809892860112
31
0.000000000000000
  0
LINE
  5
F10068
330
F10069
100
AcDbEntity
8
Geo
100
AcDbLine
10
-28.7774501300954
20
17.2809892860112
30
0.000000000000000
11
-28.6774501300954
21
17.2467000767592
31
0.000000000000000
  0
LINE
  5
F1006A
330
F1006B
100
AcDbEntity
8
Geo
100
AcDbLine
10
-28.6774501300954
20
17.2467000767592
30
0.000000000000000
11
-28.5774501300954
21
17.2105391362520
31
0.000000000000000
  0
LINE
  5
F1006C
330
F1006D
100
AcDbEntity
8
Geo
100
AcDbLine
10
-28.5774501300954
20
17.2105391362520
30
0.000000000000000
11
-28.4774501300954
21
17.1725209283839
31
0.000000000000000
  0
LINE
  5
F1006E
330
F1006F
100
AcDbEntity
8
Geo
100
AcDbLine
10
-28.4774501300954
20
17.1725209283839
30
0.000000000000000
11
-28.3774501300954
21
17.1326606599310
31
0.000000000000000
  0
LINE
  5
F10070
330
F10071
100
AcDbEntity
8
Geo
100
AcDbLine
10
-28.3774501300954
20
17.1326606599310
30
0.000000000000000
11
-28.2774501300954
21
17.0909742744693
31
0.000000000000000
  0
LINE
  5
F10072
330
F10073
100
AcDbEntity
8
Geo
100
AcDbLine
10
-28.2774501300954
20
17.0909742744693
30
0.000000000000000
11
-28.1774501300954
21
17.0474784459971
31
0.000000000000000
  0
LINE
  5
F10074
330
F10075
100
AcDbEntity
8
Geo
100
AcDbLine
10
-28.1774501300954
20
17.0474784459971
30
0.000000000000000
11
-28.0774501300954
21
17.0021905722659
31
0.000000000000000
  0
LINE
  5
F10076
330
F10077
100
AcDbEntity
8
Geo
100
AcDbLine
10
-28.0774501300954
20
17.0021905722659
30
0.000000000000000
11
-27.9774501300954
21
16.9551287678214
31
0.000000000000000
  0
LINE
  5
F10078
330
F10079
100
AcDbEntity
8
Geo
100
AcDbLine
10
-27.9774501300954
20
16.9551287678214
30
0.000000000000000
11
-27.8774501300954
21
16.9063118567577
31
0.000000000000000
  0
LINE
  5
F1007A
330
F1007B
100
AcDbEntity
8
Geo
100
AcDbLine
10
-27.8774501300954
20
16.9063118567577
30
0.000000000000000
11
-27.7774501300954
21
16.8557593651886
31
0.000000000000000
  0
LINE
  5
F1007C
330
F1007D
100
AcDbEntity
8
Geo
100
AcDbLine
10
-27.7774501300954
20
16.8557593651886
30
0.000000000000000
11
-27.6774501300954
21
16.8034915134366
31
0.000000000000000
  0
LINE
  5
F1007E
330
F1007F
100
AcDbEntity
8
Geo
100
AcDbLine
10
-27.6774501300954
20
16.8034915134366
30
0.000000000000000
11
-27.5774501300954
21
16.7495292079454
31
0.000000000000000
  0
LINE
  5
F10080
330
F10081
100
AcDbEntity
8
Geo
100
AcDbLine
10
-27.5774501300954
20
16.7495292079454
30
0.000000000000000
11
-27.4774501300954
21
16.6938940329179
31
0.000000000000000
  0
LINE
  5
F10082
330
F10083
100
AcDbEntity
8
Geo
100
AcDbLine
10
-27.4774501300954
20
16.6938940329179
30
0.000000000000000
11
-27.3774501300954
21
16.6366082416822
31
0.000000000000000
  0
LINE
  5
F10084
330
F10085
100
AcDbEntity
8
Geo
100
AcDbLine
10
-27.3774501300954
20
16.6366082416822
30
0.000000000000000
11
-27.2774501300954
21
16.5776947477910
31
0.000000000000000
  0
LINE
  5
F10086
330
F10087
100
AcDbEntity
8
Geo
100
AcDbLine
10
-27.2774501300954
20
16.5776947477910
30
0.000000000000000
11
-27.1774501300954
21
16.5171771158563
31
0.000000000000000
  0
LINE
  5
F10088
330
F10089
100
AcDbEntity
8
Geo
100
AcDbLine
10
-27.1774501300954
20
16.5171771158563
30
0.000000000000000
11
-27.0774501300954
21
16.4550795521241
31
0.000000000000000
  0
LINE
  5
F1008A
330
F1008B
100
AcDbEntity
8
Geo
100
AcDbLine
10
-27.0774501300954
20
16.4550795521241
30
0.000000000000000
11
-26.9774501300954
21
16.3914268947919
31
0.000000000000000
  0
LINE
  5
F1008C
330
F1008D
100
AcDbEntity
8
Geo
100
AcDbLine
10
-26.9774501300954
20
16.3914268947919
30
0.000000000000000
11
-26.8774501300954
21
16.3262446040740
31
0.000000000000000
  0
LINE
  5
F1008E
330
F1008F
100
AcDbEntity
8
Geo
100
AcDbLine
10
-26.8774501300954
20
16.3262446040740
30
0.000000000000000
11
-26.7774501300954
21
16.2595587520174
31
0.000000000000000
  0
LINE
  5
F10090
330
F10091
100
AcDbEntity
8
Geo
100
AcDbLine
10
-26.7774501300954
20
16.2595587520174
30
0.000000000000000
11
-26.6774501300954
21
16.1913960120740
31
0.000000000000000
  0
LINE
  5
F10092
330
F10093
100
AcDbEntity
8
Geo
100
AcDbLine
10
-26.6774501300954
20
16.1913960120740
30
0.000000000000000
11
-26.5774501300954
21
16.1217836484309
31
0.000000000000000
  0
LINE
  5
F10094
330
F10095
100
AcDbEntity
8
Geo
100
AcDbLine
10
-26.5774501300954
20
16.1217836484309
30
0.000000000000000
11
-26.4774501300954
21
16.0507495051053
31
0.000000000000000
  0
LINE
  5
F10096
330
F10097
100
AcDbEntity
8
Geo
100
AcDbLine
10
-26.4774501300954
20
16.0507495051053
30
0.000000000000000
11
-26.3774501300954
21
15.9783219948076
31
0.000000000000000
  0
LINE
  5
F10098
330
F10099
100
AcDbEntity
8
Geo
100
AcDbLine
10
-26.3774501300954
20
15.9783219948076
30
0.000000000000000
11
-26.2774501300954
21
15.9045300875760
31
0.000000000000000
  0
LINE
  5
F1009A
330
F1009B
100
AcDbEntity
8
Geo
100
AcDbLine
10
-26.2774501300954
20
15.9045300875760
30
0.000000000000000
11
-26.1774501300954
21
15.8294032991898
31
0.000000000000000
  0
LINE
  5
F1009C
330
F1009D
100
AcDbEntity
8
Geo
100
AcDbLine
10
-26.1774501300954
20
15.8294032991898
30
0.000000000000000
11
-26.0774501300954
21
15.7529716793624
31
0.000000000000000
  0
LINE
  5
F1009E
330
F1009F
100
AcDbEntity
8
Geo
100
AcDbLine
10
-26.0774501300954
20
15.7529716793624
30
0.000000000000000
11
-25.9774501300954
21
15.6752657997228
31
0.000000000000000
  0
LINE
  5
F100A0
330
F100A1
100
AcDbEntity
8
Geo
100
AcDbLine
10
-25.9774501300954
20
15.6752657997228
30
0.000000000000000
11
-25.8774501300954
21
15.5963167415868
31
0.000000000000000
  0
LINE
  5
F100A2
330
F100A3
100
AcDbEntity
8
Geo
100
AcDbLine
10
-25.8774501300954
20
15.5963167415868
30
0.000000000000000
11
-25.7774501300954
21
15.5161560835250
31
0.000000000000000
  0
LINE
  5
F100A4
330
F100A5
100
AcDbEntity
8
Geo
100
AcDbLine
10
-25.7774501300954
20
15.5161560835250
30
0.000000000000000
11
-25.6774501300954
21
15.4348158887318
31
0.000000000000000
  0
LINE
  5
F100A6
330
F100A7
100
AcDbEntity
8
Geo
100
AcDbLine
10
-25.6774501300954
20
15.4348158887318
30
0.000000000000000
11
-25.5774501300954
21
15.3523286922006
31
0.000000000000000
  0
LINE
  5
F100A8
330
F100A9
100
AcDbEntity
8
Geo
100
AcDbLine
10
-25.5774501300954
20
15.3523286922006
30
0.000000000000000
11
-25.4774501300954
21
15.2687274877102
31
0.000000000000000
  0
LINE
  5
F100AA
330
F100AB
100
AcDbEntity
8
Geo
100
AcDbLine
10
-25.4774501300954
20
15.2687274877102
30
0.000000000000000
11
-25.3774501300954
21
15.1840457146277
31
0.000000000000000
  0
LINE
  5
F100AC
330
F100AD
100
AcDbEntity
8
Geo
100
AcDbLine
10
-25.3774501300954
20
15.1840457146277
30
0.000000000000000
11
-25.2774501300954
21
15.0983172445334
31
0.000000000000000
  0
LINE
  5
F100AE
330
F100AF
100
AcDbEntity
8
Geo
100
AcDbLine
10
-25.2774501300954
20
15.0983172445334
30
0.000000000000000
11
-25.1774501300954
21
15.0115763676721
31
0.000000000000000
  0
LINE
  5
F100B0
330
F100B1
100
AcDbEntity
8
Geo
100
AcDbLine
10
-25.1774501300954
20
15.0115763676721
30
0.000000000000000
11
-25.0774501300954
21
14.9238577792382
31
0.000000000000000
  0
LINE
  5
F100B2
330
F100B3
100
AcDbEntity
8
Geo
100
AcDbLine
10
-25.0774501300954
20
14.9238577792382
30
0.000000000000000
11
-24.9774501300954
21
14.8351965654974
31
0.000000000000000
  0
LINE
  5
F100B4
330
F100B5
100
AcDbEntity
8
Geo
100
AcDbLine
10
-24.9774501300954
20
14.8351965654974
30
0.000000000000000
11
-24.8774501300954
21
14.7456281897531
31
0.000000000000000
  0
LINE
  5
F100B6
330
F100B7
100
AcDbEntity
8
Geo
100
AcDbLine
10
-24.8774501300954
20
14.7456281897531
30
0.000000000000000
11
-24.7774501300954
21
14.6551884781613
31
0.000000000000000
  0
LINE
  5
F100B8
330
F100B9
100
AcDbEntity
8
Geo
100
AcDbLine
10
-24.7774501300954
20
14.6551884781613
30
0.000000000000000
11
-24.6774501300954
21
14.5639136054009
31
0.000000000000000
  0
LINE
  5
F100BA
330
F100BB
100
AcDbEntity
8
Geo
100
AcDbLine
10
-24.6774501300954
20
14.5639136054009
30
0.000000000000000
11
-24.5774501300954
21
14.4718400802039
31
0.000000000000000
  0
LINE
  5
F100BC
330
F100BD
100
AcDbEntity
8
Geo
100
AcDbLine
10
-24.5774501300954
20
14.4718400802039
30
0.000000000000000
11
-24.4774501300954
21
14.3790047307529
31
0.000000000000000
  0
LINE
  5
F100BE
330
F100BF
100
AcDbEntity
8
Geo
100
AcDbLine
10
-24.4774501300954
20
14.3790047307529
30
0.000000000000000
11
-24.3774501300954
21
14.2854446899497
31
0.000000000000000
  0
LINE
  5
F100C0
330
F100C1
100
AcDbEntity
8
Geo
100
AcDbLine
10
-24.3774501300954
20
14.2854446899497
30
0.000000000000000
11
-24.2774501300954
21
14.1911973805634
31
0.000000000000000
  0
LINE
  5
F100C2
330
F100C3
100
AcDbEntity
8
Geo
100
AcDbLine
10
-24.2774501300954
20
14.1911973805634
30
0.000000000000000
11
-24.1774501300954
21
14.0963005002610
31
0.000000000000000
  0
LINE
  5
F100C4
330
F100C5
100
AcDbEntity
8
Geo
100
AcDbLine
10
-24.1774501300954
20
14.0963005002610
30
0.000000000000000
11
-24.0774501300954
21
14.0007920065293
31
0.000000000000000
  0
LINE
  5
F100C6
330
F100C7
100
AcDbEntity
8
Geo
100
AcDbLine
10
-24.0774501300954
20
14.0007920065293
30
0.000000000000000
11
-23.9774501300954
21
13.9047101014924
31
0.000000000000000
  0
LINE
  5
F100C8
330
F100C9
100
AcDbEntity
8
Geo
100
AcDbLine
10
-23.9774501300954
20
13.9047101014924
30
0.000000000000000
11
-23.8774501300954
21
13.8080932166314
31
0.000000000000000
  0
LINE
  5
F100CA
330
F100CB
100
AcDbEntity
8
Geo
100
AcDbLine
10
-23.8774501300954
20
13.8080932166314
30
0.000000000000000
11
-23.7774501300954
21
13.7109799974118
31
0.000000000000000
  0
LINE
  5
F100CC
330
F100CD
100
AcDbEntity
8
Geo
100
AcDbLine
10
-23.7774501300954
20
13.7109799974118
30
0.000000000000000
11
-23.6774501300954
21
13.6134092878266
31
0.000000000000000
  0
LINE
  5
F100CE
330
F100CF
100
AcDbEntity
8
Geo
100
AcDbLine
10
-23.6774501300954
20
13.6134092878266
30
0.000000000000000
11
-23.5774501300954
21
13.5154201148587
31
0.000000000000000
  0
LINE
  5
F100D0
330
F100D1
100
AcDbEntity
8
Geo
100
AcDbLine
10
-23.5774501300954
20
13.5154201148587
30
0.000000000000000
11
-23.4774501300954
21
13.4170516728707
31
0.000000000000000
  0
LINE
  5
F100D2
330
F100D3
100
AcDbEntity
8
Geo
100
AcDbLine
10
-23.4774501300954
20
13.4170516728707
30
0.000000000000000
11
-23.3774501300954
21
13.3183433079279
31
0.000000000000000
  0
LINE
  5
F100D4
330
F100D5
100
AcDbEntity
8
Geo
100
AcDbLine
10
-23.3774501300954
20
13.3183433079279
30
0.000000000000000
11
-23.2774501300954
21
13.2193345020602
31
0.000000000000000
  0
LINE
  5
F100D6
330
F100D7
100
AcDbEntity
8
Geo
100
AcDbLine
10
-23.2774501300954
20
13.2193345020602
30
0.000000000000000
11
-23.1774501300954
21
13.1200648574699
31
0.000000000000000
  0
LINE
  5
F100D8
330
F100D9
100
AcDbEntity
8
Geo
100
AcDbLine
10
-23.1774501300954
20
13.1200648574699
30
0.000000000000000
11
-23.0774501300954
21
13.0205740806911
31
0.000000000000000
  0
LINE
  5
F100DA
330
F100DB
100
AcDbEntity
8
Geo
100
AcDbLine
10
-23.0774501300954
20
13.0205740806911
30
0.000000000000000
11
-22.9774501300954
21
12.9209019667080
31
0.000000000000000
  0
LINE
  5
F100DC
330
F100DD
100
AcDbEntity
8
Geo
100
AcDbLine
10
-22.9774501300954
20
12.9209019667080
30
0.000000000000000
11
-22.8774501300954
21
12.8210883830374
31
0.000000000000000
  0
LINE
  5
F100DE
330
F100DF
100
AcDbEntity
8
Geo
100
AcDbLine
10
-22.8774501300954
20
12.8210883830374
30
0.000000000000000
11
-22.7774501300954
21
12.7211732537819
31
0.000000000000000
  0
LINE
  5
F100E0
330
F100E1
100
AcDbEntity
8
Geo
100
AcDbLine
10
-22.7774501300954
20
12.7211732537819
30
0.000000000000000
11
-22.6774501300954
21
12.6211965436609
31
0.000000000000000
  0
LINE
  5
F100E2
330
F100E3
100
AcDbEntity
8
Geo
100
AcDbLine
10
-22.6774501300954
20
12.6211965436609
30
0.000000000000000
11
-22.5774501300954
21
12.5211982420255
31
0.000000000000000
  0
LINE
  5
F100E4
330
F100E5
100
AcDbEntity
8
Geo
100
AcDbLine
10
-22.5774501300954
20
12.5211982420255
30
0.000000000000000
11
-22.4774501300954
21
12.4212183468631
31
0.000000000000000
  0
LINE
  5
F100E6
330
F100E7
100
AcDbEntity
8
Geo
100
AcDbLine
10
-22.4774501300954
20
12.4212183468631
30
0.000000000000000
11
-22.3774501300954
21
12.3212968487987
31
0.000000000000000
  0
LINE
  5
F100E8
330
F100E9
100
AcDbEntity
8
Geo
100
AcDbLine
10
-22.3774501300954
20
12.3212968487987
30
0.000000000000000
11
-22.2774501300954
21
12.2214737150992
31
0.000000000000000
  0
LINE
  5
F100EA
330
F100EB
100
AcDbEntity
8
Geo
100
AcDbLine
10
-22.2774501300954
20
12.2214737150992
30
0.000000000000000
11
-22.1774501300954
21
12.1217888736872
31
0.000000000000000
  0
LINE
  5
F100EC
330
F100ED
100
AcDbEntity
8
Geo
100
AcDbLine
10
-22.1774501300954
20
12.1217888736872
30
0.000000000000000
11
-22.0774501300954
21
12.0222821971702
31
0.000000000000000
  0
LINE
  5
F100EE
330
F100EF
100
AcDbEntity
8
Geo
100
AcDbLine
10
-22.0774501300954
20
12.0222821971702
30
0.000000000000000
11
-21.9774501300954
21
11.9229934868919
31
0.000000000000000
  0
LINE
  5
F100F0
330
F100F1
100
AcDbEntity
8
Geo
100
AcDbLine
10
-21.9774501300954
20
11.9229934868919
30
0.000000000000000
11
-21.8774501300954
21
11.8239624570127
31
0.000000000000000
  0
LINE
  5
F100F2
330
F100F3
100
AcDbEntity
8
Geo
100
AcDbLine
10
-21.8774501300954
20
11.8239624570127
30
0.000000000000000
11
-21.7774501300954
21
11.7252287186241
31
0.000000000000000
  0
LINE
  5
F100F4
330
F100F5
100
AcDbEntity
8
Geo
100
AcDbLine
10
-21.7774501300954
20
11.7252287186241
30
0.000000000000000
11
-21.6774501300955
21
11.6268317639051
31
0.000000000000000
  0
LINE
  5
F100F6
330
F100F7
100
AcDbEntity
8
Geo
100
AcDbLine
10
-21.6774501300955
20
11.6268317639051
30
0.000000000000000
11
-21.5774501300954
21
11.5288109503256
31
0.000000000000000
  0
LINE
  5
F100F8
330
F100F9
100
AcDbEntity
8
Geo
100
AcDbLine
10
-21.5774501300954
20
11.5288109503256
30
0.000000000000000
11
-21.4774501300954
21
11.4312054849041
31
0.000000000000000
  0
LINE
  5
F100FA
330
F100FB
100
AcDbEntity
8
Geo
100
AcDbLine
10
-21.4774501300954
20
11.4312054849041
30
0.000000000000000
11
-21.3774501300955
21
11.3340544085254
31
0.000000000000000
  0
LINE
  5
F100FC
330
F100FD
100
AcDbEntity
8
Geo
100
AcDbLine
10
-21.3774501300955
20
11.3340544085254
30
0.000000000000000
11
-21.2774501300955
21
11.2373965803246
31
0.000000000000000
  0
LINE
  5
F100FE
330
F100FF
100
AcDbEntity
8
Geo
100
AcDbLine
10
-21.2774501300955
20
11.2373965803246
30
0.000000000000000
11
-21.1774501300955
21
11.1412706621444
31
0.000000000000000
  0
LINE
  5
F10100
330
F10101
100
AcDbEntity
8
Geo
100
AcDbLine
10
-21.1774501300955
20
11.1412706621444
30
0.000000000000000
11
-21.0774501300954
21
11.0457151030704
31
0.000000000000000
  0
LINE
  5
F10102
330
F10103
100
AcDbEntity
8
Geo
100
AcDbLine
10
-21.0774501300954
20
11.0457151030704
30
0.000000000000000
11
-20.9774501300955
21
10.9507681240520
31
0.000000000000000
  0
LINE
  5
F10104
330
F10105
100
AcDbEntity
8
Geo
100
AcDbLine
10
-20.9774501300955
20
10.9507681240520
30
0.000000000000000
11
-20.8774501300955
21
10.8564677026150
31
0.000000000000000
  0
LINE
  5
F10106
330
F10107
100
AcDbEntity
8
Geo
100
AcDbLine
10
-20.8774501300955
20
10.8564677026150
30
0.000000000000000
11
-20.7774501300955
21
10.7628515576707
31
0.000000000000000
  0
LINE
  5
F10108
330
F10109
100
AcDbEntity
8
Geo
100
AcDbLine
10
-20.7774501300955
20
10.7628515576707
30
0.000000000000000
11
-20.6774501300955
21
10.6699571344288
31
0.000000000000000
  0
LINE
  5
F1010A
330
F1010B
100
AcDbEntity
8
Geo
100
AcDbLine
10
-20.6774501300955
20
10.6699571344288
30
0.000000000000000
11
-20.5774501300955
21
10.5778215894200
31
0.000000000000000
  0
LINE
  5
F1010C
330
F1010D
100
AcDbEntity
8
Geo
100
AcDbLine
10
-20.5774501300955
20
10.5778215894200
30
0.000000000000000
11
-20.4774501300955
21
10.4864817756338
31
0.000000000000000
  0
LINE
  5
F1010E
330
F1010F
100
AcDbEntity
8
Geo
100
AcDbLine
10
-20.4774501300955
20
10.4864817756338
30
0.000000000000000
11
-20.3774501300955
21
10.3959742277780
31
0.000000000000000
  0
LINE
  5
F10110
330
F10111
100
AcDbEntity
8
Geo
100
AcDbLine
10
-20.3774501300955
20
10.3959742277780
30
0.000000000000000
11
-20.2774501300955
21
10.3063351476650
31
0.000000000000000
  0
LINE
  5
F10112
330
F10113
100
AcDbEntity
8
Geo
100
AcDbLine
10
-20.2774501300955
20
10.3063351476650
30
0.000000000000000
11
-20.1774501300955
21
10.2176003897315
31
0.000000000000000
  0
LINE
  5
F10114
330
F10115
100
AcDbEntity
8
Geo
100
AcDbLine
10
-20.1774501300955
20
10.2176003897315
30
0.000000000000000
11
-20.0774501300955
21
10.1298054466977
31
0.000000000000000
  0
LINE
  5
F10116
330
F10117
100
AcDbEntity
8
Geo
100
AcDbLine
10
-20.0774501300955
20
10.1298054466977
30
0.000000000000000
11
-19.9774501300955
21
10.0429854353703
31
0.000000000000000
  0
LINE
  5
F10118
330
F10119
100
AcDbEntity
8
Geo
100
AcDbLine
10
-19.9774501300955
20
10.0429854353703
30
0.000000000000000
11
-19.8774501300955
21
9.95717508259600
31
0.000000000000000
  0
LINE
  5
F1011A
330
F1011B
100
AcDbEntity
8
Geo
100
AcDbLine
10
-19.8774501300955
20
9.95717508259600
30
0.000000000000000
11
-19.7774501300955
21
9.87240871137198
31
0.000000000000000
  0
LINE
  5
F1011C
330
F1011D
100
AcDbEntity
8
Geo
100
AcDbLine
10
-19.7774501300955
20
9.87240871137198
30
0.000000000000000
11
-19.6774501300955
21
9.78872022711647
31
0.000000000000000
  0
LINE
  5
F1011E
330
F1011F
100
AcDbEntity
8
Geo
100
AcDbLine
10
-19.6774501300955
20
9.78872022711647
30
0.000000000000000
11
-19.5774501300955
21
9.70614310410735
31
0.000000000000000
  0
LINE
  5
F10120
330
F10121
100
AcDbEntity
8
Geo
100
AcDbLine
10
-19.5774501300955
20
9.70614310410735
30
0.000000000000000
11
-19.4774501300955
21
9.62471037209281
31
0.000000000000000
  0
LINE
  5
F10122
330
F10123
100
AcDbEntity
8
Geo
100
AcDbLine
10
-19.4774501300955
20
9.62471037209281
30
0.000000000000000
11
-19.3774501300955
21
9.54445460307989
31
0.000000000000000
  0
LINE
  5
F10124
330
F10125
100
AcDbEntity
8
Geo
100
AcDbLine
10
-19.3774501300955
20
9.54445460307989
30
0.000000000000000
11
-19.2774501300955
21
9.46540789830614
31
0.000000000000000
  0
LINE
  5
F10126
330
F10127
100
AcDbEntity
8
Geo
100
AcDbLine
10
-19.2774501300955
20
9.46540789830614
30
0.000000000000000
11
-19.1774501300955
21
9.38760187539952
31
0.000000000000000
  0
LINE
  5
F10128
330
F10129
100
AcDbEntity
8
Geo
100
AcDbLine
10
-19.1774501300955
20
9.38760187539952
30
0.000000000000000
11
-19.0774501300955
21
9.31106765573180
31
0.000000000000000
  0
LINE
  5
F1012A
330
F1012B
100
AcDbEntity
8
Geo
100
AcDbLine
10
-19.0774501300955
20
9.31106765573180
30
0.000000000000000
11
-18.9774501300955
21
9.23583585197041
31
0.000000000000000
  0
LINE
  5
F1012C
330
F1012D
100
AcDbEntity
8
Geo
100
AcDbLine
10
-18.9774501300955
20
9.23583585197041
30
0.000000000000000
11
-18.8774501300955
21
9.16193655583377
31
0.000000000000000
  0
LINE
  5
F1012E
330
F1012F
100
AcDbEntity
8
Geo
100
AcDbLine
10
-18.8774501300955
20
9.16193655583377
30
0.000000000000000
11
-18.7774501300955
21
9.08939932605502
31
0.000000000000000
  0
LINE
  5
F10130
330
F10131
100
AcDbEntity
8
Geo
100
AcDbLine
10
-18.7774501300955
20
9.08939932605502
30
0.000000000000000
11
-18.6774501300955
21
9.01825317655893
31
0.000000000000000
  0
LINE
  5
F10132
330
F10133
100
AcDbEntity
8
Geo
100
AcDbLine
10
-18.6774501300955
20
9.01825317655893
30
0.000000000000000
11
-18.5774501300955
21
8.94852656485669
31
0.000000000000000
  0
LINE
  5
F10134
330
F10135
100
AcDbEntity
8
Geo
100
AcDbLine
10
-18.5774501300955
20
8.94852656485669
30
0.000000000000000
11
-18.4774501300955
21
8.88024738066330
31
0.000000000000000
  0
LINE
  5
F10136
330
F10137
100
AcDbEntity
8
Geo
100
AcDbLine
10
-18.4774501300955
20
8.88024738066330
30
0.000000000000000
11
-18.3774501300955
21
8.81344293474207
31
0.000000000000000
  0
LINE
  5
F10138
330
F10139
100
AcDbEntity
8
Geo
100
AcDbLine
10
-18.3774501300955
20
8.81344293474207
30
0.000000000000000
11
-18.2774501300955
21
8.74813994798065
31
0.000000000000000
  0
LINE
  5
F1013A
330
F1013B
100
AcDbEntity
8
Geo
100
AcDbLine
10
-18.2774501300955
20
8.74813994798065
30
0.000000000000000
11
-18.1774501300955
21
8.68436454070306
31
0.000000000000000
  0
LINE
  5
F1013C
330
F1013D
100
AcDbEntity
8
Geo
100
AcDbLine
10
-18.1774501300955
20
8.68436454070306
30
0.000000000000000
11
-18.0774501300955
21
8.62214222222187
31
0.000000000000000
  0
LINE
  5
F1013E
330
F1013F
100
AcDbEntity
8
Geo
100
AcDbLine
10
-18.0774501300955
20
8.62214222222187
30
0.000000000000000
11
-17.9774501300955
21
8.56149788063485
31
0.000000000000000
  0
LINE
  5
F10140
330
F10141
100
AcDbEntity
8
Geo
100
AcDbLine
10
-17.9774501300955
20
8.56149788063485
30
0.000000000000000
11
-17.8774501300955
21
8.50245577287007
31
0.000000000000000
  0
LINE
  5
F10142
330
F10143
100
AcDbEntity
8
Geo
100
AcDbLine
10
-17.8774501300955
20
8.50245577287007
30
0.000000000000000
11
-17.7774501300955
21
8.44503951498341
31
0.000000000000000
  0
LINE
  5
F10144
330
F10145
100
AcDbEntity
8
Geo
100
AcDbLine
10
-17.7774501300955
20
8.44503951498341
30
0.000000000000000
11
-17.6774501300955
21
8.38927207271248
31
0.000000000000000
  0
LINE
  5
F10146
330
F10147
100
AcDbEntity
8
Geo
100
AcDbLine
10
-17.6774501300955
20
8.38927207271248
30
0.000000000000000
11
-17.5774501300955
21
8.33517575229064
31
0.000000000000000
  0
LINE
  5
F10148
330
F10149
100
AcDbEntity
8
Geo
100
AcDbLine
10
-17.5774501300955
20
8.33517575229064
30
0.000000000000000
11
-17.4774501300955
21
8.28277219152478
31
0.000000000000000
  0
LINE
  5
F1014A
330
F1014B
100
AcDbEntity
8
Geo
100
AcDbLine
10
-17.4774501300955
20
8.28277219152478
30
0.000000000000000
11
-17.3774501300955
21
8.23208235114051
31
0.000000000000000
  0
LINE
  5
F1014C
330
F1014D
100
AcDbEntity
8
Geo
100
AcDbLine
10
-17.3774501300955
20
8.23208235114051
30
0.000000000000000
11
-17.2774501300955
21
8.18312650639811
31
0.000000000000000
  0
LINE
  5
F1014E
330
F1014F
100
AcDbEntity
8
Geo
100
AcDbLine
10
-17.2774501300955
20
8.18312650639811
30
0.000000000000000
11
-17.1774501300955
21
8.13592423898275
31
0.000000000000000
  0
LINE
  5
F10150
330
F10151
100
AcDbEntity
8
Geo
100
AcDbLine
10
-17.1774501300955
20
8.13592423898275
30
0.000000000000000
11
-17.0774501300955
21
8.09049442917205
31
0.000000000000000
  0
LINE
  5
F10152
330
F10153
100
AcDbEntity
8
Geo
100
AcDbLine
10
-17.0774501300955
20
8.09049442917205
30
0.000000000000000
11
-16.9774501300955
21
8.04685524828421
31
0.000000000000000
  0
LINE
  5
F10154
330
F10155
100
AcDbEntity
8
Geo
100
AcDbLine
10
-16.9774501300955
20
8.04685524828421
30
0.000000000000000
11
-16.8774501300955
21
8.00502415140972
31
0.000000000000000
  0
LINE
  5
F10156
330
F10157
100
AcDbEntity
8
Geo
100
AcDbLine
10
-16.8774501300955
20
8.00502415140972
30
0.000000000000000
11
-16.7774501300955
21
7.96501787042961
31
0.000000000000000
  0
LINE
  5
F10158
330
F10159
100
AcDbEntity
8
Geo
100
AcDbLine
10
-16.7774501300955
20
7.96501787042961
30
0.000000000000000
11
-16.6774501300955
21
7.92685240732285
31
0.000000000000000
  0
LINE
  5
F1015A
330
F1015B
100
AcDbEntity
8
Geo
100
AcDbLine
10
-16.6774501300955
20
7.92685240732285
30
0.000000000000000
11
-16.5774501300955
21
7.89054302776581
31
0.000000000000000
  0
LINE
  5
F1015C
330
F1015D
100
AcDbEntity
8
Geo
100
AcDbLine
10
-16.5774501300955
20
7.89054302776581
30
0.000000000000000
11
-16.4774501300955
21
7.85610425502622
31
0.000000000000000
  0
LINE
  5
F1015E
330
F1015F
100
AcDbEntity
8
Geo
100
AcDbLine
10
-16.4774501300955
20
7.85610425502622
30
0.000000000000000
11
-16.3774501300955
21
7.82354986415397
31
0.000000000000000
  0
LINE
  5
F10160
330
F10161
100
AcDbEntity
8
Geo
100
AcDbLine
10
-16.3774501300955
20
7.82354986415397
30
0.000000000000000
11
-16.2774501300955
21
7.79289287647137
31
0.000000000000000
  0
LINE
  5
F10162
330
F10163
100
AcDbEntity
8
Geo
100
AcDbLine
10
-16.2774501300955
20
7.79289287647137
30
0.000000000000000
11
-16.1774501300955
21
7.76414555436474
31
0.000000000000000
  0
LINE
  5
F10164
330
F10165
100
AcDbEntity
8
Geo
100
AcDbLine
10
-16.1774501300955
20
7.76414555436474
30
0.000000000000000
11
-16.0774501300955
21
7.73731939637963
31
0.000000000000000
  0
LINE
  5
F10166
330
F10167
100
AcDbEntity
8
Geo
100
AcDbLine
10
-16.0774501300955
20
7.73731939637963
30
0.000000000000000
11
-15.9774501300955
21
7.71242513262155
31
0.000000000000000
  0
LINE
  5
F10168
330
F10169
100
AcDbEntity
8
Geo
100
AcDbLine
10
-15.9774501300955
20
7.71242513262155
30
0.000000000000000
11
-15.8774501300955
21
7.68947272046409
31
0.000000000000000
  0
LINE
  5
F1016A
330
F1016B
100
AcDbEntity
8
Geo
100
AcDbLine
10
-15.8774501300955
20
7.68947272046409
30
0.000000000000000
11
-15.7774501300955
21
7.66847134056608
31
0.000000000000000
  0
LINE
  5
F1016C
330
F1016D
100
AcDbEntity
8
Geo
100
AcDbLine
10
-15.7774501300955
20
7.66847134056608
30
0.000000000000000
11
-15.6774501300955
21
7.64942939319947
31
0.000000000000000
  0
LINE
  5
F1016E
330
F1016F
100
AcDbEntity
8
Geo
100
AcDbLine
10
-15.6774501300955
20
7.64942939319947
30
0.000000000000000
11
-15.5774501300955
21
7.63235449488931
31
0.000000000000000
  0
LINE
  5
F10170
330
F10171
100
AcDbEntity
8
Geo
100
AcDbLine
10
-15.5774501300955
20
7.63235449488931
30
0.000000000000000
11
-15.4774501300955
21
7.61725347536727
31
0.000000000000000
  0
LINE
  5
F10172
330
F10173
100
AcDbEntity
8
Geo
100
AcDbLine
10
-15.4774501300955
20
7.61725347536727
30
0.000000000000000
11
-15.3774501300955
21
7.60413237483981
31
0.000000000000000
  0
LINE
  5
F10174
330
F10175
100
AcDbEntity
8
Geo
100
AcDbLine
10
-15.3774501300955
20
7.60413237483981
30
0.000000000000000
11
-15.2774501300955
21
7.59299644157220
31
0.000000000000000
  0
LINE
  5
F10176
330
F10177
100
AcDbEntity
8
Geo
100
AcDbLine
10
-15.2774501300955
20
7.59299644157220
30
0.000000000000000
11
-15.1774501300955
21
7.58385012978926
31
0.000000000000000
  0
LINE
  5
F10178
330
F10179
100
AcDbEntity
8
Geo
100
AcDbLine
10
-15.1774501300955
20
7.58385012978926
30
0.000000000000000
11
-15.0774501300955
21
7.57669709789376
31
0.000000000000000
  0
LINE
  5
F1017A
330
F1017B
100
AcDbEntity
8
Geo
100
AcDbLine
10
-15.0774501300955
20
7.57669709789376
30
0.000000000000000
11
-14.9774501300955
21
7.57154020700309
31
0.000000000000000
  0
LINE
  5
F1017C
330
F1017D
100
AcDbEntity
8
Geo
100
AcDbLine
10
-14.9774501300955
20
7.57154020700309
30
0.000000000000000
11
-14.8774501300955
21
7.56838151980485
31
0.000000000000000
  0
LINE
  5
F1017E
330
F1017F
100
AcDbEntity
8
Geo
100
AcDbLine
10
-14.8774501300955
20
7.56838151980485
30
0.000000000000000
11
-14.7774501300955
21
7.56722229973179
31
0.000000000000000
  0
LINE
  5
F10180
330
F10181
100
AcDbEntity
8
Geo
100
AcDbLine
10
-14.7774501300955
20
7.56722229973179
30
0.000000000000000
11
-14.7694864513418
21
7.56721595836949
31
0.000000000000000
  0
LINE
  5
F10182
330
F10183
100
AcDbEntity
8
Geo
100
AcDbLine
10
-30.4774501300954
20
12.5672159583695
30
0.000000000000000
11
-30.3774501300954
21
12.4672226249028
31
0.000000000000000
  0
LINE
  5
F10184
330
F10185
100
AcDbEntity
8
Geo
100
AcDbLine
10
-30.3774501300954
20
12.4672226249028
30
0.000000000000000
11
-30.2774501300954
21
12.3672692874363
31
0.000000000000000
  0
LINE
  5
F10186
330
F10187
100
AcDbEntity
8
Geo
100
AcDbLine
10
-30.2774501300954
20
12.3672692874363
30
0.000000000000000
11
-30.1774501300954
21
12.2673959259722
31
0.000000000000000
  0
LINE
  5
F10188
330
F10189
100
AcDbEntity
8
Geo
100
AcDbLine
10
-30.1774501300954
20
12.2673959259722
30
0.000000000000000
11
-30.0774501300954
21
12.1676424885236
31
0.000000000000000
  0
LINE
  5
F1018A
330
F1018B
100
AcDbEntity
8
Geo
100
AcDbLine
10
-30.0774501300954
20
12.1676424885236
30
0.000000000000000
11
-29.9774501300954
21
12.0680488751353
31
0.000000000000000
  0
LINE
  5
F1018C
330
F1018D
100
AcDbEntity
8
Geo
100
AcDbLine
10
-29.9774501300954
20
12.0680488751353
30
0.000000000000000
11
-29.8774501300954
21
11.9686549219249
31
0.000000000000000
  0
LINE
  5
F1018E
330
F1018F
100
AcDbEntity
8
Geo
100
AcDbLine
10
-29.8774501300954
20
11.9686549219249
30
0.000000000000000
11
-29.7774501300954
21
11.8695003851483
31
0.000000000000000
  0
LINE
  5
F10190
330
F10191
100
AcDbEntity
8
Geo
100
AcDbLine
10
-29.7774501300954
20
11.8695003851483
30
0.000000000000000
11
-29.6774501300954
21
11.7706249252982
31
0.000000000000000
  0
LINE
  5
F10192
330
F10193
100
AcDbEntity
8
Geo
100
AcDbLine
10
-29.6774501300954
20
11.7706249252982
30
0.000000000000000
11
-29.5774501300954
21
11.6720680912404
31
0.000000000000000
  0
LINE
  5
F10194
330
F10195
100
AcDbEntity
8
Geo
100
AcDbLine
10
-29.5774501300954
20
11.6720680912404
30
0.000000000000000
11
-29.4774501300954
21
11.5738693043942
31
0.000000000000000
  0
LINE
  5
F10196
330
F10197
100
AcDbEntity
8
Geo
100
AcDbLine
10
-29.4774501300954
20
11.5738693043942
30
0.000000000000000
11
-29.3774501300954
21
11.4760678429651
31
0.000000000000000
  0
LINE
  5
F10198
330
F10199
100
AcDbEntity
8
Geo
100
AcDbLine
10
-29.3774501300954
20
11.4760678429651
30
0.000000000000000
11
-29.2774501300954
21
11.3787028262338
31
0.000000000000000
  0
LINE
  5
F1019A
330
F1019B
100
AcDbEntity
8
Geo
100
AcDbLine
10
-29.2774501300954
20
11.3787028262338
30
0.000000000000000
11
-29.1774501300954
21
11.2818131989087
31
0.000000000000000
  0
LINE
  5
F1019C
330
F1019D
100
AcDbEntity
8
Geo
100
AcDbLine
10
-29.1774501300954
20
11.2818131989087
30
0.000000000000000
11
-29.0774501300954
21
11.1854377155489
31
0.000000000000000
  0
LINE
  5
F1019E
330
F1019F
100
AcDbEntity
8
Geo
100
AcDbLine
10
-29.0774501300954
20
11.1854377155489
30
0.000000000000000
11
-28.9774501300954
21
11.0896149250628
31
0.000000000000000
  0
LINE
  5
F101A0
330
F101A1
100
AcDbEntity
8
Geo
100
AcDbLine
10
-28.9774501300954
20
11.0896149250628
30
0.000000000000000
11
-28.8774501300954
21
10.9943831552889
31
0.000000000000000
  0
LINE
  5
F101A2
330
F101A3
100
AcDbEntity
8
Geo
100
AcDbLine
10
-28.8774501300954
20
10.9943831552889
30
0.000000000000000
11
-28.7774501300954
21
10.8997804976654
31
0.000000000000000
  0
LINE
  5
F101A4
330
F101A5
100
AcDbEntity
8
Geo
100
AcDbLine
10
-28.7774501300954
20
10.8997804976654
30
0.000000000000000
11
-28.6774501300954
21
10.8058447919940
31
0.000000000000000
  0
LINE
  5
F101A6
330
F101A7
100
AcDbEntity
8
Geo
100
AcDbLine
10
-28.6774501300954
20
10.8058447919940
30
0.000000000000000
11
-28.5774501300954
21
10.7126136113046
31
0.000000000000000
  0
LINE
  5
F101A8
330
F101A9
100
AcDbEntity
8
Geo
100
AcDbLine
10
-28.5774501300954
20
10.7126136113046
30
0.000000000000000
11
-28.4774501300954
21
10.6201242468262
31
0.000000000000000
  0
LINE
  5
F101AA
330
F101AB
100
AcDbEntity
8
Geo
100
AcDbLine
10
-28.4774501300954
20
10.6201242468262
30
0.000000000000000
11
-28.3774501300954
21
10.5284136930716
31
0.000000000000000
  0
LINE
  5
F101AC
330
F101AD
100
AcDbEntity
8
Geo
100
AcDbLine
10
-28.3774501300954
20
10.5284136930716
30
0.000000000000000
11
-28.2774501300954
21
10.4375186330395
31
0.000000000000000
  0
LINE
  5
F101AE
330
F101AF
100
AcDbEntity
8
Geo
100
AcDbLine
10
-28.2774501300954
20
10.4375186330395
30
0.000000000000000
11
-28.1774501300954
21
10.3474754235419
31
0.000000000000000
  0
LINE
  5
F101B0
330
F101B1
100
AcDbEntity
8
Geo
100
AcDbLine
10
-28.1774501300954
20
10.3474754235419
30
0.000000000000000
11
-28.0774501300954
21
10.2583200806621
31
0.000000000000000
  0
LINE
  5
F101B2
330
F101B3
100
AcDbEntity
8
Geo
100
AcDbLine
10
-28.0774501300954
20
10.2583200806621
30
0.000000000000000
11
-27.9774501300954
21
10.1700882653485
31
0.000000000000000
  0
LINE
  5
F101B4
330
F101B5
100
AcDbEntity
8
Geo
100
AcDbLine
10
-27.9774501300954
20
10.1700882653485
30
0.000000000000000
11
-27.8774501300954
21
10.0828152691508
31
0.000000000000000
  0
LINE
  5
F101B6
330
F101B7
100
AcDbEntity
8
Geo
100
AcDbLine
10
-27.8774501300954
20
10.0828152691508
30
0.000000000000000
11
-27.7774501300954
21
9.99653600010391
31
0.000000000000000
  0
LINE
  5
F101B8
330
F101B9
100
AcDbEntity
8
Geo
100
AcDbLine
10
-27.7774501300954
20
9.99653600010391
30
0.000000000000000
11
-27.6774501300954
21
9.91128496876506
31
0.000000000000000
  0
LINE
  5
F101BA
330
F101BB
100
AcDbEntity
8
Geo
100
AcDbLine
10
-27.6774501300954
20
9.91128496876506
30
0.000000000000000
11
-27.5774501300954
21
9.82709627441011
31
0.000000000000000
  0
LINE
  5
F101BC
330
F101BD
100
AcDbEntity
8
Geo
100
AcDbLine
10
-27.5774501300954
20
9.82709627441011
30
0.000000000000000
11
-27.4774501300954
21
9.74400359139430
31
0.000000000000000
  0
LINE
  5
F101BE
330
F101BF
100
AcDbEntity
8
Geo
100
AcDbLine
10
-27.4774501300954
20
9.74400359139430
30
0.000000000000000
11
-27.3774501300954
21
9.66204015568295
31
0.000000000000000
  0
LINE
  5
F101C0
330
F101C1
100
AcDbEntity
8
Geo
100
AcDbLine
10
-27.3774501300954
20
9.66204015568295
30
0.000000000000000
11
-27.2774501300954
21
9.58123875155752
31
0.000000000000000
  0
LINE
  5
F101C2
330
F101C3
100
AcDbEntity
8
Geo
100
AcDbLine
10
-27.2774501300954
20
9.58123875155752
30
0.000000000000000
11
-27.1774501300954
21
9.50163169850231
31
0.000000000000000
  0
LINE
  5
F101C4
330
F101C5
100
AcDbEntity
8
Geo
100
AcDbLine
10
-27.1774501300954
20
9.50163169850231
30
0.000000000000000
11
-27.0774501300954
21
9.42325083827713
31
0.000000000000000
  0
LINE
  5
F101C6
330
F101C7
100
AcDbEntity
8
Geo
100
AcDbLine
10
-27.0774501300954
20
9.42325083827713
30
0.000000000000000
11
-26.9774501300954
21
9.34612752218102
31
0.000000000000000
  0
LINE
  5
F101C8
330
F101C9
100
AcDbEntity
8
Geo
100
AcDbLine
10
-26.9774501300954
20
9.34612752218102
30
0.000000000000000
11
-26.8774501300954
21
9.27029259851211
31
0.000000000000000
  0
LINE
  5
F101CA
330
F101CB
100
AcDbEntity
8
Geo
100
AcDbLine
10
-26.8774501300954
20
9.27029259851211
30
0.000000000000000
11
-26.7774501300954
21
9.19577640022875
31
0.000000000000000
  0
LINE
  5
F101CC
330
F101CD
100
AcDbEntity
8
Geo
100
AcDbLine
10
-26.7774501300954
20
9.19577640022875
30
0.000000000000000
11
-26.6774501300954
21
9.12260873281672
31
0.000000000000000
  0
LINE
  5
F101CE
330
F101CF
100
AcDbEntity
8
Geo
100
AcDbLine
10
-26.6774501300954
20
9.12260873281672
30
0.000000000000000
11
-26.5774501300954
21
9.05081886236743
31
0.000000000000000
  0
LINE
  5
F101D0
330
F101D1
100
AcDbEntity
8
Geo
100
AcDbLine
10
-26.5774501300954
20
9.05081886236743
30
0.000000000000000
11
-26.4774501300954
21
8.98043550387187
31
0.000000000000000
  0
LINE
  5
F101D2
330
F101D3
100
AcDbEntity
8
Geo
100
AcDbLine
10
-26.4774501300954
20
8.98043550387187
30
0.000000000000000
11
-26.3774501300954
21
8.91148680973500
31
0.000000000000000
  0
LINE
  5
F101D4
330
F101D5
100
AcDbEntity
8
Geo
100
AcDbLine
10
-26.3774501300954
20
8.91148680973500
30
0.000000000000000
11
-26.2774501300954
21
8.84400035851518
31
0.000000000000000
  0
LINE
  5
F101D6
330
F101D7
100
AcDbEntity
8
Geo
100
AcDbLine
10
-26.2774501300954
20
8.84400035851518
30
0.000000000000000
11
-26.1774501300954
21
8.77800314389309
31
0.000000000000000
  0
LINE
  5
F101D8
330
F101D9
100
AcDbEntity
8
Geo
100
AcDbLine
10
-26.1774501300954
20
8.77800314389309
30
0.000000000000000
11
-26.0774501300954
21
8.71352156387463
31
0.000000000000000
  0
LINE
  5
F101DA
330
F101DB
100
AcDbEntity
8
Geo
100
AcDbLine
10
-26.0774501300954
20
8.71352156387463
30
0.000000000000000
11
-25.9774501300954
21
8.65058141023206
31
0.000000000000000
  0
LINE
  5
F101DC
330
F101DD
100
AcDbEntity
8
Geo
100
AcDbLine
10
-25.9774501300954
20
8.65058141023206
30
0.000000000000000
11
-25.8774501300954
21
8.58920785818765
31
0.000000000000000
  0
LINE
  5
F101DE
330
F101DF
100
AcDbEntity
8
Geo
100
AcDbLine
10
-25.8774501300954
20
8.58920785818765
30
0.000000000000000
11
-25.7774501300954
21
8.52942545634391
31
0.000000000000000
  0
LINE
  5
F101E0
330
F101E1
100
AcDbEntity
8
Geo
100
AcDbLine
10
-25.7774501300954
20
8.52942545634391
30
0.000000000000000
11
-25.6774501300954
21
8.47125811686449
31
0.000000000000000
  0
LINE
  5
F101E2
330
F101E3
100
AcDbEntity
8
Geo
100
AcDbLine
10
-25.6774501300954
20
8.47125811686449
30
0.000000000000000
11
-25.5774501300954
21
8.41472910590963
31
0.000000000000000
  0
LINE
  5
F101E4
330
F101E5
100
AcDbEntity
8
Geo
100
AcDbLine
10
-25.5774501300954
20
8.41472910590963
30
0.000000000000000
11
-25.4774501300954
21
8.35986103433000
31
0.000000000000000
  0
LINE
  5
F101E6
330
F101E7
100
AcDbEntity
8
Geo
100
AcDbLine
10
-25.4774501300954
20
8.35986103433000
30
0.000000000000000
11
-25.3774501300954
21
8.30667584862267
31
0.000000000000000
  0
LINE
  5
F101E8
330
F101E9
100
AcDbEntity
8
Geo
100
AcDbLine
10
-25.3774501300954
20
8.30667584862267
30
0.000000000000000
11
-25.2774501300954
21
8.25519482215279
31
0.000000000000000
  0
LINE
  5
F101EA
330
F101EB
100
AcDbEntity
8
Geo
100
AcDbLine
10
-25.2774501300954
20
8.25519482215279
30
0.000000000000000
11
-25.1774501300954
21
8.20543854664455
31
0.000000000000000
  0
LINE
  5
F101EC
330
F101ED
100
AcDbEntity
8
Geo
100
AcDbLine
10
-25.1774501300954
20
8.20543854664455
30
0.000000000000000
11
-25.0774501300954
21
8.15742692394475
31
0.000000000000000
  0
LINE
  5
F101EE
330
F101EF
100
AcDbEntity
8
Geo
100
AcDbLine
10
-25.0774501300954
20
8.15742692394475
30
0.000000000000000
11
-24.9774501300954
21
8.11117915806231
31
0.000000000000000
  0
LINE
  5
F101F0
330
F101F1
100
AcDbEntity
8
Geo
100
AcDbLine
10
-24.9774501300954
20
8.11117915806231
30
0.000000000000000
11
-24.8774501300954
21
8.06671374748696
31
0.000000000000000
  0
LINE
  5
F101F2
330
F101F3
100
AcDbEntity
8
Geo
100
AcDbLine
10
-24.8774501300954
20
8.06671374748696
30
0.000000000000000
11
-24.7774501300954
21
8.02404847779007
31
0.000000000000000
  0
LINE
  5
F101F4
330
F101F5
100
AcDbEntity
8
Geo
100
AcDbLine
10
-24.7774501300954
20
8.02404847779007
30
0.000000000000000
11
-24.6774501300954
21
7.98320041451065
31
0.000000000000000
  0
LINE
  5
F101F6
330
F101F7
100
AcDbEntity
8
Geo
100
AcDbLine
10
-24.6774501300954
20
7.98320041451065
30
0.000000000000000
11
-24.5774501300954
21
7.94418589632939
31
0.000000000000000
  0
LINE
  5
F101F8
330
F101F9
100
AcDbEntity
8
Geo
100
AcDbLine
10
-24.5774501300954
20
7.94418589632939
30
0.000000000000000
11
-24.4774501300954
21
7.90702052853336
31
0.000000000000000
  0
LINE
  5
F101FA
330
F101FB
100
AcDbEntity
8
Geo
100
AcDbLine
10
-24.4774501300954
20
7.90702052853336
30
0.000000000000000
11
-24.3774501300954
21
7.87171917677415
31
0.000000000000000
  0
LINE
  5
F101FC
330
F101FD
100
AcDbEntity
8
Geo
100
AcDbLine
10
-24.3774501300954
20
7.87171917677415
30
0.000000000000000
11
-24.2774501300954
21
7.83829596112179
31
0.000000000000000
  0
LINE
  5
F101FE
330
F101FF
100
AcDbEntity
8
Geo
100
AcDbLine
10
-24.2774501300954
20
7.83829596112179
30
0.000000000000000
11
-24.1774501300954
21
7.80676425041691
31
0.000000000000000
  0
LINE
  5
F10200
330
F10201
100
AcDbEntity
8
Geo
100
AcDbLine
10
-24.1774501300954
20
7.80676425041691
30
0.000000000000000
11
-24.0774501300954
21
7.77713665692336
31
0.000000000000000
  0
LINE
  5
F10202
330
F10203
100
AcDbEntity
8
Geo
100
AcDbLine
10
-24.0774501300954
20
7.77713665692336
30
0.000000000000000
11
-23.9774501300954
21
7.74942503128353
31
0.000000000000000
  0
LINE
  5
F10204
330
F10205
100
AcDbEntity
8
Geo
100
AcDbLine
10
-23.9774501300954
20
7.74942503128353
30
0.000000000000000
11
-23.8774501300954
21
7.72364045777816
31
0.000000000000000
  0
LINE
  5
F10206
330
F10207
100
AcDbEntity
8
Geo
100
AcDbLine
10
-23.8774501300954
20
7.72364045777816
30
0.000000000000000
11
-23.7774501300954
21
7.69979324989289
31
0.000000000000000
  0
LINE
  5
F10208
330
F10209
100
AcDbEntity
8
Geo
100
AcDbLine
10
-23.7774501300954
20
7.69979324989289
30
0.000000000000000
11
-23.6774501300954
21
7.67789294619291
31
0.000000000000000
  0
LINE
  5
F1020A
330
F1020B
100
AcDbEntity
8
Geo
100
AcDbLine
10
-23.6774501300954
20
7.67789294619291
30
0.000000000000000
11
-23.5774501300954
21
7.65794830650769
31
0.000000000000000
  0
LINE
  5
F1020C
330
F1020D
100
AcDbEntity
8
Geo
100
AcDbLine
10
-23.5774501300954
20
7.65794830650769
30
0.000000000000000
11
-23.4774501300954
21
7.63996730842719
31
0.000000000000000
  0
LINE
  5
F1020E
330
F1020F
100
AcDbEntity
8
Geo
100
AcDbLine
10
-23.4774501300954
20
7.63996730842719
30
0.000000000000000
11
-23.3774501300954
21
7.62395714411089
31
0.000000000000000
  0
LINE
  5
F10210
330
F10211
100
AcDbEntity
8
Geo
100
AcDbLine
10
-23.3774501300954
20
7.62395714411089
30
0.000000000000000
11
-23.2774501300954
21
7.60992421741106
31
0.000000000000000
  0
LINE
  5
F10212
330
F10213
100
AcDbEntity
8
Geo
100
AcDbLine
10
-23.2774501300954
20
7.60992421741106
30
0.000000000000000
11
-23.1774501300954
21
7.59787414131127
31
0.000000000000000
  0
LINE
  5
F10214
330
F10215
100
AcDbEntity
8
Geo
100
AcDbLine
10
-23.1774501300954
20
7.59787414131127
30
0.000000000000000
11
-23.0774501300954
21
7.58781173568129
31
0.000000000000000
  0
LINE
  5
F10216
330
F10217
100
AcDbEntity
8
Geo
100
AcDbLine
10
-23.0774501300954
20
7.58781173568129
30
0.000000000000000
11
-22.9774501300954
21
7.57974102534922
31
0.000000000000000
  0
LINE
  5
F10218
330
F10219
100
AcDbEntity
8
Geo
100
AcDbLine
10
-22.9774501300954
20
7.57974102534922
30
0.000000000000000
11
-22.8774501300954
21
7.57366523849157
31
0.000000000000000
  0
LINE
  5
F1021A
330
F1021B
100
AcDbEntity
8
Geo
100
AcDbLine
10
-22.8774501300954
20
7.57366523849157
30
0.000000000000000
11
-22.7774501300954
21
7.56958680534209
31
0.000000000000000
  0
LINE
  5
F1021C
330
F1021D
100
AcDbEntity
8
Geo
100
AcDbLine
10
-22.7774501300954
20
7.56958680534209
30
0.000000000000000
11
-22.6774501300954
21
7.56750735721966
31
0.000000000000000
  0
LINE
  5
F1021E
330
F1021F
100
AcDbEntity
8
Geo
100
AcDbLine
10
-22.6774501300954
20
7.56750735721966
30
0.000000000000000
11
-22.6234686280014
21
7.56721595836949
31
0.000000000000000
  0
LINE
  5
F10220
330
F10221
100
AcDbEntity
8
Geo
100
AcDbLine
10
-30.4774501300954
20
7.56721595836949
30
0.000000000000000
11
-30.4774501300954
21
7.56721595836949
31
0.000000000000000
  0
LINE
  5
F10222
330
F10223
100
AcDbEntity
8
Geo
100
AcDbLine
10
-14.7694864513418
20
17.5672159583695
30
0.000000000000000
11
-14.6774501300955
21
17.5663689062825
31
0.000000000000000
  0
LINE
  5
F10224
330
F10225
100
AcDbEntity
8
Geo
100
AcDbLine
10
-14.6774501300955
20
17.5663689062825
30
0.000000000000000
11
-14.5774501300955
21
17.5635286010331
31
0.000000000000000
  0
LINE
  5
F10226
330
F10227
100
AcDbEntity
8
Geo
100
AcDbLine
10
-14.5774501300955
20
17.5635286010331
30
0.000000000000000
11
-14.4774501300955
21
17.5586898373433
31
0.000000000000000
  0
LINE
  5
F10228
330
F10229
100
AcDbEntity
8
Geo
100
AcDbLine
10
-14.4774501300955
20
17.5586898373433
30
0.000000000000000
11
-14.3774501300955
21
17.5518545506539
31
0.000000000000000
  0
LINE
  5
F1022A
330
F1022B
100
AcDbEntity
8
Geo
100
AcDbLine
10
-14.3774501300955
20
17.5518545506539
30
0.000000000000000
11
-14.2774501300955
21
17.5430254749886
31
0.000000000000000
  0
LINE
  5
F1022C
330
F1022D
100
AcDbEntity
8
Geo
100
AcDbLine
10
-14.2774501300955
20
17.5430254749886
30
0.000000000000000
11
-14.1774501300955
21
17.5322061418600
31
0.000000000000000
  0
LINE
  5
F1022E
330
F1022F
100
AcDbEntity
8
Geo
100
AcDbLine
10
-14.1774501300955
20
17.5322061418600
30
0.000000000000000
11
-14.0774501300955
21
17.5194008788569
31
0.000000000000000
  0
LINE
  5
F10230
330
F10231
100
AcDbEntity
8
Geo
100
AcDbLine
10
-14.0774501300955
20
17.5194008788569
30
0.000000000000000
11
-13.9774501300955
21
17.5046148079138
31
0.000000000000000
  0
LINE
  5
F10232
330
F10233
100
AcDbEntity
8
Geo
100
AcDbLine
10
-13.9774501300955
20
17.5046148079138
30
0.000000000000000
11
-13.8774501300955
21
17.4878538432621
31
0.000000000000000
  0
LINE
  5
F10234
330
F10235
100
AcDbEntity
8
Geo
100
AcDbLine
10
-13.8774501300955
20
17.4878538432621
30
0.000000000000000
11
-13.7774501300955
21
17.4691246890640
31
0.000000000000000
  0
LINE
  5
F10236
330
F10237
100
AcDbEntity
8
Geo
100
AcDbLine
10
-13.7774501300955
20
17.4691246890640
30
0.000000000000000
11
-13.6774501300955
21
17.4484348367316
31
0.000000000000000
  0
LINE
  5
F10238
330
F10239
100
AcDbEntity
8
Geo
100
AcDbLine
10
-13.6774501300955
20
17.4484348367316
30
0.000000000000000
11
-13.5774501300955
21
17.4257925619298
31
0.000000000000000
  0
LINE
  5
F1023A
330
F1023B
100
AcDbEntity
8
Geo
100
AcDbLine
10
-13.5774501300955
20
17.4257925619298
30
0.000000000000000
11
-13.4774501300955
21
17.4012069212668
31
0.000000000000000
  0
LINE
  5
F1023C
330
F1023D
100
AcDbEntity
8
Geo
100
AcDbLine
10
-13.4774501300955
20
17.4012069212668
30
0.000000000000000
11
-13.3774501300955
21
17.3746877486710
31
0.000000000000000
  0
LINE
  5
F1023E
330
F1023F
100
AcDbEntity
8
Geo
100
AcDbLine
10
-13.3774501300955
20
17.3746877486710
30
0.000000000000000
11
-13.2774501300955
21
17.3462456514578
31
0.000000000000000
  0
LINE
  5
F10240
330
F10241
100
AcDbEntity
8
Geo
100
AcDbLine
10
-13.2774501300955
20
17.3462456514578
30
0.000000000000000
11
-13.1774501300955
21
17.3158920060870
31
0.000000000000000
  0
LINE
  5
F10242
330
F10243
100
AcDbEntity
8
Geo
100
AcDbLine
10
-13.1774501300955
20
17.3158920060870
30
0.000000000000000
11
-13.0774501300955
21
17.2836389536119
31
0.000000000000000
  0
LINE
  5
F10244
330
F10245
100
AcDbEntity
8
Geo
100
AcDbLine
10
-13.0774501300955
20
17.2836389536119
30
0.000000000000000
11
-12.9774501300955
21
17.2494993948235
31
0.000000000000000
  0
LINE
  5
F10246
330
F10247
100
AcDbEntity
8
Geo
100
AcDbLine
10
-12.9774501300955
20
17.2494993948235
30
0.000000000000000
11
-12.8774501300955
21
17.2134869850901
31
0.000000000000000
  0
LINE
  5
F10248
330
F10249
100
AcDbEntity
8
Geo
100
AcDbLine
10
-12.8774501300955
20
17.2134869850901
30
0.000000000000000
11
-12.7774501300955
21
17.1756161288955
31
0.000000000000000
  0
LINE
  5
F1024A
330
F1024B
100
AcDbEntity
8
Geo
100
AcDbLine
10
-12.7774501300955
20
17.1756161288955
30
0.000000000000000
11
-12.6774501300955
21
17.1359019740772
31
0.000000000000000
  0
LINE
  5
F1024C
330
F1024D
100
AcDbEntity
8
Geo
100
AcDbLine
10
-12.6774501300955
20
17.1359019740772
30
0.000000000000000
11
-12.5774501300954
21
17.0943604057676
31
0.000000000000000
  0
LINE
  5
F1024E
330
F1024F
100
AcDbEntity
8
Geo
100
AcDbLine
10
-12.5774501300954
20
17.0943604057676
30
0.000000000000000
11
-12.4774501300954
21
17.0510080400402
31
0.000000000000000
  0
LINE
  5
F10250
330
F10251
100
AcDbEntity
8
Geo
100
AcDbLine
10
-12.4774501300954
20
17.0510080400402
30
0.000000000000000
11
-12.3774501300954
21
17.0058622172632
31
0.000000000000000
  0
LINE
  5
F10252
330
F10253
100
AcDbEntity
8
Geo
100
AcDbLine
10
-12.3774501300954
20
17.0058622172632
30
0.000000000000000
11
-12.2774501300954
21
16.9589409951639
31
0.000000000000000
  0
LINE
  5
F10254
330
F10255
100
AcDbEntity
8
Geo
100
AcDbLine
10
-12.2774501300954
20
16.9589409951639
30
0.000000000000000
11
-12.1774501300954
21
16.9102631416053
31
0.000000000000000
  0
LINE
  5
F10256
330
F10257
100
AcDbEntity
8
Geo
100
AcDbLine
10
-12.1774501300954
20
16.9102631416053
30
0.000000000000000
11
-12.0774501300954
21
16.8598481270800
31
0.000000000000000
  0
LINE
  5
F10258
330
F10259
100
AcDbEntity
8
Geo
100
AcDbLine
10
-12.0774501300954
20
16.8598481270800
30
0.000000000000000
11
-11.9774501300954
21
16.8077161169215
31
0.000000000000000
  0
LINE
  5
F1025A
330
F1025B
100
AcDbEntity
8
Geo
100
AcDbLine
10
-11.9774501300954
20
16.8077161169215
30
0.000000000000000
11
-11.8774501300954
21
16.7538879632389
31
0.000000000000000
  0
LINE
  5
F1025C
330
F1025D
100
AcDbEntity
8
Geo
100
AcDbLine
10
-11.8774501300954
20
16.7538879632389
30
0.000000000000000
11
-11.7774501300954
21
16.6983851965759
31
0.000000000000000
  0
LINE
  5
F1025E
330
F1025F
100
AcDbEntity
8
Geo
100
AcDbLine
10
-11.7774501300954
20
16.6983851965759
30
0.000000000000000
11
-11.6774501300954
21
16.6412300172991
31
0.000000000000000
  0
LINE
  5
F10260
330
F10261
100
AcDbEntity
8
Geo
100
AcDbLine
10
-11.6774501300954
20
16.6412300172991
30
0.000000000000000
11
-11.5774501300954
21
16.5824452867181
31
0.000000000000000
  0
LINE
  5
F10262
330
F10263
100
AcDbEntity
8
Geo
100
AcDbLine
10
-11.5774501300954
20
16.5824452867181
30
0.000000000000000
11
-11.4774501300954
21
16.5220545179416
31
0.000000000000000
  0
LINE
  5
F10264
330
F10265
100
AcDbEntity
8
Geo
100
AcDbLine
10
-11.4774501300954
20
16.5220545179416
30
0.000000000000000
11
-11.3774501300954
21
16.4600818664717
31
0.000000000000000
  0
LINE
  5
F10266
330
F10267
100
AcDbEntity
8
Geo
100
AcDbLine
10
-11.3774501300954
20
16.4600818664717
30
0.000000000000000
11
-11.2774501300954
21
16.3965521205427
31
0.000000000000000
  0
LINE
  5
F10268
330
F10269
100
AcDbEntity
8
Geo
100
AcDbLine
10
-11.2774501300954
20
16.3965521205427
30
0.000000000000000
11
-11.1774501300954
21
16.3314906912060
31
0.000000000000000
  0
LINE
  5
F1026A
330
F1026B
100
AcDbEntity
8
Geo
100
AcDbLine
10
-11.1774501300954
20
16.3314906912060
30
0.000000000000000
11
-11.0774501300954
21
16.2649236021658
31
0.000000000000000
  0
LINE
  5
F1026C
330
F1026D
100
AcDbEntity
8
Geo
100
AcDbLine
10
-11.0774501300954
20
16.2649236021658
30
0.000000000000000
11
-10.9774501300954
21
16.1968774793702
31
0.000000000000000
  0
LINE
  5
F1026E
330
F1026F
100
AcDbEntity
8
Geo
100
AcDbLine
10
-10.9774501300954
20
16.1968774793702
30
0.000000000000000
11
-10.8774501300954
21
16.1273795403610
31
0.000000000000000
  0
LINE
  5
F10270
330
F10271
100
AcDbEntity
8
Geo
100
AcDbLine
10
-10.8774501300954
20
16.1273795403610
30
0.000000000000000
11
-10.7774501300954
21
16.0564575833873
31
0.000000000000000
  0
LINE
  5
F10272
330
F10273
100
AcDbEntity
8
Geo
100
AcDbLine
10
-10.7774501300954
20
16.0564575833873
30
0.000000000000000
11
-10.6774501300954
21
15.9841399762862
31
0.000000000000000
  0
LINE
  5
F10274
330
F10275
100
AcDbEntity
8
Geo
100
AcDbLine
10
-10.6774501300954
20
15.9841399762862
30
0.000000000000000
11
-10.5774501300954
21
15.9104556451362
31
0.000000000000000
  0
LINE
  5
F10276
330
F10277
100
AcDbEntity
8
Geo
100
AcDbLine
10
-22.6234686280013
20
17.5672159583695
30
0.000000000000000
11
-22.5774501300954
21
17.5670041908632
31
0.000000000000000
  0
LINE
  5
F10278
330
F10279
100
AcDbEntity
8
Geo
100
AcDbLine
10
-22.5774501300954
20
17.5670041908632
30
0.000000000000000
11
-22.4774501300954
21
17.5650839735770
31
0.000000000000000
  0
LINE
  5
F1027A
330
F1027B
100
AcDbEntity
8
Geo
100
AcDbLine
10
-22.4774501300954
20
17.5650839735770
30
0.000000000000000
11
-22.3774501300954
21
17.5611646757221
31
0.000000000000000
  0
LINE
  5
F1027C
330
F1027D
100
AcDbEntity
8
Geo
100
AcDbLine
10
-22.3774501300954
20
17.5611646757221
30
0.000000000000000
11
-22.2774501300954
21
17.5552478649654
31
0.000000000000000
  0
LINE
  5
F1027E
330
F1027F
100
AcDbEntity
8
Geo
100
AcDbLine
10
-22.2774501300954
20
17.5552478649654
30
0.000000000000000
11
-22.1774501300954
21
17.5473359079522
31
0.000000000000000
  0
LINE
  5
F10280
330
F10281
100
AcDbEntity
8
Geo
100
AcDbLine
10
-22.1774501300954
20
17.5473359079522
30
0.000000000000000
11
-22.0774501300954
21
17.5374319693599
31
0.000000000000000
  0
LINE
  5
F10282
330
F10283
100
AcDbEntity
8
Geo
100
AcDbLine
10
-22.0774501300954
20
17.5374319693599
30
0.000000000000000
11
-21.9774501300954
21
17.5255400106318
31
0.000000000000000
  0
LINE
  5
F10284
330
F10285
100
AcDbEntity
8
Geo
100
AcDbLine
10
-21.9774501300954
20
17.5255400106318
30
0.000000000000000
11
-21.8774501300954
21
17.5116647883930
31
0.000000000000000
  0
LINE
  5
F10286
330
F10287
100
AcDbEntity
8
Geo
100
AcDbLine
10
-21.8774501300954
20
17.5116647883930
30
0.000000000000000
11
-21.7774501300954
21
17.4958118525473
31
0.000000000000000
  0
LINE
  5
F10288
330
F10289
100
AcDbEntity
8
Geo
100
AcDbLine
10
-21.7774501300954
20
17.4958118525473
30
0.000000000000000
11
-21.6774501300955
21
17.4779875440576
31
0.000000000000000
  0
LINE
  5
F1028A
330
F1028B
100
AcDbEntity
8
Geo
100
AcDbLine
10
-21.6774501300955
20
17.4779875440576
30
0.000000000000000
11
-21.5774501300954
21
17.4581989924097
31
0.000000000000000
  0
LINE
  5
F1028C
330
F1028D
100
AcDbEntity
8
Geo
100
AcDbLine
10
-21.5774501300954
20
17.4581989924097
30
0.000000000000000
11
-21.4774501300954
21
17.4364541127605
31
0.000000000000000
  0
LINE
  5
F1028E
330
F1028F
100
AcDbEntity
8
Geo
100
AcDbLine
10
-21.4774501300954
20
17.4364541127605
30
0.000000000000000
11
-21.3774501300955
21
17.4127616027718
31
0.000000000000000
  0
LINE
  5
F10290
330
F10291
100
AcDbEntity
8
Geo
100
AcDbLine
10
-21.3774501300955
20
17.4127616027718
30
0.000000000000000
11
-21.2774501300955
21
17.3871309391317
31
0.000000000000000
  0
LINE
  5
F10292
330
F10293
100
AcDbEntity
8
Geo
100
AcDbLine
10
-21.2774501300955
20
17.3871309391317
30
0.000000000000000
11
-21.1774501300955
21
17.3595723737641
31
0.000000000000000
  0
LINE
  5
F10294
330
F10295
100
AcDbEntity
8
Geo
100
AcDbLine
10
-21.1774501300955
20
17.3595723737641
30
0.000000000000000
11
-21.0774501300954
21
17.3300969297275
31
0.000000000000000
  0
LINE
  5
F10296
330
F10297
100
AcDbEntity
8
Geo
100
AcDbLine
10
-21.0774501300954
20
17.3300969297275
30
0.000000000000000
11
-20.9774501300955
21
17.2987163968066
31
0.000000000000000
  0
LINE
  5
F10298
330
F10299
100
AcDbEntity
8
Geo
100
AcDbLine
10
-20.9774501300955
20
17.2987163968066
30
0.000000000000000
11
-20.8774501300955
21
17.2654433267961
31
0.000000000000000
  0
LINE
  5
F1029A
330
F1029B
100
AcDbEntity
8
Geo
100
AcDbLine
10
-20.8774501300955
20
17.2654433267961
30
0.000000000000000
11
-20.7774501300955
21
17.2302910284805
31
0.000000000000000
  0
LINE
  5
F1029C
330
F1029D
100
AcDbEntity
8
Geo
100
AcDbLine
10
-20.7774501300955
20
17.2302910284805
30
0.000000000000000
11
-20.6774501300955
21
17.1932735623104
31
0.000000000000000
  0
LINE
  5
F1029E
330
F1029F
100
AcDbEntity
8
Geo
100
AcDbLine
10
-20.6774501300955
20
17.1932735623104
30
0.000000000000000
11
-20.5774501300955
21
17.1544057347786
31
0.000000000000000
  0
LINE
  5
F102A0
330
F102A1
100
AcDbEntity
8
Geo
100
AcDbLine
10
-20.5774501300955
20
17.1544057347786
30
0.000000000000000
11
-20.4774501300955
21
17.1137030924979
31
0.000000000000000
  0
LINE
  5
F102A2
330
F102A3
100
AcDbEntity
8
Geo
100
AcDbLine
10
-20.4774501300955
20
17.1137030924979
30
0.000000000000000
11
-20.3774501300955
21
17.0711819159826
31
0.000000000000000
  0
LINE
  5
F102A4
330
F102A5
100
AcDbEntity
8
Geo
100
AcDbLine
10
-20.3774501300955
20
17.0711819159826
30
0.000000000000000
11
-20.2774501300955
21
17.0268592131364
31
0.000000000000000
  0
LINE
  5
F102A6
330
F102A7
100
AcDbEntity
8
Geo
100
AcDbLine
10
-20.2774501300955
20
17.0268592131364
30
0.000000000000000
11
-20.1774501300955
21
16.9807527124494
31
0.000000000000000
  0
LINE
  5
F102A8
330
F102A9
100
AcDbEntity
8
Geo
100
AcDbLine
10
-20.1774501300955
20
16.9807527124494
30
0.000000000000000
11
-20.0774501300955
21
16.9328808559071
31
0.000000000000000
  0
LINE
  5
F102AA
330
F102AB
100
AcDbEntity
8
Geo
100
AcDbLine
10
-20.0774501300955
20
16.9328808559071
30
0.000000000000000
11
-19.9774501300955
21
16.8832627916139
31
0.000000000000000
  0
LINE
  5
F102AC
330
F102AD
100
AcDbEntity
8
Geo
100
AcDbLine
10
-19.9774501300955
20
16.8832627916139
30
0.000000000000000
11
-19.8774501300955
21
16.8319183661339
31
0.000000000000000
  0
LINE
  5
F102AE
330
F102AF
100
AcDbEntity
8
Geo
100
AcDbLine
10
-19.8774501300955
20
16.8319183661339
30
0.000000000000000
11
-19.7774501300955
21
16.7788681165528
31
0.000000000000000
  0
LINE
  5
F102B0
330
F102B1
100
AcDbEntity
8
Geo
100
AcDbLine
10
-19.7774501300955
20
16.7788681165528
30
0.000000000000000
11
-19.6774501300955
21
16.7241332622629
31
0.000000000000000
  0
LINE
  5
F102B2
330
F102B3
100
AcDbEntity
8
Geo
100
AcDbLine
10
-19.6774501300955
20
16.7241332622629
30
0.000000000000000
11
-19.5774501300955
21
16.6677356964764
31
0.000000000000000
  0
LINE
  5
F102B4
330
F102B5
100
AcDbEntity
8
Geo
100
AcDbLine
10
-19.5774501300955
20
16.6677356964764
30
0.000000000000000
11
-19.4774501300955
21
16.6096979774675
31
0.000000000000000
  0
LINE
  5
F102B6
330
F102B7
100
AcDbEntity
8
Geo
100
AcDbLine
10
-19.4774501300955
20
16.6096979774675
30
0.000000000000000
11
-19.3774501300955
21
16.5500433195500
31
0.000000000000000
  0
LINE
  5
F102B8
330
F102B9
100
AcDbEntity
8
Geo
100
AcDbLine
10
-19.3774501300955
20
16.5500433195500
30
0.000000000000000
11
-19.2774501300955
21
16.4887955837916
31
0.000000000000000
  0
LINE
  5
F102BA
330
F102BB
100
AcDbEntity
8
Geo
100
AcDbLine
10
-19.2774501300955
20
16.4887955837916
30
0.000000000000000
11
-19.1774501300955
21
16.4259792684702
31
0.000000000000000
  0
LINE
  5
F102BC
330
F102BD
100
AcDbEntity
8
Geo
100
AcDbLine
10
-19.1774501300955
20
16.4259792684702
30
0.000000000000000
11
-19.0774501300955
21
16.3616194992741
31
0.000000000000000
  0
LINE
  5
F102BE
330
F102BF
100
AcDbEntity
8
Geo
100
AcDbLine
10
-19.0774501300955
20
16.3616194992741
30
0.000000000000000
11
-18.9774501300955
21
16.2957420192531
31
0.000000000000000
  0
LINE
  5
F102C0
330
F102C1
100
AcDbEntity
8
Geo
100
AcDbLine
10
-18.9774501300955
20
16.2957420192531
30
0.000000000000000
11
-18.8774501300955
21
16.2283731785208
31
0.000000000000000
  0
LINE
  5
F102C2
330
F102C3
100
AcDbEntity
8
Geo
100
AcDbLine
10
-18.8774501300955
20
16.2283731785208
30
0.000000000000000
11
-18.7774501300955
21
16.1595399237152
31
0.000000000000000
  0
LINE
  5
F102C4
330
F102C5
100
AcDbEntity
8
Geo
100
AcDbLine
10
-18.7774501300955
20
16.1595399237152
30
0.000000000000000
11
-18.6774501300955
21
16.0892697872204
31
0.000000000000000
  0
LINE
  5
F102C6
330
F102C7
100
AcDbEntity
8
Geo
100
AcDbLine
10
-18.6774501300955
20
16.0892697872204
30
0.000000000000000
11
-18.5774501300955
21
16.0175908761542
31
0.000000000000000
  0
LINE
  5
F102C8
330
F102C9
100
AcDbEntity
8
Geo
100
AcDbLine
10
-18.5774501300955
20
16.0175908761542
30
0.000000000000000
11
-18.4774501300955
21
15.9445318611253
31
0.000000000000000
  0
LINE
  5
F102CA
330
F102CB
100
AcDbEntity
8
Geo
100
AcDbLine
10
-18.4774501300955
20
15.9445318611253
30
0.000000000000000
11
-18.3774501300955
21
15.8701219647655
31
0.000000000000000
  0
LINE
  5
F102CC
330
F102CD
100
AcDbEntity
8
Geo
100
AcDbLine
10
-18.3774501300955
20
15.8701219647655
30
0.000000000000000
11
-18.2774501300955
21
15.7943909500414
31
0.000000000000000
  0
LINE
  5
F102CE
330
F102CF
100
AcDbEntity
8
Geo
100
AcDbLine
10
-18.2774501300955
20
15.7943909500414
30
0.000000000000000
11
-18.1774501300955
21
15.7173691083490
31
0.000000000000000
  0
LINE
  5
F102D0
330
F102D1
100
AcDbEntity
8
Geo
100
AcDbLine
10
-18.1774501300955
20
15.7173691083490
30
0.000000000000000
11
-18.0774501300955
21
15.6390872473981
31
0.000000000000000
  0
LINE
  5
F102D2
330
F102D3
100
AcDbEntity
8
Geo
100
AcDbLine
10
-18.0774501300955
20
15.6390872473981
30
0.000000000000000
11
-17.9774501300955
21
15.5595766788893
31
0.000000000000000
  0
LINE
  5
F102D4
330
F102D5
100
AcDbEntity
8
Geo
100
AcDbLine
10
-17.9774501300955
20
15.5595766788893
30
0.000000000000000
11
-17.8774501300955
21
15.4788692059899
31
0.000000000000000
  0
LINE
  5
F102D6
330
F102D7
100
AcDbEntity
8
Geo
100
AcDbLine
10
-17.8774501300955
20
15.4788692059899
30
0.000000000000000
11
-17.7774501300955
21
15.3969971106131
31
0.000000000000000
  0
LINE
  5
F102D8
330
F102D9
100
AcDbEntity
8
Geo
100
AcDbLine
10
-17.7774501300955
20
15.3969971106131
30
0.000000000000000
11
-17.6774501300955
21
15.3139931405052
31
0.000000000000000
  0
LINE
  5
F102DA
330
F102DB
100
AcDbEntity
8
Geo
100
AcDbLine
10
-17.6774501300955
20
15.3139931405052
30
0.000000000000000
11
-17.5774501300955
21
15.2298904961476
31
0.000000000000000
  0
LINE
  5
F102DC
330
F102DD
100
AcDbEntity
8
Geo
100
AcDbLine
10
-17.5774501300955
20
15.2298904961476
30
0.000000000000000
11
-17.4774501300955
21
15.1447228174769
31
0.000000000000000
  0
LINE
  5
F102DE
330
F102DF
100
AcDbEntity
8
Geo
100
AcDbLine
10
-17.4774501300955
20
15.1447228174769
30
0.000000000000000
11
-17.3774501300955
21
15.0585241704287
31
0.000000000000000
  0
LINE
  5
F102E0
330
F102E1
100
AcDbEntity
8
Geo
100
AcDbLine
10
-17.3774501300955
20
15.0585241704287
30
0.000000000000000
11
-17.2774501300955
21
14.9713290333128
31
0.000000000000000
  0
LINE
  5
F102E2
330
F102E3
100
AcDbEntity
8
Geo
100
AcDbLine
10
-17.2774501300955
20
14.9713290333128
30
0.000000000000000
11
-17.1774501300955
21
14.8831722830213
31
0.000000000000000
  0
LINE
  5
F102E4
330
F102E5
100
AcDbEntity
8
Geo
100
AcDbLine
10
-17.1774501300955
20
14.8831722830213
30
0.000000000000000
11
-17.0774501300955
21
14.7940891810789
31
0.000000000000000
  0
LINE
  5
F102E6
330
F102E7
100
AcDbEntity
8
Geo
100
AcDbLine
10
-17.0774501300955
20
14.7940891810789
30
0.000000000000000
11
-16.9774501300955
21
14.7041153595387
31
0.000000000000000
  0
LINE
  5
F102E8
330
F102E9
100
AcDbEntity
8
Geo
100
AcDbLine
10
-16.9774501300955
20
14.7041153595387
30
0.000000000000000
11
-16.8774501300955
21
14.6132868067296
31
0.000000000000000
  0
LINE
  5
F102EA
330
F102EB
100
AcDbEntity
8
Geo
100
AcDbLine
10
-16.8774501300955
20
14.6132868067296
30
0.000000000000000
11
-16.7774501300955
21
14.5216398528618
31
0.000000000000000
  0
LINE
  5
F102EC
330
F102ED
100
AcDbEntity
8
Geo
100
AcDbLine
10
-16.7774501300955
20
14.5216398528618
30
0.000000000000000
11
-16.6774501300955
21
14.4292111554948
31
0.000000000000000
  0
LINE
  5
F102EE
330
F102EF
100
AcDbEntity
8
Geo
100
AcDbLine
10
-16.6774501300955
20
14.4292111554948
30
0.000000000000000
11
-16.5774501300955
21
14.3360376848753
31
0.000000000000000
  0
LINE
  5
F102F0
330
F102F1
100
AcDbEntity
8
Geo
100
AcDbLine
10
-16.5774501300955
20
14.3360376848753
30
0.000000000000000
11
-16.4774501300955
21
14.2421567091491
31
0.000000000000000
  0
LINE
  5
F102F2
330
F102F3
100
AcDbEntity
8
Geo
100
AcDbLine
10
-16.4774501300955
20
14.2421567091491
30
0.000000000000000
11
-16.3774501300955
21
14.1476057794548
31
0.000000000000000
  0
LINE
  5
F102F4
330
F102F5
100
AcDbEntity
8
Geo
100
AcDbLine
10
-16.3774501300955
20
14.1476057794548
30
0.000000000000000
11
-16.2774501300955
21
14.0524227149037
31
0.000000000000000
  0
LINE
  5
F102F6
330
F102F7
100
AcDbEntity
8
Geo
100
AcDbLine
10
-16.2774501300955
20
14.0524227149037
30
0.000000000000000
11
-16.1774501300955
21
13.9566455874525
31
0.000000000000000
  0
LINE
  5
F102F8
330
F102F9
100
AcDbEntity
8
Geo
100
AcDbLine
10
-16.1774501300955
20
13.9566455874525
30
0.000000000000000
11
-16.0774501300955
21
13.8603127066751
31
0.000000000000000
  0
LINE
  5
F102FA
330
F102FB
100
AcDbEntity
8
Geo
100
AcDbLine
10
-16.0774501300955
20
13.8603127066751
30
0.000000000000000
11
-15.9774501300955
21
13.7634626044395
31
0.000000000000000
  0
LINE
  5
F102FC
330
F102FD
100
AcDbEntity
8
Geo
100
AcDbLine
10
-15.9774501300955
20
13.7634626044395
30
0.000000000000000
11
-15.8774501300955
21
13.6661340194951
31
0.000000000000000
  0
LINE
  5
F102FE
330
F102FF
100
AcDbEntity
8
Geo
100
AcDbLine
10
-15.8774501300955
20
13.6661340194951
30
0.000000000000000
11
-15.7774501300955
21
13.5683658819784
31
0.000000000000000
  0
LINE
  5
F10300
330
F10301
100
AcDbEntity
8
Geo
100
AcDbLine
10
-15.7774501300955
20
13.5683658819784
30
0.000000000000000
11
-15.6774501300955
21
13.4701972978407
31
0.000000000000000
  0
LINE
  5
F10302
330
F10303
100
AcDbEntity
8
Geo
100
AcDbLine
10
-15.6774501300955
20
13.4701972978407
30
0.000000000000000
11
-15.5774501300955
21
13.3716675332068
31
0.000000000000000
  0
LINE
  5
F10304
330
F10305
100
AcDbEntity
8
Geo
100
AcDbLine
10
-15.5774501300955
20
13.3716675332068
30
0.000000000000000
11
-15.4774501300955
21
13.2728159986689
31
0.000000000000000
  0
LINE
  5
F10306
330
F10307
100
AcDbEntity
8
Geo
100
AcDbLine
10
-15.4774501300955
20
13.2728159986689
30
0.000000000000000
11
-15.3774501300955
21
13.1736822335227
31
0.000000000000000
  0
LINE
  5
F10308
330
F10309
100
AcDbEntity
8
Geo
100
AcDbLine
10
-15.3774501300955
20
13.1736822335227
30
0.000000000000000
11
-15.2774501300955
21
13.0743058899526
31
0.000000000000000
  0
LINE
  5
F1030A
330
F1030B
100
AcDbEntity
8
Geo
100
AcDbLine
10
-15.2774501300955
20
13.0743058899526
30
0.000000000000000
11
-15.1774501300955
21
12.9747267171709
31
0.000000000000000
  0
LINE
  5
F1030C
330
F1030D
100
AcDbEntity
8
Geo
100
AcDbLine
10
-15.1774501300955
20
12.9747267171709
30
0.000000000000000
11
-15.0774501300955
21
12.8749845455191
31
0.000000000000000
  0
LINE
  5
F1030E
330
F1030F
100
AcDbEntity
8
Geo
100
AcDbLine
10
-15.0774501300955
20
12.8749845455191
30
0.000000000000000
11
-14.9774501300955
21
12.7751192705360
31
0.000000000000000
  0
LINE
  5
F10310
330
F10311
100
AcDbEntity
8
Geo
100
AcDbLine
10
-14.9774501300955
20
12.7751192705360
30
0.000000000000000
11
-14.8774501300955
21
12.6751708370000
31
0.000000000000000
  0
LINE
  5
F10312
330
F10313
100
AcDbEntity
8
Geo
100
AcDbLine
10
-14.8774501300955
20
12.6751708370000
30
0.000000000000000
11
-14.7774501300955
21
12.5751792229520
31
0.000000000000000
  0
LINE
  5
F10314
330
F10315
100
AcDbEntity
8
Geo
100
AcDbLine
10
-14.7774501300955
20
12.5751792229520
30
0.000000000000000
11
-14.6774501300955
21
12.4751844237043
31
0.000000000000000
  0
LINE
  5
F10316
330
F10317
100
AcDbEntity
8
Geo
100
AcDbLine
10
-14.6774501300955
20
12.4751844237043
30
0.000000000000000
11
-14.5774501300955
21
12.3752264358434
31
0.000000000000000
  0
LINE
  5
F10318
330
F10319
100
AcDbEntity
8
Geo
100
AcDbLine
10
-14.5774501300955
20
12.3752264358434
30
0.000000000000000
11
-14.4774501300955
21
12.2753452412316
31
0.000000000000000
  0
LINE
  5
F1031A
330
F1031B
100
AcDbEntity
8
Geo
100
AcDbLine
10
-14.4774501300955
20
12.2753452412316
30
0.000000000000000
11
-14.3774501300955
21
12.1755807910152
31
0.000000000000000
  0
LINE
  5
F1031C
330
F1031D
100
AcDbEntity
8
Geo
100
AcDbLine
10
-14.3774501300955
20
12.1755807910152
30
0.000000000000000
11
-14.2774501300955
21
12.0759729896440
31
0.000000000000000
  0
LINE
  5
F1031E
330
F1031F
100
AcDbEntity
8
Geo
100
AcDbLine
10
-14.2774501300955
20
12.0759729896440
30
0.000000000000000
11
-14.1774501300955
21
11.9765616789104
31
0.000000000000000
  0
LINE
  5
F10320
330
F10321
100
AcDbEntity
8
Geo
100
AcDbLine
10
-14.1774501300955
20
11.9765616789104
30
0.000000000000000
11
-14.0774501300955
21
11.8773866220134
31
0.000000000000000
  0
LINE
  5
F10322
330
F10323
100
AcDbEntity
8
Geo
100
AcDbLine
10
-14.0774501300955
20
11.8773866220134
30
0.000000000000000
11
-13.9774501300955
21
11.7784874876533
31
0.000000000000000
  0
LINE
  5
F10324
330
F10325
100
AcDbEntity
8
Geo
100
AcDbLine
10
-13.9774501300955
20
11.7784874876533
30
0.000000000000000
11
-13.8774501300955
21
11.6799038341652
31
0.000000000000000
  0
LINE
  5
F10326
330
F10327
100
AcDbEntity
8
Geo
100
AcDbLine
10
-13.8774501300955
20
11.6799038341652
30
0.000000000000000
11
-13.7774501300955
21
11.5816750936962
31
0.000000000000000
  0
LINE
  5
F10328
330
F10329
100
AcDbEntity
8
Geo
100
AcDbLine
10
-13.7774501300955
20
11.5816750936962
30
0.000000000000000
11
-13.6774501300955
21
11.4838405564326
31
0.000000000000000
  0
LINE
  5
F1032A
330
F1032B
100
AcDbEntity
8
Geo
100
AcDbLine
10
-13.6774501300955
20
11.4838405564326
30
0.000000000000000
11
-13.5774501300955
21
11.3864393548850
31
0.000000000000000
  0
LINE
  5
F1032C
330
F1032D
100
AcDbEntity
8
Geo
100
AcDbLine
10
-13.5774501300955
20
11.3864393548850
30
0.000000000000000
11
-13.4774501300955
21
11.2895104482354
31
0.000000000000000
  0
LINE
  5
F1032E
330
F1032F
100
AcDbEntity
8
Geo
100
AcDbLine
10
-13.4774501300955
20
11.2895104482354
30
0.000000000000000
11
-13.3774501300955
21
11.1930926067539
31
0.000000000000000
  0
LINE
  5
F10330
330
F10331
100
AcDbEntity
8
Geo
100
AcDbLine
10
-13.3774501300955
20
11.1930926067539
30
0.000000000000000
11
-13.2774501300955
21
11.0972243962917
31
0.000000000000000
  0
LINE
  5
F10332
330
F10333
100
AcDbEntity
8
Geo
100
AcDbLine
10
-13.2774501300955
20
11.0972243962917
30
0.000000000000000
11
-13.1774501300955
21
11.0019441628547
31
0.000000000000000
  0
LINE
  5
F10334
330
F10335
100
AcDbEntity
8
Geo
100
AcDbLine
10
-13.1774501300955
20
11.0019441628547
30
0.000000000000000
11
-13.0774501300955
21
10.9072900172658
31
0.000000000000000
  0
LINE
  5
F10336
330
F10337
100
AcDbEntity
8
Geo
100
AcDbLine
10
-13.0774501300955
20
10.9072900172658
30
0.000000000000000
11
-12.9774501300955
21
10.8132998199214
31
0.000000000000000
  0
LINE
  5
F10338
330
F10339
100
AcDbEntity
8
Geo
100
AcDbLine
10
-12.9774501300955
20
10.8132998199214
30
0.000000000000000
11
-12.8774501300955
21
10.7200111656471
31
0.000000000000000
  0
LINE
  5
F1033A
330
F1033B
100
AcDbEntity
8
Geo
100
AcDbLine
10
-12.8774501300955
20
10.7200111656471
30
0.000000000000000
11
-12.7774501300955
21
10.6274613686609
31
0.000000000000000
  0
LINE
  5
F1033C
330
F1033D
100
AcDbEntity
8
Geo
100
AcDbLine
10
-12.7774501300955
20
10.6274613686609
30
0.000000000000000
11
-12.6774501300955
21
10.5356874476474
31
0.000000000000000
  0
LINE
  5
F1033E
330
F1033F
100
AcDbEntity
8
Geo
100
AcDbLine
10
-12.6774501300955
20
10.5356874476474
30
0.000000000000000
11
-12.5774501300954
21
10.4447261109516
31
0.000000000000000
  0
LINE
  5
F10340
330
F10341
100
AcDbEntity
8
Geo
100
AcDbLine
10
-12.5774501300954
20
10.4447261109516
30
0.000000000000000
11
-12.4774501300954
21
10.3546137418952
31
0.000000000000000
  0
LINE
  5
F10342
330
F10343
100
AcDbEntity
8
Geo
100
AcDbLine
10
-12.4774501300954
20
10.3546137418952
30
0.000000000000000
11
-12.3774501300954
21
10.2653863842245
31
0.000000000000000
  0
LINE
  5
F10344
330
F10345
100
AcDbEntity
8
Geo
100
AcDbLine
10
-12.3774501300954
20
10.2653863842245
30
0.000000000000000
11
-12.2774501300954
21
10.1770797276928
31
0.000000000000000
  0
LINE
  5
F10346
330
F10347
100
AcDbEntity
8
Geo
100
AcDbLine
10
-12.2774501300954
20
10.1770797276928
30
0.000000000000000
11
-12.1774501300954
21
10.0897290937853
31
0.000000000000000
  0
LINE
  5
F10348
330
F10349
100
AcDbEntity
8
Geo
100
AcDbLine
10
-12.1774501300954
20
10.0897290937853
30
0.000000000000000
11
-12.0774501300954
21
10.0033694215909
31
0.000000000000000
  0
LINE
  5
F1034A
330
F1034B
100
AcDbEntity
8
Geo
100
AcDbLine
10
-12.0774501300954
20
10.0033694215909
30
0.000000000000000
11
-11.9774501300954
21
9.91803525382702
31
0.000000000000000
  0
LINE
  5
F1034C
330
F1034D
100
AcDbEntity
8
Geo
100
AcDbLine
10
-11.9774501300954
20
9.91803525382702
30
0.000000000000000
11
-11.8774501300954
21
9.83376072302305
31
0.000000000000000
  0
LINE
  5
F1034E
330
F1034F
100
AcDbEntity
8
Geo
100
AcDbLine
10
-11.8774501300954
20
9.83376072302305
30
0.000000000000000
11
-11.7774501300954
21
9.75057953786763
31
0.000000000000000
  0
LINE
  5
F10350
330
F10351
100
AcDbEntity
8
Geo
100
AcDbLine
10
-11.7774501300954
20
9.75057953786763
30
0.000000000000000
11
-11.6774501300954
21
9.66852496972577
31
0.000000000000000
  0
LINE
  5
F10352
330
F10353
100
AcDbEntity
8
Geo
100
AcDbLine
10
-11.6774501300954
20
9.66852496972577
30
0.000000000000000
11
-11.5774501300954
21
9.58762983933066
31
0.000000000000000
  0
LINE
  5
F10354
330
F10355
100
AcDbEntity
8
Geo
100
AcDbLine
10
-11.5774501300954
20
9.58762983933066
30
0.000000000000000
11
-11.4774501300954
21
9.50792650365588
31
0.000000000000000
  0
LINE
  5
F10356
330
F10357
100
AcDbEntity
8
Geo
100
AcDbLine
10
-11.4774501300954
20
9.50792650365588
30
0.000000000000000
11
-11.3774501300954
21
9.42944684297301
31
0.000000000000000
  0
LINE
  5
F10358
330
F10359
100
AcDbEntity
8
Geo
100
AcDbLine
10
-11.3774501300954
20
9.42944684297301
30
0.000000000000000
11
-11.2774501300954
21
9.35222224809993
31
0.000000000000000
  0
LINE
  5
F1035A
330
F1035B
100
AcDbEntity
8
Geo
100
AcDbLine
10
-11.2774501300954
20
9.35222224809993
30
0.000000000000000
11
-11.1774501300954
21
9.27628360784495
31
0.000000000000000
  0
LINE
  5
F1035C
330
F1035D
100
AcDbEntity
8
Geo
100
AcDbLine
10
-11.1774501300954
20
9.27628360784495
30
0.000000000000000
11
-11.0774501300954
21
9.20166129665166
31
0.000000000000000
  0
LINE
  5
F1035E
330
F1035F
100
AcDbEntity
8
Geo
100
AcDbLine
10
-11.0774501300954
20
9.20166129665166
30
0.000000000000000
11
-10.9774501300954
21
9.12838516244960
31
0.000000000000000
  0
LINE
  5
F10360
330
F10361
100
AcDbEntity
8
Geo
100
AcDbLine
10
-10.9774501300954
20
9.12838516244960
30
0.000000000000000
11
-10.8774501300954
21
9.05648451471544
31
0.000000000000000
  0
LINE
  5
F10362
330
F10363
100
AcDbEntity
8
Geo
100
AcDbLine
10
-10.8774501300954
20
9.05648451471544
30
0.000000000000000
11
-10.7774501300954
21
8.98598811274962
31
0.000000000000000
  0
LINE
  5
F10364
330
F10365
100
AcDbEntity
8
Geo
100
AcDbLine
10
-10.7774501300954
20
8.98598811274962
30
0.000000000000000
11
-10.6774501300954
21
8.91692415417297
31
0.000000000000000
  0
LINE
  5
F10366
330
F10367
100
AcDbEntity
8
Geo
100
AcDbLine
10
-10.6774501300954
20
8.91692415417297
30
0.000000000000000
11
-10.5774501300954
21
8.84932026364809
31
0.000000000000000
  0
LINE
  5
F10368
330
F10369
100
AcDbEntity
8
Geo
100
AcDbLine
10
-24.1942654418304
20
17.5672159583695
30
0.000000000000000
11
-24.1774501300954
21
17.5671876850067
31
0.000000000000000
  0
LINE
  5
F1036A
330
F1036B
100
AcDbEntity
8
Geo
100
AcDbLine
10
-24.1774501300954
20
17.5671876850067
30
0.000000000000000
11
-24.0774501300954
21
17.5658514531906
31
0.000000000000000
  0
LINE
  5
F1036C
330
F1036D
100
AcDbEntity
8
Geo
100
AcDbLine
10
-24.0774501300954
20
17.5658514531906
30
0.000000000000000
11
-23.9774501300954
21
17.5625158338242
31
0.000000000000000
  0
LINE
  5
F1036E
330
F1036F
100
AcDbEntity
8
Geo
100
AcDbLine
10
-23.9774501300954
20
17.5625158338242
30
0.000000000000000
11
-23.8774501300954
21
17.5571821611107
31
0.000000000000000
  0
LINE
  5
F10370
330
F10371
100
AcDbEntity
8
Geo
100
AcDbLine
10
-23.8774501300954
20
17.5571821611107
30
0.000000000000000
11
-23.7774501300954
21
17.5498525684482
31
0.000000000000000
  0
LINE
  5
F10372
330
F10373
100
AcDbEntity
8
Geo
100
AcDbLine
10
-23.7774501300954
20
17.5498525684482
30
0.000000000000000
11
-23.6774501300954
21
17.5405299875758
31
0.000000000000000
  0
LINE
  5
F10374
330
F10375
100
AcDbEntity
8
Geo
100
AcDbLine
10
-23.6774501300954
20
17.5405299875758
30
0.000000000000000
11
-23.5774501300954
21
17.5292181474018
31
0.000000000000000
  0
LINE
  5
F10376
330
F10377
100
AcDbEntity
8
Geo
100
AcDbLine
10
-23.5774501300954
20
17.5292181474018
30
0.000000000000000
11
-23.4774501300954
21
17.5159215725113
31
0.000000000000000
  0
LINE
  5
F10378
330
F10379
100
AcDbEntity
8
Geo
100
AcDbLine
10
-23.4774501300954
20
17.5159215725113
30
0.000000000000000
11
-23.3774501300954
21
17.5006455813570
31
0.000000000000000
  0
LINE
  5
F1037A
330
F1037B
100
AcDbEntity
8
Geo
100
AcDbLine
10
-23.3774501300954
20
17.5006455813570
30
0.000000000000000
11
-23.2774501300954
21
17.4833962841316
31
0.000000000000000
  0
LINE
  5
F1037C
330
F1037D
100
AcDbEntity
8
Geo
100
AcDbLine
10
-23.2774501300954
20
17.4833962841316
30
0.000000000000000
11
-23.1774501300954
21
17.4641805803242
31
0.000000000000000
  0
LINE
  5
F1037E
330
F1037F
100
AcDbEntity
8
Geo
100
AcDbLine
10
-23.1774501300954
20
17.4641805803242
30
0.000000000000000
11
-23.0774501300954
21
17.4430061559600
31
0.000000000000000
  0
LINE
  5
F10380
330
F10381
100
AcDbEntity
8
Geo
100
AcDbLine
10
-23.0774501300954
20
17.4430061559600
30
0.000000000000000
11
-22.9774501300954
21
17.4198814805264
31
0.000000000000000
  0
LINE
  5
F10382
330
F10383
100
AcDbEntity
8
Geo
100
AcDbLine
10
-22.9774501300954
20
17.4198814805264
30
0.000000000000000
11
-22.8774501300954
21
17.3948158035853
31
0.000000000000000
  0
LINE
  5
F10384
330
F10385
100
AcDbEntity
8
Geo
100
AcDbLine
10
-22.8774501300954
20
17.3948158035853
30
0.000000000000000
11
-22.7774501300954
21
17.3678191510732
31
0.000000000000000
  0
LINE
  5
F10386
330
F10387
100
AcDbEntity
8
Geo
100
AcDbLine
10
-22.7774501300954
20
17.3678191510732
30
0.000000000000000
11
-22.6774501300954
21
17.3389023212913
31
0.000000000000000
  0
LINE
  5
F10388
330
F10389
100
AcDbEntity
8
Geo
100
AcDbLine
10
-22.6774501300954
20
17.3389023212913
30
0.000000000000000
11
-22.5774501300954
21
17.3080768805858
31
0.000000000000000
  0
LINE
  5
F1038A
330
F1038B
100
AcDbEntity
8
Geo
100
AcDbLine
10
-22.5774501300954
20
17.3080768805858
30
0.000000000000000
11
-22.4774501300954
21
17.2753551587221
31
0.000000000000000
  0
LINE
  5
F1038C
330
F1038D
100
AcDbEntity
8
Geo
100
AcDbLine
10
-22.4774501300954
20
17.2753551587221
30
0.000000000000000
11
-22.3774501300954
21
17.2407502439526
31
0.000000000000000
  0
LINE
  5
F1038E
330
F1038F
100
AcDbEntity
8
Geo
100
AcDbLine
10
-22.3774501300954
20
17.2407502439526
30
0.000000000000000
11
-22.2774501300954
21
17.2042759777818
31
0.000000000000000
  0
LINE
  5
F10390
330
F10391
100
AcDbEntity
8
Geo
100
AcDbLine
10
-22.2774501300954
20
17.2042759777818
30
0.000000000000000
11
-22.1774501300954
21
17.1659469494299
31
0.000000000000000
  0
LINE
  5
F10392
330
F10393
100
AcDbEntity
8
Geo
100
AcDbLine
10
-22.1774501300954
20
17.1659469494299
30
0.000000000000000
11
-22.0774501300954
21
17.1257784899972
31
0.000000000000000
  0
LINE
  5
F10394
330
F10395
100
AcDbEntity
8
Geo
100
AcDbLine
10
-22.0774501300954
20
17.1257784899972
30
0.000000000000000
11
-21.9774501300954
21
17.0837866663318
31
0.000000000000000
  0
LINE
  5
F10396
330
F10397
100
AcDbEntity
8
Geo
100
AcDbLine
10
-21.9774501300954
20
17.0837866663318
30
0.000000000000000
11
-21.8774501300954
21
17.0399882746034
31
0.000000000000000
  0
LINE
  5
F10398
330
F10399
100
AcDbEntity
8
Geo
100
AcDbLine
10
-21.8774501300954
20
17.0399882746034
30
0.000000000000000
11
-21.7774501300954
21
16.9944008335846
31
0.000000000000000
  0
LINE
  5
F1039A
330
F1039B
100
AcDbEntity
8
Geo
100
AcDbLine
10
-21.7774501300954
20
16.9944008335846
30
0.000000000000000
11
-21.6774501300955
21
16.9470425776442
31
0.000000000000000
  0
LINE
  5
F1039C
330
F1039D
100
AcDbEntity
8
Geo
100
AcDbLine
10
-21.6774501300955
20
16.9470425776442
30
0.000000000000000
11
-21.5774501300954
21
16.8979324494529
31
0.000000000000000
  0
LINE
  5
F1039E
330
F1039F
100
AcDbEntity
8
Geo
100
AcDbLine
10
-21.5774501300954
20
16.8979324494529
30
0.000000000000000
11
-21.4774501300954
21
16.8470900924073
31
0.000000000000000
  0
LINE
  5
F103A0
330
F103A1
100
AcDbEntity
8
Geo
100
AcDbLine
10
-21.4774501300954
20
16.8470900924073
30
0.000000000000000
11
-21.3774501300955
21
16.7945358427723
31
0.000000000000000
  0
LINE
  5
F103A2
330
F103A3
100
AcDbEntity
8
Geo
100
AcDbLine
10
-21.3774501300955
20
16.7945358427723
30
0.000000000000000
11
-21.2774501300955
21
16.7402907215471
31
0.000000000000000
  0
LINE
  5
F103A4
330
F103A5
100
AcDbEntity
8
Geo
100
AcDbLine
10
-21.2774501300955
20
16.7402907215471
30
0.000000000000000
11
-21.1774501300955
21
16.6843764260568
31
0.000000000000000
  0
LINE
  5
F103A6
330
F103A7
100
AcDbEntity
8
Geo
100
AcDbLine
10
-21.1774501300955
20
16.6843764260568
30
0.000000000000000
11
-21.0774501300954
21
16.6268153212743
31
0.000000000000000
  0
LINE
  5
F103A8
330
F103A9
100
AcDbEntity
8
Geo
100
AcDbLine
10
-21.0774501300954
20
16.6268153212743
30
0.000000000000000
11
-20.9774501300955
21
16.5676304308738
31
0.000000000000000
  0
LINE
  5
F103AA
330
F103AB
100
AcDbEntity
8
Geo
100
AcDbLine
10
-20.9774501300955
20
16.5676304308738
30
0.000000000000000
11
-20.8774501300955
21
16.5068454280225
31
0.000000000000000
  0
LINE
  5
F103AC
330
F103AD
100
AcDbEntity
8
Geo
100
AcDbLine
10
-20.8774501300955
20
16.5068454280225
30
0.000000000000000
11
-20.7774501300955
21
16.4444846259110
31
0.000000000000000
  0
LINE
  5
F103AE
330
F103AF
100
AcDbEntity
8
Geo
100
AcDbLine
10
-20.7774501300955
20
16.4444846259110
30
0.000000000000000
11
-20.6774501300955
21
16.3805729680287
31
0.000000000000000
  0
LINE
  5
F103B0
330
F103B1
100
AcDbEntity
8
Geo
100
AcDbLine
10
-20.6774501300955
20
16.3805729680287
30
0.000000000000000
11
-20.5774501300955
21
16.3151360181866
31
0.000000000000000
  0
LINE
  5
F103B2
330
F103B3
100
AcDbEntity
8
Geo
100
AcDbLine
10
-20.5774501300955
20
16.3151360181866
30
0.000000000000000
11
-20.4774501300955
21
16.2481999502922
31
0.000000000000000
  0
LINE
  5
F103B4
330
F103B5
100
AcDbEntity
8
Geo
100
AcDbLine
10
-20.4774501300955
20
16.2481999502922
30
0.000000000000000
11
-20.3774501300955
21
16.1797915378802
31
0.000000000000000
  0
LINE
  5
F103B6
330
F103B7
100
AcDbEntity
8
Geo
100
AcDbLine
10
-20.3774501300955
20
16.1797915378802
30
0.000000000000000
11
-20.2774501300955
21
16.1099381434034
31
0.000000000000000
  0
LINE
  5
F103B8
330
F103B9
100
AcDbEntity
8
Geo
100
AcDbLine
10
-20.2774501300955
20
16.1099381434034
30
0.000000000000000
11
-20.1774501300955
21
16.0386677072883
31
0.000000000000000
  0
LINE
  5
F103BA
330
F103BB
100
AcDbEntity
8
Geo
100
AcDbLine
10
-20.1774501300955
20
16.0386677072883
30
0.000000000000000
11
-20.0774501300955
21
15.9660087367589
31
0.000000000000000
  0
LINE
  5
F103BC
330
F103BD
100
AcDbEntity
8
Geo
100
AcDbLine
10
-20.0774501300955
20
15.9660087367589
30
0.000000000000000
11
-19.9774501300955
21
15.8919902944349
31
0.000000000000000
  0
LINE
  5
F103BE
330
F103BF
100
AcDbEntity
8
Geo
100
AcDbLine
10
-19.9774501300955
20
15.8919902944349
30
0.000000000000000
11
-19.8774501300955
21
15.8166419867062
31
0.000000000000000
  0
LINE
  5
F103C0
330
F103C1
100
AcDbEntity
8
Geo
100
AcDbLine
10
-19.8774501300955
20
15.8166419867062
30
0.000000000000000
11
-19.7774501300955
21
15.7399939518912
31
0.000000000000000
  0
LINE
  5
F103C2
330
F103C3
100
AcDbEntity
8
Geo
100
AcDbLine
10
-19.7774501300955
20
15.7399939518912
30
0.000000000000000
11
-19.6774501300955
21
15.6620768481820
31
0.000000000000000
  0
LINE
  5
F103C4
330
F103C5
100
AcDbEntity
8
Geo
100
AcDbLine
10
-19.6774501300955
20
15.6620768481820
30
0.000000000000000
11
-19.5774501300955
21
15.5829218413811
31
0.000000000000000
  0
LINE
  5
F103C6
330
F103C7
100
AcDbEntity
8
Geo
100
AcDbLine
10
-19.5774501300955
20
15.5829218413811
30
0.000000000000000
11
-19.4774501300955
21
15.5025605924359
31
0.000000000000000
  0
LINE
  5
F103C8
330
F103C9
100
AcDbEntity
8
Geo
100
AcDbLine
10
-19.4774501300955
20
15.5025605924359
30
0.000000000000000
11
-19.3774501300955
21
15.4210252447745
31
0.000000000000000
  0
LINE
  5
F103CA
330
F103CB
100
AcDbEntity
8
Geo
100
AcDbLine
10
-19.3774501300955
20
15.4210252447745
30
0.000000000000000
11
-19.2774501300955
21
15.3383484114488
31
0.000000000000000
  0
LINE
  5
F103CC
330
F103CD
100
AcDbEntity
8
Geo
100
AcDbLine
10
-19.2774501300955
20
15.3383484114488
30
0.000000000000000
11
-19.1774501300955
21
15.2545631620897
31
0.000000000000000
  0
LINE
  5
F103CE
330
F103CF
100
AcDbEntity
8
Geo
100
AcDbLine
10
-19.1774501300955
20
15.2545631620897
30
0.000000000000000
11
-19.0774501300955
21
15.1697030096801
31
0.000000000000000
  0
LINE
  5
F103D0
330
F103D1
100
AcDbEntity
8
Geo
100
AcDbLine
10
-19.0774501300955
20
15.1697030096801
30
0.000000000000000
11
-18.9774501300955
21
15.0838018971492
31
0.000000000000000
  0
LINE
  5
F103D2
330
F103D3
100
AcDbEntity
8
Geo
100
AcDbLine
10
-18.9774501300955
20
15.0838018971492
30
0.000000000000000
11
-18.8774501300955
21
14.9968941837969
31
0.000000000000000
  0
LINE
  5
F103D4
330
F103D5
100
AcDbEntity
8
Geo
100
AcDbLine
10
-18.8774501300955
20
14.9968941837969
30
0.000000000000000
11
-18.7774501300955
21
14.9090146315497
31
0.000000000000000
  0
LINE
  5
F103D6
330
F103D7
100
AcDbEntity
8
Geo
100
AcDbLine
10
-18.7774501300955
20
14.9090146315497
30
0.000000000000000
11
-18.6774501300955
21
14.8201983910568
31
0.000000000000000
  0
LINE
  5
F103D8
330
F103D9
100
AcDbEntity
8
Geo
100
AcDbLine
10
-18.6774501300955
20
14.8201983910568
30
0.000000000000000
11
-18.5774501300955
21
14.7304809876302
31
0.000000000000000
  0
LINE
  5
F103DA
330
F103DB
100
AcDbEntity
8
Geo
100
AcDbLine
10
-18.5774501300955
20
14.7304809876302
30
0.000000000000000
11
-18.4774501300955
21
14.6398983070350
31
0.000000000000000
  0
LINE
  5
F103DC
330
F103DD
100
AcDbEntity
8
Geo
100
AcDbLine
10
-18.4774501300955
20
14.6398983070350
30
0.000000000000000
11
-18.3774501300955
21
14.5484865811357
31
0.000000000000000
  0
LINE
  5
F103DE
330
F103DF
100
AcDbEntity
8
Geo
100
AcDbLine
10
-18.3774501300955
20
14.5484865811357
30
0.000000000000000
11
-18.2774501300955
21
14.4562823734040
31
0.000000000000000
  0
LINE
  5
F103E0
330
F103E1
100
AcDbEntity
8
Geo
100
AcDbLine
10
-18.2774501300955
20
14.4562823734040
30
0.000000000000000
11
-18.1774501300955
21
14.3633225642934
31
0.000000000000000
  0
LINE
  5
F103E2
330
F103E3
100
AcDbEntity
8
Geo
100
AcDbLine
10
-18.1774501300955
20
14.3633225642934
30
0.000000000000000
11
-18.0774501300955
21
14.2696443364883
31
0.000000000000000
  0
LINE
  5
F103E4
330
F103E5
100
AcDbEntity
8
Geo
100
AcDbLine
10
-18.0774501300955
20
14.2696443364883
30
0.000000000000000
11
-17.9774501300955
21
14.1752851600306
31
0.000000000000000
  0
LINE
  5
F103E6
330
F103E7
100
AcDbEntity
8
Geo
100
AcDbLine
10
-17.9774501300955
20
14.1752851600306
30
0.000000000000000
11
-17.8774501300955
21
14.0802827773329
31
0.000000000000000
  0
LINE
  5
F103E8
330
F103E9
100
AcDbEntity
8
Geo
100
AcDbLine
10
-17.8774501300955
20
14.0802827773329
30
0.000000000000000
11
-17.7774501300955
21
13.9846751880816
31
0.000000000000000
  0
LINE
  5
F103EA
330
F103EB
100
AcDbEntity
8
Geo
100
AcDbLine
10
-17.7774501300955
20
13.9846751880816
30
0.000000000000000
11
-17.6774501300955
21
13.8885006340376
31
0.000000000000000
  0
LINE
  5
F103EC
330
F103ED
100
AcDbEntity
8
Geo
100
AcDbLine
10
-17.6774501300955
20
13.8885006340376
30
0.000000000000000
11
-17.5774501300955
21
13.7917975837402
31
0.000000000000000
  0
LINE
  5
F103EE
330
F103EF
100
AcDbEntity
8
Geo
100
AcDbLine
10
-17.5774501300955
20
13.7917975837402
30
0.000000000000000
11
-17.4774501300955
21
13.6946047171202
31
0.000000000000000
  0
LINE
  5
F103F0
330
F103F1
100
AcDbEntity
8
Geo
100
AcDbLine
10
-17.4774501300955
20
13.6946047171202
30
0.000000000000000
11
-17.3774501300955
21
13.5969609100283
31
0.000000000000000
  0
LINE
  5
F103F2
330
F103F3
100
AcDbEntity
8
Geo
100
AcDbLine
10
-17.3774501300955
20
13.5969609100283
30
0.000000000000000
11
-17.2774501300955
21
13.4989052186856
31
0.000000000000000
  0
LINE
  5
F103F4
330
F103F5
100
AcDbEntity
8
Geo
100
AcDbLine
10
-17.2774501300955
20
13.4989052186856
30
0.000000000000000
11
-17.1774501300955
21
13.4004768640611
31
0.000000000000000
  0
LINE
  5
F103F6
330
F103F7
100
AcDbEntity
8
Geo
100
AcDbLine
10
-17.1774501300955
20
13.4004768640611
30
0.000000000000000
11
-17.0774501300955
21
13.3017152161842
31
0.000000000000000
  0
LINE
  5
F103F8
330
F103F9
100
AcDbEntity
8
Geo
100
AcDbLine
10
-17.0774501300955
20
13.3017152161842
30
0.000000000000000
11
-16.9774501300955
21
13.2026597783975
31
0.000000000000000
  0
LINE
  5
F103FA
330
F103FB
100
AcDbEntity
8
Geo
100
AcDbLine
10
-16.9774501300955
20
13.2026597783975
30
0.000000000000000
11
-16.8774501300955
21
13.1033501715552
31
0.000000000000000
  0
LINE
  5
F103FC
330
F103FD
100
AcDbEntity
8
Geo
100
AcDbLine
10
-16.8774501300955
20
13.1033501715552
30
0.000000000000000
11
-16.7774501300955
21
13.0038261181760
31
0.000000000000000
  0
LINE
  5
F103FE
330
F103FF
100
AcDbEntity
8
Geo
100
AcDbLine
10
-16.7774501300955
20
13.0038261181760
30
0.000000000000000
11
-16.6774501300955
21
12.9041274265543
31
0.000000000000000
  0
LINE
  5
F10400
330
F10401
100
AcDbEntity
8
Geo
100
AcDbLine
10
-16.6774501300955
20
12.9041274265543
30
0.000000000000000
11
-16.5774501300955
21
12.8042939748374
31
0.000000000000000
  0
LINE
  5
F10402
330
F10403
100
AcDbEntity
8
Geo
100
AcDbLine
10
-16.5774501300955
20
12.8042939748374
30
0.000000000000000
11
-16.4774501300955
21
12.7043656950749
31
0.000000000000000
  0
LINE
  5
F10404
330
F10405
100
AcDbEntity
8
Geo
100
AcDbLine
10
-16.4774501300955
20
12.7043656950749
30
0.000000000000000
11
-16.3774501300955
21
12.6043825572464
31
0.000000000000000
  0
LINE
  5
F10406
330
F10407
100
AcDbEntity
8
Geo
100
AcDbLine
10
-16.3774501300955
20
12.6043825572464
30
0.000000000000000
11
-16.2774501300955
21
12.5043845532739
31
0.000000000000000
  0
LINE
  5
F10408
330
F10409
100
AcDbEntity
8
Geo
100
AcDbLine
10
-16.2774501300955
20
12.5043845532739
30
0.000000000000000
11
-16.1774501300955
21
12.4044116810256
31
0.000000000000000
  0
LINE
  5
F1040A
330
F1040B
100
AcDbEntity
8
Geo
100
AcDbLine
10
-16.1774501300955
20
12.4044116810256
30
0.000000000000000
11
-16.0774501300955
21
12.3045039283176
31
0.000000000000000
  0
LINE
  5
F1040C
330
F1040D
100
AcDbEntity
8
Geo
100
AcDbLine
10
-16.0774501300955
20
12.3045039283176
30
0.000000000000000
11
-15.9774501300955
21
12.2047012569189
31
0.000000000000000
  0
LINE
  5
F1040E
330
F1040F
100
AcDbEntity
8
Geo
100
AcDbLine
10
-15.9774501300955
20
12.2047012569189
30
0.000000000000000
11
-15.8774501300955
21
12.1050435865672
31
0.000000000000000
  0
LINE
  5
F10410
330
F10411
100
AcDbEntity
8
Geo
100
AcDbLine
10
-15.8774501300955
20
12.1050435865672
30
0.000000000000000
11
-15.7774501300955
21
12.0055707790021
31
0.000000000000000
  0
LINE
  5
F10412
330
F10413
100
AcDbEntity
8
Geo
100
AcDbLine
10
-15.7774501300955
20
12.0055707790021
30
0.000000000000000
11
-15.6774501300955
21
11.9063226220202
31
0.000000000000000
  0
LINE
  5
F10414
330
F10415
100
AcDbEntity
8
Geo
100
AcDbLine
10
-15.6774501300955
20
11.9063226220202
30
0.000000000000000
11
-15.5774501300955
21
11.8073388135610
31
0.000000000000000
  0
LINE
  5
F10416
330
F10417
100
AcDbEntity
8
Geo
100
AcDbLine
10
-15.5774501300955
20
11.8073388135610
30
0.000000000000000
11
-15.4774501300955
21
11.7086589458282
31
0.000000000000000
  0
LINE
  5
F10418
330
F10419
100
AcDbEntity
8
Geo
100
AcDbLine
10
-15.4774501300955
20
11.7086589458282
30
0.000000000000000
11
-15.3774501300955
21
11.6103224894532
31
0.000000000000000
  0
LINE
  5
F1041A
330
F1041B
100
AcDbEntity
8
Geo
100
AcDbLine
10
-15.3774501300955
20
11.6103224894532
30
0.000000000000000
11
-15.2774501300955
21
11.5123687777073
31
0.000000000000000
  0
LINE
  5
F1041C
330
F1041D
100
AcDbEntity
8
Geo
100
AcDbLine
10
-15.2774501300955
20
11.5123687777073
30
0.000000000000000
11
-15.1774501300955
21
11.4148369907693
31
0.000000000000000
  0
LINE
  5
F1041E
330
F1041F
100
AcDbEntity
8
Geo
100
AcDbLine
10
-15.1774501300955
20
11.4148369907693
30
0.000000000000000
11
-15.0774501300955
21
11.3177661400534
31
0.000000000000000
  0
LINE
  5
F10420
330
F10421
100
AcDbEntity
8
Geo
100
AcDbLine
10
-15.0774501300955
20
11.3177661400534
30
0.000000000000000
11
-14.9774501300955
21
11.2211950526057
31
0.000000000000000
  0
LINE
  5
F10422
330
F10423
100
AcDbEntity
8
Geo
100
AcDbLine
10
-14.9774501300955
20
11.2211950526057
30
0.000000000000000
11
-14.8774501300955
21
11.1251623555737
31
0.000000000000000
  0
LINE
  5
F10424
330
F10425
100
AcDbEntity
8
Geo
100
AcDbLine
10
-14.8774501300955
20
11.1251623555737
30
0.000000000000000
11
-14.7774501300955
21
11.0297064607556
31
0.000000000000000
  0
LINE
  5
F10426
330
F10427
100
AcDbEntity
8
Geo
100
AcDbLine
10
-14.7774501300955
20
11.0297064607556
30
0.000000000000000
11
-14.6774501300955
21
10.9348655492368
31
0.000000000000000
  0
LINE
  5
F10428
330
F10429
100
AcDbEntity
8
Geo
100
AcDbLine
10
-14.6774501300955
20
10.9348655492368
30
0.000000000000000
11
-14.5774501300955
21
10.8406775561172
31
0.000000000000000
  0
LINE
  5
F1042A
330
F1042B
100
AcDbEntity
8
Geo
100
AcDbLine
10
-14.5774501300955
20
10.8406775561172
30
0.000000000000000
11
-14.4774501300955
21
10.7471801553383
31
0.000000000000000
  0
LINE
  5
F1042C
330
F1042D
100
AcDbEntity
8
Geo
100
AcDbLine
10
-14.4774501300955
20
10.7471801553383
30
0.000000000000000
11
-14.3774501300955
21
10.6544107446138
31
0.000000000000000
  0
LINE
  5
F1042E
330
F1042F
100
AcDbEntity
8
Geo
100
AcDbLine
10
-14.3774501300955
20
10.6544107446138
30
0.000000000000000
11
-14.2774501300955
21
10.5624064304710
31
0.000000000000000
  0
LINE
  5
F10430
330
F10431
100
AcDbEntity
8
Geo
100
AcDbLine
10
-14.2774501300955
20
10.5624064304710
30
0.000000000000000
11
-14.1774501300955
21
10.4712040134090
31
0.000000000000000
  0
LINE
  5
F10432
330
F10433
100
AcDbEntity
8
Geo
100
AcDbLine
10
-14.1774501300955
20
10.4712040134090
30
0.000000000000000
11
-14.0774501300955
21
10.3808399731785
31
0.000000000000000
  0
LINE
  5
F10434
330
F10435
100
AcDbEntity
8
Geo
100
AcDbLine
10
-14.0774501300955
20
10.3808399731785
30
0.000000000000000
11
-13.9774501300955
21
10.2913504541908
31
0.000000000000000
  0
LINE
  5
F10436
330
F10437
100
AcDbEntity
8
Geo
100
AcDbLine
10
-13.9774501300955
20
10.2913504541908
30
0.000000000000000
11
-13.8774501300955
21
10.2027712510603
31
0.000000000000000
  0
LINE
  5
F10438
330
F10439
100
AcDbEntity
8
Geo
100
AcDbLine
10
-13.8774501300955
20
10.2027712510603
30
0.000000000000000
11
-13.7774501300955
21
10.1151377942872
31
0.000000000000000
  0
LINE
  5
F1043A
330
F1043B
100
AcDbEntity
8
Geo
100
AcDbLine
10
-13.7774501300955
20
10.1151377942872
30
0.000000000000000
11
-13.6774501300955
21
10.0284851360859
31
0.000000000000000
  0
LINE
  5
F1043C
330
F1043D
100
AcDbEntity
8
Geo
100
AcDbLine
10
-13.6774501300955
20
10.0284851360859
30
0.000000000000000
11
-13.5774501300955
21
9.94284793636409
31
0.000000000000000
  0
LINE
  5
F1043E
330
F1043F
100
AcDbEntity
8
Geo
100
AcDbLine
10
-13.5774501300955
20
9.94284793636409
30
0.000000000000000
11
-13.4774501300955
21
9.85826044886002
31
0.000000000000000
  0
LINE
  5
F10440
330
F10441
100
AcDbEntity
8
Geo
100
AcDbLine
10
-13.4774501300955
20
9.85826044886002
30
0.000000000000000
11
-13.3774501300955
21
9.77475650744083
31
0.000000000000000
  0
LINE
  5
F10442
330
F10443
100
AcDbEntity
8
Geo
100
AcDbLine
10
-13.3774501300955
20
9.77475650744083
30
0.000000000000000
11
-13.2774501300955
21
9.69236951256971
31
0.000000000000000
  0
LINE
  5
F10444
330
F10445
100
AcDbEntity
8
Geo
100
AcDbLine
10
-13.2774501300955
20
9.69236951256971
30
0.000000000000000
11
-13.1774501300955
21
9.61113241794613
31
0.000000000000000
  0
LINE
  5
F10446
330
F10447
100
AcDbEntity
8
Geo
100
AcDbLine
10
-13.1774501300955
20
9.61113241794613
30
0.000000000000000
11
-13.0774501300955
21
9.53107771732481
31
0.000000000000000
  0
LINE
  5
F10448
330
F10449
100
AcDbEntity
8
Geo
100
AcDbLine
10
-13.0774501300955
20
9.53107771732481
30
0.000000000000000
11
-12.9774501300955
21
9.45223743151860
31
0.000000000000000
  0
LINE
  5
F1044A
330
F1044B
100
AcDbEntity
8
Geo
100
AcDbLine
10
-12.9774501300955
20
9.45223743151860
30
0.000000000000000
11
-12.8774501300955
21
9.37464309559063
31
0.000000000000000
  0
LINE
  5
F1044C
330
F1044D
100
AcDbEntity
8
Geo
100
AcDbLine
10
-12.8774501300955
20
9.37464309559063
30
0.000000000000000
11
-12.7774501300955
21
9.29832574624071
31
0.000000000000000
  0
LINE
  5
F1044E
330
F1044F
100
AcDbEntity
8
Geo
100
AcDbLine
10
-12.7774501300955
20
9.29832574624071
30
0.000000000000000
11
-12.6774501300955
21
9.22331590939102
31
0.000000000000000
  0
LINE
  5
F10450
330
F10451
100
AcDbEntity
8
Geo
100
AcDbLine
10
-12.6774501300955
20
9.22331590939102
30
0.000000000000000
11
-12.5774501300954
21
9.14964358797618
31
0.000000000000000
  0
LINE
  5
F10452
330
F10453
100
AcDbEntity
8
Geo
100
AcDbLine
10
-12.5774501300954
20
9.14964358797618
30
0.000000000000000
11
-12.4774501300954
21
9.07733824994247
31
0.000000000000000
  0
LINE
  5
F10454
330
F10455
100
AcDbEntity
8
Geo
100
AcDbLine
10
-12.4774501300954
20
9.07733824994247
30
0.000000000000000
11
-12.3774501300954
21
9.00642881646105
31
0.000000000000000
  0
LINE
  5
F10456
330
F10457
100
AcDbEntity
8
Geo
100
AcDbLine
10
-12.3774501300954
20
9.00642881646105
30
0.000000000000000
11
-12.2774501300954
21
8.93694365035986
31
0.000000000000000
  0
LINE
  5
F10458
330
F10459
100
AcDbEntity
8
Geo
100
AcDbLine
10
-12.2774501300954
20
8.93694365035986
30
0.000000000000000
11
-12.1774501300954
21
8.86891054477890
31
0.000000000000000
  0
LINE
  5
F1045A
330
F1045B
100
AcDbEntity
8
Geo
100
AcDbLine
10
-12.1774501300954
20
8.86891054477890
30
0.000000000000000
11
-12.0774501300954
21
8.80235671205329
31
0.000000000000000
  0
LINE
  5
F1045C
330
F1045D
100
AcDbEntity
8
Geo
100
AcDbLine
10
-12.0774501300954
20
8.80235671205329
30
0.000000000000000
11
-11.9774501300954
21
8.73730877282875
31
0.000000000000000
  0
LINE
  5
F1045E
330
F1045F
100
AcDbEntity
8
Geo
100
AcDbLine
10
-11.9774501300954
20
8.73730877282875
30
0.000000000000000
11
-11.8774501300954
21
8.67379274541368
31
0.000000000000000
  0
LINE
  5
F10460
330
F10461
100
AcDbEntity
8
Geo
100
AcDbLine
10
-11.8774501300954
20
8.67379274541368
30
0.000000000000000
11
-11.7774501300954
21
8.61183403537217
31
0.000000000000000
  0
LINE
  5
F10462
330
F10463
100
AcDbEntity
8
Geo
100
AcDbLine
10
-11.7774501300954
20
8.61183403537217
30
0.000000000000000
11
-11.6774501300954
21
8.55145742536214
31
0.000000000000000
  0
LINE
  5
F10464
330
F10465
100
AcDbEntity
8
Geo
100
AcDbLine
10
-11.6774501300954
20
8.55145742536214
30
0.000000000000000
11
-11.5774501300954
21
8.49268706522258
31
0.000000000000000
  0
LINE
  5
F10466
330
F10467
100
AcDbEntity
8
Geo
100
AcDbLine
10
-11.5774501300954
20
8.49268706522258
30
0.000000000000000
11
-11.4774501300954
21
8.43554646231396
31
0.000000000000000
  0
LINE
  5
F10468
330
F10469
100
AcDbEntity
8
Geo
100
AcDbLine
10
-11.4774501300954
20
8.43554646231396
30
0.000000000000000
11
-11.3774501300954
21
8.38005847211556
31
0.000000000000000
  0
LINE
  5
F1046A
330
F1046B
100
AcDbEntity
8
Geo
100
AcDbLine
10
-11.3774501300954
20
8.38005847211556
30
0.000000000000000
11
-11.2774501300954
21
8.32624528908364
31
0.000000000000000
  0
LINE
  5
F1046C
330
F1046D
100
AcDbEntity
8
Geo
100
AcDbLine
10
-11.2774501300954
20
8.32624528908364
30
0.000000000000000
11
-11.1774501300954
21
8.27412843777392
31
0.000000000000000
  0
LINE
  5
F1046E
330
F1046F
100
AcDbEntity
8
Geo
100
AcDbLine
10
-11.1774501300954
20
8.27412843777392
30
0.000000000000000
11
-11.0774501300954
21
8.22372876423202
31
0.000000000000000
  0
LINE
  5
F10470
330
F10471
100
AcDbEntity
8
Geo
100
AcDbLine
10
-11.0774501300954
20
8.22372876423202
30
0.000000000000000
11
-10.9774501300954
21
8.17506642765540
31
0.000000000000000
  0
LINE
  5
F10472
330
F10473
100
AcDbEntity
8
Geo
100
AcDbLine
10
-10.9774501300954
20
8.17506642765540
30
0.000000000000000
11
-10.8774501300954
21
8.12816089232984
31
0.000000000000000
  0
LINE
  5
F10474
330
F10475
100
AcDbEntity
8
Geo
100
AcDbLine
10
-10.8774501300954
20
8.12816089232984
30
0.000000000000000
11
-10.7774501300954
21
8.08303091984410
31
0.000000000000000
  0
LINE
  5
F10476
330
F10477
100
AcDbEntity
8
Geo
100
AcDbLine
10
-10.7774501300954
20
8.08303091984410
30
0.000000000000000
11
-10.6774501300954
21
8.03969456158542
31
0.000000000000000
  0
LINE
  5
F10478
330
F10479
100
AcDbEntity
8
Geo
100
AcDbLine
10
-10.6774501300954
20
8.03969456158542
30
0.000000000000000
11
-10.5774501300954
21
7.99816915151931
31
0.000000000000000
  0
LINE
  5
F1047A
330
F1047B
100
AcDbEntity
8
Geo
100
AcDbLine
10
-30.4774501300954
20
17.3224985398452
30
0.000000000000000
11
-30.3774501300954
21
17.2906478756650
31
0.000000000000000
  0
LINE
  5
F1047C
330
F1047D
100
AcDbEntity
8
Geo
100
AcDbLine
10
-30.3774501300954
20
17.2906478756650
30
0.000000000000000
11
-30.2774501300954
21
17.2569079016961
31
0.000000000000000
  0
LINE
  5
F1047E
330
F1047F
100
AcDbEntity
8
Geo
100
AcDbLine
10
-30.2774501300954
20
17.2569079016961
30
0.000000000000000
11
-30.1774501300954
21
17.2212921134783
31
0.000000000000000
  0
LINE
  5
F10480
330
F10481
100
AcDbEntity
8
Geo
100
AcDbLine
10
-30.1774501300954
20
17.2212921134783
30
0.000000000000000
11
-30.0774501300954
21
17.1838147568519
31
0.000000000000000
  0
LINE
  5
F10482
330
F10483
100
AcDbEntity
8
Geo
100
AcDbLine
10
-30.0774501300954
20
17.1838147568519
30
0.000000000000000
11
-29.9774501300954
21
17.1444908222600
31
0.000000000000000
  0
LINE
  5
F10484
330
F10485
100
AcDbEntity
8
Geo
100
AcDbLine
10
-29.9774501300954
20
17.1444908222600
30
0.000000000000000
11
-29.8774501300954
21
17.1033360387520
31
0.000000000000000
  0
LINE
  5
F10486
330
F10487
100
AcDbEntity
8
Geo
100
AcDbLine
10
-29.8774501300954
20
17.1033360387520
30
0.000000000000000
11
-29.7774501300954
21
17.0603668676927
31
0.000000000000000
  0
LINE
  5
F10488
330
F10489
100
AcDbEntity
8
Geo
100
AcDbLine
10
-29.7774501300954
20
17.0603668676927
30
0.000000000000000
11
-29.6774501300954
21
17.0156004961775
31
0.000000000000000
  0
LINE
  5
F1048A
330
F1048B
100
AcDbEntity
8
Geo
100
AcDbLine
10
-29.6774501300954
20
17.0156004961775
30
0.000000000000000
11
-29.5774501300954
21
16.9690548301582
31
0.000000000000000
  0
LINE
  5
F1048C
330
F1048D
100
AcDbEntity
8
Geo
100
AcDbLine
10
-29.5774501300954
20
16.9690548301582
30
0.000000000000000
11
-29.4774501300954
21
16.9207484872806
31
0.000000000000000
  0
LINE
  5
F1048E
330
F1048F
100
AcDbEntity
8
Geo
100
AcDbLine
10
-29.4774501300954
20
16.9207484872806
30
0.000000000000000
11
-29.3774501300954
21
16.8707007894378
31
0.000000000000000
  0
LINE
  5
F10490
330
F10491
100
AcDbEntity
8
Geo
100
AcDbLine
10
-29.3774501300954
20
16.8707007894378
30
0.000000000000000
11
-29.2774501300954
21
16.8189317550416
31
0.000000000000000
  0
LINE
  5
F10492
330
F10493
100
AcDbEntity
8
Geo
100
AcDbLine
10
-29.2774501300954
20
16.8189317550416
30
0.000000000000000
11
-29.1774501300954
21
16.7654620910154
31
0.000000000000000
  0
LINE
  5
F10494
330
F10495
100
AcDbEntity
8
Geo
100
AcDbLine
10
-29.1774501300954
20
16.7654620910154
30
0.000000000000000
11
-29.0774501300954
21
16.7103131845121
31
0.000000000000000
  0
LINE
  5
F10496
330
F10497
100
AcDbEntity
8
Geo
100
AcDbLine
10
-29.0774501300954
20
16.7103131845121
30
0.000000000000000
11
-28.9774501300954
21
16.6535070943589
31
0.000000000000000
  0
LINE
  5
F10498
330
F10499
100
AcDbEntity
8
Geo
100
AcDbLine
10
-28.9774501300954
20
16.6535070943589
30
0.000000000000000
11
-28.8774501300954
21
16.5950665422345
31
0.000000000000000
  0
LINE
  5
F1049A
330
F1049B
100
AcDbEntity
8
Geo
100
AcDbLine
10
-28.8774501300954
20
16.5950665422345
30
0.000000000000000
11
-28.7774501300954
21
16.5350149035805
31
0.000000000000000
  0
LINE
  5
F1049C
330
F1049D
100
AcDbEntity
8
Geo
100
AcDbLine
10
-28.7774501300954
20
16.5350149035805
30
0.000000000000000
11
-28.6774501300954
21
16.4733761982516
31
0.000000000000000
  0
LINE
  5
F1049E
330
F1049F
100
AcDbEntity
8
Geo
100
AcDbLine
10
-28.6774501300954
20
16.4733761982516
30
0.000000000000000
11
-28.5774501300954
21
16.4101750809083
31
0.000000000000000
  0
LINE
  5
F104A0
330
F104A1
100
AcDbEntity
8
Geo
100
AcDbLine
10
-28.5774501300954
20
16.4101750809083
30
0.000000000000000
11
-28.4774501300954
21
16.3454368311547
31
0.000000000000000
  0
LINE
  5
F104A2
330
F104A3
100
AcDbEntity
8
Geo
100
AcDbLine
10
-28.4774501300954
20
16.3454368311547
30
0.000000000000000
11
-28.3774501300954
21
16.2791873434276
31
0.000000000000000
  0
LINE
  5
F104A4
330
F104A5
100
AcDbEntity
8
Geo
100
AcDbLine
10
-28.3774501300954
20
16.2791873434276
30
0.000000000000000
11
-28.2774501300954
21
16.2114531166388
31
0.000000000000000
  0
LINE
  5
F104A6
330
F104A7
100
AcDbEntity
8
Geo
100
AcDbLine
10
-28.2774501300954
20
16.2114531166388
30
0.000000000000000
11
-28.1774501300954
21
16.1422612435758
31
0.000000000000000
  0
LINE
  5
F104A8
330
F104A9
100
AcDbEntity
8
Geo
100
AcDbLine
10
-28.1774501300954
20
16.1422612435758
30
0.000000000000000
11
-28.0774501300954
21
16.0716394000654
31
0.000000000000000
  0
LINE
  5
F104AA
330
F104AB
100
AcDbEntity
8
Geo
100
AcDbLine
10
-28.0774501300954
20
16.0716394000654
30
0.000000000000000
11
-27.9774501300954
21
15.9996158339033
31
0.000000000000000
  0
LINE
  5
F104AC
330
F104AD
100
AcDbEntity
8
Geo
100
AcDbLine
10
-27.9774501300954
20
15.9996158339033
30
0.000000000000000
11
-27.8774501300954
21
15.9262193535558
31
0.000000000000000
  0
LINE
  5
F104AE
330
F104AF
100
AcDbEntity
8
Geo
100
AcDbLine
10
-27.8774501300954
20
15.9262193535558
30
0.000000000000000
11
-27.7774501300954
21
15.8514793166363
31
0.000000000000000
  0
LINE
  5
F104B0
330
F104B1
100
AcDbEntity
8
Geo
100
AcDbLine
10
-27.7774501300954
20
15.8514793166363
30
0.000000000000000
11
-27.6774501300954
21
15.7754256181631
31
0.000000000000000
  0
LINE
  5
F104B2
330
F104B3
100
AcDbEntity
8
Geo
100
AcDbLine
10
-27.6774501300954
20
15.7754256181631
30
0.000000000000000
11
-27.5774501300954
21
15.6980886786015
31
0.000000000000000
  0
LINE
  5
F104B4
330
F104B5
100
AcDbEntity
8
Geo
100
AcDbLine
10
-27.5774501300954
20
15.6980886786015
30
0.000000000000000
11
-27.4774501300954
21
15.6194994316962
31
0.000000000000000
  0
LINE
  5
F104B6
330
F104B7
100
AcDbEntity
8
Geo
100
AcDbLine
10
-27.4774501300954
20
15.6194994316962
30
0.000000000000000
11
-27.3774501300954
21
15.5396893120982
31
0.000000000000000
  0
LINE
  5
F104B8
330
F104B9
100
AcDbEntity
8
Geo
100
AcDbLine
10
-27.3774501300954
20
15.5396893120982
30
0.000000000000000
11
-27.2774501300954
21
15.4586902427911
31
0.000000000000000
  0
LINE
  5
F104BA
330
F104BB
100
AcDbEntity
8
Geo
100
AcDbLine
10
-27.2774501300954
20
15.4586902427911
30
0.000000000000000
11
-27.1774501300954
21
15.3765346223228
31
0.000000000000000
  0
LINE
  5
F104BC
330
F104BD
100
AcDbEntity
8
Geo
100
AcDbLine
10
-27.1774501300954
20
15.3765346223228
30
0.000000000000000
11
-27.0774501300954
21
15.2932553118459
31
0.000000000000000
  0
LINE
  5
F104BE
330
F104BF
100
AcDbEntity
8
Geo
100
AcDbLine
10
-27.0774501300954
20
15.2932553118459
30
0.000000000000000
11
-26.9774501300954
21
15.2088856219744
31
0.000000000000000
  0
LINE
  5
F104C0
330
F104C1
100
AcDbEntity
8
Geo
100
AcDbLine
10
-26.9774501300954
20
15.2088856219744
30
0.000000000000000
11
-26.8774501300954
21
15.1234592994592
31
0.000000000000000
  0
LINE
  5
F104C2
330
F104C3
100
AcDbEntity
8
Geo
100
AcDbLine
10
-26.8774501300954
20
15.1234592994592
30
0.000000000000000
11
-26.7774501300954
21
15.0370105136904
31
0.000000000000000
  0
LINE
  5
F104C4
330
F104C5
100
AcDbEntity
8
Geo
100
AcDbLine
10
-26.7774501300954
20
15.0370105136904
30
0.000000000000000
11
-26.6774501300954
21
14.9495738430295
31
0.000000000000000
  0
LINE
  5
F104C6
330
F104C7
100
AcDbEntity
8
Geo
100
AcDbLine
10
-26.6774501300954
20
14.9495738430295
30
0.000000000000000
11
-26.5774501300954
21
14.8611842609792
31
0.000000000000000
  0
LINE
  5
F104C8
330
F104C9
100
AcDbEntity
8
Geo
100
AcDbLine
10
-26.5774501300954
20
14.8611842609792
30
0.000000000000000
11
-26.4774501300954
21
14.7718771221937
31
0.000000000000000
  0
LINE
  5
F104CA
330
F104CB
100
AcDbEntity
8
Geo
100
AcDbLine
10
-26.4774501300954
20
14.7718771221937
30
0.000000000000000
11
-26.3774501300954
21
14.6816881483377
31
0.000000000000000
  0
LINE
  5
F104CC
330
F104CD
100
AcDbEntity
8
Geo
100
AcDbLine
10
-26.3774501300954
20
14.6816881483377
30
0.000000000000000
11
-26.2774501300954
21
14.5906534137984
31
0.000000000000000
  0
LINE
  5
F104CE
330
F104CF
100
AcDbEntity
8
Geo
100
AcDbLine
10
-26.2774501300954
20
14.5906534137984
30
0.000000000000000
11
-26.1774501300954
21
14.4988093312556
31
0.000000000000000
  0
LINE
  5
F104D0
330
F104D1
100
AcDbEntity
8
Geo
100
AcDbLine
10
-26.1774501300954
20
14.4988093312556
30
0.000000000000000
11
-26.0774501300954
21
14.4061926371180
31
0.000000000000000
  0
LINE
  5
F104D2
330
F104D3
100
AcDbEntity
8
Geo
100
AcDbLine
10
-26.0774501300954
20
14.4061926371180
30
0.000000000000000
11
-25.9774501300954
21
14.3128403768282
31
0.000000000000000
  0
LINE
  5
F104D4
330
F104D5
100
AcDbEntity
8
Geo
100
AcDbLine
10
-25.9774501300954
20
14.3128403768282
30
0.000000000000000
11
-25.8774501300954
21
14.2187898900457
31
0.000000000000000
  0
LINE
  5
F104D6
330
F104D7
100
AcDbEntity
8
Geo
100
AcDbLine
10
-25.8774501300954
20
14.2187898900457
30
0.000000000000000
11
-25.7774501300954
21
14.1240787957112
31
0.000000000000000
  0
LINE
  5
F104D8
330
F104D9
100
AcDbEntity
8
Geo
100
AcDbLine
10
-25.7774501300954
20
14.1240787957112
30
0.000000000000000
11
-25.6774501300954
21
14.0287449769997
31
0.000000000000000
  0
LINE
  5
F104DA
330
F104DB
100
AcDbEntity
8
Geo
100
AcDbLine
10
-25.6774501300954
20
14.0287449769997
30
0.000000000000000
11
-25.5774501300954
21
13.9328265661675
31
0.000000000000000
  0
LINE
  5
F104DC
330
F104DD
100
AcDbEntity
8
Geo
100
AcDbLine
10
-25.5774501300954
20
13.9328265661675
30
0.000000000000000
11
-25.4774501300954
21
13.8363619293001
31
0.000000000000000
  0
LINE
  5
F104DE
330
F104DF
100
AcDbEntity
8
Geo
100
AcDbLine
10
-25.4774501300954
20
13.8363619293001
30
0.000000000000000
11
-25.3774501300954
21
13.7393896509661
31
0.000000000000000
  0
LINE
  5
F104E0
330
F104E1
100
AcDbEntity
8
Geo
100
AcDbLine
10
-25.3774501300954
20
13.7393896509661
30
0.000000000000000
11
-25.2774501300954
21
13.6419485187838
31
0.000000000000000
  0
LINE
  5
F104E2
330
F104E3
100
AcDbEntity
8
Geo
100
AcDbLine
10
-25.2774501300954
20
13.6419485187838
30
0.000000000000000
11
-25.1774501300954
21
13.5440775079069
31
0.000000000000000
  0
LINE
  5
F104E4
330
F104E5
100
AcDbEntity
8
Geo
100
AcDbLine
10
-25.1774501300954
20
13.5440775079069
30
0.000000000000000
11
-25.0774501300954
21
13.4458157654348
31
0.000000000000000
  0
LINE
  5
F104E6
330
F104E7
100
AcDbEntity
8
Geo
100
AcDbLine
10
-25.0774501300954
20
13.4458157654348
30
0.000000000000000
11
-24.9774501300954
21
13.3472025947544
31
0.000000000000000
  0
LINE
  5
F104E8
330
F104E9
100
AcDbEntity
8
Geo
100
AcDbLine
10
-24.9774501300954
20
13.3472025947544
30
0.000000000000000
11
-24.8774501300954
21
13.2482774398192
31
0.000000000000000
  0
LINE
  5
F104EA
330
F104EB
100
AcDbEntity
8
Geo
100
AcDbLine
10
-24.8774501300954
20
13.2482774398192
30
0.000000000000000
11
-24.7774501300954
21
13.1490798693720
31
0.000000000000000
  0
LINE
  5
F104EC
330
F104ED
100
AcDbEntity
8
Geo
100
AcDbLine
10
-24.7774501300954
20
13.1490798693720
30
0.000000000000000
11
-24.6774501300954
21
13.0496495611186
31
0.000000000000000
  0
LINE
  5
F104EE
330
F104EF
100
AcDbEntity
8
Geo
100
AcDbLine
10
-24.6774501300954
20
13.0496495611186
30
0.000000000000000
11
-24.5774501300954
21
12.9500262858564
31
0.000000000000000
  0
LINE
  5
F104F0
330
F104F1
100
AcDbEntity
8
Geo
100
AcDbLine
10
-24.5774501300954
20
12.9500262858564
30
0.000000000000000
11
-24.4774501300954
21
12.8502498915673
31
0.000000000000000
  0
LINE
  5
F104F2
330
F104F3
100
AcDbEntity
8
Geo
100
AcDbLine
10
-24.4774501300954
20
12.8502498915673
30
0.000000000000000
11
-24.3774501300954
21
12.7503602874786
31
0.000000000000000
  0
LINE
  5
F104F4
330
F104F5
100
AcDbEntity
8
Geo
100
AcDbLine
10
-24.3774501300954
20
12.7503602874786
30
0.000000000000000
11
-24.2774501300954
21
12.6503974281002
31
0.000000000000000
  0
LINE
  5
F104F6
330
F104F7
100
AcDbEntity
8
Geo
100
AcDbLine
10
-24.2774501300954
20
12.6503974281002
30
0.000000000000000
11
-24.1774501300954
21
12.5504012972430
31
0.000000000000000
  0
LINE
  5
F104F8
330
F104F9
100
AcDbEntity
8
Geo
100
AcDbLine
10
-24.1774501300954
20
12.5504012972430
30
0.000000000000000
11
-24.0774501300954
21
12.4504118920260
31
0.000000000000000
  0
LINE
  5
F104FA
330
F104FB
100
AcDbEntity
8
Geo
100
AcDbLine
10
-24.0774501300954
20
12.4504118920260
30
0.000000000000000
11
-23.9774501300954
21
12.3504692068782
31
0.000000000000000
  0
LINE
  5
F104FC
330
F104FD
100
AcDbEntity
8
Geo
100
AcDbLine
10
-23.9774501300954
20
12.3504692068782
30
0.000000000000000
11
-23.8774501300954
21
12.2506132175410
31
0.000000000000000
  0
LINE
  5
F104FE
330
F104FF
100
AcDbEntity
8
Geo
100
AcDbLine
10
-23.8774501300954
20
12.2506132175410
30
0.000000000000000
11
-23.7774501300954
21
12.1508838650789
31
0.000000000000000
  0
LINE
  5
F10500
330
F10501
100
AcDbEntity
8
Geo
100
AcDbLine
10
-23.7774501300954
20
12.1508838650789
30
0.000000000000000
11
-23.6774501300954
21
12.0513210399031
31
0.000000000000000
  0
LINE
  5
F10502
330
F10503
100
AcDbEntity
8
Geo
100
AcDbLine
10
-23.6774501300954
20
12.0513210399031
30
0.000000000000000
11
-23.5774501300954
21
11.9519645658162
31
0.000000000000000
  0
LINE
  5
F10504
330
F10505
100
AcDbEntity
8
Geo
100
AcDbLine
10
-23.5774501300954
20
11.9519645658162
30
0.000000000000000
11
-23.4774501300954
21
11.8528541840830
31
0.000000000000000
  0
LINE
  5
F10506
330
F10507
100
AcDbEntity
8
Geo
100
AcDbLine
10
-23.4774501300954
20
11.8528541840830
30
0.000000000000000
11
-23.3774501300954
21
11.7540295375349
31
0.000000000000000
  0
LINE
  5
F10508
330
F10509
100
AcDbEntity
8
Geo
100
AcDbLine
10
-23.3774501300954
20
11.7540295375349
30
0.000000000000000
11
-23.2774501300954
21
11.6555301547127
31
0.000000000000000
  0
LINE
  5
F1050A
330
F1050B
100
AcDbEntity
8
Geo
100
AcDbLine
10
-23.2774501300954
20
11.6555301547127
30
0.000000000000000
11
-23.1774501300954
21
11.5573954340564
31
0.000000000000000
  0
LINE
  5
F1050C
330
F1050D
100
AcDbEntity
8
Geo
100
AcDbLine
10
-23.1774501300954
20
11.5573954340564
30
0.000000000000000
11
-23.0774501300954
21
11.4596646281457
31
0.000000000000000
  0
LINE
  5
F1050E
330
F1050F
100
AcDbEntity
8
Geo
100
AcDbLine
10
-23.0774501300954
20
11.4596646281457
30
0.000000000000000
11
-22.9774501300954
21
11.3623768280000
31
0.000000000000000
  0
LINE
  5
F10510
330
F10511
100
AcDbEntity
8
Geo
100
AcDbLine
10
-22.9774501300954
20
11.3623768280000
30
0.000000000000000
11
-22.8774501300954
21
11.2655709474420
31
0.000000000000000
  0
LINE
  5
F10512
330
F10513
100
AcDbEntity
8
Geo
100
AcDbLine
10
-22.8774501300954
20
11.2655709474420
30
0.000000000000000
11
-22.7774501300954
21
11.1692857075334
31
0.000000000000000
  0
LINE
  5
F10514
330
F10515
100
AcDbEntity
8
Geo
100
AcDbLine
10
-22.7774501300954
20
11.1692857075334
30
0.000000000000000
11
-22.6774501300954
21
11.0735596210864
31
0.000000000000000
  0
LINE
  5
F10516
330
F10517
100
AcDbEntity
8
Geo
100
AcDbLine
10
-22.6774501300954
20
11.0735596210864
30
0.000000000000000
11
-22.5774501300954
21
10.9784309772591
31
0.000000000000000
  0
LINE
  5
F10518
330
F10519
100
AcDbEntity
8
Geo
100
AcDbLine
10
-22.5774501300954
20
10.9784309772591
30
0.000000000000000
11
-22.4774501300954
21
10.8839378262407
31
0.000000000000000
  0
LINE
  5
F1051A
330
F1051B
100
AcDbEntity
8
Geo
100
AcDbLine
10
-22.4774501300954
20
10.8839378262407
30
0.000000000000000
11
-22.3774501300954
21
10.7901179640317
31
0.000000000000000
  0
LINE
  5
F1051C
330
F1051D
100
AcDbEntity
8
Geo
100
AcDbLine
10
-22.3774501300954
20
10.7901179640317
30
0.000000000000000
11
-22.2774501300954
21
10.6970089173262
31
0.000000000000000
  0
LINE
  5
F1051E
330
F1051F
100
AcDbEntity
8
Geo
100
AcDbLine
10
-22.2774501300954
20
10.6970089173262
30
0.000000000000000
11
-22.1774501300954
21
10.6046479285013
31
0.000000000000000
  0
LINE
  5
F10520
330
F10521
100
AcDbEntity
8
Geo
100
AcDbLine
10
-22.1774501300954
20
10.6046479285013
30
0.000000000000000
11
-22.0774501300954
21
10.5130719407211
31
0.000000000000000
  0
LINE
  5
F10522
330
F10523
100
AcDbEntity
8
Geo
100
AcDbLine
10
-22.0774501300954
20
10.5130719407211
30
0.000000000000000
11
-21.9774501300954
21
10.4223175831598
31
0.000000000000000
  0
LINE
  5
F10524
330
F10525
100
AcDbEntity
8
Geo
100
AcDbLine
10
-21.9774501300954
20
10.4223175831598
30
0.000000000000000
11
-21.8774501300954
21
10.3324211563503
31
0.000000000000000
  0
LINE
  5
F10526
330
F10527
100
AcDbEntity
8
Geo
100
AcDbLine
10
-21.8774501300954
20
10.3324211563503
30
0.000000000000000
11
-21.7774501300954
21
10.2434186176648
31
0.000000000000000
  0
LINE
  5
F10528
330
F10529
100
AcDbEntity
8
Geo
100
AcDbLine
10
-21.7774501300954
20
10.2434186176648
30
0.000000000000000
11
-21.6774501300955
21
10.1553455669319
31
0.000000000000000
  0
LINE
  5
F1052A
330
F1052B
100
AcDbEntity
8
Geo
100
AcDbLine
10
-21.6774501300955
20
10.1553455669319
30
0.000000000000000
11
-21.5774501300954
21
10.0682372321979
31
0.000000000000000
  0
LINE
  5
F1052C
330
F1052D
100
AcDbEntity
8
Geo
100
AcDbLine
10
-21.5774501300954
20
10.0682372321979
30
0.000000000000000
11
-21.4774501300954
21
9.98212845563495
31
0.000000000000000
  0
LINE
  5
F1052E
330
F1052F
100
AcDbEntity
8
Geo
100
AcDbLine
10
-21.4774501300954
20
9.98212845563495
30
0.000000000000000
11
-21.3774501300955
21
9.89705367960578
31
0.000000000000000
  0
LINE
  5
F10530
330
F10531
100
AcDbEntity
8
Geo
100
AcDbLine
10
-21.3774501300955
20
9.89705367960578
30
0.000000000000000
11
-21.2774501300955
21
9.81304693288642
31
0.000000000000000
  0
LINE
  5
F10532
330
F10533
100
AcDbEntity
8
Geo
100
AcDbLine
10
-21.2774501300955
20
9.81304693288642
30
0.000000000000000
11
-21.1774501300955
21
9.73014181705548
31
0.000000000000000
  0
LINE
  5
F10534
330
F10535
100
AcDbEntity
8
Geo
100
AcDbLine
10
-21.1774501300955
20
9.73014181705548
30
0.000000000000000
11
-21.0774501300954
21
9.64837149305392
31
0.000000000000000
  0
LINE
  5
F10536
330
F10537
100
AcDbEntity
8
Geo
100
AcDbLine
10
-21.0774501300954
20
9.64837149305392
30
0.000000000000000
11
-20.9774501300955
21
9.56776866792108
31
0.000000000000000
  0
LINE
  5
F10538
330
F10539
100
AcDbEntity
8
Geo
100
AcDbLine
10
-20.9774501300955
20
9.56776866792108
30
0.000000000000000
11
-20.8774501300955
21
9.48836558171233
31
0.000000000000000
  0
LINE
  5
F1053A
330
F1053B
100
AcDbEntity
8
Geo
100
AcDbLine
10
-20.8774501300955
20
9.48836558171233
30
0.000000000000000
11
-20.7774501300955
21
9.41019399460344
31
0.000000000000000
  0
LINE
  5
F1053C
330
F1053D
100
AcDbEntity
8
Geo
100
AcDbLine
10
-20.7774501300955
20
9.41019399460344
30
0.000000000000000
11
-20.6774501300955
21
9.33328517418700
31
0.000000000000000
  0
LINE
  5
F1053E
330
F1053F
100
AcDbEntity
8
Geo
100
AcDbLine
10
-20.6774501300955
20
9.33328517418700
30
0.000000000000000
11
-20.5774501300955
21
9.25766988296573
31
0.000000000000000
  0
LINE
  5
F10540
330
F10541
100
AcDbEntity
8
Geo
100
AcDbLine
10
-20.5774501300955
20
9.25766988296573
30
0.000000000000000
11
-20.4774501300955
21
9.18337836604792
31
0.000000000000000
  0
LINE
  5
F10542
330
F10543
100
AcDbEntity
8
Geo
100
AcDbLine
10
-20.4774501300955
20
9.18337836604792
30
0.000000000000000
11
-20.3774501300955
21
9.11044033904981
31
0.000000000000000
  0
LINE
  5
F10544
330
F10545
100
AcDbEntity
8
Geo
100
AcDbLine
10
-20.3774501300955
20
9.11044033904981
30
0.000000000000000
11
-20.2774501300955
21
9.03888497620970
31
0.000000000000000
  0
LINE
  5
F10546
330
F10547
100
AcDbEntity
8
Geo
100
AcDbLine
10
-20.2774501300955
20
9.03888497620970
30
0.000000000000000
11
-20.1774501300955
21
8.96874089871867
31
0.000000000000000
  0
LINE
  5
F10548
330
F10549
100
AcDbEntity
8
Geo
100
AcDbLine
10
-20.1774501300955
20
8.96874089871867
30
0.000000000000000
11
-20.0774501300955
21
8.90003616327247
31
0.000000000000000
  0
LINE
  5
F1054A
330
F1054B
100
AcDbEntity
8
Geo
100
AcDbLine
10
-20.0774501300955
20
8.90003616327247
30
0.000000000000000
11
-19.9774501300955
21
8.83279825084924
31
0.000000000000000
  0
LINE
  5
F1054C
330
F1054D
100
AcDbEntity
8
Geo
100
AcDbLine
10
-19.9774501300955
20
8.83279825084924
30
0.000000000000000
11
-19.8774501300955
21
8.76705405571743
31
0.000000000000000
  0
LINE
  5
F1054E
330
F1054F
100
AcDbEntity
8
Geo
100
AcDbLine
10
-19.8774501300955
20
8.76705405571743
30
0.000000000000000
11
-19.7774501300955
21
8.70282987467854
31
0.000000000000000
  0
LINE
  5
F10550
330
F10551
100
AcDbEntity
8
Geo
100
AcDbLine
10
-19.7774501300955
20
8.70282987467854
30
0.000000000000000
11
-19.6774501300955
21
8.64015139654867
31
0.000000000000000
  0
LINE
  5
F10552
330
F10553
100
AcDbEntity
8
Geo
100
AcDbLine
10
-19.6774501300955
20
8.64015139654867
30
0.000000000000000
11
-19.5774501300955
21
8.57904369188336
31
0.000000000000000
  0
LINE
  5
F10554
330
F10555
100
AcDbEntity
8
Geo
100
AcDbLine
10
-19.5774501300955
20
8.57904369188336
30
0.000000000000000
11
-19.4774501300955
21
8.51953120294972
31
0.000000000000000
  0
LINE
  5
F10556
330
F10557
100
AcDbEntity
8
Geo
100
AcDbLine
10
-19.4774501300955
20
8.51953120294972
30
0.000000000000000
11
-19.3774501300955
21
8.46163773394984
31
0.000000000000000
  0
LINE
  5
F10558
330
F10559
100
AcDbEntity
8
Geo
100
AcDbLine
10
-19.3774501300955
20
8.46163773394984
30
0.000000000000000
11
-19.2774501300955
21
8.40538644149942
31
0.000000000000000
  0
LINE
  5
F1055A
330
F1055B
100
AcDbEntity
8
Geo
100
AcDbLine
10
-19.2774501300955
20
8.40538644149942
30
0.000000000000000
11
-19.1774501300955
21
8.35079982536542
31
0.000000000000000
  0
LINE
  5
F1055C
330
F1055D
100
AcDbEntity
8
Geo
100
AcDbLine
10
-19.1774501300955
20
8.35079982536542
30
0.000000000000000
11
-19.0774501300955
21
8.29789971946649
31
0.000000000000000
  0
LINE
  5
F1055E
330
F1055F
100
AcDbEntity
8
Geo
100
AcDbLine
10
-19.0774501300955
20
8.29789971946649
30
0.000000000000000
11
-18.9774501300955
21
8.24670728313967
31
0.000000000000000
  0
LINE
  5
F10560
330
F10561
100
AcDbEntity
8
Geo
100
AcDbLine
10
-18.9774501300955
20
8.24670728313967
30
0.000000000000000
11
-18.8774501300955
21
8.19724299267692
31
0.000000000000000
  0
LINE
  5
F10562
330
F10563
100
AcDbEntity
8
Geo
100
AcDbLine
10
-18.8774501300955
20
8.19724299267692
30
0.000000000000000
11
-18.7774501300955
21
8.14952663313493
31
0.000000000000000
  0
LINE
  5
F10564
330
F10565
100
AcDbEntity
8
Geo
100
AcDbLine
10
-18.7774501300955
20
8.14952663313493
30
0.000000000000000
11
-18.6774501300955
21
8.10357729042128
31
0.000000000000000
  0
LINE
  5
F10566
330
F10567
100
AcDbEntity
8
Geo
100
AcDbLine
10
-18.6774501300955
20
8.10357729042128
30
0.000000000000000
11
-18.5774501300955
21
8.05941334366043
31
0.000000000000000
  0
LINE
  5
F10568
330
F10569
100
AcDbEntity
8
Geo
100
AcDbLine
10
-18.5774501300955
20
8.05941334366043
30
0.000000000000000
11
-18.4774501300955
21
8.01705245784223
31
0.000000000000000
  0
LINE
  5
F1056A
330
F1056B
100
AcDbEntity
8
Geo
100
AcDbLine
10
-18.4774501300955
20
8.01705245784223
30
0.000000000000000
11
-18.3774501300955
21
7.97651157675620
31
0.000000000000000
  0
LINE
  5
F1056C
330
F1056D
100
AcDbEntity
8
Geo
100
AcDbLine
10
-18.3774501300955
20
7.97651157675620
30
0.000000000000000
11
-18.2774501300955
21
7.93780691621424
31
0.000000000000000
  0
LINE
  5
F1056E
330
F1056F
100
AcDbEntity
8
Geo
100
AcDbLine
10
-18.2774501300955
20
7.93780691621424
30
0.000000000000000
11
-18.1774501300955
21
7.90095395756451
31
0.000000000000000
  0
LINE
  5
F10570
330
F10571
100
AcDbEntity
8
Geo
100
AcDbLine
10
-18.1774501300955
20
7.90095395756451
30
0.000000000000000
11
-18.0774501300955
21
7.86596744149911
31
0.000000000000000
  0
LINE
  5
F10572
330
F10573
100
AcDbEntity
8
Geo
100
AcDbLine
10
-18.0774501300955
20
7.86596744149911
30
0.000000000000000
11
-17.9774501300955
21
7.83286136215797
31
0.000000000000000
  0
LINE
  5
F10574
330
F10575
100
AcDbEntity
8
Geo
100
AcDbLine
10
-17.9774501300955
20
7.83286136215797
30
0.000000000000000
11
-17.8774501300955
21
7.80164896153144
31
0.000000000000000
  0
LINE
  5
F10576
330
F10577
100
AcDbEntity
8
Geo
100
AcDbLine
10
-17.8774501300955
20
7.80164896153144
30
0.000000000000000
11
-17.7774501300955
21
7.77234272416359
31
0.000000000000000
  0
LINE
  5
F10578
330
F10579
100
AcDbEntity
8
Geo
100
AcDbLine
10
-17.7774501300955
20
7.77234272416359
30
0.000000000000000
11
-17.6774501300955
21
7.74495437215864
31
0.000000000000000
  0
LINE
  5
F1057A
330
F1057B
100
AcDbEntity
8
Geo
100
AcDbLine
10
-17.6774501300955
20
7.74495437215864
30
0.000000000000000
11
-17.5774501300955
21
7.71949486049220
31
0.000000000000000
  0
LINE
  5
F1057C
330
F1057D
100
AcDbEntity
8
Geo
100
AcDbLine
10
-17.5774501300955
20
7.71949486049220
30
0.000000000000000
11
-17.4774501300955
21
7.69597437262950
31
0.000000000000000
  0
LINE
  5
F1057E
330
F1057F
100
AcDbEntity
8
Geo
100
AcDbLine
10
-17.4774501300955
20
7.69597437262950
30
0.000000000000000
11
-17.3774501300955
21
7.67440231645207
31
0.000000000000000
  0
LINE
  5
F10580
330
F10581
100
AcDbEntity
8
Geo
100
AcDbLine
10
-17.3774501300955
20
7.67440231645207
30
0.000000000000000
11
-17.2774501300955
21
7.65478732049477
31
0.000000000000000
  0
LINE
  5
F10582
330
F10583
100
AcDbEntity
8
Geo
100
AcDbLine
10
-17.2774501300955
20
7.65478732049477
30
0.000000000000000
11
-17.1774501300955
21
7.63713723049444
31
0.000000000000000
  0
LINE
  5
F10584
330
F10585
100
AcDbEntity
8
Geo
100
AcDbLine
10
-17.1774501300955
20
7.63713723049444
30
0.000000000000000
11
-17.0774501300955
21
7.62145910625175
31
0.000000000000000
  0
LINE
  5
F10586
330
F10587
100
AcDbEntity
8
Geo
100
AcDbLine
10
-17.0774501300955
20
7.62145910625175
30
0.000000000000000
11
-16.9774501300955
21
7.60775921880736
31
0.000000000000000
  0
LINE
  5
F10588
330
F10589
100
AcDbEntity
8
Geo
100
AcDbLine
10
-16.9774501300955
20
7.60775921880736
30
0.000000000000000
11
-16.8774501300955
21
7.59604304793359
31
0.000000000000000
  0
LINE
  5
F1058A
330
F1058B
100
AcDbEntity
8
Geo
100
AcDbLine
10
-16.8774501300955
20
7.59604304793359
30
0.000000000000000
11
-16.7774501300955
21
7.58631527994257
31
0.000000000000000
  0
LINE
  5
F1058C
330
F1058D
100
AcDbEntity
8
Geo
100
AcDbLine
10
-16.7774501300955
20
7.58631527994257
30
0.000000000000000
11
-16.6774501300955
21
7.57857980581180
31
0.000000000000000
  0
LINE
  5
F1058E
330
F1058F
100
AcDbEntity
8
Geo
100
AcDbLine
10
-16.6774501300955
20
7.57857980581180
30
0.000000000000000
11
-16.5774501300955
21
7.57283971962779
31
0.000000000000000
  0
LINE
  5
F10590
330
F10591
100
AcDbEntity
8
Geo
100
AcDbLine
10
-16.5774501300955
20
7.57283971962779
30
0.000000000000000
11
-16.4774501300955
21
7.56909731734848
31
0.000000000000000
  0
LINE
  5
F10592
330
F10593
100
AcDbEntity
8
Geo
100
AcDbLine
10
-16.4774501300955
20
7.56909731734848
30
0.000000000000000
11
-16.3774501300955
21
7.56735409588489
31
0.000000000000000
  0
LINE
  5
F10594
330
F10595
100
AcDbEntity
8
Geo
100
AcDbLine
10
-16.3774501300955
20
7.56735409588489
30
0.000000000000000
11
-16.3402827893483
21
7.56721595836949
31
0.000000000000000
  0
LINE
  5
F10596
330
F10597
100
AcDbEntity
8
Geo
100
AcDbLine
10
-30.4774501300954
20
11.0221309864948
30
0.000000000000000
11
-30.3774501300954
21
10.9273406818092
31
0.000000000000000
  0
LINE
  5
F10598
330
F10599
100
AcDbEntity
8
Geo
100
AcDbLine
10
-30.3774501300954
20
10.9273406818092
30
0.000000000000000
11
-30.2774501300954
21
10.8332063053695
31
0.000000000000000
  0
LINE
  5
F1059A
330
F1059B
100
AcDbEntity
8
Geo
100
AcDbLine
10
-30.2774501300954
20
10.8332063053695
30
0.000000000000000
11
-30.1774501300954
21
10.7397655096712
31
0.000000000000000
  0
LINE
  5
F1059C
330
F1059D
100
AcDbEntity
8
Geo
100
AcDbLine
10
-30.1774501300954
20
10.7397655096712
30
0.000000000000000
11
-30.0774501300954
21
10.6470556697867
31
0.000000000000000
  0
LINE
  5
F1059E
330
F1059F
100
AcDbEntity
8
Geo
100
AcDbLine
10
-30.0774501300954
20
10.6470556697867
30
0.000000000000000
11
-29.9774501300954
21
10.5551138684158
31
0.000000000000000
  0
LINE
  5
F105A0
330
F105A1
100
AcDbEntity
8
Geo
100
AcDbLine
10
-29.9774501300954
20
10.5551138684158
30
0.000000000000000
11
-29.8774501300954
21
10.4639768810532
31
0.000000000000000
  0
LINE
  5
F105A2
330
F105A3
100
AcDbEntity
8
Geo
100
AcDbLine
10
-29.8774501300954
20
10.4639768810532
30
0.000000000000000
11
-29.7774501300954
21
10.3736811612788
31
0.000000000000000
  0
LINE
  5
F105A4
330
F105A5
100
AcDbEntity
8
Geo
100
AcDbLine
10
-29.7774501300954
20
10.3736811612788
30
0.000000000000000
11
-29.6774501300954
21
10.2842628261764
31
0.000000000000000
  0
LINE
  5
F105A6
330
F105A7
100
AcDbEntity
8
Geo
100
AcDbLine
10
-29.6774501300954
20
10.2842628261764
30
0.000000000000000
11
-29.5774501300954
21
10.1957576418880
31
0.000000000000000
  0
LINE
  5
F105A8
330
F105A9
100
AcDbEntity
8
Geo
100
AcDbLine
10
-29.5774501300954
20
10.1957576418880
30
0.000000000000000
11
-29.4774501300954
21
10.1082010093071
31
0.000000000000000
  0
LINE
  5
F105AA
330
F105AB
100
AcDbEntity
8
Geo
100
AcDbLine
10
-29.4774501300954
20
10.1082010093071
30
0.000000000000000
11
-29.3774501300954
21
10.0216279499194
31
0.000000000000000
  0
LINE
  5
F105AC
330
F105AD
100
AcDbEntity
8
Geo
100
AcDbLine
10
-29.3774501300954
20
10.0216279499194
30
0.000000000000000
11
-29.2774501300954
21
9.93607309179440
31
0.000000000000000
  0
LINE
  5
F105AE
330
F105AF
100
AcDbEntity
8
Geo
100
AcDbLine
10
-29.2774501300954
20
9.93607309179440
30
0.000000000000000
11
-29.1774501300954
21
9.85157065573457
31
0.000000000000000
  0
LINE
  5
F105B0
330
F105B1
100
AcDbEntity
8
Geo
100
AcDbLine
10
-29.1774501300954
20
9.85157065573457
30
0.000000000000000
11
-29.0774501300954
21
9.76815444158767
31
0.000000000000000
  0
LINE
  5
F105B2
330
F105B3
100
AcDbEntity
8
Geo
100
AcDbLine
10
-29.0774501300954
20
9.76815444158767
30
0.000000000000000
11
-28.9774501300954
21
9.68585781472717
31
0.000000000000000
  0
LINE
  5
F105B4
330
F105B5
100
AcDbEntity
8
Geo
100
AcDbLine
10
-28.9774501300954
20
9.68585781472717
30
0.000000000000000
11
-28.8774501300954
21
9.60471369270653
31
0.000000000000000
  0
LINE
  5
F105B6
330
F105B7
100
AcDbEntity
8
Geo
100
AcDbLine
10
-28.8774501300954
20
9.60471369270653
30
0.000000000000000
11
-28.7774501300954
21
9.52475453209264
31
0.000000000000000
  0
LINE
  5
F105B8
330
F105B9
100
AcDbEntity
8
Geo
100
AcDbLine
10
-28.7774501300954
20
9.52475453209264
30
0.000000000000000
11
-28.6774501300954
21
9.44601231548366
31
0.000000000000000
  0
LINE
  5
F105BA
330
F105BB
100
AcDbEntity
8
Geo
100
AcDbLine
10
-28.6774501300954
20
9.44601231548366
30
0.000000000000000
11
-28.5774501300954
21
9.36851853871634
31
0.000000000000000
  0
LINE
  5
F105BC
330
F105BD
100
AcDbEntity
8
Geo
100
AcDbLine
10
-28.5774501300954
20
9.36851853871634
30
0.000000000000000
11
-28.4774501300954
21
9.29230419826814
31
0.000000000000000
  0
LINE
  5
F105BE
330
F105BF
100
AcDbEntity
8
Geo
100
AcDbLine
10
-28.4774501300954
20
9.29230419826814
30
0.000000000000000
11
-28.3774501300954
21
9.21739977885909
31
0.000000000000000
  0
LINE
  5
F105C0
330
F105C1
100
AcDbEntity
8
Geo
100
AcDbLine
10
-28.3774501300954
20
9.21739977885909
30
0.000000000000000
11
-28.2774501300954
21
9.14383524125821
31
0.000000000000000
  0
LINE
  5
F105C2
330
F105C3
100
AcDbEntity
8
Geo
100
AcDbLine
10
-28.2774501300954
20
9.14383524125821
30
0.000000000000000
11
-28.1774501300954
21
9.07164001029971
31
0.000000000000000
  0
LINE
  5
F105C4
330
F105C5
100
AcDbEntity
8
Geo
100
AcDbLine
10
-28.1774501300954
20
9.07164001029971
30
0.000000000000000
11
-28.0774501300954
21
9.00084296311338
31
0.000000000000000
  0
LINE
  5
F105C6
330
F105C7
100
AcDbEntity
8
Geo
100
AcDbLine
10
-28.0774501300954
20
9.00084296311338
30
0.000000000000000
11
-27.9774501300954
21
8.93147241757415
31
0.000000000000000
  0
LINE
  5
F105C8
330
F105C9
100
AcDbEntity
8
Geo
100
AcDbLine
10
-27.9774501300954
20
8.93147241757415
30
0.000000000000000
11
-27.8774501300954
21
8.86355612097530
31
0.000000000000000
  0
LINE
  5
F105CA
330
F105CB
100
AcDbEntity
8
Geo
100
AcDbLine
10
-27.8774501300954
20
8.86355612097530
30
0.000000000000000
11
-27.7774501300954
21
8.79712123892994
31
0.000000000000000
  0
LINE
  5
F105CC
330
F105CD
100
AcDbEntity
8
Geo
100
AcDbLine
10
-27.7774501300954
20
8.79712123892994
30
0.000000000000000
11
-27.6774501300954
21
8.73219434450509
31
0.000000000000000
  0
LINE
  5
F105CE
330
F105CF
100
AcDbEntity
8
Geo
100
AcDbLine
10
-27.6774501300954
20
8.73219434450509
30
0.000000000000000
11
-27.5774501300954
21
8.66880140759285
31
0.000000000000000
  0
LINE
  5
F105D0
330
F105D1
100
AcDbEntity
8
Geo
100
AcDbLine
10
-27.5774501300954
20
8.66880140759285
30
0.000000000000000
11
-27.4774501300954
21
8.60696778452276
31
0.000000000000000
  0
LINE
  5
F105D2
330
F105D3
100
AcDbEntity
8
Geo
100
AcDbLine
10
-27.4774501300954
20
8.60696778452276
30
0.000000000000000
11
-27.3774501300954
21
8.54671820791959
31
0.000000000000000
  0
LINE
  5
F105D4
330
F105D5
100
AcDbEntity
8
Geo
100
AcDbLine
10
-27.3774501300954
20
8.54671820791959
30
0.000000000000000
11
-27.2774501300954
21
8.48807677681069
31
0.000000000000000
  0
LINE
  5
F105D6
330
F105D7
100
AcDbEntity
8
Geo
100
AcDbLine
10
-27.2774501300954
20
8.48807677681069
30
0.000000000000000
11
-27.1774501300954
21
8.43106694698661
31
0.000000000000000
  0
LINE
  5
F105D8
330
F105D9
100
AcDbEntity
8
Geo
100
AcDbLine
10
-27.1774501300954
20
8.43106694698661
30
0.000000000000000
11
-27.0774501300954
21
8.37571152161916
31
0.000000000000000
  0
LINE
  5
F105DA
330
F105DB
100
AcDbEntity
8
Geo
100
AcDbLine
10
-27.0774501300954
20
8.37571152161916
30
0.000000000000000
11
-26.9774501300954
21
8.32203264214044
31
0.000000000000000
  0
LINE
  5
F105DC
330
F105DD
100
AcDbEntity
8
Geo
100
AcDbLine
10
-26.9774501300954
20
8.32203264214044
30
0.000000000000000
11
-26.8774501300954
21
8.27005177938651
31
0.000000000000000
  0
LINE
  5
F105DE
330
F105DF
100
AcDbEntity
8
Geo
100
AcDbLine
10
-26.8774501300954
20
8.27005177938651
30
0.000000000000000
11
-26.7774501300954
21
8.21978972500943
31
0.000000000000000
  0
LINE
  5
F105E0
330
F105E1
100
AcDbEntity
8
Geo
100
AcDbLine
10
-26.7774501300954
20
8.21978972500943
30
0.000000000000000
11
-26.6774501300954
21
8.17126658316077
31
0.000000000000000
  0
LINE
  5
F105E2
330
F105E3
100
AcDbEntity
8
Geo
100
AcDbLine
10
-26.6774501300954
20
8.17126658316077
30
0.000000000000000
11
-26.5774501300954
21
8.12450176245032
31
0.000000000000000
  0
LINE
  5
F105E4
330
F105E5
100
AcDbEntity
8
Geo
100
AcDbLine
10
-26.5774501300954
20
8.12450176245032
30
0.000000000000000
11
-26.4774501300954
21
8.07951396818284
31
0.000000000000000
  0
LINE
  5
F105E6
330
F105E7
100
AcDbEntity
8
Geo
100
AcDbLine
10
-26.4774501300954
20
8.07951396818284
30
0.000000000000000
11
-26.3774501300954
21
8.03632119487621
31
0.000000000000000
  0
LINE
  5
F105E8
330
F105E9
100
AcDbEntity
8
Geo
100
AcDbLine
10
-26.3774501300954
20
8.03632119487621
30
0.000000000000000
11
-26.2774501300954
21
7.99494071906385
31
0.000000000000000
  0
LINE
  5
F105EA
330
F105EB
100
AcDbEntity
8
Geo
100
AcDbLine
10
-26.2774501300954
20
7.99494071906385
30
0.000000000000000
11
-26.1774501300954
21
7.95538909238435
31
0.000000000000000
  0
LINE
  5
F105EC
330
F105ED
100
AcDbEntity
8
Geo
100
AcDbLine
10
-26.1774501300954
20
7.95538909238435
30
0.000000000000000
11
-26.0774501300954
21
7.91768213496105
31
0.000000000000000
  0
LINE
  5
F105EE
330
F105EF
100
AcDbEntity
8
Geo
100
AcDbLine
10
-26.0774501300954
20
7.91768213496105
30
0.000000000000000
11
-25.9774501300954
21
7.88183492907415
31
0.000000000000000
  0
LINE
  5
F105F0
330
F105F1
100
AcDbEntity
8
Geo
100
AcDbLine
10
-25.9774501300954
20
7.88183492907415
30
0.000000000000000
11
-25.8774501300954
21
7.84786181312805
31
0.000000000000000
  0
LINE
  5
F105F2
330
F105F3
100
AcDbEntity
8
Geo
100
AcDbLine
10
-25.8774501300954
20
7.84786181312805
30
0.000000000000000
11
-25.7774501300954
21
7.81577637591617
31
0.000000000000000
  0
LINE
  5
F105F4
330
F105F5
100
AcDbEntity
8
Geo
100
AcDbLine
10
-25.7774501300954
20
7.81577637591617
30
0.000000000000000
11
-25.6774501300954
21
7.78559145118558
31
0.000000000000000
  0
LINE
  5
F105F6
330
F105F7
100
AcDbEntity
8
Geo
100
AcDbLine
10
-25.6774501300954
20
7.78559145118558
30
0.000000000000000
11
-25.5774501300954
21
7.75731911250373
31
0.000000000000000
  0
LINE
  5
F105F8
330
F105F9
100
AcDbEntity
8
Geo
100
AcDbLine
10
-25.5774501300954
20
7.75731911250373
30
0.000000000000000
11
-25.4774501300954
21
7.73097066842911
31
0.000000000000000
  0
LINE
  5
F105FA
330
F105FB
100
AcDbEntity
8
Geo
100
AcDbLine
10
-25.4774501300954
20
7.73097066842911
30
0.000000000000000
11
-25.3774501300954
21
7.70655665798807
31
0.000000000000000
  0
LINE
  5
F105FC
330
F105FD
100
AcDbEntity
8
Geo
100
AcDbLine
10
-25.3774501300954
20
7.70655665798807
30
0.000000000000000
11
-25.2774501300954
21
7.68408684645925
31
0.000000000000000
  0
LINE
  5
F105FE
330
F105FF
100
AcDbEntity
8
Geo
100
AcDbLine
10
-25.2774501300954
20
7.68408684645925
30
0.000000000000000
11
-25.1774501300954
21
7.66357022146767
31
0.000000000000000
  0
LINE
  5
F10600
330
F10601
100
AcDbEntity
8
Geo
100
AcDbLine
10
-25.1774501300954
20
7.66357022146767
30
0.000000000000000
11
-25.0774501300954
21
7.64501498938978
31
0.000000000000000
  0
LINE
  5
F10602
330
F10603
100
AcDbEntity
8
Geo
100
AcDbLine
10
-25.0774501300954
20
7.64501498938978
30
0.000000000000000
11
-24.9774501300954
21
7.62842857207102
31
0.000000000000000
  0
LINE
  5
F10604
330
F10605
100
AcDbEntity
8
Geo
100
AcDbLine
10
-24.9774501300954
20
7.62842857207102
30
0.000000000000000
11
-24.8774501300954
21
7.61381760385715
31
0.000000000000000
  0
LINE
  5
F10606
330
F10607
100
AcDbEntity
8
Geo
100
AcDbLine
10
-24.8774501300954
20
7.61381760385715
30
0.000000000000000
11
-24.7774501300954
21
7.60118792894066
31
0.000000000000000
  0
LINE
  5
F10608
330
F10609
100
AcDbEntity
8
Geo
100
AcDbLine
10
-24.7774501300954
20
7.60118792894066
30
0.000000000000000
11
-24.6774501300954
21
7.59054459902311
31
0.000000000000000
  0
LINE
  5
F1060A
330
F1060B
100
AcDbEntity
8
Geo
100
AcDbLine
10
-24.6774501300954
20
7.59054459902311
30
0.000000000000000
11
-24.5774501300954
21
7.58189187129457
31
0.000000000000000
  0
LINE
  5
F1060C
330
F1060D
100
AcDbEntity
8
Geo
100
AcDbLine
10
-24.5774501300954
20
7.58189187129457
30
0.000000000000000
11
-24.4774501300954
21
7.57523320673076
31
0.000000000000000
  0
LINE
  5
F1060E
330
F1060F
100
AcDbEntity
8
Geo
100
AcDbLine
10
-24.4774501300954
20
7.57523320673076
30
0.000000000000000
11
-24.3774501300954
21
7.57057126870872
31
0.000000000000000
  0
LINE
  5
F10610
330
F10611
100
AcDbEntity
8
Geo
100
AcDbLine
10
-24.3774501300954
20
7.57057126870872
30
0.000000000000000
11
-24.2774501300954
21
7.56790792194150
31
0.000000000000000
  0
LINE
  5
F10612
330
F10613
100
AcDbEntity
8
Geo
100
AcDbLine
10
-24.2774501300954
20
7.56790792194150
30
0.000000000000000
11
-24.1942654418304
21
7.56721595836949
31
0.000000000000000
  0
LINE
  5
F10614
330
F10615
100
AcDbEntity
8
Geo
100
AcDbLine
10
-16.3402827893482
20
17.5672159583695
30
0.000000000000000
11
-16.2774501300955
21
17.5668211642366
31
0.000000000000000
  0
LINE
  5
F10616
330
F10617
100
AcDbEntity
8
Geo
100
AcDbLine
10
-16.2774501300955
20
17.5668211642366
30
0.000000000000000
11
-16.1774501300955
21
17.5645647321973
31
0.000000000000000
  0
LINE
  5
F10618
330
F10619
100
AcDbEntity
8
Geo
100
AcDbLine
10
-16.1774501300955
20
17.5645647321973
30
0.000000000000000
11
-16.0774501300955
21
17.5603094272789
31
0.000000000000000
  0
LINE
  5
F1061A
330
F1061B
100
AcDbEntity
8
Geo
100
AcDbLine
10
-16.0774501300955
20
17.5603094272789
30
0.000000000000000
11
-15.9774501300955
21
17.5540569515466
31
0.000000000000000
  0
LINE
  5
F1061C
330
F1061D
100
AcDbEntity
8
Geo
100
AcDbLine
10
-15.9774501300955
20
17.5540569515466
30
0.000000000000000
11
-15.8774501300955
21
17.5458098059074
31
0.000000000000000
  0
LINE
  5
F1061E
330
F1061F
100
AcDbEntity
8
Geo
100
AcDbLine
10
-15.8774501300955
20
17.5458098059074
30
0.000000000000000
11
-15.7774501300955
21
17.5355712891096
31
0.000000000000000
  0
LINE
  5
F10620
330
F10621
100
AcDbEntity
8
Geo
100
AcDbLine
10
-15.7774501300955
20
17.5355712891096
30
0.000000000000000
11
-15.6774501300955
21
17.5233454964233
31
0.000000000000000
  0
LINE
  5
F10622
330
F10623
100
AcDbEntity
8
Geo
100
AcDbLine
10
-15.6774501300955
20
17.5233454964233
30
0.000000000000000
11
-15.5774501300955
21
17.5091373180026
31
0.000000000000000
  0
LINE
  5
F10624
330
F10625
100
AcDbEntity
8
Geo
100
AcDbLine
10
-15.5774501300955
20
17.5091373180026
30
0.000000000000000
11
-15.4774501300955
21
17.4929524369294
31
0.000000000000000
  0
LINE
  5
F10626
330
F10627
100
AcDbEntity
8
Geo
100
AcDbLine
10
-15.4774501300955
20
17.4929524369294
30
0.000000000000000
11
-15.3774501300955
21
17.4747973269405
31
0.000000000000000
  0
LINE
  5
F10628
330
F10629
100
AcDbEntity
8
Geo
100
AcDbLine
10
-15.3774501300955
20
17.4747973269405
30
0.000000000000000
11
-15.2774501300955
21
17.4546792498377
31
0.000000000000000
  0
LINE
  5
F1062A
330
F1062B
100
AcDbEntity
8
Geo
100
AcDbLine
10
-15.2774501300955
20
17.4546792498377
30
0.000000000000000
11
-15.1774501300955
21
17.4326062525836
31
0.000000000000000
  0
LINE
  5
F1062C
330
F1062D
100
AcDbEntity
8
Geo
100
AcDbLine
10
-15.1774501300955
20
17.4326062525836
30
0.000000000000000
11
-15.0774501300955
21
17.4085871640828
31
0.000000000000000
  0
LINE
  5
F1062E
330
F1062F
100
AcDbEntity
8
Geo
100
AcDbLine
10
-15.0774501300955
20
17.4085871640828
30
0.000000000000000
11
-14.9774501300955
21
17.3826315916505
31
0.000000000000000
  0
LINE
  5
F10630
330
F10631
100
AcDbEntity
8
Geo
100
AcDbLine
10
-14.9774501300955
20
17.3826315916505
30
0.000000000000000
11
-14.8774501300955
21
17.3547499171695
31
0.000000000000000
  0
LINE
  5
F10632
330
F10633
100
AcDbEntity
8
Geo
100
AcDbLine
10
-14.8774501300955
20
17.3547499171695
30
0.000000000000000
11
-14.7774501300955
21
17.3249532929380
31
0.000000000000000
  0
LINE
  5
F10634
330
F10635
100
AcDbEntity
8
Geo
100
AcDbLine
10
-14.7774501300955
20
17.3249532929380
30
0.000000000000000
11
-14.6774501300955
21
17.2932536372083
31
0.000000000000000
  0
LINE
  5
F10636
330
F10637
100
AcDbEntity
8
Geo
100
AcDbLine
10
-14.6774501300955
20
17.2932536372083
30
0.000000000000000
11
-14.5774501300955
21
17.2596636294201
31
0.000000000000000
  0
LINE
  5
F10638
330
F10639
100
AcDbEntity
8
Geo
100
AcDbLine
10
-14.5774501300955
20
17.2596636294201
30
0.000000000000000
11
-14.4774501300955
21
17.2241967051285
31
0.000000000000000
  0
LINE
  5
F1063A
330
F1063B
100
AcDbEntity
8
Geo
100
AcDbLine
10
-14.4774501300955
20
17.2241967051285
30
0.000000000000000
11
-14.3774501300955
21
17.1868670506306
31
0.000000000000000
  0
LINE
  5
F1063C
330
F1063D
100
AcDbEntity
8
Geo
100
AcDbLine
10
-14.3774501300955
20
17.1868670506306
30
0.000000000000000
11
-14.2774501300955
21
17.1476895972902
31
0.000000000000000
  0
LINE
  5
F1063E
330
F1063F
100
AcDbEntity
8
Geo
100
AcDbLine
10
-14.2774501300955
20
17.1476895972902
30
0.000000000000000
11
-14.1774501300955
21
17.1066800155664
31
0.000000000000000
  0
LINE
  5
F10640
330
F10641
100
AcDbEntity
8
Geo
100
AcDbLine
10
-14.1774501300955
20
17.1066800155664
30
0.000000000000000
11
-14.0774501300955
21
17.0638547087452
31
0.000000000000000
  0
LINE
  5
F10642
330
F10643
100
AcDbEntity
8
Geo
100
AcDbLine
10
-14.0774501300955
20
17.0638547087452
30
0.000000000000000
11
-13.9774501300955
21
17.0192308063782
31
0.000000000000000
  0
LINE
  5
F10644
330
F10645
100
AcDbEntity
8
Geo
100
AcDbLine
10
-13.9774501300955
20
17.0192308063782
30
0.000000000000000
11
-13.8774501300955
21
16.9728261574313
31
0.000000000000000
  0
LINE
  5
F10646
330
F10647
100
AcDbEntity
8
Geo
100
AcDbLine
10
-13.8774501300955
20
16.9728261574313
30
0.000000000000000
11
-13.7774501300955
21
16.9246593231456
31
0.000000000000000
  0
LINE
  5
F10648
330
F10649
100
AcDbEntity
8
Geo
100
AcDbLine
10
-13.7774501300955
20
16.9246593231456
30
0.000000000000000
11
-13.6774501300955
21
16.8747495696124
31
0.000000000000000
  0
LINE
  5
F1064A
330
F1064B
100
AcDbEntity
8
Geo
100
AcDbLine
10
-13.6774501300955
20
16.8747495696124
30
0.000000000000000
11
-13.5774501300955
21
16.8231168600677
31
0.000000000000000
  0
LINE
  5
F1064C
330
F1064D
100
AcDbEntity
8
Geo
100
AcDbLine
10
-13.5774501300955
20
16.8231168600677
30
0.000000000000000
11
-13.4774501300955
21
16.7697818469069
31
0.000000000000000
  0
LINE
  5
F1064E
330
F1064F
100
AcDbEntity
8
Geo
100
AcDbLine
10
-13.4774501300955
20
16.7697818469069
30
0.000000000000000
11
-13.3774501300955
21
16.7147658634242
31
0.000000000000000
  0
LINE
  5
F10650
330
F10651
100
AcDbEntity
8
Geo
100
AcDbLine
10
-13.3774501300955
20
16.7147658634242
30
0.000000000000000
11
-13.2774501300955
21
16.6580909152794
31
0.000000000000000
  0
LINE
  5
F10652
330
F10653
100
AcDbEntity
8
Geo
100
AcDbLine
10
-13.2774501300955
20
16.6580909152794
30
0.000000000000000
11
-13.1774501300955
21
16.5997796716961
31
0.000000000000000
  0
LINE
  5
F10654
330
F10655
100
AcDbEntity
8
Geo
100
AcDbLine
10
-13.1774501300955
20
16.5997796716961
30
0.000000000000000
11
-13.0774501300955
21
16.5398554563942
31
0.000000000000000
  0
LINE
  5
F10656
330
F10657
100
AcDbEntity
8
Geo
100
AcDbLine
10
-13.0774501300955
20
16.5398554563942
30
0.000000000000000
11
-12.9774501300955
21
16.4783422382610
31
0.000000000000000
  0
LINE
  5
F10658
330
F10659
100
AcDbEntity
8
Geo
100
AcDbLine
10
-12.9774501300955
20
16.4783422382610
30
0.000000000000000
11
-12.8774501300955
21
16.4152646217634
31
0.000000000000000
  0
LINE
  5
F1065A
330
F1065B
100
AcDbEntity
8
Geo
100
AcDbLine
10
-12.8774501300955
20
16.4152646217634
30
0.000000000000000
11
-12.7774501300955
21
16.3506478371072
31
0.000000000000000
  0
LINE
  5
F1065C
330
F1065D
100
AcDbEntity
8
Geo
100
AcDbLine
10
-12.7774501300955
20
16.3506478371072
30
0.000000000000000
11
-12.6774501300955
21
16.2845177301445
31
0.000000000000000
  0
LINE
  5
F1065E
330
F1065F
100
AcDbEntity
8
Geo
100
AcDbLine
10
-12.6774501300955
20
16.2845177301445
30
0.000000000000000
11
-12.5774501300954
21
16.2169007520365
31
0.000000000000000
  0
LINE
  5
F10660
330
F10661
100
AcDbEntity
8
Geo
100
AcDbLine
10
-12.5774501300954
20
16.2169007520365
30
0.000000000000000
11
-12.4774501300954
21
16.1478239486728
31
0.000000000000000
  0
LINE
  5
F10662
330
F10663
100
AcDbEntity
8
Geo
100
AcDbLine
10
-12.4774501300954
20
16.1478239486728
30
0.000000000000000
11
-12.3774501300954
21
16.0773149498539
31
0.000000000000000
  0
LINE
  5
F10664
330
F10665
100
AcDbEntity
8
Geo
100
AcDbLine
10
-12.3774501300954
20
16.0773149498539
30
0.000000000000000
11
-12.2774501300954
21
16.0054019582390
31
0.000000000000000
  0
LINE
  5
F10666
330
F10667
100
AcDbEntity
8
Geo
100
AcDbLine
10
-12.2774501300954
20
16.0054019582390
30
0.000000000000000
11
-12.1774501300954
21
15.9321137380660
31
0.000000000000000
  0
LINE
  5
F10668
330
F10669
100
AcDbEntity
8
Geo
100
AcDbLine
10
-12.1774501300954
20
15.9321137380660
30
0.000000000000000
11
-12.0774501300954
21
15.8574796036459
31
0.000000000000000
  0
LINE
  5
F1066A
330
F1066B
100
AcDbEntity
8
Geo
100
AcDbLine
10
-12.0774501300954
20
15.8574796036459
30
0.000000000000000
11
-11.9774501300954
21
15.7815294076372
31
0.000000000000000
  0
LINE
  5
F1066C
330
F1066D
100
AcDbEntity
8
Geo
100
AcDbLine
10
-11.9774501300954
20
15.7815294076372
30
0.000000000000000
11
-11.8774501300954
21
15.7042935291058
31
0.000000000000000
  0
LINE
  5
F1066E
330
F1066F
100
AcDbEntity
8
Geo
100
AcDbLine
10
-11.8774501300954
20
15.7042935291058
30
0.000000000000000
11
-11.7774501300954
21
15.6258028613732
31
0.000000000000000
  0
LINE
  5
F10670
330
F10671
100
AcDbEntity
8
Geo
100
AcDbLine
10
-11.7774501300954
20
15.6258028613732
30
0.000000000000000
11
-11.6774501300954
21
15.5460887996601
31
0.000000000000000
  0
LINE
  5
F10672
330
F10673
100
AcDbEntity
8
Geo
100
AcDbLine
10
-11.6774501300954
20
15.5460887996601
30
0.000000000000000
11
-11.5774501300954
21
15.4651832285282
31
0.000000000000000
  0
LINE
  5
F10674
330
F10675
100
AcDbEntity
8
Geo
100
AcDbLine
10
-11.5774501300954
20
15.4651832285282
30
0.000000000000000
11
-11.4774501300954
21
15.3831185091273
31
0.000000000000000
  0
LINE
  5
F10676
330
F10677
100
AcDbEntity
8
Geo
100
AcDbLine
10
-11.4774501300954
20
15.3831185091273
30
0.000000000000000
11
-11.3774501300954
21
15.2999274662509
31
0.000000000000000
  0
LINE
  5
F10678
330
F10679
100
AcDbEntity
8
Geo
100
AcDbLine
10
-11.3774501300954
20
15.2999274662509
30
0.000000000000000
11
-11.2774501300954
21
15.2156433752071
31
0.000000000000000
  0
LINE
  5
F1067A
330
F1067B
100
AcDbEntity
8
Geo
100
AcDbLine
10
-11.2774501300954
20
15.2156433752071
30
0.000000000000000
11
-11.1774501300954
21
15.1302999485084
31
0.000000000000000
  0
LINE
  5
F1067C
330
F1067D
100
AcDbEntity
8
Geo
100
AcDbLine
10
-11.1774501300954
20
15.1302999485084
30
0.000000000000000
11
-11.0774501300954
21
15.0439313223877
31
0.000000000000000
  0
LINE
  5
F1067E
330
F1067F
100
AcDbEntity
8
Geo
100
AcDbLine
10
-11.0774501300954
20
15.0439313223877
30
0.000000000000000
11
-10.9774501300954
21
14.9565720431438
31
0.000000000000000
  0
LINE
  5
F10680
330
F10681
100
AcDbEntity
8
Geo
100
AcDbLine
10
-10.9774501300954
20
14.9565720431438
30
0.000000000000000
11
-10.8774501300954
21
14.8682570533236
31
0.000000000000000
  0
LINE
  5
F10682
330
F10683
100
AcDbEntity
8
Geo
100
AcDbLine
10
-10.8774501300954
20
14.8682570533236
30
0.000000000000000
11
-10.7774501300954
21
14.7790216777456
31
0.000000000000000
  0
LINE
  5
F10684
330
F10685
100
AcDbEntity
8
Geo
100
AcDbLine
10
-10.7774501300954
20
14.7790216777456
30
0.000000000000000
11
-10.6774501300954
21
14.6889016093702
31
0.000000000000000
  0
LINE
  5
F10686
330
F10687
100
AcDbEntity
8
Geo
100
AcDbLine
10
-10.6774501300954
20
14.6889016093702
30
0.000000000000000
11
-10.5774501300954
21
14.5979328950232
31
0.000000000000000
  0
LINE
  5
F10688
330
F10689
100
AcDbEntity
8
Geo
100
AcDbLine
10
-8.50055701384357
20
7.56721595836949
30
0.000000000000000
11
-8.57745013009539
21
7.56785573346419
31
0.000000000000000
  0
LINE
  5
F1068A
330
F1068B
100
AcDbEntity
8
Geo
100
AcDbLine
10
-8.57745013009539
20
7.56785573346419
30
0.000000000000000
11
-8.67745013009539
21
7.57056737850099
31
0.000000000000000
  0
LINE
  5
F1068C
330
F1068D
100
AcDbEntity
8
Geo
100
AcDbLine
10
-8.67745013009539
20
7.57056737850099
30
0.000000000000000
11
-8.77745013009540
21
7.57536031035836
31
0.000000000000000
  0
LINE
  5
F1068E
330
F1068F
100
AcDbEntity
8
Geo
100
AcDbLine
10
-8.77745013009540
20
7.57536031035836
30
0.000000000000000
11
-8.87745013009540
21
7.58219838595868
31
0.000000000000000
  0
LINE
  5
F10690
330
F10691
100
AcDbEntity
8
Geo
100
AcDbLine
10
-8.87745013009540
20
7.58219838595868
30
0.000000000000000
11
-8.97745013009540
21
7.59105495165155
31
0.000000000000000
  0
LINE
  5
F10692
330
F10693
100
AcDbEntity
8
Geo
100
AcDbLine
10
-8.97745013009540
20
7.59105495165155
30
0.000000000000000
11
-9.07745013009540
21
7.60191053685558
31
0.000000000000000
  0
LINE
  5
F10694
330
F10695
100
AcDbEntity
8
Geo
100
AcDbLine
10
-9.07745013009540
20
7.60191053685558
30
0.000000000000000
11
-9.17745013009540
21
7.61475091693814
31
0.000000000000000
  0
LINE
  5
F10696
330
F10697
100
AcDbEntity
8
Geo
100
AcDbLine
10
-9.17745013009540
20
7.61475091693814
30
0.000000000000000
11
-9.27745013009540
21
7.62956550522175
31
0.000000000000000
  0
LINE
  5
F10698
330
F10699
100
AcDbEntity
8
Geo
100
AcDbLine
10
-9.27745013009540
20
7.62956550522175
30
0.000000000000000
11
-9.37745013009540
21
7.64634603855922
31
0.000000000000000
  0
LINE
  5
F1069A
330
F1069B
100
AcDbEntity
8
Geo
100
AcDbLine
10
-9.37745013009540
20
7.64634603855922
30
0.000000000000000
11
-9.47745013009541
21
7.66508552433804
31
0.000000000000000
  0
LINE
  5
F1069C
330
F1069D
100
AcDbEntity
8
Geo
100
AcDbLine
10
-9.47745013009541
20
7.66508552433804
30
0.000000000000000
11
-9.57745013009541
21
7.68577741926454
31
0.000000000000000
  0
LINE
  5
F1069E
330
F1069F
100
AcDbEntity
8
Geo
100
AcDbLine
10
-9.57745013009541
20
7.68577741926454
30
0.000000000000000
11
-9.67745013009541
21
7.70841501203469
31
0.000000000000000
  0
LINE
  5
F106A0
330
F106A1
100
AcDbEntity
8
Geo
100
AcDbLine
10
-9.67745013009541
20
7.70841501203469
30
0.000000000000000
11
-9.77745013009541
21
7.73299098319352
31
0.000000000000000
  0
LINE
  5
F106A2
330
F106A3
100
AcDbEntity
8
Geo
100
AcDbLine
10
-9.77745013009541
20
7.73299098319352
30
0.000000000000000
11
-9.87745013009541
21
7.75949711627197
31
0.000000000000000
  0
LINE
  5
F106A4
330
F106A5
100
AcDbEntity
8
Geo
100
AcDbLine
10
-9.87745013009541
20
7.75949711627197
30
0.000000000000000
11
-9.97745013009541
21
7.78792413479794
31
0.000000000000000
  0
LINE
  5
F106A6
330
F106A7
100
AcDbEntity
8
Geo
100
AcDbLine
10
-9.97745013009541
20
7.78792413479794
30
0.000000000000000
11
-10.0774501300954
21
7.81826164011595
31
0.000000000000000
  0
LINE
  5
F106A8
330
F106A9
100
AcDbEntity
8
Geo
100
AcDbLine
10
-10.0774501300954
20
7.81826164011595
30
0.000000000000000
11
-10.1774501300954
21
7.85049812520366
31
0.000000000000000
  0
LINE
  5
F106AA
330
F106AB
100
AcDbEntity
8
Geo
100
AcDbLine
10
-10.1774501300954
20
7.85049812520366
30
0.000000000000000
11
-10.2774501300954
21
7.88462103991116
31
0.000000000000000
  0
LINE
  5
F106AC
330
F106AD
100
AcDbEntity
8
Geo
100
AcDbLine
10
-10.2774501300954
20
7.88462103991116
30
0.000000000000000
11
-10.3774501300954
21
7.92061688331987
31
0.000000000000000
  0
LINE
  5
F106AE
330
F106AF
100
AcDbEntity
8
Geo
100
AcDbLine
10
-10.3774501300954
20
7.92061688331987
30
0.000000000000000
11
-10.5774501300954
21
7.99816915151931
31
0.000000000000000
  0
LINE
  5
F106B0
330
F106B1
100
AcDbEntity
8
Geo
100
AcDbLine
10
-6.86578631991369
20
17.5672159583695
30
0.000000000000000
11
-6.77745013009537
21
17.5666978274528
31
0.000000000000000
  0
LINE
  5
F106B2
330
F106B3
100
AcDbEntity
8
Geo
100
AcDbLine
10
-6.77745013009537
20
17.5666978274528
30
0.000000000000000
11
-6.67745013009537
21
17.5650533857378
31
0.000000000000000
  0
LINE
  5
F106B4
330
F106B5
100
AcDbEntity
8
Geo
100
AcDbLine
10
-6.67745013009537
20
17.5650533857378
30
0.000000000000000
11
-6.57745013009536
21
17.5626464118072
31
0.000000000000000
  0
LINE
  5
F106B6
330
F106B7
100
AcDbEntity
8
Geo
100
AcDbLine
10
-6.57745013009536
20
17.5626464118072
30
0.000000000000000
11
-6.47745013009536
21
17.5599459620629
31
0.000000000000000
  0
LINE
  5
F106B8
330
F106B9
100
AcDbEntity
8
Geo
100
AcDbLine
10
-6.47745013009536
20
17.5599459620629
30
0.000000000000000
11
-6.37745013009536
21
17.5575105732547
31
0.000000000000000
  0
LINE
  5
F106BA
330
F106BB
100
AcDbEntity
8
Geo
100
AcDbLine
10
-6.37745013009536
20
17.5575105732547
30
0.000000000000000
11
-6.27745013009536
21
17.5559544139159
31
0.000000000000000
  0
LINE
  5
F106BC
330
F106BD
100
AcDbEntity
8
Geo
100
AcDbLine
10
-6.27745013009536
20
17.5559544139159
30
0.000000000000000
11
-6.17745013009536
21
17.5558647159013
31
0.000000000000000
  0
LINE
  5
F106BE
330
F106BF
100
AcDbEntity
8
Geo
100
AcDbLine
10
-6.17745013009536
20
17.5558647159013
30
0.000000000000000
11
-6.07745013009536
21
17.5576359466136
31
0.000000000000000
  0
LINE
  5
F106C0
330
F106C1
100
AcDbEntity
8
Geo
100
AcDbLine
10
-6.07745013009536
20
17.5576359466136
30
0.000000000000000
11
-5.97745013009536
21
17.5611666695872
31
0.000000000000000
  0
LINE
  5
F106C2
330
F106C3
100
AcDbEntity
8
Geo
100
AcDbLine
10
-5.97745013009536
20
17.5611666695872
30
0.000000000000000
11
-5.87745013009535
21
17.5653361653302
31
0.000000000000000
  0
LINE
  5
F106C4
330
F106C5
100
AcDbEntity
8
Geo
100
AcDbLine
10
-5.87745013009535
20
17.5653361653302
30
0.000000000000000
11
-5.79449070802754
21
17.5672159583695
31
0.000000000000000
  0
LINE
  5
F106C6
330
F106C7
100
AcDbEntity
8
Geo
100
AcDbLine
10
-10.5774501300954
20
15.9104556451362
30
0.000000000000000
11
-10.3774501300954
21
15.7591052365728
31
0.000000000000000
  0
LINE
  5
F106C8
330
F106C9
100
AcDbEntity
8
Geo
100
AcDbLine
10
-10.3774501300954
20
15.7591052365728
30
0.000000000000000
11
-10.2774501300954
21
15.6814996973047
31
0.000000000000000
  0
LINE
  5
F106CA
330
F106CB
100
AcDbEntity
8
Geo
100
AcDbLine
10
-10.2774501300954
20
15.6814996973047
30
0.000000000000000
11
-10.1774501300954
21
15.6026484860642
31
0.000000000000000
  0
LINE
  5
F106CC
330
F106CD
100
AcDbEntity
8
Geo
100
AcDbLine
10
-10.1774501300954
20
15.6026484860642
30
0.000000000000000
11
-10.0774501300954
21
15.5225831422848
31
0.000000000000000
  0
LINE
  5
F106CE
330
F106CF
100
AcDbEntity
8
Geo
100
AcDbLine
10
-10.0774501300954
20
15.5225831422848
30
0.000000000000000
11
-9.97745013009541
21
15.4413356910378
31
0.000000000000000
  0
LINE
  5
F106D0
330
F106D1
100
AcDbEntity
8
Geo
100
AcDbLine
10
-9.97745013009541
20
15.4413356910378
30
0.000000000000000
11
-9.87745013009541
21
15.3589386302331
31
0.000000000000000
  0
LINE
  5
F106D2
330
F106D3
100
AcDbEntity
8
Geo
100
AcDbLine
10
-9.87745013009541
20
15.3589386302331
30
0.000000000000000
11
-9.77745013009541
21
15.2754249176647
31
0.000000000000000
  0
LINE
  5
F106D4
330
F106D5
100
AcDbEntity
8
Geo
100
AcDbLine
10
-9.77745013009541
20
15.2754249176647
30
0.000000000000000
11
-9.67745013009541
21
15.1908279579933
31
0.000000000000000
  0
LINE
  5
F106D6
330
F106D7
100
AcDbEntity
8
Geo
100
AcDbLine
10
-9.67745013009541
20
15.1908279579933
30
0.000000000000000
11
-9.57745013009541
21
15.1051815898883
31
0.000000000000000
  0
LINE
  5
F106D8
330
F106D9
100
AcDbEntity
8
Geo
100
AcDbLine
10
-9.57745013009541
20
15.1051815898883
30
0.000000000000000
11
-9.47745013009541
21
15.0185200738210
31
0.000000000000000
  0
LINE
  5
F106DA
330
F106DB
100
AcDbEntity
8
Geo
100
AcDbLine
10
-9.47745013009541
20
15.0185200738210
30
0.000000000000000
11
-9.37745013009540
21
14.9308780814994
31
0.000000000000000
  0
LINE
  5
F106DC
330
F106DD
100
AcDbEntity
8
Geo
100
AcDbLine
10
-9.37745013009540
20
14.9308780814994
30
0.000000000000000
11
-9.27745013009540
21
14.8422906887763
31
0.000000000000000
  0
LINE
  5
F106DE
330
F106DF
100
AcDbEntity
8
Geo
100
AcDbLine
10
-9.27745013009540
20
14.8422906887763
30
0.000000000000000
11
-9.17745013009540
21
14.7527933752244
31
0.000000000000000
  0
LINE
  5
F106E0
330
F106E1
100
AcDbEntity
8
Geo
100
AcDbLine
10
-9.17745013009540
20
14.7527933752244
30
0.000000000000000
11
-9.07745013009540
21
14.6624220356486
31
0.000000000000000
  0
LINE
  5
F106E2
330
F106E3
100
AcDbEntity
8
Geo
100
AcDbLine
10
-9.07745013009540
20
14.6624220356486
30
0.000000000000000
11
-8.97745013009540
21
14.5712130118605
31
0.000000000000000
  0
LINE
  5
F106E4
330
F106E5
100
AcDbEntity
8
Geo
100
AcDbLine
10
-8.97745013009540
20
14.5712130118605
30
0.000000000000000
11
-8.87745013009540
21
14.4792031573822
31
0.000000000000000
  0
LINE
  5
F106E6
330
F106E7
100
AcDbEntity
8
Geo
100
AcDbLine
10
-8.87745013009540
20
14.4792031573822
30
0.000000000000000
11
-8.77745013009540
21
14.3864299537360
31
0.000000000000000
  0
LINE
  5
F106E8
330
F106E9
100
AcDbEntity
8
Geo
100
AcDbLine
10
-8.77745013009540
20
14.3864299537360
30
0.000000000000000
11
-8.67745013009539
21
14.2929317050423
31
0.000000000000000
  0
LINE
  5
F106EA
330
F106EB
100
AcDbEntity
8
Geo
100
AcDbLine
10
-8.67745013009539
20
14.2929317050423
30
0.000000000000000
11
-8.57745013009539
21
14.1987478482588
31
0.000000000000000
  0
LINE
  5
F106EC
330
F106ED
100
AcDbEntity
8
Geo
100
AcDbLine
10
-8.57745013009539
20
14.1987478482588
30
0.000000000000000
11
-8.47745013009539
21
14.1039194300927
31
0.000000000000000
  0
LINE
  5
F106EE
330
F106EF
100
AcDbEntity
8
Geo
100
AcDbLine
10
-8.47745013009539
20
14.1039194300927
30
0.000000000000000
11
-8.37745013009539
21
14.0084898189877
31
0.000000000000000
  0
LINE
  5
F106F0
330
F106F1
100
AcDbEntity
8
Geo
100
AcDbLine
10
-8.37745013009539
20
14.0084898189877
30
0.000000000000000
11
-8.27745013009539
21
13.9125057422567
31
0.000000000000000
  0
LINE
  5
F106F2
330
F106F3
100
AcDbEntity
8
Geo
100
AcDbLine
10
-8.27745013009539
20
13.9125057422567
30
0.000000000000000
11
-8.17745013009539
21
13.8160187650848
31
0.000000000000000
  0
LINE
  5
F106F4
330
F106F5
100
AcDbEntity
8
Geo
100
AcDbLine
10
-8.17745013009539
20
13.8160187650848
30
0.000000000000000
11
-8.07745013009539
21
13.7190873604584
31
0.000000000000000
  0
LINE
  5
F106F6
330
F106F7
100
AcDbEntity
8
Geo
100
AcDbLine
10
-8.07745013009539
20
13.7190873604584
30
0.000000000000000
11
-7.97745013009538
21
13.6217797578212
31
0.000000000000000
  0
LINE
  5
F106F8
330
F106F9
100
AcDbEntity
8
Geo
100
AcDbLine
10
-7.97745013009538
20
13.6217797578212
30
0.000000000000000
11
-7.87745013009538
21
13.5241778041477
31
0.000000000000000
  0
LINE
  5
F106FA
330
F106FB
100
AcDbEntity
8
Geo
100
AcDbLine
10
-7.87745013009538
20
13.5241778041477
30
0.000000000000000
11
-7.77745013009538
21
13.4263821249170
31
0.000000000000000
  0
LINE
  5
F106FC
330
F106FD
100
AcDbEntity
8
Geo
100
AcDbLine
10
-7.77745013009538
20
13.4263821249170
30
0.000000000000000
11
-7.67745013009538
21
13.3285189349258
31
0.000000000000000
  0
LINE
  5
F106FE
330
F106FF
100
AcDbEntity
8
Geo
100
AcDbLine
10
-7.67745013009538
20
13.3285189349258
30
0.000000000000000
11
-7.57745013009538
21
13.2307489208272
31
0.000000000000000
  0
LINE
  5
F10700
330
F10701
100
AcDbEntity
8
Geo
100
AcDbLine
10
-7.57745013009538
20
13.2307489208272
30
0.000000000000000
11
-7.47745013009538
21
13.1332786996988
31
0.000000000000000
  0
LINE
  5
F10702
330
F10703
100
AcDbEntity
8
Geo
100
AcDbLine
10
-7.47745013009538
20
13.1332786996988
30
0.000000000000000
11
-7.37745013009538
21
13.0363754521272
31
0.000000000000000
  0
LINE
  5
F10704
330
F10705
100
AcDbEntity
8
Geo
100
AcDbLine
10
-7.37745013009538
20
13.0363754521272
30
0.000000000000000
11
-7.27745013009537
21
12.9403854362151
31
0.000000000000000
  0
LINE
  5
F10706
330
F10707
100
AcDbEntity
8
Geo
100
AcDbLine
10
-7.27745013009537
20
12.9403854362151
30
0.000000000000000
11
-7.17745013009537
21
12.8457572137733
31
0.000000000000000
  0
LINE
  5
F10708
330
F10709
100
AcDbEntity
8
Geo
100
AcDbLine
10
-7.17745013009537
20
12.8457572137733
30
0.000000000000000
11
-7.07745013009537
21
12.7530705670759
31
0.000000000000000
  0
LINE
  5
F1070A
330
F1070B
100
AcDbEntity
8
Geo
100
AcDbLine
10
-7.07745013009537
20
12.7530705670759
30
0.000000000000000
11
-6.97745013009537
21
12.6630722627536
31
0.000000000000000
  0
LINE
  5
F1070C
330
F1070D
100
AcDbEntity
8
Geo
100
AcDbLine
10
-6.97745013009537
20
12.6630722627536
30
0.000000000000000
11
-6.87745013009537
21
12.5767200427295
31
0.000000000000000
  0
LINE
  5
F1070E
330
F1070F
100
AcDbEntity
8
Geo
100
AcDbLine
10
-6.87745013009537
20
12.5767200427295
30
0.000000000000000
11
-6.77745013009537
21
12.4952365119451
31
0.000000000000000
  0
LINE
  5
F10710
330
F10711
100
AcDbEntity
8
Geo
100
AcDbLine
10
-6.77745013009537
20
12.4952365119451
30
0.000000000000000
11
-6.67745013009537
21
12.4201749790608
31
0.000000000000000
  0
LINE
  5
F10712
330
F10713
100
AcDbEntity
8
Geo
100
AcDbLine
10
-6.67745013009537
20
12.4201749790608
30
0.000000000000000
11
-6.57745013009536
21
12.3534998268597
31
0.000000000000000
  0
LINE
  5
F10714
330
F10715
100
AcDbEntity
8
Geo
100
AcDbLine
10
-6.57745013009536
20
12.3534998268597
30
0.000000000000000
11
-6.47745013009536
21
12.2976846796287
31
0.000000000000000
  0
LINE
  5
F10716
330
F10717
100
AcDbEntity
8
Geo
100
AcDbLine
10
-6.47745013009536
20
12.2976846796287
30
0.000000000000000
11
-6.37745013009536
21
12.2558325024056
31
0.000000000000000
  0
LINE
  5
F10718
330
F10719
100
AcDbEntity
8
Geo
100
AcDbLine
10
-6.37745013009536
20
12.2558325024056
30
0.000000000000000
11
-6.27745013009536
21
12.2318227232666
31
0.000000000000000
  0
LINE
  5
F1071A
330
F1071B
100
AcDbEntity
8
Geo
100
AcDbLine
10
-6.27745013009536
20
12.2318227232666
30
0.000000000000000
11
-6.17745013009536
21
12.2304911835515
31
0.000000000000000
  0
LINE
  5
F1071C
330
F1071D
100
AcDbEntity
8
Geo
100
AcDbLine
10
-6.17745013009536
20
12.2304911835515
30
0.000000000000000
11
-6.07745013009536
21
12.2578483114936
31
0.000000000000000
  0
LINE
  5
F1071E
330
F1071F
100
AcDbEntity
8
Geo
100
AcDbLine
10
-6.07745013009536
20
12.2578483114936
30
0.000000000000000
11
-5.97745013009536
21
12.3213373421221
31
0.000000000000000
  0
LINE
  5
F10720
330
F10721
100
AcDbEntity
8
Geo
100
AcDbLine
10
-5.97745013009536
20
12.3213373421221
30
0.000000000000000
11
-5.87745013009535
21
12.4301233007595
31
0.000000000000000
  0
LINE
  5
F10722
330
F10723
100
AcDbEntity
8
Geo
100
AcDbLine
10
-5.87745013009535
20
12.4301233007595
30
0.000000000000000
11
-5.77745013009535
21
12.5953759678983
31
0.000000000000000
  0
LINE
  5
F10724
330
F10725
100
AcDbEntity
8
Geo
100
AcDbLine
10
-5.77745013009535
20
12.5953759678983
30
0.000000000000000
11
-5.67745013009535
21
12.8304489978767
31
0.000000000000000
  0
LINE
  5
F10726
330
F10727
100
AcDbEntity
8
Geo
100
AcDbLine
10
-5.67745013009535
20
12.8304489978767
30
0.000000000000000
11
-5.57745013009535
21
13.1507311650499
31
0.000000000000000
  0
LINE
  5
F10728
330
F10729
100
AcDbEntity
8
Geo
100
AcDbLine
10
-5.57745013009535
20
13.1507311650499
30
0.000000000000000
11
-5.47745013009543
21
13.5726998045052
31
0.000000000000000
  0
LINE
  5
F1072A
330
F1072B
100
AcDbEntity
8
Geo
100
AcDbLine
10
-5.47745013009543
20
13.5726998045052
30
0.000000000000000
11
-5.47745013009543
21
13.6954658733531
31
0.000000000000000
  0
LINE
  5
F1072C
330
F1072D
100
AcDbEntity
8
Geo
100
AcDbLine
10
-5.47745013009543
20
13.6954658733531
30
0.000000000000000
11
-5.57745013009535
21
14.1980626198568
31
0.000000000000000
  0
LINE
  5
F1072E
330
F1072F
100
AcDbEntity
8
Geo
100
AcDbLine
10
-5.57745013009535
20
14.1980626198568
30
0.000000000000000
11
-5.67745013009535
21
14.6455553265466
31
0.000000000000000
  0
LINE
  5
F10730
330
F10731
100
AcDbEntity
8
Geo
100
AcDbLine
10
-5.67745013009535
20
14.6455553265466
30
0.000000000000000
11
-5.77745013009535
21
15.0409594741828
31
0.000000000000000
  0
LINE
  5
F10732
330
F10733
100
AcDbEntity
8
Geo
100
AcDbLine
10
-5.77745013009535
20
15.0409594741828
30
0.000000000000000
11
-5.87745013009535
21
15.3882194189684
31
0.000000000000000
  0
LINE
  5
F10734
330
F10735
100
AcDbEntity
8
Geo
100
AcDbLine
10
-5.87745013009535
20
15.3882194189684
30
0.000000000000000
11
-5.97745013009536
21
15.6917308521019
31
0.000000000000000
  0
LINE
  5
F10736
330
F10737
100
AcDbEntity
8
Geo
100
AcDbLine
10
-5.97745013009536
20
15.6917308521019
30
0.000000000000000
11
-6.07745013009536
21
15.9560070918944
31
0.000000000000000
  0
LINE
  5
F10738
330
F10739
100
AcDbEntity
8
Geo
100
AcDbLine
10
-6.07745013009536
20
15.9560070918944
30
0.000000000000000
11
-6.17745013009536
21
16.1854560876489
31
0.000000000000000
  0
LINE
  5
F1073A
330
F1073B
100
AcDbEntity
8
Geo
100
AcDbLine
10
-6.17745013009536
20
16.1854560876489
30
0.000000000000000
11
-6.27745013009536
21
16.3842401154754
31
0.000000000000000
  0
LINE
  5
F1073C
330
F1073D
100
AcDbEntity
8
Geo
100
AcDbLine
10
-6.27745013009536
20
16.3842401154754
30
0.000000000000000
11
-6.37745013009536
21
16.5561954877534
31
0.000000000000000
  0
LINE
  5
F1073E
330
F1073F
100
AcDbEntity
8
Geo
100
AcDbLine
10
-6.37745013009536
20
16.5561954877534
30
0.000000000000000
11
-6.47745013009536
21
16.7047945332292
31
0.000000000000000
  0
LINE
  5
F10740
330
F10741
100
AcDbEntity
8
Geo
100
AcDbLine
10
-6.47745013009536
20
16.7047945332292
30
0.000000000000000
11
-6.57745013009536
21
16.8331363498878
31
0.000000000000000
  0
LINE
  5
F10742
330
F10743
100
AcDbEntity
8
Geo
100
AcDbLine
10
-6.57745013009536
20
16.8331363498878
30
0.000000000000000
11
-6.67745013009537
21
16.9439563149722
31
0.000000000000000
  0
LINE
  5
F10744
330
F10745
100
AcDbEntity
8
Geo
100
AcDbLine
10
-6.67745013009537
20
16.9439563149722
30
0.000000000000000
11
-6.77745013009537
21
17.0396470954456
31
0.000000000000000
  0
LINE
  5
F10746
330
F10747
100
AcDbEntity
8
Geo
100
AcDbLine
10
-6.77745013009537
20
17.0396470954456
30
0.000000000000000
11
-6.87745013009537
21
17.1222860290244
31
0.000000000000000
  0
LINE
  5
F10748
330
F10749
100
AcDbEntity
8
Geo
100
AcDbLine
10
-6.87745013009537
20
17.1222860290244
30
0.000000000000000
11
-6.97745013009537
21
17.1936653480931
31
0.000000000000000
  0
LINE
  5
F1074A
330
F1074B
100
AcDbEntity
8
Geo
100
AcDbLine
10
-6.97745013009537
20
17.1936653480931
30
0.000000000000000
11
-7.07745013009537
21
17.2553229010030
31
0.000000000000000
  0
LINE
  5
F1074C
330
F1074D
100
AcDbEntity
8
Geo
100
AcDbLine
10
-7.07745013009537
20
17.2553229010030
30
0.000000000000000
11
-7.17745013009537
21
17.3085718803304
31
0.000000000000000
  0
LINE
  5
F1074E
330
F1074F
100
AcDbEntity
8
Geo
100
AcDbLine
10
-7.17745013009537
20
17.3085718803304
30
0.000000000000000
11
-7.27745013009537
21
17.3545286735130
31
0.000000000000000
  0
LINE
  5
F10750
330
F10751
100
AcDbEntity
8
Geo
100
AcDbLine
10
-7.27745013009537
20
17.3545286735130
30
0.000000000000000
11
-7.37745013009538
21
17.3941383707960
31
0.000000000000000
  0
LINE
  5
F10752
330
F10753
100
AcDbEntity
8
Geo
100
AcDbLine
10
-7.37745013009538
20
17.3941383707960
30
0.000000000000000
11
-7.47745013009538
21
17.4281977479840
31
0.000000000000000
  0
LINE
  5
F10754
330
F10755
100
AcDbEntity
8
Geo
100
AcDbLine
10
-7.47745013009538
20
17.4281977479840
30
0.000000000000000
11
-7.57745013009538
21
17.4573757250474
31
0.000000000000000
  0
LINE
  5
F10756
330
F10757
100
AcDbEntity
8
Geo
100
AcDbLine
10
-7.57745013009538
20
17.4573757250474
30
0.000000000000000
11
-7.67745013009538
21
17.4822314148291
31
0.000000000000000
  0
LINE
  5
F10758
330
F10759
100
AcDbEntity
8
Geo
100
AcDbLine
10
-7.67745013009538
20
17.4822314148291
30
0.000000000000000
11
-7.77745013009538
21
17.5032299402152
31
0.000000000000000
  0
LINE
  5
F1075A
330
F1075B
100
AcDbEntity
8
Geo
100
AcDbLine
10
-7.77745013009538
20
17.5032299402152
30
0.000000000000000
11
-7.87745013009538
21
17.5207562288174
31
0.000000000000000
  0
LINE
  5
F1075C
330
F1075D
100
AcDbEntity
8
Geo
100
AcDbLine
10
-7.87745013009538
20
17.5207562288174
30
0.000000000000000
11
-7.97745013009538
21
17.5351270027477
31
0.000000000000000
  0
LINE
  5
F1075E
330
F1075F
100
AcDbEntity
8
Geo
100
AcDbLine
10
-7.97745013009538
20
17.5351270027477
30
0.000000000000000
11
-8.07745013009539
21
17.5466011755373
31
0.000000000000000
  0
LINE
  5
F10760
330
F10761
100
AcDbEntity
8
Geo
100
AcDbLine
10
-8.07745013009539
20
17.5466011755373
30
0.000000000000000
11
-8.17745013009539
21
17.5553888543407
31
0.000000000000000
  0
LINE
  5
F10762
330
F10763
100
AcDbEntity
8
Geo
100
AcDbLine
10
-8.17745013009539
20
17.5553888543407
30
0.000000000000000
11
-8.27745013009539
21
17.5616591271988
31
0.000000000000000
  0
LINE
  5
F10764
330
F10765
100
AcDbEntity
8
Geo
100
AcDbLine
10
-8.27745013009539
20
17.5616591271988
30
0.000000000000000
11
-8.37745013009539
21
17.5655467949742
31
0.000000000000000
  0
LINE
  5
F10766
330
F10767
100
AcDbEntity
8
Geo
100
AcDbLine
10
-8.37745013009539
20
17.5655467949742
30
0.000000000000000
11
-8.47745013009539
21
17.5671581873691
31
0.000000000000000
  0
LINE
  5
F10768
330
F10769
100
AcDbEntity
8
Geo
100
AcDbLine
10
-8.47745013009539
20
17.5671581873691
30
0.000000000000000
11
-8.50055701384355
21
17.5672159583695
31
0.000000000000000
  0
LINE
  5
F1076A
330
F1076B
100
AcDbEntity
8
Geo
100
AcDbLine
10
-10.5774501300954
20
8.84932026364809
30
0.000000000000000
11
-10.3774501300954
21
8.71860025454934
31
0.000000000000000
  0
LINE
  5
F1076C
330
F1076D
100
AcDbEntity
8
Geo
100
AcDbLine
10
-10.3774501300954
20
8.71860025454934
30
0.000000000000000
11
-10.2774501300954
21
8.65553642223620
31
0.000000000000000
  0
LINE
  5
F1076E
330
F1076F
100
AcDbEntity
8
Geo
100
AcDbLine
10
-10.2774501300954
20
8.65553642223620
30
0.000000000000000
11
-10.1774501300954
21
8.59403720958248
31
0.000000000000000
  0
LINE
  5
F10770
330
F10771
100
AcDbEntity
8
Geo
100
AcDbLine
10
-10.1774501300954
20
8.59403720958248
30
0.000000000000000
11
-10.0774501300954
21
8.53412721545336
31
0.000000000000000
  0
LINE
  5
F10772
330
F10773
100
AcDbEntity
8
Geo
100
AcDbLine
10
-10.0774501300954
20
8.53412721545336
30
0.000000000000000
11
-9.97745013009541
21
8.47583040304882
31
0.000000000000000
  0
LINE
  5
F10774
330
F10775
100
AcDbEntity
8
Geo
100
AcDbLine
10
-9.97745013009541
20
8.47583040304882
30
0.000000000000000
11
-9.87745013009541
21
8.41917009032481
31
0.000000000000000
  0
LINE
  5
F10776
330
F10777
100
AcDbEntity
8
Geo
100
AcDbLine
10
-9.87745013009541
20
8.41917009032481
30
0.000000000000000
11
-9.77745013009541
21
8.36416894069373
31
0.000000000000000
  0
LINE
  5
F10778
330
F10779
100
AcDbEntity
8
Geo
100
AcDbLine
10
-9.77745013009541
20
8.36416894069373
30
0.000000000000000
11
-9.67745013009541
21
8.31084895405351
31
0.000000000000000
  0
LINE
  5
F1077A
330
F1077B
100
AcDbEntity
8
Geo
100
AcDbLine
10
-9.67745013009541
20
8.31084895405351
30
0.000000000000000
11
-9.57745013009541
21
8.25923145825466
31
0.000000000000000
  0
LINE
  5
F1077C
330
F1077D
100
AcDbEntity
8
Geo
100
AcDbLine
10
-9.57745013009541
20
8.25923145825466
30
0.000000000000000
11
-9.47745013009541
21
8.20933710122227
31
0.000000000000000
  0
LINE
  5
F1077E
330
F1077F
100
AcDbEntity
8
Geo
100
AcDbLine
10
-9.47745013009541
20
8.20933710122227
30
0.000000000000000
11
-9.37745013009540
21
8.16118584411911
31
0.000000000000000
  0
LINE
  5
F10780
330
F10781
100
AcDbEntity
8
Geo
100
AcDbLine
10
-9.37745013009540
20
8.16118584411911
30
0.000000000000000
11
-9.27745013009540
21
8.11479695617926
31
0.000000000000000
  0
LINE
  5
F10782
330
F10783
100
AcDbEntity
8
Geo
100
AcDbLine
10
-9.27745013009540
20
8.11479695617926
30
0.000000000000000
11
-9.17745013009540
21
8.07018901216003
31
0.000000000000000
  0
LINE
  5
F10784
330
F10785
100
AcDbEntity
8
Geo
100
AcDbLine
10
-9.17745013009540
20
8.07018901216003
30
0.000000000000000
11
-9.07745013009540
21
8.02737989373755
31
0.000000000000000
  0
LINE
  5
F10786
330
F10787
100
AcDbEntity
8
Geo
100
AcDbLine
10
-9.07745013009540
20
8.02737989373755
30
0.000000000000000
11
-8.97745013009540
21
7.98638679656927
31
0.000000000000000
  0
LINE
  5
F10788
330
F10789
100
AcDbEntity
8
Geo
100
AcDbLine
10
-8.97745013009540
20
7.98638679656927
30
0.000000000000000
11
-8.87745013009540
21
7.94722624508964
31
0.000000000000000
  0
LINE
  5
F1078A
330
F1078B
100
AcDbEntity
8
Geo
100
AcDbLine
10
-8.87745013009540
20
7.94722624508964
30
0.000000000000000
11
-8.77745013009540
21
7.90991411727493
31
0.000000000000000
  0
LINE
  5
F1078C
330
F1078D
100
AcDbEntity
8
Geo
100
AcDbLine
10
-8.77745013009540
20
7.90991411727493
30
0.000000000000000
11
-8.67745013009539
21
7.87446568143322
31
0.000000000000000
  0
LINE
  5
F1078E
330
F1078F
100
AcDbEntity
8
Geo
100
AcDbLine
10
-8.67745013009539
20
7.87446568143322
30
0.000000000000000
11
-8.57745013009539
21
7.84089564630067
31
0.000000000000000
  0
LINE
  5
F10790
330
F10791
100
AcDbEntity
8
Geo
100
AcDbLine
10
-8.57745013009539
20
7.84089564630067
30
0.000000000000000
11
-8.47745013009539
21
7.80921822402851
31
0.000000000000000
  0
LINE
  5
F10792
330
F10793
100
AcDbEntity
8
Geo
100
AcDbLine
10
-8.47745013009539
20
7.80921822402851
30
0.000000000000000
11
-8.37745013009539
21
7.77944720260248
31
0.000000000000000
  0
LINE
  5
F10794
330
F10795
100
AcDbEntity
8
Geo
100
AcDbLine
10
-8.37745013009539
20
7.77944720260248
30
0.000000000000000
11
-8.27745013009539
21
7.75159601932024
31
0.000000000000000
  0
LINE
  5
F10796
330
F10797
100
AcDbEntity
8
Geo
100
AcDbLine
10
-8.27745013009539
20
7.75159601932024
30
0.000000000000000
11
-8.17745013009539
21
7.72567781951939
31
0.000000000000000
  0
LINE
  5
F10798
330
F10799
100
AcDbEntity
8
Geo
100
AcDbLine
10
-8.17745013009539
20
7.72567781951939
30
0.000000000000000
11
-8.07745013009539
21
7.70170547404724
31
0.000000000000000
  0
LINE
  5
F1079A
330
F1079B
100
AcDbEntity
8
Geo
100
AcDbLine
10
-8.07745013009539
20
7.70170547404724
30
0.000000000000000
11
-7.97745013009538
21
7.67969151414561
31
0.000000000000000
  0
LINE
  5
F1079C
330
F1079D
100
AcDbEntity
8
Geo
100
AcDbLine
10
-7.97745013009538
20
7.67969151414561
30
0.000000000000000
11
-7.87745013009538
21
7.65964792259812
31
0.000000000000000
  0
LINE
  5
F1079E
330
F1079F
100
AcDbEntity
8
Geo
100
AcDbLine
10
-7.87745013009538
20
7.65964792259812
30
0.000000000000000
11
-7.77745013009538
21
7.64158569430580
31
0.000000000000000
  0
LINE
  5
F107A0
330
F107A1
100
AcDbEntity
8
Geo
100
AcDbLine
10
-7.77745013009538
20
7.64158569430580
30
0.000000000000000
11
-7.67745013009538
21
7.62551404729811
31
0.000000000000000
  0
LINE
  5
F107A2
330
F107A3
100
AcDbEntity
8
Geo
100
AcDbLine
10
-7.67745013009538
20
7.62551404729811
30
0.000000000000000
11
-7.57745013009538
21
7.61143912645584
31
0.000000000000000
  0
LINE
  5
F107A4
330
F107A5
100
AcDbEntity
8
Geo
100
AcDbLine
10
-7.57745013009538
20
7.61143912645584
30
0.000000000000000
11
-7.47745013009538
21
7.59936199786715
31
0.000000000000000
  0
LINE
  5
F107A6
330
F107A7
100
AcDbEntity
8
Geo
100
AcDbLine
10
-7.47745013009538
20
7.59936199786715
30
0.000000000000000
11
-7.37745013009538
21
7.58927568457983
31
0.000000000000000
  0
LINE
  5
F107A8
330
F107A9
100
AcDbEntity
8
Geo
100
AcDbLine
10
-7.37745013009538
20
7.58927568457983
30
0.000000000000000
11
-7.27745013009537
21
7.58116095056979
31
0.000000000000000
  0
LINE
  5
F107AA
330
F107AB
100
AcDbEntity
8
Geo
100
AcDbLine
10
-7.27745013009537
20
7.58116095056979
30
0.000000000000000
11
-7.17745013009537
21
7.57498051029233
31
0.000000000000000
  0
LINE
  5
F107AC
330
F107AD
100
AcDbEntity
8
Geo
100
AcDbLine
10
-7.17745013009537
20
7.57498051029233
30
0.000000000000000
11
-7.07745013009537
21
7.57067134589752
31
0.000000000000000
  0
LINE
  5
F107AE
330
F107AF
100
AcDbEntity
8
Geo
100
AcDbLine
10
-7.07745013009537
20
7.57067134589752
30
0.000000000000000
11
-6.97745013009537
21
7.56813488592129
31
0.000000000000000
  0
LINE
  5
F107B0
330
F107B1
100
AcDbEntity
8
Geo
100
AcDbLine
10
-6.97745013009537
20
7.56813488592129
30
0.000000000000000
11
-6.87745013009537
21
7.56722499113960
31
0.000000000000000
  0
LINE
  5
F107B2
330
F107B3
100
AcDbEntity
8
Geo
100
AcDbLine
10
-6.87745013009537
20
7.56722499113960
30
0.000000000000000
11
-6.86578631991366
21
7.56721595836949
31
0.000000000000000
  0
LINE
  5
F107B4
330
F107B5
100
AcDbEntity
8
Geo
100
AcDbLine
10
-5.79449070802755
20
7.56721595836949
30
0.000000000000000
11
-5.77745013009535
21
7.56729525761199
31
0.000000000000000
  0
LINE
  5
F107B6
330
F107B7
100
AcDbEntity
8
Geo
100
AcDbLine
10
-5.77745013009535
20
7.56729525761199
30
0.000000000000000
11
-5.67745013009535
21
7.57414992967411
31
0.000000000000000
  0
LINE
  5
F107B8
330
F107B9
100
AcDbEntity
8
Geo
100
AcDbLine
10
-5.67745013009535
20
7.57414992967411
30
0.000000000000000
11
-5.57745013009535
21
7.60138168771840
31
0.000000000000000
  0
LINE
  5
F107BA
330
F107BB
100
AcDbEntity
8
Geo
100
AcDbLine
10
-5.57745013009535
20
7.60138168771840
30
0.000000000000000
11
-5.47745013009543
21
7.66935905609477
31
0.000000000000000
  0
LINE
  5
F107BC
330
F107BD
100
AcDbEntity
8
Geo
100
AcDbLine
10
-5.47745013009543
20
7.66935905609477
30
0.000000000000000
11
-5.47745013009543
21
7.69617375681350
31
0.000000000000000
  0
LINE
  5
F107BE
330
F107BF
100
AcDbEntity
8
Geo
100
AcDbLine
10
-5.47745013009543
20
7.69617375681350
30
0.000000000000000
11
-5.57745013009535
21
7.84065916015838
31
0.000000000000000
  0
LINE
  5
F107C0
330
F107C1
100
AcDbEntity
8
Geo
100
AcDbLine
10
-5.57745013009535
20
7.84065916015838
30
0.000000000000000
11
-5.67745013009535
21
8.01963358190999
31
0.000000000000000
  0
LINE
  5
F107C2
330
F107C3
100
AcDbEntity
8
Geo
100
AcDbLine
10
-5.67745013009535
20
8.01963358190999
30
0.000000000000000
11
-5.77745013009535
21
8.22203552276367
31
0.000000000000000
  0
LINE
  5
F107C4
330
F107C5
100
AcDbEntity
8
Geo
100
AcDbLine
10
-5.77745013009535
20
8.22203552276367
30
0.000000000000000
11
-5.87745013009535
21
8.43902755723161
31
0.000000000000000
  0
LINE
  5
F107C6
330
F107C7
100
AcDbEntity
8
Geo
100
AcDbLine
10
-5.87745013009535
20
8.43902755723161
30
0.000000000000000
11
-5.97745013009536
21
8.66370386298097
31
0.000000000000000
  0
LINE
  5
F107C8
330
F107C9
100
AcDbEntity
8
Geo
100
AcDbLine
10
-5.97745013009536
20
8.66370386298097
30
0.000000000000000
11
-6.07745013009536
21
8.89079179169028
31
0.000000000000000
  0
LINE
  5
F107CA
330
F107CB
100
AcDbEntity
8
Geo
100
AcDbLine
10
-6.07745013009536
20
8.89079179169028
30
0.000000000000000
11
-6.17745013009536
21
9.11636992197899
31
0.000000000000000
  0
LINE
  5
F107CC
330
F107CD
100
AcDbEntity
8
Geo
100
AcDbLine
10
-6.17745013009536
20
9.11636992197899
30
0.000000000000000
11
-6.27745013009536
21
9.33761434453690
31
0.000000000000000
  0
LINE
  5
F107CE
330
F107CF
100
AcDbEntity
8
Geo
100
AcDbLine
10
-6.27745013009536
20
9.33761434453690
30
0.000000000000000
11
-6.37745013009536
21
9.55257795121900
31
0.000000000000000
  0
LINE
  5
F107D0
330
F107D1
100
AcDbEntity
8
Geo
100
AcDbLine
10
-6.37745013009536
20
9.55257795121900
30
0.000000000000000
11
-6.47745013009536
21
9.76000318822506
31
0.000000000000000
  0
LINE
  5
F107D2
330
F107D3
100
AcDbEntity
8
Geo
100
AcDbLine
10
-6.47745013009536
20
9.76000318822506
30
0.000000000000000
11
-6.57745013009536
21
9.95916626305537
31
0.000000000000000
  0
LINE
  5
F107D4
330
F107D5
100
AcDbEntity
8
Geo
100
AcDbLine
10
-6.57745013009536
20
9.95916626305537
30
0.000000000000000
11
-6.67745013009537
21
10.1497495468376
31
0.000000000000000
  0
LINE
  5
F107D6
330
F107D7
100
AcDbEntity
8
Geo
100
AcDbLine
10
-6.67745013009537
20
10.1497495468376
30
0.000000000000000
11
-6.77745013009537
21
10.3317384424654
31
0.000000000000000
  0
LINE
  5
F107D8
330
F107D9
100
AcDbEntity
8
Geo
100
AcDbLine
10
-6.77745013009537
20
10.3317384424654
30
0.000000000000000
11
-6.87745013009537
21
10.5053389854578
31
0.000000000000000
  0
LINE
  5
F107DA
330
F107DB
100
AcDbEntity
8
Geo
100
AcDbLine
10
-6.87745013009537
20
10.5053389854578
30
0.000000000000000
11
-6.97745013009537
21
10.6709127008905
31
0.000000000000000
  0
LINE
  5
F107DC
330
F107DD
100
AcDbEntity
8
Geo
100
AcDbLine
10
-6.97745013009537
20
10.6709127008905
30
0.000000000000000
11
-7.07745013009537
21
10.8289256217366
31
0.000000000000000
  0
LINE
  5
F107DE
330
F107DF
100
AcDbEntity
8
Geo
100
AcDbLine
10
-7.07745013009537
20
10.8289256217366
30
0.000000000000000
11
-7.17745013009537
21
10.9799087980233
31
0.000000000000000
  0
LINE
  5
F107E0
330
F107E1
100
AcDbEntity
8
Geo
100
AcDbLine
10
-7.17745013009537
20
10.9799087980233
30
0.000000000000000
11
-7.27745013009537
21
11.1244280434542
31
0.000000000000000
  0
LINE
  5
F107E2
330
F107E3
100
AcDbEntity
8
Geo
100
AcDbLine
10
-7.27745013009537
20
11.1244280434542
30
0.000000000000000
11
-7.37745013009538
21
11.2630610502338
31
0.000000000000000
  0
LINE
  5
F107E4
330
F107E5
100
AcDbEntity
8
Geo
100
AcDbLine
10
-7.37745013009538
20
11.2630610502338
30
0.000000000000000
11
-7.47745013009538
21
11.3963803417962
31
0.000000000000000
  0
LINE
  5
F107E6
330
F107E7
100
AcDbEntity
8
Geo
100
AcDbLine
10
-7.47745013009538
20
11.3963803417962
30
0.000000000000000
11
-7.57745013009538
21
11.5249408236932
31
0.000000000000000
  0
LINE
  5
F107E8
330
F107E9
100
AcDbEntity
8
Geo
100
AcDbLine
10
-7.57745013009538
20
11.5249408236932
30
0.000000000000000
11
-7.67745013009538
21
11.6492709367243
31
0.000000000000000
  0
LINE
  5
F107EA
330
F107EB
100
AcDbEntity
8
Geo
100
AcDbLine
10
-7.67745013009538
20
11.6492709367243
30
0.000000000000000
11
-7.77745013009538
21
11.7698666177266
31
0.000000000000000
  0
LINE
  5
F107EC
330
F107ED
100
AcDbEntity
8
Geo
100
AcDbLine
10
-7.77745013009538
20
11.7698666177266
30
0.000000000000000
11
-7.87745013009538
21
11.8871874376070
31
0.000000000000000
  0
LINE
  5
F107EE
330
F107EF
100
AcDbEntity
8
Geo
100
AcDbLine
10
-7.87745013009538
20
11.8871874376070
30
0.000000000000000
11
-7.97745013009538
21
12.0016544187075
31
0.000000000000000
  0
LINE
  5
F107F0
330
F107F1
100
AcDbEntity
8
Geo
100
AcDbLine
10
-7.97745013009538
20
12.0016544187075
30
0.000000000000000
11
-8.07745013009539
21
12.1136491396415
31
0.000000000000000
  0
LINE
  5
F107F2
330
F107F3
100
AcDbEntity
8
Geo
100
AcDbLine
10
-8.07745013009539
20
12.1136491396415
30
0.000000000000000
11
-8.17745013009539
21
12.2235138200317
31
0.000000000000000
  0
LINE
  5
F107F4
330
F107F5
100
AcDbEntity
8
Geo
100
AcDbLine
10
-8.17745013009539
20
12.2235138200317
30
0.000000000000000
11
-8.27745013009539
21
12.3315521441454
31
0.000000000000000
  0
LINE
  5
F107F6
330
F107F7
100
AcDbEntity
8
Geo
100
AcDbLine
10
-8.27745013009539
20
12.3315521441454
30
0.000000000000000
11
-8.37745013009539
21
12.4380306347187
31
0.000000000000000
  0
LINE
  5
F107F8
330
F107F9
100
AcDbEntity
8
Geo
100
AcDbLine
10
-8.37745013009539
20
12.4380306347187
30
0.000000000000000
11
-8.47745013009539
21
12.5431804291281
31
0.000000000000000
  0
LINE
  5
F107FA
330
F107FB
100
AcDbEntity
8
Geo
100
AcDbLine
10
-8.47745013009539
20
12.5431804291281
30
0.000000000000000
11
-8.57745013009539
21
12.6471993418614
31
0.000000000000000
  0
LINE
  5
F107FC
330
F107FD
100
AcDbEntity
8
Geo
100
AcDbLine
10
-8.57745013009539
20
12.6471993418614
30
0.000000000000000
11
-8.67745013009539
21
12.7502541218713
31
0.000000000000000
  0
LINE
  5
F107FE
330
F107FF
100
AcDbEntity
8
Geo
100
AcDbLine
10
-8.67745013009539
20
12.7502541218713
30
0.000000000000000
11
-8.77745013009540
21
12.8524828324005
31
0.000000000000000
  0
LINE
  5
F10800
330
F10801
100
AcDbEntity
8
Geo
100
AcDbLine
10
-8.77745013009540
20
12.8524828324005
30
0.000000000000000
11
-8.87745013009540
21
12.9539972955038
31
0.000000000000000
  0
LINE
  5
F10802
330
F10803
100
AcDbEntity
8
Geo
100
AcDbLine
10
-8.87745013009540
20
12.9539972955038
30
0.000000000000000
11
-8.97745013009540
21
13.0548855547356
31
0.000000000000000
  0
LINE
  5
F10804
330
F10805
100
AcDbEntity
8
Geo
100
AcDbLine
10
-8.97745013009540
20
13.0548855547356
30
0.000000000000000
11
-9.07745013009540
21
13.1552143181330
31
0.000000000000000
  0
LINE
  5
F10806
330
F10807
100
AcDbEntity
8
Geo
100
AcDbLine
10
-9.07745013009540
20
13.1552143181330
30
0.000000000000000
11
-9.17745013009540
21
13.2550313503174
31
0.000000000000000
  0
LINE
  5
F10808
330
F10809
100
AcDbEntity
8
Geo
100
AcDbLine
10
-9.17745013009540
20
13.2550313503174
30
0.000000000000000
11
-9.27745013009540
21
13.3543677877709
31
0.000000000000000
  0
LINE
  5
F1080A
330
F1080B
100
AcDbEntity
8
Geo
100
AcDbLine
10
-9.27745013009540
20
13.3543677877709
30
0.000000000000000
11
-9.37745013009540
21
13.4532403554977
31
0.000000000000000
  0
LINE
  5
F1080C
330
F1080D
100
AcDbEntity
8
Geo
100
AcDbLine
10
-9.37745013009540
20
13.4532403554977
30
0.000000000000000
11
-9.47745013009541
21
13.5516534666668
31
0.000000000000000
  0
LINE
  5
F1080E
330
F1080F
100
AcDbEntity
8
Geo
100
AcDbLine
10
-9.47745013009541
20
13.5516534666668
30
0.000000000000000
11
-9.57745013009541
21
13.6496011896716
31
0.000000000000000
  0
LINE
  5
F10810
330
F10811
100
AcDbEntity
8
Geo
100
AcDbLine
10
-9.57745013009541
20
13.6496011896716
30
0.000000000000000
11
-9.67745013009541
21
13.7470690695219
31
0.000000000000000
  0
LINE
  5
F10812
330
F10813
100
AcDbEntity
8
Geo
100
AcDbLine
10
-9.67745013009541
20
13.7470690695219
30
0.000000000000000
11
-9.77745013009541
21
13.8440357927176
31
0.000000000000000
  0
LINE
  5
F10814
330
F10815
100
AcDbEntity
8
Geo
100
AcDbLine
10
-9.77745013009541
20
13.8440357927176
30
0.000000000000000
11
-9.87745013009541
21
13.9404746868473
31
0.000000000000000
  0
LINE
  5
F10816
330
F10817
100
AcDbEntity
8
Geo
100
AcDbLine
10
-9.87745013009541
20
13.9404746868473
30
0.000000000000000
11
-9.97745013009541
21
14.0363550481572
31
0.000000000000000
  0
LINE
  5
F10818
330
F10819
100
AcDbEntity
8
Geo
100
AcDbLine
10
-9.97745013009541
20
14.0363550481572
30
0.000000000000000
11
-10.0774501300954
21
14.1316432922975
31
0.000000000000000
  0
LINE
  5
F1081A
330
F1081B
100
AcDbEntity
8
Geo
100
AcDbLine
10
-10.0774501300954
20
14.1316432922975
30
0.000000000000000
11
-10.1774501300954
21
14.2263039253849
31
0.000000000000000
  0
LINE
  5
F1081C
330
F1081D
100
AcDbEntity
8
Geo
100
AcDbLine
10
-10.1774501300954
20
14.2263039253849
30
0.000000000000000
11
-10.2774501300954
21
14.3203003344416
31
0.000000000000000
  0
LINE
  5
F1081E
330
F1081F
100
AcDbEntity
8
Geo
100
AcDbLine
10
-10.2774501300954
20
14.3203003344416
30
0.000000000000000
11
-10.3774501300954
21
14.4135953981781
31
0.000000000000000
  0
LINE
  5
F10820
330
F10821
100
AcDbEntity
8
Geo
100
AcDbLine
10
-10.3774501300954
20
14.4135953981781
30
0.000000000000000
11
-10.5774501300954
21
14.5979328950232
31
0.000000000000000
  0
LINE
  5
F10822
330
F10823
100
AcDbEntity
8
Geo
100
AcDbLine
10
-30.4774501300954
20
12.0748120818634
30
0.000000000000000
11
-30.3774501300954
21
11.9766535919029
31
0.000000000000000
  0
LINE
  5
F10824
330
F10825
100
AcDbEntity
8
Geo
100
AcDbLine
10
-30.3774501300954
20
11.9766535919029
30
0.000000000000000
11
-30.2774501300954
21
11.8787313190149
31
0.000000000000000
  0
LINE
  5
F10826
330
F10827
100
AcDbEntity
8
Geo
100
AcDbLine
10
-30.2774501300954
20
11.8787313190149
30
0.000000000000000
11
-30.1774501300954
21
11.7810844308031
31
0.000000000000000
  0
LINE
  5
F10828
330
F10829
100
AcDbEntity
8
Geo
100
AcDbLine
10
-30.1774501300954
20
11.7810844308031
30
0.000000000000000
11
-30.0774501300954
21
11.6837519847206
31
0.000000000000000
  0
LINE
  5
F1082A
330
F1082B
100
AcDbEntity
8
Geo
100
AcDbLine
10
-30.0774501300954
20
11.6837519847206
30
0.000000000000000
11
-29.9774501300954
21
11.5867729124482
31
0.000000000000000
  0
LINE
  5
F1082C
330
F1082D
100
AcDbEntity
8
Geo
100
AcDbLine
10
-29.9774501300954
20
11.5867729124482
30
0.000000000000000
11
-29.8774501300954
21
11.4901860043218
31
0.000000000000000
  0
LINE
  5
F1082E
330
F1082F
100
AcDbEntity
8
Geo
100
AcDbLine
10
-29.8774501300954
20
11.4901860043218
30
0.000000000000000
11
-29.7774501300954
21
11.3940298938168
31
0.000000000000000
  0
LINE
  5
F10830
330
F10831
100
AcDbEntity
8
Geo
100
AcDbLine
10
-29.7774501300954
20
11.3940298938168
30
0.000000000000000
11
-29.6774501300954
21
11.2983430420954
31
0.000000000000000
  0
LINE
  5
F10832
330
F10833
100
AcDbEntity
8
Geo
100
AcDbLine
10
-29.6774501300954
20
11.2983430420954
30
0.000000000000000
11
-29.5774501300954
21
11.2031637226223
31
0.000000000000000
  0
LINE
  5
F10834
330
F10835
100
AcDbEntity
8
Geo
100
AcDbLine
10
-29.5774501300954
20
11.2031637226223
30
0.000000000000000
11
-29.4774501300954
21
11.1085300058565
31
0.000000000000000
  0
LINE
  5
F10836
330
F10837
100
AcDbEntity
8
Geo
100
AcDbLine
10
-29.4774501300954
20
11.1085300058565
30
0.000000000000000
11
-29.3774501300954
21
11.0144797440228
31
0.000000000000000
  0
LINE
  5
F10838
330
F10839
100
AcDbEntity
8
Geo
100
AcDbLine
10
-29.3774501300954
20
11.0144797440228
30
0.000000000000000
11
-29.2774501300954
21
10.9210505559719
31
0.000000000000000
  0
LINE
  5
F1083A
330
F1083B
100
AcDbEntity
8
Geo
100
AcDbLine
10
-29.2774501300954
20
10.9210505559719
30
0.000000000000000
11
-29.1774501300954
21
10.8282798121335
31
0.000000000000000
  0
LINE
  5
F1083C
330
F1083D
100
AcDbEntity
8
Geo
100
AcDbLine
10
-29.1774501300954
20
10.8282798121335
30
0.000000000000000
11
-29.0774501300954
21
10.7362046195680
31
0.000000000000000
  0
LINE
  5
F1083E
330
F1083F
100
AcDbEntity
8
Geo
100
AcDbLine
10
-29.0774501300954
20
10.7362046195680
30
0.000000000000000
11
-28.9774501300954
21
10.6448618071248
31
0.000000000000000
  0
LINE
  5
F10840
330
F10841
100
AcDbEntity
8
Geo
100
AcDbLine
10
-28.9774501300954
20
10.6448618071248
30
0.000000000000000
11
-28.8774501300954
21
10.5542879107112
31
0.000000000000000
  0
LINE
  5
F10842
330
F10843
100
AcDbEntity
8
Geo
100
AcDbLine
10
-28.8774501300954
20
10.5542879107112
30
0.000000000000000
11
-28.7774501300954
21
10.4645191586779
31
0.000000000000000
  0
LINE
  5
F10844
330
F10845
100
AcDbEntity
8
Geo
100
AcDbLine
10
-28.7774501300954
20
10.4645191586779
30
0.000000000000000
11
-28.6774501300954
21
10.3755914573289
31
0.000000000000000
  0
LINE
  5
F10846
330
F10847
100
AcDbEntity
8
Geo
100
AcDbLine
10
-28.6774501300954
20
10.3755914573289
30
0.000000000000000
11
-28.5774501300954
21
10.2875403765590
31
0.000000000000000
  0
LINE
  5
F10848
330
F10849
100
AcDbEntity
8
Geo
100
AcDbLine
10
-28.5774501300954
20
10.2875403765590
30
0.000000000000000
11
-28.4774501300954
21
10.2004011356266
31
0.000000000000000
  0
LINE
  5
F1084A
330
F1084B
100
AcDbEntity
8
Geo
100
AcDbLine
10
-28.4774501300954
20
10.2004011356266
30
0.000000000000000
11
-28.3774501300954
21
10.1142085890662
31
0.000000000000000
  0
LINE
  5
F1084C
330
F1084D
100
AcDbEntity
8
Geo
100
AcDbLine
10
-28.3774501300954
20
10.1142085890662
30
0.000000000000000
11
-28.2774501300954
21
10.0289972127472
31
0.000000000000000
  0
LINE
  5
F1084E
330
F1084F
100
AcDbEntity
8
Geo
100
AcDbLine
10
-28.2774501300954
20
10.0289972127472
30
0.000000000000000
11
-28.1774501300954
21
9.94480109008396
31
0.000000000000000
  0
LINE
  5
F10850
330
F10851
100
AcDbEntity
8
Geo
100
AcDbLine
10
-28.1774501300954
20
9.94480109008396
30
0.000000000000000
11
-28.0774501300954
21
9.86165389840297
31
0.000000000000000
  0
LINE
  5
F10852
330
F10853
100
AcDbEntity
8
Geo
100
AcDbLine
10
-28.0774501300954
20
9.86165389840297
30
0.000000000000000
11
-27.9774501300954
21
9.77958889547229
31
0.000000000000000
  0
LINE
  5
F10854
330
F10855
100
AcDbEntity
8
Geo
100
AcDbLine
10
-27.9774501300954
20
9.77958889547229
30
0.000000000000000
11
-27.8774501300954
21
9.69863890619890
31
0.000000000000000
  0
LINE
  5
F10856
330
F10857
100
AcDbEntity
8
Geo
100
AcDbLine
10
-27.8774501300954
20
9.69863890619890
30
0.000000000000000
11
-27.7774501300954
21
9.61883630949920
31
0.000000000000000
  0
LINE
  5
F10858
330
F10859
100
AcDbEntity
8
Geo
100
AcDbLine
10
-27.7774501300954
20
9.61883630949920
30
0.000000000000000
11
-27.6774501300954
21
9.54021302534784
31
0.000000000000000
  0
LINE
  5
F1085A
330
F1085B
100
AcDbEntity
8
Geo
100
AcDbLine
10
-27.6774501300954
20
9.54021302534784
30
0.000000000000000
11
-27.5774501300954
21
9.46280050201019
31
0.000000000000000
  0
LINE
  5
F1085C
330
F1085D
100
AcDbEntity
8
Geo
100
AcDbLine
10
-27.5774501300954
20
9.46280050201019
30
0.000000000000000
11
-27.4774501300954
21
9.38662970346343
31
0.000000000000000
  0
LINE
  5
F1085E
330
F1085F
100
AcDbEntity
8
Geo
100
AcDbLine
10
-27.4774501300954
20
9.38662970346343
30
0.000000000000000
11
-27.3774501300954
21
9.31173109701137
31
0.000000000000000
  0
LINE
  5
F10860
330
F10861
100
AcDbEntity
8
Geo
100
AcDbLine
10
-27.3774501300954
20
9.31173109701137
30
0.000000000000000
11
-27.2774501300954
21
9.23813464109798
31
0.000000000000000
  0
LINE
  5
F10862
330
F10863
100
AcDbEntity
8
Geo
100
AcDbLine
10
-27.2774501300954
20
9.23813464109798
30
0.000000000000000
11
-27.1774501300954
21
9.16586977332434
31
0.000000000000000
  0
LINE
  5
F10864
330
F10865
100
AcDbEntity
8
Geo
100
AcDbLine
10
-27.1774501300954
20
9.16586977332434
30
0.000000000000000
11
-27.0774501300954
21
9.09496539867403
31
0.000000000000000
  0
LINE
  5
F10866
330
F10867
100
AcDbEntity
8
Geo
100
AcDbLine
10
-27.0774501300954
20
9.09496539867403
30
0.000000000000000
11
-26.9774501300954
21
9.02544987795155
31
0.000000000000000
  0
LINE
  5
F10868
330
F10869
100
AcDbEntity
8
Geo
100
AcDbLine
10
-26.9774501300954
20
9.02544987795155
30
0.000000000000000
11
-26.8774501300954
21
8.95735101643832
31
0.000000000000000
  0
LINE
  5
F1086A
330
F1086B
100
AcDbEntity
8
Geo
100
AcDbLine
10
-26.8774501300954
20
8.95735101643832
30
0.000000000000000
11
-26.7774501300954
21
8.89069605277096
31
0.000000000000000
  0
LINE
  5
F1086C
330
F1086D
100
AcDbEntity
8
Geo
100
AcDbLine
10
-26.7774501300954
20
8.89069605277096
30
0.000000000000000
11
-26.6774501300954
21
8.82551164804624
31
0.000000000000000
  0
LINE
  5
F1086E
330
F1086F
100
AcDbEntity
8
Geo
100
AcDbLine
10
-26.6774501300954
20
8.82551164804624
30
0.000000000000000
11
-26.5774501300954
21
8.76182387515692
31
0.000000000000000
  0
LINE
  5
F10870
330
F10871
100
AcDbEntity
8
Geo
100
AcDbLine
10
-26.5774501300954
20
8.76182387515692
30
0.000000000000000
11
-26.4774501300954
21
8.69965820836300
31
0.000000000000000
  0
LINE
  5
F10872
330
F10873
100
AcDbEntity
8
Geo
100
AcDbLine
10
-26.4774501300954
20
8.69965820836300
30
0.000000000000000
11
-26.3774501300954
21
8.63903951310233
31
0.000000000000000
  0
LINE
  5
F10874
330
F10875
100
AcDbEntity
8
Geo
100
AcDbLine
10
-26.3774501300954
20
8.63903951310233
30
0.000000000000000
11
-26.2774501300954
21
8.57999203604478
31
0.000000000000000
  0
LINE
  5
F10876
330
F10877
100
AcDbEntity
8
Geo
100
AcDbLine
10
-26.2774501300954
20
8.57999203604478
30
0.000000000000000
11
-26.1774501300954
21
8.52253939539389
31
0.000000000000000
  0
LINE
  5
F10878
330
F10879
100
AcDbEntity
8
Geo
100
AcDbLine
10
-26.1774501300954
20
8.52253939539389
30
0.000000000000000
11
-26.0774501300954
21
8.46670457143988
31
0.000000000000000
  0
LINE
  5
F1087A
330
F1087B
100
AcDbEntity
8
Geo
100
AcDbLine
10
-26.0774501300954
20
8.46670457143988
30
0.000000000000000
11
-25.9774501300954
21
8.41250989736789
31
0.000000000000000
  0
LINE
  5
F1087C
330
F1087D
100
AcDbEntity
8
Geo
100
AcDbLine
10
-25.9774501300954
20
8.41250989736789
30
0.000000000000000
11
-25.8774501300954
21
8.35997705032496
31
0.000000000000000
  0
LINE
  5
F1087E
330
F1087F
100
AcDbEntity
8
Geo
100
AcDbLine
10
-25.8774501300954
20
8.35997705032496
30
0.000000000000000
11
-25.7774501300954
21
8.30912704274948
31
0.000000000000000
  0
LINE
  5
F10880
330
F10881
100
AcDbEntity
8
Geo
100
AcDbLine
10
-25.7774501300954
20
8.30912704274948
30
0.000000000000000
11
-25.6774501300954
21
8.25998021396648
31
0.000000000000000
  0
LINE
  5
F10882
330
F10883
100
AcDbEntity
8
Geo
100
AcDbLine
10
-25.6774501300954
20
8.25998021396648
30
0.000000000000000
11
-25.5774501300954
21
8.21255622205220
31
0.000000000000000
  0
LINE
  5
F10884
330
F10885
100
AcDbEntity
8
Geo
100
AcDbLine
10
-25.5774501300954
20
8.21255622205220
30
0.000000000000000
11
-25.4774501300954
21
8.16687403597109
31
0.000000000000000
  0
LINE
  5
F10886
330
F10887
100
AcDbEntity
8
Geo
100
AcDbLine
10
-25.4774501300954
20
8.16687403597109
30
0.000000000000000
11
-25.3774501300954
21
8.12295192798849
31
0.000000000000000
  0
LINE
  5
F10888
330
F10889
100
AcDbEntity
8
Geo
100
AcDbLine
10
-25.3774501300954
20
8.12295192798849
30
0.000000000000000
11
-25.2774501300954
21
8.08080746636199
31
0.000000000000000
  0
LINE
  5
F1088A
330
F1088B
100
AcDbEntity
8
Geo
100
AcDbLine
10
-25.2774501300954
20
8.08080746636199
30
0.000000000000000
11
-25.1774501300954
21
8.04045750831430
31
0.000000000000000
  0
LINE
  5
F1088C
330
F1088D
100
AcDbEntity
8
Geo
100
AcDbLine
10
-25.1774501300954
20
8.04045750831430
30
0.000000000000000
11
-25.0774501300954
21
8.00191819329067
31
0.000000000000000
  0
LINE
  5
F1088E
330
F1088F
100
AcDbEntity
8
Geo
100
AcDbLine
10
-25.0774501300954
20
8.00191819329067
30
0.000000000000000
11
-24.9774501300954
21
7.96520493650323
31
0.000000000000000
  0
LINE
  5
F10890
330
F10891
100
AcDbEntity
8
Geo
100
AcDbLine
10
-24.9774501300954
20
7.96520493650323
30
0.000000000000000
11
-24.8774501300954
21
7.93033242276522
31
0.000000000000000
  0
LINE
  5
F10892
330
F10893
100
AcDbEntity
8
Geo
100
AcDbLine
10
-24.8774501300954
20
7.93033242276522
30
0.000000000000000
11
-24.7774501300954
21
7.89731460061716
31
0.000000000000000
  0
LINE
  5
F10894
330
F10895
100
AcDbEntity
8
Geo
100
AcDbLine
10
-24.7774501300954
20
7.89731460061716
30
0.000000000000000
11
-24.6774501300954
21
7.86616467674768
31
0.000000000000000
  0
LINE
  5
F10896
330
F10897
100
AcDbEntity
8
Geo
100
AcDbLine
10
-24.6774501300954
20
7.86616467674768
30
0.000000000000000
11
-24.5774501300954
21
7.83689511071100
31
0.000000000000000
  0
LINE
  5
F10898
330
F10899
100
AcDbEntity
8
Geo
100
AcDbLine
10
-24.5774501300954
20
7.83689511071100
30
0.000000000000000
11
-24.4774501300954
21
7.80951760994328
31
0.000000000000000
  0
LINE
  5
F1089A
330
F1089B
100
AcDbEntity
8
Geo
100
AcDbLine
10
-24.4774501300954
20
7.80951760994328
30
0.000000000000000
11
-24.3774501300954
21
7.78404312507979
31
0.000000000000000
  0
LINE
  5
F1089C
330
F1089D
100
AcDbEntity
8
Geo
100
AcDbLine
10
-24.3774501300954
20
7.78404312507979
30
0.000000000000000
11
-24.2774501300954
21
7.76048184557484
31
0.000000000000000
  0
LINE
  5
F1089E
330
F1089F
100
AcDbEntity
8
Geo
100
AcDbLine
10
-24.2774501300954
20
7.76048184557484
30
0.000000000000000
11
-24.1774501300954
21
7.73884319562607
31
0.000000000000000
  0
LINE
  5
F108A0
330
F108A1
100
AcDbEntity
8
Geo
100
AcDbLine
10
-24.1774501300954
20
7.73884319562607
30
0.000000000000000
11
-24.0774501300954
21
7.71913583040495
31
0.000000000000000
  0
LINE
  5
F108A2
330
F108A3
100
AcDbEntity
8
Geo
100
AcDbLine
10
-24.0774501300954
20
7.71913583040495
30
0.000000000000000
11
-23.9774501300954
21
7.70136763259481
31
0.000000000000000
  0
LINE
  5
F108A4
330
F108A5
100
AcDbEntity
8
Geo
100
AcDbLine
10
-23.9774501300954
20
7.70136763259481
30
0.000000000000000
11
-23.8774501300954
21
7.68554570923787
31
0.000000000000000
  0
LINE
  5
F108A6
330
F108A7
100
AcDbEntity
8
Geo
100
AcDbLine
10
-23.8774501300954
20
7.68554570923787
30
0.000000000000000
11
-23.7774501300954
21
7.67167638889251
31
0.000000000000000
  0
LINE
  5
F108A8
330
F108A9
100
AcDbEntity
8
Geo
100
AcDbLine
10
-23.7774501300954
20
7.67167638889251
30
0.000000000000000
11
-23.6774501300954
21
7.65976521910195
31
0.000000000000000
  0
LINE
  5
F108AA
330
F108AB
100
AcDbEntity
8
Geo
100
AcDbLine
10
-23.6774501300954
20
7.65976521910195
30
0.000000000000000
11
-23.5774501300954
21
7.64981696417530
31
0.000000000000000
  0
LINE
  5
F108AC
330
F108AD
100
AcDbEntity
8
Geo
100
AcDbLine
10
-23.5774501300954
20
7.64981696417530
30
0.000000000000000
11
-23.4774501300954
21
7.64183560328187
31
0.000000000000000
  0
LINE
  5
F108AE
330
F108AF
100
AcDbEntity
8
Geo
100
AcDbLine
10
-23.4774501300954
20
7.64183560328187
30
0.000000000000000
11
-23.3774501300954
21
7.63582432885962
31
0.000000000000000
  0
LINE
  5
F108B0
330
F108B1
100
AcDbEntity
8
Geo
100
AcDbLine
10
-23.3774501300954
20
7.63582432885962
30
0.000000000000000
11
-23.2774501300954
21
7.63178554533816
31
0.000000000000000
  0
LINE
  5
F108B2
330
F108B3
100
AcDbEntity
8
Geo
100
AcDbLine
10
-23.2774501300954
20
7.63178554533816
30
0.000000000000000
11
-23.1774501300954
21
7.62972086817706
31
0.000000000000000
  0
LINE
  5
F108B4
330
F108B5
100
AcDbEntity
8
Geo
100
AcDbLine
10
-23.1774501300954
20
7.62972086817706
30
0.000000000000000
11
-23.1229064213274
21
7.56721595836949
31
0.000000000000000
  0
LINE
  5
F108B6
330
F108B7
100
AcDbEntity
8
Geo
100
AcDbLine
10
-15.2689242058657
20
17.5672159583695
30
0.000000000000000
11
-15.1774501300955
21
17.5041785229420
31
0.000000000000000
  0
LINE
  5
F108B8
330
F108B9
100
AcDbEntity
8
Geo
100
AcDbLine
10
-15.1774501300955
20
17.5041785229420
30
0.000000000000000
11
-15.0774501300955
21
17.5013846573477
31
0.000000000000000
  0
LINE
  5
F108BA
330
F108BB
100
AcDbEntity
8
Geo
100
AcDbLine
10
-15.0774501300955
20
17.5013846573477
30
0.000000000000000
11
-14.9774501300955
21
17.4966171900618
31
0.000000000000000
  0
LINE
  5
F108BC
330
F108BD
100
AcDbEntity
8
Geo
100
AcDbLine
10
-14.9774501300955
20
17.4966171900618
30
0.000000000000000
11
-14.8774501300955
21
17.4898780280077
31
0.000000000000000
  0
LINE
  5
F108BE
330
F108BF
100
AcDbEntity
8
Geo
100
AcDbLine
10
-14.8774501300955
20
17.4898780280077
30
0.000000000000000
11
-14.7774501300955
21
17.4811698667604
31
0.000000000000000
  0
LINE
  5
F108C0
330
F108C1
100
AcDbEntity
8
Geo
100
AcDbLine
10
-14.7774501300955
20
17.4811698667604
30
0.000000000000000
11
-14.6774501300955
21
17.4704961894682
31
0.000000000000000
  0
LINE
  5
F108C2
330
F108C3
100
AcDbEntity
8
Geo
100
AcDbLine
10
-14.6774501300955
20
17.4704961894682
30
0.000000000000000
11
-14.5774501300955
21
17.4578612654597
31
0.000000000000000
  0
LINE
  5
F108C4
330
F108C5
100
AcDbEntity
8
Geo
100
AcDbLine
10
-14.5774501300955
20
17.4578612654597
30
0.000000000000000
11
-14.4774501300955
21
17.4432701485362
31
0.000000000000000
  0
LINE
  5
F108C6
330
F108C7
100
AcDbEntity
8
Geo
100
AcDbLine
10
-14.4774501300955
20
17.4432701485362
30
0.000000000000000
11
-14.3774501300955
21
17.4267286749498
31
0.000000000000000
  0
LINE
  5
F108C8
330
F108C9
100
AcDbEntity
8
Geo
100
AcDbLine
10
-14.3774501300955
20
17.4267286749498
30
0.000000000000000
11
-14.2774501300955
21
17.4082434610694
31
0.000000000000000
  0
LINE
  5
F108CA
330
F108CB
100
AcDbEntity
8
Geo
100
AcDbLine
10
-14.2774501300955
20
17.4082434610694
30
0.000000000000000
11
-14.1774501300955
21
17.3878219007341
31
0.000000000000000
  0
LINE
  5
F108CC
330
F108CD
100
AcDbEntity
8
Geo
100
AcDbLine
10
-14.1774501300955
20
17.3878219007341
30
0.000000000000000
11
-14.0774501300955
21
17.3654721622958
31
0.000000000000000
  0
LINE
  5
F108CE
330
F108CF
100
AcDbEntity
8
Geo
100
AcDbLine
10
-14.0774501300955
20
17.3654721622958
30
0.000000000000000
11
-13.9774501300955
21
17.3412031853517
31
0.000000000000000
  0
LINE
  5
F108D0
330
F108D1
100
AcDbEntity
8
Geo
100
AcDbLine
10
-13.9774501300955
20
17.3412031853517
30
0.000000000000000
11
-13.8774501300955
21
17.3150246771692
31
0.000000000000000
  0
LINE
  5
F108D2
330
F108D3
100
AcDbEntity
8
Geo
100
AcDbLine
10
-13.8774501300955
20
17.3150246771692
30
0.000000000000000
11
-13.7774501300955
21
17.2869471088025
31
0.000000000000000
  0
LINE
  5
F108D4
330
F108D5
100
AcDbEntity
8
Geo
100
AcDbLine
10
-13.7774501300955
20
17.2869471088025
30
0.000000000000000
11
-13.6774501300955
21
17.2569817109044
31
0.000000000000000
  0
LINE
  5
F108D6
330
F108D7
100
AcDbEntity
8
Geo
100
AcDbLine
10
-13.6774501300955
20
17.2569817109044
30
0.000000000000000
11
-13.5774501300955
21
17.2251404692348
31
0.000000000000000
  0
LINE
  5
F108D8
330
F108D9
100
AcDbEntity
8
Geo
100
AcDbLine
10
-13.5774501300955
20
17.2251404692348
30
0.000000000000000
11
-13.4774501300955
21
17.1914361198656
31
0.000000000000000
  0
LINE
  5
F108DA
330
F108DB
100
AcDbEntity
8
Geo
100
AcDbLine
10
-13.4774501300955
20
17.1914361198656
30
0.000000000000000
11
-13.3774501300955
21
17.1558821440873
31
0.000000000000000
  0
LINE
  5
F108DC
330
F108DD
100
AcDbEntity
8
Geo
100
AcDbLine
10
-13.3774501300955
20
17.1558821440873
30
0.000000000000000
11
-13.2774501300955
21
17.1184927630161
31
0.000000000000000
  0
LINE
  5
F108DE
330
F108DF
100
AcDbEntity
8
Geo
100
AcDbLine
10
-13.2774501300955
20
17.1184927630161
30
0.000000000000000
11
-13.1774501300955
21
17.0792829319059
31
0.000000000000000
  0
LINE
  5
F108E0
330
F108E1
100
AcDbEntity
8
Geo
100
AcDbLine
10
-13.1774501300955
20
17.0792829319059
30
0.000000000000000
11
-13.0774501300955
21
17.0382683341664
31
0.000000000000000
  0
LINE
  5
F108E2
330
F108E3
100
AcDbEntity
8
Geo
100
AcDbLine
10
-13.0774501300955
20
17.0382683341664
30
0.000000000000000
11
-12.9774501300955
21
16.9954653750898
31
0.000000000000000
  0
LINE
  5
F108E4
330
F108E5
100
AcDbEntity
8
Geo
100
AcDbLine
10
-12.9774501300955
20
16.9954653750898
30
0.000000000000000
11
-12.8774501300955
21
16.9508911752890
31
0.000000000000000
  0
LINE
  5
F108E6
330
F108E7
100
AcDbEntity
8
Geo
100
AcDbLine
10
-12.8774501300955
20
16.9508911752890
30
0.000000000000000
11
-12.7774501300955
21
16.9045635638497
31
0.000000000000000
  0
LINE
  5
F108E8
330
F108E9
100
AcDbEntity
8
Geo
100
AcDbLine
10
-12.7774501300955
20
16.9045635638497
30
0.000000000000000
11
-12.6774501300955
21
16.8565010711988
31
0.000000000000000
  0
LINE
  5
F108EA
330
F108EB
100
AcDbEntity
8
Geo
100
AcDbLine
10
-12.6774501300955
20
16.8565010711988
30
0.000000000000000
11
-12.5774501300954
21
16.8067229216924
31
0.000000000000000
  0
LINE
  5
F108EC
330
F108ED
100
AcDbEntity
8
Geo
100
AcDbLine
10
-12.5774501300954
20
16.8067229216924
30
0.000000000000000
11
-12.4774501300954
21
16.7552490259267
31
0.000000000000000
  0
LINE
  5
F108EE
330
F108EF
100
AcDbEntity
8
Geo
100
AcDbLine
10
-12.4774501300954
20
16.7552490259267
30
0.000000000000000
11
-12.3774501300954
21
16.7020999727737
31
0.000000000000000
  0
LINE
  5
F108F0
330
F108F1
100
AcDbEntity
8
Geo
100
AcDbLine
10
-12.3774501300954
20
16.7020999727737
30
0.000000000000000
11
-12.2774501300954
21
16.6472970211459
31
0.000000000000000
  0
LINE
  5
F108F2
330
F108F3
100
AcDbEntity
8
Geo
100
AcDbLine
10
-12.2774501300954
20
16.6472970211459
30
0.000000000000000
11
-12.1774501300954
21
16.5908620914934
31
0.000000000000000
  0
LINE
  5
F108F4
330
F108F5
100
AcDbEntity
8
Geo
100
AcDbLine
10
-12.1774501300954
20
16.5908620914934
30
0.000000000000000
11
-12.0774501300954
21
16.5328177570356
31
0.000000000000000
  0
LINE
  5
F108F6
330
F108F7
100
AcDbEntity
8
Geo
100
AcDbLine
10
-12.0774501300954
20
16.5328177570356
30
0.000000000000000
11
-11.9774501300954
21
16.4731872347323
31
0.000000000000000
  0
LINE
  5
F108F8
330
F108F9
100
AcDbEntity
8
Geo
100
AcDbLine
10
-11.9774501300954
20
16.4731872347323
30
0.000000000000000
11
-11.8774501300954
21
16.4119943759973
31
0.000000000000000
  0
LINE
  5
F108FA
330
F108FB
100
AcDbEntity
8
Geo
100
AcDbLine
10
-11.8774501300954
20
16.4119943759973
30
0.000000000000000
11
-11.7774501300954
21
16.3492636571584
31
0.000000000000000
  0
LINE
  5
F108FC
330
F108FD
100
AcDbEntity
8
Geo
100
AcDbLine
10
-11.7774501300954
20
16.3492636571584
30
0.000000000000000
11
-11.6774501300954
21
16.2850201696665
31
0.000000000000000
  0
LINE
  5
F108FE
330
F108FF
100
AcDbEntity
8
Geo
100
AcDbLine
10
-11.6774501300954
20
16.2850201696665
30
0.000000000000000
11
-11.5774501300954
21
16.2192896100602
31
0.000000000000000
  0
LINE
  5
F10900
330
F10901
100
AcDbEntity
8
Geo
100
AcDbLine
10
-11.5774501300954
20
16.2192896100602
30
0.000000000000000
11
-11.4774501300954
21
16.1520982696869
31
0.000000000000000
  0
LINE
  5
F10902
330
F10903
100
AcDbEntity
8
Geo
100
AcDbLine
10
-11.4774501300954
20
16.1520982696869
30
0.000000000000000
11
-11.3774501300954
21
16.0834730241868
31
0.000000000000000
  0
LINE
  5
F10904
330
F10905
100
AcDbEntity
8
Geo
100
AcDbLine
10
-11.3774501300954
20
16.0834730241868
30
0.000000000000000
11
-11.2774501300954
21
16.0134413227432
31
0.000000000000000
  0
LINE
  5
F10906
330
F10907
100
AcDbEntity
8
Geo
100
AcDbLine
10
-11.2774501300954
20
16.0134413227432
30
0.000000000000000
11
-11.1774501300954
21
15.9420311771030
31
0.000000000000000
  0
LINE
  5
F10908
330
F10909
100
AcDbEntity
8
Geo
100
AcDbLine
10
-11.1774501300954
20
15.9420311771030
30
0.000000000000000
11
-11.0774501300954
21
15.8692711503721
31
0.000000000000000
  0
LINE
  5
F1090A
330
F1090B
100
AcDbEntity
8
Geo
100
AcDbLine
10
-11.0774501300954
20
15.8692711503721
30
0.000000000000000
11
-10.9774501300954
21
15.7951903455913
31
0.000000000000000
  0
LINE
  5
F1090C
330
F1090D
100
AcDbEntity
8
Geo
100
AcDbLine
10
-10.9774501300954
20
15.7951903455913
30
0.000000000000000
11
-10.8774501300954
21
15.7198183940947
31
0.000000000000000
  0
LINE
  5
F1090E
330
F1090F
100
AcDbEntity
8
Geo
100
AcDbLine
10
-10.8774501300954
20
15.7198183940947
30
0.000000000000000
11
-10.7774501300954
21
15.6431854436579
31
0.000000000000000
  0
LINE
  5
F10910
330
F10911
100
AcDbEntity
8
Geo
100
AcDbLine
10
-10.7774501300954
20
15.6431854436579
30
0.000000000000000
11
-10.6774501300954
21
15.5653221464394
31
0.000000000000000
  0
LINE
  5
F10912
330
F10913
100
AcDbEntity
8
Geo
100
AcDbLine
10
-10.6774501300954
20
15.5653221464394
30
0.000000000000000
11
-10.5774501300954
21
15.4862596467199
31
0.000000000000000
  0
LINE
  5
F10914
330
F10915
100
AcDbEntity
8
Geo
100
AcDbLine
10
-23.1229064213274
20
17.5672159583695
30
0.000000000000000
11
-23.0774501300954
21
17.5048007935193
31
0.000000000000000
  0
LINE
  5
F10916
330
F10917
100
AcDbEntity
8
Geo
100
AcDbLine
10
-23.0774501300954
20
17.5048007935193
30
0.000000000000000
11
-22.9774501300954
21
17.5029155703763
31
0.000000000000000
  0
LINE
  5
F10918
330
F10919
100
AcDbEntity
8
Geo
100
AcDbLine
10
-22.9774501300954
20
17.5029155703763
30
0.000000000000000
11
-22.8774501300954
21
17.4990561331969
31
0.000000000000000
  0
LINE
  5
F1091A
330
F1091B
100
AcDbEntity
8
Geo
100
AcDbLine
10
-22.8774501300954
20
17.4990561331969
30
0.000000000000000
11
-22.7774501300954
21
17.4932240257045
31
0.000000000000000
  0
LINE
  5
F1091C
330
F1091D
100
AcDbEntity
8
Geo
100
AcDbLine
10
-22.7774501300954
20
17.4932240257045
30
0.000000000000000
11
-22.6774501300954
21
17.4854215806645
31
0.000000000000000
  0
LINE
  5
F1091E
330
F1091F
100
AcDbEntity
8
Geo
100
AcDbLine
10
-22.6774501300954
20
17.4854215806645
30
0.000000000000000
11
-22.5774501300954
21
17.4756519189507
31
0.000000000000000
  0
LINE
  5
F10920
330
F10921
100
AcDbEntity
8
Geo
100
AcDbLine
10
-22.5774501300954
20
17.4756519189507
30
0.000000000000000
11
-22.4774501300954
21
17.4639189482977
31
0.000000000000000
  0
LINE
  5
F10922
330
F10923
100
AcDbEntity
8
Geo
100
AcDbLine
10
-22.4774501300954
20
17.4639189482977
30
0.000000000000000
11
-22.3774501300954
21
17.4502273617372
31
0.000000000000000
  0
LINE
  5
F10924
330
F10925
100
AcDbEntity
8
Geo
100
AcDbLine
10
-22.3774501300954
20
17.4502273617372
30
0.000000000000000
11
-22.2774501300954
21
17.4345826357212
31
0.000000000000000
  0
LINE
  5
F10926
330
F10927
100
AcDbEntity
8
Geo
100
AcDbLine
10
-22.2774501300954
20
17.4345826357212
30
0.000000000000000
11
-22.1774501300954
21
17.4169910279317
31
0.000000000000000
  0
LINE
  5
F10928
330
F10929
100
AcDbEntity
8
Geo
100
AcDbLine
10
-22.1774501300954
20
17.4169910279317
30
0.000000000000000
11
-22.0774501300954
21
17.3974595747772
31
0.000000000000000
  0
LINE
  5
F1092A
330
F1092B
100
AcDbEntity
8
Geo
100
AcDbLine
10
-22.0774501300954
20
17.3974595747772
30
0.000000000000000
11
-21.9774501300954
21
17.3759960885785
31
0.000000000000000
  0
LINE
  5
F1092C
330
F1092D
100
AcDbEntity
8
Geo
100
AcDbLine
10
-21.9774501300954
20
17.3759960885785
30
0.000000000000000
11
-21.8774501300954
21
17.3526091544439
31
0.000000000000000
  0
LINE
  5
F1092E
330
F1092F
100
AcDbEntity
8
Geo
100
AcDbLine
10
-21.8774501300954
20
17.3526091544439
30
0.000000000000000
11
-21.7774501300954
21
17.3273081268353
31
0.000000000000000
  0
LINE
  5
F10930
330
F10931
100
AcDbEntity
8
Geo
100
AcDbLine
10
-21.7774501300954
20
17.3273081268353
30
0.000000000000000
11
-21.6774501300955
21
17.3001031258264
31
0.000000000000000
  0
LINE
  5
F10932
330
F10933
100
AcDbEntity
8
Geo
100
AcDbLine
10
-21.6774501300955
20
17.3001031258264
30
0.000000000000000
11
-21.5774501300954
21
17.2710050330548
31
0.000000000000000
  0
LINE
  5
F10934
330
F10935
100
AcDbEntity
8
Geo
100
AcDbLine
10
-21.5774501300954
20
17.2710050330548
30
0.000000000000000
11
-21.4774501300954
21
17.2400254873697
31
0.000000000000000
  0
LINE
  5
F10936
330
F10937
100
AcDbEntity
8
Geo
100
AcDbLine
10
-21.4774501300954
20
17.2400254873697
30
0.000000000000000
11
-21.3774501300955
21
17.2071768801762
31
0.000000000000000
  0
LINE
  5
F10938
330
F10939
100
AcDbEntity
8
Geo
100
AcDbLine
10
-21.3774501300955
20
17.2071768801762
30
0.000000000000000
11
-21.2774501300955
21
17.1724723504794
31
0.000000000000000
  0
LINE
  5
F1093A
330
F1093B
100
AcDbEntity
8
Geo
100
AcDbLine
10
-21.2774501300955
20
17.1724723504794
30
0.000000000000000
11
-21.1774501300955
21
17.1359257796283
31
0.000000000000000
  0
LINE
  5
F1093C
330
F1093D
100
AcDbEntity
8
Geo
100
AcDbLine
10
-21.1774501300955
20
17.1359257796283
30
0.000000000000000
11
-21.0774501300954
21
17.0975517857641
31
0.000000000000000
  0
LINE
  5
F1093E
330
F1093F
100
AcDbEntity
8
Geo
100
AcDbLine
10
-21.0774501300954
20
17.0975517857641
30
0.000000000000000
11
-20.9774501300955
21
17.0573657179725
31
0.000000000000000
  0
LINE
  5
F10940
330
F10941
100
AcDbEntity
8
Geo
100
AcDbLine
10
-20.9774501300955
20
17.0573657179725
30
0.000000000000000
11
-20.8774501300955
21
17.0153836501450
31
0.000000000000000
  0
LINE
  5
F10942
330
F10943
100
AcDbEntity
8
Geo
100
AcDbLine
10
-20.8774501300955
20
17.0153836501450
30
0.000000000000000
11
-20.7774501300955
21
16.9716223745489
31
0.000000000000000
  0
LINE
  5
F10944
330
F10945
100
AcDbEntity
8
Geo
100
AcDbLine
10
-20.7774501300955
20
16.9716223745489
30
0.000000000000000
11
-20.6774501300955
21
16.9260993951109
31
0.000000000000000
  0
LINE
  5
F10946
330
F10947
100
AcDbEntity
8
Geo
100
AcDbLine
10
-20.6774501300955
20
16.9260993951109
30
0.000000000000000
11
-20.5774501300955
21
16.8788329204159
31
0.000000000000000
  0
LINE
  5
F10948
330
F10949
100
AcDbEntity
8
Geo
100
AcDbLine
10
-20.5774501300955
20
16.8788329204159
30
0.000000000000000
11
-20.4774501300955
21
16.8298418564236
31
0.000000000000000
  0
LINE
  5
F1094A
330
F1094B
100
AcDbEntity
8
Geo
100
AcDbLine
10
-20.4774501300955
20
16.8298418564236
30
0.000000000000000
11
-20.3774501300955
21
16.7791457989063
31
0.000000000000000
  0
LINE
  5
F1094C
330
F1094D
100
AcDbEntity
8
Geo
100
AcDbLine
10
-20.3774501300955
20
16.7791457989063
30
0.000000000000000
11
-20.2774501300955
21
16.7267650256111
31
0.000000000000000
  0
LINE
  5
F1094E
330
F1094F
100
AcDbEntity
8
Geo
100
AcDbLine
10
-20.2774501300955
20
16.7267650256111
30
0.000000000000000
11
-20.1774501300955
21
16.6727204881489
31
0.000000000000000
  0
LINE
  5
F10950
330
F10951
100
AcDbEntity
8
Geo
100
AcDbLine
10
-20.1774501300955
20
16.6727204881489
30
0.000000000000000
11
-20.0774501300955
21
16.6170338036141
31
0.000000000000000
  0
LINE
  5
F10952
330
F10953
100
AcDbEntity
8
Geo
100
AcDbLine
10
-20.0774501300955
20
16.6170338036141
30
0.000000000000000
11
-19.9774501300955
21
16.5597272459381
31
0.000000000000000
  0
LINE
  5
F10954
330
F10955
100
AcDbEntity
8
Geo
100
AcDbLine
10
-19.9774501300955
20
16.5597272459381
30
0.000000000000000
11
-19.8774501300955
21
16.5008237369798
31
0.000000000000000
  0
LINE
  5
F10956
330
F10957
100
AcDbEntity
8
Geo
100
AcDbLine
10
-19.8774501300955
20
16.5008237369798
30
0.000000000000000
11
-19.7774501300955
21
16.4403468373575
31
0.000000000000000
  0
LINE
  5
F10958
330
F10959
100
AcDbEntity
8
Geo
100
AcDbLine
10
-19.7774501300955
20
16.4403468373575
30
0.000000000000000
11
-19.6774501300955
21
16.3783207370247
31
0.000000000000000
  0
LINE
  5
F1095A
330
F1095B
100
AcDbEntity
8
Geo
100
AcDbLine
10
-19.6774501300955
20
16.3783207370247
30
0.000000000000000
11
-19.5774501300955
21
16.3147702455944
31
0.000000000000000
  0
LINE
  5
F1095C
330
F1095D
100
AcDbEntity
8
Geo
100
AcDbLine
10
-19.5774501300955
20
16.3147702455944
30
0.000000000000000
11
-19.4774501300955
21
16.2497207824160
31
0.000000000000000
  0
LINE
  5
F1095E
330
F1095F
100
AcDbEntity
8
Geo
100
AcDbLine
10
-19.4774501300955
20
16.2497207824160
30
0.000000000000000
11
-19.3774501300955
21
16.1831983664074
31
0.000000000000000
  0
LINE
  5
F10960
330
F10961
100
AcDbEntity
8
Geo
100
AcDbLine
10
-19.3774501300955
20
16.1831983664074
30
0.000000000000000
11
-19.2774501300955
21
16.1152296056480
31
0.000000000000000
  0
LINE
  5
F10962
330
F10963
100
AcDbEntity
8
Geo
100
AcDbLine
10
-19.2774501300955
20
16.1152296056480
30
0.000000000000000
11
-19.1774501300955
21
16.0458416867359
31
0.000000000000000
  0
LINE
  5
F10964
330
F10965
100
AcDbEntity
8
Geo
100
AcDbLine
10
-19.1774501300955
20
16.0458416867359
30
0.000000000000000
11
-19.0774501300955
21
15.9750623639135
31
0.000000000000000
  0
LINE
  5
F10966
330
F10967
100
AcDbEntity
8
Geo
100
AcDbLine
10
-19.0774501300955
20
15.9750623639135
30
0.000000000000000
11
-18.9774501300955
21
15.9029199479663
31
0.000000000000000
  0
LINE
  5
F10968
330
F10969
100
AcDbEntity
8
Geo
100
AcDbLine
10
-18.9774501300955
20
15.9029199479663
30
0.000000000000000
11
-18.8774501300955
21
15.8294432948986
31
0.000000000000000
  0
LINE
  5
F1096A
330
F1096B
100
AcDbEntity
8
Geo
100
AcDbLine
10
-18.8774501300955
20
15.8294432948986
30
0.000000000000000
11
-18.7774501300955
21
15.7546617943922
31
0.000000000000000
  0
LINE
  5
F1096C
330
F1096D
100
AcDbEntity
8
Geo
100
AcDbLine
10
-18.7774501300955
20
15.7546617943922
30
0.000000000000000
11
-18.6774501300955
21
15.6786053580500
31
0.000000000000000
  0
LINE
  5
F1096E
330
F1096F
100
AcDbEntity
8
Geo
100
AcDbLine
10
-18.6774501300955
20
15.6786053580500
30
0.000000000000000
11
-18.5774501300955
21
15.6013044074327
31
0.000000000000000
  0
LINE
  5
F10970
330
F10971
100
AcDbEntity
8
Geo
100
AcDbLine
10
-18.5774501300955
20
15.6013044074327
30
0.000000000000000
11
-18.4774501300955
21
15.5227898618896
31
0.000000000000000
  0
LINE
  5
F10972
330
F10973
100
AcDbEntity
8
Geo
100
AcDbLine
10
-18.4774501300955
20
15.5227898618896
30
0.000000000000000
11
-18.3774501300955
21
15.4430931261923
31
0.000000000000000
  0
LINE
  5
F10974
330
F10975
100
AcDbEntity
8
Geo
100
AcDbLine
10
-18.3774501300955
20
15.4430931261923
30
0.000000000000000
11
-18.2774501300955
21
15.3622460779724
31
0.000000000000000
  0
LINE
  5
F10976
330
F10977
100
AcDbEntity
8
Geo
100
AcDbLine
10
-18.2774501300955
20
15.3622460779724
30
0.000000000000000
11
-18.1774501300955
21
15.2802810549712
31
0.000000000000000
  0
LINE
  5
F10978
330
F10979
100
AcDbEntity
8
Geo
100
AcDbLine
10
-18.1774501300955
20
15.2802810549712
30
0.000000000000000
11
-18.0774501300955
21
15.1972308421051
31
0.000000000000000
  0
LINE
  5
F1097A
330
F1097B
100
AcDbEntity
8
Geo
100
AcDbLine
10
-18.0774501300955
20
15.1972308421051
30
0.000000000000000
11
-17.9774501300955
21
15.1131286583519
31
0.000000000000000
  0
LINE
  5
F1097C
330
F1097D
100
AcDbEntity
8
Geo
100
AcDbLine
10
-17.9774501300955
20
15.1131286583519
30
0.000000000000000
11
-17.8774501300955
21
15.0280081434637
31
0.000000000000000
  0
LINE
  5
F1097E
330
F1097F
100
AcDbEntity
8
Geo
100
AcDbLine
10
-17.8774501300955
20
15.0280081434637
30
0.000000000000000
11
-17.7774501300955
21
14.9419033445116
31
0.000000000000000
  0
LINE
  5
F10980
330
F10981
100
AcDbEntity
8
Geo
100
AcDbLine
10
-17.7774501300955
20
14.9419033445116
30
0.000000000000000
11
-17.6774501300955
21
14.8548487022672
31
0.000000000000000
  0
LINE
  5
F10982
330
F10983
100
AcDbEntity
8
Geo
100
AcDbLine
10
-17.6774501300955
20
14.8548487022672
30
0.000000000000000
11
-17.5774501300955
21
14.7668790374265
31
0.000000000000000
  0
LINE
  5
F10984
330
F10985
100
AcDbEntity
8
Geo
100
AcDbLine
10
-17.5774501300955
20
14.7668790374265
30
0.000000000000000
11
-17.4774501300955
21
14.6780295366827
31
0.000000000000000
  0
LINE
  5
F10986
330
F10987
100
AcDbEntity
8
Geo
100
AcDbLine
10
-17.4774501300955
20
14.6780295366827
30
0.000000000000000
11
-17.3774501300955
21
14.5883357386514
31
0.000000000000000
  0
LINE
  5
F10988
330
F10989
100
AcDbEntity
8
Geo
100
AcDbLine
10
-17.3774501300955
20
14.5883357386514
30
0.000000000000000
11
-17.2774501300955
21
14.4978335196558
31
0.000000000000000
  0
LINE
  5
F1098A
330
F1098B
100
AcDbEntity
8
Geo
100
AcDbLine
10
-17.2774501300955
20
14.4978335196558
30
0.000000000000000
11
-17.1774501300955
21
14.4065590793770
31
0.000000000000000
  0
LINE
  5
F1098C
330
F1098D
100
AcDbEntity
8
Geo
100
AcDbLine
10
-17.1774501300955
20
14.4065590793770
30
0.000000000000000
11
-17.0774501300955
21
14.3145489263740
31
0.000000000000000
  0
LINE
  5
F1098E
330
F1098F
100
AcDbEntity
8
Geo
100
AcDbLine
10
-17.0774501300955
20
14.3145489263740
30
0.000000000000000
11
-16.9774501300955
21
14.2218398634813
31
0.000000000000000
  0
LINE
  5
F10990
330
F10991
100
AcDbEntity
8
Geo
100
AcDbLine
10
-16.9774501300955
20
14.2218398634813
30
0.000000000000000
11
-16.8774501300955
21
14.1284689730878
31
0.000000000000000
  0
LINE
  5
F10992
330
F10993
100
AcDbEntity
8
Geo
100
AcDbLine
10
-16.8774501300955
20
14.1284689730878
30
0.000000000000000
11
-16.7774501300955
21
14.0344736023050
31
0.000000000000000
  0
LINE
  5
F10994
330
F10995
100
AcDbEntity
8
Geo
100
AcDbLine
10
-16.7774501300955
20
14.0344736023050
30
0.000000000000000
11
-16.6774501300955
21
13.9398913480277
31
0.000000000000000
  0
LINE
  5
F10996
330
F10997
100
AcDbEntity
8
Geo
100
AcDbLine
10
-16.6774501300955
20
13.9398913480277
30
0.000000000000000
11
-16.5774501300955
21
13.8447600418966
31
0.000000000000000
  0
LINE
  5
F10998
330
F10999
100
AcDbEntity
8
Geo
100
AcDbLine
10
-16.5774501300955
20
13.8447600418966
30
0.000000000000000
11
-16.4774501300955
21
13.7491177351659
31
0.000000000000000
  0
LINE
  5
F1099A
330
F1099B
100
AcDbEntity
8
Geo
100
AcDbLine
10
-16.4774501300955
20
13.7491177351659
30
0.000000000000000
11
-16.3774501300955
21
13.6530026834829
31
0.000000000000000
  0
LINE
  5
F1099C
330
F1099D
100
AcDbEntity
8
Geo
100
AcDbLine
10
-16.3774501300955
20
13.6530026834829
30
0.000000000000000
11
-16.2774501300955
21
13.5564533315868
31
0.000000000000000
  0
LINE
  5
F1099E
330
F1099F
100
AcDbEntity
8
Geo
100
AcDbLine
10
-16.2774501300955
20
13.5564533315868
30
0.000000000000000
11
-16.1774501300955
21
13.4595082979311
31
0.000000000000000
  0
LINE
  5
F109A0
330
F109A1
100
AcDbEntity
8
Geo
100
AcDbLine
10
-16.1774501300955
20
13.4595082979311
30
0.000000000000000
11
-16.0774501300955
21
13.3622063592366
31
0.000000000000000
  0
LINE
  5
F109A2
330
F109A3
100
AcDbEntity
8
Geo
100
AcDbLine
10
-16.0774501300955
20
13.3622063592366
30
0.000000000000000
11
-15.9774501300955
21
13.2645864349815
31
0.000000000000000
  0
LINE
  5
F109A4
330
F109A5
100
AcDbEntity
8
Geo
100
AcDbLine
10
-15.9774501300955
20
13.2645864349815
30
0.000000000000000
11
-15.8774501300955
21
13.1666875718339
31
0.000000000000000
  0
LINE
  5
F109A6
330
F109A7
100
AcDbEntity
8
Geo
100
AcDbLine
10
-15.8774501300955
20
13.1666875718339
30
0.000000000000000
11
-15.7774501300955
21
13.0685489280338
31
0.000000000000000
  0
LINE
  5
F109A8
330
F109A9
100
AcDbEntity
8
Geo
100
AcDbLine
10
-15.7774501300955
20
13.0685489280338
30
0.000000000000000
11
-15.6774501300955
21
12.9702097577302
31
0.000000000000000
  0
LINE
  5
F109AA
330
F109AB
100
AcDbEntity
8
Geo
100
AcDbLine
10
-15.6774501300955
20
12.9702097577302
30
0.000000000000000
11
-15.5774501300955
21
12.8717093952800
31
0.000000000000000
  0
LINE
  5
F109AC
330
F109AD
100
AcDbEntity
8
Geo
100
AcDbLine
10
-15.5774501300955
20
12.8717093952800
30
0.000000000000000
11
-15.4774501300955
21
12.7730872395149
31
0.000000000000000
  0
LINE
  5
F109AE
330
F109AF
100
AcDbEntity
8
Geo
100
AcDbLine
10
-15.4774501300955
20
12.7730872395149
30
0.000000000000000
11
-15.3774501300955
21
12.6743827379822
31
0.000000000000000
  0
LINE
  5
F109B0
330
F109B1
100
AcDbEntity
8
Geo
100
AcDbLine
10
-15.3774501300955
20
12.6743827379822
30
0.000000000000000
11
-15.2774501300955
21
12.5756353711666
31
0.000000000000000
  0
LINE
  5
F109B2
330
F109B3
100
AcDbEntity
8
Geo
100
AcDbLine
10
-15.2774501300955
20
12.5756353711666
30
0.000000000000000
11
-15.1774501300955
21
12.4768846366981
31
0.000000000000000
  0
LINE
  5
F109B4
330
F109B5
100
AcDbEntity
8
Geo
100
AcDbLine
10
-15.1774501300955
20
12.4768846366981
30
0.000000000000000
11
-15.0774501300955
21
12.3781700335539
31
0.000000000000000
  0
LINE
  5
F109B6
330
F109B7
100
AcDbEntity
8
Geo
100
AcDbLine
10
-15.0774501300955
20
12.3781700335539
30
0.000000000000000
11
-14.9774501300955
21
12.2795310462591
31
0.000000000000000
  0
LINE
  5
F109B8
330
F109B9
100
AcDbEntity
8
Geo
100
AcDbLine
10
-14.9774501300955
20
12.2795310462591
30
0.000000000000000
11
-14.8774501300955
21
12.1810071290933
31
0.000000000000000
  0
LINE
  5
F109BA
330
F109BB
100
AcDbEntity
8
Geo
100
AcDbLine
10
-14.8774501300955
20
12.1810071290933
30
0.000000000000000
11
-14.7774501300955
21
12.0826376903098
31
0.000000000000000
  0
LINE
  5
F109BC
330
F109BD
100
AcDbEntity
8
Geo
100
AcDbLine
10
-14.7774501300955
20
12.0826376903098
30
0.000000000000000
11
-14.6774501300955
21
11.9844620763727
31
0.000000000000000
  0
LINE
  5
F109BE
330
F109BF
100
AcDbEntity
8
Geo
100
AcDbLine
10
-14.6774501300955
20
11.9844620763727
30
0.000000000000000
11
-14.5774501300955
21
11.8865195562183
31
0.000000000000000
  0
LINE
  5
F109C0
330
F109C1
100
AcDbEntity
8
Geo
100
AcDbLine
10
-14.5774501300955
20
11.8865195562183
30
0.000000000000000
11
-14.4774501300955
21
11.7888493055490
31
0.000000000000000
  0
LINE
  5
F109C2
330
F109C3
100
AcDbEntity
8
Geo
100
AcDbLine
10
-14.4774501300955
20
11.7888493055490
30
0.000000000000000
11
-14.3774501300955
21
11.6914903911628
31
0.000000000000000
  0
LINE
  5
F109C4
330
F109C5
100
AcDbEntity
8
Geo
100
AcDbLine
10
-14.3774501300955
20
11.6914903911628
30
0.000000000000000
11
-14.2774501300955
21
11.5944817553272
31
0.000000000000000
  0
LINE
  5
F109C6
330
F109C7
100
AcDbEntity
8
Geo
100
AcDbLine
10
-14.2774501300955
20
11.5944817553272
30
0.000000000000000
11
-14.1774501300955
21
11.4978622002033
31
0.000000000000000
  0
LINE
  5
F109C8
330
F109C9
100
AcDbEntity
8
Geo
100
AcDbLine
10
-14.1774501300955
20
11.4978622002033
30
0.000000000000000
11
-14.0774501300955
21
11.4016703723247
31
0.000000000000000
  0
LINE
  5
F109CA
330
F109CB
100
AcDbEntity
8
Geo
100
AcDbLine
10
-14.0774501300955
20
11.4016703723247
30
0.000000000000000
11
-13.9774501300955
21
11.3059447471402
31
0.000000000000000
  0
LINE
  5
F109CC
330
F109CD
100
AcDbEntity
8
Geo
100
AcDbLine
10
-13.9774501300955
20
11.3059447471402
30
0.000000000000000
11
-13.8774501300955
21
11.2107236136234
31
0.000000000000000
  0
LINE
  5
F109CE
330
F109CF
100
AcDbEntity
8
Geo
100
AcDbLine
10
-13.8774501300955
20
11.2107236136234
30
0.000000000000000
11
-13.7774501300955
21
11.1160450589582
31
0.000000000000000
  0
LINE
  5
F109D0
330
F109D1
100
AcDbEntity
8
Geo
100
AcDbLine
10
-13.7774501300955
20
11.1160450589582
30
0.000000000000000
11
-13.6774501300955
21
11.0219469533041
31
0.000000000000000
  0
LINE
  5
F109D2
330
F109D3
100
AcDbEntity
8
Geo
100
AcDbLine
10
-13.6774501300955
20
11.0219469533041
30
0.000000000000000
11
-13.5774501300955
21
10.9284669346487
31
0.000000000000000
  0
LINE
  5
F109D4
330
F109D5
100
AcDbEntity
8
Geo
100
AcDbLine
10
-13.5774501300955
20
10.9284669346487
30
0.000000000000000
11
-13.4774501300955
21
10.8356423937531
31
0.000000000000000
  0
LINE
  5
F109D6
330
F109D7
100
AcDbEntity
8
Geo
100
AcDbLine
10
-13.4774501300955
20
10.8356423937531
30
0.000000000000000
11
-13.3774501300955
21
10.7435104591960
31
0.000000000000000
  0
LINE
  5
F109D8
330
F109D9
100
AcDbEntity
8
Geo
100
AcDbLine
10
-13.3774501300955
20
10.7435104591960
30
0.000000000000000
11
-13.2774501300955
21
10.6521079825228
31
0.000000000000000
  0
LINE
  5
F109DA
330
F109DB
100
AcDbEntity
8
Geo
100
AcDbLine
10
-13.2774501300955
20
10.6521079825228
30
0.000000000000000
11
-13.1774501300955
21
10.5614715235056
31
0.000000000000000
  0
LINE
  5
F109DC
330
F109DD
100
AcDbEntity
8
Geo
100
AcDbLine
10
-13.1774501300955
20
10.5614715235056
30
0.000000000000000
11
-13.0774501300955
21
10.4716373355193
31
0.000000000000000
  0
LINE
  5
F109DE
330
F109DF
100
AcDbEntity
8
Geo
100
AcDbLine
10
-13.0774501300955
20
10.4716373355193
30
0.000000000000000
11
-12.9774501300955
21
10.3826413510416
31
0.000000000000000
  0
LINE
  5
F109E0
330
F109E1
100
AcDbEntity
8
Geo
100
AcDbLine
10
-12.9774501300955
20
10.3826413510416
30
0.000000000000000
11
-12.8774501300955
21
10.2945191672795
31
0.000000000000000
  0
LINE
  5
F109E2
330
F109E3
100
AcDbEntity
8
Geo
100
AcDbLine
10
-12.8774501300955
20
10.2945191672795
30
0.000000000000000
11
-12.7774501300955
21
10.2073060319316
31
0.000000000000000
  0
LINE
  5
F109E4
330
F109E5
100
AcDbEntity
8
Geo
100
AcDbLine
10
-12.7774501300955
20
10.2073060319316
30
0.000000000000000
11
-12.6774501300955
21
10.1210368290892
31
0.000000000000000
  0
LINE
  5
F109E6
330
F109E7
100
AcDbEntity
8
Geo
100
AcDbLine
10
-12.6774501300955
20
10.1210368290892
30
0.000000000000000
11
-12.5774501300954
21
10.0357460652833
31
0.000000000000000
  0
LINE
  5
F109E8
330
F109E9
100
AcDbEntity
8
Geo
100
AcDbLine
10
-12.5774501300954
20
10.0357460652833
30
0.000000000000000
11
-12.4774501300954
21
9.95146785568208
31
0.000000000000000
  0
LINE
  5
F109EA
330
F109EB
100
AcDbEntity
8
Geo
100
AcDbLine
10
-12.4774501300954
20
9.95146785568208
30
0.000000000000000
11
-12.3774501300954
21
9.86823591044580
31
0.000000000000000
  0
LINE
  5
F109EC
330
F109ED
100
AcDbEntity
8
Geo
100
AcDbLine
10
-12.3774501300954
20
9.86823591044580
30
0.000000000000000
11
-12.2774501300954
21
9.78608352124276
31
0.000000000000000
  0
LINE
  5
F109EE
330
F109EF
100
AcDbEntity
8
Geo
100
AcDbLine
10
-12.2774501300954
20
9.78608352124276
30
0.000000000000000
11
-12.1774501300954
21
9.70504354793330
31
0.000000000000000
  0
LINE
  5
F109F0
330
F109F1
100
AcDbEntity
8
Geo
100
AcDbLine
10
-12.1774501300954
20
9.70504354793330
30
0.000000000000000
11
-12.0774501300954
21
9.62514840542623
31
0.000000000000000
  0
LINE
  5
F109F2
330
F109F3
100
AcDbEntity
8
Geo
100
AcDbLine
10
-12.0774501300954
20
9.62514840542623
30
0.000000000000000
11
-11.9774501300954
21
9.54643005071329
31
0.000000000000000
  0
LINE
  5
F109F4
330
F109F5
100
AcDbEntity
8
Geo
100
AcDbLine
10
-11.9774501300954
20
9.54643005071329
30
0.000000000000000
11
-11.8774501300954
21
9.46891997008680
31
0.000000000000000
  0
LINE
  5
F109F6
330
F109F7
100
AcDbEntity
8
Geo
100
AcDbLine
10
-11.8774501300954
20
9.46891997008680
30
0.000000000000000
11
-11.7774501300954
21
9.39264916654556
31
0.000000000000000
  0
LINE
  5
F109F8
330
F109F9
100
AcDbEntity
8
Geo
100
AcDbLine
10
-11.7774501300954
20
9.39264916654556
30
0.000000000000000
11
-11.6774501300954
21
9.31764814739406
31
0.000000000000000
  0
LINE
  5
F109FA
330
F109FB
100
AcDbEntity
8
Geo
100
AcDbLine
10
-11.6774501300954
20
9.31764814739406
30
0.000000000000000
11
-11.5774501300954
21
9.24394691203996
31
0.000000000000000
  0
LINE
  5
F109FC
330
F109FD
100
AcDbEntity
8
Geo
100
AcDbLine
10
-11.5774501300954
20
9.24394691203996
30
0.000000000000000
11
-11.4774501300954
21
9.17157493999473
31
0.000000000000000
  0
LINE
  5
F109FE
330
F109FF
100
AcDbEntity
8
Geo
100
AcDbLine
10
-11.4774501300954
20
9.17157493999473
30
0.000000000000000
11
-11.3774501300954
21
9.10056117908224
31
0.000000000000000
  0
LINE
  5
F10A00
330
F10A01
100
AcDbEntity
8
Geo
100
AcDbLine
10
-11.3774501300954
20
9.10056117908224
30
0.000000000000000
11
-11.2774501300954
21
9.03093403386001
31
0.000000000000000
  0
LINE
  5
F10A02
330
F10A03
100
AcDbEntity
8
Geo
100
AcDbLine
10
-11.2774501300954
20
9.03093403386001
30
0.000000000000000
11
-11.1774501300954
21
8.96272135425779
31
0.000000000000000
  0
LINE
  5
F10A04
330
F10A05
100
AcDbEntity
8
Geo
100
AcDbLine
10
-11.1774501300954
20
8.96272135425779
30
0.000000000000000
11
-11.0774501300954
21
8.89595042443793
31
0.000000000000000
  0
LINE
  5
F10A06
330
F10A07
100
AcDbEntity
8
Geo
100
AcDbLine
10
-11.0774501300954
20
8.89595042443793
30
0.000000000000000
11
-10.9774501300954
21
8.83064795188209
31
0.000000000000000
  0
LINE
  5
F10A08
330
F10A09
100
AcDbEntity
8
Geo
100
AcDbLine
10
-10.9774501300954
20
8.83064795188209
30
0.000000000000000
11
-10.8774501300954
21
8.76684005670860
31
0.000000000000000
  0
LINE
  5
F10A0A
330
F10A0B
100
AcDbEntity
8
Geo
100
AcDbLine
10
-10.8774501300954
20
8.76684005670860
30
0.000000000000000
11
-10.7774501300954
21
8.70455226122477
31
0.000000000000000
  0
LINE
  5
F10A0C
330
F10A0D
100
AcDbEntity
8
Geo
100
AcDbLine
10
-10.7774501300954
20
8.70455226122477
30
0.000000000000000
11
-10.6774501300954
21
8.64380947971830
31
0.000000000000000
  0
LINE
  5
F10A0E
330
F10A0F
100
AcDbEntity
8
Geo
100
AcDbLine
10
-10.6774501300954
20
8.64380947971830
30
0.000000000000000
11
-10.5774501300954
21
8.58463600849190
31
0.000000000000000
  0
LINE
  5
F10A10
330
F10A11
100
AcDbEntity
8
Geo
100
AcDbLine
10
-30.4774501300954
20
17.4803918695360
30
0.000000000000000
11
-30.3774501300954
21
17.4695618461031
31
0.000000000000000
  0
LINE
  5
F10A12
330
F10A13
100
AcDbEntity
8
Geo
100
AcDbLine
10
-30.3774501300954
20
17.4695618461031
30
0.000000000000000
11
-30.2774501300954
21
17.4567709496788
31
0.000000000000000
  0
LINE
  5
F10A14
330
F10A15
100
AcDbEntity
8
Geo
100
AcDbLine
10
-30.2774501300954
20
17.4567709496788
30
0.000000000000000
11
-30.1774501300954
21
17.4420242964512
31
0.000000000000000
  0
LINE
  5
F10A16
330
F10A17
100
AcDbEntity
8
Geo
100
AcDbLine
10
-30.1774501300954
20
17.4420242964512
30
0.000000000000000
11
-30.0774501300954
21
17.4253277848850
31
0.000000000000000
  0
LINE
  5
F10A18
330
F10A19
100
AcDbEntity
8
Geo
100
AcDbLine
10
-30.0774501300954
20
17.4253277848850
30
0.000000000000000
11
-29.9774501300954
21
17.4066880933621
31
0.000000000000000
  0
LINE
  5
F10A1A
330
F10A1B
100
AcDbEntity
8
Geo
100
AcDbLine
10
-29.9774501300954
20
17.4066880933621
30
0.000000000000000
11
-29.8774501300954
21
17.3861126775106
31
0.000000000000000
  0
LINE
  5
F10A1C
330
F10A1D
100
AcDbEntity
8
Geo
100
AcDbLine
10
-29.8774501300954
20
17.3861126775106
30
0.000000000000000
11
-29.7774501300954
21
17.3636097672226
31
0.000000000000000
  0
LINE
  5
F10A1E
330
F10A1F
100
AcDbEntity
8
Geo
100
AcDbLine
10
-29.7774501300954
20
17.3636097672226
30
0.000000000000000
11
-29.6774501300954
21
17.3391883633621
31
0.000000000000000
  0
LINE
  5
F10A20
330
F10A21
100
AcDbEntity
8
Geo
100
AcDbLine
10
-29.6774501300954
20
17.3391883633621
30
0.000000000000000
11
-29.5774501300954
21
17.3128582341651
31
0.000000000000000
  0
LINE
  5
F10A22
330
F10A23
100
AcDbEntity
8
Geo
100
AcDbLine
10
-29.5774501300954
20
17.3128582341651
30
0.000000000000000
11
-29.4774501300954
21
17.2846299113321
31
0.000000000000000
  0
LINE
  5
F10A24
330
F10A25
100
AcDbEntity
8
Geo
100
AcDbLine
10
-29.4774501300954
20
17.2846299113321
30
0.000000000000000
11
-29.3774501300954
21
17.2545146858160
31
0.000000000000000
  0
LINE
  5
F10A26
330
F10A27
100
AcDbEntity
8
Geo
100
AcDbLine
10
-29.3774501300954
20
17.2545146858160
30
0.000000000000000
11
-29.2774501300954
21
17.2225246033054
31
0.000000000000000
  0
LINE
  5
F10A28
330
F10A29
100
AcDbEntity
8
Geo
100
AcDbLine
10
-29.2774501300954
20
17.2225246033054
30
0.000000000000000
11
-29.1774501300954
21
17.1886724594067
31
0.000000000000000
  0
LINE
  5
F10A2A
330
F10A2B
100
AcDbEntity
8
Geo
100
AcDbLine
10
-29.1774501300954
20
17.1886724594067
30
0.000000000000000
11
-29.0774501300954
21
17.1529717945262
31
0.000000000000000
  0
LINE
  5
F10A2C
330
F10A2D
100
AcDbEntity
8
Geo
100
AcDbLine
10
-29.0774501300954
20
17.1529717945262
30
0.000000000000000
11
-28.9774501300954
21
17.1154368884539
31
0.000000000000000
  0
LINE
  5
F10A2E
330
F10A2F
100
AcDbEntity
8
Geo
100
AcDbLine
10
-28.9774501300954
20
17.1154368884539
30
0.000000000000000
11
-28.8774501300954
21
17.0760827546517
31
0.000000000000000
  0
LINE
  5
F10A30
330
F10A31
100
AcDbEntity
8
Geo
100
AcDbLine
10
-28.8774501300954
20
17.0760827546517
30
0.000000000000000
11
-28.7774501300954
21
17.0349251342483
31
0.000000000000000
  0
LINE
  5
F10A32
330
F10A33
100
AcDbEntity
8
Geo
100
AcDbLine
10
-28.7774501300954
20
17.0349251342483
30
0.000000000000000
11
-28.6774501300954
21
16.9919804897433
31
0.000000000000000
  0
LINE
  5
F10A34
330
F10A35
100
AcDbEntity
8
Geo
100
AcDbLine
10
-28.6774501300954
20
16.9919804897433
30
0.000000000000000
11
-28.5774501300954
21
16.9472659984218
31
0.000000000000000
  0
LINE
  5
F10A36
330
F10A37
100
AcDbEntity
8
Geo
100
AcDbLine
10
-28.5774501300954
20
16.9472659984218
30
0.000000000000000
11
-28.4774501300954
21
16.9007995454842
31
0.000000000000000
  0
LINE
  5
F10A38
330
F10A39
100
AcDbEntity
8
Geo
100
AcDbLine
10
-28.4774501300954
20
16.9007995454842
30
0.000000000000000
11
-28.3774501300954
21
16.8525997168921
31
0.000000000000000
  0
LINE
  5
F10A3A
330
F10A3B
100
AcDbEntity
8
Geo
100
AcDbLine
10
-28.3774501300954
20
16.8525997168921
30
0.000000000000000
11
-28.2774501300954
21
16.8026857919342
31
0.000000000000000
  0
LINE
  5
F10A3C
330
F10A3D
100
AcDbEntity
8
Geo
100
AcDbLine
10
-28.2774501300954
20
16.8026857919342
30
0.000000000000000
11
-28.1774501300954
21
16.7510777355151
31
0.000000000000000
  0
LINE
  5
F10A3E
330
F10A3F
100
AcDbEntity
8
Geo
100
AcDbLine
10
-28.1774501300954
20
16.7510777355151
30
0.000000000000000
11
-28.0774501300954
21
16.6977961901693
31
0.000000000000000
  0
LINE
  5
F10A40
330
F10A41
100
AcDbEntity
8
Geo
100
AcDbLine
10
-28.0774501300954
20
16.6977961901693
30
0.000000000000000
11
-27.9774501300954
21
16.6428624678043
31
0.000000000000000
  0
LINE
  5
F10A42
330
F10A43
100
AcDbEntity
8
Geo
100
AcDbLine
10
-27.9774501300954
20
16.6428624678043
30
0.000000000000000
11
-27.8774501300954
21
16.5862985411769
31
0.000000000000000
  0
LINE
  5
F10A44
330
F10A45
100
AcDbEntity
8
Geo
100
AcDbLine
10
-27.8774501300954
20
16.5862985411769
30
0.000000000000000
11
-27.7774501300954
21
16.5281270351033
31
0.000000000000000
  0
LINE
  5
F10A46
330
F10A47
100
AcDbEntity
8
Geo
100
AcDbLine
10
-27.7774501300954
20
16.5281270351033
30
0.000000000000000
11
-27.6774501300954
21
16.4683712174106
31
0.000000000000000
  0
LINE
  5
F10A48
330
F10A49
100
AcDbEntity
8
Geo
100
AcDbLine
10
-27.6774501300954
20
16.4683712174106
30
0.000000000000000
11
-27.5774501300954
21
16.4070549896289
31
0.000000000000000
  0
LINE
  5
F10A4A
330
F10A4B
100
AcDbEntity
8
Geo
100
AcDbLine
10
-27.5774501300954
20
16.4070549896289
30
0.000000000000000
11
-27.4774501300954
21
16.3442028774318
31
0.000000000000000
  0
LINE
  5
F10A4C
330
F10A4D
100
AcDbEntity
8
Geo
100
AcDbLine
10
-27.4774501300954
20
16.3442028774318
30
0.000000000000000
11
-27.3774501300954
21
16.2798400208263
31
0.000000000000000
  0
LINE
  5
F10A4E
330
F10A4F
100
AcDbEntity
8
Geo
100
AcDbLine
10
-27.3774501300954
20
16.2798400208263
30
0.000000000000000
11
-27.2774501300954
21
16.2139921640968
31
0.000000000000000
  0
LINE
  5
F10A50
330
F10A51
100
AcDbEntity
8
Geo
100
AcDbLine
10
-27.2774501300954
20
16.2139921640968
30
0.000000000000000
11
-27.1774501300954
21
16.1466856455081
31
0.000000000000000
  0
LINE
  5
F10A52
330
F10A53
100
AcDbEntity
8
Geo
100
AcDbLine
10
-27.1774501300954
20
16.1466856455081
30
0.000000000000000
11
-27.0774501300954
21
16.0779473867701
31
0.000000000000000
  0
LINE
  5
F10A54
330
F10A55
100
AcDbEntity
8
Geo
100
AcDbLine
10
-27.0774501300954
20
16.0779473867701
30
0.000000000000000
11
-26.9774501300954
21
16.0078048822699
31
0.000000000000000
  0
LINE
  5
F10A56
330
F10A57
100
AcDbEntity
8
Geo
100
AcDbLine
10
-26.9774501300954
20
16.0078048822699
30
0.000000000000000
11
-26.8774501300954
21
15.9362861880741
31
0.000000000000000
  0
LINE
  5
F10A58
330
F10A59
100
AcDbEntity
8
Geo
100
AcDbLine
10
-26.8774501300954
20
15.9362861880741
30
0.000000000000000
11
-26.7774501300954
21
15.8634199107067
31
0.000000000000000
  0
LINE
  5
F10A5A
330
F10A5B
100
AcDbEntity
8
Geo
100
AcDbLine
10
-26.7774501300954
20
15.8634199107067
30
0.000000000000000
11
-26.6774501300954
21
15.7892351957071
31
0.000000000000000
  0
LINE
  5
F10A5C
330
F10A5D
100
AcDbEntity
8
Geo
100
AcDbLine
10
-26.6774501300954
20
15.7892351957071
30
0.000000000000000
11
-26.5774501300954
21
15.7137617159723
31
0.000000000000000
  0
LINE
  5
F10A5E
330
F10A5F
100
AcDbEntity
8
Geo
100
AcDbLine
10
-26.5774501300954
20
15.7137617159723
30
0.000000000000000
11
-26.4774501300954
21
15.6370296598879
31
0.000000000000000
  0
LINE
  5
F10A60
330
F10A61
100
AcDbEntity
8
Geo
100
AcDbLine
10
-26.4774501300954
20
15.6370296598879
30
0.000000000000000
11
-26.3774501300954
21
15.5590697192532
31
0.000000000000000
  0
LINE
  5
F10A62
330
F10A63
100
AcDbEntity
8
Geo
100
AcDbLine
10
-26.3774501300954
20
15.5590697192532
30
0.000000000000000
11
-26.2774501300954
21
15.4799130770049
31
0.000000000000000
  0
LINE
  5
F10A64
330
F10A65
100
AcDbEntity
8
Geo
100
AcDbLine
10
-26.2774501300954
20
15.4799130770049
30
0.000000000000000
11
-26.1774501300954
21
15.3995913947446
31
0.000000000000000
  0
LINE
  5
F10A66
330
F10A67
100
AcDbEntity
8
Geo
100
AcDbLine
10
-26.1774501300954
20
15.3995913947446
30
0.000000000000000
11
-26.0774501300954
21
15.3181368000743
31
0.000000000000000
  0
LINE
  5
F10A68
330
F10A69
100
AcDbEntity
8
Geo
100
AcDbLine
10
-26.0774501300954
20
15.3181368000743
30
0.000000000000000
11
-25.9774501300954
21
15.2355818737458
31
0.000000000000000
  0
LINE
  5
F10A6A
330
F10A6B
100
AcDbEntity
8
Geo
100
AcDbLine
10
-25.9774501300954
20
15.2355818737458
30
0.000000000000000
11
-25.8774501300954
21
15.1519596366288
31
0.000000000000000
  0
LINE
  5
F10A6C
330
F10A6D
100
AcDbEntity
8
Geo
100
AcDbLine
10
-25.8774501300954
20
15.1519596366288
30
0.000000000000000
11
-25.7774501300954
21
15.0673035365034
31
0.000000000000000
  0
LINE
  5
F10A6E
330
F10A6F
100
AcDbEntity
8
Geo
100
AcDbLine
10
-25.7774501300954
20
15.0673035365034
30
0.000000000000000
11
-25.6774501300954
21
14.9816474346807
31
0.000000000000000
  0
LINE
  5
F10A70
330
F10A71
100
AcDbEntity
8
Geo
100
AcDbLine
10
-25.6774501300954
20
14.9816474346807
30
0.000000000000000
11
-25.5774501300954
21
14.8950255924595
31
0.000000000000000
  0
LINE
  5
F10A72
330
F10A73
100
AcDbEntity
8
Geo
100
AcDbLine
10
-25.5774501300954
20
14.8950255924595
30
0.000000000000000
11
-25.4774501300954
21
14.8074726574218
31
0.000000000000000
  0
LINE
  5
F10A74
330
F10A75
100
AcDbEntity
8
Geo
100
AcDbLine
10
-25.4774501300954
20
14.8074726574218
30
0.000000000000000
11
-25.3774501300954
21
14.7190236495740
31
0.000000000000000
  0
LINE
  5
F10A76
330
F10A77
100
AcDbEntity
8
Geo
100
AcDbLine
10
-25.3774501300954
20
14.7190236495740
30
0.000000000000000
11
-25.2774501300954
21
14.6297139473402
31
0.000000000000000
  0
LINE
  5
F10A78
330
F10A79
100
AcDbEntity
8
Geo
100
AcDbLine
10
-25.2774501300954
20
14.6297139473402
30
0.000000000000000
11
-25.1774501300954
21
14.5395792734105
31
0.000000000000000
  0
LINE
  5
F10A7A
330
F10A7B
100
AcDbEntity
8
Geo
100
AcDbLine
10
-25.1774501300954
20
14.5395792734105
30
0.000000000000000
11
-25.0774501300954
21
14.4486556804525
31
0.000000000000000
  0
LINE
  5
F10A7C
330
F10A7D
100
AcDbEntity
8
Geo
100
AcDbLine
10
-25.0774501300954
20
14.4486556804525
30
0.000000000000000
11
-24.9774501300954
21
14.3569795366912
31
0.000000000000000
  0
LINE
  5
F10A7E
330
F10A7F
100
AcDbEntity
8
Geo
100
AcDbLine
10
-24.9774501300954
20
14.3569795366912
30
0.000000000000000
11
-24.8774501300954
21
14.2645875113618
31
0.000000000000000
  0
LINE
  5
F10A80
330
F10A81
100
AcDbEntity
8
Geo
100
AcDbLine
10
-24.8774501300954
20
14.2645875113618
30
0.000000000000000
11
-24.7774501300954
21
14.1715165600425
31
0.000000000000000
  0
LINE
  5
F10A82
330
F10A83
100
AcDbEntity
8
Geo
100
AcDbLine
10
-24.7774501300954
20
14.1715165600425
30
0.000000000000000
11
-24.6774501300954
21
14.0778039098729
31
0.000000000000000
  0
LINE
  5
F10A84
330
F10A85
100
AcDbEntity
8
Geo
100
AcDbLine
10
-24.6774501300954
20
14.0778039098729
30
0.000000000000000
11
-24.5774501300954
21
13.9834870446637
31
0.000000000000000
  0
LINE
  5
F10A86
330
F10A87
100
AcDbEntity
8
Geo
100
AcDbLine
10
-24.5774501300954
20
13.9834870446637
30
0.000000000000000
11
-24.4774501300954
21
13.8886036899032
31
0.000000000000000
  0
LINE
  5
F10A88
330
F10A89
100
AcDbEntity
8
Geo
100
AcDbLine
10
-24.4774501300954
20
13.8886036899032
30
0.000000000000000
11
-24.3774501300954
21
13.7931917976685
31
0.000000000000000
  0
LINE
  5
F10A8A
330
F10A8B
100
AcDbEntity
8
Geo
100
AcDbLine
10
-24.3774501300954
20
13.7931917976685
30
0.000000000000000
11
-24.2774501300954
21
13.6972895314441
31
0.000000000000000
  0
LINE
  5
F10A8C
330
F10A8D
100
AcDbEntity
8
Geo
100
AcDbLine
10
-24.2774501300954
20
13.6972895314441
30
0.000000000000000
11
-24.1774501300954
21
13.6009352508580
31
0.000000000000000
  0
LINE
  5
F10A8E
330
F10A8F
100
AcDbEntity
8
Geo
100
AcDbLine
10
-24.1774501300954
20
13.6009352508580
30
0.000000000000000
11
-24.0774501300954
21
13.5041674963376
31
0.000000000000000
  0
LINE
  5
F10A90
330
F10A91
100
AcDbEntity
8
Geo
100
AcDbLine
10
-24.0774501300954
20
13.5041674963376
30
0.000000000000000
11
-23.9774501300954
21
13.4070249736945
31
0.000000000000000
  0
LINE
  5
F10A92
330
F10A93
100
AcDbEntity
8
Geo
100
AcDbLine
10
-23.9774501300954
20
13.4070249736945
30
0.000000000000000
11
-23.8774501300954
21
13.3095465386426
31
0.000000000000000
  0
LINE
  5
F10A94
330
F10A95
100
AcDbEntity
8
Geo
100
AcDbLine
10
-23.8774501300954
20
13.3095465386426
30
0.000000000000000
11
-23.7774501300954
21
13.2117711812562
31
0.000000000000000
  0
LINE
  5
F10A96
330
F10A97
100
AcDbEntity
8
Geo
100
AcDbLine
10
-23.7774501300954
20
13.2117711812562
30
0.000000000000000
11
-23.6774501300954
21
13.1137380103746
31
0.000000000000000
  0
LINE
  5
F10A98
330
F10A99
100
AcDbEntity
8
Geo
100
AcDbLine
10
-23.6774501300954
20
13.1137380103746
30
0.000000000000000
11
-23.5774501300954
21
13.0154862379591
31
0.000000000000000
  0
LINE
  5
F10A9A
330
F10A9B
100
AcDbEntity
8
Geo
100
AcDbLine
10
-23.5774501300954
20
13.0154862379591
30
0.000000000000000
11
-23.4774501300954
21
12.9170551634086
31
0.000000000000000
  0
LINE
  5
F10A9C
330
F10A9D
100
AcDbEntity
8
Geo
100
AcDbLine
10
-23.4774501300954
20
12.9170551634086
30
0.000000000000000
11
-23.3774501300954
21
12.8184841578405
31
0.000000000000000
  0
LINE
  5
F10A9E
330
F10A9F
100
AcDbEntity
8
Geo
100
AcDbLine
10
-23.3774501300954
20
12.8184841578405
30
0.000000000000000
11
-23.2774501300954
21
12.7198126483429
31
0.000000000000000
  0
LINE
  5
F10AA0
330
F10AA1
100
AcDbEntity
8
Geo
100
AcDbLine
10
-23.2774501300954
20
12.7198126483429
30
0.000000000000000
11
-23.1774501300954
21
12.6210801022038
31
0.000000000000000
  0
LINE
  5
F10AA2
330
F10AA3
100
AcDbEntity
8
Geo
100
AcDbLine
10
-23.1774501300954
20
12.6210801022038
30
0.000000000000000
11
-23.0774501300954
21
12.5223260111254
31
0.000000000000000
  0
LINE
  5
F10AA4
330
F10AA5
100
AcDbEntity
8
Geo
100
AcDbLine
10
-23.0774501300954
20
12.5223260111254
30
0.000000000000000
11
-22.9774501300954
21
12.4235898754274
31
0.000000000000000
  0
LINE
  5
F10AA6
330
F10AA7
100
AcDbEntity
8
Geo
100
AcDbLine
10
-22.9774501300954
20
12.4235898754274
30
0.000000000000000
11
-22.8774501300954
21
12.3249111882475
31
0.000000000000000
  0
LINE
  5
F10AA8
330
F10AA9
100
AcDbEntity
8
Geo
100
AcDbLine
10
-22.8774501300954
20
12.3249111882475
30
0.000000000000000
11
-22.7774501300954
21
12.2263294197450
31
0.000000000000000
  0
LINE
  5
F10AAA
330
F10AAB
100
AcDbEntity
8
Geo
100
AcDbLine
10
-22.7774501300954
20
12.2263294197450
30
0.000000000000000
11
-22.6774501300954
21
12.1278840013129
31
0.000000000000000
  0
LINE
  5
F10AAC
330
F10AAD
100
AcDbEntity
8
Geo
100
AcDbLine
10
-22.6774501300954
20
12.1278840013129
30
0.000000000000000
11
-22.5774501300954
21
12.0296143098059
31
0.000000000000000
  0
LINE
  5
F10AAE
330
F10AAF
100
AcDbEntity
8
Geo
100
AcDbLine
10
-22.5774501300954
20
12.0296143098059
30
0.000000000000000
11
-22.4774501300954
21
11.9315596517905
31
0.000000000000000
  0
LINE
  5
F10AB0
330
F10AB1
100
AcDbEntity
8
Geo
100
AcDbLine
10
-22.4774501300954
20
11.9315596517905
30
0.000000000000000
11
-22.3774501300954
21
11.8337592478223
31
0.000000000000000
  0
LINE
  5
F10AB2
330
F10AB3
100
AcDbEntity
8
Geo
100
AcDbLine
10
-22.3774501300954
20
11.8337592478223
30
0.000000000000000
11
-22.2774501300954
21
11.7362522167591
31
0.000000000000000
  0
LINE
  5
F10AB4
330
F10AB5
100
AcDbEntity
8
Geo
100
AcDbLine
10
-22.2774501300954
20
11.7362522167591
30
0.000000000000000
11
-22.1774501300954
21
11.6390775601131
31
0.000000000000000
  0
LINE
  5
F10AB6
330
F10AB7
100
AcDbEntity
8
Geo
100
AcDbLine
10
-22.1774501300954
20
11.6390775601131
30
0.000000000000000
11
-22.0774501300954
21
11.5422741464514
31
0.000000000000000
  0
LINE
  5
F10AB8
330
F10AB9
100
AcDbEntity
8
Geo
100
AcDbLine
10
-22.0774501300954
20
11.5422741464514
30
0.000000000000000
11
-21.9774501300954
21
11.4458806958488
31
0.000000000000000
  0
LINE
  5
F10ABA
330
F10ABB
100
AcDbEntity
8
Geo
100
AcDbLine
10
-21.9774501300954
20
11.4458806958488
30
0.000000000000000
11
-21.8774501300954
21
11.3499357644003
31
0.000000000000000
  0
LINE
  5
F10ABC
330
F10ABD
100
AcDbEntity
8
Geo
100
AcDbLine
10
-21.8774501300954
20
11.3499357644003
30
0.000000000000000
11
-21.7774501300954
21
11.2544777287992
31
0.000000000000000
  0
LINE
  5
F10ABE
330
F10ABF
100
AcDbEntity
8
Geo
100
AcDbLine
10
-21.7774501300954
20
11.2544777287992
30
0.000000000000000
11
-21.6774501300955
21
11.1595447709869
31
0.000000000000000
  0
LINE
  5
F10AC0
330
F10AC1
100
AcDbEntity
8
Geo
100
AcDbLine
10
-21.6774501300955
20
11.1595447709869
30
0.000000000000000
11
-21.5774501300954
21
11.0651748628809
31
0.000000000000000
  0
LINE
  5
F10AC2
330
F10AC3
100
AcDbEntity
8
Geo
100
AcDbLine
10
-21.5774501300954
20
11.0651748628809
30
0.000000000000000
11
-21.4774501300954
21
10.9714057511862
31
0.000000000000000
  0
LINE
  5
F10AC4
330
F10AC5
100
AcDbEntity
8
Geo
100
AcDbLine
10
-21.4774501300954
20
10.9714057511862
30
0.000000000000000
11
-21.3774501300955
21
10.8782749422971
31
0.000000000000000
  0
LINE
  5
F10AC6
330
F10AC7
100
AcDbEntity
8
Geo
100
AcDbLine
10
-21.3774501300955
20
10.8782749422971
30
0.000000000000000
11
-21.2774501300955
21
10.7858196872956
31
0.000000000000000
  0
LINE
  5
F10AC8
330
F10AC9
100
AcDbEntity
8
Geo
100
AcDbLine
10
-21.2774501300955
20
10.7858196872956
30
0.000000000000000
11
-21.1774501300955
21
10.6940769670508
31
0.000000000000000
  0
LINE
  5
F10ACA
330
F10ACB
100
AcDbEntity
8
Geo
100
AcDbLine
10
-21.1774501300955
20
10.6940769670508
30
0.000000000000000
11
-21.0774501300954
21
10.6030834774277
31
0.000000000000000
  0
LINE
  5
F10ACC
330
F10ACD
100
AcDbEntity
8
Geo
100
AcDbLine
10
-21.0774501300954
20
10.6030834774277
30
0.000000000000000
11
-20.9774501300955
21
10.5128756146090
31
0.000000000000000
  0
LINE
  5
F10ACE
330
F10ACF
100
AcDbEntity
8
Geo
100
AcDbLine
10
-20.9774501300955
20
10.5128756146090
30
0.000000000000000
11
-20.8774501300955
21
10.4234894605368
31
0.000000000000000
  0
LINE
  5
F10AD0
330
F10AD1
100
AcDbEntity
8
Geo
100
AcDbLine
10
-20.8774501300955
20
10.4234894605368
30
0.000000000000000
11
-20.7774501300955
21
10.3349607684812
31
0.000000000000000
  0
LINE
  5
F10AD2
330
F10AD3
100
AcDbEntity
8
Geo
100
AcDbLine
10
-20.7774501300955
20
10.3349607684812
30
0.000000000000000
11
-20.6774501300955
21
10.2473249487385
31
0.000000000000000
  0
LINE
  5
F10AD4
330
F10AD5
100
AcDbEntity
8
Geo
100
AcDbLine
10
-20.6774501300955
20
10.2473249487385
30
0.000000000000000
11
-20.5774501300955
21
10.1606170544683
31
0.000000000000000
  0
LINE
  5
F10AD6
330
F10AD7
100
AcDbEntity
8
Geo
100
AcDbLine
10
-20.5774501300955
20
10.1606170544683
30
0.000000000000000
11
-20.4774501300955
21
10.0748717676720
31
0.000000000000000
  0
LINE
  5
F10AD8
330
F10AD9
100
AcDbEntity
8
Geo
100
AcDbLine
10
-20.4774501300955
20
10.0748717676720
30
0.000000000000000
11
-20.3774501300955
21
9.99012338532115
31
0.000000000000000
  0
LINE
  5
F10ADA
330
F10ADB
100
AcDbEntity
8
Geo
100
AcDbLine
10
-20.3774501300955
20
9.99012338532115
30
0.000000000000000
11
-20.2774501300955
21
9.90640580563877
31
0.000000000000000
  0
LINE
  5
F10ADC
330
F10ADD
100
AcDbEntity
8
Geo
100
AcDbLine
10
-20.2774501300955
20
9.90640580563877
30
0.000000000000000
11
-20.1774501300955
21
9.82375251454049
31
0.000000000000000
  0
LINE
  5
F10ADE
330
F10ADF
100
AcDbEntity
8
Geo
100
AcDbLine
10
-20.1774501300955
20
9.82375251454049
30
0.000000000000000
11
-20.0774501300955
21
9.74219657224072
31
0.000000000000000
  0
LINE
  5
F10AE0
330
F10AE1
100
AcDbEntity
8
Geo
100
AcDbLine
10
-20.0774501300955
20
9.74219657224072
30
0.000000000000000
11
-19.9774501300955
21
9.66177060002897
31
0.000000000000000
  0
LINE
  5
F10AE2
330
F10AE3
100
AcDbEntity
8
Geo
100
AcDbLine
10
-19.9774501300955
20
9.66177060002897
30
0.000000000000000
11
-19.8774501300955
21
9.58250676722181
31
0.000000000000000
  0
LINE
  5
F10AE4
330
F10AE5
100
AcDbEntity
8
Geo
100
AcDbLine
10
-19.8774501300955
20
9.58250676722181
30
0.000000000000000
11
-19.7774501300955
21
9.50443677829551
31
0.000000000000000
  0
LINE
  5
F10AE6
330
F10AE7
100
AcDbEntity
8
Geo
100
AcDbLine
10
-19.7774501300955
20
9.50443677829551
30
0.000000000000000
11
-19.6774501300955
21
9.42759186020473
31
0.000000000000000
  0
LINE
  5
F10AE8
330
F10AE9
100
AcDbEntity
8
Geo
100
AcDbLine
10
-19.6774501300955
20
9.42759186020473
30
0.000000000000000
11
-19.5774501300955
21
9.35200274989212
31
0.000000000000000
  0
LINE
  5
F10AEA
330
F10AEB
100
AcDbEntity
8
Geo
100
AcDbLine
10
-19.5774501300955
20
9.35200274989212
30
0.000000000000000
11
-19.4774501300955
21
9.27769968199397
31
0.000000000000000
  0
LINE
  5
F10AEC
330
F10AED
100
AcDbEntity
8
Geo
100
AcDbLine
10
-19.4774501300955
20
9.27769968199397
30
0.000000000000000
11
-19.3774501300955
21
9.20471237674673
31
0.000000000000000
  0
LINE
  5
F10AEE
330
F10AEF
100
AcDbEntity
8
Geo
100
AcDbLine
10
-19.3774501300955
20
9.20471237674673
30
0.000000000000000
11
-19.2774501300955
21
9.13307002809935
31
0.000000000000000
  0
LINE
  5
F10AF0
330
F10AF1
100
AcDbEntity
8
Geo
100
AcDbLine
10
-19.2774501300955
20
9.13307002809935
30
0.000000000000000
11
-19.1774501300955
21
9.06280129203609
31
0.000000000000000
  0
LINE
  5
F10AF2
330
F10AF3
100
AcDbEntity
8
Geo
100
AcDbLine
10
-19.1774501300955
20
9.06280129203609
30
0.000000000000000
11
-19.0774501300955
21
8.99393427511445
31
0.000000000000000
  0
LINE
  5
F10AF4
330
F10AF5
100
AcDbEntity
8
Geo
100
AcDbLine
10
-19.0774501300955
20
8.99393427511445
30
0.000000000000000
11
-18.9774501300955
21
8.92649652322299
31
0.000000000000000
  0
LINE
  5
F10AF6
330
F10AF7
100
AcDbEntity
8
Geo
100
AcDbLine
10
-18.9774501300955
20
8.92649652322299
30
0.000000000000000
11
-18.8774501300955
21
8.86051501056331
31
0.000000000000000
  0
LINE
  5
F10AF8
330
F10AF9
100
AcDbEntity
8
Geo
100
AcDbLine
10
-18.8774501300955
20
8.86051501056331
30
0.000000000000000
11
-18.7774501300955
21
8.79601612886074
31
0.000000000000000
  0
LINE
  5
F10AFA
330
F10AFB
100
AcDbEntity
8
Geo
100
AcDbLine
10
-18.7774501300955
20
8.79601612886074
30
0.000000000000000
11
-18.6774501300955
21
8.73302567680797
31
0.000000000000000
  0
LINE
  5
F10AFC
330
F10AFD
100
AcDbEntity
8
Geo
100
AcDbLine
10
-18.6774501300955
20
8.73302567680797
30
0.000000000000000
11
-18.5774501300955
21
8.67156884974597
31
0.000000000000000
  0
LINE
  5
F10AFE
330
F10AFF
100
AcDbEntity
8
Geo
100
AcDbLine
10
-18.5774501300955
20
8.67156884974597
30
0.000000000000000
11
-18.4774501300955
21
8.61167022958616
31
0.000000000000000
  0
LINE
  5
F10B00
330
F10B01
100
AcDbEntity
8
Geo
100
AcDbLine
10
-18.4774501300955
20
8.61167022958616
30
0.000000000000000
11
-18.3774501300955
21
8.55335377497795
31
0.000000000000000
  0
LINE
  5
F10B02
330
F10B03
100
AcDbEntity
8
Geo
100
AcDbLine
10
-18.3774501300955
20
8.55335377497795
30
0.000000000000000
11
-18.2774501300955
21
8.49664281172565
31
0.000000000000000
  0
LINE
  5
F10B04
330
F10B05
100
AcDbEntity
8
Geo
100
AcDbLine
10
-18.2774501300955
20
8.49664281172565
30
0.000000000000000
11
-18.1774501300955
21
8.44156002345842
31
0.000000000000000
  0
LINE
  5
F10B06
330
F10B07
100
AcDbEntity
8
Geo
100
AcDbLine
10
-18.1774501300955
20
8.44156002345842
30
0.000000000000000
11
-18.0774501300955
21
8.38812744255714
31
0.000000000000000
  0
LINE
  5
F10B08
330
F10B09
100
AcDbEntity
8
Geo
100
AcDbLine
10
-18.0774501300955
20
8.38812744255714
30
0.000000000000000
11
-17.9774501300955
21
8.33636644134175
31
0.000000000000000
  0
LINE
  5
F10B0A
330
F10B0B
100
AcDbEntity
8
Geo
100
AcDbLine
10
-17.9774501300955
20
8.33636644134175
30
0.000000000000000
11
-17.8774501300955
21
8.28629772352260
31
0.000000000000000
  0
LINE
  5
F10B0C
330
F10B0D
100
AcDbEntity
8
Geo
100
AcDbLine
10
-17.8774501300955
20
8.28629772352260
30
0.000000000000000
11
-17.7774501300955
21
8.23794131591923
31
0.000000000000000
  0
LINE
  5
F10B0E
330
F10B0F
100
AcDbEntity
8
Geo
100
AcDbLine
10
-17.7774501300955
20
8.23794131591923
30
0.000000000000000
11
-17.6774501300955
21
8.19131656044996
31
0.000000000000000
  0
LINE
  5
F10B10
330
F10B11
100
AcDbEntity
8
Geo
100
AcDbLine
10
-17.6774501300955
20
8.19131656044996
30
0.000000000000000
11
-17.5774501300955
21
8.14644210639531
31
0.000000000000000
  0
LINE
  5
F10B12
330
F10B13
100
AcDbEntity
8
Geo
100
AcDbLine
10
-17.5774501300955
20
8.14644210639531
30
0.000000000000000
11
-17.4774501300955
21
8.10333590293857
31
0.000000000000000
  0
LINE
  5
F10B14
330
F10B15
100
AcDbEntity
8
Geo
100
AcDbLine
10
-17.4774501300955
20
8.10333590293857
30
0.000000000000000
11
-17.3774501300955
21
8.06201519198641
31
0.000000000000000
  0
LINE
  5
F10B16
330
F10B17
100
AcDbEntity
8
Geo
100
AcDbLine
10
-17.3774501300955
20
8.06201519198641
30
0.000000000000000
11
-17.2774501300955
21
8.02249650127225
31
0.000000000000000
  0
LINE
  5
F10B18
330
F10B19
100
AcDbEntity
8
Geo
100
AcDbLine
10
-17.2774501300955
20
8.02249650127225
30
0.000000000000000
11
-17.1774501300955
21
7.98479563774549
31
0.000000000000000
  0
LINE
  5
F10B1A
330
F10B1B
100
AcDbEntity
8
Geo
100
AcDbLine
10
-17.1774501300955
20
7.98479563774549
30
0.000000000000000
11
-17.0774501300955
21
7.94892768124885
31
0.000000000000000
  0
LINE
  5
F10B1C
330
F10B1D
100
AcDbEntity
8
Geo
100
AcDbLine
10
-17.0774501300955
20
7.94892768124885
30
0.000000000000000
11
-16.9774501300955
21
7.91490697848670
31
0.000000000000000
  0
LINE
  5
F10B1E
330
F10B1F
100
AcDbEntity
8
Geo
100
AcDbLine
10
-16.9774501300955
20
7.91490697848670
30
0.000000000000000
11
-16.8774501300955
21
7.88274713728654
31
0.000000000000000
  0
LINE
  5
F10B20
330
F10B21
100
AcDbEntity
8
Geo
100
AcDbLine
10
-16.8774501300955
20
7.88274713728654
30
0.000000000000000
11
-16.7774501300955
21
7.85246102115607
31
0.000000000000000
  0
LINE
  5
F10B22
330
F10B23
100
AcDbEntity
8
Geo
100
AcDbLine
10
-16.7774501300955
20
7.85246102115607
30
0.000000000000000
11
-16.6774501300955
21
7.82406074413792
31
0.000000000000000
  0
LINE
  5
F10B24
330
F10B25
100
AcDbEntity
8
Geo
100
AcDbLine
10
-16.6774501300955
20
7.82406074413792
30
0.000000000000000
11
-16.5774501300955
21
7.79755766596424
31
0.000000000000000
  0
LINE
  5
F10B26
330
F10B27
100
AcDbEntity
8
Geo
100
AcDbLine
10
-16.5774501300955
20
7.79755766596424
30
0.000000000000000
11
-16.4774501300955
21
7.77296238751292
31
0.000000000000000
  0
LINE
  5
F10B28
330
F10B29
100
AcDbEntity
8
Geo
100
AcDbLine
10
-16.4774501300955
20
7.77296238751292
30
0.000000000000000
11
-16.3774501300955
21
7.75028474656742
31
0.000000000000000
  0
LINE
  5
F10B2A
330
F10B2B
100
AcDbEntity
8
Geo
100
AcDbLine
10
-16.3774501300955
20
7.75028474656742
30
0.000000000000000
11
-16.2774501300955
21
7.72953381388175
31
0.000000000000000
  0
LINE
  5
F10B2C
330
F10B2D
100
AcDbEntity
8
Geo
100
AcDbLine
10
-16.2774501300955
20
7.72953381388175
30
0.000000000000000
11
-16.1774501300955
21
7.71071788955230
31
0.000000000000000
  0
LINE
  5
F10B2E
330
F10B2F
100
AcDbEntity
8
Geo
100
AcDbLine
10
-16.1774501300955
20
7.71071788955230
30
0.000000000000000
11
-16.0774501300955
21
7.69384449969794
31
0.000000000000000
  0
LINE
  5
F10B30
330
F10B31
100
AcDbEntity
8
Geo
100
AcDbLine
10
-16.0774501300955
20
7.69384449969794
30
0.000000000000000
11
-15.9774501300955
21
7.67892039344962
31
0.000000000000000
  0
LINE
  5
F10B32
330
F10B33
100
AcDbEntity
8
Geo
100
AcDbLine
10
-15.9774501300955
20
7.67892039344962
30
0.000000000000000
11
-15.8774501300955
21
7.66595154025087
31
0.000000000000000
  0
LINE
  5
F10B34
330
F10B35
100
AcDbEntity
8
Geo
100
AcDbLine
10
-15.8774501300955
20
7.66595154025087
30
0.000000000000000
11
-15.7774501300955
21
7.65494312747004
31
0.000000000000000
  0
LINE
  5
F10B36
330
F10B37
100
AcDbEntity
8
Geo
100
AcDbLine
10
-15.7774501300955
20
7.65494312747004
30
0.000000000000000
11
-15.6774501300955
21
7.64589955832547
31
0.000000000000000
  0
LINE
  5
F10B38
330
F10B39
100
AcDbEntity
8
Geo
100
AcDbLine
10
-15.6774501300955
20
7.64589955832547
30
0.000000000000000
11
-15.5774501300955
21
7.63882445012425
31
0.000000000000000
  0
LINE
  5
F10B3A
330
F10B3B
100
AcDbEntity
8
Geo
100
AcDbLine
10
-15.5774501300955
20
7.63882445012425
30
0.000000000000000
11
-15.4774501300955
21
7.63372063281531
31
0.000000000000000
  0
LINE
  5
F10B3C
330
F10B3D
100
AcDbEntity
8
Geo
100
AcDbLine
10
-15.4774501300955
20
7.63372063281531
30
0.000000000000000
11
-15.3774501300955
21
7.63059014785754
31
0.000000000000000
  0
LINE
  5
F10B3E
330
F10B3F
100
AcDbEntity
8
Geo
100
AcDbLine
10
-15.3774501300955
20
7.63059014785754
30
0.000000000000000
11
-15.2774501300955
21
7.62943424740317
31
0.000000000000000
  0
LINE
  5
F10B40
330
F10B41
100
AcDbEntity
8
Geo
100
AcDbLine
10
-15.2774501300955
20
7.62943424740317
30
0.000000000000000
11
-15.2689242058657
21
7.56721595836949
31
0.000000000000000
  0
LINE
  5
F10B42
330
F10B43
100
AcDbEntity
8
Geo
100
AcDbLine
10
42.5225498699046
20
16.5672159583695
30
0.000000000000000
11
42.5225498699046
21
12.5672159583695
31
0.000000000000000
  0
LINE
  5
F10B44
330
F10B45
100
AcDbEntity
8
Geo
100
AcDbLine
10
-30.4774501300954
20
12.5672159583695
30
0.000000000000000
11
-30.4774501300954
21
7.56721595836949
31
0.000000000000000
  0
LINE
  5
F10B46
330
F10B47
100
AcDbEntity
8
Geo
100
AcDbLine
10
-30.4774501300954
20
7.56721595836949
30
0.000000000000000
11
-5.47745013009543
21
7.56721595836949
31
0.000000000000000
  0
LINE
  5
F10B48
330
F10B49
100
AcDbEntity
8
Geo
100
AcDbLine
10
-5.47745013009543
20
7.56721595836949
30
0.000000000000000
11
41.5225498699046
21
7.56721595836949
31
0.000000000000000
  0
LINE
  5
F10B4A
330
F10B4B
100
AcDbEntity
8
Geo
100
AcDbLine
10
41.5225498699046
20
7.56721595836949
30
0.000000000000000
11
42.5225498699046
21
8.56721595836949
31
0.000000000000000
  0
LINE
  5
F10B4C
330
F10B4D
100
AcDbEntity
8
Geo
100
AcDbLine
10
-30.4774501300954
20
17.5672159583695
30
0.000000000000000
11
-30.4774501300954
21
7.56721595836949
31
0.000000000000000
  0
LINE
  5
F10B4E
330
F10B4F
100
AcDbEntity
8
Geo
100
AcDbLine
10
-5.47745013009543
20
17.5672159583695
30
0.000000000000000
11
-5.47745013009543
21
7.56721595836949
31
0.000000000000000
  0
LINE
  5
F10B50
330
F10B51
100
AcDbEntity
8
Geo
100
AcDbLine
10
-5.47745013009543
20
17.5672159583695
30
0.000000000000000
11
-5.47745013009543
21
7.56721595836949
31
0.000000000000000
  0
LINE
  5
F10B52
330
F10B53
100
AcDbEntity
8
Geo
100
AcDbLine
10
41.5225498699046
20
17.5672159583695
30
0.000000000000000
11
41.5225498699046
21
7.56721595836949
31
0.000000000000000
  0
LINE
  5
F10B54
330
F10B55
100
AcDbEntity
8
Geo
100
AcDbLine
10
42.5225498699046
20
16.5672159583695
30
0.000000000000000
11
42.5225498699046
21
8.56721595836949
31
0.000000000000000
  0
LINE
  5
F10B56
330
F10B57
100
AcDbEntity
8
Geo
 6
Dashdot
100
AcDbLine
10
-30.4774501300954
20
12.5672159583695
30
0.000000000000000
11
42.5225498699046
21
12.5672159583695
31
0.000000000000000
  0
LWPOLYLINE
  5
F10B58
330
F10B59
100
AcDbEntity
8
Rahmen
100
AcDbPolyline
90
   4
70
   1
43
   0.0
 10
-134.596704249783
 20
99.9002601908066
 10
143.339115351258
 20
99.9002601908066
 10
143.339115351258
 20
-100.082393755421
 10
-134.596704249783
 20
-100.082393755421
  0
TEXT
  5
F10B5A
330
F10B5B
 100
AcDbEntity
8
Text
100
AcDbText
10
-133.503902862099
20
-99.5823937554206
30
0.000000000000000
40
1.00000000000000
1
ISBESketcher - ©ISBE GmbH      lizensiert für: Schmid Werkzeuge
100
AcDbText
  0
LWPOLYLINE
  5
F10B5C
330
F10B5D
100
AcDbEntity
8
Rahmen
100
AcDbPolyline
90
   4
70
   1
43
   0.0
 10
103.451864700781
 20
-97.1682567215958
 10
143.339115351258
 20
-97.1682567215958
 10
143.339115351258
 20
-100.082393755421
 10
103.451864700781
 20
-100.082393755421
  0
TEXT
  5
F10B5E
330
F10B5F
 100
AcDbEntity
8
Text
100
AcDbText
10
104.500000000000
20
-99.4570685169124
30
0.000000000000000
40
1.50000000000000
1
Ers. durch:
100
AcDbText
  0
TEXT
  5
F10B60
330
F10B61
 100
AcDbEntity
8
Text
100
AcDbText
10
0.000000000000000
20
0.500000000000000
30
0.000000000000000
40
1.50000000000000
1

100
AcDbText
  0
LWPOLYLINE
  5
F10B62
330
F10B63
100
AcDbEntity
8
Rahmen
100
AcDbPolyline
90
   4
70
   1
43
   0.0
 10
63.3824804856895
 20
-97.1682567215958
 10
103.451864700781
 20
-97.1682567215958
 10
103.451864700781
 20
-100.082393755421
 10
63.3824804856895
 20
-100.082393755421
  0
TEXT
  5
F10B64
330
F10B65
 100
AcDbEntity
8
Text
100
AcDbText
10
64.5000000000000
20
-99.4570685169124
30
0.000000000000000
40
1.50000000000000
1
Ers. für:
100
AcDbText
  0
TEXT
  5
F10B66
330
F10B67
 100
AcDbEntity
8
Text
100
AcDbText
10
0.000000000000000
20
0.500000000000000
30
0.000000000000000
40
1.50000000000000
1

100
AcDbText
  0
LWPOLYLINE
  5
F10B68
330
F10B69
100
AcDbEntity
8
Rahmen
100
AcDbPolyline
90
   4
70
   1
43
   0.0
 10
130.043365134432
 20
-94.0719861231570
 10
143.339115351258
 20
-94.0719861231570
 10
143.339115351258
 20
-97.1682567215958
 10
130.043365134432
 20
-97.1682567215958
  0
TEXT
  5
F10B6A
330
F10B6B
 100
AcDbEntity
8
Text
100
AcDbText
10
131.166666666667
20
-96.4570685169124
30
0.000000000000000
40
1.50000000000000
1
Blätter
100
AcDbText
  0
TEXT
  5
F10B6C
330
F10B6D
 100
AcDbEntity
8
Text
100
AcDbText
10
0.000000000000000
20
0.500000000000000
30
0.000000000000000
40
1.50000000000000
1

100
AcDbText
  0
LWPOLYLINE
  5
F10B6E
330
F10B6F
100
AcDbEntity
8
Rahmen
100
AcDbPolyline
90
   4
70
   1
43
   0.0
 10
130.043365134432
 20
-91.1578490893322
 10
143.339115351258
 20
-91.1578490893322
 10
143.339115351258
 20
-94.0719861231570
 10
130.043365134432
 20
-94.0719861231570
  0
TEXT
  5
F10B70
330
F10B71
 100
AcDbEntity
8
Text
100
AcDbText
10
131.166666666667
20
-93.4570685169124
30
0.000000000000000
40
1.50000000000000
1
Blatt
100
AcDbText
  0
TEXT
  5
F10B72
330
F10B73
 100
AcDbEntity
8
Text
100
AcDbText
10
0.000000000000000
20
0.500000000000000
30
0.000000000000000
40
1.50000000000000
1

100
AcDbText
  0
LWPOLYLINE
  5
F10B74
330
F10B75
100
AcDbEntity
8
Rahmen
100
AcDbPolyline
90
   4
70
   1
43
   0.0
 10
63.3824804856895
 20
-91.1578490893322
 10
130.043365134432
 20
-91.1578490893322
 10
130.043365134432
 20
-97.1682567215958
 10
63.3824804856895
 20
-97.1682567215958
  0
TEXT
  5
F10B76
330
F10B77
 100
AcDbEntity
8
Text
100
AcDbText
10
64.5000000000000
20
-93.4570685169124
30
0.000000000000000
40
1.50000000000000
1
Datum:
100
AcDbText
  0
TEXT
  5
F10B78
330
F10B79
 100
AcDbEntity
8
Text
100
AcDbText
10
90.9139924833767
20
-96.4570685169124
30
0.000000000000000
40
1.50000000000000
1
29.09.2021
100
AcDbText
  0
LWPOLYLINE
  5
F10B7A
330
F10B7B
100
AcDbEntity
8
Rahmen
100
AcDbPolyline
90
   4
70
   1
43
   0.0
 10
63.3824804856895
 20
-85.1474414570685
 10
143.339115351258
 20
-85.1474414570685
 10
143.339115351258
 20
-91.1578490893322
 10
63.3824804856895
 20
-91.1578490893322
  0
TEXT
  5
F10B7C
330
F10B7D
 100
AcDbEntity
8
Text
100
AcDbText
10
0.000000000000000
20
0.500000000000000
30
0.000000000000000
40
1.50000000000000
1

100
AcDbText
  0
TEXT
  5
F10B7E
330
F10B7F
 100
AcDbEntity
8
Text
100
AcDbText
10
72.9926279271466
20
-89.6254697889564
30
0.000000000000000
40
2.50000000000000
1
VHM-Schlichtfräser 0161-100-b
100
AcDbText
  0
LWPOLYLINE
  5
F10B80
330
F10B81
100
AcDbEntity
8
Rahmen
100
AcDbPolyline
90
   4
70
   1
43
   0.0
 10
103.451864700781
 20
-79.1370338248049
 10
143.339115351258
 20
-79.1370338248049
 10
143.339115351258
 20
-85.1474414570685
 10
103.451864700781
 20
-85.1474414570685
  0
TEXT
  5
F10B82
330
F10B83
 100
AcDbEntity
8
Text
100
AcDbText
10
104.500000000000
20
-81.4570685169124
30
0.000000000000000
40
1.50000000000000
1
Zu bearb. Material:
100
AcDbText
  0
TEXT
  5
F10B84
330
F10B85
 100
AcDbEntity
8
Text
100
AcDbText
10
0.000000000000000
20
0.500000000000000
30
0.000000000000000
40
1.50000000000000
1

100
AcDbText
  0
LWPOLYLINE
  5
F10B86
330
F10B87
100
AcDbEntity
8
Rahmen
100
AcDbPolyline
90
   4
70
   1
43
   0.0
 10
63.3824804856895
 20
-79.1370338248049
 10
103.451864700781
 20
-79.1370338248049
 10
103.451864700781
 20
-85.1474414570685
 10
63.3824804856895
 20
-85.1474414570685
  0
TEXT
  5
F10B88
330
F10B89
 100
AcDbEntity
8
Text
100
AcDbText
10
64.5000000000000
20
-81.4570685169124
30
0.000000000000000
40
1.50000000000000
1
Werkstoff:
100
AcDbText
  0
TEXT
  5
F10B8A
330
F10B8B
 100
AcDbEntity
8
Text
100
AcDbText
10
80.7679965307892
20
-84.4570685169124
30
0.000000000000000
40
1.50000000000000
1
VHM
100
AcDbText
  0
LWPOLYLINE
  5
F10B8C
330
F10B8D
100
AcDbEntity
8
Rahmen
100
AcDbPolyline
90
   4
70
   1
43
   0.0
 10
103.451864700781
 20
-76.0407632263660
 10
143.339115351258
 20
-76.0407632263660
 10
143.339115351258
 20
-79.1370338248049
 10
103.451864700781
 20
-79.1370338248049
  0
TEXT
  5
F10B8E
330
F10B8F
 100
AcDbEntity
8
Text
100
AcDbText
10
0.000000000000000
20
0.500000000000000
30
0.000000000000000
40
1.50000000000000
1

100
AcDbText
  0
TEXT
  5
F10B90
330
F10B91
 100
AcDbEntity
8
Text
100
AcDbText
10
0.000000000000000
20
0.500000000000000
30
0.000000000000000
40
1.50000000000000
1

100
AcDbText
  0
LWPOLYLINE
  5
F10B92
330
F10B93
100
AcDbEntity
8
Rahmen
100
AcDbPolyline
90
   4
70
   1
43
   0.0
 10
63.3824804856895
 20
-76.0407632263660
 10
103.451864700781
 20
-76.0407632263660
 10
103.451864700781
 20
-79.1370338248049
 10
63.3824804856895
 20
-79.1370338248049
  0
TEXT
  5
F10B94
330
F10B95
 100
AcDbEntity
8
Text
100
AcDbText
10
64.5000000000000
20
-78.4570685169124
30
0.000000000000000
40
1.50000000000000
1
Maßstab:
100
AcDbText
  0
TEXT
  5
F10B96
330
F10B97
 100
AcDbEntity
8
Text
100
AcDbText
10
89.0411968777103
20
-78.4570685169124
30
0.000000000000000
40
1.50000000000000
1
1 : 1
100
AcDbText
0
VIEWPORT
5
294
102
{ACAD_XDICTIONARY
360
58A
102
}
330
25D
100
AcDbEntity
67
1
8
0
60
1
100
AcDbViewport
10
0.0
20
0.0
30
0.0
40
10.0
41
10.0
68
-1
69
1
12
0.0
22
0.0
13
0.0
23
0.0
14
1.0
24
1.0
15
0.0
25
0.0
16
0.0
26
0.0
36
1.0
17
0.0
27
0.0
37
0.0
42
0.0
43
0.0
44
0.0
45
10.0
50
0.0
51
0.0000000000007958
72
100
90
32800
1

281
0
71
0
74
0
110
0.0
120
0.0
130
0.0
111
1.0
121
0.0
131
0.0
112
0.0
122
1.0
132
0.0
79
0
146
0.0
1001
VD_INVISIBLE_NOT_FOR_READ
1000
VD_INVISIBLE_NOT_FOR_READ
0
VIEWPORT
5
295
102
{ACAD_XDICTIONARY
360
58C
102
}
330
25D
100
AcDbEntity
67
1
8
0
60
1
100
AcDbViewport
10
0.0
20
0.0
30
0.0
40
10.0
41
10.0
68
0
69
2
12
0.0
22
0.0
13
0.0
23
0.0
14
1.0
24
1.0
15
0.0
25
0.0
16
0.0
26
0.0
36
1.0
17
0.0
27
0.0
37
0.0
42
0.0
43
0.0
44
0.0
45
10.0
50
0.0
51
0.0000000000007958
72
100
90
163872
1

281
0
71
0
74
0
110
0.0
120
0.0
130
0.0
111
1.0
121
0.0
131
0.0
112
0.0
122
1.0
132
0.0
79
0
146
0.0
1001
VD_INVISIBLE_NOT_FOR_READ
1000
VD_INVISIBLE_NOT_FOR_READ
0
ENDSEC
0
SECTION
2
OBJECTS
0
DICTIONARY
5
13
330
0
100
AcDbDictionary
281
1
3
ACAD_COLOR
350
FA7
3
ACAD_GROUP
350
14
3
ACAD_LAYOUT
350
FCF
3
ACAD_MATERIAL
350
F7A
3
ACAD_MLEADERSTYLE
350
FCD
3
ACAD_MLINESTYLE
350
16
3
ACAD_PLOTSETTINGS
350
17
3
ACAD_PLOTSTYLENAME
350
18
3
ACAD_SCALELIST
350
FAB
3
ACAD_TABLESTYLE
350
FA8
3
ACAD_VISUALSTYLE
350
F93
3
ACDB_RECOMPOSE_DATA
350
107E
3
AcDbVariableDictionary
350
FF0
3
DWGPROPS
350
107F
0
DICTIONARY
5
F1000F
330
F1000E
100
AcDbDictionary
280
1
281
1
3
ACAD_MTEXT_2008_RT
360
F10010
0
DICTIONARY
5
F10014
330
F10013
100
AcDbDictionary
280
1
281
1
3
ACAD_MTEXT_2008_RT
360
F10015
0
DICTIONARY
5
F10005
330
F10004
100
AcDbDictionary
280
1
281
1
3
ACAD_MTEXT_2008_RT
360
F10006
0
DICTIONARY
5
F1000A
330
F10009
100
AcDbDictionary
280
1
281
1
3
ACAD_MTEXT_2008_RT
360
F1000B
0
DICTIONARY
5
FA7
102
{ACAD_REACTORS
330
13
102
}
330
13
100
AcDbDictionary
281
1
0
DICTIONARY
5
14
330
13
100
AcDbDictionary
281
1
0
DICTIONARY
5
FCF
102
{ACAD_REACTORS
330
13
102
}
330
13
100
AcDbDictionary
281
1
3
Layout1
350
FD1
3
Model
350
FD0
0
DICTIONARY
5
F7A
102
{ACAD_REACTORS
330
13
102
}
330
13
100
AcDbDictionary
281
1
3
ByBlock
350
F83
3
ByLayer
350
F7B
3
Global
350
F8B
0
DICTIONARY
5
FCD
102
{ACAD_REACTORS
330
13
102
}
330
13
100
AcDbDictionary
281
1
3
Standard
350
FCE
0
DICTIONARY
5
16
330
13
100
AcDbDictionary
281
1
3
Standard
350
FAA
0
DICTIONARY
5
17
102
{ACAD_REACTORS
330
13
102
}
330
13
100
AcDbDictionary
281
1
0
ACDBDICTIONARYWDFLT
5
18
102
{ACAD_REACTORS
330
13
102
}
330
13
100
AcDbDictionary
281
1
3
Normal
350
19
100
AcDbDictionaryWithDefault
340
19
0
DICTIONARY
5
FAB
102
{ACAD_REACTORS
330
13
102
}
330
13
100
AcDbDictionary
281
1
3
A0
350
FAC
3
A1
350
FAD
3
A2
350
FAE
3
A3
350
FAF
3
A4
350
FB0
3
A5
350
FB1
3
A6
350
FB2
3
A7
350
FB3
3
A8
350
FB4
3
A9
350
FB5
3
B0
350
FB6
3
B1
350
FB7
3
B2
350
FB8
3
B3
350
FB9
3
B4
350
FBA
3
B5
350
FBB
3
B6
350
FBC
3
B7
350
FBD
3
B8
350
FBE
3
B9
350
FBF
3
C0
350
FC0
3
C1
350
FC1
3
C2
350
FC2
3
C3
350
FC3
3
C4
350
FC4
3
C5
350
FC5
3
C6
350
FC6
3
C7
350
FC7
3
C8
350
FC8
3
C9
350
FC9
3
D0
350
FCA
3
D1
350
FCB
3
D2
350
FCC
0
DICTIONARY
5
FA8
102
{ACAD_REACTORS
330
13
102
}
330
13
100
AcDbDictionary
281
1
3
Standard
350
FA9
0
DICTIONARY
5
F93
102
{ACAD_REACTORS
330
13
102
}
330
13
100
AcDbDictionary
281
1
3
2dWireframe
350
F99
3
3D Hidden
350
F9B
3
3dWireframe
350
F9A
3
Basic
350
F98
3
Brighten
350
F9F
3
ColorChange
350
FA3
3
Conceptual
350
F9C
3
Dim
350
F9E
3
EdgeColorOff
350
FA6
3
Facepattern
350
FA2
3
Flat
350
F94
3
FlatWithEdges
350
F95
3
Gouraud
350
F96
3
GouraudWithEdges
350
F97
3
JitterOff
350
FA4
3
Linepattern
350
FA1
3
OverhangOff
350
FA5
3
Realistic
350
F9D
3
Thicken
350
FA0
0
XRECORD
5
107E
102
{ACAD_REACTORS
330
13
102
}
330
13
100
AcDbXrecord
280
1
90
1
330
FA9
330
F1000E
330
F10013
330
F10004
330
F10009
0
DICTIONARY
5
FF0
102
{ACAD_REACTORS
330
13
102
}
330
13
100
AcDbDictionary
281
1
3
CANNOSCALE
350
FF3
3
CMLEADERSTYLE
350
FF2
3
CTABLESTYLE
350
FF1
3
DIMASSOC
350
FF6
3
INDEXCTL
350
FF5
3
SORTENTS
350
FF4
3
XCLIPFRAME
350
1078
0
XRECORD
5
107F
102
{ACAD_REACTORS
330
13
102
}
330
13
100
AcDbXrecord
280
1
1
DWGPROPS COOKIE
2

3

4

6

7

8

9

300
=
301
=
302
=
303
=
304
=
305
=
306
=
307
=
308
=
309
=
40
0.0
41
0.0
42
0.0
1

90
0
0
XRECORD
5
F10010
102
{ACAD_REACTORS
330
F1000F
102
}
330
F1000F
100
AcDbXrecord
280
1
40
48458.0
1
25
0
XRECORD
5
F10015
102
{ACAD_REACTORS
330
F10014
102
}
330
F10014
100
AcDbXrecord
280
1
40
48458.0
1
73
0
XRECORD
5
F10006
102
{ACAD_REACTORS
330
F10005
102
}
330
F10005
100
AcDbXrecord
280
1
40
48458.0
1
Ø10
0
LAYOUT
5
FD1
102
{ACAD_XDICTIONARY
360
10A9
102
}
102
{ACAD_REACTORS
330
FCF
102
}
330
FCF
100
AcDbPlotSettings
1

2
Microsoft XPS Document Writer
4

6

40
0.0
41
0.0
42
0.0
43
0.0
44
0.0
45
0.0
46
0.0
47
0.0
48
0.0
49
0.0
140
0.0
141
0.0
142
1.0
143
1.0
70
688
72
0
73
0
74
5
7

75
16
147
1.0
148
0.0
149
0.0
100
AcDbLayout
1
Layout1
70
1
71
1
10
0.0
20
0.0
11
12.0
21
9.0
12
0.0
22
0.0
32
0.0
14
1.000000000000000E+20
24
1.000000000000000E+20
34
1.000000000000000E+20
15
-1.000000000000000E+20
25
-1.000000000000000E+20
35
-1.000000000000000E+20
146
0.0
13
0.0
23
0.0
33
0.0
16
1.0
26
0.0
36
0.0
17
0.0
27
1.0
37
0.0
76
0
330
25D
0
LAYOUT
5
FD0
102
{ACAD_XDICTIONARY
360
10A7
102
}
102
{ACAD_REACTORS
330
FCF
102
}
330
FCF
100
AcDbPlotSettings
1

2
Microsoft XPS Document Writer
4

6

40
0.0
41
0.0
42
0.0
43
0.0
44
0.0
45
0.0
46
0.0
47
0.0
48
0.0
49
0.0
140
0.0
141
0.0
142
1.0
143
1.0
70
1712
72
0
73
0
74
0
7

75
0
147
1.0
148
0.0
149
0.0
100
AcDbLayout
1
Model
70
1
71
0
10
0.0
20
0.0
11
12.0
21
9.0
12
0.0
22
0.0
32
0.0
14
0.0
24
0.0
34
0.0
15
0.0
25
0.0
35
0.0
146
0.0
13
0.0
23
0.0
33
0.0
16
1.0
26
0.0
36
0.0
17
0.0
27
1.0
37
0.0
76
0
330
261
331
26B
0
MATERIAL
5
F83
102
{ACAD_XDICTIONARY
360
F84
102
}
102
{ACAD_REACTORS
330
F7A
102
}
330
F7A
100
AcDbMaterial
1
ByBlock
72
0
43
0.0208333333333333
43
0.0
43
0.0
43
0.0
43
0.0
43
0.0208333333333333
43
0.0
43
0.0
43
0.0
43
0.0
43
1.0
43
0.0
43
0.0
43
0.0
43
0.0
43
1.0
77
0
47
0.0208333333333333
47
0.0
47
0.0
47
0.0
47
0.0
47
0.0208333333333333
47
0.0
47
0.0
47
0.0
47
0.0
47
1.0
47
0.0
47
0.0
47
0.0
47
0.0
47
1.0
171
0
49
0.0208333333333333
49
0.0
49
0.0
49
0.0
49
0.0
49
0.0208333333333333
49
0.0
49
0.0
49
0.0
49
0.0
49
1.0
49
0.0
49
0.0
49
0.0
49
0.0
49
1.0
175
0
142
0.0208333333333333
142
0.0
142
0.0
142
0.0
142
0.0
142
0.0208333333333333
142
0.0
142
0.0
142
0.0
142
0.0
142
1.0
142
0.0
142
0.0
142
0.0
142
0.0
142
1.0
179
0
144
0.0208333333333333
144
0.0
144
0.0
144
0.0
144
0.0
144
0.0208333333333333
144
0.0
144
0.0
144
0.0
144
0.0
144
1.0
144
0.0
144
0.0
144
0.0
144
0.0
144
1.0
147
0.0208333333333333
147
0.0
147
0.0
147
0.0
147
0.0
147
0.0208333333333333
147
0.0
147
0.0
147
0.0
147
0.0
147
1.0
147
0.0
147
0.0
147
0.0
147
0.0
147
1.0
0
MATERIAL
5
F7B
102
{ACAD_XDICTIONARY
360
F7C
102
}
102
{ACAD_REACTORS
330
F7A
102
}
330
F7A
100
AcDbMaterial
1
ByLayer
72
0
43
0.0208333333333333
43
0.0
43
0.0
43
0.0
43
0.0
43
0.0208333333333333
43
0.0
43
0.0
43
0.0
43
0.0
43
1.0
43
0.0
43
0.0
43
0.0
43
0.0
43
1.0
77
0
47
0.0208333333333333
47
0.0
47
0.0
47
0.0
47
0.0
47
0.0208333333333333
47
0.0
47
0.0
47
0.0
47
0.0
47
1.0
47
0.0
47
0.0
47
0.0
47
0.0
47
1.0
171
0
49
0.0208333333333333
49
0.0
49
0.0
49
0.0
49
0.0
49
0.0208333333333333
49
0.0
49
0.0
49
0.0
49
0.0
49
1.0
49
0.0
49
0.0
49
0.0
49
0.0
49
1.0
175
0
142
0.0208333333333333
142
0.0
142
0.0
142
0.0
142
0.0
142
0.0208333333333333
142
0.0
142
0.0
142
0.0
142
0.0
142
1.0
142
0.0
142
0.0
142
0.0
142
0.0
142
1.0
179
0
144
0.0208333333333333
144
0.0
144
0.0
144
0.0
144
0.0
144
0.0208333333333333
144
0.0
144
0.0
144
0.0
144
0.0
144
1.0
144
0.0
144
0.0
144
0.0
144
0.0
144
1.0
147
0.0208333333333333
147
0.0
147
0.0
147
0.0
147
0.0
147
0.0208333333333333
147
0.0
147
0.0
147
0.0
147
0.0
147
1.0
147
0.0
147
0.0
147
0.0
147
0.0
147
1.0
0
MATERIAL
5
F8B
102
{ACAD_XDICTIONARY
360
F8C
102
}
102
{ACAD_REACTORS
330
F7A
102
}
330
F7A
100
AcDbMaterial
1
Global
72
0
43
0.0208333333333333
43
0.0
43
0.0
43
0.0
43
0.0
43
0.0208333333333333
43
0.0
43
0.0
43
0.0
43
0.0
43
1.0
43
0.0
43
0.0
43
0.0
43
0.0
43
1.0
77
0
47
0.0208333333333333
47
0.0
47
0.0
47
0.0
47
0.0
47
0.0208333333333333
47
0.0
47
0.0
47
0.0
47
0.0
47
1.0
47
0.0
47
0.0
47
0.0
47
0.0
47
1.0
171
0
49
0.0208333333333333
49
0.0
49
0.0
49
0.0
49
0.0
49
0.0208333333333333
49
0.0
49
0.0
49
0.0
49
0.0
49
1.0
49
0.0
49
0.0
49
0.0
49
0.0
49
1.0
175
0
142
0.0208333333333333
142
0.0
142
0.0
142
0.0
142
0.0
142
0.0208333333333333
142
0.0
142
0.0
142
0.0
142
0.0
142
1.0
142
0.0
142
0.0
142
0.0
142
0.0
142
1.0
179
0
144
0.0208333333333333
144
0.0
144
0.0
144
0.0
144
0.0
144
0.0208333333333333
144
0.0
144
0.0
144
0.0
144
0.0
144
1.0
144
0.0
144
0.0
144
0.0
144
0.0
144
1.0
147
0.0208333333333333
147
0.0
147
0.0
147
0.0
147
0.0
147
0.0208333333333333
147
0.0
147
0.0
147
0.0
147
0.0
147
1.0
147
0.0
147
0.0
147
0.0
147
0.0
147
1.0
0
MLEADERSTYLE
5
FCE
102
{ACAD_REACTORS
330
FCD
102
}
330
FCD
100
AcDbMLeaderStyle
170
2
171
1
172
0
90
2
40
0.0
41
0.0
173
1
91
-1056964608
340
256
92
-2
290
1
42
0.09
291
1
43
0.36
3
Standard
44
0.18
300

342
253
174
1
178
6
175
1
176
0
93
-1056964608
45
0.18
292
0
297
0
46
0.18
94
-1056964608
47
1.0
49
1.0
140
1.0
293
1
141
0.0
294
1
177
0
142
1.0
295
0
296
0
143
0.125
1001
ACAD_MLEADERVER
1070
2
0
MLINESTYLE
5
FAA
102
{ACAD_REACTORS
330
16
102
}
330
16
100
AcDbMlineStyle
2
STANDARD
70
0
3

62
256
51
90.0
52
90.0
71
2
49
0.5
62
256
6
BYLAYER
49
-0.5
62
256
6
BYLAYER
0
ACDBPLACEHOLDER
5
19
102
{ACAD_REACTORS
330
18
102
}
330
18
0
SCALE
5
FAC
102
{ACAD_REACTORS
330
FAB
102
}
330
FAB
100
AcDbScale
70
0
300
1:1
140
1.0
141
1.0
290
1
0
SCALE
5
FAD
102
{ACAD_REACTORS
330
FAB
102
}
330
FAB
100
AcDbScale
70
0
300
1:2
140
1.0
141
2.0
290
0
0
SCALE
5
FAE
102
{ACAD_REACTORS
330
FAB
102
}
330
FAB
100
AcDbScale
70
0
300
1:4
140
1.0
141
4.0
290
0
0
SCALE
5
FAF
102
{ACAD_REACTORS
330
FAB
102
}
330
FAB
100
AcDbScale
70
0
300
1:5
140
1.0
141
5.0
290
0
0
SCALE
5
FB0
102
{ACAD_REACTORS
330
FAB
102
}
330
FAB
100
AcDbScale
70
0
300
1:8
140
1.0
141
8.0
290
0
0
SCALE
5
FB1
102
{ACAD_REACTORS
330
FAB
102
}
330
FAB
100
AcDbScale
70
0
300
1:10
140
1.0
141
10.0
290
0
0
SCALE
5
FB2
102
{ACAD_REACTORS
330
FAB
102
}
330
FAB
100
AcDbScale
70
0
300
1:16
140
1.0
141
16.0
290
0
0
SCALE
5
FB3
102
{ACAD_REACTORS
330
FAB
102
}
330
FAB
100
AcDbScale
70
0
300
1:20
140
1.0
141
20.0
290
0
0
SCALE
5
FB4
102
{ACAD_REACTORS
330
FAB
102
}
330
FAB
100
AcDbScale
70
0
300
1:30
140
1.0
141
30.0
290
0
0
SCALE
5
FB5
102
{ACAD_REACTORS
330
FAB
102
}
330
FAB
100
AcDbScale
70
0
300
1:40
140
1.0
141
40.0
290
0
0
SCALE
5
FB6
102
{ACAD_REACTORS
330
FAB
102
}
330
FAB
100
AcDbScale
70
0
300
1:50
140
1.0
141
50.0
290
0
0
SCALE
5
FB7
102
{ACAD_REACTORS
330
FAB
102
}
330
FAB
100
AcDbScale
70
0
300
1:100
140
1.0
141
100.0
290
0
0
SCALE
5
FB8
102
{ACAD_REACTORS
330
FAB
102
}
330
FAB
100
AcDbScale
70
0
300
2:1
140
2.0
141
1.0
290
0
0
SCALE
5
FB9
102
{ACAD_REACTORS
330
FAB
102
}
330
FAB
100
AcDbScale
70
0
300
4:1
140
4.0
141
1.0
290
0
0
SCALE
5
FBA
102
{ACAD_REACTORS
330
FAB
102
}
330
FAB
100
AcDbScale
70
0
300
8:1
140
8.0
141
1.0
290
0
0
SCALE
5
FBB
102
{ACAD_REACTORS
330
FAB
102
}
330
FAB
100
AcDbScale
70
0
300
10:1
140
10.0
141
1.0
290
0
0
SCALE
5
FBC
102
{ACAD_REACTORS
330
FAB
102
}
330
FAB
100
AcDbScale
70
0
300
100:1
140
100.0
141
1.0
290
0
0
SCALE
5
FBD
102
{ACAD_REACTORS
330
FAB
102
}
330
FAB
100
AcDbScale
70
0
300
1/128" = 1'-0"
140
0.0078125
141
12.0
290
0
0
SCALE
5
FBE
102
{ACAD_REACTORS
330
FAB
102
}
330
FAB
100
AcDbScale
70
0
300
1/64" = 1'-0"
140
0.015625
141
12.0
290
0
0
SCALE
5
FBF
102
{ACAD_REACTORS
330
FAB
102
}
330
FAB
100
AcDbScale
70
0
300
1/32" = 1'-0"
140
0.03125
141
12.0
290
0
0
SCALE
5
FC0
102
{ACAD_REACTORS
330
FAB
102
}
330
FAB
100
AcDbScale
70
0
300
1/16" = 1'-0"
140
0.0625
141
12.0
290
0
0
SCALE
5
FC1
102
{ACAD_REACTORS
330
FAB
102
}
330
FAB
100
AcDbScale
70
0
300
3/32" = 1'-0"
140
0.09375
141
12.0
290
0
0
SCALE
5
FC2
102
{ACAD_REACTORS
330
FAB
102
}
330
FAB
100
AcDbScale
70
0
300
1/8" = 1'-0"
140
0.125
141
12.0
290
0
0
SCALE
5
FC3
102
{ACAD_REACTORS
330
FAB
102
}
330
FAB
100
AcDbScale
70
0
300
3/16" = 1'-0"
140
0.1875
141
12.0
290
0
0
SCALE
5
FC4
102
{ACAD_REACTORS
330
FAB
102
}
330
FAB
100
AcDbScale
70
0
300
1/4" = 1'-0"
140
0.25
141
12.0
290
0
0
SCALE
5
FC5
102
{ACAD_REACTORS
330
FAB
102
}
330
FAB
100
AcDbScale
70
0
300
3/8" = 1'-0"
140
0.375
141
12.0
290
0
0
SCALE
5
FC6
102
{ACAD_REACTORS
330
FAB
102
}
330
FAB
100
AcDbScale
70
0
300
1/2" = 1'-0"
140
0.5
141
12.0
290
0
0
SCALE
5
FC7
102
{ACAD_REACTORS
330
FAB
102
}
330
FAB
100
AcDbScale
70
0
300
3/4" = 1'-0"
140
0.75
141
12.0
290
0
0
SCALE
5
FC8
102
{ACAD_REACTORS
330
FAB
102
}
330
FAB
100
AcDbScale
70
0
300
1" = 1'-0"
140
1.0
141
12.0
290
0
0
SCALE
5
FC9
102
{ACAD_REACTORS
330
FAB
102
}
330
FAB
100
AcDbScale
70
0
300
1-1/2" = 1'-0"
140
1.5
141
12.0
290
0
0
SCALE
5
FCA
102
{ACAD_REACTORS
330
FAB
102
}
330
FAB
100
AcDbScale
70
0
300
3" = 1'-0"
140
3.0
141
12.0
290
0
0
SCALE
5
FCB
102
{ACAD_REACTORS
330
FAB
102
}
330
FAB
100
AcDbScale
70
0
300
6" = 1'-0"
140
6.0
141
12.0
290
0
0
SCALE
5
FCC
102
{ACAD_REACTORS
330
FAB
102
}
330
FAB
100
AcDbScale
70
0
300
1'-0" = 1'-0"
140
12.0
141
12.0
290
0
0
TABLESTYLE
5
FA9
102
{ACAD_XDICTIONARY
360
FF8
102
}
102
{ACAD_REACTORS
330
FA8
102
}
330
FA8
100
AcDbTableStyle
3
Standard
70
0
71
0
40
0.06
41
0.06
280
0
281
0
7
Standard
140
0.18
170
2
62
0
63
7
283
0
274
-2
284
1
64
0
275
-2
285
1
65
0
276
-2
286
1
66
0
277
-2
287
1
67
0
278
-2
288
1
68
0
279
-2
289
1
69
0
7
Standard
140
0.25
170
5
62
0
63
7
283
0
274
-2
284
1
64
0
275
-2
285
1
65
0
276
-2
286
1
66
0
277
-2
287
1
67
0
278
-2
288
1
68
0
279
-2
289
1
69
0
7
Standard
140
0.18
170
5
62
0
63
7
283
0
274
-2
284
1
64
0
275
-2
285
1
65
0
276
-2
286
1
66
0
277
-2
287
1
67
0
278
-2
288
1
68
0
279
-2
289
1
69
0
0
VISUALSTYLE
5
F99
102
{ACAD_XDICTIONARY
360
108A
102
}
102
{ACAD_REACTORS
330
F93
102
}
330
F93
100
AcDbVisualStyle
2

70
4
71
0
72
2
73
0
90
0
40
-0.6
41
-30.0
62
5
63
7
74
1
91
4
64
7
65
257
75
1
175
1
42
1.0
92
0
66
257
43
1.0
76
1
77
6
78
2
67
7
79
5
170
0
171
0
290
0
174
0
93
1
44
0.0
173
0
291
0
45
0.0
1001
ACAD
1000
AcDbSavedByObjectVersion
1070
0
0
VISUALSTYLE
5
F9B
102
{ACAD_XDICTIONARY
360
108E
102
}
102
{ACAD_REACTORS
330
F93
102
}
330
F93
100
AcDbVisualStyle
2

70
6
71
1
72
2
73
2
90
0
40
-0.6
41
-30.0
62
5
63
7
74
2
91
2
64
7
65
257
75
2
175
1
42
179.0
92
0
66
257
43
1.0
76
1
77
6
78
2
67
7
79
3
170
0
171
0
290
0
174
0
93
1
44
0.0
173
0
291
0
45
0.0
1001
ACAD
1000
AcDbSavedByObjectVersion
1070
0
0
VISUALSTYLE
5
F9A
102
{ACAD_XDICTIONARY
360
108C
102
}
102
{ACAD_REACTORS
330
F93
102
}
330
F93
100
AcDbVisualStyle
2

70
5
71
0
72
2
73
0
90
0
40
-0.6
41
-30.0
62
5
63
7
74
1
91
4
64
7
65
257
75
1
175
1
42
1.0
92
0
66
257
43
1.0
76
1
77
6
78
2
67
7
79
5
170
0
171
0
290
0
174
0
93
1
44
0.0
173
0
291
0
45
0.0
1001
ACAD
1000
AcDbSavedByObjectVersion
1070
0
0
VISUALSTYLE
5
F98
102
{ACAD_XDICTIONARY
360
1088
102
}
102
{ACAD_REACTORS
330
F93
102
}
330
F93
100
AcDbVisualStyle
2

70
7
71
1
72
0
73
1
90
0
40
-0.6
41
-30.0
62
5
63
7
74
0
91
4
64
7
65
257
75
1
175
1
42
1.0
92
8
66
7
43
1.0
76
1
77
6
78
2
67
7
79
5
170
0
171
0
290
0
174
0
93
1
44
0.0
173
0
291
1
45
0.0
1001
ACAD
1000
AcDbSavedByObjectVersion
1070
0
0
VISUALSTYLE
5
F9F
102
{ACAD_XDICTIONARY
360
1096
102
}
102
{ACAD_REACTORS
330
F93
102
}
330
F93
100
AcDbVisualStyle
2

70
12
71
2
72
2
73
0
90
0
40
-0.6
41
-30.0
62
5
63
7
74
1
91
4
64
7
65
257
75
1
175
1
42
1.0
92
8
66
7
43
1.0
76
1
77
6
78
2
67
7
79
5
170
0
171
0
290
0
174
0
93
1
44
50.0
173
0
291
1
45
0.0
1001
ACAD
1000
AcDbSavedByObjectVersion
1070
0
0
VISUALSTYLE
5
FA3
102
{ACAD_XDICTIONARY
360
109E
102
}
102
{ACAD_REACTORS
330
F93
102
}
330
F93
100
AcDbVisualStyle
2

70
16
71
2
72
2
73
3
90
0
40
-0.6
41
-30.0
62
5
63
8
74
1
91
4
64
7
65
257
75
1
175
1
42
1.0
92
8
66
8
43
1.0
76
1
77
6
78
2
67
7
79
5
170
0
171
0
290
0
174
0
93
1
44
0.0
173
0
291
1
45
0.0
1001
ACAD
1000
AcDbSavedByObjectVersion
1070
0
0
VISUALSTYLE
5
F9C
102
{ACAD_XDICTIONARY
360
1090
102
}
102
{ACAD_REACTORS
330
F93
102
}
330
F93
100
AcDbVisualStyle
2

70
9
71
3
72
2
73
0
90
0
40
-0.6
41
-30.0
62
5
63
7
74
2
91
2
64
7
65
257
75
1
175
1
42
179.0
92
8
66
7
43
1.0
76
1
77
6
78
2
67
7
79
3
170
0
171
0
290
0
174
0
93
1
44
0.0
173
0
291
0
45
0.0
1001
ACAD
1000
AcDbSavedByObjectVersion
1070
0
0
VISUALSTYLE
5
F9E
102
{ACAD_XDICTIONARY
360
1094
102
}
102
{ACAD_REACTORS
330
F93
102
}
330
F93
100
AcDbVisualStyle
2

70
11
71
2
72
2
73
0
90
0
40
-0.6
41
-30.0
62
5
63
7
74
1
91
4
64
7
65
257
75
1
175
1
42
1.0
92
8
66
7
43
1.0
76
1
77
6
78
2
67
7
79
5
170
0
171
0
290
0
174
0
93
1
44
-50.0
173
0
291
1
45
0.0
1001
ACAD
1000
AcDbSavedByObjectVersion
1070
0
0
VISUALSTYLE
5
FA6
102
{ACAD_XDICTIONARY
360
10A4
102
}
102
{ACAD_REACTORS
330
F93
102
}
330
F93
100
AcDbVisualStyle
2

70
22
71
2
72
2
73
0
90
0
40
-0.6
41
-30.0
62
5
63
7
74
1
91
4
64
7
65
257
75
1
175
1
42
1.0
92
8
66
7
43
1.0
76
1
77
6
78
2
67
7
79
5
170
0
171
0
290
0
174
0
93
1
44
0.0
173
0
291
1
45
0.0
1001
ACAD
1000
AcDbSavedByObjectVersion
1070
0
0
VISUALSTYLE
5
FA2
102
{ACAD_XDICTIONARY
360
109C
102
}
102
{ACAD_REACTORS
330
F93
102
}
330
F93
100
AcDbVisualStyle
2

70
15
71
2
72
2
73
0
90
0
40
-0.6
41
-30.0
62
5
63
7
74
1
91
4
64
7
65
257
75
1
175
1
42
1.0
92
8
66
7
43
1.0
76
1
77
6
78
2
67
7
79
5
170
0
171
0
290
0
174
0
93
1
44
0.0
173
0
291
1
45
0.0
1001
ACAD
1000
AcDbSavedByObjectVersion
1070
0
0
VISUALSTYLE
5
F94
102
{ACAD_XDICTIONARY
360
1080
102
}
102
{ACAD_REACTORS
330
F93
102
}
330
F93
100
AcDbVisualStyle
2

70
0
71
2
72
1
73
1
90
2
40
-0.6
41
30.0
62
5
63
7
74
0
91
4
64
7
65
257
75
1
175
1
42
1.0
92
8
66
7
43
1.0
76
1
77
6
78
2
67
7
79
5
170
0
171
0
290
0
174
0
93
13
44
0.0
173
0
291
1
45
0.0
1001
ACAD
1000
AcDbSavedByObjectVersion
1070
0
0
VISUALSTYLE
5
F95
102
{ACAD_XDICTIONARY
360
1082
102
}
102
{ACAD_REACTORS
330
F93
102
}
330
F93
100
AcDbVisualStyle
2

70
1
71
2
72
1
73
1
90
2
40
-0.6
41
30.0
62
5
63
7
74
1
91
4
64
7
65
257
75
1
175
1
42
1.0
92
0
66
257
43
1.0
76
1
77
6
78
2
67
7
79
5
170
0
171
0
290
0
174
0
93
13
44
0.0
173
0
291
1
45
0.0
1001
ACAD
1000
AcDbSavedByObjectVersion
1070
0
0
VISUALSTYLE
5
F96
102
{ACAD_XDICTIONARY
360
1084
102
}
102
{ACAD_REACTORS
330
F93
102
}
330
F93
100
AcDbVisualStyle
2

70
2
71
2
72
2
73
1
90
2
40
-0.6
41
30.0
62
5
63
7
74
0
91
4
64
7
65
257
75
1
175
1
42
1.0
92
0
66
7
43
1.0
76
1
77
6
78
2
67
7
79
5
170
0
171
0
290
0
174
0
93
13
44
0.0
173
0
291
1
45
0.0
1001
ACAD
1000
AcDbSavedByObjectVersion
1070
0
0
VISUALSTYLE
5
F97
102
{ACAD_XDICTIONARY
360
1086
102
}
102
{ACAD_REACTORS
330
F93
102
}
330
F93
100
AcDbVisualStyle
2

70
3
71
2
72
2
73
1
90
2
40
-0.6
41
30.0
62
5
63
7
74
1
91
4
64
7
65
257
75
1
175
1
42
1.0
92
0
66
257
43
1.0
76
1
77
6
78
2
67
7
79
5
170
0
171
0
290
0
174
0
93
13
44
0.0
173
0
291
1
45
0.0
1001
ACAD
1000
AcDbSavedByObjectVersion
1070
0
0
VISUALSTYLE
5
FA4
102
{ACAD_XDICTIONARY
360
10A0
102
}
102
{ACAD_REACTORS
330
F93
102
}
330
F93
100
AcDbVisualStyle
2

70
20
71
2
72
2
73
0
90
0
40
-0.6
41
-30.0
62
5
63
7
74
1
91
4
64
7
65
257
75
1
175
1
42
1.0
92
10
66
7
43
1.0
76
1
77
6
78
2
67
7
79
5
170
0
171
0
290
0
174
0
93
1
44
0.0
173
0
291
1
45
0.0
1001
ACAD
1000
AcDbSavedByObjectVersion
1070
0
0
VISUALSTYLE
5
FA1
102
{ACAD_XDICTIONARY
360
109A
102
}
102
{ACAD_REACTORS
330
F93
102
}
330
F93
100
AcDbVisualStyle
2

70
14
71
2
72
2
73
0
90
0
40
-0.6
41
-30.0
62
5
63
7
74
1
91
4
64
7
65
257
75
7
175
7
42
1.0
92
8
66
7
43
1.0
76
1
77
6
78
2
67
7
79
5
170
0
171
0
290
0
174
0
93
1
44
0.0
173
0
291
1
45
0.0
1001
ACAD
1000
AcDbSavedByObjectVersion
1070
0
0
VISUALSTYLE
5
FA5
102
{ACAD_XDICTIONARY
360
10A2
102
}
102
{ACAD_REACTORS
330
F93
102
}
330
F93
100
AcDbVisualStyle
2

70
21
71
2
72
2
73
0
90
0
40
-0.6
41
-30.0
62
5
63
7
74
1
91
4
64
7
65
257
75
1
175
1
42
1.0
92
9
66
7
43
1.0
76
1
77
6
78
2
67
7
79
5
170
0
171
0
290
0
174
0
93
1
44
0.0
173
0
291
1
45
0.0
1001
ACAD
1000
AcDbSavedByObjectVersion
1070
0
0
VISUALSTYLE
5
F9D
102
{ACAD_XDICTIONARY
360
1092
102
}
102
{ACAD_REACTORS
330
F93
102
}
330
F93
100
AcDbVisualStyle
2

70
8
71
2
72
2
73
0
90
0
40
-0.6
41
-30.0
62
5
63
7
74
1
91
0
64
7
65
257
75
1
175
1
42
1.0
92
8
66
8
43
1.0
76
1
77
6
78
2
67
7
79
5
170
0
171
0
290
0
174
0
93
13
44
0.0
173
0
291
0
45
0.0
1001
ACAD
1000
AcDbSavedByObjectVersion
1070
0
0
VISUALSTYLE
5
FA0
102
{ACAD_XDICTIONARY
360
1098
102
}
102
{ACAD_REACTORS
330
F93
102
}
330
F93
100
AcDbVisualStyle
2

70
13
71
2
72
2
73
0
90
0
40
-0.6
41
-30.0
62
5
63
7
74
1
91
4
64
7
65
257
75
1
175
1
42
1.0
92
12
66
7
43
1.0
76
1
77
6
78
2
67
7
79
5
170
0
171
0
290
0
174
0
93
1
44
0.0
173
0
291
1
45
0.0
1001
ACAD
1000
AcDbSavedByObjectVersion
1070
0
0
DICTIONARYVAR
5
FF3
102
{ACAD_REACTORS
330
FF0
102
}
330
FF0
100
DictionaryVariables
280
0
1
1:1
0
DICTIONARYVAR
5
FF2
102
{ACAD_REACTORS
330
FF0
102
}
330
FF0
100
DictionaryVariables
280
0
1
STANDARD
0
DICTIONARYVAR
5
FF1
102
{ACAD_REACTORS
330
FF0
102
}
330
FF0
100
DictionaryVariables
280
0
1
STANDARD
0
DICTIONARYVAR
5
FF6
102
{ACAD_REACTORS
330
FF0
102
}
330
FF0
100
DictionaryVariables
280
0
1
1
0
DICTIONARYVAR
5
FF5
102
{ACAD_REACTORS
330
FF0
102
}
330
FF0
100
DictionaryVariables
280
0
1
0
0
DICTIONARYVAR
5
FF4
102
{ACAD_REACTORS
330
FF0
102
}
330
FF0
100
DictionaryVariables
280
0
1
127
0
DICTIONARYVAR
5
1078
102
{ACAD_REACTORS
330
FF0
102
}
330
FF0
100
DictionaryVariables
280
0
1
2
0
DICTIONARY
5
10A9
330
FD1
100
AcDbDictionary
280
1
281
1
3
ACAD_XREC_ROUNDTRIP
360
10AA
0
DICTIONARY
5
10A7
330
FD0
100
AcDbDictionary
280
1
281
1
3
ACAD_XREC_ROUNDTRIP
360
10A8
0
DICTIONARY
5
F84
330
F83
100
AcDbDictionary
280
1
281
1
3
ACAD_XREC_ROUNDTRIP
360
FFF
3
BUMPTILE
360
F86
3
DIFFUSETILE
360
F85
3
OPACITYTILE
360
F89
3
REFLECTIONTILE
360
F88
3
REFRACTIONTILE
360
F8A
3
SPECULARTILE
360
F87
0
DICTIONARY
5
F7C
330
F7B
100
AcDbDictionary
280
1
281
1
3
ACAD_XREC_ROUNDTRIP
360
FFE
3
BUMPTILE
360
F7E
3
DIFFUSETILE
360
F7D
3
OPACITYTILE
360
F81
3
REFLECTIONTILE
360
F80
3
REFRACTIONTILE
360
F82
3
SPECULARTILE
360
F7F
0
DICTIONARY
5
F8C
330
F8B
100
AcDbDictionary
280
1
281
1
3
ACAD_XREC_ROUNDTRIP
360
1000
3
BUMPTILE
360
F8E
3
DIFFUSETILE
360
F8D
3
OPACITYTILE
360
F91
3
REFLECTIONTILE
360
F90
3
REFRACTIONTILE
360
F92
3
SPECULARTILE
360
F8F
0
DICTIONARY
5
FF8
330
FA9
100
AcDbDictionary
280
1
281
1
3
ACAD_ROUNDTRIP_2008_TABLESTYLE_CELLSTYLEMAP
360
1079
3
ACAD_XREC_ROUNDTRIP
360
10A6
0
DICTIONARY
5
108A
330
F99
100
AcDbDictionary
280
1
281
1
3
ACAD_XREC_ROUNDTRIP
360
108B
0
DICTIONARY
5
108E
330
F9B
100
AcDbDictionary
280
1
281
1
3
ACAD_XREC_ROUNDTRIP
360
108F
0
DICTIONARY
5
108C
330
F9A
100
AcDbDictionary
280
1
281
1
3
ACAD_XREC_ROUNDTRIP
360
108D
0
DICTIONARY
5
1088
330
F98
100
AcDbDictionary
280
1
281
1
3
ACAD_XREC_ROUNDTRIP
360
1089
0
DICTIONARY
5
1096
330
F9F
100
AcDbDictionary
280
1
281
1
3
ACAD_XREC_ROUNDTRIP
360
1097
0
DICTIONARY
5
109E
330
FA3
100
AcDbDictionary
280
1
281
1
3
ACAD_XREC_ROUNDTRIP
360
109F
0
DICTIONARY
5
1090
330
F9C
100
AcDbDictionary
280
1
281
1
3
ACAD_XREC_ROUNDTRIP
360
1091
0
DICTIONARY
5
1094
330
F9E
100
AcDbDictionary
280
1
281
1
3
ACAD_XREC_ROUNDTRIP
360
1095
0
DICTIONARY
5
10A4
330
FA6
100
AcDbDictionary
280
1
281
1
3
ACAD_XREC_ROUNDTRIP
360
10A5
0
DICTIONARY
5
109C
330
FA2
100
AcDbDictionary
280
1
281
1
3
ACAD_XREC_ROUNDTRIP
360
109D
0
DICTIONARY
5
1080
330
F94
100
AcDbDictionary
280
1
281
1
3
ACAD_XREC_ROUNDTRIP
360
1081
0
DICTIONARY
5
1082
330
F95
100
AcDbDictionary
280
1
281
1
3
ACAD_XREC_ROUNDTRIP
360
1083
0
DICTIONARY
5
1084
330
F96
100
AcDbDictionary
280
1
281
1
3
ACAD_XREC_ROUNDTRIP
360
1085
0
DICTIONARY
5
1086
330
F97
100
AcDbDictionary
280
1
281
1
3
ACAD_XREC_ROUNDTRIP
360
1087
0
DICTIONARY
5
10A0
330
FA4
100
AcDbDictionary
280
1
281
1
3
ACAD_XREC_ROUNDTRIP
360
10A1
0
DICTIONARY
5
109A
330
FA1
100
AcDbDictionary
280
1
281
1
3
ACAD_XREC_ROUNDTRIP
360
109B
0
DICTIONARY
5
10A2
330
FA5
100
AcDbDictionary
280
1
281
1
3
ACAD_XREC_ROUNDTRIP
360
10A3
0
DICTIONARY
5
1092
330
F9D
100
AcDbDictionary
280
1
281
1
3
ACAD_XREC_ROUNDTRIP
360
1093
0
DICTIONARY
5
1098
330
FA0
100
AcDbDictionary
280
1
281
1
3
ACAD_XREC_ROUNDTRIP
360
1099
0
XRECORD
5
10AA
102
{ACAD_REACTORS
330
10A9
102
}
330
10A9
100
AcDbXrecord
280
1
102
SHADEPLOT
70
0
102
SHADEPLOTRESLEVEL
70
2
102
SHADEPLOTCUSTOMDPI
70
300
0
XRECORD
5
10A8
102
{ACAD_REACTORS
330
10A7
102
}
330
10A7
100
AcDbXrecord
280
1
102
SHADEPLOT
70
0
102
SHADEPLOTRESLEVEL
70
2
102
SHADEPLOTCUSTOMDPI
70
300
0
XRECORD
5
FFF
102
{ACAD_REACTORS
330
F84
102
}
330
F84
100
AcDbXrecord
280
1
102
MATERIAL
148
0.0
149
0.0
149
0.0
93
0
94
127
282
0
72
0
77
0
171
0
175
0
179
0
273
0
0
XRECORD
5
F86
102
{ACAD_REACTORS
330
F84
102
}
330
F84
100
AcDbXrecord
280
1
270
1
271
1
0
XRECORD
5
F85
102
{ACAD_REACTORS
330
F84
102
}
330
F84
100
AcDbXrecord
280
1
270
1
271
1
0
XRECORD
5
F89
102
{ACAD_REACTORS
330
F84
102
}
330
F84
100
AcDbXrecord
280
1
270
1
271
1
0
XRECORD
5
F88
102
{ACAD_REACTORS
330
F84
102
}
330
F84
100
AcDbXrecord
280
1
270
1
271
1
0
XRECORD
5
F8A
102
{ACAD_REACTORS
330
F84
102
}
330
F84
100
AcDbXrecord
280
1
270
1
271
1
0
XRECORD
5
F87
102
{ACAD_REACTORS
330
F84
102
}
330
F84
100
AcDbXrecord
280
1
270
1
271
1
0
XRECORD
5
FFE
102
{ACAD_REACTORS
330
F7C
102
}
330
F7C
100
AcDbXrecord
280
1
102
MATERIAL
148
0.0
149
0.0
149
0.0
93
0
94
127
282
0
72
0
77
0
171
0
175
0
179
0
273
0
0
XRECORD
5
F7E
102
{ACAD_REACTORS
330
F7C
102
}
330
F7C
100
AcDbXrecord
280
1
270
1
271
1
0
XRECORD
5
F7D
102
{ACAD_REACTORS
330
F7C
102
}
330
F7C
100
AcDbXrecord
280
1
270
1
271
1
0
XRECORD
5
F81
102
{ACAD_REACTORS
330
F7C
102
}
330
F7C
100
AcDbXrecord
280
1
270
1
271
1
0
XRECORD
5
F80
102
{ACAD_REACTORS
330
F7C
102
}
330
F7C
100
AcDbXrecord
280
1
270
1
271
1
0
XRECORD
5
F82
102
{ACAD_REACTORS
330
F7C
102
}
330
F7C
100
AcDbXrecord
280
1
270
1
271
1
0
XRECORD
5
F7F
102
{ACAD_REACTORS
330
F7C
102
}
330
F7C
100
AcDbXrecord
280
1
270
1
271
1
0
XRECORD
5
1000
102
{ACAD_REACTORS
330
F8C
102
}
330
F8C
100
AcDbXrecord
280
1
102
MATERIAL
148
0.0
149
0.0
149
0.0
93
0
94
127
282
0
72
0
77
0
171
0
175
0
179
0
273
0
0
XRECORD
5
F8E
102
{ACAD_REACTORS
330
F8C
102
}
330
F8C
100
AcDbXrecord
280
1
270
1
271
1
0
XRECORD
5
F8D
102
{ACAD_REACTORS
330
F8C
102
}
330
F8C
100
AcDbXrecord
280
1
270
1
271
1
0
XRECORD
5
F91
102
{ACAD_REACTORS
330
F8C
102
}
330
F8C
100
AcDbXrecord
280
1
270
1
271
1
0
XRECORD
5
F90
102
{ACAD_REACTORS
330
F8C
102
}
330
F8C
100
AcDbXrecord
280
1
270
1
271
1
0
XRECORD
5
F92
102
{ACAD_REACTORS
330
F8C
102
}
330
F8C
100
AcDbXrecord
280
1
270
1
271
1
0
XRECORD
5
F8F
102
{ACAD_REACTORS
330
F8C
102
}
330
F8C
100
AcDbXrecord
280
1
270
1
271
1
0
CELLSTYLEMAP
5
1079
102
{ACAD_REACTORS
330
FF8
102
}
330
FF8
100
AcDbCellStyleMap
90
3
300
CELLSTYLE
1
TABLEFORMAT_BEGIN
90
5
170
1
91
0
92
32768
62
257
93
1
300
CONTENTFORMAT
1
CONTENTFORMAT_BEGIN
90
0
91
0
92
512
93
0
300

40
0.0
140
1.0
94
5
62
0
340
253
144
0.25
309
CONTENTFORMAT_END
171
1
301
MARGIN
1
CELLMARGIN_BEGIN
40
0.06
40
0.06
40
0.06
40
0.06
40
0.18
40
0.18
309
CELLMARGIN_END
94
6
95
1
302
GRIDFORMAT
1
GRIDFORMAT_BEGIN
90
0
91
1
62
0
92
-2
340
0
93
0
40
0.045
309
GRIDFORMAT_END
95
2
302
GRIDFORMAT
1
GRIDFORMAT_BEGIN
90
0
91
1
62
0
92
-2
340
0
93
0
40
0.045
309
GRIDFORMAT_END
95
4
302
GRIDFORMAT
1
GRIDFORMAT_BEGIN
90
0
91
1
62
0
92
-2
340
0
93
0
40
0.045
309
GRIDFORMAT_END
95
8
302
GRIDFORMAT
1
GRIDFORMAT_BEGIN
90
0
91
1
62
0
92
-2
340
0
93
0
40
0.045
309
GRIDFORMAT_END
95
16
302
GRIDFORMAT
1
GRIDFORMAT_BEGIN
90
0
91
1
62
0
92
-2
340
0
93
0
40
0.045
309
GRIDFORMAT_END
95
32
302
GRIDFORMAT
1
GRIDFORMAT_BEGIN
90
0
91
1
62
0
92
-2
340
0
93
0
40
0.045
309
GRIDFORMAT_END
309
TABLEFORMAT_END
1
CELLSTYLE_BEGIN
90
1
91
1
300
_TITLE
309
CELLSTYLE_END
300
CELLSTYLE
1
TABLEFORMAT_BEGIN
90
5
170
1
91
0
92
0
62
257
93
1
300
CONTENTFORMAT
1
CONTENTFORMAT_BEGIN
90
0
91
0
92
512
93
0
300

40
0.0
140
1.0
94
5
62
0
340
253
144
0.18
309
CONTENTFORMAT_END
171
1
301
MARGIN
1
CELLMARGIN_BEGIN
40
0.06
40
0.06
40
0.06
40
0.06
40
0.18
40
0.18
309
CELLMARGIN_END
94
6
95
1
302
GRIDFORMAT
1
GRIDFORMAT_BEGIN
90
0
91
1
62
0
92
-2
340
0
93
0
40
0.045
309
GRIDFORMAT_END
95
2
302
GRIDFORMAT
1
GRIDFORMAT_BEGIN
90
0
91
1
62
0
92
-2
340
0
93
0
40
0.045
309
GRIDFORMAT_END
95
4
302
GRIDFORMAT
1
GRIDFORMAT_BEGIN
90
0
91
1
62
0
92
-2
340
0
93
0
40
0.045
309
GRIDFORMAT_END
95
8
302
GRIDFORMAT
1
GRIDFORMAT_BEGIN
90
0
91
1
62
0
92
-2
340
0
93
0
40
0.045
309
GRIDFORMAT_END
95
16
302
GRIDFORMAT
1
GRIDFORMAT_BEGIN
90
0
91
1
62
0
92
-2
340
0
93
0
40
0.045
309
GRIDFORMAT_END
95
32
302
GRIDFORMAT
1
GRIDFORMAT_BEGIN
90
0
91
1
62
0
92
-2
340
0
93
0
40
0.045
309
GRIDFORMAT_END
309
TABLEFORMAT_END
1
CELLSTYLE_BEGIN
90
2
91
1
300
_HEADER
309
CELLSTYLE_END
300
CELLSTYLE
1
TABLEFORMAT_BEGIN
90
5
170
1
91
0
92
0
62
257
93
1
300
CONTENTFORMAT
1
CONTENTFORMAT_BEGIN
90
0
91
0
92
512
93
0
300

40
0.0
140
1.0
94
2
62
0
340
253
144
0.18
309
CONTENTFORMAT_END
171
1
301
MARGIN
1
CELLMARGIN_BEGIN
40
0.06
40
0.06
40
0.06
40
0.06
40
0.18
40
0.18
309
CELLMARGIN_END
94
6
95
1
302
GRIDFORMAT
1
GRIDFORMAT_BEGIN
90
0
91
1
62
0
92
-2
340
0
93
0
40
0.045
309
GRIDFORMAT_END
95
2
302
GRIDFORMAT
1
GRIDFORMAT_BEGIN
90
0
91
1
62
0
92
-2
340
0
93
0
40
0.045
309
GRIDFORMAT_END
95
4
302
GRIDFORMAT
1
GRIDFORMAT_BEGIN
90
0
91
1
62
0
92
-2
340
0
93
0
40
0.045
309
GRIDFORMAT_END
95
8
302
GRIDFORMAT
1
GRIDFORMAT_BEGIN
90
0
91
1
62
0
92
-2
340
0
93
0
40
0.045
309
GRIDFORMAT_END
95
16
302
GRIDFORMAT
1
GRIDFORMAT_BEGIN
90
0
91
1
62
0
92
-2
340
0
93
0
40
0.045
309
GRIDFORMAT_END
95
32
302
GRIDFORMAT
1
GRIDFORMAT_BEGIN
90
0
91
1
62
0
92
-2
340
0
93
0
40
0.045
309
GRIDFORMAT_END
309
TABLEFORMAT_END
1
CELLSTYLE_BEGIN
90
3
91
2
300
_DATA
309
CELLSTYLE_END
0
XRECORD
5
10A6
102
{ACAD_REACTORS
330
FF8
102
}
330
FF8
100
AcDbXrecord
280
1
102
ACAD_ROUNDTRIP_PRE2007_TABLESTYLE
90
512
91
0
1

92
512
93
0
2

94
512
95
0
3

0
XRECORD
5
108B
102
{ACAD_REACTORS
330
108A
102
}
330
108A
100
AcDbXrecord
280
1
102
RTVSPropertyOp0
70
1
102
RTVSPropertyOp1
70
1
102
RTVSPropertyOp2
70
1
102
RTVSPropertyOp3
70
1
102
RTVSPropertyOp4
70
1
102
RTVSPropertyOp5
70
1
102
RTVSPropertyOp6
70
1
102
RTVSPropertyOp7
70
1
102
RTVSPropertyOp8
70
1
102
RTVSPropertyOp9
70
1
102
RTVSPropertyOp10
70
1
102
RTVSPropertyOp11
70
1
102
RTVSPropertyOp12
70
1
102
RTVSPropertyOp13
70
1
102
RTVSPropertyOp14
70
1
102
RTVSPropertyOp15
70
1
102
RTVSPropertyOp16
70
1
102
RTVSPropertyOp17
70
1
102
RTVSPropertyOp18
70
1
102
RTVSPropertyOp19
70
1
102
RTVSPropertyOp20
70
1
102
RTVSPropertyOp21
70
1
102
RTVSPropertyOp22
70
1
102
RTVSPropertyOp23
70
1
102
RTVSPropertyOp24
70
1
102
RTVSPropertyOp25
70
1
102
RTVSPropertyOp26
70
1
102
RTVSPropertyOp27
70
1
0
XRECORD
5
108F
102
{ACAD_REACTORS
330
108E
102
}
330
108E
100
AcDbXrecord
280
1
102
RTVSPropertyOp0
70
1
102
RTVSPropertyOp1
70
1
102
RTVSPropertyOp2
70
1
102
RTVSPropertyOp3
70
1
102
RTVSPropertyOp4
70
1
102
RTVSPropertyOp5
70
1
102
RTVSPropertyOp6
70
1
102
RTVSPropertyOp7
70
1
102
RTVSPropertyOp8
70
1
102
RTVSPropertyOp9
70
1
102
RTVSPropertyOp10
70
1
102
RTVSPropertyOp11
70
1
102
RTVSPropertyOp12
70
1
102
RTVSPropertyOp13
70
1
102
RTVSPropertyOp14
70
1
102
RTVSPropertyOp15
70
1
102
RTVSPropertyOp16
70
1
102
RTVSPropertyOp17
70
1
102
RTVSPropertyOp18
70
1
102
RTVSPropertyOp19
70
1
102
RTVSPropertyOp20
70
1
102
RTVSPropertyOp21
70
1
102
RTVSPropertyOp22
70
1
102
RTVSPropertyOp23
70
1
102
RTVSPropertyOp24
70
1
102
RTVSPropertyOp25
70
1
102
RTVSPropertyOp26
70
1
102
RTVSPropertyOp27
70
1
0
XRECORD
5
108D
102
{ACAD_REACTORS
330
108C
102
}
330
108C
100
AcDbXrecord
280
1
102
RTVSPropertyOp0
70
1
102
RTVSPropertyOp1
70
1
102
RTVSPropertyOp2
70
1
102
RTVSPropertyOp3
70
1
102
RTVSPropertyOp4
70
1
102
RTVSPropertyOp5
70
1
102
RTVSPropertyOp6
70
1
102
RTVSPropertyOp7
70
1
102
RTVSPropertyOp8
70
1
102
RTVSPropertyOp9
70
1
102
RTVSPropertyOp10
70
1
102
RTVSPropertyOp11
70
1
102
RTVSPropertyOp12
70
1
102
RTVSPropertyOp13
70
1
102
RTVSPropertyOp14
70
1
102
RTVSPropertyOp15
70
1
102
RTVSPropertyOp16
70
1
102
RTVSPropertyOp17
70
1
102
RTVSPropertyOp18
70
1
102
RTVSPropertyOp19
70
1
102
RTVSPropertyOp20
70
1
102
RTVSPropertyOp21
70
1
102
RTVSPropertyOp22
70
1
102
RTVSPropertyOp23
70
1
102
RTVSPropertyOp24
70
1
102
RTVSPropertyOp25
70
1
102
RTVSPropertyOp26
70
1
102
RTVSPropertyOp27
70
1
0
XRECORD
5
1089
102
{ACAD_REACTORS
330
1088
102
}
330
1088
100
AcDbXrecord
280
1
102
RTVSPropertyOp0
70
1
102
RTVSPropertyOp1
70
1
102
RTVSPropertyOp2
70
1
102
RTVSPropertyOp3
70
1
102
RTVSPropertyOp4
70
1
102
RTVSPropertyOp5
70
1
102
RTVSPropertyOp6
70
1
102
RTVSPropertyOp7
70
1
102
RTVSPropertyOp8
70
1
102
RTVSPropertyOp9
70
1
102
RTVSPropertyOp10
70
1
102
RTVSPropertyOp11
70
1
102
RTVSPropertyOp12
70
1
102
RTVSPropertyOp13
70
1
102
RTVSPropertyOp14
70
1
102
RTVSPropertyOp15
70
1
102
RTVSPropertyOp16
70
1
102
RTVSPropertyOp17
70
1
102
RTVSPropertyOp18
70
1
102
RTVSPropertyOp19
70
1
102
RTVSPropertyOp20
70
1
102
RTVSPropertyOp21
70
1
102
RTVSPropertyOp22
70
1
102
RTVSPropertyOp23
70
1
102
RTVSPropertyOp24
70
1
102
RTVSPropertyOp25
70
1
102
RTVSPropertyOp26
70
1
102
RTVSPropertyOp27
70
1
0
XRECORD
5
1097
102
{ACAD_REACTORS
330
1096
102
}
330
1096
100
AcDbXrecord
280
1
102
RTVSPropertyOp0
70
1
102
RTVSPropertyOp1
70
1
102
RTVSPropertyOp2
70
1
102
RTVSPropertyOp3
70
1
102
RTVSPropertyOp4
70
1
102
RTVSPropertyOp5
70
1
102
RTVSPropertyOp6
70
1
102
RTVSPropertyOp7
70
1
102
RTVSPropertyOp8
70
1
102
RTVSPropertyOp9
70
1
102
RTVSPropertyOp10
70
1
102
RTVSPropertyOp11
70
1
102
RTVSPropertyOp12
70
1
102
RTVSPropertyOp13
70
1
102
RTVSPropertyOp14
70
1
102
RTVSPropertyOp15
70
1
102
RTVSPropertyOp16
70
1
102
RTVSPropertyOp17
70
1
102
RTVSPropertyOp18
70
1
102
RTVSPropertyOp19
70
1
102
RTVSPropertyOp20
70
1
102
RTVSPropertyOp21
70
1
102
RTVSPropertyOp22
70
1
102
RTVSPropertyOp23
70
1
102
RTVSPropertyOp24
70
1
102
RTVSPropertyOp25
70
1
102
RTVSPropertyOp26
70
1
102
RTVSPropertyOp27
70
1
0
XRECORD
5
109F
102
{ACAD_REACTORS
330
109E
102
}
330
109E
100
AcDbXrecord
280
1
102
RTVSPropertyOp0
70
1
102
RTVSPropertyOp1
70
1
102
RTVSPropertyOp2
70
1
102
RTVSPropertyOp3
70
1
102
RTVSPropertyOp4
70
1
102
RTVSPropertyOp5
70
1
102
RTVSPropertyOp6
70
1
102
RTVSPropertyOp7
70
1
102
RTVSPropertyOp8
70
1
102
RTVSPropertyOp9
70
1
102
RTVSPropertyOp10
70
1
102
RTVSPropertyOp11
70
1
102
RTVSPropertyOp12
70
1
102
RTVSPropertyOp13
70
1
102
RTVSPropertyOp14
70
1
102
RTVSPropertyOp15
70
1
102
RTVSPropertyOp16
70
1
102
RTVSPropertyOp17
70
1
102
RTVSPropertyOp18
70
1
102
RTVSPropertyOp19
70
1
102
RTVSPropertyOp20
70
1
102
RTVSPropertyOp21
70
1
102
RTVSPropertyOp22
70
1
102
RTVSPropertyOp23
70
1
102
RTVSPropertyOp24
70
1
102
RTVSPropertyOp25
70
1
102
RTVSPropertyOp26
70
1
102
RTVSPropertyOp27
70
1
0
XRECORD
5
1091
102
{ACAD_REACTORS
330
1090
102
}
330
1090
100
AcDbXrecord
280
1
102
RTVSPropertyOp0
70
1
102
RTVSPropertyOp1
70
1
102
RTVSPropertyOp2
70
1
102
RTVSPropertyOp3
70
1
102
RTVSPropertyOp4
70
1
102
RTVSPropertyOp5
70
1
102
RTVSPropertyOp6
70
1
102
RTVSPropertyOp7
70
1
102
RTVSPropertyOp8
70
1
102
RTVSPropertyOp9
70
1
102
RTVSPropertyOp10
70
1
102
RTVSPropertyOp11
70
1
102
RTVSPropertyOp12
70
1
102
RTVSPropertyOp13
70
1
102
RTVSPropertyOp14
70
1
102
RTVSPropertyOp15
70
1
102
RTVSPropertyOp16
70
1
102
RTVSPropertyOp17
70
1
102
RTVSPropertyOp18
70
1
102
RTVSPropertyOp19
70
1
102
RTVSPropertyOp20
70
1
102
RTVSPropertyOp21
70
1
102
RTVSPropertyOp22
70
1
102
RTVSPropertyOp23
70
1
102
RTVSPropertyOp24
70
1
102
RTVSPropertyOp25
70
1
102
RTVSPropertyOp26
70
1
102
RTVSPropertyOp27
70
1
0
XRECORD
5
1095
102
{ACAD_REACTORS
330
1094
102
}
330
1094
100
AcDbXrecord
280
1
102
RTVSPropertyOp0
70
1
102
RTVSPropertyOp1
70
1
102
RTVSPropertyOp2
70
1
102
RTVSPropertyOp3
70
1
102
RTVSPropertyOp4
70
1
102
RTVSPropertyOp5
70
1
102
RTVSPropertyOp6
70
1
102
RTVSPropertyOp7
70
1
102
RTVSPropertyOp8
70
1
102
RTVSPropertyOp9
70
1
102
RTVSPropertyOp10
70
1
102
RTVSPropertyOp11
70
1
102
RTVSPropertyOp12
70
1
102
RTVSPropertyOp13
70
1
102
RTVSPropertyOp14
70
1
102
RTVSPropertyOp15
70
1
102
RTVSPropertyOp16
70
1
102
RTVSPropertyOp17
70
1
102
RTVSPropertyOp18
70
1
102
RTVSPropertyOp19
70
1
102
RTVSPropertyOp20
70
1
102
RTVSPropertyOp21
70
1
102
RTVSPropertyOp22
70
1
102
RTVSPropertyOp23
70
1
102
RTVSPropertyOp24
70
1
102
RTVSPropertyOp25
70
1
102
RTVSPropertyOp26
70
1
102
RTVSPropertyOp27
70
1
0
XRECORD
5
10A5
102
{ACAD_REACTORS
330
10A4
102
}
330
10A4
100
AcDbXrecord
280
1
102
RTVSPropertyOp0
70
0
102
RTVSPropertyOp1
70
0
102
RTVSPropertyOp2
70
0
102
RTVSPropertyOp3
70
0
102
RTVSPropertyOp4
70
0
102
RTVSPropertyOp5
70
0
102
RTVSPropertyOp6
70
0
102
RTVSPropertyOp7
70
0
102
RTVSPropertyOp8
70
0
102
RTVSPropertyOp9
70
0
102
RTVSPropertyOp10
70
0
102
RTVSPropertyOp11
70
0
102
RTVSPropertyOp12
70
0
102
RTVSPropertyOp13
70
0
102
RTVSPropertyOp14
70
2
102
RTVSPropertyOp15
70
0
102
RTVSPropertyOp16
70
0
102
RTVSPropertyOp17
70
0
102
RTVSPropertyOp18
70
0
102
RTVSPropertyOp19
70
0
102
RTVSPropertyOp20
70
0
102
RTVSPropertyOp21
70
0
102
RTVSPropertyOp22
70
0
102
RTVSPropertyOp23
70
0
102
RTVSPropertyOp24
70
0
102
RTVSPropertyOp25
70
0
102
RTVSPropertyOp26
70
0
102
RTVSPropertyOp27
70
0
0
XRECORD
5
109D
102
{ACAD_REACTORS
330
109C
102
}
330
109C
100
AcDbXrecord
280
1
102
RTVSPropertyOp0
70
1
102
RTVSPropertyOp1
70
1
102
RTVSPropertyOp2
70
1
102
RTVSPropertyOp3
70
1
102
RTVSPropertyOp4
70
1
102
RTVSPropertyOp5
70
1
102
RTVSPropertyOp6
70
1
102
RTVSPropertyOp7
70
1
102
RTVSPropertyOp8
70
1
102
RTVSPropertyOp9
70
1
102
RTVSPropertyOp10
70
1
102
RTVSPropertyOp11
70
1
102
RTVSPropertyOp12
70
1
102
RTVSPropertyOp13
70
1
102
RTVSPropertyOp14
70
1
102
RTVSPropertyOp15
70
1
102
RTVSPropertyOp16
70
1
102
RTVSPropertyOp17
70
1
102
RTVSPropertyOp18
70
1
102
RTVSPropertyOp19
70
1
102
RTVSPropertyOp20
70
1
102
RTVSPropertyOp21
70
1
102
RTVSPropertyOp22
70
1
102
RTVSPropertyOp23
70
1
102
RTVSPropertyOp24
70
1
102
RTVSPropertyOp25
70
1
102
RTVSPropertyOp26
70
1
102
RTVSPropertyOp27
70
1
0
XRECORD
5
1081
102
{ACAD_REACTORS
330
1080
102
}
330
1080
100
AcDbXrecord
280
1
102
RTVSPropertyOp0
70
1
102
RTVSPropertyOp1
70
1
102
RTVSPropertyOp2
70
1
102
RTVSPropertyOp3
70
1
102
RTVSPropertyOp4
70
1
102
RTVSPropertyOp5
70
1
102
RTVSPropertyOp6
70
1
102
RTVSPropertyOp7
70
1
102
RTVSPropertyOp8
70
1
102
RTVSPropertyOp9
70
1
102
RTVSPropertyOp10
70
1
102
RTVSPropertyOp11
70
1
102
RTVSPropertyOp12
70
1
102
RTVSPropertyOp13
70
1
102
RTVSPropertyOp14
70
1
102
RTVSPropertyOp15
70
1
102
RTVSPropertyOp16
70
1
102
RTVSPropertyOp17
70
1
102
RTVSPropertyOp18
70
1
102
RTVSPropertyOp19
70
1
102
RTVSPropertyOp20
70
1
102
RTVSPropertyOp21
70
1
102
RTVSPropertyOp22
70
1
102
RTVSPropertyOp23
70
1
102
RTVSPropertyOp24
70
1
102
RTVSPropertyOp25
70
1
102
RTVSPropertyOp26
70
1
102
RTVSPropertyOp27
70
1
0
XRECORD
5
1083
102
{ACAD_REACTORS
330
1082
102
}
330
1082
100
AcDbXrecord
280
1
102
RTVSPropertyOp0
70
1
102
RTVSPropertyOp1
70
1
102
RTVSPropertyOp2
70
1
102
RTVSPropertyOp3
70
1
102
RTVSPropertyOp4
70
1
102
RTVSPropertyOp5
70
1
102
RTVSPropertyOp6
70
1
102
RTVSPropertyOp7
70
1
102
RTVSPropertyOp8
70
1
102
RTVSPropertyOp9
70
1
102
RTVSPropertyOp10
70
1
102
RTVSPropertyOp11
70
1
102
RTVSPropertyOp12
70
1
102
RTVSPropertyOp13
70
1
102
RTVSPropertyOp14
70
1
102
RTVSPropertyOp15
70
1
102
RTVSPropertyOp16
70
1
102
RTVSPropertyOp17
70
1
102
RTVSPropertyOp18
70
1
102
RTVSPropertyOp19
70
1
102
RTVSPropertyOp20
70
1
102
RTVSPropertyOp21
70
1
102
RTVSPropertyOp22
70
1
102
RTVSPropertyOp23
70
1
102
RTVSPropertyOp24
70
1
102
RTVSPropertyOp25
70
1
102
RTVSPropertyOp26
70
1
102
RTVSPropertyOp27
70
1
0
XRECORD
5
1085
102
{ACAD_REACTORS
330
1084
102
}
330
1084
100
AcDbXrecord
280
1
102
RTVSPropertyOp0
70
1
102
RTVSPropertyOp1
70
1
102
RTVSPropertyOp2
70
1
102
RTVSPropertyOp3
70
1
102
RTVSPropertyOp4
70
1
102
RTVSPropertyOp5
70
1
102
RTVSPropertyOp6
70
1
102
RTVSPropertyOp7
70
1
102
RTVSPropertyOp8
70
1
102
RTVSPropertyOp9
70
1
102
RTVSPropertyOp10
70
1
102
RTVSPropertyOp11
70
1
102
RTVSPropertyOp12
70
1
102
RTVSPropertyOp13
70
1
102
RTVSPropertyOp14
70
1
102
RTVSPropertyOp15
70
1
102
RTVSPropertyOp16
70
1
102
RTVSPropertyOp17
70
1
102
RTVSPropertyOp18
70
1
102
RTVSPropertyOp19
70
1
102
RTVSPropertyOp20
70
1
102
RTVSPropertyOp21
70
1
102
RTVSPropertyOp22
70
1
102
RTVSPropertyOp23
70
1
102
RTVSPropertyOp24
70
1
102
RTVSPropertyOp25
70
1
102
RTVSPropertyOp26
70
1
102
RTVSPropertyOp27
70
1
0
XRECORD
5
1087
102
{ACAD_REACTORS
330
1086
102
}
330
1086
100
AcDbXrecord
280
1
102
RTVSPropertyOp0
70
1
102
RTVSPropertyOp1
70
1
102
RTVSPropertyOp2
70
1
102
RTVSPropertyOp3
70
1
102
RTVSPropertyOp4
70
1
102
RTVSPropertyOp5
70
1
102
RTVSPropertyOp6
70
1
102
RTVSPropertyOp7
70
1
102
RTVSPropertyOp8
70
1
102
RTVSPropertyOp9
70
1
102
RTVSPropertyOp10
70
1
102
RTVSPropertyOp11
70
1
102
RTVSPropertyOp12
70
1
102
RTVSPropertyOp13
70
1
102
RTVSPropertyOp14
70
1
102
RTVSPropertyOp15
70
1
102
RTVSPropertyOp16
70
1
102
RTVSPropertyOp17
70
1
102
RTVSPropertyOp18
70
1
102
RTVSPropertyOp19
70
1
102
RTVSPropertyOp20
70
1
102
RTVSPropertyOp21
70
1
102
RTVSPropertyOp22
70
1
102
RTVSPropertyOp23
70
1
102
RTVSPropertyOp24
70
1
102
RTVSPropertyOp25
70
1
102
RTVSPropertyOp26
70
1
102
RTVSPropertyOp27
70
1
0
XRECORD
5
10A1
102
{ACAD_REACTORS
330
10A0
102
}
330
10A0
100
AcDbXrecord
280
1
102
RTVSPropertyOp0
70
0
102
RTVSPropertyOp1
70
0
102
RTVSPropertyOp2
70
0
102
RTVSPropertyOp3
70
0
102
RTVSPropertyOp4
70
0
102
RTVSPropertyOp5
70
0
102
RTVSPropertyOp6
70
0
102
RTVSPropertyOp7
70
0
102
RTVSPropertyOp8
70
0
102
RTVSPropertyOp9
70
0
102
RTVSPropertyOp10
70
0
102
RTVSPropertyOp11
70
0
102
RTVSPropertyOp12
70
0
102
RTVSPropertyOp13
70
0
102
RTVSPropertyOp14
70
2
102
RTVSPropertyOp15
70
0
102
RTVSPropertyOp16
70
0
102
RTVSPropertyOp17
70
0
102
RTVSPropertyOp18
70
0
102
RTVSPropertyOp19
70
0
102
RTVSPropertyOp20
70
0
102
RTVSPropertyOp21
70
0
102
RTVSPropertyOp22
70
0
102
RTVSPropertyOp23
70
0
102
RTVSPropertyOp24
70
0
102
RTVSPropertyOp25
70
0
102
RTVSPropertyOp26
70
0
102
RTVSPropertyOp27
70
0
0
XRECORD
5
109B
102
{ACAD_REACTORS
330
109A
102
}
330
109A
100
AcDbXrecord
280
1
102
RTVSPropertyOp0
70
1
102
RTVSPropertyOp1
70
1
102
RTVSPropertyOp2
70
1
102
RTVSPropertyOp3
70
1
102
RTVSPropertyOp4
70
1
102
RTVSPropertyOp5
70
1
102
RTVSPropertyOp6
70
1
102
RTVSPropertyOp7
70
1
102
RTVSPropertyOp8
70
1
102
RTVSPropertyOp9
70
1
102
RTVSPropertyOp10
70
1
102
RTVSPropertyOp11
70
1
102
RTVSPropertyOp12
70
1
102
RTVSPropertyOp13
70
1
102
RTVSPropertyOp14
70
1
102
RTVSPropertyOp15
70
1
102
RTVSPropertyOp16
70
1
102
RTVSPropertyOp17
70
1
102
RTVSPropertyOp18
70
1
102
RTVSPropertyOp19
70
1
102
RTVSPropertyOp20
70
1
102
RTVSPropertyOp21
70
1
102
RTVSPropertyOp22
70
1
102
RTVSPropertyOp23
70
1
102
RTVSPropertyOp24
70
1
102
RTVSPropertyOp25
70
1
102
RTVSPropertyOp26
70
1
102
RTVSPropertyOp27
70
1
0
XRECORD
5
10A3
102
{ACAD_REACTORS
330
10A2
102
}
330
10A2
100
AcDbXrecord
280
1
102
RTVSPropertyOp0
70
0
102
RTVSPropertyOp1
70
0
102
RTVSPropertyOp2
70
0
102
RTVSPropertyOp3
70
0
102
RTVSPropertyOp4
70
0
102
RTVSPropertyOp5
70
0
102
RTVSPropertyOp6
70
0
102
RTVSPropertyOp7
70
0
102
RTVSPropertyOp8
70
0
102
RTVSPropertyOp9
70
0
102
RTVSPropertyOp10
70
0
102
RTVSPropertyOp11
70
0
102
RTVSPropertyOp12
70
0
102
RTVSPropertyOp13
70
0
102
RTVSPropertyOp14
70
2
102
RTVSPropertyOp15
70
0
102
RTVSPropertyOp16
70
0
102
RTVSPropertyOp17
70
0
102
RTVSPropertyOp18
70
0
102
RTVSPropertyOp19
70
0
102
RTVSPropertyOp20
70
0
102
RTVSPropertyOp21
70
0
102
RTVSPropertyOp22
70
0
102
RTVSPropertyOp23
70
0
102
RTVSPropertyOp24
70
0
102
RTVSPropertyOp25
70
0
102
RTVSPropertyOp26
70
0
102
RTVSPropertyOp27
70
0
0
XRECORD
5
1093
102
{ACAD_REACTORS
330
1092
102
}
330
1092
100
AcDbXrecord
280
1
102
RTVSPropertyOp0
70
1
102
RTVSPropertyOp1
70
1
102
RTVSPropertyOp2
70
1
102
RTVSPropertyOp3
70
1
102
RTVSPropertyOp4
70
1
102
RTVSPropertyOp5
70
1
102
RTVSPropertyOp6
70
1
102
RTVSPropertyOp7
70
1
102
RTVSPropertyOp8
70
1
102
RTVSPropertyOp9
70
1
102
RTVSPropertyOp10
70
1
102
RTVSPropertyOp11
70
1
102
RTVSPropertyOp12
70
1
102
RTVSPropertyOp13
70
1
102
RTVSPropertyOp14
70
1
102
RTVSPropertyOp15
70
1
102
RTVSPropertyOp16
70
1
102
RTVSPropertyOp17
70
1
102
RTVSPropertyOp18
70
1
102
RTVSPropertyOp19
70
1
102
RTVSPropertyOp20
70
1
102
RTVSPropertyOp21
70
1
102
RTVSPropertyOp22
70
1
102
RTVSPropertyOp23
70
1
102
RTVSPropertyOp24
70
1
102
RTVSPropertyOp25
70
1
102
RTVSPropertyOp26
70
1
102
RTVSPropertyOp27
70
1
0
XRECORD
5
1099
102
{ACAD_REACTORS
330
1098
102
}
330
1098
100
AcDbXrecord
280
1
102
RTVSPropertyOp0
70
1
102
RTVSPropertyOp1
70
1
102
RTVSPropertyOp2
70
1
102
RTVSPropertyOp3
70
1
102
RTVSPropertyOp4
70
1
102
RTVSPropertyOp5
70
1
102
RTVSPropertyOp6
70
1
102
RTVSPropertyOp7
70
1
102
RTVSPropertyOp8
70
1
102
RTVSPropertyOp9
70
1
102
RTVSPropertyOp10
70
1
102
RTVSPropertyOp11
70
1
102
RTVSPropertyOp12
70
1
102
RTVSPropertyOp13
70
1
102
RTVSPropertyOp14
70
1
102
RTVSPropertyOp15
70
1
102
RTVSPropertyOp16
70
1
102
RTVSPropertyOp17
70
1
102
RTVSPropertyOp18
70
1
102
RTVSPropertyOp19
70
1
102
RTVSPropertyOp20
70
1
102
RTVSPropertyOp21
70
1
102
RTVSPropertyOp22
70
1
102
RTVSPropertyOp23
70
1
102
RTVSPropertyOp24
70
1
102
RTVSPropertyOp25
70
1
102
RTVSPropertyOp26
70
1
102
RTVSPropertyOp27
70
1
0
ENDSEC
0
EOF
