0
SECTION
2
HEADER
9
$ACADVER
1
AC1015
9
$ACADMAINTVER
70
20
9
$DWGCODEPAGE
3
ANSI_1252
9
$INSBASE
10
0.0
20
0.0
30
0.0
9
$EXTMIN
10
-150.000000000000
20
-105.000000000000
30
0.0
9
$EXTMAX
10
150.000000000000
20
105.000000000000
30
0.0
9
$LIMMIN
10
0.0
20
0.0
9
$LIMMAX
10
12.0
20
9.0
9
$ORTHOMODE
70
0
9
$REGENMODE
70
1
9
$FILLMODE
70
1
9
$QTEXTMODE
70
0
9
$MIRRTEXT
70
1
9
$LTSCALE
40
1.0
9
$ATTMODE
70
1
9
$TEXTSIZE
40
0.2
9
$TRACEWID
40
0.05
9
$TEXTSTYLE
7
Standard
9
$CLAYER
8
0
9
$CELTYPE
6
ByLayer
9
$CECOLOR
62
256
9
$CELTSCALE
40
1.0
9
$DISPSILH
70
0
9
$DIMSCALE
40
1.0
9
$DIMASZ
40
2.5
9
$DIMEXO
40
0.625
9
$DIMDLI
40
0.38
9
$DIMRND
40
0.0
9
$DIMDLE
40
0.0
9
$DIMEXE
40
1.25
9
$DIMTP
40
0.0
9
$DIMTM
40
0.000000001
9
$DIMTXT
40
2.5
9
$DIMCEN
40
0.09
9
$DIMTSZ
40
0.0
9
$DIMTOL
70
1
9
$DIMLIM
70
0
9
$DIMTIH
70
0
9
$DIMTOH
70
0
9
$DIMSE1
70
0
9
$DIMSE2
70
0
9
$DIMTAD
70
1
9
$DIMZIN
70
0
9
$DIMBLK
1
VDDIM_DEFAULT
9
$DIMASO
70
1
9
$DIMSHO
70
1
9
$DIMPOST
1

9
$DIMAPOST
1

9
$DIMALT
70
0
9
$DIMALTD
70
2
9
$DIMALTF
40
25.4
9
$DIMLFAC
40
1.00000000000000
9
$DIMTOFL
70
0
9
$DIMTVP
40
0.0
9
$DIMTIX
70
0
9
$DIMSOXD
70
0
9
$DIMSAH
70
0
9
$DIMBLK1
1

9
$DIMBLK2
1

9
$DIMSTYLE
2
BEM-ISBE
9
$DIMCLRD
70
0
9
$DIMCLRE
70
0
9
$DIMCLRT
70
0
9
$DIMTFAC
40
0.5
9
$DIMGAP
40
0.625
9
$DIMJUST
70
0
9
$DIMSD1
70
0
9
$DIMSD2
70
0
9
$DIMTOLJ
70
1
9
$DIMTZIN
70
0
9
$DIMALTZ
70
0
9
$DIMALTTZ
70
0
9
$DIMUPT
70
0
9
$DIMDEC
70
3
9
$DIMTDEC
70
3
9
$DIMALTU
70
2
9
$DIMALTTD
70
2
9
$DIMTXSTY
7
Standard
9
$DIMAUNIT
70
0
9
$DIMADEC
70
3
9
$DIMALTRND
40
0.0
9
$DIMAZIN
70
0
9
$DIMDSEP
70
46
9
$DIMATFIT
70
3
9
$DIMFRAC
70
0
9
$DIMLDRBLK
1

9
$DIMLUNIT
70
2
9
$DIMLWD
70
-2
9
$DIMLWE
70
-2
9
$DIMTMOVE
70
0
9
$LUNITS
70
2
9
$LUPREC
70
4
9
$SKETCHINC
40
0.1
9
$FILLETRAD
40
0.5
9
$AUNITS
70
0
9
$AUPREC
70
0
9
$MENU
1
.
9
$ELEVATION
40
0.0
9
$PELEVATION
40
0.0
9
$THICKNESS
40
0.0
9
$LIMCHECK
70
0
9
$CHAMFERA
40
0.5
9
$CHAMFERB
40
0.5
9
$CHAMFERC
40
1.0
9
$CHAMFERD
40
0.0
9
$SKPOLY
70
0
9
$TDCREATE
40
0.0
9
$TDUCREATE
40
0.0
9
$TDUPDATE
40
0.0
9
$TDUUPDATE
40
0.0
9
$TDINDWG
40
0.0
9
$TDUSRTIMER
40
0.0
9
$USRTIMER
70
1
9
$ANGBASE
50
0.0
9
$ANGDIR
70
0
9
$PDMODE
70
0
9
$PDSIZE
40
0.0
9
$PLINEWID
40
0.0
9
$SPLFRAME
70
0
9
$SPLINETYPE
70
6
9
$SPLINESEGS
70
8
9
$HANDSEED
5
10AB
9
$SURFTAB1
70
6
9
$SURFTAB2
70
6
9
$SURFTYPE
70
6
9
$SURFU
70
6
9
$SURFV
70
6
9
$UCSBASE
2

9
$UCSNAME
2

9
$UCSORG
10
0.0
20
0.0
30
0.0
9
$UCSXDIR
10
1.0
20
0.0
30
0.0
9
$UCSYDIR
10
0.0
20
1.0
30
0.0
9
$UCSORTHOREF
2

9
$UCSORTHOVIEW
70
0
9
$UCSORGTOP
10
0.0
20
0.0
30
0.0
9
$UCSORGBOTTOM
10
0.0
20
0.0
30
0.0
9
$UCSORGLEFT
10
0.0
20
0.0
30
0.0
9
$UCSORGRIGHT
10
0.0
20
0.0
30
0.0
9
$UCSORGFRONT
10
0.0
20
0.0
30
0.0
9
$UCSORGBACK
10
0.0
20
0.0
30
0.0
9
$PUCSBASE
2

9
$PUCSNAME
2

9
$PUCSORG
10
0.0
20
0.0
30
0.0
9
$PUCSXDIR
10
1.0
20
0.0
30
0.0
9
$PUCSYDIR
10
0.0
20
1.0
30
0.0
9
$PUCSORTHOREF
2

9
$PUCSORTHOVIEW
70
0
9
$PUCSORGTOP
10
0.0
20
0.0
30
0.0
9
$PUCSORGBOTTOM
10
0.0
20
0.0
30
0.0
9
$PUCSORGLEFT
10
0.0
20
0.0
30
0.0
9
$PUCSORGRIGHT
10
0.0
20
0.0
30
0.0
9
$PUCSORGFRONT
10
0.0
20
0.0
30
0.0
9
$PUCSORGBACK
10
0.0
20
0.0
30
0.0
9
$USERI1
70
0
9
$USERI2
70
0
9
$USERI3
70
0
9
$USERI4
70
0
9
$USERI5
70
0
9
$USERR1
40
0.0
9
$USERR2
40
0.0
9
$USERR3
40
0.0
9
$USERR4
40
0.0
9
$USERR5
40
0.0
9
$WORLDVIEW
70
1
9
$SHADEDGE
70
3
9
$SHADEDIF
70
70
9
$TILEMODE
70
1
9
$MAXACTVP
70
64
9
$PINSBASE
10
0.0
20
0.0
30
0.0
9
$PLIMCHECK
70
0
9
$PEXTMIN
10
1.000000000000000E+20
20
1.000000000000000E+20
30
1.000000000000000E+20
9
$PEXTMAX
10
-1.000000000000000E+20
20
-1.000000000000000E+20
30
-1.000000000000000E+20
9
$PLIMMIN
10
0.0
20
0.0
9
$PLIMMAX
10
12.0
20
9.0
9
$UNITMODE
70
0
9
$VISRETAIN
70
1
9
$PLINEGEN
70
0
9
$PSLTSCALE
70
1
9
$TREEDEPTH
70
3020
9
$CMLSTYLE
2
Standard
9
$CMLJUST
70
0
9
$CMLSCALE
40
1.0
9
$PROXYGRAPHICS
70
1
9
$MEASUREMENT
70
0
9
$CELWEIGHT
370
-1
9
$ENDCAPS
280
0
9
$JOINSTYLE
280
0
9
$LWDISPLAY
290
0
9
$INSUNITS
70
4
9
$HYPERLINKBASE
1

9
$STYLESHEET
1

9
$XEDIT
290
1
9
$CEPSNTYPE
380
0
9
$PSTYLEMODE
290
0
9
$FINGERPRINTGUID
2
{FAEB1C30-E019-11D5-929B-00C0DF256EC4}
9
$VERSIONGUID
2
{04C5C4E4-4947-4D90-8812-D401569E61F7}
9
$EXTNAMES
290
1
9
$PSVPSCALE
40
0.0
9
$OLESTARTUP
290
0
0
ENDSEC
0
SECTION
2
CLASSES
0
CLASS
1
ACDBDICTIONARYWDFLT
2
AcDbDictionaryWithDefault
3
ObjectDBX Classes
90
0
280
0
281
0
0
CLASS
1
ACDBPLACEHOLDER
2
AcDbPlaceHolder
3
ObjectDBX Classes
90
0
280
0
281
0
0
CLASS
1
LAYOUT
2
AcDbLayout
3
ObjectDBX Classes
90
0
280
0
281
0
0
CLASS
1
MATERIAL
2
AcDbMaterial
3
ObjectDBX Classes
90
1153
280
0
281
0
0
CLASS
1
VISUALSTYLE
2
AcDbVisualStyle
3
ObjectDBX Classes
90
4095
280
0
281
0
0
CLASS
1
TABLESTYLE
2
AcDbTableStyle
3
ObjectDBX Classes
90
4095
280
0
281
0
0
CLASS
1
SCALE
2
AcDbScale
3
ObjectDBX Classes
90
1153
280
0
281
0
0
CLASS
1
MLEADERSTYLE
2
AcDbMLeaderStyle
3
ACDB_MLEADERSTYLE_CLASS
90
4095
280
0
281
0
0
CLASS
1
DICTIONARYVAR
2
AcDbDictionaryVar
3
ObjectDBX Classes
90
0
280
0
281
0
0
CLASS
1
CELLSTYLEMAP
2
AcDbCellStyleMap
3
ObjectDBX Classes
90
1152
280
0
281
0
0
ENDSEC
0
SECTION
2
TABLES
0
TABLE
2
VPORT
5
24A
330
0
100
AcDbSymbolTable
70
1
0
VPORT
5
26B
330
24A
100
AcDbSymbolTableRecord
100
AcDbViewportTableRecord
2
*Active
70
0
10
0.0
20
0.0
11
1.0
21
1.0
12
0.000000000000000
22
0.000000000000000
13
0.0
23
0.0
14
10.0
24
10.0
15
10.0
25
10.0
16
0.0
26
0.0
36
1.0
17
0.0
27
0.0
37
0.0
40
210.000000000000
41
1.42857142857143
42
1.0
43
0.0
44
0.0
50
0.0
51
0.0000000000007958
71
0
72
100
73
1
74
3
75
0
76
0
77
0
78
1
281
0
65
1
110
0.0
120
0.0
130
0.0
111
1.0
121
0.0
131
0.0
112
0.0
122
1.0
132
0.0
79
0
146
0.0
0
ENDTAB
0
TABLE
2
LTYPE
5
247
330
0
100
AcDbSymbolTable
70
25
0
LTYPE
5
256
330
247
100
AcDbSymbolTableRecord
100
AcDbLinetypeTableRecord
2
ByBlock
70
0
3

72
65
73
0
40
0.0
0
LTYPE
5
257
330
247
100
AcDbSymbolTableRecord
100
AcDbLinetypeTableRecord
2
ByLayer
70
0
3

72
65
73
0
40
0.0
0
LTYPE
5
258
330
247
100
AcDbSymbolTableRecord
100
AcDbLinetypeTableRecord
2
Continuous
70
0
3
Solid line
72
65
73
0
40
0.0
0
LTYPE
5
273
330
247
100
AcDbSymbolTableRecord
100
AcDbLinetypeTableRecord
2
CENTER
70
0
3
Center ____ _ ____ _ ____ _ ____ _ ____ _ ____
72
65
73
4
40
2.0
49
1.25
74
0
49
-0.25
74
0
49
0.25
74
0
49
-0.25
74
0
0
LTYPE
5
274
330
247
100
AcDbSymbolTableRecord
100
AcDbLinetypeTableRecord
2
DASHDOT
70
0
3
Dashdot __ . __ . __ . __ . __ . __ . __ . __
72
65
73
4
40
1.0
49
0.5
74
0
49
-0.25
74
0
49
0.0
74
0
49
-0.25
74
0
0
LTYPE
5
275
330
247
100
AcDbSymbolTableRecord
100
AcDbLinetypeTableRecord
2
DASHED
70
0
3
Dashed __ __ __ __ __ __ __ __ __ __ __ __ __ _
72
65
73
2
40
0.75
49
0.5
74
0
49
-0.25
74
0
0
LTYPE
5
276
330
247
100
AcDbSymbolTableRecord
100
AcDbLinetypeTableRecord
2
HIDDEN
70
0
3
Hidden __ __ __ __ __ __ __ __ __ __ __ __ __ __
72
65
73
2
40
0.375
49
0.25
74
0
49
-0.125
74
0
0
LTYPE
5
277
330
247
100
AcDbSymbolTableRecord
100
AcDbLinetypeTableRecord
2
HIDDEN2
70
0
3
Hidden2 _ _ _ _ _ _ _ _ _ _ _ _ _ _ _ _ _
72
65
73
2
40
0.1875
49
0.125
74
0
49
-0.0625
74
0
0
LTYPE
5
278
330
247
100
AcDbSymbolTableRecord
100
AcDbLinetypeTableRecord
2
BORDER
70
0
3
Border __ __ . __ __ . __ __ . __ __ . __ __ .
72
65
73
6
40
1.75
49
0.5
74
0
49
-0.25
74
0
49
0.5
74
0
49
-0.25
74
0
49
0.0
74
0
49
-0.25
74
0
0
LTYPE
5
279
330
247
100
AcDbSymbolTableRecord
100
AcDbLinetypeTableRecord
2
BORDER2
70
0
3
Border2 __.__.__.__.__.__.__.__.__.__.__.
72
65
73
6
40
0.875
49
0.25
74
0
49
-0.125
74
0
49
0.25
74
0
49
-0.125
74
0
49
0.0
74
0
49
-0.125
74
0
0
LTYPE
5
27A
330
247
100
AcDbSymbolTableRecord
100
AcDbLinetypeTableRecord
2
BORDERX2
70
0
3
Borderx2  ____  ____  .  ____  ____  .  ___
72
65
73
6
40
3.5
49
1.0
74
0
49
-0.5
74
0
49
1.0
74
0
49
-0.5
74
0
49
0.0
74
0
49
-0.5
74
0
0
LTYPE
5
27B
330
247
100
AcDbSymbolTableRecord
100
AcDbLinetypeTableRecord
2
CENTER2
70
0
3
Center2  ___ _ ___ _ ___ _ ___ _ ___ _ ___
72
65
73
4
40
1.125
49
0.75
74
0
49
-0.125
74
0
49
0.125
74
0
49
-0.125
74
0
0
LTYPE
5
27C
330
247
100
AcDbSymbolTableRecord
100
AcDbLinetypeTableRecord
2
CENTERX2
70
0
3
Centerx2  ________  __  ________  __  _____
72
65
73
4
40
4.0
49
2.5
74
0
49
-0.5
74
0
49
0.5
74
0
49
-0.5
74
0
0
LTYPE
5
27D
330
247
100
AcDbSymbolTableRecord
100
AcDbLinetypeTableRecord
2
DASHDOT2
70
0
3
Dashdot2  _._._._._._._._._._._._._._._.
72
65
73
4
40
0.5
49
0.25
74
0
49
-0.125
74
0
49
0.0
74
0
49
-0.125
74
0
0
LTYPE
5
27E
330
247
100
AcDbSymbolTableRecord
100
AcDbLinetypeTableRecord
2
DASHDOTX2
70
0
3
Dashdotx2 ____  .  ____  .  ____  .  ___
72
65
73
4
40
2.0
49
1.0
74
0
49
-0.5
74
0
49
0.0
74
0
49
-0.5
74
0
0
LTYPE
5
27F
330
247
100
AcDbSymbolTableRecord
100
AcDbLinetypeTableRecord
2
DASHED2
70
0
3
Dashed2 _ _ _ _ _ _ _ _ _ _ _ _ _ _ _ _ _
72
65
73
2
40
0.375
49
0.25
74
0
49
-0.125
74
0
0
LTYPE
5
280
330
247
100
AcDbSymbolTableRecord
100
AcDbLinetypeTableRecord
2
DASHEDX2
70
0
3
Dashedx2 ____  ____  ____  ____  ____  ___
72
65
73
2
40
1.5
49
1.0
74
0
49
-0.5
74
0
0
LTYPE
5
281
330
247
100
AcDbSymbolTableRecord
100
AcDbLinetypeTableRecord
2
DIVIDE
70
0
3
Divide ____ . . ____ . . ____ . . ____ . . ____
72
65
73
6
40
1.25
49
0.5
74
0
49
-0.25
74
0
49
0.0
74
0
49
-0.25
74
0
49
0.0
74
0
49
-0.25
74
0
0
LTYPE
5
282
330
247
100
AcDbSymbolTableRecord
100
AcDbLinetypeTableRecord
2
DIVIDE2
70
0
3
Divide2 __..__..__..__..__..__..__..__.._
72
65
73
6
40
0.625
49
0.25
74
0
49
-0.125
74
0
49
0.0
74
0
49
-0.125
74
0
49
0.0
74
0
49
-0.125
74
0
0
LTYPE
5
283
330
247
100
AcDbSymbolTableRecord
100
AcDbLinetypeTableRecord
2
DIVIDEX2
70
0
3
Dividex2 ________  .  .  ________  .  .  _
72
65
73
6
40
2.5
49
1.0
74
0
49
-0.5
74
0
49
0.0
74
0
49
-0.5
74
0
49
0.0
74
0
49
-0.5
74
0
0
LTYPE
5
284
330
247
100
AcDbSymbolTableRecord
100
AcDbLinetypeTableRecord
2
DOT
70
0
3
Dot . . . . . . . . . . . . . . . . . . . . . . . .
72
65
73
2
40
0.25
49
0.0
74
0
49
-0.25
74
0
0
LTYPE
5
285
330
247
100
AcDbSymbolTableRecord
100
AcDbLinetypeTableRecord
2
DOT2
70
0
3
Dot2 ........................................
72
65
73
2
40
0.125
49
0.0
74
0
49
-0.125
74
0
0
LTYPE
5
286
330
247
100
AcDbSymbolTableRecord
100
AcDbLinetypeTableRecord
2
DOTX2
70
0
3
Dotx2 .  .  .  .  .  .  .  .  .  .  .  .  .  .
72
65
73
2
40
0.5
49
0.0
74
0
49
-0.5
74
0
0
LTYPE
5
287
330
247
100
AcDbSymbolTableRecord
100
AcDbLinetypeTableRecord
2
HIDDENX2
70
0
3
Hiddenx2 ____ ____ ____ ____ ____ ____ ____
72
65
73
2
40
0.75
49
0.5
74
0
49
-0.25
74
0
0
LTYPE
5
288
330
247
100
AcDbSymbolTableRecord
100
AcDbLinetypeTableRecord
2
PHANTOM
70
0
3
Phantom ______  __  __  ______  __  __  ______
72
65
73
6
40
2.5
49
1.25
74
0
49
-0.25
74
0
49
0.25
74
0
49
-0.25
74
0
49
0.25
74
0
49
-0.25
74
0
0
LTYPE
5
289
330
247
100
AcDbSymbolTableRecord
100
AcDbLinetypeTableRecord
2
PHANTOM2
70
0
3
Phantom2 ___ _ _ ___ _ _ ___ _ _ ___ _ _
72
65
73
6
40
1.25
49
0.625
74
0
49
-0.125
74
0
49
0.125
74
0
49
-0.125
74
0
49
0.125
74
0
49
-0.125
74
0
0
LTYPE
5
28A
330
247
100
AcDbSymbolTableRecord
100
AcDbLinetypeTableRecord
2
PHANTOMX2
70
0
3
Phantomx2 ____________    ____    ____   _
72
65
73
6
40
5.0
49
2.5
74
0
49
-0.5
74
0
49
0.5
74
0
49
-0.5
74
0
49
0.5
74
0
49
-0.5
74
0
0
ENDTAB
0
TABLE
2
LAYER
5
244
330
0
100
AcDbSymbolTable
70
6
0
LAYER
5
252
330
244
100
AcDbSymbolTableRecord
100
AcDbLayerTableRecord
2
0
70
0
62
7
6
Continuous
370
0
390
251
0
LAYER
5
23F
330
244
100
AcDbSymbolTableRecord
100
AcDbLayerTableRecord
2
Bemassung
70
0
 62
   7
6
Continuous
370
0
390
251
0
LAYER
5
240
330
244
100
AcDbSymbolTableRecord
100
AcDbLayerTableRecord
2
Rahmen
70
0
 62
   7
6
Continuous
370
0
390
251
0
LAYER
5
241
330
244
100
AcDbSymbolTableRecord
100
AcDbLayerTableRecord
2
Geo
70
0
 62
   7
6
Continuous
370
0
390
251
0
LAYER
5
33A
330
244
100
AcDbSymbolTableRecord
100
AcDbLayerTableRecord
2
Defpoints
70
0
62
7
6
Continuous
290
0
370
-3
390
251
0
LAYER
5
57E
330
244
100
AcDbSymbolTableRecord
100
AcDbLayerTableRecord
2
Text
70
0
 62
   7
6
Continuous
370
0
390
251
1001
AcAecLayerStandard
1000

1000

0
ENDTAB
0
TABLE
2
STYLE
5
245
330
0
100
AcDbSymbolTable
70
2
0
STYLE
5
253
330
245
100
AcDbSymbolTableRecord
100
AcDbTextStyleTableRecord
2
Standard
70
0
40
0.0
41
1.0
50
0.0
71
0
42
0.2
3
Arial
4

1001
ACAD
1000
Arial
1071
0
0
STYLE
5
132
330
245
100
AcDbSymbolTableRecord
100
AcDbTextStyleTableRecord
2
Beschriftung
70
0
40
0.0
41
1.0
50
0.0
71
0
42
0.2
3
Arial
4

1001
ACAD
1000
Arial
1071
0
1001
AcadAnnotative
1000
AnnotativeData
1070
1
1070
1
0
ENDTAB
0
TABLE
2
VIEW
5
248
330
0
100
AcDbSymbolTable
70
0
0
ENDTAB
0
TABLE
2
UCS
5
249
330
0
100
AcDbSymbolTable
70
0
0
ENDTAB
0
TABLE
2
APPID
5
24B
330
0
100
AcDbSymbolTable
70
13
0
APPID
5
254
330
24B
100
AcDbSymbolTableRecord
100
AcDbRegAppTableRecord
2
ACAD
70
0
0
APPID
5
26C
330
24B
100
AcDbSymbolTableRecord
100
AcDbRegAppTableRecord
2
VD_INVISIBLE_NOT_FOR_READ
70
0
0
APPID
5
26D
330
24B
100
AcDbSymbolTableRecord
100
AcDbRegAppTableRecord
2
VD_TEMPHATCH
70
0
0
APPID
5
26E
330
24B
100
AcDbSymbolTableRecord
100
AcDbRegAppTableRecord
2
VDEXTRAPARAM
70
0
0
APPID
5
26F
330
24B
100
AcDbSymbolTableRecord
100
AcDbRegAppTableRecord
2
PE_URL
70
0
0
APPID
5
270
330
24B
100
AcDbSymbolTableRecord
100
AcDbRegAppTableRecord
2
VD_UNKNOWN
70
0
0
APPID
5
28F
330
24B
100
AcDbSymbolTableRecord
100
AcDbRegAppTableRecord
2
AcadAnnotative
70
0
0
APPID
5
290
330
24B
100
AcDbSymbolTableRecord
100
AcDbRegAppTableRecord
2
ACAD_DSTYLE_DIMJAG
70
0
0
APPID
5
291
330
24B
100
AcDbSymbolTableRecord
100
AcDbRegAppTableRecord
2
ACAD_DSTYLE_DIMTALN
70
0
0
APPID
5
293
330
24B
100
AcDbSymbolTableRecord
100
AcDbRegAppTableRecord
2
ACAD_PSEXT
70
0
0
APPID
5
42A
330
24B
100
AcDbSymbolTableRecord
100
AcDbRegAppTableRecord
2
ACAD_MLEADERVER
70
0
0
APPID
5
532
330
24B
100
AcDbSymbolTableRecord
100
AcDbRegAppTableRecord
2
ACAD_EXEMPT_FROM_CAD_STANDARDS
70
0
0
APPID
5
57F
330
24B
100
AcDbSymbolTableRecord
100
AcDbRegAppTableRecord
2
AcAecLayerStandard
70
0
0
ENDTAB
0
TABLE
2
DIMSTYLE
5
24C
330
0
100
AcDbSymbolTable
70
3
100
AcDbDimStyleTable
71
2
340
27
340
269
0
DIMSTYLE
105
269
330
24C
100
AcDbSymbolTableRecord
100
AcDbDimStyleTableRecord
2
Standard
70
0
172
1
174
1
288
1
340
253
342
23C
0
DIMSTYLE
105
137
330
24C
100
AcDbSymbolTableRecord
100
AcDbDimStyleTableRecord
2
Beschriftung
70
0
41
2.5
42
0.625
44
1.25
73
0
74
0
77
1
140
2.5
147
0.625
172
1
174
1
271
2
288
1
340
253
342
23C
1001
AcadAnnotative
1000
AnnotativeData
1070
1
1070
1
1001
ACAD_DSTYLE_DIMJAG
1070
388
1040
1.5
1001
ACAD_DSTYLE_DIMTALN
1070
392
1070
0
0
DIMSTYLE
105
27
102
{ACAD_REACTORS
330
F10003
330
F10012
330
F10017
330
F10008
330
F1000D
102
}
330
24C
100
AcDbSymbolTableRecord
100
AcDbDimStyleTableRecord
2
BEM-ISBE
70
0
41
2.5
42
0.625
44
1.25
48
0.000000001
71
1
73
0
74
0
77
1
140
2.5
144
1.00000000000000
146
0.5
147
0.625
171
 3
172
 1
179
 3
271
 3
272
 3
274
 3
340
253
342
23C
1001
ACAD_DSTYLE_DIMJAG
1070
388
1040
1.5
1001
ACAD_DSTYLE_DIMTALN
1070
392
1070
1
0
ENDTAB
0
TABLE
2
BLOCK_RECORD
5
243
330
0
100
AcDbSymbolTable
70
5
0
BLOCK_RECORD
5
261
330
243
100
AcDbSymbolTableRecord
100
AcDbBlockTableRecord
2
*Model_Space
340
FD0
0
BLOCK_RECORD
5
25D
330
243
100
AcDbSymbolTableRecord
100
AcDbBlockTableRecord
2
*Paper_Space
340
FD1
0
BLOCK_RECORD
5
265
330
243
100
AcDbSymbolTableRecord
100
AcDbBlockTableRecord
2
*Paper_Space0
340
0
0
BLOCK_RECORD
5
23C
330
243
100
AcDbSymbolTableRecord
100
AcDbBlockTableRecord
2
VDDIM_DEFAULT
340
0
102
{BLKREFS
102
}
0
BLOCK_RECORD
5
23E
330
243
100
AcDbSymbolTableRecord
100
AcDbBlockTableRecord
2
VDDIM_NONE
340
0
0
BLOCK_RECORD
5
F10002
330
243
100
AcDbSymbolTableRecord
100
AcDbBlockTableRecord
2
*D3
340
0
0
BLOCK_RECORD
5
F10011
330
243
100
AcDbSymbolTableRecord
100
AcDbBlockTableRecord
2
*D6
340
0
0
BLOCK_RECORD
5
F10016
330
243
100
AcDbSymbolTableRecord
100
AcDbBlockTableRecord
2
*D7
340
0
0
BLOCK_RECORD
5
F10007
330
243
100
AcDbSymbolTableRecord
100
AcDbBlockTableRecord
2
*D4
340
0
0
BLOCK_RECORD
5
F1000C
330
243
100
AcDbSymbolTableRecord
100
AcDbBlockTableRecord
2
*D5
340
0
0
ENDTAB
0
ENDSEC
0
SECTION
2
BLOCKS
0
BLOCK
5
262
330
261
100
AcDbEntity
8
0
100
AcDbBlockBegin
2
*Model_Space
70
0
10
0.0
20
0.0
30
0.0
3
*Model_Space
1

0
ENDBLK
5
263
330
261
100
AcDbEntity
8
0
100
AcDbBlockEnd
0
BLOCK
5
25E
330
25D
100
AcDbEntity
67
1
8
0
100
AcDbBlockBegin
2
*Paper_Space
70
0
10
0.0
20
0.0
30
0.0
3
*Paper_Space
1

0
ENDBLK
5
25F
330
25D
100
AcDbEntity
67
1
8
0
100
AcDbBlockEnd
0
BLOCK
5
266
330
265
100
AcDbEntity
8
0
100
AcDbBlockBegin
2
*Paper_Space0
70
0
10
0.0
20
0.0
30
0.0
3
*Paper_Space0
1

0
VIEWPORT
5
296
102
{ACAD_XDICTIONARY
360
58E
102
}
330
265
100
AcDbEntity
8
0
60
1
100
AcDbViewport
10
0.0
20
0.0
30
0.0
40
10.0
41
10.0
69
0
12
0.0
22
0.0
13
0.0
23
0.0
14
1.0
24
1.0
15
0.0
25
0.0
16
0.0
26
0.0
36
1.0
17
0.0
27
0.0
37
0.0
42
0.0
43
0.0
44
0.0
45
10.0
50
0.0
51
0.0000000000007958
72
100
90
163872
1

281
0
71
0
74
0
110
0.0
120
0.0
130
0.0
111
1.0
121
0.0
131
0.0
112
0.0
122
1.0
132
0.0
79
0
146
0.0
1001
VD_INVISIBLE_NOT_FOR_READ
1000
VD_INVISIBLE_NOT_FOR_READ
0
VIEWPORT
5
297
102
{ACAD_XDICTIONARY
360
590
102
}
330
265
100
AcDbEntity
8
0
60
1
100
AcDbViewport
10
0.0
20
0.0
30
0.0
40
10.0
41
10.0
69
0
12
0.0
22
0.0
13
0.0
23
0.0
14
1.0
24
1.0
15
0.0
25
0.0
16
0.0
26
0.0
36
1.0
17
0.0
27
0.0
37
0.0
42
0.0
43
0.0
44
0.0
45
10.0
50
0.0
51
0.0000000000007958
72
100
90
163872
1

281
0
71
0
74
0
110
0.0
120
0.0
130
0.0
111
1.0
121
0.0
131
0.0
112
0.0
122
1.0
132
0.0
79
0
146
0.0
1001
VD_INVISIBLE_NOT_FOR_READ
1000
VD_INVISIBLE_NOT_FOR_READ
0
ENDBLK
5
267
330
265
100
AcDbEntity
8
0
100
AcDbBlockEnd
0
BLOCK
5
28B
330
23C
100
AcDbEntity
8
0
100
AcDbBlockBegin
2
VDDIM_DEFAULT
70
0
10
0.0
20
0.0
30
0.0
3
VDDIM_DEFAULT
1

0
LWPOLYLINE
5
23D
330
23C
100
AcDbEntity
8
0
6
Continuous
62
0
100
AcDbPolyline
90
4
70
0
43
0.0
10
0.0
20
0.0
10
-1.0
20
-0.1665
10
-1.0
20
0.1665
10
0.0
20
0.0
1001
VDEXTRAPARAM
1071
1
1071
0
1071
0
1040
1.0
1000

1000

1040
0.0
1040
0.0
0
HATCH
5
292
330
23C
100
AcDbEntity
8
0
6
Continuous
62
0
100
AcDbHatch
10
0.0
20
0.0
30
0.0
210
0.0
220
0.0
230
1.0
2
SOLID
70
1
71
0
91
1
92
2
72
0
73
1
93
3
10
0.0
20
0.0
10
-1.0
20
-0.1665
10
-1.0
20
0.1665
97
0
75
0
76
1
98
1
10
0.0
20
0.0
1001
VDEXTRAPARAM
1071
1
1071
0
1071
0
1040
1.0
1000

1000

1040
0.0
1040
0.0
1001
VD_TEMPHATCH
1000
VD_TEMPHATCH
0
ENDBLK
5
28C
330
23C
100
AcDbEntity
8
0
100
AcDbBlockEnd
0
BLOCK
5
28D
330
23E
100
AcDbEntity
8
0
100
AcDbBlockBegin
2
VDDIM_NONE
70
0
10
0.0
20
0.0
30
0.0
3
VDDIM_NONE
1

0
ENDBLK
5
28E
330
23E
100
AcDbEntity
8
0
100
AcDbBlockEnd
  0
BLOCK
  5
F1001B
330
F10002
100
AcDbEntity
  8
0
100
AcDbBlockBegin
  2
*D3
 70
     1
 10
0.0
 20
0.0
 30
0.0
  3
*D3
  1

  0
LINE
  5
F1001C
330
F10002
100
AcDbEntity
  8
Bemassung
 62
     0
370
    -2
100
AcDbLine
10
-29.9310494362533
20
-6.62185602775368
30
0.000000000000000
11
-29.9310494362533
21
31.3781439722463
31
0.000000000000000
  0
LINE
  5
F1001D
330
F10002
100
AcDbEntity
  8
Bemassung
 62
     0
370
    -2
100
AcDbLine
10
-29.6810494362533
20
14.3781439722463
30
0.000000000000000
11
-29.6810494362533
21
23.3781439722463
31
0.000000000000000
  0
LINE
  5
F1001E
330
F10002
100
AcDbEntity
  8
Bemassung
 62
     0
370
    -2
100
AcDbLine
10
-50.6331309627060
20
21.3781439722463
30
0.000000000000000
11
-29.6810494362533
21
21.3781439722463
31
0.000000000000000
  0
INSERT
  5
F1001F
330
F10002
100
AcDbEntity
  8
Bemassung
 62
     0
370
    -2
100
AcDbBlockReference
  2
VDDIM_DEFAULT
10
-29.9310494362533
20
21.3781439722463
30
0.000000000000000
 41
2.50000000000000
 42
2.50000000000000
 43
2.50000000000000
  0
INSERT
  5
F10020
330
F10002
100
AcDbEntity
  8
Bemassung
 62
     0
370
    -2
100
AcDbBlockReference
  2
VDDIM_DEFAULT
10
-29.6810494362533
20
21.3781439722463
30
0.000000000000000
 41
2.50000000000000
 42
2.50000000000000
 43
2.50000000000000
 50
180.000000000000
  0
MTEXT
  5
F10021
330
F10002
100
AcDbEntity
  8
Bemassung
 62
     0
100
AcDbMText
10
-34.7875108412836
20
22.0448106389130
30
0.000000000000000
 40
2.50000000000000
 41
0.0
 71
     8
 72
     1
  1
0.25 x 45°
 11
1.00000000000000
 21
0.000000000000000
 31
0.0
 73
     1
 44
1.0
1001
ACAD
1000
MTEXTBEGIN
1070
73
1070
1
1070
44
1040
1.0
1070
74
1070
0
1000
MTEXTEND
  0
POINT
  5
F10022
330
F10002
100
AcDbEntity
  8
Bemassung
 62
     0
100
AcDbPoint
10
-29.9310494362533
20
-6.62185602775368
30
0.000000000000000
  0
POINT
  5
F10023
330
F10002
100
AcDbEntity
  8
Bemassung
 62
     0
100
AcDbPoint
10
-29.6810494362533
20
14.3781439722463
30
0.000000000000000
  0
ENDBLK
  5
F10024
330
F10002
100
AcDbEntity
  8
0
100
AcDbBlockEnd
  0
BLOCK
  5
F10025
330
F10011
100
AcDbEntity
  8
0
100
AcDbBlockBegin
  2
*D6
 70
     1
 10
0.0
 20
0.0
 30
0.0
  3
*D6
  1

  0
LINE
  5
F10026
330
F10011
100
AcDbEntity
  8
Bemassung
 62
     0
370
    -2
100
AcDbLine
10
-13.9310494362533
20
2.37814397224632
30
0.000000000000000
11
-13.9310494362533
21
-6.62185602775368
31
0.000000000000000
  0
LINE
  5
F10027
330
F10011
100
AcDbEntity
  8
Bemassung
 62
     0
370
    -2
100
AcDbLine
10
-29.9310494362533
20
-6.62185602775368
30
0.000000000000000
11
-29.9310494362533
21
31.3781439722463
31
0.000000000000000
  0
LINE
  5
F10028
330
F10011
100
AcDbEntity
  8
Bemassung
 62
     0
370
    -2
100
AcDbLine
10
-13.9310494362533
20
-4.62185602775368
30
0.000000000000000
11
-29.9310494362533
21
-4.62185602775368
31
0.000000000000000
  0
INSERT
  5
F10029
330
F10011
100
AcDbEntity
  8
Bemassung
 62
     0
370
    -2
100
AcDbBlockReference
  2
VDDIM_DEFAULT
10
-13.9310494362533
20
-4.62185602775368
30
0.000000000000000
 41
2.50000000000000
 42
2.50000000000000
 43
2.50000000000000
  0
INSERT
  5
F1002A
330
F10011
100
AcDbEntity
  8
Bemassung
 62
     0
370
    -2
100
AcDbBlockReference
  2
VDDIM_DEFAULT
10
-29.9310494362533
20
-4.62185602775368
30
0.000000000000000
 41
2.50000000000000
 42
2.50000000000000
 43
2.50000000000000
 50
180.000000000000
  0
MTEXT
  5
F1002B
330
F10011
100
AcDbEntity
  8
Bemassung
 62
     0
100
AcDbMText
10
-21.9310494362533
20
-3.95518936108701
30
0.000000000000000
 40
2.50000000000000
 41
0.0
 71
     8
 72
     1
  1
16
 11
1.00000000000000
 21
0.000000000000000
 31
0.0
 73
     1
 44
1.0
1001
ACAD
1000
MTEXTBEGIN
1070
73
1070
1
1070
44
1040
1.0
1070
74
1070
0
1000
MTEXTEND
  0
POINT
  5
F1002C
330
F10011
100
AcDbEntity
  8
Bemassung
 62
     0
100
AcDbPoint
10
-13.9310494362533
20
2.37814397224632
30
0.000000000000000
  0
POINT
  5
F1002D
330
F10011
100
AcDbEntity
  8
Bemassung
 62
     0
100
AcDbPoint
10
-29.9310494362533
20
-6.62185602775368
30
0.000000000000000
  0
ENDBLK
  5
F1002E
330
F10011
100
AcDbEntity
  8
0
100
AcDbBlockEnd
  0
BLOCK
  5
F1002F
330
F10016
100
AcDbEntity
  8
0
100
AcDbBlockBegin
  2
*D7
 70
     1
 10
0.0
 20
0.0
 30
0.0
  3
*D7
  1

  0
LINE
  5
F10030
330
F10016
100
AcDbEntity
  8
Bemassung
 62
     0
370
    -2
100
AcDbLine
10
43.0689505637467
20
13.6781439722463
30
0.000000000000000
11
43.0689505637467
21
31.3781439722463
31
0.000000000000000
  0
LINE
  5
F10031
330
F10016
100
AcDbEntity
  8
Bemassung
 62
     0
370
    -2
100
AcDbLine
10
-29.9310494362533
20
-6.62185602775368
30
0.000000000000000
11
-29.9310494362533
21
31.3781439722463
31
0.000000000000000
  0
LINE
  5
F10032
330
F10016
100
AcDbEntity
  8
Bemassung
 62
     0
370
    -2
100
AcDbLine
10
43.0689505637467
20
29.3781439722463
30
0.000000000000000
11
-29.9310494362533
21
29.3781439722463
31
0.000000000000000
  0
INSERT
  5
F10033
330
F10016
100
AcDbEntity
  8
Bemassung
 62
     0
370
    -2
100
AcDbBlockReference
  2
VDDIM_DEFAULT
10
43.0689505637467
20
29.3781439722463
30
0.000000000000000
 41
2.50000000000000
 42
2.50000000000000
 43
2.50000000000000
  0
INSERT
  5
F10034
330
F10016
100
AcDbEntity
  8
Bemassung
 62
     0
370
    -2
100
AcDbBlockReference
  2
VDDIM_DEFAULT
10
-29.9310494362533
20
29.3781439722463
30
0.000000000000000
 41
2.50000000000000
 42
2.50000000000000
 43
2.50000000000000
 50
180.000000000000
  0
MTEXT
  5
F10035
330
F10016
100
AcDbEntity
  8
Bemassung
 62
     0
100
AcDbMText
10
6.56895056374672
20
30.0448106389130
30
0.000000000000000
 40
2.50000000000000
 41
0.0
 71
     8
 72
     1
  1
73
 11
1.00000000000000
 21
0.000000000000000
 31
0.0
 73
     1
 44
1.0
1001
ACAD
1000
MTEXTBEGIN
1070
73
1070
1
1070
44
1040
1.0
1070
74
1070
0
1000
MTEXTEND
  0
POINT
  5
F10036
330
F10016
100
AcDbEntity
  8
Bemassung
 62
     0
100
AcDbPoint
10
43.0689505637467
20
13.6781439722463
30
0.000000000000000
  0
POINT
  5
F10037
330
F10016
100
AcDbEntity
  8
Bemassung
 62
     0
100
AcDbPoint
10
-29.9310494362533
20
-6.62185602775368
30
0.000000000000000
  0
ENDBLK
  5
F10038
330
F10016
100
AcDbEntity
  8
0
100
AcDbBlockEnd
  0
BLOCK
  5
F10039
330
F10007
100
AcDbEntity
  8
0
100
AcDbBlockBegin
  2
*D4
 70
     1
 10
0.0
 20
0.0
 30
0.0
  3
*D4
  1

  0
LINE
  5
F1003A
330
F10007
100
AcDbEntity
  8
Bemassung
 62
     0
370
    -2
100
AcDbLine
10
-29.6810494362533
20
2.37814397224632
30
0.000000000000000
11
-41.9310494362533
21
2.37814397224632
31
0.000000000000000
  0
LINE
  5
F1003B
330
F10007
100
AcDbEntity
  8
Bemassung
 62
     0
370
    -2
100
AcDbLine
10
-29.6810494362533
20
14.3781439722463
30
0.000000000000000
11
-41.9310494362533
21
14.3781439722463
31
0.000000000000000
  0
LINE
  5
F1003C
330
F10007
100
AcDbEntity
  8
Bemassung
 62
     0
370
    -2
100
AcDbLine
10
-39.9310494362533
20
2.37814397224632
30
0.000000000000000
11
-39.9310494362533
21
14.3781439722463
31
0.000000000000000
  0
INSERT
  5
F1003D
330
F10007
100
AcDbEntity
  8
Bemassung
 62
     0
370
    -2
100
AcDbBlockReference
  2
VDDIM_DEFAULT
10
-39.9310494362533
20
2.37814397224632
30
0.000000000000000
 41
2.50000000000000
 42
2.50000000000000
 43
2.50000000000000
 50
90.0000000000000
  0
INSERT
  5
F1003E
330
F10007
100
AcDbEntity
  8
Bemassung
 62
     0
370
    -2
100
AcDbBlockReference
  2
VDDIM_DEFAULT
10
-39.9310494362533
20
14.3781439722463
30
0.000000000000000
 41
2.50000000000000
 42
2.50000000000000
 43
2.50000000000000
 50
270.000000000000
  0
MTEXT
  5
F1003F
330
F10007
100
AcDbEntity
  8
Bemassung
 62
     0
100
AcDbMText
10
-40.5977161029199
20
8.37814397224632
30
0.000000000000000
 40
2.50000000000000
 41
0.0
 71
     8
 72
     1
  1
Ø12
 11
6.12323399573677e-17
 21
1.00000000000000
 31
0.0
 73
     1
 44
1.0
1001
ACAD
1000
MTEXTBEGIN
1070
73
1070
1
1070
44
1040
1.0
1070
74
1070
0
1000
MTEXTEND
  0
POINT
  5
F10040
330
F10007
100
AcDbEntity
  8
Bemassung
 62
     0
100
AcDbPoint
10
-29.6810494362533
20
2.37814397224632
30
0.000000000000000
  0
POINT
  5
F10041
330
F10007
100
AcDbEntity
  8
Bemassung
 62
     0
100
AcDbPoint
10
-29.6810494362533
20
14.3781439722463
30
0.000000000000000
  0
ENDBLK
  5
F10042
330
F10007
100
AcDbEntity
  8
0
100
AcDbBlockEnd
  0
BLOCK
  5
F10043
330
F1000C
100
AcDbEntity
  8
0
100
AcDbBlockBegin
  2
*D5
 70
     1
 10
0.0
 20
0.0
 30
0.0
  3
*D5
  1

  0
LINE
  5
F10044
330
F1000C
100
AcDbEntity
  8
Bemassung
 62
     0
370
    -2
100
AcDbLine
10
42.3689505637467
20
2.37814397224632
30
0.000000000000000
11
54.0689505637467
21
2.37814397224632
31
0.000000000000000
  0
LINE
  5
F10045
330
F1000C
100
AcDbEntity
  8
Bemassung
 62
     0
370
    -2
100
AcDbLine
10
42.3689505637467
20
14.3781439722463
30
0.000000000000000
11
54.0689505637467
21
14.3781439722463
31
0.000000000000000
  0
LINE
  5
F10046
330
F1000C
100
AcDbEntity
  8
Bemassung
 62
     0
370
    -2
100
AcDbLine
10
52.0689505637467
20
2.37814397224632
30
0.000000000000000
11
52.0689505637467
21
14.3781439722463
31
0.000000000000000
  0
INSERT
  5
F10047
330
F1000C
100
AcDbEntity
  8
Bemassung
 62
     0
370
    -2
100
AcDbBlockReference
  2
VDDIM_DEFAULT
10
52.0689505637467
20
2.37814397224632
30
0.000000000000000
 41
2.50000000000000
 42
2.50000000000000
 43
2.50000000000000
 50
90.0000000000000
  0
INSERT
  5
F10048
330
F1000C
100
AcDbEntity
  8
Bemassung
 62
     0
370
    -2
100
AcDbBlockReference
  2
VDDIM_DEFAULT
10
52.0689505637467
20
14.3781439722463
30
0.000000000000000
 41
2.50000000000000
 42
2.50000000000000
 43
2.50000000000000
 50
270.000000000000
  0
MTEXT
  5
F10049
330
F1000C
100
AcDbEntity
  8
Bemassung
 62
     0
100
AcDbMText
10
51.4022838970801
20
7.74067649609742
30
0.000000000000000
 40
2.50000000000000
 41
0.0
 71
     8
 72
     1
  1
Ø12h6
 11
6.12323399573677e-17
 21
1.00000000000000
 31
0.0
 73
     1
 44
1.0
  0
POINT
  5
F1004A
330
F1000C
100
AcDbEntity
  8
Bemassung
 62
     0
100
AcDbPoint
10
42.3689505637467
20
2.37814397224632
30
0.000000000000000
  0
POINT
  5
F1004B
330
F1000C
100
AcDbEntity
  8
Bemassung
 62
     0
100
AcDbPoint
10
42.3689505637467
20
14.3781439722463
30
0.000000000000000
  0
ENDBLK
  5
F1004C
330
F1000C
100
AcDbEntity
  8
0
100
AcDbBlockEnd
0
ENDSEC
0
SECTION
2
ENTITIES
  0
DIMENSION
  5
F10003
330
261
100
AcDbEntity
  8
Bemassung
100
AcDbDimension
  2
*D3
10
-29.6810494362533
20
21.3781439722463
30
0.000000000000000
11
-34.7875108412836
21
22.0448106389130
31
0.000000000000000
 70
32
 1
0.25 x 45°
 71
     8
  3
BEM-ISBE
100
AcDbAlignedDimension
13
-29.9310494362533
23
-6.62185602775368
33
0.000000000000000
14
-29.6810494362533
24
14.3781439722463
34
0.000000000000000
100
AcDbRotatedDimension
1001
ACAD
1000
DSTYLE
1002
{
1070
284
1070
8
1070
78
1070
8
1070
144
1040
1.00000000000000
1070
147
1040
0.625
1070
 72
1070
 0
1070
 71
1070
 0
1002
}
  0
DIMENSION
  5
F10012
330
261
100
AcDbEntity
  8
Bemassung
100
AcDbDimension
  2
*D6
10
-29.9310494362533
20
-4.62185602775368
30
0.000000000000000
11
-21.9310494362533
21
-3.95518936108701
31
0.000000000000000
 70
32
 1
16
 71
     8
  3
BEM-ISBE
100
AcDbAlignedDimension
13
-13.9310494362533
23
2.37814397224632
33
0.000000000000000
14
-29.9310494362533
24
-6.62185602775368
34
0.000000000000000
100
AcDbRotatedDimension
1001
ACAD
1000
DSTYLE
1002
{
1070
284
1070
8
1070
78
1070
8
1070
144
1040
1.00000000000000
1070
147
1040
0.625
1070
 72
1070
 0
1070
 71
1070
 0
1002
}
  0
DIMENSION
  5
F10017
330
261
100
AcDbEntity
  8
Bemassung
100
AcDbDimension
  2
*D7
10
-29.9310494362533
20
29.3781439722463
30
0.000000000000000
11
6.56895056374672
21
30.0448106389130
31
0.000000000000000
 70
32
 1
73
 71
     8
  3
BEM-ISBE
100
AcDbAlignedDimension
13
43.0689505637467
23
13.6781439722463
33
0.000000000000000
14
-29.9310494362533
24
-6.62185602775368
34
0.000000000000000
100
AcDbRotatedDimension
1001
ACAD
1000
DSTYLE
1002
{
1070
284
1070
8
1070
78
1070
8
1070
144
1040
1.00000000000000
1070
147
1040
0.625
1070
 72
1070
 0
1070
 71
1070
 0
1002
}
  0
DIMENSION
  5
F10008
330
261
100
AcDbEntity
  8
Bemassung
100
AcDbDimension
  2
*D4
10
-39.9310494362533
20
14.3781439722463
30
0.000000000000000
11
-40.5977161029199
21
8.37814397224632
31
0.000000000000000
 70
32
 1
Ø12
 71
     8
  3
BEM-ISBE
100
AcDbAlignedDimension
13
-29.6810494362533
23
2.37814397224632
33
0.000000000000000
14
-29.6810494362533
24
14.3781439722463
34
0.000000000000000
50
90.0000000000000
100
AcDbRotatedDimension
1001
ACAD
1000
DSTYLE
1002
{
1070
284
1070
8
1070
78
1070
8
1070
144
1040
1.00000000000000
1070
147
1040
0.625
1070
 72
1070
 0
1070
 71
1070
 0
1002
}
  0
DIMENSION
  5
F1000D
330
261
100
AcDbEntity
  8
Bemassung
100
AcDbDimension
  2
*D5
10
52.0689505637467
20
14.3781439722463
30
0.000000000000000
11
51.4022838970801
21
7.74067649609742
31
0.000000000000000
 70
32
 1
Ø12h6
 71
     8
  3
BEM-ISBE
100
AcDbAlignedDimension
13
42.3689505637467
23
2.37814397224632
33
0.000000000000000
14
42.3689505637467
24
14.3781439722463
34
0.000000000000000
50
90.0000000000000
100
AcDbRotatedDimension
1001
ACAD
1000
DSTYLE
1002
{
1070
284
1070
8
1070
78
1070
8
1070
144
1040
1.00000000000000
1070
147
1040
0.625
1070
 72
1070
 0
1070
 71
1070
 0
1002
}
  0
LINE
  5
F1004D
330
F1004E
100
AcDbEntity
8
Geo
100
AcDbLine
10
-29.9310494362533
20
8.37814397224632
30
0.000000000000000
11
-29.9310494362533
21
14.1281439722463
31
0.000000000000000
  0
LINE
  5
F1004F
330
F10050
100
AcDbEntity
8
Geo
100
AcDbLine
10
-29.9310494362533
20
14.1281439722463
30
0.000000000000000
11
-29.6810494362533
21
14.3781439722463
31
0.000000000000000
  0
LINE
  5
F10051
330
F10052
100
AcDbEntity
8
Geo
100
AcDbLine
10
-29.6810494362533
20
14.3781439722463
30
0.000000000000000
11
-13.9310494362533
21
14.3781439722463
31
0.000000000000000
  0
LINE
  5
F10053
330
F10054
100
AcDbEntity
8
Geo
100
AcDbLine
10
-13.9310494362533
20
14.3781439722463
30
0.000000000000000
11
21.3689505637467
21
14.3781439722463
31
0.000000000000000
  0
LINE
  5
F10055
330
F10056
100
AcDbEntity
8
Geo
100
AcDbLine
10
21.3689505637467
20
14.3781439722463
30
0.000000000000000
11
22.9689505637467
21
12.7781439722463
31
0.000000000000000
  0
LINE
  5
F10057
330
F10058
100
AcDbEntity
8
Geo
100
AcDbLine
10
22.9689505637467
20
12.7781439722463
30
0.000000000000000
11
27.1689505637467
21
12.7781439722463
31
0.000000000000000
  0
LINE
  5
F10059
330
F1005A
100
AcDbEntity
8
Geo
100
AcDbLine
10
27.1689505637467
20
12.7781439722463
30
0.000000000000000
11
28.7689505637467
21
14.3781439722463
31
0.000000000000000
  0
LINE
  5
F1005B
330
F1005C
100
AcDbEntity
8
Geo
100
AcDbLine
10
28.7689505637467
20
14.3781439722463
30
0.000000000000000
11
42.3689505637467
21
14.3781439722463
31
0.000000000000000
  0
LINE
  5
F1005D
330
F1005E
100
AcDbEntity
8
Geo
100
AcDbLine
10
42.3689505637467
20
14.3781439722463
30
0.000000000000000
11
43.0689505637467
21
13.6781439722463
31
0.000000000000000
  0
LINE
  5
F1005F
330
F10060
100
AcDbEntity
8
Geo
100
AcDbLine
10
-29.9310494362533
20
14.1280365326186
30
0.000000000000000
11
-29.8310494362533
21
14.2269420680365
31
0.000000000000000
  0
LINE
  5
F10061
330
F10062
100
AcDbEntity
8
Geo
100
AcDbLine
10
-29.8310494362533
20
14.2269420680365
30
0.000000000000000
11
-29.7310494362533
21
14.3246003640532
31
0.000000000000000
  0
LINE
  5
F10063
330
F10064
100
AcDbEntity
8
Geo
100
AcDbLine
10
-29.7310494362533
20
14.3246003640532
30
0.000000000000000
11
-29.6310494362533
21
14.3706455346161
31
0.000000000000000
  0
LINE
  5
F10065
330
F10066
100
AcDbEntity
8
Geo
100
AcDbLine
10
-29.6310494362533
20
14.3706455346161
30
0.000000000000000
11
-29.5310494362533
21
14.3648155764531
31
0.000000000000000
  0
LINE
  5
F10067
330
F10068
100
AcDbEntity
8
Geo
100
AcDbLine
10
-29.5310494362533
20
14.3648155764531
30
0.000000000000000
11
-29.4310494362533
21
14.3573226924497
31
0.000000000000000
  0
LINE
  5
F10069
330
F1006A
100
AcDbEntity
8
Geo
100
AcDbLine
10
-29.4310494362533
20
14.3573226924497
30
0.000000000000000
11
-29.3310494362533
21
14.3481689639145
31
0.000000000000000
  0
LINE
  5
F1006B
330
F1006C
100
AcDbEntity
8
Geo
100
AcDbLine
10
-29.3310494362533
20
14.3481689639145
30
0.000000000000000
11
-29.2310494362533
21
14.3373569334910
31
0.000000000000000
  0
LINE
  5
F1006D
330
F1006E
100
AcDbEntity
8
Geo
100
AcDbLine
10
-29.2310494362533
20
14.3373569334910
30
0.000000000000000
11
-29.1310494362533
21
14.3248896044514
31
0.000000000000000
  0
LINE
  5
F1006F
330
F10070
100
AcDbEntity
8
Geo
100
AcDbLine
10
-29.1310494362533
20
14.3248896044514
30
0.000000000000000
11
-29.0310494362533
21
14.3107704398626
31
0.000000000000000
  0
LINE
  5
F10071
330
F10072
100
AcDbEntity
8
Geo
100
AcDbLine
10
-29.0310494362533
20
14.3107704398626
30
0.000000000000000
11
-28.9310494362533
21
14.2950033616239
31
0.000000000000000
  0
LINE
  5
F10073
330
F10074
100
AcDbEntity
8
Geo
100
AcDbLine
10
-28.9310494362533
20
14.2950033616239
30
0.000000000000000
11
-28.8310494362533
21
14.2775927493779
31
0.000000000000000
  0
LINE
  5
F10075
330
F10076
100
AcDbEntity
8
Geo
100
AcDbLine
10
-28.8310494362533
20
14.2775927493779
30
0.000000000000000
11
-28.7310494362533
21
14.2585434392938
31
0.000000000000000
  0
LINE
  5
F10077
330
F10078
100
AcDbEntity
8
Geo
100
AcDbLine
10
-28.7310494362533
20
14.2585434392938
30
0.000000000000000
11
-28.6310494362533
21
14.2378607227241
31
0.000000000000000
  0
LINE
  5
F10079
330
F1007A
100
AcDbEntity
8
Geo
100
AcDbLine
10
-28.6310494362533
20
14.2378607227241
30
0.000000000000000
11
-28.5310494362533
21
14.2155503447350
31
0.000000000000000
  0
LINE
  5
F1007B
330
F1007C
100
AcDbEntity
8
Geo
100
AcDbLine
10
-28.5310494362533
20
14.2155503447350
30
0.000000000000000
11
-28.4310494362533
21
14.1916185025102
31
0.000000000000000
  0
LINE
  5
F1007D
330
F1007E
100
AcDbEntity
8
Geo
100
AcDbLine
10
-28.4310494362533
20
14.1916185025102
30
0.000000000000000
11
-28.3310494362533
21
14.1660718436297
31
0.000000000000000
  0
LINE
  5
F1007F
330
F10080
100
AcDbEntity
8
Geo
100
AcDbLine
10
-28.3310494362533
20
14.1660718436297
30
0.000000000000000
11
-28.2310494362533
21
14.1389174642234
31
0.000000000000000
  0
LINE
  5
F10081
330
F10082
100
AcDbEntity
8
Geo
100
AcDbLine
10
-28.2310494362533
20
14.1389174642234
30
0.000000000000000
11
-28.1310494362533
21
14.1101629070000
31
0.000000000000000
  0
LINE
  5
F10083
330
F10084
100
AcDbEntity
8
Geo
100
AcDbLine
10
-28.1310494362533
20
14.1101629070000
30
0.000000000000000
11
-28.0310494362533
21
14.0798161591514
31
0.000000000000000
  0
LINE
  5
F10085
330
F10086
100
AcDbEntity
8
Geo
100
AcDbLine
10
-28.0310494362533
20
14.0798161591514
30
0.000000000000000
11
-27.9310494362533
21
14.0478856501347
31
0.000000000000000
  0
LINE
  5
F10087
330
F10088
100
AcDbEntity
8
Geo
100
AcDbLine
10
-27.9310494362533
20
14.0478856501347
30
0.000000000000000
11
-27.8310494362533
21
14.0143802493306
31
0.000000000000000
  0
LINE
  5
F10089
330
F1008A
100
AcDbEntity
8
Geo
100
AcDbLine
10
-27.8310494362533
20
14.0143802493306
30
0.000000000000000
11
-27.7310494362533
21
13.9793092635793
31
0.000000000000000
  0
LINE
  5
F1008B
330
F1008C
100
AcDbEntity
8
Geo
100
AcDbLine
10
-27.7310494362533
20
13.9793092635793
30
0.000000000000000
11
-27.6310494362533
21
13.9426824345957
31
0.000000000000000
  0
LINE
  5
F1008D
330
F1008E
100
AcDbEntity
8
Geo
100
AcDbLine
10
-27.6310494362533
20
13.9426824345957
30
0.000000000000000
11
-27.5310494362533
21
13.9045099362636
31
0.000000000000000
  0
LINE
  5
F1008F
330
F10090
100
AcDbEntity
8
Geo
100
AcDbLine
10
-27.5310494362533
20
13.9045099362636
30
0.000000000000000
11
-27.4310494362533
21
13.8648023718093
31
0.000000000000000
  0
LINE
  5
F10091
330
F10092
100
AcDbEntity
8
Geo
100
AcDbLine
10
-27.4310494362533
20
13.8648023718093
30
0.000000000000000
11
-27.3310494362533
21
13.8235707708564
31
0.000000000000000
  0
LINE
  5
F10093
330
F10094
100
AcDbEntity
8
Geo
100
AcDbLine
10
-27.3310494362533
20
13.8235707708564
30
0.000000000000000
11
-27.2310494362533
21
13.7808265863624
31
0.000000000000000
  0
LINE
  5
F10095
330
F10096
100
AcDbEntity
8
Geo
100
AcDbLine
10
-27.2310494362533
20
13.7808265863624
30
0.000000000000000
11
-27.1310494362533
21
13.7365816914369
31
0.000000000000000
  0
LINE
  5
F10097
330
F10098
100
AcDbEntity
8
Geo
100
AcDbLine
10
-27.1310494362533
20
13.7365816914369
30
0.000000000000000
11
-27.0310494362533
21
13.6908483760441
31
0.000000000000000
  0
LINE
  5
F10099
330
F1009A
100
AcDbEntity
8
Geo
100
AcDbLine
10
-27.0310494362533
20
13.6908483760441
30
0.000000000000000
11
-26.9310494362533
21
13.6436393435886
31
0.000000000000000
  0
LINE
  5
F1009B
330
F1009C
100
AcDbEntity
8
Geo
100
AcDbLine
10
-26.9310494362533
20
13.6436393435886
30
0.000000000000000
11
-26.8310494362533
21
13.5949677073869
31
0.000000000000000
  0
LINE
  5
F1009D
330
F1009E
100
AcDbEntity
8
Geo
100
AcDbLine
10
-26.8310494362533
20
13.5949677073869
30
0.000000000000000
11
-26.7310494362533
21
13.5448469870252
31
0.000000000000000
  0
LINE
  5
F1009F
330
F100A0
100
AcDbEntity
8
Geo
100
AcDbLine
10
-26.7310494362533
20
13.5448469870252
30
0.000000000000000
11
-26.6310494362533
21
13.4932911046034
31
0.000000000000000
  0
LINE
  5
F100A1
330
F100A2
100
AcDbEntity
8
Geo
100
AcDbLine
10
-26.6310494362533
20
13.4932911046034
30
0.000000000000000
11
-26.5310494362533
21
13.4403143808684
31
0.000000000000000
  0
LINE
  5
F100A3
330
F100A4
100
AcDbEntity
8
Geo
100
AcDbLine
10
-26.5310494362533
20
13.4403143808684
30
0.000000000000000
11
-26.4310494362533
21
13.3859315312363
31
0.000000000000000
  0
LINE
  5
F100A5
330
F100A6
100
AcDbEntity
8
Geo
100
AcDbLine
10
-26.4310494362533
20
13.3859315312363
30
0.000000000000000
11
-26.3310494362533
21
13.3301576617044
31
0.000000000000000
  0
LINE
  5
F100A7
330
F100A8
100
AcDbEntity
8
Geo
100
AcDbLine
10
-26.3310494362533
20
13.3301576617044
30
0.000000000000000
11
-26.2310494362533
21
13.2730082646557
31
0.000000000000000
  0
LINE
  5
F100A9
330
F100AA
100
AcDbEntity
8
Geo
100
AcDbLine
10
-26.2310494362533
20
13.2730082646557
30
0.000000000000000
11
-26.1310494362533
21
13.2144992145552
31
0.000000000000000
  0
LINE
  5
F100AB
330
F100AC
100
AcDbEntity
8
Geo
100
AcDbLine
10
-26.1310494362533
20
13.2144992145552
30
0.000000000000000
11
-26.0310494362533
21
13.1546467635407
31
0.000000000000000
  0
LINE
  5
F100AD
330
F100AE
100
AcDbEntity
8
Geo
100
AcDbLine
10
-26.0310494362533
20
13.1546467635407
30
0.000000000000000
11
-25.9310494362533
21
13.0934675369080
31
0.000000000000000
  0
LINE
  5
F100AF
330
F100B0
100
AcDbEntity
8
Geo
100
AcDbLine
10
-25.9310494362533
20
13.0934675369080
30
0.000000000000000
11
-25.8310494362533
21
13.0309785284935
31
0.000000000000000
  0
LINE
  5
F100B1
330
F100B2
100
AcDbEntity
8
Geo
100
AcDbLine
10
-25.8310494362533
20
13.0309785284935
30
0.000000000000000
11
-25.7310494362533
21
12.9671970959532
31
0.000000000000000
  0
LINE
  5
F100B3
330
F100B4
100
AcDbEntity
8
Geo
100
AcDbLine
10
-25.7310494362533
20
12.9671970959532
30
0.000000000000000
11
-25.6310494362533
21
12.9021409559417
31
0.000000000000000
  0
LINE
  5
F100B5
330
F100B6
100
AcDbEntity
8
Geo
100
AcDbLine
10
-25.6310494362533
20
12.9021409559417
30
0.000000000000000
11
-25.5310494362533
21
12.8358281791906
31
0.000000000000000
  0
LINE
  5
F100B7
330
F100B8
100
AcDbEntity
8
Geo
100
AcDbLine
10
-25.5310494362533
20
12.8358281791906
30
0.000000000000000
11
-25.4310494362533
21
12.7682771854892
31
0.000000000000000
  0
LINE
  5
F100B9
330
F100BA
100
AcDbEntity
8
Geo
100
AcDbLine
10
-25.4310494362533
20
12.7682771854892
30
0.000000000000000
11
-25.3310494362533
21
12.6995067385683
31
0.000000000000000
  0
LINE
  5
F100BB
330
F100BC
100
AcDbEntity
8
Geo
100
AcDbLine
10
-25.3310494362533
20
12.6995067385683
30
0.000000000000000
11
-25.2310494362533
21
12.6295359408874
31
0.000000000000000
  0
LINE
  5
F100BD
330
F100BE
100
AcDbEntity
8
Geo
100
AcDbLine
10
-25.2310494362533
20
12.6295359408874
30
0.000000000000000
11
-25.1310494362533
21
12.5583842283293
31
0.000000000000000
  0
LINE
  5
F100BF
330
F100C0
100
AcDbEntity
8
Geo
100
AcDbLine
10
-25.1310494362533
20
12.5583842283293
30
0.000000000000000
11
-25.0310494362533
21
12.4860713648012
31
0.000000000000000
  0
LINE
  5
F100C1
330
F100C2
100
AcDbEntity
8
Geo
100
AcDbLine
10
-25.0310494362533
20
12.4860713648012
30
0.000000000000000
11
-24.9310494362533
21
12.4126174367447
31
0.000000000000000
  0
LINE
  5
F100C3
330
F100C4
100
AcDbEntity
8
Geo
100
AcDbLine
10
-24.9310494362533
20
12.4126174367447
30
0.000000000000000
11
-24.8310494362533
21
12.3380428475562
31
0.000000000000000
  0
LINE
  5
F100C5
330
F100C6
100
AcDbEntity
8
Geo
100
AcDbLine
10
-24.8310494362533
20
12.3380428475562
30
0.000000000000000
11
-24.7310494362533
21
12.2623683119200
31
0.000000000000000
  0
LINE
  5
F100C7
330
F100C8
100
AcDbEntity
8
Geo
100
AcDbLine
10
-24.7310494362533
20
12.2623683119200
30
0.000000000000000
11
-24.6310494362533
21
12.1856148500539
31
0.000000000000000
  0
LINE
  5
F100C9
330
F100CA
100
AcDbEntity
8
Geo
100
AcDbLine
10
-24.6310494362533
20
12.1856148500539
30
0.000000000000000
11
-24.5310494362533
21
12.1078037818703
31
0.000000000000000
  0
LINE
  5
F100CB
330
F100CC
100
AcDbEntity
8
Geo
100
AcDbLine
10
-24.5310494362533
20
12.1078037818703
30
0.000000000000000
11
-24.4310494362533
21
12.0289567210546
31
0.000000000000000
  0
LINE
  5
F100CD
330
F100CE
100
AcDbEntity
8
Geo
100
AcDbLine
10
-24.4310494362533
20
12.0289567210546
30
0.000000000000000
11
-24.3310494362533
21
11.9490955690611
31
0.000000000000000
  0
LINE
  5
F100CF
330
F100D0
100
AcDbEntity
8
Geo
100
AcDbLine
10
-24.3310494362533
20
11.9490955690611
30
0.000000000000000
11
-24.2310494362533
21
11.8682425090296
31
0.000000000000000
  0
LINE
  5
F100D1
330
F100D2
100
AcDbEntity
8
Geo
100
AcDbLine
10
-24.2310494362533
20
11.8682425090296
30
0.000000000000000
11
-24.1310494362533
21
11.7864199996237
31
0.000000000000000
  0
LINE
  5
F100D3
330
F100D4
100
AcDbEntity
8
Geo
100
AcDbLine
10
-24.1310494362533
20
11.7864199996237
30
0.000000000000000
11
-24.0310494362533
21
11.7036507687919
31
0.000000000000000
  0
LINE
  5
F100D5
330
F100D6
100
AcDbEntity
8
Geo
100
AcDbLine
10
-24.0310494362533
20
11.7036507687919
30
0.000000000000000
11
-23.9310494362533
21
11.6199578074552
31
0.000000000000000
  0
LINE
  5
F100D7
330
F100D8
100
AcDbEntity
8
Geo
100
AcDbLine
10
-23.9310494362533
20
11.6199578074552
30
0.000000000000000
11
-23.8310494362533
21
11.5353643631201
31
0.000000000000000
  0
LINE
  5
F100D9
330
F100DA
100
AcDbEntity
8
Geo
100
AcDbLine
10
-23.8310494362533
20
11.5353643631201
30
0.000000000000000
11
-23.7310494362533
21
11.4498939334218
31
0.000000000000000
  0
LINE
  5
F100DB
330
F100DC
100
AcDbEntity
8
Geo
100
AcDbLine
10
-23.7310494362533
20
11.4498939334218
30
0.000000000000000
11
-23.6310494362533
21
11.3635702595967
31
0.000000000000000
  0
LINE
  5
F100DD
330
F100DE
100
AcDbEntity
8
Geo
100
AcDbLine
10
-23.6310494362533
20
11.3635702595967
30
0.000000000000000
11
-23.5310494362533
21
11.2764173198880
31
0.000000000000000
  0
LINE
  5
F100DF
330
F100E0
100
AcDbEntity
8
Geo
100
AcDbLine
10
-23.5310494362533
20
11.2764173198880
30
0.000000000000000
11
-23.4310494362533
21
11.1884593228852
31
0.000000000000000
  0
LINE
  5
F100E1
330
F100E2
100
AcDbEntity
8
Geo
100
AcDbLine
10
-23.4310494362533
20
11.1884593228852
30
0.000000000000000
11
-23.3310494362533
21
11.0997207007998
31
0.000000000000000
  0
LINE
  5
F100E3
330
F100E4
100
AcDbEntity
8
Geo
100
AcDbLine
10
-23.3310494362533
20
11.0997207007998
30
0.000000000000000
11
-23.2310494362533
21
11.0102261026783
31
0.000000000000000
  0
LINE
  5
F100E5
330
F100E6
100
AcDbEntity
8
Geo
100
AcDbLine
10
-23.2310494362533
20
11.0102261026783
30
0.000000000000000
11
-23.1310494362533
21
10.9200003875560
31
0.000000000000000
  0
LINE
  5
F100E7
330
F100E8
100
AcDbEntity
8
Geo
100
AcDbLine
10
-23.1310494362533
20
10.9200003875560
30
0.000000000000000
11
-23.0310494362533
21
10.8290686175513
31
0.000000000000000
  0
LINE
  5
F100E9
330
F100EA
100
AcDbEntity
8
Geo
100
AcDbLine
10
-23.0310494362533
20
10.8290686175513
30
0.000000000000000
11
-22.9310494362533
21
10.7374560509045
31
0.000000000000000
  0
LINE
  5
F100EB
330
F100EC
100
AcDbEntity
8
Geo
100
AcDbLine
10
-22.9310494362533
20
10.7374560509045
30
0.000000000000000
11
-22.8310494362533
21
10.6451881349617
31
0.000000000000000
  0
LINE
  5
F100ED
330
F100EE
100
AcDbEntity
8
Geo
100
AcDbLine
10
-22.8310494362533
20
10.6451881349617
30
0.000000000000000
11
-22.7310494362533
21
10.5522904991064
31
0.000000000000000
  0
LINE
  5
F100EF
330
F100F0
100
AcDbEntity
8
Geo
100
AcDbLine
10
-22.7310494362533
20
10.5522904991064
30
0.000000000000000
11
-22.6310494362533
21
10.4587889476399
31
0.000000000000000
  0
LINE
  5
F100F1
330
F100F2
100
AcDbEntity
8
Geo
100
AcDbLine
10
-22.6310494362533
20
10.4587889476399
30
0.000000000000000
11
-22.5310494362533
21
10.3647094526144
31
0.000000000000000
  0
LINE
  5
F100F3
330
F100F4
100
AcDbEntity
8
Geo
100
AcDbLine
10
-22.5310494362533
20
10.3647094526144
30
0.000000000000000
11
-22.4310494362533
21
10.2700781466179
31
0.000000000000000
  0
LINE
  5
F100F5
330
F100F6
100
AcDbEntity
8
Geo
100
AcDbLine
10
-22.4310494362533
20
10.2700781466179
30
0.000000000000000
11
-22.3310494362533
21
10.1749213155159
31
0.000000000000000
  0
LINE
  5
F100F7
330
F100F8
100
AcDbEntity
8
Geo
100
AcDbLine
10
-22.3310494362533
20
10.1749213155159
30
0.000000000000000
11
-22.2310494362533
21
10.0792653911495
31
0.000000000000000
  0
LINE
  5
F100F9
330
F100FA
100
AcDbEntity
8
Geo
100
AcDbLine
10
-22.2310494362533
20
10.0792653911495
30
0.000000000000000
11
-22.1310494362533
21
9.98313694399386
31
0.000000000000000
  0
LINE
  5
F100FB
330
F100FC
100
AcDbEntity
8
Geo
100
AcDbLine
10
-22.1310494362533
20
9.98313694399386
30
0.000000000000000
11
-22.0310494362533
21
9.88656267577722
31
0.000000000000000
  0
LINE
  5
F100FD
330
F100FE
100
AcDbEntity
8
Geo
100
AcDbLine
10
-22.0310494362533
20
9.88656267577722
30
0.000000000000000
11
-21.9310494362533
21
9.78956941206427
31
0.000000000000000
  0
LINE
  5
F100FF
330
F10100
100
AcDbEntity
8
Geo
100
AcDbLine
10
-21.9310494362533
20
9.78956941206427
30
0.000000000000000
11
-21.8310494362533
21
9.69218409480458
31
0.000000000000000
  0
LINE
  5
F10101
330
F10102
100
AcDbEntity
8
Geo
100
AcDbLine
10
-21.8310494362533
20
9.69218409480458
30
0.000000000000000
11
-21.7310494362533
21
9.59443377484899
31
0.000000000000000
  0
LINE
  5
F10103
330
F10104
100
AcDbEntity
8
Geo
100
AcDbLine
10
-21.7310494362533
20
9.59443377484899
30
0.000000000000000
11
-21.6310494362533
21
9.49634560443563
31
0.000000000000000
  0
LINE
  5
F10105
330
F10106
100
AcDbEntity
8
Geo
100
AcDbLine
10
-21.6310494362533
20
9.49634560443563
30
0.000000000000000
11
-21.5310494362533
21
9.39794682964778
31
0.000000000000000
  0
LINE
  5
F10107
330
F10108
100
AcDbEntity
8
Geo
100
AcDbLine
10
-21.5310494362533
20
9.39794682964778
30
0.000000000000000
11
-21.4310494362533
21
9.29926478284574
31
0.000000000000000
  0
LINE
  5
F10109
330
F1010A
100
AcDbEntity
8
Geo
100
AcDbLine
10
-21.4310494362533
20
9.29926478284574
30
0.000000000000000
11
-21.3310494362533
21
9.20032687507467
31
0.000000000000000
  0
LINE
  5
F1010B
330
F1010C
100
AcDbEntity
8
Geo
100
AcDbLine
10
-21.3310494362533
20
9.20032687507467
30
0.000000000000000
11
-21.2310494362533
21
9.10116058845053
31
0.000000000000000
  0
LINE
  5
F1010D
330
F1010E
100
AcDbEntity
8
Geo
100
AcDbLine
10
-21.2310494362533
20
9.10116058845053
30
0.000000000000000
11
-21.1310494362533
21
9.00179346852644
31
0.000000000000000
  0
LINE
  5
F1010F
330
F10110
100
AcDbEntity
8
Geo
100
AcDbLine
10
-21.1310494362533
20
9.00179346852644
30
0.000000000000000
11
-21.0310494362533
21
8.90225311664121
31
0.000000000000000
  0
LINE
  5
F10111
330
F10112
100
AcDbEntity
8
Geo
100
AcDbLine
10
-21.0310494362533
20
8.90225311664121
30
0.000000000000000
11
-20.9310494362533
21
8.80256718225255
31
0.000000000000000
  0
LINE
  5
F10113
330
F10114
100
AcDbEntity
8
Geo
100
AcDbLine
10
-20.9310494362533
20
8.80256718225255
30
0.000000000000000
11
-20.8310494362533
21
8.70276335525681
31
0.000000000000000
  0
LINE
  5
F10115
330
F10116
100
AcDbEntity
8
Geo
100
AcDbLine
10
-20.8310494362533
20
8.70276335525681
30
0.000000000000000
11
-20.7310494362533
21
8.60286935829754
31
0.000000000000000
  0
LINE
  5
F10117
330
F10118
100
AcDbEntity
8
Geo
100
AcDbLine
10
-20.7310494362533
20
8.60286935829754
30
0.000000000000000
11
-20.6310494362533
21
8.50291293906489
31
0.000000000000000
  0
LINE
  5
F10119
330
F1011A
100
AcDbEntity
8
Geo
100
AcDbLine
10
-20.6310494362533
20
8.50291293906489
30
0.000000000000000
11
-20.5310494362533
21
8.40292186258817
31
0.000000000000000
  0
LINE
  5
F1011B
330
F1011C
100
AcDbEntity
8
Geo
100
AcDbLine
10
-20.5310494362533
20
8.40292186258817
30
0.000000000000000
11
-20.4310494362533
21
8.30292390352345
31
0.000000000000000
  0
LINE
  5
F1011D
330
F1011E
100
AcDbEntity
8
Geo
100
AcDbLine
10
-20.4310494362533
20
8.30292390352345
30
0.000000000000000
11
-20.3310494362533
21
8.20294683843860
31
0.000000000000000
  0
LINE
  5
F1011F
330
F10120
100
AcDbEntity
8
Geo
100
AcDbLine
10
-20.3310494362533
20
8.20294683843860
30
0.000000000000000
11
-20.2310494362533
21
8.10301843809775
31
0.000000000000000
  0
LINE
  5
F10121
330
F10122
100
AcDbEntity
8
Geo
100
AcDbLine
10
-20.2310494362533
20
8.10301843809775
30
0.000000000000000
11
-20.1310494362533
21
8.00316645974732
31
0.000000000000000
  0
LINE
  5
F10123
330
F10124
100
AcDbEntity
8
Geo
100
AcDbLine
10
-20.1310494362533
20
8.00316645974732
30
0.000000000000000
11
-20.0310494362533
21
7.90341863940593
31
0.000000000000000
  0
LINE
  5
F10125
330
F10126
100
AcDbEntity
8
Geo
100
AcDbLine
10
-20.0310494362533
20
7.90341863940593
30
0.000000000000000
11
-19.9310494362533
21
7.80380268416009
31
0.000000000000000
  0
LINE
  5
F10127
330
F10128
100
AcDbEntity
8
Geo
100
AcDbLine
10
-19.9310494362533
20
7.80380268416009
30
0.000000000000000
11
-19.8310494362533
21
7.70434626446792
31
0.000000000000000
  0
LINE
  5
F10129
330
F1012A
100
AcDbEntity
8
Geo
100
AcDbLine
10
-19.8310494362533
20
7.70434626446792
30
0.000000000000000
11
-19.7310494362533
21
7.60507700647319
31
0.000000000000000
  0
LINE
  5
F1012B
330
F1012C
100
AcDbEntity
8
Geo
100
AcDbLine
10
-19.7310494362533
20
7.60507700647319
30
0.000000000000000
11
-19.6310494362533
21
7.50602248433148
31
0.000000000000000
  0
LINE
  5
F1012D
330
F1012E
100
AcDbEntity
8
Geo
100
AcDbLine
10
-19.6310494362533
20
7.50602248433148
30
0.000000000000000
11
-19.5310494362533
21
7.40721021255091
31
0.000000000000000
  0
LINE
  5
F1012F
330
F10130
100
AcDbEntity
8
Geo
100
AcDbLine
10
-19.5310494362533
20
7.40721021255091
30
0.000000000000000
11
-19.4310494362533
21
7.30866763834939
31
0.000000000000000
  0
LINE
  5
F10131
330
F10132
100
AcDbEntity
8
Geo
100
AcDbLine
10
-19.4310494362533
20
7.30866763834939
30
0.000000000000000
11
-19.3310494362533
21
7.21042213403057
31
0.000000000000000
  0
LINE
  5
F10133
330
F10134
100
AcDbEntity
8
Geo
100
AcDbLine
10
-19.3310494362533
20
7.21042213403057
30
0.000000000000000
11
-19.2310494362533
21
7.11250098938060
31
0.000000000000000
  0
LINE
  5
F10135
330
F10136
100
AcDbEntity
8
Geo
100
AcDbLine
10
-19.2310494362533
20
7.11250098938060
30
0.000000000000000
11
-19.1310494362533
21
7.01493140408782
31
0.000000000000000
  0
LINE
  5
F10137
330
F10138
100
AcDbEntity
8
Geo
100
AcDbLine
10
-19.1310494362533
20
7.01493140408782
30
0.000000000000000
11
-19.0310494362533
21
6.91774048018742
31
0.000000000000000
  0
LINE
  5
F10139
330
F1013A
100
AcDbEntity
8
Geo
100
AcDbLine
10
-19.0310494362533
20
6.91774048018742
30
0.000000000000000
11
-18.9310494362533
21
6.82095521453334
31
0.000000000000000
  0
LINE
  5
F1013B
330
F1013C
100
AcDbEntity
8
Geo
100
AcDbLine
10
-29.9310494362533
20
8.34299366391574
30
0.000000000000000
11
-29.8310494362533
21
8.25956558179868
31
0.000000000000000
  0
LINE
  5
F1013D
330
F1013E
100
AcDbEntity
8
Geo
100
AcDbLine
10
-29.8310494362533
20
8.25956558179868
30
0.000000000000000
11
-29.7310494362533
21
8.17282378244758
31
0.000000000000000
  0
LINE
  5
F1013F
330
F10140
100
AcDbEntity
8
Geo
100
AcDbLine
10
-29.7310494362533
20
8.17282378244758
30
0.000000000000000
11
-29.6310494362533
21
8.07826895662223
31
0.000000000000000
  0
LINE
  5
F10141
330
F10142
100
AcDbEntity
8
Geo
100
AcDbLine
10
-29.6310494362533
20
8.07826895662223
30
0.000000000000000
11
-29.5310494362533
21
7.97844020270594
31
0.000000000000000
  0
LINE
  5
F10143
330
F10144
100
AcDbEntity
8
Geo
100
AcDbLine
10
-29.5310494362533
20
7.97844020270594
30
0.000000000000000
11
-29.4310494362533
21
7.87872247504444
31
0.000000000000000
  0
LINE
  5
F10145
330
F10146
100
AcDbEntity
8
Geo
100
AcDbLine
10
-29.4310494362533
20
7.87872247504444
30
0.000000000000000
11
-29.3310494362533
21
7.77914347236533
31
0.000000000000000
  0
LINE
  5
F10147
330
F10148
100
AcDbEntity
8
Geo
100
AcDbLine
10
-29.3310494362533
20
7.77914347236533
30
0.000000000000000
11
-29.2310494362533
21
7.67973085486241
31
0.000000000000000
  0
LINE
  5
F10149
330
F1014A
100
AcDbEntity
8
Geo
100
AcDbLine
10
-29.2310494362533
20
7.67973085486241
30
0.000000000000000
11
-29.1310494362533
21
7.58051223651242
31
0.000000000000000
  0
LINE
  5
F1014B
330
F1014C
100
AcDbEntity
8
Geo
100
AcDbLine
10
-29.1310494362533
20
7.58051223651242
30
0.000000000000000
11
-29.0310494362533
21
7.48151517740470
31
0.000000000000000
  0
LINE
  5
F1014D
330
F1014E
100
AcDbEntity
8
Geo
100
AcDbLine
10
-29.0310494362533
20
7.48151517740470
30
0.000000000000000
11
-28.9310494362533
21
7.38276717608581
31
0.000000000000000
  0
LINE
  5
F1014F
330
F10150
100
AcDbEntity
8
Geo
100
AcDbLine
10
-28.9310494362533
20
7.38276717608581
30
0.000000000000000
11
-28.8310494362533
21
7.28429566192115
31
0.000000000000000
  0
LINE
  5
F10151
330
F10152
100
AcDbEntity
8
Geo
100
AcDbLine
10
-28.8310494362533
20
7.28429566192115
30
0.000000000000000
11
-28.7310494362533
21
7.18612798747593
31
0.000000000000000
  0
LINE
  5
F10153
330
F10154
100
AcDbEntity
8
Geo
100
AcDbLine
10
-28.7310494362533
20
7.18612798747593
30
0.000000000000000
11
-28.6310494362533
21
7.08829142091740
31
0.000000000000000
  0
LINE
  5
F10155
330
F10156
100
AcDbEntity
8
Geo
100
AcDbLine
10
-28.6310494362533
20
7.08829142091740
30
0.000000000000000
11
-28.5310494362533
21
6.99081313844051
31
0.000000000000000
  0
LINE
  5
F10157
330
F10158
100
AcDbEntity
8
Geo
100
AcDbLine
10
-28.5310494362533
20
6.99081313844051
30
0.000000000000000
11
-28.4310494362533
21
6.89372021671916
31
0.000000000000000
  0
LINE
  5
F10159
330
F1015A
100
AcDbEntity
8
Geo
100
AcDbLine
10
-28.4310494362533
20
6.89372021671916
30
0.000000000000000
11
-28.3310494362533
21
6.79703962538509
31
0.000000000000000
  0
LINE
  5
F1015B
330
F1015C
100
AcDbEntity
8
Geo
100
AcDbLine
10
-28.3310494362533
20
6.79703962538509
30
0.000000000000000
11
-28.2310494362533
21
6.70079821953645
31
0.000000000000000
  0
LINE
  5
F1015D
330
F1015E
100
AcDbEntity
8
Geo
100
AcDbLine
10
-28.2310494362533
20
6.70079821953645
30
0.000000000000000
11
-28.1310494362533
21
6.60502273227826
31
0.000000000000000
  0
LINE
  5
F1015F
330
F10160
100
AcDbEntity
8
Geo
100
AcDbLine
10
-28.1310494362533
20
6.60502273227826
30
0.000000000000000
11
-28.0310494362533
21
6.50973976729671
31
0.000000000000000
  0
LINE
  5
F10161
330
F10162
100
AcDbEntity
8
Geo
100
AcDbLine
10
-28.0310494362533
20
6.50973976729671
30
0.000000000000000
11
-27.9310494362533
21
6.41497579146939
31
0.000000000000000
  0
LINE
  5
F10163
330
F10164
100
AcDbEntity
8
Geo
100
AcDbLine
10
-27.9310494362533
20
6.41497579146939
30
0.000000000000000
11
-27.8310494362533
21
6.32075712751359
31
0.000000000000000
  0
LINE
  5
F10165
330
F10166
100
AcDbEntity
8
Geo
100
AcDbLine
10
-27.8310494362533
20
6.32075712751359
30
0.000000000000000
11
-27.7310494362533
21
6.22710994667460
31
0.000000000000000
  0
LINE
  5
F10167
330
F10168
100
AcDbEntity
8
Geo
100
AcDbLine
10
-27.7310494362533
20
6.22710994667460
30
0.000000000000000
11
-27.6310494362533
21
6.13406026145604
31
0.000000000000000
  0
LINE
  5
F10169
330
F1016A
100
AcDbEntity
8
Geo
100
AcDbLine
10
-27.6310494362533
20
6.13406026145604
30
0.000000000000000
11
-27.5310494362533
21
6.04163391839440
31
0.000000000000000
  0
LINE
  5
F1016B
330
F1016C
100
AcDbEntity
8
Geo
100
AcDbLine
10
-27.5310494362533
20
6.04163391839440
30
0.000000000000000
11
-27.4310494362533
21
5.94985659087955
31
0.000000000000000
  0
LINE
  5
F1016D
330
F1016E
100
AcDbEntity
8
Geo
100
AcDbLine
10
-27.4310494362533
20
5.94985659087955
30
0.000000000000000
11
-27.3310494362533
21
5.85875377202347
31
0.000000000000000
  0
LINE
  5
F1016F
330
F10170
100
AcDbEntity
8
Geo
100
AcDbLine
10
-27.3310494362533
20
5.85875377202347
30
0.000000000000000
11
-27.2310494362533
21
5.76835076757892
31
0.000000000000000
  0
LINE
  5
F10171
330
F10172
100
AcDbEntity
8
Geo
100
AcDbLine
10
-27.2310494362533
20
5.76835076757892
30
0.000000000000000
11
-27.1310494362533
21
5.67867268891030
31
0.000000000000000
  0
LINE
  5
F10173
330
F10174
100
AcDbEntity
8
Geo
100
AcDbLine
10
-27.1310494362533
20
5.67867268891030
30
0.000000000000000
11
-27.0310494362533
21
5.58974444601840
31
0.000000000000000
  0
LINE
  5
F10175
330
F10176
100
AcDbEntity
8
Geo
100
AcDbLine
10
-27.0310494362533
20
5.58974444601840
30
0.000000000000000
11
-26.9310494362533
21
5.50159074062108
31
0.000000000000000
  0
LINE
  5
F10177
330
F10178
100
AcDbEntity
8
Geo
100
AcDbLine
10
-26.9310494362533
20
5.50159074062108
30
0.000000000000000
11
-26.8310494362533
21
5.41423605929193
31
0.000000000000000
  0
LINE
  5
F10179
330
F1017A
100
AcDbEntity
8
Geo
100
AcDbLine
10
-26.8310494362533
20
5.41423605929193
30
0.000000000000000
11
-26.7310494362533
21
5.32770466665849
31
0.000000000000000
  0
LINE
  5
F1017B
330
F1017C
100
AcDbEntity
8
Geo
100
AcDbLine
10
-26.7310494362533
20
5.32770466665849
30
0.000000000000000
11
-26.6310494362533
21
5.24202059866235
31
0.000000000000000
  0
LINE
  5
F1017D
330
F1017E
100
AcDbEntity
8
Geo
100
AcDbLine
10
-26.6310494362533
20
5.24202059866235
30
0.000000000000000
11
-26.5310494362533
21
5.15720765588253
31
0.000000000000000
  0
LINE
  5
F1017F
330
F10180
100
AcDbEntity
8
Geo
100
AcDbLine
10
-26.5310494362533
20
5.15720765588253
30
0.000000000000000
11
-26.4310494362533
21
5.07328939692448
31
0.000000000000000
  0
LINE
  5
F10181
330
F10182
100
AcDbEntity
8
Geo
100
AcDbLine
10
-26.4310494362533
20
5.07328939692448
30
0.000000000000000
11
-26.3310494362533
21
4.99028913187609
31
0.000000000000000
  0
LINE
  5
F10183
330
F10184
100
AcDbEntity
8
Geo
100
AcDbLine
10
-26.3310494362533
20
4.99028913187609
30
0.000000000000000
11
-26.2310494362533
21
4.90822991583284
31
0.000000000000000
  0
LINE
  5
F10185
330
F10186
100
AcDbEntity
8
Geo
100
AcDbLine
10
-26.2310494362533
20
4.90822991583284
30
0.000000000000000
11
-26.1310494362533
21
4.82713454249378
31
0.000000000000000
  0
LINE
  5
F10187
330
F10188
100
AcDbEntity
8
Geo
100
AcDbLine
10
-26.1310494362533
20
4.82713454249378
30
0.000000000000000
11
-26.0310494362533
21
4.74702553783006
31
0.000000000000000
  0
LINE
  5
F10189
330
F1018A
100
AcDbEntity
8
Geo
100
AcDbLine
10
-26.0310494362533
20
4.74702553783006
30
0.000000000000000
11
-25.9310494362533
21
4.66792515382788
31
0.000000000000000
  0
LINE
  5
F1018B
330
F1018C
100
AcDbEntity
8
Geo
100
AcDbLine
10
-25.9310494362533
20
4.66792515382788
30
0.000000000000000
11
-25.8310494362533
21
4.58985536230751
31
0.000000000000000
  0
LINE
  5
F1018D
330
F1018E
100
AcDbEntity
8
Geo
100
AcDbLine
10
-25.8310494362533
20
4.58985536230751
30
0.000000000000000
11
-25.7310494362533
21
4.51283784882016
31
0.000000000000000
  0
LINE
  5
F1018F
330
F10190
100
AcDbEntity
8
Geo
100
AcDbLine
10
-25.7310494362533
20
4.51283784882016
30
0.000000000000000
11
-25.6310494362533
21
4.43689400662435
31
0.000000000000000
  0
LINE
  5
F10191
330
F10192
100
AcDbEntity
8
Geo
100
AcDbLine
10
-25.6310494362533
20
4.43689400662435
30
0.000000000000000
11
-25.5310494362533
21
4.36204493074351
31
0.000000000000000
  0
LINE
  5
F10193
330
F10194
100
AcDbEntity
8
Geo
100
AcDbLine
10
-25.5310494362533
20
4.36204493074351
30
0.000000000000000
11
-25.4310494362533
21
4.28831141210630
31
0.000000000000000
  0
LINE
  5
F10195
330
F10196
100
AcDbEntity
8
Geo
100
AcDbLine
10
-25.4310494362533
20
4.28831141210630
30
0.000000000000000
11
-25.3310494362533
21
4.21571393177158
31
0.000000000000000
  0
LINE
  5
F10197
330
F10198
100
AcDbEntity
8
Geo
100
AcDbLine
10
-25.3310494362533
20
4.21571393177158
30
0.000000000000000
11
-25.2310494362533
21
4.14427265523932
31
0.000000000000000
  0
LINE
  5
F10199
330
F1019A
100
AcDbEntity
8
Geo
100
AcDbLine
10
-25.2310494362533
20
4.14427265523932
30
0.000000000000000
11
-25.1310494362533
21
4.07400742684917
31
0.000000000000000
  0
LINE
  5
F1019B
330
F1019C
100
AcDbEntity
8
Geo
100
AcDbLine
10
-25.1310494362533
20
4.07400742684917
30
0.000000000000000
11
-25.0310494362533
21
4.00493776426834
31
0.000000000000000
  0
LINE
  5
F1019D
330
F1019E
100
AcDbEntity
8
Geo
100
AcDbLine
10
-25.0310494362533
20
4.00493776426834
30
0.000000000000000
11
-24.9310494362533
21
3.93708285307008
31
0.000000000000000
  0
LINE
  5
F1019F
330
F101A0
100
AcDbEntity
8
Geo
100
AcDbLine
10
-24.9310494362533
20
3.93708285307008
30
0.000000000000000
11
-24.8310494362533
21
3.87046154140455
31
0.000000000000000
  0
LINE
  5
F101A1
330
F101A2
100
AcDbEntity
8
Geo
100
AcDbLine
10
-24.8310494362533
20
3.87046154140455
30
0.000000000000000
11
-24.7310494362533
21
3.80509233476327
31
0.000000000000000
  0
LINE
  5
F101A3
330
F101A4
100
AcDbEntity
8
Geo
100
AcDbLine
10
-24.7310494362533
20
3.80509233476327
30
0.000000000000000
11
-24.6310494362533
21
3.74099339083887
31
0.000000000000000
  0
LINE
  5
F101A5
330
F101A6
100
AcDbEntity
8
Geo
100
AcDbLine
10
-24.6310494362533
20
3.74099339083887
30
0.000000000000000
11
-24.5310494362533
21
3.67818251448141
31
0.000000000000000
  0
LINE
  5
F101A7
330
F101A8
100
AcDbEntity
8
Geo
100
AcDbLine
10
-24.5310494362533
20
3.67818251448141
30
0.000000000000000
11
-24.4310494362533
21
3.61667715275266
31
0.000000000000000
  0
LINE
  5
F101A9
330
F101AA
100
AcDbEntity
8
Geo
100
AcDbLine
10
-24.4310494362533
20
3.61667715275266
30
0.000000000000000
11
-24.3310494362533
21
3.55649439007984
31
0.000000000000000
  0
LINE
  5
F101AB
330
F101AC
100
AcDbEntity
8
Geo
100
AcDbLine
10
-24.3310494362533
20
3.55649439007984
30
0.000000000000000
11
-24.2310494362533
21
3.49765094351007
31
0.000000000000000
  0
LINE
  5
F101AD
330
F101AE
100
AcDbEntity
8
Geo
100
AcDbLine
10
-24.2310494362533
20
3.49765094351007
30
0.000000000000000
11
-24.1310494362533
21
3.44016315806679
31
0.000000000000000
  0
LINE
  5
F101AF
330
F101B0
100
AcDbEntity
8
Geo
100
AcDbLine
10
-24.1310494362533
20
3.44016315806679
30
0.000000000000000
11
-24.0310494362533
21
3.38404700220967
31
0.000000000000000
  0
LINE
  5
F101B1
330
F101B2
100
AcDbEntity
8
Geo
100
AcDbLine
10
-24.0310494362533
20
3.38404700220967
30
0.000000000000000
11
-23.9310494362533
21
3.32931806339893
31
0.000000000000000
  0
LINE
  5
F101B3
330
F101B4
100
AcDbEntity
8
Geo
100
AcDbLine
10
-23.9310494362533
20
3.32931806339893
30
0.000000000000000
11
-23.8310494362533
21
3.27599154376569
31
0.000000000000000
  0
LINE
  5
F101B5
330
F101B6
100
AcDbEntity
8
Geo
100
AcDbLine
10
-23.8310494362533
20
3.27599154376569
30
0.000000000000000
11
-23.7310494362533
21
3.22408225588916
31
0.000000000000000
  0
LINE
  5
F101B7
330
F101B8
100
AcDbEntity
8
Geo
100
AcDbLine
10
-23.7310494362533
20
3.22408225588916
30
0.000000000000000
11
-23.6310494362533
21
3.17360461868221
31
0.000000000000000
  0
LINE
  5
F101B9
330
F101BA
100
AcDbEntity
8
Geo
100
AcDbLine
10
-23.6310494362533
20
3.17360461868221
30
0.000000000000000
11
-23.5310494362533
21
3.12457265338616
31
0.000000000000000
  0
LINE
  5
F101BB
330
F101BC
100
AcDbEntity
8
Geo
100
AcDbLine
10
-23.5310494362533
20
3.12457265338616
30
0.000000000000000
11
-23.4310494362533
21
3.07699997967609
31
0.000000000000000
  0
LINE
  5
F101BD
330
F101BE
100
AcDbEntity
8
Geo
100
AcDbLine
10
-23.4310494362533
20
3.07699997967609
30
0.000000000000000
11
-23.3310494362533
21
3.03089981187770
31
0.000000000000000
  0
LINE
  5
F101BF
330
F101C0
100
AcDbEntity
8
Geo
100
AcDbLine
10
-23.3310494362533
20
3.03089981187770
30
0.000000000000000
11
-23.2310494362533
21
2.98628495529673
31
0.000000000000000
  0
LINE
  5
F101C1
330
F101C2
100
AcDbEntity
8
Geo
100
AcDbLine
10
-23.2310494362533
20
2.98628495529673
30
0.000000000000000
11
-23.1310494362533
21
2.94316780266203
31
0.000000000000000
  0
LINE
  5
F101C3
330
F101C4
100
AcDbEntity
8
Geo
100
AcDbLine
10
-23.1310494362533
20
2.94316780266203
30
0.000000000000000
11
-23.0310494362533
21
2.90156033068319
31
0.000000000000000
  0
LINE
  5
F101C5
330
F101C6
100
AcDbEntity
8
Geo
100
AcDbLine
10
-23.0310494362533
20
2.90156033068319
30
0.000000000000000
11
-22.9310494362533
21
2.86147409672378
31
0.000000000000000
  0
LINE
  5
F101C7
330
F101C8
100
AcDbEntity
8
Geo
100
AcDbLine
10
-22.9310494362533
20
2.86147409672378
30
0.000000000000000
11
-22.8310494362533
21
2.82292023559105
31
0.000000000000000
  0
LINE
  5
F101C9
330
F101CA
100
AcDbEntity
8
Geo
100
AcDbLine
10
-22.8310494362533
20
2.82292023559105
30
0.000000000000000
11
-22.7310494362533
21
2.78590945644296
31
0.000000000000000
  0
LINE
  5
F101CB
330
F101CC
100
AcDbEntity
8
Geo
100
AcDbLine
10
-22.7310494362533
20
2.78590945644296
30
0.000000000000000
11
-22.6310494362533
21
2.75045203981351
31
0.000000000000000
  0
LINE
  5
F101CD
330
F101CE
100
AcDbEntity
8
Geo
100
AcDbLine
10
-22.6310494362533
20
2.75045203981351
30
0.000000000000000
11
-22.5310494362533
21
2.71655783475712
31
0.000000000000000
  0
LINE
  5
F101CF
330
F101D0
100
AcDbEntity
8
Geo
100
AcDbLine
10
-22.5310494362533
20
2.71655783475712
30
0.000000000000000
11
-22.4310494362533
21
2.68423625611280
31
0.000000000000000
  0
LINE
  5
F101D1
330
F101D2
100
AcDbEntity
8
Geo
100
AcDbLine
10
-22.4310494362533
20
2.68423625611280
30
0.000000000000000
11
-22.3310494362533
21
2.65349628188902
31
0.000000000000000
  0
LINE
  5
F101D3
330
F101D4
100
AcDbEntity
8
Geo
100
AcDbLine
10
-22.3310494362533
20
2.65349628188902
30
0.000000000000000
11
-22.2310494362533
21
2.62434645076985
31
0.000000000000000
  0
LINE
  5
F101D5
330
F101D6
100
AcDbEntity
8
Geo
100
AcDbLine
10
-22.2310494362533
20
2.62434645076985
30
0.000000000000000
11
-22.1310494362533
21
2.59679485974316
31
0.000000000000000
  0
LINE
  5
F101D7
330
F101D8
100
AcDbEntity
8
Geo
100
AcDbLine
10
-22.1310494362533
20
2.59679485974316
30
0.000000000000000
11
-22.0310494362533
21
2.57084916185153
31
0.000000000000000
  0
LINE
  5
F101D9
330
F101DA
100
AcDbEntity
8
Geo
100
AcDbLine
10
-22.0310494362533
20
2.57084916185153
30
0.000000000000000
11
-21.9310494362533
21
2.54651656406644
31
0.000000000000000
  0
LINE
  5
F101DB
330
F101DC
100
AcDbEntity
8
Geo
100
AcDbLine
10
-21.9310494362533
20
2.54651656406644
30
0.000000000000000
11
-21.8310494362533
21
2.52380382528636
31
0.000000000000000
  0
LINE
  5
F101DD
330
F101DE
100
AcDbEntity
8
Geo
100
AcDbLine
10
-21.8310494362533
20
2.52380382528636
30
0.000000000000000
11
-21.7310494362533
21
2.50271725445937
31
0.000000000000000
  0
LINE
  5
F101DF
330
F101E0
100
AcDbEntity
8
Geo
100
AcDbLine
10
-21.7310494362533
20
2.50271725445937
30
0.000000000000000
11
-21.6310494362533
21
2.48326270883064
31
0.000000000000000
  0
LINE
  5
F101E1
330
F101E2
100
AcDbEntity
8
Geo
100
AcDbLine
10
-21.6310494362533
20
2.48326270883064
30
0.000000000000000
11
-21.5310494362533
21
2.46544559231556
31
0.000000000000000
  0
LINE
  5
F101E3
330
F101E4
100
AcDbEntity
8
Geo
100
AcDbLine
10
-21.5310494362533
20
2.46544559231556
30
0.000000000000000
11
-21.4310494362533
21
2.44927085399858
31
0.000000000000000
  0
LINE
  5
F101E5
330
F101E6
100
AcDbEntity
8
Geo
100
AcDbLine
10
-21.4310494362533
20
2.44927085399858
30
0.000000000000000
11
-21.3310494362533
21
2.43474298675857
31
0.000000000000000
  0
LINE
  5
F101E7
330
F101E8
100
AcDbEntity
8
Geo
100
AcDbLine
10
-21.3310494362533
20
2.43474298675857
30
0.000000000000000
11
-21.2310494362533
21
2.42186602602079
31
0.000000000000000
  0
LINE
  5
F101E9
330
F101EA
100
AcDbEntity
8
Geo
100
AcDbLine
10
-21.2310494362533
20
2.42186602602079
30
0.000000000000000
11
-21.1310494362533
21
2.41064354863598
31
0.000000000000000
  0
LINE
  5
F101EB
330
F101EC
100
AcDbEntity
8
Geo
100
AcDbLine
10
-21.1310494362533
20
2.41064354863598
30
0.000000000000000
11
-21.0310494362533
21
2.40107867188681
31
0.000000000000000
  0
LINE
  5
F101ED
330
F101EE
100
AcDbEntity
8
Geo
100
AcDbLine
10
-21.0310494362533
20
2.40107867188681
30
0.000000000000000
11
-20.9310494362533
21
2.39317405262199
31
0.000000000000000
  0
LINE
  5
F101EF
330
F101F0
100
AcDbEntity
8
Geo
100
AcDbLine
10
-20.9310494362533
20
2.39317405262199
30
0.000000000000000
11
-20.8310494362533
21
2.38693188651827
31
0.000000000000000
  0
LINE
  5
F101F1
330
F101F2
100
AcDbEntity
8
Geo
100
AcDbLine
10
-20.8310494362533
20
2.38693188651827
30
0.000000000000000
11
-20.7310494362533
21
2.38235390747052
31
0.000000000000000
  0
LINE
  5
F101F3
330
F101F4
100
AcDbEntity
8
Geo
100
AcDbLine
10
-20.7310494362533
20
2.38235390747052
30
0.000000000000000
11
-20.6310494362533
21
2.37944138711018
31
0.000000000000000
  0
LINE
  5
F101F5
330
F101F6
100
AcDbEntity
8
Geo
100
AcDbLine
10
-20.6310494362533
20
2.37944138711018
30
0.000000000000000
11
-20.5310494362533
21
2.37819513445193
31
0.000000000000000
  0
LINE
  5
F101F7
330
F101F8
100
AcDbEntity
8
Geo
100
AcDbLine
10
-20.5310494362533
20
2.37819513445193
30
0.000000000000000
11
-20.5062710402004
21
2.37814397224632
31
0.000000000000000
  0
LINE
  5
F101F9
330
F101FA
100
AcDbEntity
8
Geo
100
AcDbLine
10
-20.5062710402004
20
14.3781439722463
30
0.000000000000000
11
-20.4310494362533
21
14.3776724488236
31
0.000000000000000
  0
LINE
  5
F101FB
330
F101FC
100
AcDbEntity
8
Geo
100
AcDbLine
10
-20.4310494362533
20
14.3776724488236
30
0.000000000000000
11
-20.3310494362533
21
14.3755855904954
31
0.000000000000000
  0
LINE
  5
F101FD
330
F101FE
100
AcDbEntity
8
Geo
100
AcDbLine
10
-20.3310494362533
20
14.3755855904954
30
0.000000000000000
11
-20.2310494362533
21
14.3718328147255
31
0.000000000000000
  0
LINE
  5
F101FF
330
F10200
100
AcDbEntity
8
Geo
100
AcDbLine
10
-20.2310494362533
20
14.3718328147255
30
0.000000000000000
11
-20.1310494362533
21
14.3664151639276
31
0.000000000000000
  0
LINE
  5
F10201
330
F10202
100
AcDbEntity
8
Geo
100
AcDbLine
10
-20.1310494362533
20
14.3664151639276
30
0.000000000000000
11
-20.0310494362533
21
14.3593341429698
31
0.000000000000000
  0
LINE
  5
F10203
330
F10204
100
AcDbEntity
8
Geo
100
AcDbLine
10
-20.0310494362533
20
14.3593341429698
30
0.000000000000000
11
-19.9310494362533
21
14.3505917187569
31
0.000000000000000
  0
LINE
  5
F10205
330
F10206
100
AcDbEntity
8
Geo
100
AcDbLine
10
-19.9310494362533
20
14.3505917187569
30
0.000000000000000
11
-19.8310494362533
21
14.3401903196838
31
0.000000000000000
  0
LINE
  5
F10207
330
F10208
100
AcDbEntity
8
Geo
100
AcDbLine
10
-19.8310494362533
20
14.3401903196838
30
0.000000000000000
11
-19.7310494362533
21
14.3281328349611
31
0.000000000000000
  0
LINE
  5
F10209
330
F1020A
100
AcDbEntity
8
Geo
100
AcDbLine
10
-19.7310494362533
20
14.3281328349611
30
0.000000000000000
11
-19.6310494362533
21
14.3144226138127
31
0.000000000000000
  0
LINE
  5
F1020B
330
F1020C
100
AcDbEntity
8
Geo
100
AcDbLine
10
-19.6310494362533
20
14.3144226138127
30
0.000000000000000
11
-19.5310494362533
21
14.2990634645451
31
0.000000000000000
  0
LINE
  5
F1020D
330
F1020E
100
AcDbEntity
8
Geo
100
AcDbLine
10
-19.5310494362533
20
14.2990634645451
30
0.000000000000000
11
-19.4310494362533
21
14.2820596534899
31
0.000000000000000
  0
LINE
  5
F1020F
330
F10210
100
AcDbEntity
8
Geo
100
AcDbLine
10
-19.4310494362533
20
14.2820596534899
30
0.000000000000000
11
-19.3310494362533
21
14.2634159038187
31
0.000000000000000
  0
LINE
  5
F10211
330
F10212
100
AcDbEntity
8
Geo
100
AcDbLine
10
-19.3310494362533
20
14.2634159038187
30
0.000000000000000
11
-19.2310494362533
21
14.2431373942309
31
0.000000000000000
  0
LINE
  5
F10213
330
F10214
100
AcDbEntity
8
Geo
100
AcDbLine
10
-19.2310494362533
20
14.2431373942309
30
0.000000000000000
11
-19.1310494362533
21
14.2212297575155
31
0.000000000000000
  0
LINE
  5
F10215
330
F10216
100
AcDbEntity
8
Geo
100
AcDbLine
10
-19.1310494362533
20
14.2212297575155
30
0.000000000000000
11
-19.0310494362533
21
14.1976990789862
31
0.000000000000000
  0
LINE
  5
F10217
330
F10218
100
AcDbEntity
8
Geo
100
AcDbLine
10
-19.0310494362533
20
14.1976990789862
30
0.000000000000000
11
-18.9310494362533
21
14.1725518947913
31
0.000000000000000
  0
LINE
  5
F10219
330
F1021A
100
AcDbEntity
8
Geo
100
AcDbLine
10
-22.3912268418046
20
14.3781439722463
30
0.000000000000000
11
-22.3310494362533
21
14.3778421958328
31
0.000000000000000
  0
LINE
  5
F1021B
330
F1021C
100
AcDbEntity
8
Geo
100
AcDbLine
10
-22.3310494362533
20
14.3778421958328
30
0.000000000000000
11
-22.2310494362533
21
14.3760060264257
31
0.000000000000000
  0
LINE
  5
F1021D
330
F1021E
100
AcDbEntity
8
Geo
100
AcDbLine
10
-22.2310494362533
20
14.3760060264257
30
0.000000000000000
11
-22.1310494362533
21
14.3725038227920
31
0.000000000000000
  0
LINE
  5
F1021F
330
F10220
100
AcDbEntity
8
Geo
100
AcDbLine
10
-22.1310494362533
20
14.3725038227920
30
0.000000000000000
11
-22.0310494362533
21
14.3673365577434
31
0.000000000000000
  0
LINE
  5
F10221
330
F10222
100
AcDbEntity
8
Geo
100
AcDbLine
10
-22.0310494362533
20
14.3673365577434
30
0.000000000000000
11
-21.9310494362533
21
14.3605056665981
31
0.000000000000000
  0
LINE
  5
F10223
330
F10224
100
AcDbEntity
8
Geo
100
AcDbLine
10
-21.9310494362533
20
14.3605056665981
30
0.000000000000000
11
-21.8310494362533
21
14.3520130467820
31
0.000000000000000
  0
LINE
  5
F10225
330
F10226
100
AcDbEntity
8
Geo
100
AcDbLine
10
-21.8310494362533
20
14.3520130467820
30
0.000000000000000
11
-21.7310494362533
21
14.3418610573014
31
0.000000000000000
  0
LINE
  5
F10227
330
F10228
100
AcDbEntity
8
Geo
100
AcDbLine
10
-21.7310494362533
20
14.3418610573014
30
0.000000000000000
11
-21.6310494362533
21
14.3300525180883
31
0.000000000000000
  0
LINE
  5
F10229
330
F1022A
100
AcDbEntity
8
Geo
100
AcDbLine
10
-21.6310494362533
20
14.3300525180883
30
0.000000000000000
11
-21.5310494362533
21
14.3165907092164
31
0.000000000000000
  0
LINE
  5
F1022B
330
F1022C
100
AcDbEntity
8
Geo
100
AcDbLine
10
-21.5310494362533
20
14.3165907092164
30
0.000000000000000
11
-21.4310494362533
21
14.3014793699906
31
0.000000000000000
  0
LINE
  5
F1022D
330
F1022E
100
AcDbEntity
8
Geo
100
AcDbLine
10
-21.4310494362533
20
14.3014793699906
30
0.000000000000000
11
-21.3310494362533
21
14.2847226979080
31
0.000000000000000
  0
LINE
  5
F1022F
330
F10230
100
AcDbEntity
8
Geo
100
AcDbLine
10
-21.3310494362533
20
14.2847226979080
30
0.000000000000000
11
-21.2310494362533
21
14.2663253474918
31
0.000000000000000
  0
LINE
  5
F10231
330
F10232
100
AcDbEntity
8
Geo
100
AcDbLine
10
-21.2310494362533
20
14.2663253474918
30
0.000000000000000
11
-21.1310494362533
21
14.2462924289990
31
0.000000000000000
  0
LINE
  5
F10233
330
F10234
100
AcDbEntity
8
Geo
100
AcDbLine
10
-21.1310494362533
20
14.2462924289990
30
0.000000000000000
11
-21.0310494362533
21
14.2246295070002
31
0.000000000000000
  0
LINE
  5
F10235
330
F10236
100
AcDbEntity
8
Geo
100
AcDbLine
10
-21.0310494362533
20
14.2246295070002
30
0.000000000000000
11
-20.9310494362533
21
14.2013425988346
31
0.000000000000000
  0
LINE
  5
F10237
330
F10238
100
AcDbEntity
8
Geo
100
AcDbLine
10
-20.9310494362533
20
14.2013425988346
30
0.000000000000000
11
-20.8310494362533
21
14.1764381729380
31
0.000000000000000
  0
LINE
  5
F10239
330
F1023A
100
AcDbEntity
8
Geo
100
AcDbLine
10
-20.8310494362533
20
14.1764381729380
30
0.000000000000000
11
-20.7310494362533
21
14.1499231470464
31
0.000000000000000
  0
LINE
  5
F1023B
330
F1023C
100
AcDbEntity
8
Geo
100
AcDbLine
10
-20.7310494362533
20
14.1499231470464
30
0.000000000000000
11
-20.6310494362533
21
14.1218048862742
31
0.000000000000000
  0
LINE
  5
F1023D
330
F1023E
100
AcDbEntity
8
Geo
100
AcDbLine
10
-20.6310494362533
20
14.1218048862742
30
0.000000000000000
11
-20.5310494362533
21
14.0920912010686
31
0.000000000000000
  0
LINE
  5
F1023F
330
F10240
100
AcDbEntity
8
Geo
100
AcDbLine
10
-20.5310494362533
20
14.0920912010686
30
0.000000000000000
11
-20.4310494362533
21
14.0607903450400
31
0.000000000000000
  0
LINE
  5
F10241
330
F10242
100
AcDbEntity
8
Geo
100
AcDbLine
10
-20.4310494362533
20
14.0607903450400
30
0.000000000000000
11
-20.3310494362533
21
14.0279110126694
31
0.000000000000000
  0
LINE
  5
F10243
330
F10244
100
AcDbEntity
8
Geo
100
AcDbLine
10
-20.3310494362533
20
14.0279110126694
30
0.000000000000000
11
-20.2310494362533
21
13.9934623368933
31
0.000000000000000
  0
LINE
  5
F10245
330
F10246
100
AcDbEntity
8
Geo
100
AcDbLine
10
-20.2310494362533
20
13.9934623368933
30
0.000000000000000
11
-20.1310494362533
21
13.9574538865667
31
0.000000000000000
  0
LINE
  5
F10247
330
F10248
100
AcDbEntity
8
Geo
100
AcDbLine
10
-20.1310494362533
20
13.9574538865667
30
0.000000000000000
11
-20.0310494362533
21
13.9198956638055
31
0.000000000000000
  0
LINE
  5
F10249
330
F1024A
100
AcDbEntity
8
Geo
100
AcDbLine
10
-20.0310494362533
20
13.9198956638055
30
0.000000000000000
11
-19.9310494362533
21
13.8807981012077
31
0.000000000000000
  0
LINE
  5
F1024B
330
F1024C
100
AcDbEntity
8
Geo
100
AcDbLine
10
-19.9310494362533
20
13.8807981012077
30
0.000000000000000
11
-19.8310494362533
21
13.8401720589560
31
0.000000000000000
  0
LINE
  5
F1024D
330
F1024E
100
AcDbEntity
8
Geo
100
AcDbLine
10
-19.8310494362533
20
13.8401720589560
30
0.000000000000000
11
-19.7310494362533
21
13.7980288218011
31
0.000000000000000
  0
LINE
  5
F1024F
330
F10250
100
AcDbEntity
8
Geo
100
AcDbLine
10
-19.7310494362533
20
13.7980288218011
30
0.000000000000000
11
-19.6310494362533
21
13.7543800959265
31
0.000000000000000
  0
LINE
  5
F10251
330
F10252
100
AcDbEntity
8
Geo
100
AcDbLine
10
-19.6310494362533
20
13.7543800959265
30
0.000000000000000
11
-19.5310494362533
21
13.7092380056978
31
0.000000000000000
  0
LINE
  5
F10253
330
F10254
100
AcDbEntity
8
Geo
100
AcDbLine
10
-19.5310494362533
20
13.7092380056978
30
0.000000000000000
11
-19.4310494362533
21
13.6626150902942
31
0.000000000000000
  0
LINE
  5
F10255
330
F10256
100
AcDbEntity
8
Geo
100
AcDbLine
10
-19.4310494362533
20
13.6626150902942
30
0.000000000000000
11
-19.3310494362533
21
13.6145243002258
31
0.000000000000000
  0
LINE
  5
F10257
330
F10258
100
AcDbEntity
8
Geo
100
AcDbLine
10
-19.3310494362533
20
13.6145243002258
30
0.000000000000000
11
-19.2310494362533
21
13.5649789937361
31
0.000000000000000
  0
LINE
  5
F10259
330
F1025A
100
AcDbEntity
8
Geo
100
AcDbLine
10
-19.2310494362533
20
13.5649789937361
30
0.000000000000000
11
-19.1310494362533
21
13.5139929330917
31
0.000000000000000
  0
LINE
  5
F1025B
330
F1025C
100
AcDbEntity
8
Geo
100
AcDbLine
10
-19.1310494362533
20
13.5139929330917
30
0.000000000000000
11
-19.0310494362533
21
13.4615802807593
31
0.000000000000000
  0
LINE
  5
F1025D
330
F1025E
100
AcDbEntity
8
Geo
100
AcDbLine
10
-19.0310494362533
20
13.4615802807593
30
0.000000000000000
11
-18.9310494362533
21
13.4077555954721
31
0.000000000000000
  0
LINE
  5
F1025F
330
F10260
100
AcDbEntity
8
Geo
100
AcDbLine
10
-29.9310494362533
20
13.8000532508459
30
0.000000000000000
11
-29.8310494362533
21
13.8820690239317
31
0.000000000000000
  0
LINE
  5
F10261
330
F10262
100
AcDbEntity
8
Geo
100
AcDbLine
10
-29.8310494362533
20
13.8820690239317
30
0.000000000000000
11
-29.7310494362533
21
13.9626021252758
31
0.000000000000000
  0
LINE
  5
F10263
330
F10264
100
AcDbEntity
8
Geo
100
AcDbLine
10
-29.7310494362533
20
13.9626021252758
30
0.000000000000000
11
-29.6310494362533
21
13.9846851560307
31
0.000000000000000
  0
LINE
  5
F10265
330
F10266
100
AcDbEntity
8
Geo
100
AcDbLine
10
-29.6310494362533
20
13.9846851560307
30
0.000000000000000
11
-29.5310494362533
21
13.9482917548426
31
0.000000000000000
  0
LINE
  5
F10267
330
F10268
100
AcDbEntity
8
Geo
100
AcDbLine
10
-29.5310494362533
20
13.9482917548426
30
0.000000000000000
11
-29.4310494362533
21
13.9103511261975
31
0.000000000000000
  0
LINE
  5
F10269
330
F1026A
100
AcDbEntity
8
Geo
100
AcDbLine
10
-29.4310494362533
20
13.9103511261975
30
0.000000000000000
11
-29.3310494362533
21
13.8708738089149
31
0.000000000000000
  0
LINE
  5
F1026B
330
F1026C
100
AcDbEntity
8
Geo
100
AcDbLine
10
-29.3310494362533
20
13.8708738089149
30
0.000000000000000
11
-29.2310494362533
21
13.8298707686626
31
0.000000000000000
  0
LINE
  5
F1026D
330
F1026E
100
AcDbEntity
8
Geo
100
AcDbLine
10
-29.2310494362533
20
13.8298707686626
30
0.000000000000000
11
-29.1310494362533
21
13.7873533949101
31
0.000000000000000
  0
LINE
  5
F1026F
330
F10270
100
AcDbEntity
8
Geo
100
AcDbLine
10
-29.1310494362533
20
13.7873533949101
30
0.000000000000000
11
-29.0310494362533
21
13.7433334977659
31
0.000000000000000
  0
LINE
  5
F10271
330
F10272
100
AcDbEntity
8
Geo
100
AcDbLine
10
-29.0310494362533
20
13.7433334977659
30
0.000000000000000
11
-28.9310494362533
21
13.6978233046959
31
0.000000000000000
  0
LINE
  5
F10273
330
F10274
100
AcDbEntity
8
Geo
100
AcDbLine
10
-28.9310494362533
20
13.6978233046959
30
0.000000000000000
11
-28.8310494362533
21
13.6508354571279
31
0.000000000000000
  0
LINE
  5
F10275
330
F10276
100
AcDbEntity
8
Geo
100
AcDbLine
10
-28.8310494362533
20
13.6508354571279
30
0.000000000000000
11
-28.7310494362533
21
13.6023830069397
31
0.000000000000000
  0
LINE
  5
F10277
330
F10278
100
AcDbEntity
8
Geo
100
AcDbLine
10
-28.7310494362533
20
13.6023830069397
30
0.000000000000000
11
-28.6310494362533
21
13.5524794128336
31
0.000000000000000
  0
LINE
  5
F10279
330
F1027A
100
AcDbEntity
8
Geo
100
AcDbLine
10
-28.6310494362533
20
13.5524794128336
30
0.000000000000000
11
-28.5310494362533
21
13.5011385365982
31
0.000000000000000
  0
LINE
  5
F1027B
330
F1027C
100
AcDbEntity
8
Geo
100
AcDbLine
10
-28.5310494362533
20
13.5011385365982
30
0.000000000000000
11
-28.4310494362533
21
13.4483746392579
31
0.000000000000000
  0
LINE
  5
F1027D
330
F1027E
100
AcDbEntity
8
Geo
100
AcDbLine
10
-28.4310494362533
20
13.4483746392579
30
0.000000000000000
11
-28.3310494362533
21
13.3942023771116
31
0.000000000000000
  0
LINE
  5
F1027F
330
F10280
100
AcDbEntity
8
Geo
100
AcDbLine
10
-28.3310494362533
20
13.3942023771116
30
0.000000000000000
11
-28.2310494362533
21
13.3386367976616
31
0.000000000000000
  0
LINE
  5
F10281
330
F10282
100
AcDbEntity
8
Geo
100
AcDbLine
10
-28.2310494362533
20
13.3386367976616
30
0.000000000000000
11
-28.1310494362533
21
13.2816933354337
31
0.000000000000000
  0
LINE
  5
F10283
330
F10284
100
AcDbEntity
8
Geo
100
AcDbLine
10
-28.1310494362533
20
13.2816933354337
30
0.000000000000000
11
-28.0310494362533
21
13.2233878076902
31
0.000000000000000
  0
LINE
  5
F10285
330
F10286
100
AcDbEntity
8
Geo
100
AcDbLine
10
-28.0310494362533
20
13.2233878076902
30
0.000000000000000
11
-27.9310494362533
21
13.1637364100361
31
0.000000000000000
  0
LINE
  5
F10287
330
F10288
100
AcDbEntity
8
Geo
100
AcDbLine
10
-27.9310494362533
20
13.1637364100361
30
0.000000000000000
11
-27.8310494362533
21
13.1027557119206
31
0.000000000000000
  0
LINE
  5
F10289
330
F1028A
100
AcDbEntity
8
Geo
100
AcDbLine
10
-27.8310494362533
20
13.1027557119206
30
0.000000000000000
11
-27.7310494362533
21
13.0404626520343
31
0.000000000000000
  0
LINE
  5
F1028B
330
F1028C
100
AcDbEntity
8
Geo
100
AcDbLine
10
-27.7310494362533
20
13.0404626520343
30
0.000000000000000
11
-27.6310494362533
21
12.9768745336045
31
0.000000000000000
  0
LINE
  5
F1028D
330
F1028E
100
AcDbEntity
8
Geo
100
AcDbLine
10
-27.6310494362533
20
12.9768745336045
30
0.000000000000000
11
-27.5310494362533
21
12.9120090195886
31
0.000000000000000
  0
LINE
  5
F1028F
330
F10290
100
AcDbEntity
8
Geo
100
AcDbLine
10
-27.5310494362533
20
12.9120090195886
30
0.000000000000000
11
-27.4310494362533
21
12.8458841277677
31
0.000000000000000
  0
LINE
  5
F10291
330
F10292
100
AcDbEntity
8
Geo
100
AcDbLine
10
-27.4310494362533
20
12.8458841277677
30
0.000000000000000
11
-27.3310494362533
21
12.7785182257422
31
0.000000000000000
  0
LINE
  5
F10293
330
F10294
100
AcDbEntity
8
Geo
100
AcDbLine
10
-27.3310494362533
20
12.7785182257422
30
0.000000000000000
11
-27.2310494362533
21
12.7099300258294
31
0.000000000000000
  0
LINE
  5
F10295
330
F10296
100
AcDbEntity
8
Geo
100
AcDbLine
10
-27.2310494362533
20
12.7099300258294
30
0.000000000000000
11
-27.1310494362533
21
12.6401385798663
31
0.000000000000000
  0
LINE
  5
F10297
330
F10298
100
AcDbEntity
8
Geo
100
AcDbLine
10
-27.1310494362533
20
12.6401385798663
30
0.000000000000000
11
-27.0310494362533
21
12.5691632739166
31
0.000000000000000
  0
LINE
  5
F10299
330
F1029A
100
AcDbEntity
8
Geo
100
AcDbLine
10
-27.0310494362533
20
12.5691632739166
30
0.000000000000000
11
-26.9310494362533
21
12.4970238228869
31
0.000000000000000
  0
LINE
  5
F1029B
330
F1029C
100
AcDbEntity
8
Geo
100
AcDbLine
10
-26.9310494362533
20
12.4970238228869
30
0.000000000000000
11
-26.8310494362533
21
12.4237402650497
31
0.000000000000000
  0
LINE
  5
F1029D
330
F1029E
100
AcDbEntity
8
Geo
100
AcDbLine
10
-26.8310494362533
20
12.4237402650497
30
0.000000000000000
11
-26.7310494362533
21
12.3493329564776
31
0.000000000000000
  0
LINE
  5
F1029F
330
F102A0
100
AcDbEntity
8
Geo
100
AcDbLine
10
-26.7310494362533
20
12.3493329564776
30
0.000000000000000
11
-26.6310494362533
21
12.2738225653890
31
0.000000000000000
  0
LINE
  5
F102A1
330
F102A2
100
AcDbEntity
8
Geo
100
AcDbLine
10
-26.6310494362533
20
12.2738225653890
30
0.000000000000000
11
-26.5310494362533
21
12.1972300664070
31
0.000000000000000
  0
LINE
  5
F102A3
330
F102A4
100
AcDbEntity
8
Geo
100
AcDbLine
10
-26.5310494362533
20
12.1972300664070
30
0.000000000000000
11
-26.4310494362533
21
12.1195767347332
31
0.000000000000000
  0
LINE
  5
F102A5
330
F102A6
100
AcDbEntity
8
Geo
100
AcDbLine
10
-26.4310494362533
20
12.1195767347332
30
0.000000000000000
11
-26.3310494362533
21
12.0408841402384
31
0.000000000000000
  0
LINE
  5
F102A7
330
F102A8
100
AcDbEntity
8
Geo
100
AcDbLine
10
-26.3310494362533
20
12.0408841402384
30
0.000000000000000
11
-26.2310494362533
21
11.9611741414704
31
0.000000000000000
  0
LINE
  5
F102A9
330
F102AA
100
AcDbEntity
8
Geo
100
AcDbLine
10
-26.2310494362533
20
11.9611741414704
30
0.000000000000000
11
-26.1310494362533
21
11.8804688795832
31
0.000000000000000
  0
LINE
  5
F102AB
330
F102AC
100
AcDbEntity
8
Geo
100
AcDbLine
10
-26.1310494362533
20
11.8804688795832
30
0.000000000000000
11
-26.0310494362533
21
11.7987907721860
31
0.000000000000000
  0
LINE
  5
F102AD
330
F102AE
100
AcDbEntity
8
Geo
100
AcDbLine
10
-26.0310494362533
20
11.7987907721860
30
0.000000000000000
11
-25.9310494362533
21
11.7161625071169
31
0.000000000000000
  0
LINE
  5
F102AF
330
F102B0
100
AcDbEntity
8
Geo
100
AcDbLine
10
-25.9310494362533
20
11.7161625071169
30
0.000000000000000
11
-25.8310494362533
21
11.6326070361403
31
0.000000000000000
  0
LINE
  5
F102B1
330
F102B2
100
AcDbEntity
8
Geo
100
AcDbLine
10
-25.8310494362533
20
11.6326070361403
30
0.000000000000000
11
-25.7310494362533
21
11.5481475685722
31
0.000000000000000
  0
LINE
  5
F102B3
330
F102B4
100
AcDbEntity
8
Geo
100
AcDbLine
10
-25.7310494362533
20
11.5481475685722
30
0.000000000000000
11
-25.6310494362533
21
11.4628075648326
31
0.000000000000000
  0
LINE
  5
F102B5
330
F102B6
100
AcDbEntity
8
Geo
100
AcDbLine
10
-25.6310494362533
20
11.4628075648326
30
0.000000000000000
11
-25.5310494362533
21
11.3766107299293
31
0.000000000000000
  0
LINE
  5
F102B7
330
F102B8
100
AcDbEntity
8
Geo
100
AcDbLine
10
-25.5310494362533
20
11.3766107299293
30
0.000000000000000
11
-25.4310494362533
21
11.2895810068735
31
0.000000000000000
  0
LINE
  5
F102B9
330
F102BA
100
AcDbEntity
8
Geo
100
AcDbLine
10
-25.4310494362533
20
11.2895810068735
30
0.000000000000000
11
-25.3310494362533
21
11.2017425700285
31
0.000000000000000
  0
LINE
  5
F102BB
330
F102BC
100
AcDbEntity
8
Geo
100
AcDbLine
10
-25.3310494362533
20
11.2017425700285
30
0.000000000000000
11
-25.2310494362533
21
11.1131198183954
31
0.000000000000000
  0
LINE
  5
F102BD
330
F102BE
100
AcDbEntity
8
Geo
100
AcDbLine
10
-25.2310494362533
20
11.1131198183954
30
0.000000000000000
11
-25.1310494362533
21
11.0237373688354
31
0.000000000000000
  0
LINE
  5
F102BF
330
F102C0
100
AcDbEntity
8
Geo
100
AcDbLine
10
-25.1310494362533
20
11.0237373688354
30
0.000000000000000
11
-25.0310494362533
21
10.9336200492318
31
0.000000000000000
  0
LINE
  5
F102C1
330
F102C2
100
AcDbEntity
8
Geo
100
AcDbLine
10
-25.0310494362533
20
10.9336200492318
30
0.000000000000000
11
-24.9310494362533
21
10.8427928915941
31
0.000000000000000
  0
LINE
  5
F102C3
330
F102C4
100
AcDbEntity
8
Geo
100
AcDbLine
10
-24.9310494362533
20
10.8427928915941
30
0.000000000000000
11
-24.8310494362533
21
10.7512811251041
31
0.000000000000000
  0
LINE
  5
F102C5
330
F102C6
100
AcDbEntity
8
Geo
100
AcDbLine
10
-24.8310494362533
20
10.7512811251041
30
0.000000000000000
11
-24.7310494362533
21
10.6591101691088
31
0.000000000000000
  0
LINE
  5
F102C7
330
F102C8
100
AcDbEntity
8
Geo
100
AcDbLine
10
-24.7310494362533
20
10.6591101691088
30
0.000000000000000
11
-24.6310494362533
21
10.5663056260586
31
0.000000000000000
  0
LINE
  5
F102C9
330
F102CA
100
AcDbEntity
8
Geo
100
AcDbLine
10
-24.6310494362533
20
10.5663056260586
30
0.000000000000000
11
-24.5310494362533
21
10.4728932743967
31
0.000000000000000
  0
LINE
  5
F102CB
330
F102CC
100
AcDbEntity
8
Geo
100
AcDbLine
10
-24.5310494362533
20
10.4728932743967
30
0.000000000000000
11
-24.4310494362533
21
10.3788990613979
31
0.000000000000000
  0
LINE
  5
F102CD
330
F102CE
100
AcDbEntity
8
Geo
100
AcDbLine
10
-24.4310494362533
20
10.3788990613979
30
0.000000000000000
11
-24.3310494362533
21
10.2843490959613
31
0.000000000000000
  0
LINE
  5
F102CF
330
F102D0
100
AcDbEntity
8
Geo
100
AcDbLine
10
-24.3310494362533
20
10.2843490959613
30
0.000000000000000
11
-24.2310494362533
21
10.1892696413583
31
0.000000000000000
  0
LINE
  5
F102D1
330
F102D2
100
AcDbEntity
8
Geo
100
AcDbLine
10
-24.2310494362533
20
10.1892696413583
30
0.000000000000000
11
-24.1310494362533
21
10.0936871079372
31
0.000000000000000
  0
LINE
  5
F102D3
330
F102D4
100
AcDbEntity
8
Geo
100
AcDbLine
10
-24.1310494362533
20
10.0936871079372
30
0.000000000000000
11
-24.0310494362533
21
9.99762804578704
31
0.000000000000000
  0
LINE
  5
F102D5
330
F102D6
100
AcDbEntity
8
Geo
100
AcDbLine
10
-24.0310494362533
20
9.99762804578704
30
0.000000000000000
11
-23.9310494362533
21
9.90111913736307
31
0.000000000000000
  0
LINE
  5
F102D7
330
F102D8
100
AcDbEntity
8
Geo
100
AcDbLine
10
-23.9310494362533
20
9.90111913736307
30
0.000000000000000
11
-23.8310494362533
21
9.80418719007483
31
0.000000000000000
  0
LINE
  5
F102D9
330
F102DA
100
AcDbEntity
8
Geo
100
AcDbLine
10
-23.8310494362533
20
9.80418719007483
30
0.000000000000000
11
-23.7310494362533
21
9.70685912883996
31
0.000000000000000
  0
LINE
  5
F102DB
330
F102DC
100
AcDbEntity
8
Geo
100
AcDbLine
10
-23.7310494362533
20
9.70685912883996
30
0.000000000000000
11
-23.6310494362533
21
9.60916198860521
31
0.000000000000000
  0
LINE
  5
F102DD
330
F102DE
100
AcDbEntity
8
Geo
100
AcDbLine
10
-23.6310494362533
20
9.60916198860521
30
0.000000000000000
11
-23.5310494362533
21
9.51112290683688
31
0.000000000000000
  0
LINE
  5
F102DF
330
F102E0
100
AcDbEntity
8
Geo
100
AcDbLine
10
-23.5310494362533
20
9.51112290683688
30
0.000000000000000
11
-23.4310494362533
21
9.41276911598287
31
0.000000000000000
  0
LINE
  5
F102E1
330
F102E2
100
AcDbEntity
8
Geo
100
AcDbLine
10
-23.4310494362533
20
9.41276911598287
30
0.000000000000000
11
-23.3310494362533
21
9.31412793590823
31
0.000000000000000
  0
LINE
  5
F102E3
330
F102E4
100
AcDbEntity
8
Geo
100
AcDbLine
10
-23.3310494362533
20
9.31412793590823
30
0.000000000000000
11
-23.2310494362533
21
9.21522676630648
31
0.000000000000000
  0
LINE
  5
F102E5
330
F102E6
100
AcDbEntity
8
Geo
100
AcDbLine
10
-23.2310494362533
20
9.21522676630648
30
0.000000000000000
11
-23.1310494362533
21
9.11609307908881
31
0.000000000000000
  0
LINE
  5
F102E7
330
F102E8
100
AcDbEntity
8
Geo
100
AcDbLine
10
-23.1310494362533
20
9.11609307908881
30
0.000000000000000
11
-23.0310494362533
21
9.01675441075312
31
0.000000000000000
  0
LINE
  5
F102E9
330
F102EA
100
AcDbEntity
8
Geo
100
AcDbLine
10
-23.0310494362533
20
9.01675441075312
30
0.000000000000000
11
-22.9310494362533
21
8.91723835473521
31
0.000000000000000
  0
LINE
  5
F102EB
330
F102EC
100
AcDbEntity
8
Geo
100
AcDbLine
10
-22.9310494362533
20
8.91723835473521
30
0.000000000000000
11
-22.8310494362533
21
8.81757255374410
31
0.000000000000000
  0
LINE
  5
F102ED
330
F102EE
100
AcDbEntity
8
Geo
100
AcDbLine
10
-22.8310494362533
20
8.81757255374410
30
0.000000000000000
11
-22.7310494362533
21
8.71778469208363
31
0.000000000000000
  0
LINE
  5
F102EF
330
F102F0
100
AcDbEntity
8
Geo
100
AcDbLine
10
-22.7310494362533
20
8.71778469208363
30
0.000000000000000
11
-22.6310494362533
21
8.61790248796266
31
0.000000000000000
  0
LINE
  5
F102F1
330
F102F2
100
AcDbEntity
8
Geo
100
AcDbLine
10
-22.6310494362533
20
8.61790248796266
30
0.000000000000000
11
-22.5310494362533
21
8.51795368579562
31
0.000000000000000
  0
LINE
  5
F102F3
330
F102F4
100
AcDbEntity
8
Geo
100
AcDbLine
10
-22.5310494362533
20
8.51795368579562
30
0.000000000000000
11
-22.4310494362533
21
8.41796604849602
31
0.000000000000000
  0
LINE
  5
F102F5
330
F102F6
100
AcDbEntity
8
Geo
100
AcDbLine
10
-22.4310494362533
20
8.41796604849602
30
0.000000000000000
11
-22.3310494362533
21
8.31796734976463
31
0.000000000000000
  0
LINE
  5
F102F7
330
F102F8
100
AcDbEntity
8
Geo
100
AcDbLine
10
-22.3310494362533
20
8.31796734976463
30
0.000000000000000
11
-22.2310494362533
21
8.21798536637477
31
0.000000000000000
  0
LINE
  5
F102F9
330
F102FA
100
AcDbEntity
8
Geo
100
AcDbLine
10
-22.2310494362533
20
8.21798536637477
30
0.000000000000000
11
-22.1310494362533
21
8.11804787045672
31
0.000000000000000
  0
LINE
  5
F102FB
330
F102FC
100
AcDbEntity
8
Geo
100
AcDbLine
10
-22.1310494362533
20
8.11804787045672
30
0.000000000000000
11
-22.0310494362533
21
8.01818262178342
31
0.000000000000000
  0
LINE
  5
F102FD
330
F102FE
100
AcDbEntity
8
Geo
100
AcDbLine
10
-22.0310494362533
20
8.01818262178342
30
0.000000000000000
11
-21.9310494362533
21
7.91841736005960
31
0.000000000000000
  0
LINE
  5
F102FF
330
F10300
100
AcDbEntity
8
Geo
100
AcDbLine
10
-21.9310494362533
20
7.91841736005960
30
0.000000000000000
11
-21.8310494362533
21
7.81877979721646
31
0.000000000000000
  0
LINE
  5
F10301
330
F10302
100
AcDbEntity
8
Geo
100
AcDbLine
10
-21.8310494362533
20
7.81877979721646
30
0.000000000000000
11
-21.7310494362533
21
7.71929760971413
31
0.000000000000000
  0
LINE
  5
F10303
330
F10304
100
AcDbEntity
8
Geo
100
AcDbLine
10
-21.7310494362533
20
7.71929760971413
30
0.000000000000000
11
-21.6310494362533
21
7.61999843085391
31
0.000000000000000
  0
LINE
  5
F10305
330
F10306
100
AcDbEntity
8
Geo
100
AcDbLine
10
-21.6310494362533
20
7.61999843085391
30
0.000000000000000
11
-21.5310494362533
21
7.52090984310255
31
0.000000000000000
  0
LINE
  5
F10307
330
F10308
100
AcDbEntity
8
Geo
100
AcDbLine
10
-21.5310494362533
20
7.52090984310255
30
0.000000000000000
11
-21.4310494362533
21
7.42205937043062
31
0.000000000000000
  0
LINE
  5
F10309
330
F1030A
100
AcDbEntity
8
Geo
100
AcDbLine
10
-21.4310494362533
20
7.42205937043062
30
0.000000000000000
11
-21.3310494362533
21
7.32347447066714
31
0.000000000000000
  0
LINE
  5
F1030B
330
F1030C
100
AcDbEntity
8
Geo
100
AcDbLine
10
-21.3310494362533
20
7.32347447066714
30
0.000000000000000
11
-21.2310494362533
21
7.22518252787259
31
0.000000000000000
  0
LINE
  5
F1030D
330
F1030E
100
AcDbEntity
8
Geo
100
AcDbLine
10
-21.2310494362533
20
7.22518252787259
30
0.000000000000000
11
-21.1310494362533
21
7.12721084473241
31
0.000000000000000
  0
LINE
  5
F1030F
330
F10310
100
AcDbEntity
8
Geo
100
AcDbLine
10
-21.1310494362533
20
7.12721084473241
30
0.000000000000000
11
-21.0310494362533
21
7.02958663497305
31
0.000000000000000
  0
LINE
  5
F10311
330
F10312
100
AcDbEntity
8
Geo
100
AcDbLine
10
-21.0310494362533
20
7.02958663497305
30
0.000000000000000
11
-20.9310494362533
21
6.93233701580285
31
0.000000000000000
  0
LINE
  5
F10313
330
F10314
100
AcDbEntity
8
Geo
100
AcDbLine
10
-20.9310494362533
20
6.93233701580285
30
0.000000000000000
11
-20.8310494362533
21
6.83548900037960
31
0.000000000000000
  0
LINE
  5
F10315
330
F10316
100
AcDbEntity
8
Geo
100
AcDbLine
10
-20.8310494362533
20
6.83548900037960
30
0.000000000000000
11
-20.7310494362533
21
6.73906949030707
31
0.000000000000000
  0
LINE
  5
F10317
330
F10318
100
AcDbEntity
8
Geo
100
AcDbLine
10
-20.7310494362533
20
6.73906949030707
30
0.000000000000000
11
-20.6310494362533
21
6.64310526816252
31
0.000000000000000
  0
LINE
  5
F10319
330
F1031A
100
AcDbEntity
8
Geo
100
AcDbLine
10
-20.6310494362533
20
6.64310526816252
30
0.000000000000000
11
-20.5310494362533
21
6.54762299005728
31
0.000000000000000
  0
LINE
  5
F1031B
330
F1031C
100
AcDbEntity
8
Geo
100
AcDbLine
10
-20.5310494362533
20
6.54762299005728
30
0.000000000000000
11
-20.4310494362533
21
6.45264917823244
31
0.000000000000000
  0
LINE
  5
F1031D
330
F1031E
100
AcDbEntity
8
Geo
100
AcDbLine
10
-20.4310494362533
20
6.45264917823244
30
0.000000000000000
11
-20.3310494362533
21
6.35821021369170
31
0.000000000000000
  0
LINE
  5
F1031F
330
F10320
100
AcDbEntity
8
Geo
100
AcDbLine
10
-20.3310494362533
20
6.35821021369170
30
0.000000000000000
11
-20.2310494362533
21
6.26433232887354
31
0.000000000000000
  0
LINE
  5
F10321
330
F10322
100
AcDbEntity
8
Geo
100
AcDbLine
10
-20.2310494362533
20
6.26433232887354
30
0.000000000000000
11
-20.1310494362533
21
6.17104160036454
31
0.000000000000000
  0
LINE
  5
F10323
330
F10324
100
AcDbEntity
8
Geo
100
AcDbLine
10
-20.1310494362533
20
6.17104160036454
30
0.000000000000000
11
-20.0310494362533
21
6.07836394165611
31
0.000000000000000
  0
LINE
  5
F10325
330
F10326
100
AcDbEntity
8
Geo
100
AcDbLine
10
-20.0310494362533
20
6.07836394165611
30
0.000000000000000
11
-19.9310494362533
21
5.98632509594640
31
0.000000000000000
  0
LINE
  5
F10327
330
F10328
100
AcDbEntity
8
Geo
100
AcDbLine
10
-19.9310494362533
20
5.98632509594640
30
0.000000000000000
11
-19.8310494362533
21
5.89495062898965
31
0.000000000000000
  0
LINE
  5
F10329
330
F1032A
100
AcDbEntity
8
Geo
100
AcDbLine
10
-19.8310494362533
20
5.89495062898965
30
0.000000000000000
11
-19.7310494362533
21
5.80426592199470
31
0.000000000000000
  0
LINE
  5
F1032B
330
F1032C
100
AcDbEntity
8
Geo
100
AcDbLine
10
-19.7310494362533
20
5.80426592199470
30
0.000000000000000
11
-19.6310494362533
21
5.71429616457483
31
0.000000000000000
  0
LINE
  5
F1032D
330
F1032E
100
AcDbEntity
8
Geo
100
AcDbLine
10
-19.6310494362533
20
5.71429616457483
30
0.000000000000000
11
-19.5310494362533
21
5.62506634775082
31
0.000000000000000
  0
LINE
  5
F1032F
330
F10330
100
AcDbEntity
8
Geo
100
AcDbLine
10
-19.5310494362533
20
5.62506634775082
30
0.000000000000000
11
-19.4310494362533
21
5.53660125700915
31
0.000000000000000
  0
LINE
  5
F10331
330
F10332
100
AcDbEntity
8
Geo
100
AcDbLine
10
-19.4310494362533
20
5.53660125700915
30
0.000000000000000
11
-19.3310494362533
21
5.44892546541731
31
0.000000000000000
  0
LINE
  5
F10333
330
F10334
100
AcDbEntity
8
Geo
100
AcDbLine
10
-19.3310494362533
20
5.44892546541731
30
0.000000000000000
11
-19.2310494362533
21
5.36206332679811
31
0.000000000000000
  0
LINE
  5
F10335
330
F10336
100
AcDbEntity
8
Geo
100
AcDbLine
10
-19.2310494362533
20
5.36206332679811
30
0.000000000000000
11
-19.1310494362533
21
5.27603896896485
31
0.000000000000000
  0
LINE
  5
F10337
330
F10338
100
AcDbEntity
8
Geo
100
AcDbLine
10
-19.1310494362533
20
5.27603896896485
30
0.000000000000000
11
-19.0310494362533
21
5.19087628701936
31
0.000000000000000
  0
LINE
  5
F10339
330
F1033A
100
AcDbEntity
8
Geo
100
AcDbLine
10
-19.0310494362533
20
5.19087628701936
30
0.000000000000000
11
-18.9310494362533
21
5.10659893671458
31
0.000000000000000
  0
LINE
  5
F1033B
330
F1033C
100
AcDbEntity
8
Geo
100
AcDbLine
10
-29.9310494362533
20
6.46362059170596
30
0.000000000000000
11
-29.8310494362533
21
6.39589549502919
31
0.000000000000000
  0
LINE
  5
F1033D
330
F1033E
100
AcDbEntity
8
Geo
100
AcDbLine
10
-29.8310494362533
20
6.39589549502919
30
0.000000000000000
11
-29.7310494362533
21
6.32477426927947
31
0.000000000000000
  0
LINE
  5
F1033F
330
F10340
100
AcDbEntity
8
Geo
100
AcDbLine
10
-29.7310494362533
20
6.32477426927947
30
0.000000000000000
11
-29.6310494362533
21
6.24116106297226
31
0.000000000000000
  0
LINE
  5
F10341
330
F10342
100
AcDbEntity
8
Geo
100
AcDbLine
10
-29.6310494362533
20
6.24116106297226
30
0.000000000000000
11
-29.5310494362533
21
6.14801983219543
31
0.000000000000000
  0
LINE
  5
F10343
330
F10344
100
AcDbEntity
8
Geo
100
AcDbLine
10
-29.5310494362533
20
6.14801983219543
30
0.000000000000000
11
-29.4310494362533
21
6.05549806600674
31
0.000000000000000
  0
LINE
  5
F10345
330
F10346
100
AcDbEntity
8
Geo
100
AcDbLine
10
-29.4310494362533
20
6.05549806600674
30
0.000000000000000
11
-29.3310494362533
21
5.96362146430188
31
0.000000000000000
  0
LINE
  5
F10347
330
F10348
100
AcDbEntity
8
Geo
100
AcDbLine
10
-29.3310494362533
20
5.96362146430188
30
0.000000000000000
11
-29.2310494362533
21
5.87241554776833
31
0.000000000000000
  0
LINE
  5
F10349
330
F1034A
100
AcDbEntity
8
Geo
100
AcDbLine
10
-29.2310494362533
20
5.87241554776833
30
0.000000000000000
11
-29.1310494362533
21
5.78190565079645
31
0.000000000000000
  0
LINE
  5
F1034B
330
F1034C
100
AcDbEntity
8
Geo
100
AcDbLine
10
-29.1310494362533
20
5.78190565079645
30
0.000000000000000
11
-29.0310494362533
21
5.69211691444233
31
0.000000000000000
  0
LINE
  5
F1034D
330
F1034E
100
AcDbEntity
8
Geo
100
AcDbLine
10
-29.0310494362533
20
5.69211691444233
30
0.000000000000000
11
-28.9310494362533
21
5.60307427944427
31
0.000000000000000
  0
LINE
  5
F1034F
330
F10350
100
AcDbEntity
8
Geo
100
AcDbLine
10
-28.9310494362533
20
5.60307427944427
30
0.000000000000000
11
-28.8310494362533
21
5.51480247929501
31
0.000000000000000
  0
LINE
  5
F10351
330
F10352
100
AcDbEntity
8
Geo
100
AcDbLine
10
-28.8310494362533
20
5.51480247929501
30
0.000000000000000
11
-28.7310494362533
21
5.42732603337145
31
0.000000000000000
  0
LINE
  5
F10353
330
F10354
100
AcDbEntity
8
Geo
100
AcDbLine
10
-28.7310494362533
20
5.42732603337145
30
0.000000000000000
11
-28.6310494362533
21
5.34066924012387
31
0.000000000000000
  0
LINE
  5
F10355
330
F10356
100
AcDbEntity
8
Geo
100
AcDbLine
10
-28.6310494362533
20
5.34066924012387
30
0.000000000000000
11
-28.5310494362533
21
5.25485617032653
31
0.000000000000000
  0
LINE
  5
F10357
330
F10358
100
AcDbEntity
8
Geo
100
AcDbLine
10
-28.5310494362533
20
5.25485617032653
30
0.000000000000000
11
-28.4310494362533
21
5.16991066039148
31
0.000000000000000
  0
LINE
  5
F10359
330
F1035A
100
AcDbEntity
8
Geo
100
AcDbLine
10
-28.4310494362533
20
5.16991066039148
30
0.000000000000000
11
-28.3310494362533
21
5.08585630574751
31
0.000000000000000
  0
LINE
  5
F1035B
330
F1035C
100
AcDbEntity
8
Geo
100
AcDbLine
10
-28.3310494362533
20
5.08585630574751
30
0.000000000000000
11
-28.2310494362533
21
5.00271645428600
31
0.000000000000000
  0
LINE
  5
F1035D
330
F1035E
100
AcDbEntity
8
Geo
100
AcDbLine
10
-28.2310494362533
20
5.00271645428600
30
0.000000000000000
11
-28.1310494362533
21
4.92051419987553
31
0.000000000000000
  0
LINE
  5
F1035F
330
F10360
100
AcDbEntity
8
Geo
100
AcDbLine
10
-28.1310494362533
20
4.92051419987553
30
0.000000000000000
11
-28.0310494362533
21
4.83927237594713
31
0.000000000000000
  0
LINE
  5
F10361
330
F10362
100
AcDbEntity
8
Geo
100
AcDbLine
10
-28.0310494362533
20
4.83927237594713
30
0.000000000000000
11
-27.9310494362533
21
4.75901354915170
31
0.000000000000000
  0
LINE
  5
F10363
330
F10364
100
AcDbEntity
8
Geo
100
AcDbLine
10
-27.9310494362533
20
4.75901354915170
30
0.000000000000000
11
-27.8310494362533
21
4.67976001309174
31
0.000000000000000
  0
LINE
  5
F10365
330
F10366
100
AcDbEntity
8
Geo
100
AcDbLine
10
-27.8310494362533
20
4.67976001309174
30
0.000000000000000
11
-27.7310494362533
21
4.60153378212879
31
0.000000000000000
  0
LINE
  5
F10367
330
F10368
100
AcDbEntity
8
Geo
100
AcDbLine
10
-27.7310494362533
20
4.60153378212879
30
0.000000000000000
11
-27.6310494362533
21
4.52435658526845
31
0.000000000000000
  0
LINE
  5
F10369
330
F1036A
100
AcDbEntity
8
Geo
100
AcDbLine
10
-27.6310494362533
20
4.52435658526845
30
0.000000000000000
11
-27.5310494362533
21
4.44824986012470
31
0.000000000000000
  0
LINE
  5
F1036B
330
F1036C
100
AcDbEntity
8
Geo
100
AcDbLine
10
-27.5310494362533
20
4.44824986012470
30
0.000000000000000
11
-27.4310494362533
21
4.37323474696518
31
0.000000000000000
  0
LINE
  5
F1036D
330
F1036E
100
AcDbEntity
8
Geo
100
AcDbLine
10
-27.4310494362533
20
4.37323474696518
30
0.000000000000000
11
-27.3310494362533
21
4.29933208283897
31
0.000000000000000
  0
LINE
  5
F1036F
330
F10370
100
AcDbEntity
8
Geo
100
AcDbLine
10
-27.3310494362533
20
4.29933208283897
30
0.000000000000000
11
-27.2310494362533
21
4.22656239578868
31
0.000000000000000
  0
LINE
  5
F10371
330
F10372
100
AcDbEntity
8
Geo
100
AcDbLine
10
-27.2310494362533
20
4.22656239578868
30
0.000000000000000
11
-27.1310494362533
21
4.15494589914837
31
0.000000000000000
  0
LINE
  5
F10373
330
F10374
100
AcDbEntity
8
Geo
100
AcDbLine
10
-27.1310494362533
20
4.15494589914837
30
0.000000000000000
11
-27.0310494362533
21
4.08450248592884
31
0.000000000000000
  0
LINE
  5
F10375
330
F10376
100
AcDbEntity
8
Geo
100
AcDbLine
10
-27.0310494362533
20
4.08450248592884
30
0.000000000000000
11
-26.9310494362533
21
4.01525172329191
31
0.000000000000000
  0
LINE
  5
F10377
330
F10378
100
AcDbEntity
8
Geo
100
AcDbLine
10
-26.9310494362533
20
4.01525172329191
30
0.000000000000000
11
-26.8310494362533
21
3.94721284711527
31
0.000000000000000
  0
LINE
  5
F10379
330
F1037A
100
AcDbEntity
8
Geo
100
AcDbLine
10
-26.8310494362533
20
3.94721284711527
30
0.000000000000000
11
-26.7310494362533
21
3.88040475664924
31
0.000000000000000
  0
LINE
  5
F1037B
330
F1037C
100
AcDbEntity
8
Geo
100
AcDbLine
10
-26.7310494362533
20
3.88040475664924
30
0.000000000000000
11
-26.6310494362533
21
3.81484600926717
31
0.000000000000000
  0
LINE
  5
F1037D
330
F1037E
100
AcDbEntity
8
Geo
100
AcDbLine
10
-26.6310494362533
20
3.81484600926717
30
0.000000000000000
11
-26.5310494362533
21
3.75055481531067
31
0.000000000000000
  0
LINE
  5
F1037F
330
F10380
100
AcDbEntity
8
Geo
100
AcDbLine
10
-26.5310494362533
20
3.75055481531067
30
0.000000000000000
11
-26.4310494362533
21
3.68754903303134
31
0.000000000000000
  0
LINE
  5
F10381
330
F10382
100
AcDbEntity
8
Geo
100
AcDbLine
10
-26.4310494362533
20
3.68754903303134
30
0.000000000000000
11
-26.3310494362533
21
3.62584616363024
31
0.000000000000000
  0
LINE
  5
F10383
330
F10384
100
AcDbEntity
8
Geo
100
AcDbLine
10
-26.3310494362533
20
3.62584616363024
30
0.000000000000000
11
-26.2310494362533
21
3.56546334639656
31
0.000000000000000
  0
LINE
  5
F10385
330
F10386
100
AcDbEntity
8
Geo
100
AcDbLine
10
-26.2310494362533
20
3.56546334639656
30
0.000000000000000
11
-26.1310494362533
21
3.50641735394685
31
0.000000000000000
  0
LINE
  5
F10387
330
F10388
100
AcDbEntity
8
Geo
100
AcDbLine
10
-26.1310494362533
20
3.50641735394685
30
0.000000000000000
11
-26.0310494362533
21
3.44872458756599
31
0.000000000000000
  0
LINE
  5
F10389
330
F1038A
100
AcDbEntity
8
Geo
100
AcDbLine
10
-26.0310494362533
20
3.44872458756599
30
0.000000000000000
11
-25.9310494362533
21
3.39240107265147
31
0.000000000000000
  0
LINE
  5
F1038B
330
F1038C
100
AcDbEntity
8
Geo
100
AcDbLine
10
-25.9310494362533
20
3.39240107265147
30
0.000000000000000
11
-25.8310494362533
21
3.33746245426193
31
0.000000000000000
  0
LINE
  5
F1038D
330
F1038E
100
AcDbEntity
8
Geo
100
AcDbLine
10
-25.8310494362533
20
3.33746245426193
30
0.000000000000000
11
-25.7310494362533
21
3.28392399277145
31
0.000000000000000
  0
LINE
  5
F1038F
330
F10390
100
AcDbEntity
8
Geo
100
AcDbLine
10
-25.7310494362533
20
3.28392399277145
30
0.000000000000000
11
-25.6310494362533
21
3.23180055963065
31
0.000000000000000
  0
LINE
  5
F10391
330
F10392
100
AcDbEntity
8
Geo
100
AcDbLine
10
-25.6310494362533
20
3.23180055963065
30
0.000000000000000
11
-25.5310494362533
21
3.18110663323579
31
0.000000000000000
  0
LINE
  5
F10393
330
F10394
100
AcDbEntity
8
Geo
100
AcDbLine
10
-25.5310494362533
20
3.18110663323579
30
0.000000000000000
11
-25.4310494362533
21
3.13185629490713
31
0.000000000000000
  0
LINE
  5
F10395
330
F10396
100
AcDbEntity
8
Geo
100
AcDbLine
10
-25.4310494362533
20
3.13185629490713
30
0.000000000000000
11
-25.3310494362533
21
3.08406322497753
31
0.000000000000000
  0
LINE
  5
F10397
330
F10398
100
AcDbEntity
8
Geo
100
AcDbLine
10
-25.3310494362533
20
3.08406322497753
30
0.000000000000000
11
-25.2310494362533
21
3.03774069899244
31
0.000000000000000
  0
LINE
  5
F10399
330
F1039A
100
AcDbEntity
8
Geo
100
AcDbLine
10
-25.2310494362533
20
3.03774069899244
30
0.000000000000000
11
-25.1310494362533
21
2.99290158402234
31
0.000000000000000
  0
LINE
  5
F1039B
330
F1039C
100
AcDbEntity
8
Geo
100
AcDbLine
10
-25.1310494362533
20
2.99290158402234
30
0.000000000000000
11
-25.0310494362533
21
2.94955833508863
31
0.000000000000000
  0
LINE
  5
F1039D
330
F1039E
100
AcDbEntity
8
Geo
100
AcDbLine
10
-25.0310494362533
20
2.94955833508863
30
0.000000000000000
11
-24.9310494362533
21
2.90772299170398
31
0.000000000000000
  0
LINE
  5
F1039F
330
F103A0
100
AcDbEntity
8
Geo
100
AcDbLine
10
-24.9310494362533
20
2.90772299170398
30
0.000000000000000
11
-24.8310494362533
21
2.86740717452810
31
0.000000000000000
  0
LINE
  5
F103A1
330
F103A2
100
AcDbEntity
8
Geo
100
AcDbLine
10
-24.8310494362533
20
2.86740717452810
30
0.000000000000000
11
-24.7310494362533
21
2.82862208213988
31
0.000000000000000
  0
LINE
  5
F103A3
330
F103A4
100
AcDbEntity
8
Geo
100
AcDbLine
10
-24.7310494362533
20
2.82862208213988
30
0.000000000000000
11
-24.6310494362533
21
2.79137848792669
31
0.000000000000000
  0
LINE
  5
F103A5
330
F103A6
100
AcDbEntity
8
Geo
100
AcDbLine
10
-24.6310494362533
20
2.79137848792669
30
0.000000000000000
11
-24.5310494362533
21
2.75568673709191
31
0.000000000000000
  0
LINE
  5
F103A7
330
F103A8
100
AcDbEntity
8
Geo
100
AcDbLine
10
-24.5310494362533
20
2.75568673709191
30
0.000000000000000
11
-24.4310494362533
21
2.72155674378126
31
0.000000000000000
  0
LINE
  5
F103A9
330
F103AA
100
AcDbEntity
8
Geo
100
AcDbLine
10
-24.4310494362533
20
2.72155674378126
30
0.000000000000000
11
-24.3310494362533
21
2.68899798832899
31
0.000000000000000
  0
LINE
  5
F103AB
330
F103AC
100
AcDbEntity
8
Geo
100
AcDbLine
10
-24.3310494362533
20
2.68899798832899
30
0.000000000000000
11
-24.2310494362533
21
2.65801951462448
31
0.000000000000000
  0
LINE
  5
F103AD
330
F103AE
100
AcDbEntity
8
Geo
100
AcDbLine
10
-24.2310494362533
20
2.65801951462448
30
0.000000000000000
11
-24.1310494362533
21
2.62862992760012
31
0.000000000000000
  0
LINE
  5
F103AF
330
F103B0
100
AcDbEntity
8
Geo
100
AcDbLine
10
-24.1310494362533
20
2.62862992760012
30
0.000000000000000
11
-24.0310494362533
21
2.60083739084112
31
0.000000000000000
  0
LINE
  5
F103B1
330
F103B2
100
AcDbEntity
8
Geo
100
AcDbLine
10
-24.0310494362533
20
2.60083739084112
30
0.000000000000000
11
-23.9310494362533
21
2.57464962431787
31
0.000000000000000
  0
LINE
  5
F103B3
330
F103B4
100
AcDbEntity
8
Geo
100
AcDbLine
10
-23.9310494362533
20
2.57464962431787
30
0.000000000000000
11
-23.8310494362533
21
2.55007390224157
31
0.000000000000000
  0
LINE
  5
F103B5
330
F103B6
100
AcDbEntity
8
Geo
100
AcDbLine
10
-23.8310494362533
20
2.55007390224157
30
0.000000000000000
11
-23.7310494362533
21
2.52711705104366
31
0.000000000000000
  0
LINE
  5
F103B7
330
F103B8
100
AcDbEntity
8
Geo
100
AcDbLine
10
-23.7310494362533
20
2.52711705104366
30
0.000000000000000
11
-23.6310494362533
21
2.50578544747965
31
0.000000000000000
  0
LINE
  5
F103B9
330
F103BA
100
AcDbEntity
8
Geo
100
AcDbLine
10
-23.6310494362533
20
2.50578544747965
30
0.000000000000000
11
-23.5310494362533
21
2.48608501685781
31
0.000000000000000
  0
LINE
  5
F103BB
330
F103BC
100
AcDbEntity
8
Geo
100
AcDbLine
10
-23.5310494362533
20
2.48608501685781
30
0.000000000000000
11
-23.4310494362533
21
2.46802123139330
31
0.000000000000000
  0
LINE
  5
F103BD
330
F103BE
100
AcDbEntity
8
Geo
100
AcDbLine
10
-23.4310494362533
20
2.46802123139330
30
0.000000000000000
11
-23.3310494362533
21
2.45159910868815
31
0.000000000000000
  0
LINE
  5
F103BF
330
F103C0
100
AcDbEntity
8
Geo
100
AcDbLine
10
-23.3310494362533
20
2.45159910868815
30
0.000000000000000
11
-23.2310494362533
21
2.43682321033754
31
0.000000000000000
  0
LINE
  5
F103C1
330
F103C2
100
AcDbEntity
8
Geo
100
AcDbLine
10
-23.2310494362533
20
2.43682321033754
30
0.000000000000000
11
-23.1310494362533
21
2.42369764066264
31
0.000000000000000
  0
LINE
  5
F103C3
330
F103C4
100
AcDbEntity
8
Geo
100
AcDbLine
10
-23.1310494362533
20
2.42369764066264
30
0.000000000000000
11
-23.0310494362533
21
2.41222604557065
31
0.000000000000000
  0
LINE
  5
F103C5
330
F103C6
100
AcDbEntity
8
Geo
100
AcDbLine
10
-23.0310494362533
20
2.41222604557065
30
0.000000000000000
11
-22.9310494362533
21
2.40241161154200
31
0.000000000000000
  0
LINE
  5
F103C7
330
F103C8
100
AcDbEntity
8
Geo
100
AcDbLine
10
-22.9310494362533
20
2.40241161154200
30
0.000000000000000
11
-22.8310494362533
21
2.39425706474524
31
0.000000000000000
  0
LINE
  5
F103C9
330
F103CA
100
AcDbEntity
8
Geo
100
AcDbLine
10
-22.8310494362533
20
2.39425706474524
30
0.000000000000000
11
-22.7310494362533
21
2.38776467027984
31
0.000000000000000
  0
LINE
  5
F103CB
330
F103CC
100
AcDbEntity
8
Geo
100
AcDbLine
10
-22.7310494362533
20
2.38776467027984
30
0.000000000000000
11
-22.6310494362533
21
2.38293623154696
31
0.000000000000000
  0
LINE
  5
F103CD
330
F103CE
100
AcDbEntity
8
Geo
100
AcDbLine
10
-22.6310494362533
20
2.38293623154696
30
0.000000000000000
11
-22.5310494362533
21
2.37977308974854
31
0.000000000000000
  0
LINE
  5
F103CF
330
F103D0
100
AcDbEntity
8
Geo
100
AcDbLine
10
-22.5310494362533
20
2.37977308974854
30
0.000000000000000
11
-22.4310494362533
21
2.37827612351472
31
0.000000000000000
  0
LINE
  5
F103D1
330
F103D2
100
AcDbEntity
8
Geo
100
AcDbLine
10
-22.4310494362533
20
2.37827612351472
30
0.000000000000000
11
-22.3912268418046
21
2.37814397224632
31
0.000000000000000
  0
LINE
  5
F103D3
330
F103D4
100
AcDbEntity
8
Geo
100
AcDbLine
10
-18.9310494362533
20
6.82095521453334
30
0.000000000000000
11
-18.8310494362533
21
6.72460249129926
31
0.000000000000000
  0
LINE
  5
F103D5
330
F103D6
100
AcDbEntity
8
Geo
100
AcDbLine
10
-18.8310494362533
20
6.72460249129926
30
0.000000000000000
11
-18.7310494362533
21
6.62870907451099
31
0.000000000000000
  0
LINE
  5
F103D7
330
F103D8
100
AcDbEntity
8
Geo
100
AcDbLine
10
-18.7310494362533
20
6.62870907451099
30
0.000000000000000
11
-18.6310494362533
21
6.53330160061214
31
0.000000000000000
  0
LINE
  5
F103D9
330
F103DA
100
AcDbEntity
8
Geo
100
AcDbLine
10
-18.6310494362533
20
6.53330160061214
30
0.000000000000000
11
-18.5310494362533
21
6.43840657106551
31
0.000000000000000
  0
LINE
  5
F103DB
330
F103DC
100
AcDbEntity
8
Geo
100
AcDbLine
10
-18.5310494362533
20
6.43840657106551
30
0.000000000000000
11
-18.4310494362533
21
6.34405034499357
31
0.000000000000000
  0
LINE
  5
F103DD
330
F103DE
100
AcDbEntity
8
Geo
100
AcDbLine
10
-18.4310494362533
20
6.34405034499357
30
0.000000000000000
11
-18.3310494362533
21
6.25025913186919
31
0.000000000000000
  0
LINE
  5
F103DF
330
F103E0
100
AcDbEntity
8
Geo
100
AcDbLine
10
-18.3310494362533
20
6.25025913186919
30
0.000000000000000
11
-18.2310494362533
21
6.15705898429349
31
0.000000000000000
  0
LINE
  5
F103E1
330
F103E2
100
AcDbEntity
8
Geo
100
AcDbLine
10
-18.2310494362533
20
6.15705898429349
30
0.000000000000000
11
-18.1310494362533
21
6.06447579096696
31
0.000000000000000
  0
LINE
  5
F103E3
330
F103E4
100
AcDbEntity
8
Geo
100
AcDbLine
10
-18.1310494362533
20
6.06447579096696
30
0.000000000000000
11
-18.0310494362533
21
5.97253527011354
31
0.000000000000000
  0
LINE
  5
F103E5
330
F103E6
100
AcDbEntity
8
Geo
100
AcDbLine
10
-18.0310494362533
20
5.97253527011354
30
0.000000000000000
11
-17.9310494362533
21
5.88126296391544
31
0.000000000000000
  0
LINE
  5
F103E7
330
F103E8
100
AcDbEntity
8
Geo
100
AcDbLine
10
-17.9310494362533
20
5.88126296391544
30
0.000000000000000
11
-17.8310494362533
21
5.79068423504076
31
0.000000000000000
  0
LINE
  5
F103E9
330
F103EA
100
AcDbEntity
8
Geo
100
AcDbLine
10
-17.8310494362533
20
5.79068423504076
30
0.000000000000000
11
-17.7310494362533
21
5.70082426720120
31
0.000000000000000
  0
LINE
  5
F103EB
330
F103EC
100
AcDbEntity
8
Geo
100
AcDbLine
10
-17.7310494362533
20
5.70082426720120
30
0.000000000000000
11
-17.6310494362533
21
5.61170807299040
31
0.000000000000000
  0
LINE
  5
F103ED
330
F103EE
100
AcDbEntity
8
Geo
100
AcDbLine
10
-17.6310494362533
20
5.61170807299040
30
0.000000000000000
11
-17.5310494362533
21
5.52336051417319
31
0.000000000000000
  0
LINE
  5
F103EF
330
F103F0
100
AcDbEntity
8
Geo
100
AcDbLine
10
-17.5310494362533
20
5.52336051417319
30
0.000000000000000
11
-17.4310494362533
21
5.43580634229098
31
0.000000000000000
  0
LINE
  5
F103F1
330
F103F2
100
AcDbEntity
8
Geo
100
AcDbLine
10
-17.4310494362533
20
5.43580634229098
30
0.000000000000000
11
-17.3310494362533
21
5.34907027110103
31
0.000000000000000
  0
LINE
  5
F103F3
330
F103F4
100
AcDbEntity
8
Geo
100
AcDbLine
10
-17.3310494362533
20
5.34907027110103
30
0.000000000000000
11
-17.2310494362533
21
5.26317709717061
31
0.000000000000000
  0
LINE
  5
F103F5
330
F103F6
100
AcDbEntity
8
Geo
100
AcDbLine
10
-17.2310494362533
20
5.26317709717061
30
0.000000000000000
11
-17.1310494362533
21
5.17815189109709
31
0.000000000000000
  0
LINE
  5
F103F7
330
F103F8
100
AcDbEntity
8
Geo
100
AcDbLine
10
-17.1310494362533
20
5.17815189109709
30
0.000000000000000
11
-17.0310494362533
21
5.09402028951276
31
0.000000000000000
  0
LINE
  5
F103F9
330
F103FA
100
AcDbEntity
8
Geo
100
AcDbLine
10
-17.0310494362533
20
5.09402028951276
30
0.000000000000000
11
-16.9310494362533
21
5.01080892743458
31
0.000000000000000
  0
LINE
  5
F103FB
330
F103FC
100
AcDbEntity
8
Geo
100
AcDbLine
10
-16.9310494362533
20
5.01080892743458
30
0.000000000000000
11
-16.8310494362533
21
4.92854606178659
31
0.000000000000000
  0
LINE
  5
F103FD
330
F103FE
100
AcDbEntity
8
Geo
100
AcDbLine
10
-16.8310494362533
20
4.92854606178659
30
0.000000000000000
11
-16.7310494362533
21
4.84726245017370
31
0.000000000000000
  0
LINE
  5
F103FF
330
F10400
100
AcDbEntity
8
Geo
100
AcDbLine
10
-16.7310494362533
20
4.84726245017370
30
0.000000000000000
11
-16.6310494362533
21
4.76699256429817
31
0.000000000000000
  0
LINE
  5
F10401
330
F10402
100
AcDbEntity
8
Geo
100
AcDbLine
10
-16.6310494362533
20
4.76699256429817
30
0.000000000000000
11
-16.5310494362533
21
4.68777623481956
31
0.000000000000000
  0
LINE
  5
F10403
330
F10404
100
AcDbEntity
8
Geo
100
AcDbLine
10
-16.5310494362533
20
4.68777623481956
30
0.000000000000000
11
-16.4310494362533
21
4.60966084397689
31
0.000000000000000
  0
LINE
  5
F10405
330
F10406
100
AcDbEntity
8
Geo
100
AcDbLine
10
-16.4310494362533
20
4.60966084397689
30
0.000000000000000
11
-16.3310494362533
21
4.53270420393844
31
0.000000000000000
  0
LINE
  5
F10407
330
F10408
100
AcDbEntity
8
Geo
100
AcDbLine
10
-16.3310494362533
20
4.53270420393844
30
0.000000000000000
11
-16.2310494362533
21
4.45697828274636
31
0.000000000000000
  0
LINE
  5
F10409
330
F1040A
100
AcDbEntity
8
Geo
100
AcDbLine
10
-16.2310494362533
20
4.45697828274636
30
0.000000000000000
11
-16.1310494362533
21
4.38257396627099
31
0.000000000000000
  0
LINE
  5
F1040B
330
F1040C
100
AcDbEntity
8
Geo
100
AcDbLine
10
-16.1310494362533
20
4.38257396627099
30
0.000000000000000
11
-16.0310494362533
21
4.30960707475362
31
0.000000000000000
  0
LINE
  5
F1040D
330
F1040E
100
AcDbEntity
8
Geo
100
AcDbLine
10
-16.0310494362533
20
4.30960707475362
30
0.000000000000000
11
-15.9310494362533
21
4.23822588836581
31
0.000000000000000
  0
LINE
  5
F1040F
330
F10410
100
AcDbEntity
8
Geo
100
AcDbLine
10
-15.9310494362533
20
4.23822588836581
30
0.000000000000000
11
-15.8310494362533
21
4.16862048180094
31
0.000000000000000
  0
LINE
  5
F10411
330
F10412
100
AcDbEntity
8
Geo
100
AcDbLine
10
-15.8310494362533
20
4.16862048180094
30
0.000000000000000
11
-15.7310494362533
21
4.10103423069389
31
0.000000000000000
  0
LINE
  5
F10413
330
F10414
100
AcDbEntity
8
Geo
100
AcDbLine
10
-15.7310494362533
20
4.10103423069389
30
0.000000000000000
11
-15.6310494362533
21
4.03577794574077
31
0.000000000000000
  0
LINE
  5
F10415
330
F10416
100
AcDbEntity
8
Geo
100
AcDbLine
10
-15.6310494362533
20
4.03577794574077
30
0.000000000000000
11
-15.5310494362533
21
3.97324723596448
31
0.000000000000000
  0
LINE
  5
F10417
330
F10418
100
AcDbEntity
8
Geo
100
AcDbLine
10
-15.5310494362533
20
3.97324723596448
30
0.000000000000000
11
-15.4310494362533
21
3.91394393712067
31
0.000000000000000
  0
LINE
  5
F10419
330
F1041A
100
AcDbEntity
8
Geo
100
AcDbLine
10
-15.4310494362533
20
3.91394393712067
30
0.000000000000000
11
-15.3310494362533
21
3.85850282306937
31
0.000000000000000
  0
LINE
  5
F1041B
330
F1041C
100
AcDbEntity
8
Geo
100
AcDbLine
10
-15.3310494362533
20
3.85850282306937
30
0.000000000000000
11
-15.2310494362533
21
3.80772543785796
31
0.000000000000000
  0
LINE
  5
F1041D
330
F1041E
100
AcDbEntity
8
Geo
100
AcDbLine
10
-15.2310494362533
20
3.80772543785796
30
0.000000000000000
11
-15.1310494362533
21
3.76262388206547
31
0.000000000000000
  0
LINE
  5
F1041F
330
F10420
100
AcDbEntity
8
Geo
100
AcDbLine
10
-15.1310494362533
20
3.76262388206547
30
0.000000000000000
11
-15.0310494362533
21
3.72447896196059
31
0.000000000000000
  0
LINE
  5
F10421
330
F10422
100
AcDbEntity
8
Geo
100
AcDbLine
10
-15.0310494362533
20
3.72447896196059
30
0.000000000000000
11
-14.9310494362533
21
3.69491955454022
31
0.000000000000000
  0
LINE
  5
F10423
330
F10424
100
AcDbEntity
8
Geo
100
AcDbLine
10
-14.9310494362533
20
3.69491955454022
30
0.000000000000000
11
-14.8310494362533
21
3.67603375282063
31
0.000000000000000
  0
LINE
  5
F10425
330
F10426
100
AcDbEntity
8
Geo
100
AcDbLine
10
-14.8310494362533
20
3.67603375282063
30
0.000000000000000
11
-14.7310494362533
21
3.67052784430436
31
0.000000000000000
  0
LINE
  5
F10427
330
F10428
100
AcDbEntity
8
Geo
100
AcDbLine
10
-14.7310494362533
20
3.67052784430436
30
0.000000000000000
11
-14.6310494362533
21
3.68195702789668
31
0.000000000000000
  0
LINE
  5
F10429
330
F1042A
100
AcDbEntity
8
Geo
100
AcDbLine
10
-14.6310494362533
20
3.68195702789668
30
0.000000000000000
11
-14.5310494362533
21
3.71506250559706
31
0.000000000000000
  0
LINE
  5
F1042B
330
F1042C
100
AcDbEntity
8
Geo
100
AcDbLine
10
-14.5310494362533
20
3.71506250559706
30
0.000000000000000
11
-14.4310494362533
21
3.77626323105728
31
0.000000000000000
  0
LINE
  5
F1042D
330
F1042E
100
AcDbEntity
8
Geo
100
AcDbLine
10
-14.4310494362533
20
3.77626323105728
30
0.000000000000000
11
-14.3310494362533
21
3.87436572758308
31
0.000000000000000
  0
LINE
  5
F1042F
330
F10430
100
AcDbEntity
8
Geo
100
AcDbLine
10
-14.3310494362533
20
3.87436572758308
30
0.000000000000000
11
-14.2310494362533
21
4.02156686887569
31
0.000000000000000
  0
LINE
  5
F10431
330
F10432
100
AcDbEntity
8
Geo
100
AcDbLine
10
-14.2310494362533
20
4.02156686887569
30
0.000000000000000
11
-14.1310494362533
21
4.23481866304570
31
0.000000000000000
  0
LINE
  5
F10433
330
F10434
100
AcDbEntity
8
Geo
100
AcDbLine
10
-14.1310494362533
20
4.23481866304570
30
0.000000000000000
11
-14.0310494362533
21
4.53756863542891
31
0.000000000000000
  0
LINE
  5
F10435
330
F10436
100
AcDbEntity
8
Geo
100
AcDbLine
10
-14.0310494362533
20
4.53756863542891
30
0.000000000000000
11
-13.9310494362533
21
4.96171394140137
31
0.000000000000000
  0
LINE
  5
F10437
330
F10438
100
AcDbEntity
8
Geo
100
AcDbLine
10
-13.9310494362533
20
4.96171394140137
30
0.000000000000000
11
-13.9310494362533
21
5.08674313282680
31
0.000000000000000
  0
LINE
  5
F10439
330
F1043A
100
AcDbEntity
8
Geo
100
AcDbLine
10
-13.9310494362533
20
5.08674313282680
30
0.000000000000000
11
-14.0310494362533
21
5.61095961991749
31
0.000000000000000
  0
LINE
  5
F1043B
330
F1043C
100
AcDbEntity
8
Geo
100
AcDbLine
10
-14.0310494362533
20
5.61095961991749
30
0.000000000000000
11
-14.1310494362533
21
6.11784554035672
31
0.000000000000000
  0
LINE
  5
F1043D
330
F1043E
100
AcDbEntity
8
Geo
100
AcDbLine
10
-14.1310494362533
20
6.11784554035672
30
0.000000000000000
11
-14.2310494362533
21
6.60093235831501
31
0.000000000000000
  0
LINE
  5
F1043F
330
F10440
100
AcDbEntity
8
Geo
100
AcDbLine
10
-14.2310494362533
20
6.60093235831501
30
0.000000000000000
11
-14.3310494362533
21
7.05630994214024
31
0.000000000000000
  0
LINE
  5
F10441
330
F10442
100
AcDbEntity
8
Geo
100
AcDbLine
10
-14.3310494362533
20
7.05630994214024
30
0.000000000000000
11
-14.4310494362533
21
7.48199729835894
31
0.000000000000000
  0
LINE
  5
F10443
330
F10444
100
AcDbEntity
8
Geo
100
AcDbLine
10
-14.4310494362533
20
7.48199729835894
30
0.000000000000000
11
-14.5310494362533
21
7.87742797427205
31
0.000000000000000
  0
LINE
  5
F10445
330
F10446
100
AcDbEntity
8
Geo
100
AcDbLine
10
-14.5310494362533
20
7.87742797427205
30
0.000000000000000
11
-14.6310494362533
21
8.24304031855799
31
0.000000000000000
  0
LINE
  5
F10447
330
F10448
100
AcDbEntity
8
Geo
100
AcDbLine
10
-14.6310494362533
20
8.24304031855799
30
0.000000000000000
11
-14.7310494362533
21
8.57995862136500
31
0.000000000000000
  0
LINE
  5
F10449
330
F1044A
100
AcDbEntity
8
Geo
100
AcDbLine
10
-14.7310494362533
20
8.57995862136500
30
0.000000000000000
11
-14.8310494362533
21
8.88975010123159
31
0.000000000000000
  0
LINE
  5
F1044B
330
F1044C
100
AcDbEntity
8
Geo
100
AcDbLine
10
-14.8310494362533
20
8.88975010123159
30
0.000000000000000
11
-14.9310494362533
21
9.17424340769199
31
0.000000000000000
  0
LINE
  5
F1044D
330
F1044E
100
AcDbEntity
8
Geo
100
AcDbLine
10
-14.9310494362533
20
9.17424340769199
30
0.000000000000000
11
-15.0310494362533
21
9.43539588252118
31
0.000000000000000
  0
LINE
  5
F1044F
330
F10450
100
AcDbEntity
8
Geo
100
AcDbLine
10
-15.0310494362533
20
9.43539588252118
30
0.000000000000000
11
-15.1310494362533
21
9.67519872371870
31
0.000000000000000
  0
LINE
  5
F10451
330
F10452
100
AcDbEntity
8
Geo
100
AcDbLine
10
-15.1310494362533
20
9.67519872371870
30
0.000000000000000
11
-15.2310494362533
21
9.89561110830191
31
0.000000000000000
  0
LINE
  5
F10453
330
F10454
100
AcDbEntity
8
Geo
100
AcDbLine
10
-15.2310494362533
20
9.89561110830191
30
0.000000000000000
11
-15.3310494362533
21
10.0985160859133
31
0.000000000000000
  0
LINE
  5
F10455
330
F10456
100
AcDbEntity
8
Geo
100
AcDbLine
10
-15.3310494362533
20
10.0985160859133
30
0.000000000000000
11
-15.4310494362533
21
10.2856925813453
31
0.000000000000000
  0
LINE
  5
F10457
330
F10458
100
AcDbEntity
8
Geo
100
AcDbLine
10
-15.4310494362533
20
10.2856925813453
30
0.000000000000000
11
-15.5310494362533
21
10.4587991215426
31
0.000000000000000
  0
LINE
  5
F10459
330
F1045A
100
AcDbEntity
8
Geo
100
AcDbLine
10
-15.5310494362533
20
10.4587991215426
30
0.000000000000000
11
-15.6310494362533
21
10.6193659428295
31
0.000000000000000
  0
LINE
  5
F1045B
330
F1045C
100
AcDbEntity
8
Geo
100
AcDbLine
10
-15.6310494362533
20
10.6193659428295
30
0.000000000000000
11
-15.7310494362533
21
10.7687929630387
31
0.000000000000000
  0
LINE
  5
F1045D
330
F1045E
100
AcDbEntity
8
Geo
100
AcDbLine
10
-15.7310494362533
20
10.7687929630387
30
0.000000000000000
11
-15.8310494362533
21
10.9083517522159
31
0.000000000000000
  0
LINE
  5
F1045F
330
F10460
100
AcDbEntity
8
Geo
100
AcDbLine
10
-15.8310494362533
20
10.9083517522159
30
0.000000000000000
11
-15.9310494362533
21
11.0391901360415
31
0.000000000000000
  0
LINE
  5
F10461
330
F10462
100
AcDbEntity
8
Geo
100
AcDbLine
10
-15.9310494362533
20
11.0391901360415
30
0.000000000000000
11
-16.0310494362533
21
11.1623384467982
31
0.000000000000000
  0
LINE
  5
F10463
330
F10464
100
AcDbEntity
8
Geo
100
AcDbLine
10
-16.0310494362533
20
11.1623384467982
30
0.000000000000000
11
-16.1310494362533
21
11.2787167226050
31
0.000000000000000
  0
LINE
  5
F10465
330
F10466
100
AcDbEntity
8
Geo
100
AcDbLine
10
-16.1310494362533
20
11.2787167226050
30
0.000000000000000
11
-16.2310494362533
21
11.3891423676355
31
0.000000000000000
  0
LINE
  5
F10467
330
F10468
100
AcDbEntity
8
Geo
100
AcDbLine
10
-16.2310494362533
20
11.3891423676355
30
0.000000000000000
11
-16.3310494362533
21
11.4943379412190
31
0.000000000000000
  0
LINE
  5
F10469
330
F1046A
100
AcDbEntity
8
Geo
100
AcDbLine
10
-16.3310494362533
20
11.4943379412190
30
0.000000000000000
11
-16.4310494362533
21
11.5949388557381
31
0.000000000000000
  0
LINE
  5
F1046B
330
F1046C
100
AcDbEntity
8
Geo
100
AcDbLine
10
-16.4310494362533
20
11.5949388557381
30
0.000000000000000
11
-16.5310494362533
21
11.6915008428403
31
0.000000000000000
  0
LINE
  5
F1046D
330
F1046E
100
AcDbEntity
8
Geo
100
AcDbLine
10
-16.5310494362533
20
11.6915008428403
30
0.000000000000000
11
-16.6310494362533
21
11.7845071030368
31
0.000000000000000
  0
LINE
  5
F1046F
330
F10470
100
AcDbEntity
8
Geo
100
AcDbLine
10
-16.6310494362533
20
11.7845071030368
30
0.000000000000000
11
-16.7310494362533
21
11.8743750916767
31
0.000000000000000
  0
LINE
  5
F10471
330
F10472
100
AcDbEntity
8
Geo
100
AcDbLine
10
-16.7310494362533
20
11.8743750916767
30
0.000000000000000
11
-16.8310494362533
21
11.9614629194534
31
0.000000000000000
  0
LINE
  5
F10473
330
F10474
100
AcDbEntity
8
Geo
100
AcDbLine
10
-16.8310494362533
20
11.9614629194534
30
0.000000000000000
11
-16.9310494362533
21
12.0460753616864
31
0.000000000000000
  0
LINE
  5
F10475
330
F10476
100
AcDbEntity
8
Geo
100
AcDbLine
10
-16.9310494362533
20
12.0460753616864
30
0.000000000000000
11
-17.0310494362533
21
12.1284694803680
31
0.000000000000000
  0
LINE
  5
F10477
330
F10478
100
AcDbEntity
8
Geo
100
AcDbLine
10
-17.0310494362533
20
12.1284694803680
30
0.000000000000000
11
-17.1310494362533
21
12.2088598683932
31
0.000000000000000
  0
LINE
  5
F10479
330
F1047A
100
AcDbEntity
8
Geo
100
AcDbLine
10
-17.1310494362533
20
12.2088598683932
30
0.000000000000000
11
-17.2310494362533
21
12.2874235279695
31
0.000000000000000
  0
LINE
  5
F1047B
330
F1047C
100
AcDbEntity
8
Geo
100
AcDbLine
10
-17.2310494362533
20
12.2874235279695
30
0.000000000000000
11
-17.3310494362533
21
12.3643043960038
31
0.000000000000000
  0
LINE
  5
F1047D
330
F1047E
100
AcDbEntity
8
Geo
100
AcDbLine
10
-17.3310494362533
20
12.3643043960038
30
0.000000000000000
11
-17.4310494362533
21
12.4396175290260
31
0.000000000000000
  0
LINE
  5
F1047F
330
F10480
100
AcDbEntity
8
Geo
100
AcDbLine
10
-17.4310494362533
20
12.4396175290260
30
0.000000000000000
11
-17.5310494362533
21
12.5134529594658
31
0.000000000000000
  0
LINE
  5
F10481
330
F10482
100
AcDbEntity
8
Geo
100
AcDbLine
10
-17.5310494362533
20
12.5134529594658
30
0.000000000000000
11
-17.6310494362533
21
12.5858792341938
31
0.000000000000000
  0
LINE
  5
F10483
330
F10484
100
AcDbEntity
8
Geo
100
AcDbLine
10
-17.6310494362533
20
12.5858792341938
30
0.000000000000000
11
-17.7310494362533
21
12.6569466454001
31
0.000000000000000
  0
LINE
  5
F10485
330
F10486
100
AcDbEntity
8
Geo
100
AcDbLine
10
-17.7310494362533
20
12.6569466454001
30
0.000000000000000
11
-17.8310494362533
21
12.7266901632470
31
0.000000000000000
  0
LINE
  5
F10487
330
F10488
100
AcDbEntity
8
Geo
100
AcDbLine
10
-17.8310494362533
20
12.7266901632470
30
0.000000000000000
11
-17.9310494362533
21
12.7951320793693
31
0.000000000000000
  0
LINE
  5
F10489
330
F1048A
100
AcDbEntity
8
Geo
100
AcDbLine
10
-17.9310494362533
20
12.7951320793693
30
0.000000000000000
11
-18.0310494362533
21
12.8622843702205
31
0.000000000000000
  0
LINE
  5
F1048B
330
F1048C
100
AcDbEntity
8
Geo
100
AcDbLine
10
-18.0310494362533
20
12.8622843702205
30
0.000000000000000
11
-18.1310494362533
21
12.9281507894849
31
0.000000000000000
  0
LINE
  5
F1048D
330
F1048E
100
AcDbEntity
8
Geo
100
AcDbLine
10
-18.1310494362533
20
12.9281507894849
30
0.000000000000000
11
-18.2310494362533
21
12.9927286992452
31
0.000000000000000
  0
LINE
  5
F1048F
330
F10490
100
AcDbEntity
8
Geo
100
AcDbLine
10
-18.2310494362533
20
12.9927286992452
30
0.000000000000000
11
-18.3310494362533
21
13.0560106502897
31
0.000000000000000
  0
LINE
  5
F10491
330
F10492
100
AcDbEntity
8
Geo
100
AcDbLine
10
-18.3310494362533
20
13.0560106502897
30
0.000000000000000
11
-18.4310494362533
21
13.1179857228053
31
0.000000000000000
  0
LINE
  5
F10493
330
F10494
100
AcDbEntity
8
Geo
100
AcDbLine
10
-18.4310494362533
20
13.1179857228053
30
0.000000000000000
11
-18.5310494362533
21
13.1786406396925
31
0.000000000000000
  0
LINE
  5
F10495
330
F10496
100
AcDbEntity
8
Geo
100
AcDbLine
10
-18.5310494362533
20
13.1786406396925
30
0.000000000000000
11
-18.6310494362533
21
13.2379606657994
31
0.000000000000000
  0
LINE
  5
F10497
330
F10498
100
AcDbEntity
8
Geo
100
AcDbLine
10
-18.6310494362533
20
13.2379606657994
30
0.000000000000000
11
-18.7310494362533
21
13.2959303074853
31
0.000000000000000
  0
LINE
  5
F10499
330
F1049A
100
AcDbEntity
8
Geo
100
AcDbLine
10
-18.7310494362533
20
13.2959303074853
30
0.000000000000000
11
-18.8310494362533
21
13.3525338280262
31
0.000000000000000
  0
LINE
  5
F1049B
330
F1049C
100
AcDbEntity
8
Geo
100
AcDbLine
10
-18.8310494362533
20
13.3525338280262
30
0.000000000000000
11
-18.9310494362533
21
13.4077555954721
31
0.000000000000000
  0
LINE
  5
F1049D
330
F1049E
100
AcDbEntity
8
Geo
100
AcDbLine
10
-14.6711492624019
20
2.37814397224632
30
0.000000000000000
11
-14.7310494362533
21
2.38153902883033
31
0.000000000000000
  0
LINE
  5
F1049F
330
F104A0
100
AcDbEntity
8
Geo
100
AcDbLine
10
-14.7310494362533
20
2.38153902883033
30
0.000000000000000
11
-14.8310494362533
21
2.39999549894920
31
0.000000000000000
  0
LINE
  5
F104A1
330
F104A2
100
AcDbEntity
8
Geo
100
AcDbLine
10
-14.8310494362533
20
2.39999549894920
30
0.000000000000000
11
-14.9310494362533
21
2.43119301491675
31
0.000000000000000
  0
LINE
  5
F104A3
330
F104A4
100
AcDbEntity
8
Geo
100
AcDbLine
10
-14.9310494362533
20
2.43119301491675
30
0.000000000000000
11
-15.0310494362533
21
2.47202694003131
31
0.000000000000000
  0
LINE
  5
F104A5
330
F104A6
100
AcDbEntity
8
Geo
100
AcDbLine
10
-15.0310494362533
20
2.47202694003131
30
0.000000000000000
11
-15.1310494362533
21
2.52001722629050
31
0.000000000000000
  0
LINE
  5
F104A7
330
F104A8
100
AcDbEntity
8
Geo
100
AcDbLine
10
-15.1310494362533
20
2.52001722629050
30
0.000000000000000
11
-15.2310494362533
21
2.57320697939348
31
0.000000000000000
  0
LINE
  5
F104A9
330
F104AA
100
AcDbEntity
8
Geo
100
AcDbLine
10
-15.2310494362533
20
2.57320697939348
30
0.000000000000000
11
-15.3310494362533
21
2.63007300969574
31
0.000000000000000
  0
LINE
  5
F104AB
330
F104AC
100
AcDbEntity
8
Geo
100
AcDbLine
10
-15.3310494362533
20
2.63007300969574
30
0.000000000000000
11
-15.4310494362533
21
2.68944831296512
31
0.000000000000000
  0
LINE
  5
F104AD
330
F104AE
100
AcDbEntity
8
Geo
100
AcDbLine
10
-15.4310494362533
20
2.68944831296512
30
0.000000000000000
11
-15.5310494362533
21
2.75045580127353
31
0.000000000000000
  0
LINE
  5
F104AF
330
F104B0
100
AcDbEntity
8
Geo
100
AcDbLine
10
-15.5310494362533
20
2.75045580127353
30
0.000000000000000
11
-15.6310494362533
21
2.81245227412153
31
0.000000000000000
  0
LINE
  5
F104B1
330
F104B2
100
AcDbEntity
8
Geo
100
AcDbLine
10
-15.6310494362533
20
2.81245227412153
30
0.000000000000000
11
-15.7310494362533
21
2.87498148120323
31
0.000000000000000
  0
LINE
  5
F104B3
330
F104B4
100
AcDbEntity
8
Geo
100
AcDbLine
10
-15.7310494362533
20
2.87498148120323
30
0.000000000000000
11
-15.8310494362533
21
2.93773510983704
31
0.000000000000000
  0
LINE
  5
F104B5
330
F104B6
100
AcDbEntity
8
Geo
100
AcDbLine
10
-15.8310494362533
20
2.93773510983704
30
0.000000000000000
11
-15.9310494362533
21
3.00052058322485
31
0.000000000000000
  0
LINE
  5
F104B7
330
F104B8
100
AcDbEntity
8
Geo
100
AcDbLine
10
-15.9310494362533
20
3.00052058322485
30
0.000000000000000
11
-16.0310494362533
21
3.06323464772585
31
0.000000000000000
  0
LINE
  5
F104B9
330
F104BA
100
AcDbEntity
8
Geo
100
AcDbLine
10
-16.0310494362533
20
3.06323464772585
30
0.000000000000000
11
-16.1310494362533
21
3.12584183700345
31
0.000000000000000
  0
LINE
  5
F104BB
330
F104BC
100
AcDbEntity
8
Geo
100
AcDbLine
10
-16.1310494362533
20
3.12584183700345
30
0.000000000000000
11
-16.2310494362533
21
3.18835701486896
31
0.000000000000000
  0
LINE
  5
F104BD
330
F104BE
100
AcDbEntity
8
Geo
100
AcDbLine
10
-16.2310494362533
20
3.18835701486896
30
0.000000000000000
11
-16.3310494362533
21
3.25083130889740
31
0.000000000000000
  0
LINE
  5
F104BF
330
F104C0
100
AcDbEntity
8
Geo
100
AcDbLine
10
-16.3310494362533
20
3.25083130889740
30
0.000000000000000
11
-16.4310494362533
21
3.31334084897082
31
0.000000000000000
  0
LINE
  5
F104C1
330
F104C2
100
AcDbEntity
8
Geo
100
AcDbLine
10
-16.4310494362533
20
3.31334084897082
30
0.000000000000000
11
-16.5310494362533
21
3.37597781666053
31
0.000000000000000
  0
LINE
  5
F104C3
330
F104C4
100
AcDbEntity
8
Geo
100
AcDbLine
10
-16.5310494362533
20
3.37597781666053
30
0.000000000000000
11
-16.6310494362533
21
3.43884339208402
31
0.000000000000000
  0
LINE
  5
F104C5
330
F104C6
100
AcDbEntity
8
Geo
100
AcDbLine
10
-16.6310494362533
20
3.43884339208402
30
0.000000000000000
11
-16.7310494362533
21
3.50204225473396
31
0.000000000000000
  0
LINE
  5
F104C7
330
F104C8
100
AcDbEntity
8
Geo
100
AcDbLine
10
-16.7310494362533
20
3.50204225473396
30
0.000000000000000
11
-16.8310494362533
21
3.56567835443804
31
0.000000000000000
  0
LINE
  5
F104C9
330
F104CA
100
AcDbEntity
8
Geo
100
AcDbLine
10
-16.8310494362533
20
3.56567835443804
30
0.000000000000000
11
-16.9310494362533
21
3.62985171898721
31
0.000000000000000
  0
LINE
  5
F104CB
330
F104CC
100
AcDbEntity
8
Geo
100
AcDbLine
10
-16.9310494362533
20
3.62985171898721
30
0.000000000000000
11
-17.0310494362533
21
3.69465610708301
31
0.000000000000000
  0
LINE
  5
F104CD
330
F104CE
100
AcDbEntity
8
Geo
100
AcDbLine
10
-17.0310494362533
20
3.69465610708301
30
0.000000000000000
11
-17.1310494362533
21
3.76017735012703
31
0.000000000000000
  0
LINE
  5
F104CF
330
F104D0
100
AcDbEntity
8
Geo
100
AcDbLine
10
-17.1310494362533
20
3.76017735012703
30
0.000000000000000
11
-17.2310494362533
21
3.82649225498973
31
0.000000000000000
  0
LINE
  5
F104D1
330
F104D2
100
AcDbEntity
8
Geo
100
AcDbLine
10
-17.2310494362533
20
3.82649225498973
30
0.000000000000000
11
-17.3310494362533
21
3.89366796316011
31
0.000000000000000
  0
LINE
  5
F104D3
330
F104D4
100
AcDbEntity
8
Geo
100
AcDbLine
10
-17.3310494362533
20
3.89366796316011
30
0.000000000000000
11
-17.4310494362533
21
3.96176168041743
31
0.000000000000000
  0
LINE
  5
F104D5
330
F104D6
100
AcDbEntity
8
Geo
100
AcDbLine
10
-17.4310494362533
20
3.96176168041743
30
0.000000000000000
11
-17.5310494362533
21
4.03082070611783
31
0.000000000000000
  0
LINE
  5
F104D7
330
F104D8
100
AcDbEntity
8
Geo
100
AcDbLine
10
-17.5310494362533
20
4.03082070611783
30
0.000000000000000
11
-17.6310494362533
21
4.10088270300362
31
0.000000000000000
  0
LINE
  5
F104D9
330
F104DA
100
AcDbEntity
8
Geo
100
AcDbLine
10
-17.6310494362533
20
4.10088270300362
30
0.000000000000000
11
-17.7310494362533
21
4.17197615768965
31
0.000000000000000
  0
LINE
  5
F104DB
330
F104DC
100
AcDbEntity
8
Geo
100
AcDbLine
10
-17.7310494362533
20
4.17197615768965
30
0.000000000000000
11
-17.8310494362533
21
4.24412098915428
31
0.000000000000000
  0
LINE
  5
F104DD
330
F104DE
100
AcDbEntity
8
Geo
100
AcDbLine
10
-17.8310494362533
20
4.24412098915428
30
0.000000000000000
11
-17.9310494362533
21
4.31732926808483
31
0.000000000000000
  0
LINE
  5
F104DF
330
F104E0
100
AcDbEntity
8
Geo
100
AcDbLine
10
-17.9310494362533
20
4.31732926808483
30
0.000000000000000
11
-18.0310494362533
21
4.39160601416086
31
0.000000000000000
  0
LINE
  5
F104E1
330
F104E2
100
AcDbEntity
8
Geo
100
AcDbLine
10
-18.0310494362533
20
4.39160601416086
30
0.000000000000000
11
-18.1310494362533
21
4.46695004160539
31
0.000000000000000
  0
LINE
  5
F104E3
330
F104E4
100
AcDbEntity
8
Geo
100
AcDbLine
10
-18.1310494362533
20
4.46695004160539
30
0.000000000000000
11
-18.2310494362533
21
4.54335482584617
31
0.000000000000000
  0
LINE
  5
F104E5
330
F104E6
100
AcDbEntity
8
Geo
100
AcDbLine
10
-18.2310494362533
20
4.54335482584617
30
0.000000000000000
11
-18.3310494362533
21
4.62080936611235
31
0.000000000000000
  0
LINE
  5
F104E7
330
F104E8
100
AcDbEntity
8
Geo
100
AcDbLine
10
-18.3310494362533
20
4.62080936611235
30
0.000000000000000
11
-18.4310494362533
21
4.69929902040916
31
0.000000000000000
  0
LINE
  5
F104E9
330
F104EA
100
AcDbEntity
8
Geo
100
AcDbLine
10
-18.4310494362533
20
4.69929902040916
30
0.000000000000000
11
-18.5310494362533
21
4.77880629069454
31
0.000000000000000
  0
LINE
  5
F104EB
330
F104EC
100
AcDbEntity
8
Geo
100
AcDbLine
10
-18.5310494362533
20
4.77880629069454
30
0.000000000000000
11
-18.6310494362533
21
4.85931153732382
31
0.000000000000000
  0
LINE
  5
F104ED
330
F104EE
100
AcDbEntity
8
Geo
100
AcDbLine
10
-18.6310494362533
20
4.85931153732382
30
0.000000000000000
11
-18.7310494362533
21
4.94079360300302
31
0.000000000000000
  0
LINE
  5
F104EF
330
F104F0
100
AcDbEntity
8
Geo
100
AcDbLine
10
-18.7310494362533
20
4.94079360300302
30
0.000000000000000
11
-18.8310494362533
21
5.02323032764766
31
0.000000000000000
  0
LINE
  5
F104F1
330
F104F2
100
AcDbEntity
8
Geo
100
AcDbLine
10
-18.8310494362533
20
5.02323032764766
30
0.000000000000000
11
-18.9310494362533
21
5.10659893671458
31
0.000000000000000
  0
LINE
  5
F104F3
330
F104F4
100
AcDbEntity
8
Geo
100
AcDbLine
10
-18.9310494362533
20
14.1725518947913
30
0.000000000000000
11
-18.8310494362533
21
14.1457951900981
31
0.000000000000000
  0
LINE
  5
F104F5
330
F104F6
100
AcDbEntity
8
Geo
100
AcDbLine
10
-18.8310494362533
20
14.1457951900981
30
0.000000000000000
11
-18.7310494362533
21
14.1174363971525
31
0.000000000000000
  0
LINE
  5
F104F7
330
F104F8
100
AcDbEntity
8
Geo
100
AcDbLine
10
-18.7310494362533
20
14.1174363971525
30
0.000000000000000
11
-18.6310494362533
21
14.0874833932147
31
0.000000000000000
  0
LINE
  5
F104F9
330
F104FA
100
AcDbEntity
8
Geo
100
AcDbLine
10
-18.6310494362533
20
14.0874833932147
30
0.000000000000000
11
-18.5310494362533
21
14.0559444983709
31
0.000000000000000
  0
LINE
  5
F104FB
330
F104FC
100
AcDbEntity
8
Geo
100
AcDbLine
10
-18.5310494362533
20
14.0559444983709
30
0.000000000000000
11
-18.4310494362533
21
14.0228284732233
31
0.000000000000000
  0
LINE
  5
F104FD
330
F104FE
100
AcDbEntity
8
Geo
100
AcDbLine
10
-18.4310494362533
20
14.0228284732233
30
0.000000000000000
11
-18.3310494362533
21
13.9881445164614
31
0.000000000000000
  0
LINE
  5
F104FF
330
F10500
100
AcDbEntity
8
Geo
100
AcDbLine
10
-18.3310494362533
20
13.9881445164614
30
0.000000000000000
11
-18.2310494362533
21
13.9519022623313
31
0.000000000000000
  0
LINE
  5
F10501
330
F10502
100
AcDbEntity
8
Geo
100
AcDbLine
10
-18.2310494362533
20
13.9519022623313
30
0.000000000000000
11
-18.1310494362533
21
13.9141117780537
31
0.000000000000000
  0
LINE
  5
F10503
330
F10504
100
AcDbEntity
8
Geo
100
AcDbLine
10
-18.1310494362533
20
13.9141117780537
30
0.000000000000000
11
-18.0310494362533
21
13.8747835613246
31
0.000000000000000
  0
LINE
  5
F10505
330
F10506
100
AcDbEntity
8
Geo
100
AcDbLine
10
-18.0310494362533
20
13.8747835613246
30
0.000000000000000
11
-17.9310494362533
21
13.8339285382127
31
0.000000000000000
  0
LINE
  5
F10507
330
F10508
100
AcDbEntity
8
Geo
100
AcDbLine
10
-17.9310494362533
20
13.8339285382127
30
0.000000000000000
11
-17.8310494362533
21
13.7915580621105
31
0.000000000000000
  0
LINE
  5
F10509
330
F1050A
100
AcDbEntity
8
Geo
100
AcDbLine
10
-17.8310494362533
20
13.7915580621105
30
0.000000000000000
11
-17.7310494362533
21
13.7476839150140
31
0.000000000000000
  0
LINE
  5
F1050B
330
F1050C
100
AcDbEntity
8
Geo
100
AcDbLine
10
-17.7310494362533
20
13.7476839150140
30
0.000000000000000
11
-17.6310494362533
21
13.7023183134290
31
0.000000000000000
  0
LINE
  5
F1050D
330
F1050E
100
AcDbEntity
8
Geo
100
AcDbLine
10
-17.6310494362533
20
13.7023183134290
30
0.000000000000000
11
-17.5310494362533
21
13.6554739228475
31
0.000000000000000
  0
LINE
  5
F1050F
330
F10510
100
AcDbEntity
8
Geo
100
AcDbLine
10
-17.5310494362533
20
13.6554739228475
30
0.000000000000000
11
-17.4310494362533
21
13.6071638872351
31
0.000000000000000
  0
LINE
  5
F10511
330
F10512
100
AcDbEntity
8
Geo
100
AcDbLine
10
-17.4310494362533
20
13.6071638872351
30
0.000000000000000
11
-17.3310494362533
21
13.5574018836686
31
0.000000000000000
  0
LINE
  5
F10513
330
F10514
100
AcDbEntity
8
Geo
100
AcDbLine
10
-17.3310494362533
20
13.5574018836686
30
0.000000000000000
11
-17.2310494362533
21
13.5062022175455
31
0.000000000000000
  0
LINE
  5
F10515
330
F10516
100
AcDbEntity
8
Geo
100
AcDbLine
10
-17.2310494362533
20
13.5062022175455
30
0.000000000000000
11
-17.1310494362533
21
13.4535799811605
31
0.000000000000000
  0
LINE
  5
F10517
330
F10518
100
AcDbEntity
8
Geo
100
AcDbLine
10
-17.1310494362533
20
13.4535799811605
30
0.000000000000000
11
-17.0310494362533
21
13.3995513084927
31
0.000000000000000
  0
LINE
  5
F10519
330
F1051A
100
AcDbEntity
8
Geo
100
AcDbLine
10
-17.0310494362533
20
13.3995513084927
30
0.000000000000000
11
-16.9310494362533
21
13.3441337724758
31
0.000000000000000
  0
LINE
  5
F1051B
330
F1051C
100
AcDbEntity
8
Geo
100
AcDbLine
10
-16.9310494362533
20
13.3441337724758
30
0.000000000000000
11
-16.8310494362533
21
13.2873469886383
31
0.000000000000000
  0
LINE
  5
F1051D
330
F1051E
100
AcDbEntity
8
Geo
100
AcDbLine
10
-16.8310494362533
20
13.2873469886383
30
0.000000000000000
11
-16.7310494362533
21
13.2292135117485
31
0.000000000000000
  0
LINE
  5
F1051F
330
F10520
100
AcDbEntity
8
Geo
100
AcDbLine
10
-16.7310494362533
20
13.2292135117485
30
0.000000000000000
11
-16.6310494362533
21
13.1697601410222
31
0.000000000000000
  0
LINE
  5
F10521
330
F10522
100
AcDbEntity
8
Geo
100
AcDbLine
10
-16.6310494362533
20
13.1697601410222
30
0.000000000000000
11
-16.5310494362533
21
13.1090197857252
31
0.000000000000000
  0
LINE
  5
F10523
330
F10524
100
AcDbEntity
8
Geo
100
AcDbLine
10
-16.5310494362533
20
13.1090197857252
30
0.000000000000000
11
-16.4310494362533
21
13.0470340878893
31
0.000000000000000
  0
LINE
  5
F10525
330
F10526
100
AcDbEntity
8
Geo
100
AcDbLine
10
-16.4310494362533
20
13.0470340878893
30
0.000000000000000
11
-16.3310494362533
21
12.9838570536612
31
0.000000000000000
  0
LINE
  5
F10527
330
F10528
100
AcDbEntity
8
Geo
100
AcDbLine
10
-16.3310494362533
20
12.9838570536612
30
0.000000000000000
11
-16.2310494362533
21
12.9195600108282
31
0.000000000000000
  0
LINE
  5
F10529
330
F1052A
100
AcDbEntity
8
Geo
100
AcDbLine
10
-16.2310494362533
20
12.9195600108282
30
0.000000000000000
11
-16.1310494362533
21
12.8542382884276
31
0.000000000000000
  0
LINE
  5
F1052B
330
F1052C
100
AcDbEntity
8
Geo
100
AcDbLine
10
-16.1310494362533
20
12.8542382884276
30
0.000000000000000
11
-16.0310494362533
21
12.7880201058515
31
0.000000000000000
  0
LINE
  5
F1052D
330
F1052E
100
AcDbEntity
8
Geo
100
AcDbLine
10
-16.0310494362533
20
12.7880201058515
30
0.000000000000000
11
-15.9310494362533
21
12.7210782635705
31
0.000000000000000
  0
LINE
  5
F1052F
330
F10530
100
AcDbEntity
8
Geo
100
AcDbLine
10
-15.9310494362533
20
12.7210782635705
30
0.000000000000000
11
-15.8310494362533
21
12.6536453444118
31
0.000000000000000
  0
LINE
  5
F10531
330
F10532
100
AcDbEntity
8
Geo
100
AcDbLine
10
-15.8310494362533
20
12.6536453444118
30
0.000000000000000
11
-15.7310494362533
21
12.5860332600862
31
0.000000000000000
  0
LINE
  5
F10533
330
F10534
100
AcDbEntity
8
Geo
100
AcDbLine
10
-15.7310494362533
20
12.5860332600862
30
0.000000000000000
11
-15.6310494362533
21
12.5186581060044
31
0.000000000000000
  0
LINE
  5
F10535
330
F10536
100
AcDbEntity
8
Geo
100
AcDbLine
10
-15.6310494362533
20
12.5186581060044
30
0.000000000000000
11
-15.5310494362533
21
12.4520714068840
31
0.000000000000000
  0
LINE
  5
F10537
330
F10538
100
AcDbEntity
8
Geo
100
AcDbLine
10
-15.5310494362533
20
12.4520714068840
30
0.000000000000000
11
-15.4310494362533
21
12.3869989267669
31
0.000000000000000
  0
LINE
  5
F10539
330
F1053A
100
AcDbEntity
8
Geo
100
AcDbLine
10
-15.4310494362533
20
12.3869989267669
30
0.000000000000000
11
-15.3310494362533
21
12.3243882478413
31
0.000000000000000
  0
LINE
  5
F1053B
330
F1053C
100
AcDbEntity
8
Geo
100
AcDbLine
10
-15.3310494362533
20
12.3243882478413
30
0.000000000000000
11
-15.2310494362533
21
12.2654662409191
31
0.000000000000000
  0
LINE
  5
F1053D
330
F1053E
100
AcDbEntity
8
Geo
100
AcDbLine
10
-15.2310494362533
20
12.2654662409191
30
0.000000000000000
11
-15.1310494362533
21
12.2118072721642
31
0.000000000000000
  0
LINE
  5
F1053F
330
F10540
100
AcDbEntity
8
Geo
100
AcDbLine
10
-15.1310494362533
20
12.2118072721642
30
0.000000000000000
11
-15.0310494362533
21
12.1654123773164
31
0.000000000000000
  0
LINE
  5
F10541
330
F10542
100
AcDbEntity
8
Geo
100
AcDbLine
10
-15.0310494362533
20
12.1654123773164
30
0.000000000000000
11
-14.9310494362533
21
12.1287984555867
31
0.000000000000000
  0
LINE
  5
F10543
330
F10544
100
AcDbEntity
8
Geo
100
AcDbLine
10
-14.9310494362533
20
12.1287984555867
30
0.000000000000000
11
-14.8310494362533
21
12.1050943991198
31
0.000000000000000
  0
LINE
  5
F10545
330
F10546
100
AcDbEntity
8
Geo
100
AcDbLine
10
-14.8310494362533
20
12.1050943991198
30
0.000000000000000
11
-14.7310494362533
21
12.0981373044904
31
0.000000000000000
  0
LINE
  5
F10547
330
F10548
100
AcDbEntity
8
Geo
100
AcDbLine
10
-14.7310494362533
20
12.0981373044904
30
0.000000000000000
11
-14.6310494362533
21
12.1125553293038
31
0.000000000000000
  0
LINE
  5
F10549
330
F1054A
100
AcDbEntity
8
Geo
100
AcDbLine
10
-14.6310494362533
20
12.1125553293038
30
0.000000000000000
11
-14.5310494362533
21
12.1538122886364
31
0.000000000000000
  0
LINE
  5
F1054B
330
F1054C
100
AcDbEntity
8
Geo
100
AcDbLine
10
-14.5310494362533
20
12.1538122886364
30
0.000000000000000
11
-14.4310494362533
21
12.2281691207192
31
0.000000000000000
  0
LINE
  5
F1054D
330
F1054E
100
AcDbEntity
8
Geo
100
AcDbLine
10
-14.4310494362533
20
12.2281691207192
30
0.000000000000000
11
-14.3310494362533
21
12.3424826967877
31
0.000000000000000
  0
LINE
  5
F1054F
330
F10550
100
AcDbEntity
8
Geo
100
AcDbLine
10
-14.3310494362533
20
12.3424826967877
30
0.000000000000000
11
-14.2310494362533
21
12.5037028364957
31
0.000000000000000
  0
LINE
  5
F10551
330
F10552
100
AcDbEntity
8
Geo
100
AcDbLine
10
-14.2310494362533
20
12.5037028364957
30
0.000000000000000
11
-14.1310494362533
21
12.7178277605122
31
0.000000000000000
  0
LINE
  5
F10553
330
F10554
100
AcDbEntity
8
Geo
100
AcDbLine
10
-14.1310494362533
20
12.7178277605122
30
0.000000000000000
11
-14.0310494362533
21
12.9879141489720
31
0.000000000000000
  0
LINE
  5
F10555
330
F10556
100
AcDbEntity
8
Geo
100
AcDbLine
10
-14.0310494362533
20
12.9879141489720
30
0.000000000000000
11
-13.9310494362533
21
13.3104868074861
31
0.000000000000000
  0
LINE
  5
F10557
330
F10558
100
AcDbEntity
8
Geo
100
AcDbLine
10
-13.9310494362533
20
13.3104868074861
30
0.000000000000000
11
-13.9310494362533
21
13.3947843335109
31
0.000000000000000
  0
LINE
  5
F10559
330
F1055A
100
AcDbEntity
8
Geo
100
AcDbLine
10
-13.9310494362533
20
13.3947843335109
30
0.000000000000000
11
-14.0310494362533
21
13.7019293511122
31
0.000000000000000
  0
LINE
  5
F1055B
330
F1055C
100
AcDbEntity
8
Geo
100
AcDbLine
10
-14.0310494362533
20
13.7019293511122
30
0.000000000000000
11
-14.1310494362533
21
13.9361158144562
31
0.000000000000000
  0
LINE
  5
F1055D
330
F1055E
100
AcDbEntity
8
Geo
100
AcDbLine
10
-14.1310494362533
20
13.9361158144562
30
0.000000000000000
11
-14.2310494362533
21
14.1088960066051
31
0.000000000000000
  0
LINE
  5
F1055F
330
F10560
100
AcDbEntity
8
Geo
100
AcDbLine
10
-14.2310494362533
20
14.1088960066051
30
0.000000000000000
11
-14.3310494362533
21
14.2307292810525
31
0.000000000000000
  0
LINE
  5
F10561
330
F10562
100
AcDbEntity
8
Geo
100
AcDbLine
10
-14.3310494362533
20
14.2307292810525
30
0.000000000000000
11
-14.4310494362533
21
14.3108432852809
31
0.000000000000000
  0
LINE
  5
F10563
330
F10564
100
AcDbEntity
8
Geo
100
AcDbLine
10
-14.4310494362533
20
14.3108432852809
30
0.000000000000000
11
-14.5310494362533
21
14.3572144258681
31
0.000000000000000
  0
LINE
  5
F10565
330
F10566
100
AcDbEntity
8
Geo
100
AcDbLine
10
-14.5310494362533
20
14.3572144258681
30
0.000000000000000
11
-14.6310494362533
21
14.3766226962863
31
0.000000000000000
  0
LINE
  5
F10567
330
F10568
100
AcDbEntity
8
Geo
100
AcDbLine
10
-14.6310494362533
20
14.3766226962863
30
0.000000000000000
11
-14.6711492624019
21
14.3781439722463
31
0.000000000000000
  0
LINE
  5
F10569
330
F1056A
100
AcDbEntity
8
Geo
100
AcDbLine
10
-29.9310494362533
20
7.75275696978122
30
0.000000000000000
11
-29.8310494362533
21
7.67091421881147
31
0.000000000000000
  0
LINE
  5
F1056B
330
F1056C
100
AcDbEntity
8
Geo
100
AcDbLine
10
-29.8310494362533
20
7.67091421881147
30
0.000000000000000
11
-29.7310494362533
21
7.58588634908923
31
0.000000000000000
  0
LINE
  5
F1056D
330
F1056E
100
AcDbEntity
8
Geo
100
AcDbLine
10
-29.7310494362533
20
7.58588634908923
30
0.000000000000000
11
-29.6310494362533
21
7.49333003176537
31
0.000000000000000
  0
LINE
  5
F1056F
330
F10570
100
AcDbEntity
8
Geo
100
AcDbLine
10
-29.6310494362533
20
7.49333003176537
30
0.000000000000000
11
-29.5310494362533
21
7.39580892476859
31
0.000000000000000
  0
LINE
  5
F10571
330
F10572
100
AcDbEntity
8
Geo
100
AcDbLine
10
-29.5310494362533
20
7.39580892476859
30
0.000000000000000
11
-29.4310494362533
21
7.29856068230193
31
0.000000000000000
  0
LINE
  5
F10573
330
F10574
100
AcDbEntity
8
Geo
100
AcDbLine
10
-29.4310494362533
20
7.29856068230193
30
0.000000000000000
11
-29.3310494362533
21
7.20161231714078
31
0.000000000000000
  0
LINE
  5
F10575
330
F10576
100
AcDbEntity
8
Geo
100
AcDbLine
10
-29.3310494362533
20
7.20161231714078
30
0.000000000000000
11
-29.2310494362533
21
7.10499075876319
31
0.000000000000000
  0
LINE
  5
F10577
330
F10578
100
AcDbEntity
8
Geo
100
AcDbLine
10
-29.2310494362533
20
7.10499075876319
30
0.000000000000000
11
-29.1310494362533
21
7.00872284586966
31
0.000000000000000
  0
LINE
  5
F10579
330
F1057A
100
AcDbEntity
8
Geo
100
AcDbLine
10
-29.1310494362533
20
7.00872284586966
30
0.000000000000000
11
-29.0310494362533
21
6.91283531892811
31
0.000000000000000
  0
LINE
  5
F1057B
330
F1057C
100
AcDbEntity
8
Geo
100
AcDbLine
10
-29.0310494362533
20
6.91283531892811
30
0.000000000000000
11
-28.9310494362533
21
6.81735481274612
31
0.000000000000000
  0
LINE
  5
F1057D
330
F1057E
100
AcDbEntity
8
Geo
100
AcDbLine
10
-28.9310494362533
20
6.81735481274612
30
0.000000000000000
11
-28.8310494362533
21
6.72230784907260
31
0.000000000000000
  0
LINE
  5
F1057F
330
F10580
100
AcDbEntity
8
Geo
100
AcDbLine
10
-28.8310494362533
20
6.72230784907260
30
0.000000000000000
11
-28.7310494362533
21
6.62772082923074
31
0.000000000000000
  0
LINE
  5
F10581
330
F10582
100
AcDbEntity
8
Geo
100
AcDbLine
10
-28.7310494362533
20
6.62772082923074
30
0.000000000000000
11
-28.6310494362533
21
6.53362002678452
31
0.000000000000000
  0
LINE
  5
F10583
330
F10584
100
AcDbEntity
8
Geo
100
AcDbLine
10
-28.6310494362533
20
6.53362002678452
30
0.000000000000000
11
-28.5310494362533
21
6.44003158024069
31
0.000000000000000
  0
LINE
  5
F10585
330
F10586
100
AcDbEntity
8
Geo
100
AcDbLine
10
-28.5310494362533
20
6.44003158024069
30
0.000000000000000
11
-28.4310494362533
21
6.34698148578816
31
0.000000000000000
  0
LINE
  5
F10587
330
F10588
100
AcDbEntity
8
Geo
100
AcDbLine
10
-28.4310494362533
20
6.34698148578816
30
0.000000000000000
11
-28.3310494362533
21
6.25449559007708
31
0.000000000000000
  0
LINE
  5
F10589
330
F1058A
100
AcDbEntity
8
Geo
100
AcDbLine
10
-28.3310494362533
20
6.25449559007708
30
0.000000000000000
11
-28.2310494362533
21
6.16259958303937
31
0.000000000000000
  0
LINE
  5
F1058B
330
F1058C
100
AcDbEntity
8
Geo
100
AcDbLine
10
-28.2310494362533
20
6.16259958303937
30
0.000000000000000
11
-28.1310494362533
21
6.07131899075275
31
0.000000000000000
  0
LINE
  5
F1058D
330
F1058E
100
AcDbEntity
8
Geo
100
AcDbLine
10
-28.1310494362533
20
6.07131899075275
30
0.000000000000000
11
-28.0310494362533
21
5.98067916835036
31
0.000000000000000
  0
LINE
  5
F1058F
330
F10590
100
AcDbEntity
8
Geo
100
AcDbLine
10
-28.0310494362533
20
5.98067916835036
30
0.000000000000000
11
-27.9310494362533
21
5.89070529297785
31
0.000000000000000
  0
LINE
  5
F10591
330
F10592
100
AcDbEntity
8
Geo
100
AcDbLine
10
-27.9310494362533
20
5.89070529297785
30
0.000000000000000
11
-27.8310494362533
21
5.80142235679984
31
0.000000000000000
  0
LINE
  5
F10593
330
F10594
100
AcDbEntity
8
Geo
100
AcDbLine
10
-27.8310494362533
20
5.80142235679984
30
0.000000000000000
11
-27.7310494362533
21
5.71285516005785
31
0.000000000000000
  0
LINE
  5
F10595
330
F10596
100
AcDbEntity
8
Geo
100
AcDbLine
10
-27.7310494362533
20
5.71285516005785
30
0.000000000000000
11
-27.6310494362533
21
5.62502830418149
31
0.000000000000000
  0
LINE
  5
F10597
330
F10598
100
AcDbEntity
8
Geo
100
AcDbLine
10
-27.6310494362533
20
5.62502830418149
30
0.000000000000000
11
-27.5310494362533
21
5.53796618495488
31
0.000000000000000
  0
LINE
  5
F10599
330
F1059A
100
AcDbEntity
8
Geo
100
AcDbLine
10
-27.5310494362533
20
5.53796618495488
30
0.000000000000000
11
-27.4310494362533
21
5.45169298574023
31
0.000000000000000
  0
LINE
  5
F1059B
330
F1059C
100
AcDbEntity
8
Geo
100
AcDbLine
10
-27.4310494362533
20
5.45169298574023
30
0.000000000000000
11
-27.3310494362533
21
5.36623267076036
31
0.000000000000000
  0
LINE
  5
F1059D
330
F1059E
100
AcDbEntity
8
Geo
100
AcDbLine
10
-27.3310494362533
20
5.36623267076036
30
0.000000000000000
11
-27.2310494362533
21
5.28160897844215
31
0.000000000000000
  0
LINE
  5
F1059F
330
F105A0
100
AcDbEntity
8
Geo
100
AcDbLine
10
-27.2310494362533
20
5.28160897844215
30
0.000000000000000
11
-27.1310494362533
21
5.19784541482266
31
0.000000000000000
  0
LINE
  5
F105A1
330
F105A2
100
AcDbEntity
8
Geo
100
AcDbLine
10
-27.1310494362533
20
5.19784541482266
30
0.000000000000000
11
-27.0310494362533
21
5.11496524701987
31
0.000000000000000
  0
LINE
  5
F105A3
330
F105A4
100
AcDbEntity
8
Geo
100
AcDbLine
10
-27.0310494362533
20
5.11496524701987
30
0.000000000000000
11
-26.9310494362533
21
5.03299149676968
31
0.000000000000000
  0
LINE
  5
F105A5
330
F105A6
100
AcDbEntity
8
Geo
100
AcDbLine
10
-26.9310494362533
20
5.03299149676968
30
0.000000000000000
11
-26.8310494362533
21
4.95194693403118
31
0.000000000000000
  0
LINE
  5
F105A7
330
F105A8
100
AcDbEntity
8
Geo
100
AcDbLine
10
-26.8310494362533
20
4.95194693403118
30
0.000000000000000
11
-26.7310494362533
21
4.87185407066181
31
0.000000000000000
  0
LINE
  5
F105A9
330
F105AA
100
AcDbEntity
8
Geo
100
AcDbLine
10
-26.7310494362533
20
4.87185407066181
30
0.000000000000000
11
-26.6310494362533
21
4.79273515416416
31
0.000000000000000
  0
LINE
  5
F105AB
330
F105AC
100
AcDbEntity
8
Geo
100
AcDbLine
10
-26.6310494362533
20
4.79273515416416
30
0.000000000000000
11
-26.5310494362533
21
4.71461216150632
31
0.000000000000000
  0
LINE
  5
F105AD
330
F105AE
100
AcDbEntity
8
Geo
100
AcDbLine
10
-26.5310494362533
20
4.71461216150632
30
0.000000000000000
11
-26.4310494362533
21
4.63750679301723
31
0.000000000000000
  0
LINE
  5
F105AF
330
F105B0
100
AcDbEntity
8
Geo
100
AcDbLine
10
-26.4310494362533
20
4.63750679301723
30
0.000000000000000
11
-26.3310494362533
21
4.56144046635904
31
0.000000000000000
  0
LINE
  5
F105B1
330
F105B2
100
AcDbEntity
8
Geo
100
AcDbLine
10
-26.3310494362533
20
4.56144046635904
30
0.000000000000000
11
-26.2310494362533
21
4.48643431057782
31
0.000000000000000
  0
LINE
  5
F105B3
330
F105B4
100
AcDbEntity
8
Geo
100
AcDbLine
10
-26.2310494362533
20
4.48643431057782
30
0.000000000000000
11
-26.1310494362533
21
4.41250916023454
31
0.000000000000000
  0
LINE
  5
F105B5
330
F105B6
100
AcDbEntity
8
Geo
100
AcDbLine
10
-26.1310494362533
20
4.41250916023454
30
0.000000000000000
11
-26.0310494362533
21
4.33968554961787
31
0.000000000000000
  0
LINE
  5
F105B7
330
F105B8
100
AcDbEntity
8
Geo
100
AcDbLine
10
-26.0310494362533
20
4.33968554961787
30
0.000000000000000
11
-25.9310494362533
21
4.26798370704027
31
0.000000000000000
  0
LINE
  5
F105B9
330
F105BA
100
AcDbEntity
8
Geo
100
AcDbLine
10
-25.9310494362533
20
4.26798370704027
30
0.000000000000000
11
-25.8310494362533
21
4.19742354921920
31
0.000000000000000
  0
LINE
  5
F105BB
330
F105BC
100
AcDbEntity
8
Geo
100
AcDbLine
10
-25.8310494362533
20
4.19742354921920
30
0.000000000000000
11
-25.7310494362533
21
4.12802467574479
31
0.000000000000000
  0
LINE
  5
F105BD
330
F105BE
100
AcDbEntity
8
Geo
100
AcDbLine
10
-25.7310494362533
20
4.12802467574479
30
0.000000000000000
11
-25.6310494362533
21
4.05980636363566
31
0.000000000000000
  0
LINE
  5
F105BF
330
F105C0
100
AcDbEntity
8
Geo
100
AcDbLine
10
-25.6310494362533
20
4.05980636363566
30
0.000000000000000
11
-25.5310494362533
21
3.99278756198431
31
0.000000000000000
  0
LINE
  5
F105C1
330
F105C2
100
AcDbEntity
8
Geo
100
AcDbLine
10
-25.5310494362533
20
3.99278756198431
30
0.000000000000000
11
-25.4310494362533
21
3.92698688669362
31
0.000000000000000
  0
LINE
  5
F105C3
330
F105C4
100
AcDbEntity
8
Geo
100
AcDbLine
10
-25.4310494362533
20
3.92698688669362
30
0.000000000000000
11
-25.3310494362533
21
3.86242261530582
31
0.000000000000000
  0
LINE
  5
F105C5
330
F105C6
100
AcDbEntity
8
Geo
100
AcDbLine
10
-25.3310494362533
20
3.86242261530582
30
0.000000000000000
11
-25.2310494362533
21
3.79911268192562
31
0.000000000000000
  0
LINE
  5
F105C7
330
F105C8
100
AcDbEntity
8
Geo
100
AcDbLine
10
-25.2310494362533
20
3.79911268192562
30
0.000000000000000
11
-25.1310494362533
21
3.73707467223853
31
0.000000000000000
  0
LINE
  5
F105C9
330
F105CA
100
AcDbEntity
8
Geo
100
AcDbLine
10
-25.1310494362533
20
3.73707467223853
30
0.000000000000000
11
-25.0310494362533
21
3.67632581862612
31
0.000000000000000
  0
LINE
  5
F105CB
330
F105CC
100
AcDbEntity
8
Geo
100
AcDbLine
10
-25.0310494362533
20
3.67632581862612
30
0.000000000000000
11
-24.9310494362533
21
3.61688299537933
31
0.000000000000000
  0
LINE
  5
F105CD
330
F105CE
100
AcDbEntity
8
Geo
100
AcDbLine
10
-24.9310494362533
20
3.61688299537933
30
0.000000000000000
11
-24.8310494362533
21
3.55876271401129
31
0.000000000000000
  0
LINE
  5
F105CF
330
F105D0
100
AcDbEntity
8
Geo
100
AcDbLine
10
-24.8310494362533
20
3.55876271401129
30
0.000000000000000
11
-24.7310494362533
21
3.50198111867090
31
0.000000000000000
  0
LINE
  5
F105D1
330
F105D2
100
AcDbEntity
8
Geo
100
AcDbLine
10
-24.7310494362533
20
3.50198111867090
30
0.000000000000000
11
-24.6310494362533
21
3.44655398165842
31
0.000000000000000
  0
LINE
  5
F105D3
330
F105D4
100
AcDbEntity
8
Geo
100
AcDbLine
10
-24.6310494362533
20
3.44655398165842
30
0.000000000000000
11
-24.5310494362533
21
3.39249669904440
31
0.000000000000000
  0
LINE
  5
F105D5
330
F105D6
100
AcDbEntity
8
Geo
100
AcDbLine
10
-24.5310494362533
20
3.39249669904440
30
0.000000000000000
11
-24.4310494362533
21
3.33982428639310
31
0.000000000000000
  0
LINE
  5
F105D7
330
F105D8
100
AcDbEntity
8
Geo
100
AcDbLine
10
-24.4310494362533
20
3.33982428639310
30
0.000000000000000
11
-24.3310494362533
21
3.28855137459157
31
0.000000000000000
  0
LINE
  5
F105D9
330
F105DA
100
AcDbEntity
8
Geo
100
AcDbLine
10
-24.3310494362533
20
3.28855137459157
30
0.000000000000000
11
-24.2310494362533
21
3.23869220578561
31
0.000000000000000
  0
LINE
  5
F105DB
330
F105DC
100
AcDbEntity
8
Geo
100
AcDbLine
10
-24.2310494362533
20
3.23869220578561
30
0.000000000000000
11
-24.1310494362533
21
3.19026062942377
31
0.000000000000000
  0
LINE
  5
F105DD
330
F105DE
100
AcDbEntity
8
Geo
100
AcDbLine
10
-24.1310494362533
20
3.19026062942377
30
0.000000000000000
11
-24.0310494362533
21
3.14327009841026
31
0.000000000000000
  0
LINE
  5
F105DF
330
F105E0
100
AcDbEntity
8
Geo
100
AcDbLine
10
-24.0310494362533
20
3.14327009841026
30
0.000000000000000
11
-23.9310494362533
21
3.09773366536824
31
0.000000000000000
  0
LINE
  5
F105E1
330
F105E2
100
AcDbEntity
8
Geo
100
AcDbLine
10
-23.9310494362533
20
3.09773366536824
30
0.000000000000000
11
-23.8310494362533
21
3.05366397901407
31
0.000000000000000
  0
LINE
  5
F105E3
330
F105E4
100
AcDbEntity
8
Geo
100
AcDbLine
10
-23.8310494362533
20
3.05366397901407
30
0.000000000000000
11
-23.7310494362533
21
3.01107328064394
31
0.000000000000000
  0
LINE
  5
F105E5
330
F105E6
100
AcDbEntity
8
Geo
100
AcDbLine
10
-23.7310494362533
20
3.01107328064394
30
0.000000000000000
11
-23.6310494362533
21
2.96997340073353
31
0.000000000000000
  0
LINE
  5
F105E7
330
F105E8
100
AcDbEntity
8
Geo
100
AcDbLine
10
-23.6310494362533
20
2.96997340073353
30
0.000000000000000
11
-23.5310494362533
21
2.93037575565188
31
0.000000000000000
  0
LINE
  5
F105E9
330
F105EA
100
AcDbEntity
8
Geo
100
AcDbLine
10
-23.5310494362533
20
2.93037575565188
30
0.000000000000000
11
-23.4310494362533
21
2.89229134449023
31
0.000000000000000
  0
LINE
  5
F105EB
330
F105EC
100
AcDbEntity
8
Geo
100
AcDbLine
10
-23.4310494362533
20
2.89229134449023
30
0.000000000000000
11
-23.3310494362533
21
2.85573074600681
31
0.000000000000000
  0
LINE
  5
F105ED
330
F105EE
100
AcDbEntity
8
Geo
100
AcDbLine
10
-23.3310494362533
20
2.85573074600681
30
0.000000000000000
11
-23.2310494362533
21
2.82070411568833
31
0.000000000000000
  0
LINE
  5
F105EF
330
F105F0
100
AcDbEntity
8
Geo
100
AcDbLine
10
-23.2310494362533
20
2.82070411568833
30
0.000000000000000
11
-23.1310494362533
21
2.78722118292910
31
0.000000000000000
  0
LINE
  5
F105F1
330
F105F2
100
AcDbEntity
8
Geo
100
AcDbLine
10
-23.1310494362533
20
2.78722118292910
30
0.000000000000000
11
-23.0310494362533
21
2.75529124832849
31
0.000000000000000
  0
LINE
  5
F105F3
330
F105F4
100
AcDbEntity
8
Geo
100
AcDbLine
10
-23.0310494362533
20
2.75529124832849
30
0.000000000000000
11
-22.9310494362533
21
2.72492318110745
31
0.000000000000000
  0
LINE
  5
F105F5
330
F105F6
100
AcDbEntity
8
Geo
100
AcDbLine
10
-22.9310494362533
20
2.72492318110745
30
0.000000000000000
11
-22.8310494362533
21
2.69612541664496
31
0.000000000000000
  0
LINE
  5
F105F7
330
F105F8
100
AcDbEntity
8
Geo
100
AcDbLine
10
-22.8310494362533
20
2.69612541664496
30
0.000000000000000
11
-22.7310494362533
21
2.66890595413486
31
0.000000000000000
  0
LINE
  5
F105F9
330
F105FA
100
AcDbEntity
8
Geo
100
AcDbLine
10
-22.7310494362533
20
2.66890595413486
30
0.000000000000000
11
-22.6310494362533
21
2.64327235436394
31
0.000000000000000
  0
LINE
  5
F105FB
330
F105FC
100
AcDbEntity
8
Geo
100
AcDbLine
10
-22.6310494362533
20
2.64327235436394
30
0.000000000000000
11
-22.5310494362533
21
2.61923173761176
31
0.000000000000000
  0
LINE
  5
F105FD
330
F105FE
100
AcDbEntity
8
Geo
100
AcDbLine
10
-22.5310494362533
20
2.61923173761176
30
0.000000000000000
11
-22.4310494362533
21
2.59679078167284
31
0.000000000000000
  0
LINE
  5
F105FF
330
F10600
100
AcDbEntity
8
Geo
100
AcDbLine
10
-22.4310494362533
20
2.59679078167284
30
0.000000000000000
11
-22.3310494362533
21
2.57595572000174
31
0.000000000000000
  0
LINE
  5
F10601
330
F10602
100
AcDbEntity
8
Geo
100
AcDbLine
10
-22.3310494362533
20
2.57595572000174
30
0.000000000000000
11
-22.2310494362533
21
2.55673233998164
31
0.000000000000000
  0
LINE
  5
F10603
330
F10604
100
AcDbEntity
8
Geo
100
AcDbLine
10
-22.2310494362533
20
2.55673233998164
30
0.000000000000000
11
-22.1310494362533
21
2.53912598131670
31
0.000000000000000
  0
LINE
  5
F10605
330
F10606
100
AcDbEntity
8
Geo
100
AcDbLine
10
-22.1310494362533
20
2.53912598131670
30
0.000000000000000
11
-22.0310494362533
21
2.52314153454892
31
0.000000000000000
  0
LINE
  5
F10607
330
F10608
100
AcDbEntity
8
Geo
100
AcDbLine
10
-22.0310494362533
20
2.52314153454892
30
0.000000000000000
11
-21.9310494362533
21
2.50878343969960
31
0.000000000000000
  0
LINE
  5
F10609
330
F1060A
100
AcDbEntity
8
Geo
100
AcDbLine
10
-21.9310494362533
20
2.50878343969960
30
0.000000000000000
11
-21.8310494362533
21
2.49605568503611
31
0.000000000000000
  0
LINE
  5
F1060B
330
F1060C
100
AcDbEntity
8
Geo
100
AcDbLine
10
-21.8310494362533
20
2.49605568503611
30
0.000000000000000
11
-21.7310494362533
21
2.48496180596402
31
0.000000000000000
  0
LINE
  5
F1060D
330
F1060E
100
AcDbEntity
8
Geo
100
AcDbLine
10
-21.7310494362533
20
2.48496180596402
30
0.000000000000000
11
-21.6310494362533
21
2.47550488404506
31
0.000000000000000
  0
LINE
  5
F1060F
330
F10610
100
AcDbEntity
8
Geo
100
AcDbLine
10
-21.6310494362533
20
2.47550488404506
30
0.000000000000000
11
-21.5310494362533
21
2.46768754614118
31
0.000000000000000
  0
LINE
  5
F10611
330
F10612
100
AcDbEntity
8
Geo
100
AcDbLine
10
-21.5310494362533
20
2.46768754614118
30
0.000000000000000
11
-21.4310494362533
21
2.46151196368488
31
0.000000000000000
  0
LINE
  5
F10613
330
F10614
100
AcDbEntity
8
Geo
100
AcDbLine
10
-21.4310494362533
20
2.46151196368488
30
0.000000000000000
11
-21.3310494362533
21
2.45697985207601
31
0.000000000000000
  0
LINE
  5
F10615
330
F10616
100
AcDbEntity
8
Geo
100
AcDbLine
10
-21.3310494362533
20
2.45697985207601
30
0.000000000000000
11
-21.2310494362533
21
2.45409247020531
31
0.000000000000000
  0
LINE
  5
F10617
330
F10618
100
AcDbEntity
8
Geo
100
AcDbLine
10
-21.2310494362533
20
2.45409247020531
30
0.000000000000000
11
-21.1310494362533
21
2.45285062010476
31
0.000000000000000
  0
LINE
  5
F10619
330
F1061A
100
AcDbEntity
8
Geo
100
AcDbLine
10
-21.1310494362533
20
2.45285062010476
30
0.000000000000000
11
-21.1055963742053
21
2.37814397224632
31
0.000000000000000
  0
LINE
  5
F1061B
330
F1061C
100
AcDbEntity
8
Geo
100
AcDbLine
10
-21.1055963742053
20
14.3781439722463
30
0.000000000000000
11
-21.0310494362533
21
14.3030332977679
31
0.000000000000000
  0
LINE
  5
F1061D
330
F1061E
100
AcDbEntity
8
Geo
100
AcDbLine
10
-21.0310494362533
20
14.3030332977679
30
0.000000000000000
11
-20.9310494362533
21
14.3009835066545
31
0.000000000000000
  0
LINE
  5
F1061F
330
F10620
100
AcDbEntity
8
Geo
100
AcDbLine
10
-20.9310494362533
20
14.3009835066545
30
0.000000000000000
11
-20.8310494362533
21
14.2972885204208
31
0.000000000000000
  0
LINE
  5
F10621
330
F10622
100
AcDbEntity
8
Geo
100
AcDbLine
10
-20.8310494362533
20
14.2972885204208
30
0.000000000000000
11
-20.7310494362533
21
14.2919493654281
31
0.000000000000000
  0
LINE
  5
F10623
330
F10624
100
AcDbEntity
8
Geo
100
AcDbLine
10
-20.7310494362533
20
14.2919493654281
30
0.000000000000000
11
-20.6310494362533
21
14.2849675247408
31
0.000000000000000
  0
LINE
  5
F10625
330
F10626
100
AcDbEntity
8
Geo
100
AcDbLine
10
-20.6310494362533
20
14.2849675247408
30
0.000000000000000
11
-20.5310494362533
21
14.2763449377141
31
0.000000000000000
  0
LINE
  5
F10627
330
F10628
100
AcDbEntity
8
Geo
100
AcDbLine
10
-20.5310494362533
20
14.2763449377141
30
0.000000000000000
11
-20.4310494362533
21
14.2660839994557
31
0.000000000000000
  0
LINE
  5
F10629
330
F1062A
100
AcDbEntity
8
Geo
100
AcDbLine
10
-20.4310494362533
20
14.2660839994557
30
0.000000000000000
11
-20.3310494362533
21
14.2541875601601
31
0.000000000000000
  0
LINE
  5
F1062B
330
F1062C
100
AcDbEntity
8
Geo
100
AcDbLine
10
-20.3310494362533
20
14.2541875601601
30
0.000000000000000
11
-20.2310494362533
21
14.2406589243175
31
0.000000000000000
  0
LINE
  5
F1062D
330
F1062E
100
AcDbEntity
8
Geo
100
AcDbLine
10
-20.2310494362533
20
14.2406589243175
30
0.000000000000000
11
-20.1310494362533
21
14.2255018497951
31
0.000000000000000
  0
LINE
  5
F1062F
330
F10630
100
AcDbEntity
8
Geo
100
AcDbLine
10
-20.1310494362533
20
14.2255018497951
30
0.000000000000000
11
-20.0310494362533
21
14.2087205467940
31
0.000000000000000
  0
LINE
  5
F10631
330
F10632
100
AcDbEntity
8
Geo
100
AcDbLine
10
-20.0310494362533
20
14.2087205467940
30
0.000000000000000
11
-19.9310494362533
21
14.1903196766794
31
0.000000000000000
  0
LINE
  5
F10633
330
F10634
100
AcDbEntity
8
Geo
100
AcDbLine
10
-19.9310494362533
20
14.1903196766794
30
0.000000000000000
11
-19.8310494362533
21
14.1703043506858
31
0.000000000000000
  0
LINE
  5
F10635
330
F10636
100
AcDbEntity
8
Geo
100
AcDbLine
10
-19.8310494362533
20
14.1703043506858
30
0.000000000000000
11
-19.7310494362533
21
14.1486801284971
31
0.000000000000000
  0
LINE
  5
F10637
330
F10638
100
AcDbEntity
8
Geo
100
AcDbLine
10
-19.7310494362533
20
14.1486801284971
30
0.000000000000000
11
-19.6310494362533
21
14.1254530167029
31
0.000000000000000
  0
LINE
  5
F10639
330
F1063A
100
AcDbEntity
8
Geo
100
AcDbLine
10
-19.6310494362533
20
14.1254530167029
30
0.000000000000000
11
-19.5310494362533
21
14.1006294671291
31
0.000000000000000
  0
LINE
  5
F1063B
330
F1063C
100
AcDbEntity
8
Geo
100
AcDbLine
10
-19.5310494362533
20
14.1006294671291
30
0.000000000000000
11
-19.4310494362533
21
14.0742163750468
31
0.000000000000000
  0
LINE
  5
F1063D
330
F1063E
100
AcDbEntity
8
Geo
100
AcDbLine
10
-19.4310494362533
20
14.0742163750468
30
0.000000000000000
11
-19.3310494362533
21
14.0462210772559
31
0.000000000000000
  0
LINE
  5
F1063F
330
F10640
100
AcDbEntity
8
Geo
100
AcDbLine
10
-19.3310494362533
20
14.0462210772559
30
0.000000000000000
11
-19.2310494362533
21
14.0166513500482
31
0.000000000000000
  0
LINE
  5
F10641
330
F10642
100
AcDbEntity
8
Geo
100
AcDbLine
10
-19.2310494362533
20
14.0166513500482
30
0.000000000000000
11
-19.1310494362533
21
13.9855154070465
31
0.000000000000000
  0
LINE
  5
F10643
330
F10644
100
AcDbEntity
8
Geo
100
AcDbLine
10
-19.1310494362533
20
13.9855154070465
30
0.000000000000000
11
-19.0310494362533
21
13.9528218969239
31
0.000000000000000
  0
LINE
  5
F10645
330
F10646
100
AcDbEntity
8
Geo
100
AcDbLine
10
-19.0310494362533
20
13.9528218969239
30
0.000000000000000
11
-18.9310494362533
21
13.9185799010005
31
0.000000000000000
  0
LINE
  5
F10647
330
F10648
100
AcDbEntity
8
Geo
100
AcDbLine
10
-29.9310494362533
20
14.0202374375521
30
0.000000000000000
11
-29.8310494362533
21
14.1107974476131
31
0.000000000000000
  0
LINE
  5
F10649
330
F1064A
100
AcDbEntity
8
Geo
100
AcDbLine
10
-29.8310494362533
20
14.1107974476131
30
0.000000000000000
11
-29.7310494362533
21
14.2000835004455
31
0.000000000000000
  0
LINE
  5
F1064B
330
F1064C
100
AcDbEntity
8
Geo
100
AcDbLine
10
-29.7310494362533
20
14.2000835004455
30
0.000000000000000
11
-29.6310494362533
21
14.2370549129868
31
0.000000000000000
  0
LINE
  5
F1064D
330
F1064E
100
AcDbEntity
8
Geo
100
AcDbLine
10
-29.6310494362533
20
14.2370549129868
30
0.000000000000000
11
-29.5310494362533
21
14.2214949779018
31
0.000000000000000
  0
LINE
  5
F1064F
330
F10650
100
AcDbEntity
8
Geo
100
AcDbLine
10
-29.5310494362533
20
14.2214949779018
30
0.000000000000000
11
-29.4310494362533
21
14.2043119273323
31
0.000000000000000
  0
LINE
  5
F10651
330
F10652
100
AcDbEntity
8
Geo
100
AcDbLine
10
-29.4310494362533
20
14.2043119273323
30
0.000000000000000
11
-29.3310494362533
21
14.1855105342375
31
0.000000000000000
  0
LINE
  5
F10653
330
F10654
100
AcDbEntity
8
Geo
100
AcDbLine
10
-29.3310494362533
20
14.1855105342375
30
0.000000000000000
11
-29.2310494362533
21
14.1650960211055
31
0.000000000000000
  0
LINE
  5
F10655
330
F10656
100
AcDbEntity
8
Geo
100
AcDbLine
10
-29.2310494362533
20
14.1650960211055
30
0.000000000000000
11
-29.1310494362533
21
14.1430740585033
31
0.000000000000000
  0
LINE
  5
F10657
330
F10658
100
AcDbEntity
8
Geo
100
AcDbLine
10
-29.1310494362533
20
14.1430740585033
30
0.000000000000000
11
-29.0310494362533
21
14.1194507635012
31
0.000000000000000
  0
LINE
  5
F10659
330
F1065A
100
AcDbEntity
8
Geo
100
AcDbLine
10
-29.0310494362533
20
14.1194507635012
30
0.000000000000000
11
-28.9310494362533
21
14.0942326979735
31
0.000000000000000
  0
LINE
  5
F1065B
330
F1065C
100
AcDbEntity
8
Geo
100
AcDbLine
10
-28.9310494362533
20
14.0942326979735
30
0.000000000000000
11
-28.8310494362533
21
14.0674268667763
31
0.000000000000000
  0
LINE
  5
F1065D
330
F1065E
100
AcDbEntity
8
Geo
100
AcDbLine
10
-28.8310494362533
20
14.0674268667763
30
0.000000000000000
11
-28.7310494362533
21
14.0390407158015
31
0.000000000000000
  0
LINE
  5
F1065F
330
F10660
100
AcDbEntity
8
Geo
100
AcDbLine
10
-28.7310494362533
20
14.0390407158015
30
0.000000000000000
11
-28.6310494362533
21
14.0090821299085
31
0.000000000000000
  0
LINE
  5
F10661
330
F10662
100
AcDbEntity
8
Geo
100
AcDbLine
10
-28.6310494362533
20
14.0090821299085
30
0.000000000000000
11
-28.5310494362533
21
13.9775594307341
31
0.000000000000000
  0
LINE
  5
F10663
330
F10664
100
AcDbEntity
8
Geo
100
AcDbLine
10
-28.5310494362533
20
13.9775594307341
30
0.000000000000000
11
-28.4310494362533
21
13.9444813743810
31
0.000000000000000
  0
LINE
  5
F10665
330
F10666
100
AcDbEntity
8
Geo
100
AcDbLine
10
-28.4310494362533
20
13.9444813743810
30
0.000000000000000
11
-28.3310494362533
21
13.9098571489853
31
0.000000000000000
  0
LINE
  5
F10667
330
F10668
100
AcDbEntity
8
Geo
100
AcDbLine
10
-28.3310494362533
20
13.9098571489853
30
0.000000000000000
11
-28.2310494362533
21
13.8736963721650
31
0.000000000000000
  0
LINE
  5
F10669
330
F1066A
100
AcDbEntity
8
Geo
100
AcDbLine
10
-28.2310494362533
20
13.8736963721650
30
0.000000000000000
11
-28.1310494362533
21
13.8360090883476
31
0.000000000000000
  0
LINE
  5
F1066B
330
F1066C
100
AcDbEntity
8
Geo
100
AcDbLine
10
-28.1310494362533
20
13.8360090883476
30
0.000000000000000
11
-28.0310494362533
21
13.7968057659808
31
0.000000000000000
  0
LINE
  5
F1066D
330
F1066E
100
AcDbEntity
8
Geo
100
AcDbLine
10
-28.0310494362533
20
13.7968057659808
30
0.000000000000000
11
-27.9310494362533
21
13.7560972946244
31
0.000000000000000
  0
LINE
  5
F1066F
330
F10670
100
AcDbEntity
8
Geo
100
AcDbLine
10
-27.9310494362533
20
13.7560972946244
30
0.000000000000000
11
-27.8310494362533
21
13.7138949819252
31
0.000000000000000
  0
LINE
  5
F10671
330
F10672
100
AcDbEntity
8
Geo
100
AcDbLine
10
-27.8310494362533
20
13.7138949819252
30
0.000000000000000
11
-27.7310494362533
21
13.6702105504765
31
0.000000000000000
  0
LINE
  5
F10673
330
F10674
100
AcDbEntity
8
Geo
100
AcDbLine
10
-27.7310494362533
20
13.6702105504765
30
0.000000000000000
11
-27.6310494362533
21
13.6250561345618
31
0.000000000000000
  0
LINE
  5
F10675
330
F10676
100
AcDbEntity
8
Geo
100
AcDbLine
10
-27.6310494362533
20
13.6250561345618
30
0.000000000000000
11
-27.5310494362533
21
13.5784442767840
31
0.000000000000000
  0
LINE
  5
F10677
330
F10678
100
AcDbEntity
8
Geo
100
AcDbLine
10
-27.5310494362533
20
13.5784442767840
30
0.000000000000000
11
-27.4310494362533
21
13.5303879245816
31
0.000000000000000
  0
LINE
  5
F10679
330
F1067A
100
AcDbEntity
8
Geo
100
AcDbLine
10
-27.4310494362533
20
13.5303879245816
30
0.000000000000000
11
-27.3310494362533
21
13.4809004266325
31
0.000000000000000
  0
LINE
  5
F1067B
330
F1067C
100
AcDbEntity
8
Geo
100
AcDbLine
10
-27.3310494362533
20
13.4809004266325
30
0.000000000000000
11
-27.2310494362533
21
13.4299955291455
31
0.000000000000000
  0
LINE
  5
F1067D
330
F1067E
100
AcDbEntity
8
Geo
100
AcDbLine
10
-27.2310494362533
20
13.4299955291455
30
0.000000000000000
11
-27.1310494362533
21
13.3776873720427
31
0.000000000000000
  0
LINE
  5
F1067F
330
F10680
100
AcDbEntity
8
Geo
100
AcDbLine
10
-27.1310494362533
20
13.3776873720427
30
0.000000000000000
11
-27.0310494362533
21
13.3239904850313
31
0.000000000000000
  0
LINE
  5
F10681
330
F10682
100
AcDbEntity
8
Geo
100
AcDbLine
10
-27.0310494362533
20
13.3239904850313
30
0.000000000000000
11
-26.9310494362533
21
13.2689197835681
31
0.000000000000000
  0
LINE
  5
F10683
330
F10684
100
AcDbEntity
8
Geo
100
AcDbLine
10
-26.9310494362533
20
13.2689197835681
30
0.000000000000000
11
-26.8310494362533
21
13.2124905647161
31
0.000000000000000
  0
LINE
  5
F10685
330
F10686
100
AcDbEntity
8
Geo
100
AcDbLine
10
-26.8310494362533
20
13.2124905647161
30
0.000000000000000
11
-26.7310494362533
21
13.1547185028953
31
0.000000000000000
  0
LINE
  5
F10687
330
F10688
100
AcDbEntity
8
Geo
100
AcDbLine
10
-26.7310494362533
20
13.1547185028953
30
0.000000000000000
11
-26.6310494362533
21
13.0956196455293
31
0.000000000000000
  0
LINE
  5
F10689
330
F1068A
100
AcDbEntity
8
Geo
100
AcDbLine
10
-26.6310494362533
20
13.0956196455293
30
0.000000000000000
11
-26.5310494362533
21
13.0352104085874
31
0.000000000000000
  0
LINE
  5
F1068B
330
F1068C
100
AcDbEntity
8
Geo
100
AcDbLine
10
-26.5310494362533
20
13.0352104085874
30
0.000000000000000
11
-26.4310494362533
21
12.9735075720246
31
0.000000000000000
  0
LINE
  5
F1068D
330
F1068E
100
AcDbEntity
8
Geo
100
AcDbLine
10
-26.4310494362533
20
12.9735075720246
30
0.000000000000000
11
-26.3310494362533
21
12.9105282751211
31
0.000000000000000
  0
LINE
  5
F1068F
330
F10690
100
AcDbEntity
8
Geo
100
AcDbLine
10
-26.3310494362533
20
12.9105282751211
30
0.000000000000000
11
-26.2310494362533
21
12.8462900117211
31
0.000000000000000
  0
LINE
  5
F10691
330
F10692
100
AcDbEntity
8
Geo
100
AcDbLine
10
-26.2310494362533
20
12.8462900117211
30
0.000000000000000
11
-26.1310494362533
21
12.7808106253736
31
0.000000000000000
  0
LINE
  5
F10693
330
F10694
100
AcDbEntity
8
Geo
100
AcDbLine
10
-26.1310494362533
20
12.7808106253736
30
0.000000000000000
11
-26.0310494362533
21
12.7141083043759
31
0.000000000000000
  0
LINE
  5
F10695
330
F10696
100
AcDbEntity
8
Geo
100
AcDbLine
10
-26.0310494362533
20
12.7141083043759
30
0.000000000000000
11
-25.9310494362533
21
12.6462015767216
31
0.000000000000000
  0
LINE
  5
F10697
330
F10698
100
AcDbEntity
8
Geo
100
AcDbLine
10
-25.9310494362533
20
12.6462015767216
30
0.000000000000000
11
-25.8310494362533
21
12.5771093049541
31
0.000000000000000
  0
LINE
  5
F10699
330
F1069A
100
AcDbEntity
8
Geo
100
AcDbLine
10
-25.8310494362533
20
12.5771093049541
30
0.000000000000000
11
-25.7310494362533
21
12.5068506809268
31
0.000000000000000
  0
LINE
  5
F1069B
330
F1069C
100
AcDbEntity
8
Geo
100
AcDbLine
10
-25.7310494362533
20
12.5068506809268
30
0.000000000000000
11
-25.6310494362533
21
12.4354452204724
31
0.000000000000000
  0
LINE
  5
F1069D
330
F1069E
100
AcDbEntity
8
Geo
100
AcDbLine
10
-25.6310494362533
20
12.4354452204724
30
0.000000000000000
11
-25.5310494362533
21
12.3629127579818
31
0.000000000000000
  0
LINE
  5
F1069F
330
F106A0
100
AcDbEntity
8
Geo
100
AcDbLine
10
-25.5310494362533
20
12.3629127579818
30
0.000000000000000
11
-25.4310494362533
21
12.2892734408950
31
0.000000000000000
  0
LINE
  5
F106A1
330
F106A2
100
AcDbEntity
8
Geo
100
AcDbLine
10
-25.4310494362533
20
12.2892734408950
30
0.000000000000000
11
-25.3310494362533
21
12.2145477241043
31
0.000000000000000
  0
LINE
  5
F106A3
330
F106A4
100
AcDbEntity
8
Geo
100
AcDbLine
10
-25.3310494362533
20
12.2145477241043
30
0.000000000000000
11
-25.2310494362533
21
12.1387563642727
31
0.000000000000000
  0
LINE
  5
F106A5
330
F106A6
100
AcDbEntity
8
Geo
100
AcDbLine
10
-25.2310494362533
20
12.1387563642727
30
0.000000000000000
11
-25.1310494362533
21
12.0619204140684
31
0.000000000000000
  0
LINE
  5
F106A7
330
F106A8
100
AcDbEntity
8
Geo
100
AcDbLine
10
-25.1310494362533
20
12.0619204140684
30
0.000000000000000
11
-25.0310494362533
21
11.9840612163169
31
0.000000000000000
  0
LINE
  5
F106A9
330
F106AA
100
AcDbEntity
8
Geo
100
AcDbLine
10
-25.0310494362533
20
11.9840612163169
30
0.000000000000000
11
-24.9310494362533
21
11.9052003980725
31
0.000000000000000
  0
LINE
  5
F106AB
330
F106AC
100
AcDbEntity
8
Geo
100
AcDbLine
10
-24.9310494362533
20
11.9052003980725
30
0.000000000000000
11
-24.8310494362533
21
11.8253598646109
31
0.000000000000000
  0
LINE
  5
F106AD
330
F106AE
100
AcDbEntity
8
Geo
100
AcDbLine
10
-24.8310494362533
20
11.8253598646109
30
0.000000000000000
11
-24.7310494362533
21
11.7445617933448
31
0.000000000000000
  0
LINE
  5
F106AF
330
F106B0
100
AcDbEntity
8
Geo
100
AcDbLine
10
-24.7310494362533
20
11.7445617933448
30
0.000000000000000
11
-24.6310494362533
21
11.6628286276633
31
0.000000000000000
  0
LINE
  5
F106B1
330
F106B2
100
AcDbEntity
8
Geo
100
AcDbLine
10
-24.6310494362533
20
11.6628286276633
30
0.000000000000000
11
-24.5310494362533
21
11.5801830706979
31
0.000000000000000
  0
LINE
  5
F106B3
330
F106B4
100
AcDbEntity
8
Geo
100
AcDbLine
10
-24.5310494362533
20
11.5801830706979
30
0.000000000000000
11
-24.4310494362533
21
11.4966480790164
31
0.000000000000000
  0
LINE
  5
F106B5
330
F106B6
100
AcDbEntity
8
Geo
100
AcDbLine
10
-24.4310494362533
20
11.4966480790164
30
0.000000000000000
11
-24.3310494362533
21
11.4122468562462
31
0.000000000000000
  0
LINE
  5
F106B7
330
F106B8
100
AcDbEntity
8
Geo
100
AcDbLine
10
-24.3310494362533
20
11.4122468562462
30
0.000000000000000
11
-24.2310494362533
21
11.3270028466284
31
0.000000000000000
  0
LINE
  5
F106B9
330
F106BA
100
AcDbEntity
8
Geo
100
AcDbLine
10
-24.2310494362533
20
11.3270028466284
30
0.000000000000000
11
-24.1310494362533
21
11.2409397285067
31
0.000000000000000
  0
LINE
  5
F106BB
330
F106BC
100
AcDbEntity
8
Geo
100
AcDbLine
10
-24.1310494362533
20
11.2409397285067
30
0.000000000000000
11
-24.0310494362533
21
11.1540814077493
31
0.000000000000000
  0
LINE
  5
F106BD
330
F106BE
100
AcDbEntity
8
Geo
100
AcDbLine
10
-24.0310494362533
20
11.1540814077493
30
0.000000000000000
11
-23.9310494362533
21
11.0664520111090
31
0.000000000000000
  0
LINE
  5
F106BF
330
F106C0
100
AcDbEntity
8
Geo
100
AcDbLine
10
-23.9310494362533
20
11.0664520111090
30
0.000000000000000
11
-23.8310494362533
21
10.9780758795215
31
0.000000000000000
  0
LINE
  5
F106C1
330
F106C2
100
AcDbEntity
8
Geo
100
AcDbLine
10
-23.8310494362533
20
10.9780758795215
30
0.000000000000000
11
-23.7310494362533
21
10.8889775613440
31
0.000000000000000
  0
LINE
  5
F106C3
330
F106C4
100
AcDbEntity
8
Geo
100
AcDbLine
10
-23.7310494362533
20
10.8889775613440
30
0.000000000000000
11
-23.6310494362533
21
10.7991818055362
31
0.000000000000000
  0
LINE
  5
F106C5
330
F106C6
100
AcDbEntity
8
Geo
100
AcDbLine
10
-23.6310494362533
20
10.7991818055362
30
0.000000000000000
11
-23.5310494362533
21
10.7087135547865
31
0.000000000000000
  0
LINE
  5
F106C7
330
F106C8
100
AcDbEntity
8
Geo
100
AcDbLine
10
-23.5310494362533
20
10.7087135547865
30
0.000000000000000
11
-23.4310494362533
21
10.6175979385827
31
0.000000000000000
  0
LINE
  5
F106C9
330
F106CA
100
AcDbEntity
8
Geo
100
AcDbLine
10
-23.4310494362533
20
10.6175979385827
30
0.000000000000000
11
-23.3310494362533
21
10.5258602662324
31
0.000000000000000
  0
LINE
  5
F106CB
330
F106CC
100
AcDbEntity
8
Geo
100
AcDbLine
10
-23.3310494362533
20
10.5258602662324
30
0.000000000000000
11
-23.2310494362533
21
10.4335260198323
31
0.000000000000000
  0
LINE
  5
F106CD
330
F106CE
100
AcDbEntity
8
Geo
100
AcDbLine
10
-23.2310494362533
20
10.4335260198323
30
0.000000000000000
11
-23.1310494362533
21
10.3406208471907
31
0.000000000000000
  0
LINE
  5
F106CF
330
F106D0
100
AcDbEntity
8
Geo
100
AcDbLine
10
-23.1310494362533
20
10.3406208471907
30
0.000000000000000
11
-23.0310494362533
21
10.2471705547025
31
0.000000000000000
  0
LINE
  5
F106D1
330
F106D2
100
AcDbEntity
8
Geo
100
AcDbLine
10
-23.0310494362533
20
10.2471705547025
30
0.000000000000000
11
-22.9310494362533
21
10.1532011001815
31
0.000000000000000
  0
LINE
  5
F106D3
330
F106D4
100
AcDbEntity
8
Geo
100
AcDbLine
10
-22.9310494362533
20
10.1532011001815
30
0.000000000000000
11
-22.8310494362533
21
10.0587385856496
31
0.000000000000000
  0
LINE
  5
F106D5
330
F106D6
100
AcDbEntity
8
Geo
100
AcDbLine
10
-22.8310494362533
20
10.0587385856496
30
0.000000000000000
11
-22.7310494362533
21
9.96380925008680
31
0.000000000000000
  0
LINE
  5
F106D7
330
F106D8
100
AcDbEntity
8
Geo
100
AcDbLine
10
-22.7310494362533
20
9.96380925008680
30
0.000000000000000
11
-22.6310494362533
21
9.86843946214265
31
0.000000000000000
  0
LINE
  5
F106D9
330
F106DA
100
AcDbEntity
8
Geo
100
AcDbLine
10
-22.6310494362533
20
9.86843946214265
30
0.000000000000000
11
-22.5310494362533
21
9.77265571281165
31
0.000000000000000
  0
LINE
  5
F106DB
330
F106DC
100
AcDbEntity
8
Geo
100
AcDbLine
10
-22.5310494362533
20
9.77265571281165
30
0.000000000000000
11
-22.4310494362533
21
9.67648460807497
31
0.000000000000000
  0
LINE
  5
F106DD
330
F106DE
100
AcDbEntity
8
Geo
100
AcDbLine
10
-22.4310494362533
20
9.67648460807497
30
0.000000000000000
11
-22.3310494362533
21
9.57995286150997
31
0.000000000000000
  0
LINE
  5
F106DF
330
F106E0
100
AcDbEntity
8
Geo
100
AcDbLine
10
-22.3310494362533
20
9.57995286150997
30
0.000000000000000
11
-22.2310494362533
21
9.48308728687000
31
0.000000000000000
  0
LINE
  5
F106E1
330
F106E2
100
AcDbEntity
8
Geo
100
AcDbLine
10
-22.2310494362533
20
9.48308728687000
30
0.000000000000000
11
-22.1310494362533
21
9.38591479063630
31
0.000000000000000
  0
LINE
  5
F106E3
330
F106E4
100
AcDbEntity
8
Geo
100
AcDbLine
10
-22.1310494362533
20
9.38591479063630
30
0.000000000000000
11
-22.0310494362533
21
9.28846236454410
31
0.000000000000000
  0
LINE
  5
F106E5
330
F106E6
100
AcDbEntity
8
Geo
100
AcDbLine
10
-22.0310494362533
20
9.28846236454410
30
0.000000000000000
11
-21.9310494362533
21
9.19075707808515
31
0.000000000000000
  0
LINE
  5
F106E7
330
F106E8
100
AcDbEntity
8
Geo
100
AcDbLine
10
-21.9310494362533
20
9.19075707808515
30
0.000000000000000
11
-21.8310494362533
21
9.09282607098855
31
0.000000000000000
  0
LINE
  5
F106E9
330
F106EA
100
AcDbEntity
8
Geo
100
AcDbLine
10
-21.8310494362533
20
9.09282607098855
30
0.000000000000000
11
-21.7310494362533
21
8.99469654568215
31
0.000000000000000
  0
LINE
  5
F106EB
330
F106EC
100
AcDbEntity
8
Geo
100
AcDbLine
10
-21.7310494362533
20
8.99469654568215
30
0.000000000000000
11
-21.6310494362533
21
8.89639575973642
31
0.000000000000000
  0
LINE
  5
F106ED
330
F106EE
100
AcDbEntity
8
Geo
100
AcDbLine
10
-21.6310494362533
20
8.89639575973642
30
0.000000000000000
11
-21.5310494362533
21
8.79795101829320
31
0.000000000000000
  0
LINE
  5
F106EF
330
F106F0
100
AcDbEntity
8
Geo
100
AcDbLine
10
-21.5310494362533
20
8.79795101829320
30
0.000000000000000
11
-21.4310494362533
21
8.69938966648097
31
0.000000000000000
  0
LINE
  5
F106F1
330
F106F2
100
AcDbEntity
8
Geo
100
AcDbLine
10
-21.4310494362533
20
8.69938966648097
30
0.000000000000000
11
-21.3310494362533
21
8.60073908181929
31
0.000000000000000
  0
LINE
  5
F106F3
330
F106F4
100
AcDbEntity
8
Geo
100
AcDbLine
10
-21.3310494362533
20
8.60073908181929
30
0.000000000000000
11
-21.2310494362533
21
8.50202666661400
31
0.000000000000000
  0
LINE
  5
F106F5
330
F106F6
100
AcDbEntity
8
Geo
100
AcDbLine
10
-21.2310494362533
20
8.50202666661400
30
0.000000000000000
11
-21.1310494362533
21
8.40327984034574
31
0.000000000000000
  0
LINE
  5
F106F7
330
F106F8
100
AcDbEntity
8
Geo
100
AcDbLine
10
-21.1310494362533
20
8.40327984034574
30
0.000000000000000
11
-21.0310494362533
21
8.30452603205351
31
0.000000000000000
  0
LINE
  5
F106F9
330
F106FA
100
AcDbEntity
8
Geo
100
AcDbLine
10
-21.0310494362533
20
8.30452603205351
30
0.000000000000000
11
-20.9310494362533
21
8.20579267271575
31
0.000000000000000
  0
LINE
  5
F106FB
330
F106FC
100
AcDbEntity
8
Geo
100
AcDbLine
10
-20.9310494362533
20
8.20579267271575
30
0.000000000000000
11
-20.8310494362533
21
8.10710718763076
31
0.000000000000000
  0
LINE
  5
F106FD
330
F106FE
100
AcDbEntity
8
Geo
100
AcDbLine
10
-20.8310494362533
20
8.10710718763076
30
0.000000000000000
11
-20.7310494362533
21
8.00849698879873
31
0.000000000000000
  0
LINE
  5
F106FF
330
F10700
100
AcDbEntity
8
Geo
100
AcDbLine
10
-20.7310494362533
20
8.00849698879873
30
0.000000000000000
11
-20.6310494362533
21
7.90998946730750
31
0.000000000000000
  0
LINE
  5
F10701
330
F10702
100
AcDbEntity
8
Geo
100
AcDbLine
10
-20.6310494362533
20
7.90998946730750
30
0.000000000000000
11
-20.5310494362533
21
7.81161198572409
31
0.000000000000000
  0
LINE
  5
F10703
330
F10704
100
AcDbEntity
8
Geo
100
AcDbLine
10
-20.5310494362533
20
7.81161198572409
30
0.000000000000000
11
-20.4310494362533
21
7.71339187049414
31
0.000000000000000
  0
LINE
  5
F10705
330
F10706
100
AcDbEntity
8
Geo
100
AcDbLine
10
-20.4310494362533
20
7.71339187049414
30
0.000000000000000
11
-20.3310494362533
21
7.61535640435145
31
0.000000000000000
  0
LINE
  5
F10707
330
F10708
100
AcDbEntity
8
Geo
100
AcDbLine
10
-20.3310494362533
20
7.61535640435145
30
0.000000000000000
11
-20.2310494362533
21
7.51753281873957
31
0.000000000000000
  0
LINE
  5
F10709
330
F1070A
100
AcDbEntity
8
Geo
100
AcDbLine
10
-20.2310494362533
20
7.51753281873957
30
0.000000000000000
11
-20.1310494362533
21
7.41994828624773
31
0.000000000000000
  0
LINE
  5
F1070B
330
F1070C
100
AcDbEntity
8
Geo
100
AcDbLine
10
-20.1310494362533
20
7.41994828624773
30
0.000000000000000
11
-20.0310494362533
21
7.32262991306305
31
0.000000000000000
  0
LINE
  5
F1070D
330
F1070E
100
AcDbEntity
8
Geo
100
AcDbLine
10
-20.0310494362533
20
7.32262991306305
30
0.000000000000000
11
-19.9310494362533
21
7.22560473144120
31
0.000000000000000
  0
LINE
  5
F1070F
330
F10710
100
AcDbEntity
8
Geo
100
AcDbLine
10
-19.9310494362533
20
7.22560473144120
30
0.000000000000000
11
-19.8310494362533
21
7.12889969219766
31
0.000000000000000
  0
LINE
  5
F10711
330
F10712
100
AcDbEntity
8
Geo
100
AcDbLine
10
-19.8310494362533
20
7.12889969219766
30
0.000000000000000
11
-19.7310494362533
21
7.03254165722151
31
0.000000000000000
  0
LINE
  5
F10713
330
F10714
100
AcDbEntity
8
Geo
100
AcDbLine
10
-19.7310494362533
20
7.03254165722151
30
0.000000000000000
11
-19.6310494362533
21
6.93655739201400
31
0.000000000000000
  0
LINE
  5
F10715
330
F10716
100
AcDbEntity
8
Geo
100
AcDbLine
10
-19.6310494362533
20
6.93655739201400
30
0.000000000000000
11
-19.5310494362533
21
6.84097355825385
31
0.000000000000000
  0
LINE
  5
F10717
330
F10718
100
AcDbEntity
8
Geo
100
AcDbLine
10
-19.5310494362533
20
6.84097355825385
30
0.000000000000000
11
-19.4310494362533
21
6.74581670639139
31
0.000000000000000
  0
LINE
  5
F10719
330
F1071A
100
AcDbEntity
8
Geo
100
AcDbLine
10
-19.4310494362533
20
6.74581670639139
30
0.000000000000000
11
-19.3310494362533
21
6.65111326827361
31
0.000000000000000
  0
LINE
  5
F1071B
330
F1071C
100
AcDbEntity
8
Geo
100
AcDbLine
10
-19.3310494362533
20
6.65111326827361
30
0.000000000000000
11
-19.2310494362533
21
6.55688954980216
31
0.000000000000000
  0
LINE
  5
F1071D
330
F1071E
100
AcDbEntity
8
Geo
100
AcDbLine
10
-19.2310494362533
20
6.55688954980216
30
0.000000000000000
11
-19.1310494362533
21
6.46317172362631
31
0.000000000000000
  0
LINE
  5
F1071F
330
F10720
100
AcDbEntity
8
Geo
100
AcDbLine
10
-19.1310494362533
20
6.46317172362631
30
0.000000000000000
11
-19.0310494362533
21
6.36998582187295
31
0.000000000000000
  0
LINE
  5
F10721
330
F10722
100
AcDbEntity
8
Geo
100
AcDbLine
10
-19.0310494362533
20
6.36998582187295
30
0.000000000000000
11
-18.9310494362533
21
6.27735772891560
31
0.000000000000000
  0
LINE
  5
F10723
330
F10724
100
AcDbEntity
8
Geo
100
AcDbLine
10
43.0689505637467
20
13.6781439722463
30
0.000000000000000
11
43.0689505637467
21
8.37814397224632
31
0.000000000000000
  0
LINE
  5
F10725
330
F10726
100
AcDbEntity
8
Geo
100
AcDbLine
10
-29.9310494362533
20
8.37814397224632
30
0.000000000000000
11
-29.9310494362533
21
2.62814397224632
31
0.000000000000000
  0
LINE
  5
F10727
330
F10728
100
AcDbEntity
8
Geo
100
AcDbLine
10
-29.9310494362533
20
2.62814397224632
30
0.000000000000000
11
-29.6810494362533
21
2.37814397224632
31
0.000000000000000
  0
LINE
  5
F10729
330
F1072A
100
AcDbEntity
8
Geo
100
AcDbLine
10
-29.6810494362533
20
2.37814397224632
30
0.000000000000000
11
-13.9310494362533
21
2.37814397224632
31
0.000000000000000
  0
LINE
  5
F1072B
330
F1072C
100
AcDbEntity
8
Geo
100
AcDbLine
10
-13.9310494362533
20
2.37814397224632
30
0.000000000000000
11
42.3689505637467
21
2.37814397224632
31
0.000000000000000
  0
LINE
  5
F1072D
330
F1072E
100
AcDbEntity
8
Geo
100
AcDbLine
10
42.3689505637467
20
2.37814397224632
30
0.000000000000000
11
43.0689505637467
21
3.07814397224632
31
0.000000000000000
  0
LINE
  5
F1072F
330
F10730
100
AcDbEntity
8
Geo
100
AcDbLine
10
-29.9310494362533
20
14.1281439722463
30
0.000000000000000
11
-29.9310494362533
21
2.62814397224632
31
0.000000000000000
  0
LINE
  5
F10731
330
F10732
100
AcDbEntity
8
Geo
100
AcDbLine
10
-29.6810494362533
20
14.3781439722463
30
0.000000000000000
11
-29.6810494362533
21
2.37814397224632
31
0.000000000000000
  0
LINE
  5
F10733
330
F10734
100
AcDbEntity
8
Geo
100
AcDbLine
10
-29.6810494362533
20
14.3781439722463
30
0.000000000000000
11
-29.6810494362533
21
2.37814397224632
31
0.000000000000000
  0
LINE
  5
F10735
330
F10736
100
AcDbEntity
8
Geo
100
AcDbLine
10
-13.9310494362533
20
14.3781439722463
30
0.000000000000000
11
-13.9310494362533
21
2.37814397224632
31
0.000000000000000
  0
LINE
  5
F10737
330
F10738
100
AcDbEntity
8
Geo
100
AcDbLine
10
-13.9310494362533
20
14.3781439722463
30
0.000000000000000
11
-13.9310494362533
21
2.37814397224632
31
0.000000000000000
  0
LINE
  5
F10739
330
F1073A
100
AcDbEntity
8
Geo
100
AcDbLine
10
42.3689505637467
20
14.3781439722463
30
0.000000000000000
11
42.3689505637467
21
2.37814397224632
31
0.000000000000000
  0
LINE
  5
F1073B
330
F1073C
100
AcDbEntity
8
Geo
100
AcDbLine
10
43.0689505637467
20
13.6781439722463
30
0.000000000000000
11
43.0689505637467
21
3.07814397224632
31
0.000000000000000
  0
LINE
  5
F1073D
330
F1073E
100
AcDbEntity
8
Geo
 6
Dashdot
100
AcDbLine
10
-29.9310494362533
20
8.37814397224632
30
0.000000000000000
11
43.0689505637467
21
8.37814397224632
31
0.000000000000000
  0
LWPOLYLINE
  5
F1073F
330
F10740
100
AcDbEntity
8
Rahmen
100
AcDbPolyline
90
   4
70
   1
43
   0.0
 10
-134.596704249783
 20
99.9002601908066
 10
143.339115351258
 20
99.9002601908066
 10
143.339115351258
 20
-100.082393755421
 10
-134.596704249783
 20
-100.082393755421
  0
TEXT
  5
F10741
330
F10742
 100
AcDbEntity
8
Text
100
AcDbText
10
-133.503902862099
20
-99.5823937554206
30
0.000000000000000
40
1.00000000000000
1
ISBESketcher - ©ISBE GmbH      lizensiert für: Schmid Werkzeuge
100
AcDbText
  0
LWPOLYLINE
  5
F10743
330
F10744
100
AcDbEntity
8
Rahmen
100
AcDbPolyline
90
   4
70
   1
43
   0.0
 10
103.451864700781
 20
-97.1682567215958
 10
143.339115351258
 20
-97.1682567215958
 10
143.339115351258
 20
-100.082393755421
 10
103.451864700781
 20
-100.082393755421
  0
TEXT
  5
F10745
330
F10746
 100
AcDbEntity
8
Text
100
AcDbText
10
104.500000000000
20
-99.4570685169124
30
0.000000000000000
40
1.50000000000000
1
Ers. durch:
100
AcDbText
  0
TEXT
  5
F10747
330
F10748
 100
AcDbEntity
8
Text
100
AcDbText
10
0.000000000000000
20
0.500000000000000
30
0.000000000000000
40
1.50000000000000
1

100
AcDbText
  0
LWPOLYLINE
  5
F10749
330
F1074A
100
AcDbEntity
8
Rahmen
100
AcDbPolyline
90
   4
70
   1
43
   0.0
 10
63.3824804856895
 20
-97.1682567215958
 10
103.451864700781
 20
-97.1682567215958
 10
103.451864700781
 20
-100.082393755421
 10
63.3824804856895
 20
-100.082393755421
  0
TEXT
  5
F1074B
330
F1074C
 100
AcDbEntity
8
Text
100
AcDbText
10
64.5000000000000
20
-99.4570685169124
30
0.000000000000000
40
1.50000000000000
1
Ers. für:
100
AcDbText
  0
TEXT
  5
F1074D
330
F1074E
 100
AcDbEntity
8
Text
100
AcDbText
10
0.000000000000000
20
0.500000000000000
30
0.000000000000000
40
1.50000000000000
1

100
AcDbText
  0
LWPOLYLINE
  5
F1074F
330
F10750
100
AcDbEntity
8
Rahmen
100
AcDbPolyline
90
   4
70
   1
43
   0.0
 10
130.043365134432
 20
-94.0719861231570
 10
143.339115351258
 20
-94.0719861231570
 10
143.339115351258
 20
-97.1682567215958
 10
130.043365134432
 20
-97.1682567215958
  0
TEXT
  5
F10751
330
F10752
 100
AcDbEntity
8
Text
100
AcDbText
10
131.166666666667
20
-96.4570685169124
30
0.000000000000000
40
1.50000000000000
1
Blätter
100
AcDbText
  0
TEXT
  5
F10753
330
F10754
 100
AcDbEntity
8
Text
100
AcDbText
10
0.000000000000000
20
0.500000000000000
30
0.000000000000000
40
1.50000000000000
1

100
AcDbText
  0
LWPOLYLINE
  5
F10755
330
F10756
100
AcDbEntity
8
Rahmen
100
AcDbPolyline
90
   4
70
   1
43
   0.0
 10
130.043365134432
 20
-91.1578490893322
 10
143.339115351258
 20
-91.1578490893322
 10
143.339115351258
 20
-94.0719861231570
 10
130.043365134432
 20
-94.0719861231570
  0
TEXT
  5
F10757
330
F10758
 100
AcDbEntity
8
Text
100
AcDbText
10
131.166666666667
20
-93.4570685169124
30
0.000000000000000
40
1.50000000000000
1
Blatt
100
AcDbText
  0
TEXT
  5
F10759
330
F1075A
 100
AcDbEntity
8
Text
100
AcDbText
10
0.000000000000000
20
0.500000000000000
30
0.000000000000000
40
1.50000000000000
1

100
AcDbText
  0
LWPOLYLINE
  5
F1075B
330
F1075C
100
AcDbEntity
8
Rahmen
100
AcDbPolyline
90
   4
70
   1
43
   0.0
 10
63.3824804856895
 20
-91.1578490893322
 10
130.043365134432
 20
-91.1578490893322
 10
130.043365134432
 20
-97.1682567215958
 10
63.3824804856895
 20
-97.1682567215958
  0
TEXT
  5
F1075D
330
F1075E
 100
AcDbEntity
8
Text
100
AcDbText
10
64.5000000000000
20
-93.4570685169124
30
0.000000000000000
40
1.50000000000000
1
Datum:
100
AcDbText
  0
TEXT
  5
F1075F
330
F10760
 100
AcDbEntity
8
Text
100
AcDbText
10
90.9139924833767
20
-96.4570685169124
30
0.000000000000000
40
1.50000000000000
1
23.03.2021
100
AcDbText
  0
LWPOLYLINE
  5
F10761
330
F10762
100
AcDbEntity
8
Rahmen
100
AcDbPolyline
90
   4
70
   1
43
   0.0
 10
63.3824804856895
 20
-85.1474414570685
 10
143.339115351258
 20
-85.1474414570685
 10
143.339115351258
 20
-91.1578490893322
 10
63.3824804856895
 20
-91.1578490893322
  0
TEXT
  5
F10763
330
F10764
 100
AcDbEntity
8
Text
100
AcDbText
10
0.000000000000000
20
0.500000000000000
30
0.000000000000000
40
1.50000000000000
1

100
AcDbText
  0
TEXT
  5
F10765
330
F10766
 100
AcDbEntity
8
Text
100
AcDbText
10
72.4462272333044
20
-89.6254697889564
30
0.000000000000000
40
2.50000000000000
1
VHM-Schruppfräser 0240-120-b
100
AcDbText
  0
LWPOLYLINE
  5
F10767
330
F10768
100
AcDbEntity
8
Rahmen
100
AcDbPolyline
90
   4
70
   1
43
   0.0
 10
103.451864700781
 20
-79.1370338248049
 10
143.339115351258
 20
-79.1370338248049
 10
143.339115351258
 20
-85.1474414570685
 10
103.451864700781
 20
-85.1474414570685
  0
TEXT
  5
F10769
330
F1076A
 100
AcDbEntity
8
Text
100
AcDbText
10
104.500000000000
20
-81.4570685169124
30
0.000000000000000
40
1.50000000000000
1
Zu bearb. Material:
100
AcDbText
  0
TEXT
  5
F1076B
330
F1076C
 100
AcDbEntity
8
Text
100
AcDbText
10
0.000000000000000
20
0.500000000000000
30
0.000000000000000
40
1.50000000000000
1

100
AcDbText
  0
LWPOLYLINE
  5
F1076D
330
F1076E
100
AcDbEntity
8
Rahmen
100
AcDbPolyline
90
   4
70
   1
43
   0.0
 10
63.3824804856895
 20
-79.1370338248049
 10
103.451864700781
 20
-79.1370338248049
 10
103.451864700781
 20
-85.1474414570685
 10
63.3824804856895
 20
-85.1474414570685
  0
TEXT
  5
F1076F
330
F10770
 100
AcDbEntity
8
Text
100
AcDbText
10
64.5000000000000
20
-81.4570685169124
30
0.000000000000000
40
1.50000000000000
1
Werkstoff:
100
AcDbText
  0
TEXT
  5
F10771
330
F10772
 100
AcDbEntity
8
Text
100
AcDbText
10
80.7679965307892
20
-84.4570685169124
30
0.000000000000000
40
1.50000000000000
1
VHM
100
AcDbText
  0
LWPOLYLINE
  5
F10773
330
F10774
100
AcDbEntity
8
Rahmen
100
AcDbPolyline
90
   4
70
   1
43
   0.0
 10
103.451864700781
 20
-76.0407632263660
 10
143.339115351258
 20
-76.0407632263660
 10
143.339115351258
 20
-79.1370338248049
 10
103.451864700781
 20
-79.1370338248049
  0
TEXT
  5
F10775
330
F10776
 100
AcDbEntity
8
Text
100
AcDbText
10
0.000000000000000
20
0.500000000000000
30
0.000000000000000
40
1.50000000000000
1

100
AcDbText
  0
TEXT
  5
F10777
330
F10778
 100
AcDbEntity
8
Text
100
AcDbText
10
0.000000000000000
20
0.500000000000000
30
0.000000000000000
40
1.50000000000000
1

100
AcDbText
  0
LWPOLYLINE
  5
F10779
330
F1077A
100
AcDbEntity
8
Rahmen
100
AcDbPolyline
90
   4
70
   1
43
   0.0
 10
63.3824804856895
 20
-76.0407632263660
 10
103.451864700781
 20
-76.0407632263660
 10
103.451864700781
 20
-79.1370338248049
 10
63.3824804856895
 20
-79.1370338248049
  0
TEXT
  5
F1077B
330
F1077C
 100
AcDbEntity
8
Text
100
AcDbText
10
64.5000000000000
20
-78.4570685169124
30
0.000000000000000
40
1.50000000000000
1
Maßstab:
100
AcDbText
  0
TEXT
  5
F1077D
330
F1077E
 100
AcDbEntity
8
Text
100
AcDbText
10
89.0411968777103
20
-78.4570685169124
30
0.000000000000000
40
1.50000000000000
1
1 : 1
100
AcDbText
0
VIEWPORT
5
294
102
{ACAD_XDICTIONARY
360
58A
102
}
330
25D
100
AcDbEntity
67
1
8
0
60
1
100
AcDbViewport
10
0.0
20
0.0
30
0.0
40
10.0
41
10.0
68
-1
69
1
12
0.0
22
0.0
13
0.0
23
0.0
14
1.0
24
1.0
15
0.0
25
0.0
16
0.0
26
0.0
36
1.0
17
0.0
27
0.0
37
0.0
42
0.0
43
0.0
44
0.0
45
10.0
50
0.0
51
0.0000000000007958
72
100
90
32800
1

281
0
71
0
74
0
110
0.0
120
0.0
130
0.0
111
1.0
121
0.0
131
0.0
112
0.0
122
1.0
132
0.0
79
0
146
0.0
1001
VD_INVISIBLE_NOT_FOR_READ
1000
VD_INVISIBLE_NOT_FOR_READ
0
VIEWPORT
5
295
102
{ACAD_XDICTIONARY
360
58C
102
}
330
25D
100
AcDbEntity
67
1
8
0
60
1
100
AcDbViewport
10
0.0
20
0.0
30
0.0
40
10.0
41
10.0
68
0
69
2
12
0.0
22
0.0
13
0.0
23
0.0
14
1.0
24
1.0
15
0.0
25
0.0
16
0.0
26
0.0
36
1.0
17
0.0
27
0.0
37
0.0
42
0.0
43
0.0
44
0.0
45
10.0
50
0.0
51
0.0000000000007958
72
100
90
163872
1

281
0
71
0
74
0
110
0.0
120
0.0
130
0.0
111
1.0
121
0.0
131
0.0
112
0.0
122
1.0
132
0.0
79
0
146
0.0
1001
VD_INVISIBLE_NOT_FOR_READ
1000
VD_INVISIBLE_NOT_FOR_READ
0
ENDSEC
0
SECTION
2
OBJECTS
0
DICTIONARY
5
13
330
0
100
AcDbDictionary
281
1
3
ACAD_COLOR
350
FA7
3
ACAD_GROUP
350
14
3
ACAD_LAYOUT
350
FCF
3
ACAD_MATERIAL
350
F7A
3
ACAD_MLEADERSTYLE
350
FCD
3
ACAD_MLINESTYLE
350
16
3
ACAD_PLOTSETTINGS
350
17
3
ACAD_PLOTSTYLENAME
350
18
3
ACAD_SCALELIST
350
FAB
3
ACAD_TABLESTYLE
350
FA8
3
ACAD_VISUALSTYLE
350
F93
3
ACDB_RECOMPOSE_DATA
350
107E
3
AcDbVariableDictionary
350
FF0
3
DWGPROPS
350
107F
0
DICTIONARY
5
F10005
330
F10004
100
AcDbDictionary
280
1
281
1
3
ACAD_MTEXT_2008_RT
360
F10006
0
DICTIONARY
5
F10014
330
F10013
100
AcDbDictionary
280
1
281
1
3
ACAD_MTEXT_2008_RT
360
F10015
0
DICTIONARY
5
F10019
330
F10018
100
AcDbDictionary
280
1
281
1
3
ACAD_MTEXT_2008_RT
360
F1001A
0
DICTIONARY
5
F1000A
330
F10009
100
AcDbDictionary
280
1
281
1
3
ACAD_MTEXT_2008_RT
360
F1000B
0
DICTIONARY
5
F1000F
330
F1000E
100
AcDbDictionary
280
1
281
1
3
ACAD_MTEXT_2008_RT
360
F10010
0
DICTIONARY
5
FA7
102
{ACAD_REACTORS
330
13
102
}
330
13
100
AcDbDictionary
281
1
0
DICTIONARY
5
14
330
13
100
AcDbDictionary
281
1
0
DICTIONARY
5
FCF
102
{ACAD_REACTORS
330
13
102
}
330
13
100
AcDbDictionary
281
1
3
Layout1
350
FD1
3
Model
350
FD0
0
DICTIONARY
5
F7A
102
{ACAD_REACTORS
330
13
102
}
330
13
100
AcDbDictionary
281
1
3
ByBlock
350
F83
3
ByLayer
350
F7B
3
Global
350
F8B
0
DICTIONARY
5
FCD
102
{ACAD_REACTORS
330
13
102
}
330
13
100
AcDbDictionary
281
1
3
Standard
350
FCE
0
DICTIONARY
5
16
330
13
100
AcDbDictionary
281
1
3
Standard
350
FAA
0
DICTIONARY
5
17
102
{ACAD_REACTORS
330
13
102
}
330
13
100
AcDbDictionary
281
1
0
ACDBDICTIONARYWDFLT
5
18
102
{ACAD_REACTORS
330
13
102
}
330
13
100
AcDbDictionary
281
1
3
Normal
350
19
100
AcDbDictionaryWithDefault
340
19
0
DICTIONARY
5
FAB
102
{ACAD_REACTORS
330
13
102
}
330
13
100
AcDbDictionary
281
1
3
A0
350
FAC
3
A1
350
FAD
3
A2
350
FAE
3
A3
350
FAF
3
A4
350
FB0
3
A5
350
FB1
3
A6
350
FB2
3
A7
350
FB3
3
A8
350
FB4
3
A9
350
FB5
3
B0
350
FB6
3
B1
350
FB7
3
B2
350
FB8
3
B3
350
FB9
3
B4
350
FBA
3
B5
350
FBB
3
B6
350
FBC
3
B7
350
FBD
3
B8
350
FBE
3
B9
350
FBF
3
C0
350
FC0
3
C1
350
FC1
3
C2
350
FC2
3
C3
350
FC3
3
C4
350
FC4
3
C5
350
FC5
3
C6
350
FC6
3
C7
350
FC7
3
C8
350
FC8
3
C9
350
FC9
3
D0
350
FCA
3
D1
350
FCB
3
D2
350
FCC
0
DICTIONARY
5
FA8
102
{ACAD_REACTORS
330
13
102
}
330
13
100
AcDbDictionary
281
1
3
Standard
350
FA9
0
DICTIONARY
5
F93
102
{ACAD_REACTORS
330
13
102
}
330
13
100
AcDbDictionary
281
1
3
2dWireframe
350
F99
3
3D Hidden
350
F9B
3
3dWireframe
350
F9A
3
Basic
350
F98
3
Brighten
350
F9F
3
ColorChange
350
FA3
3
Conceptual
350
F9C
3
Dim
350
F9E
3
EdgeColorOff
350
FA6
3
Facepattern
350
FA2
3
Flat
350
F94
3
FlatWithEdges
350
F95
3
Gouraud
350
F96
3
GouraudWithEdges
350
F97
3
JitterOff
350
FA4
3
Linepattern
350
FA1
3
OverhangOff
350
FA5
3
Realistic
350
F9D
3
Thicken
350
FA0
0
XRECORD
5
107E
102
{ACAD_REACTORS
330
13
102
}
330
13
100
AcDbXrecord
280
1
90
1
330
FA9
330
F10004
330
F10013
330
F10018
330
F10009
330
F1000E
0
DICTIONARY
5
FF0
102
{ACAD_REACTORS
330
13
102
}
330
13
100
AcDbDictionary
281
1
3
CANNOSCALE
350
FF3
3
CMLEADERSTYLE
350
FF2
3
CTABLESTYLE
350
FF1
3
DIMASSOC
350
FF6
3
INDEXCTL
350
FF5
3
SORTENTS
350
FF4
3
XCLIPFRAME
350
1078
0
XRECORD
5
107F
102
{ACAD_REACTORS
330
13
102
}
330
13
100
AcDbXrecord
280
1
1
DWGPROPS COOKIE
2

3

4

6

7

8

9

300
=
301
=
302
=
303
=
304
=
305
=
306
=
307
=
308
=
309
=
40
0.0
41
0.0
42
0.0
1

90
0
0
XRECORD
5
F10006
102
{ACAD_REACTORS
330
F10005
102
}
330
F10005
100
AcDbXrecord
280
1
40
48458.0
1
0.25 x 45°
0
XRECORD
5
F10015
102
{ACAD_REACTORS
330
F10014
102
}
330
F10014
100
AcDbXrecord
280
1
40
48458.0
1
16
0
XRECORD
5
F1001A
102
{ACAD_REACTORS
330
F10019
102
}
330
F10019
100
AcDbXrecord
280
1
40
48458.0
1
73
0
XRECORD
5
F1000B
102
{ACAD_REACTORS
330
F1000A
102
}
330
F1000A
100
AcDbXrecord
280
1
40
48458.0
1
Ø12
0
LAYOUT
5
FD1
102
{ACAD_XDICTIONARY
360
10A9
102
}
102
{ACAD_REACTORS
330
FCF
102
}
330
FCF
100
AcDbPlotSettings
1

2
Microsoft XPS Document Writer
4

6

40
0.0
41
0.0
42
0.0
43
0.0
44
0.0
45
0.0
46
0.0
47
0.0
48
0.0
49
0.0
140
0.0
141
0.0
142
1.0
143
1.0
70
688
72
0
73
0
74
5
7

75
16
147
1.0
148
0.0
149
0.0
100
AcDbLayout
1
Layout1
70
1
71
1
10
0.0
20
0.0
11
12.0
21
9.0
12
0.0
22
0.0
32
0.0
14
1.000000000000000E+20
24
1.000000000000000E+20
34
1.000000000000000E+20
15
-1.000000000000000E+20
25
-1.000000000000000E+20
35
-1.000000000000000E+20
146
0.0
13
0.0
23
0.0
33
0.0
16
1.0
26
0.0
36
0.0
17
0.0
27
1.0
37
0.0
76
0
330
25D
0
LAYOUT
5
FD0
102
{ACAD_XDICTIONARY
360
10A7
102
}
102
{ACAD_REACTORS
330
FCF
102
}
330
FCF
100
AcDbPlotSettings
1

2
Microsoft XPS Document Writer
4

6

40
0.0
41
0.0
42
0.0
43
0.0
44
0.0
45
0.0
46
0.0
47
0.0
48
0.0
49
0.0
140
0.0
141
0.0
142
1.0
143
1.0
70
1712
72
0
73
0
74
0
7

75
0
147
1.0
148
0.0
149
0.0
100
AcDbLayout
1
Model
70
1
71
0
10
0.0
20
0.0
11
12.0
21
9.0
12
0.0
22
0.0
32
0.0
14
0.0
24
0.0
34
0.0
15
0.0
25
0.0
35
0.0
146
0.0
13
0.0
23
0.0
33
0.0
16
1.0
26
0.0
36
0.0
17
0.0
27
1.0
37
0.0
76
0
330
261
331
26B
0
MATERIAL
5
F83
102
{ACAD_XDICTIONARY
360
F84
102
}
102
{ACAD_REACTORS
330
F7A
102
}
330
F7A
100
AcDbMaterial
1
ByBlock
72
0
43
0.0208333333333333
43
0.0
43
0.0
43
0.0
43
0.0
43
0.0208333333333333
43
0.0
43
0.0
43
0.0
43
0.0
43
1.0
43
0.0
43
0.0
43
0.0
43
0.0
43
1.0
77
0
47
0.0208333333333333
47
0.0
47
0.0
47
0.0
47
0.0
47
0.0208333333333333
47
0.0
47
0.0
47
0.0
47
0.0
47
1.0
47
0.0
47
0.0
47
0.0
47
0.0
47
1.0
171
0
49
0.0208333333333333
49
0.0
49
0.0
49
0.0
49
0.0
49
0.0208333333333333
49
0.0
49
0.0
49
0.0
49
0.0
49
1.0
49
0.0
49
0.0
49
0.0
49
0.0
49
1.0
175
0
142
0.0208333333333333
142
0.0
142
0.0
142
0.0
142
0.0
142
0.0208333333333333
142
0.0
142
0.0
142
0.0
142
0.0
142
1.0
142
0.0
142
0.0
142
0.0
142
0.0
142
1.0
179
0
144
0.0208333333333333
144
0.0
144
0.0
144
0.0
144
0.0
144
0.0208333333333333
144
0.0
144
0.0
144
0.0
144
0.0
144
1.0
144
0.0
144
0.0
144
0.0
144
0.0
144
1.0
147
0.0208333333333333
147
0.0
147
0.0
147
0.0
147
0.0
147
0.0208333333333333
147
0.0
147
0.0
147
0.0
147
0.0
147
1.0
147
0.0
147
0.0
147
0.0
147
0.0
147
1.0
0
MATERIAL
5
F7B
102
{ACAD_XDICTIONARY
360
F7C
102
}
102
{ACAD_REACTORS
330
F7A
102
}
330
F7A
100
AcDbMaterial
1
ByLayer
72
0
43
0.0208333333333333
43
0.0
43
0.0
43
0.0
43
0.0
43
0.0208333333333333
43
0.0
43
0.0
43
0.0
43
0.0
43
1.0
43
0.0
43
0.0
43
0.0
43
0.0
43
1.0
77
0
47
0.0208333333333333
47
0.0
47
0.0
47
0.0
47
0.0
47
0.0208333333333333
47
0.0
47
0.0
47
0.0
47
0.0
47
1.0
47
0.0
47
0.0
47
0.0
47
0.0
47
1.0
171
0
49
0.0208333333333333
49
0.0
49
0.0
49
0.0
49
0.0
49
0.0208333333333333
49
0.0
49
0.0
49
0.0
49
0.0
49
1.0
49
0.0
49
0.0
49
0.0
49
0.0
49
1.0
175
0
142
0.0208333333333333
142
0.0
142
0.0
142
0.0
142
0.0
142
0.0208333333333333
142
0.0
142
0.0
142
0.0
142
0.0
142
1.0
142
0.0
142
0.0
142
0.0
142
0.0
142
1.0
179
0
144
0.0208333333333333
144
0.0
144
0.0
144
0.0
144
0.0
144
0.0208333333333333
144
0.0
144
0.0
144
0.0
144
0.0
144
1.0
144
0.0
144
0.0
144
0.0
144
0.0
144
1.0
147
0.0208333333333333
147
0.0
147
0.0
147
0.0
147
0.0
147
0.0208333333333333
147
0.0
147
0.0
147
0.0
147
0.0
147
1.0
147
0.0
147
0.0
147
0.0
147
0.0
147
1.0
0
MATERIAL
5
F8B
102
{ACAD_XDICTIONARY
360
F8C
102
}
102
{ACAD_REACTORS
330
F7A
102
}
330
F7A
100
AcDbMaterial
1
Global
72
0
43
0.0208333333333333
43
0.0
43
0.0
43
0.0
43
0.0
43
0.0208333333333333
43
0.0
43
0.0
43
0.0
43
0.0
43
1.0
43
0.0
43
0.0
43
0.0
43
0.0
43
1.0
77
0
47
0.0208333333333333
47
0.0
47
0.0
47
0.0
47
0.0
47
0.0208333333333333
47
0.0
47
0.0
47
0.0
47
0.0
47
1.0
47
0.0
47
0.0
47
0.0
47
0.0
47
1.0
171
0
49
0.0208333333333333
49
0.0
49
0.0
49
0.0
49
0.0
49
0.0208333333333333
49
0.0
49
0.0
49
0.0
49
0.0
49
1.0
49
0.0
49
0.0
49
0.0
49
0.0
49
1.0
175
0
142
0.0208333333333333
142
0.0
142
0.0
142
0.0
142
0.0
142
0.0208333333333333
142
0.0
142
0.0
142
0.0
142
0.0
142
1.0
142
0.0
142
0.0
142
0.0
142
0.0
142
1.0
179
0
144
0.0208333333333333
144
0.0
144
0.0
144
0.0
144
0.0
144
0.0208333333333333
144
0.0
144
0.0
144
0.0
144
0.0
144
1.0
144
0.0
144
0.0
144
0.0
144
0.0
144
1.0
147
0.0208333333333333
147
0.0
147
0.0
147
0.0
147
0.0
147
0.0208333333333333
147
0.0
147
0.0
147
0.0
147
0.0
147
1.0
147
0.0
147
0.0
147
0.0
147
0.0
147
1.0
0
MLEADERSTYLE
5
FCE
102
{ACAD_REACTORS
330
FCD
102
}
330
FCD
100
AcDbMLeaderStyle
170
2
171
1
172
0
90
2
40
0.0
41
0.0
173
1
91
-1056964608
340
256
92
-2
290
1
42
0.09
291
1
43
0.36
3
Standard
44
0.18
300

342
253
174
1
178
6
175
1
176
0
93
-1056964608
45
0.18
292
0
297
0
46
0.18
94
-1056964608
47
1.0
49
1.0
140
1.0
293
1
141
0.0
294
1
177
0
142
1.0
295
0
296
0
143
0.125
1001
ACAD_MLEADERVER
1070
2
0
MLINESTYLE
5
FAA
102
{ACAD_REACTORS
330
16
102
}
330
16
100
AcDbMlineStyle
2
STANDARD
70
0
3

62
256
51
90.0
52
90.0
71
2
49
0.5
62
256
6
BYLAYER
49
-0.5
62
256
6
BYLAYER
0
ACDBPLACEHOLDER
5
19
102
{ACAD_REACTORS
330
18
102
}
330
18
0
SCALE
5
FAC
102
{ACAD_REACTORS
330
FAB
102
}
330
FAB
100
AcDbScale
70
0
300
1:1
140
1.0
141
1.0
290
1
0
SCALE
5
FAD
102
{ACAD_REACTORS
330
FAB
102
}
330
FAB
100
AcDbScale
70
0
300
1:2
140
1.0
141
2.0
290
0
0
SCALE
5
FAE
102
{ACAD_REACTORS
330
FAB
102
}
330
FAB
100
AcDbScale
70
0
300
1:4
140
1.0
141
4.0
290
0
0
SCALE
5
FAF
102
{ACAD_REACTORS
330
FAB
102
}
330
FAB
100
AcDbScale
70
0
300
1:5
140
1.0
141
5.0
290
0
0
SCALE
5
FB0
102
{ACAD_REACTORS
330
FAB
102
}
330
FAB
100
AcDbScale
70
0
300
1:8
140
1.0
141
8.0
290
0
0
SCALE
5
FB1
102
{ACAD_REACTORS
330
FAB
102
}
330
FAB
100
AcDbScale
70
0
300
1:10
140
1.0
141
10.0
290
0
0
SCALE
5
FB2
102
{ACAD_REACTORS
330
FAB
102
}
330
FAB
100
AcDbScale
70
0
300
1:16
140
1.0
141
16.0
290
0
0
SCALE
5
FB3
102
{ACAD_REACTORS
330
FAB
102
}
330
FAB
100
AcDbScale
70
0
300
1:20
140
1.0
141
20.0
290
0
0
SCALE
5
FB4
102
{ACAD_REACTORS
330
FAB
102
}
330
FAB
100
AcDbScale
70
0
300
1:30
140
1.0
141
30.0
290
0
0
SCALE
5
FB5
102
{ACAD_REACTORS
330
FAB
102
}
330
FAB
100
AcDbScale
70
0
300
1:40
140
1.0
141
40.0
290
0
0
SCALE
5
FB6
102
{ACAD_REACTORS
330
FAB
102
}
330
FAB
100
AcDbScale
70
0
300
1:50
140
1.0
141
50.0
290
0
0
SCALE
5
FB7
102
{ACAD_REACTORS
330
FAB
102
}
330
FAB
100
AcDbScale
70
0
300
1:100
140
1.0
141
100.0
290
0
0
SCALE
5
FB8
102
{ACAD_REACTORS
330
FAB
102
}
330
FAB
100
AcDbScale
70
0
300
2:1
140
2.0
141
1.0
290
0
0
SCALE
5
FB9
102
{ACAD_REACTORS
330
FAB
102
}
330
FAB
100
AcDbScale
70
0
300
4:1
140
4.0
141
1.0
290
0
0
SCALE
5
FBA
102
{ACAD_REACTORS
330
FAB
102
}
330
FAB
100
AcDbScale
70
0
300
8:1
140
8.0
141
1.0
290
0
0
SCALE
5
FBB
102
{ACAD_REACTORS
330
FAB
102
}
330
FAB
100
AcDbScale
70
0
300
10:1
140
10.0
141
1.0
290
0
0
SCALE
5
FBC
102
{ACAD_REACTORS
330
FAB
102
}
330
FAB
100
AcDbScale
70
0
300
100:1
140
100.0
141
1.0
290
0
0
SCALE
5
FBD
102
{ACAD_REACTORS
330
FAB
102
}
330
FAB
100
AcDbScale
70
0
300
1/128" = 1'-0"
140
0.0078125
141
12.0
290
0
0
SCALE
5
FBE
102
{ACAD_REACTORS
330
FAB
102
}
330
FAB
100
AcDbScale
70
0
300
1/64" = 1'-0"
140
0.015625
141
12.0
290
0
0
SCALE
5
FBF
102
{ACAD_REACTORS
330
FAB
102
}
330
FAB
100
AcDbScale
70
0
300
1/32" = 1'-0"
140
0.03125
141
12.0
290
0
0
SCALE
5
FC0
102
{ACAD_REACTORS
330
FAB
102
}
330
FAB
100
AcDbScale
70
0
300
1/16" = 1'-0"
140
0.0625
141
12.0
290
0
0
SCALE
5
FC1
102
{ACAD_REACTORS
330
FAB
102
}
330
FAB
100
AcDbScale
70
0
300
3/32" = 1'-0"
140
0.09375
141
12.0
290
0
0
SCALE
5
FC2
102
{ACAD_REACTORS
330
FAB
102
}
330
FAB
100
AcDbScale
70
0
300
1/8" = 1'-0"
140
0.125
141
12.0
290
0
0
SCALE
5
FC3
102
{ACAD_REACTORS
330
FAB
102
}
330
FAB
100
AcDbScale
70
0
300
3/16" = 1'-0"
140
0.1875
141
12.0
290
0
0
SCALE
5
FC4
102
{ACAD_REACTORS
330
FAB
102
}
330
FAB
100
AcDbScale
70
0
300
1/4" = 1'-0"
140
0.25
141
12.0
290
0
0
SCALE
5
FC5
102
{ACAD_REACTORS
330
FAB
102
}
330
FAB
100
AcDbScale
70
0
300
3/8" = 1'-0"
140
0.375
141
12.0
290
0
0
SCALE
5
FC6
102
{ACAD_REACTORS
330
FAB
102
}
330
FAB
100
AcDbScale
70
0
300
1/2" = 1'-0"
140
0.5
141
12.0
290
0
0
SCALE
5
FC7
102
{ACAD_REACTORS
330
FAB
102
}
330
FAB
100
AcDbScale
70
0
300
3/4" = 1'-0"
140
0.75
141
12.0
290
0
0
SCALE
5
FC8
102
{ACAD_REACTORS
330
FAB
102
}
330
FAB
100
AcDbScale
70
0
300
1" = 1'-0"
140
1.0
141
12.0
290
0
0
SCALE
5
FC9
102
{ACAD_REACTORS
330
FAB
102
}
330
FAB
100
AcDbScale
70
0
300
1-1/2" = 1'-0"
140
1.5
141
12.0
290
0
0
SCALE
5
FCA
102
{ACAD_REACTORS
330
FAB
102
}
330
FAB
100
AcDbScale
70
0
300
3" = 1'-0"
140
3.0
141
12.0
290
0
0
SCALE
5
FCB
102
{ACAD_REACTORS
330
FAB
102
}
330
FAB
100
AcDbScale
70
0
300
6" = 1'-0"
140
6.0
141
12.0
290
0
0
SCALE
5
FCC
102
{ACAD_REACTORS
330
FAB
102
}
330
FAB
100
AcDbScale
70
0
300
1'-0" = 1'-0"
140
12.0
141
12.0
290
0
0
TABLESTYLE
5
FA9
102
{ACAD_XDICTIONARY
360
FF8
102
}
102
{ACAD_REACTORS
330
FA8
102
}
330
FA8
100
AcDbTableStyle
3
Standard
70
0
71
0
40
0.06
41
0.06
280
0
281
0
7
Standard
140
0.18
170
2
62
0
63
7
283
0
274
-2
284
1
64
0
275
-2
285
1
65
0
276
-2
286
1
66
0
277
-2
287
1
67
0
278
-2
288
1
68
0
279
-2
289
1
69
0
7
Standard
140
0.25
170
5
62
0
63
7
283
0
274
-2
284
1
64
0
275
-2
285
1
65
0
276
-2
286
1
66
0
277
-2
287
1
67
0
278
-2
288
1
68
0
279
-2
289
1
69
0
7
Standard
140
0.18
170
5
62
0
63
7
283
0
274
-2
284
1
64
0
275
-2
285
1
65
0
276
-2
286
1
66
0
277
-2
287
1
67
0
278
-2
288
1
68
0
279
-2
289
1
69
0
0
VISUALSTYLE
5
F99
102
{ACAD_XDICTIONARY
360
108A
102
}
102
{ACAD_REACTORS
330
F93
102
}
330
F93
100
AcDbVisualStyle
2

70
4
71
0
72
2
73
0
90
0
40
-0.6
41
-30.0
62
5
63
7
74
1
91
4
64
7
65
257
75
1
175
1
42
1.0
92
0
66
257
43
1.0
76
1
77
6
78
2
67
7
79
5
170
0
171
0
290
0
174
0
93
1
44
0.0
173
0
291
0
45
0.0
1001
ACAD
1000
AcDbSavedByObjectVersion
1070
0
0
VISUALSTYLE
5
F9B
102
{ACAD_XDICTIONARY
360
108E
102
}
102
{ACAD_REACTORS
330
F93
102
}
330
F93
100
AcDbVisualStyle
2

70
6
71
1
72
2
73
2
90
0
40
-0.6
41
-30.0
62
5
63
7
74
2
91
2
64
7
65
257
75
2
175
1
42
179.0
92
0
66
257
43
1.0
76
1
77
6
78
2
67
7
79
3
170
0
171
0
290
0
174
0
93
1
44
0.0
173
0
291
0
45
0.0
1001
ACAD
1000
AcDbSavedByObjectVersion
1070
0
0
VISUALSTYLE
5
F9A
102
{ACAD_XDICTIONARY
360
108C
102
}
102
{ACAD_REACTORS
330
F93
102
}
330
F93
100
AcDbVisualStyle
2

70
5
71
0
72
2
73
0
90
0
40
-0.6
41
-30.0
62
5
63
7
74
1
91
4
64
7
65
257
75
1
175
1
42
1.0
92
0
66
257
43
1.0
76
1
77
6
78
2
67
7
79
5
170
0
171
0
290
0
174
0
93
1
44
0.0
173
0
291
0
45
0.0
1001
ACAD
1000
AcDbSavedByObjectVersion
1070
0
0
VISUALSTYLE
5
F98
102
{ACAD_XDICTIONARY
360
1088
102
}
102
{ACAD_REACTORS
330
F93
102
}
330
F93
100
AcDbVisualStyle
2

70
7
71
1
72
0
73
1
90
0
40
-0.6
41
-30.0
62
5
63
7
74
0
91
4
64
7
65
257
75
1
175
1
42
1.0
92
8
66
7
43
1.0
76
1
77
6
78
2
67
7
79
5
170
0
171
0
290
0
174
0
93
1
44
0.0
173
0
291
1
45
0.0
1001
ACAD
1000
AcDbSavedByObjectVersion
1070
0
0
VISUALSTYLE
5
F9F
102
{ACAD_XDICTIONARY
360
1096
102
}
102
{ACAD_REACTORS
330
F93
102
}
330
F93
100
AcDbVisualStyle
2

70
12
71
2
72
2
73
0
90
0
40
-0.6
41
-30.0
62
5
63
7
74
1
91
4
64
7
65
257
75
1
175
1
42
1.0
92
8
66
7
43
1.0
76
1
77
6
78
2
67
7
79
5
170
0
171
0
290
0
174
0
93
1
44
50.0
173
0
291
1
45
0.0
1001
ACAD
1000
AcDbSavedByObjectVersion
1070
0
0
VISUALSTYLE
5
FA3
102
{ACAD_XDICTIONARY
360
109E
102
}
102
{ACAD_REACTORS
330
F93
102
}
330
F93
100
AcDbVisualStyle
2

70
16
71
2
72
2
73
3
90
0
40
-0.6
41
-30.0
62
5
63
8
74
1
91
4
64
7
65
257
75
1
175
1
42
1.0
92
8
66
8
43
1.0
76
1
77
6
78
2
67
7
79
5
170
0
171
0
290
0
174
0
93
1
44
0.0
173
0
291
1
45
0.0
1001
ACAD
1000
AcDbSavedByObjectVersion
1070
0
0
VISUALSTYLE
5
F9C
102
{ACAD_XDICTIONARY
360
1090
102
}
102
{ACAD_REACTORS
330
F93
102
}
330
F93
100
AcDbVisualStyle
2

70
9
71
3
72
2
73
0
90
0
40
-0.6
41
-30.0
62
5
63
7
74
2
91
2
64
7
65
257
75
1
175
1
42
179.0
92
8
66
7
43
1.0
76
1
77
6
78
2
67
7
79
3
170
0
171
0
290
0
174
0
93
1
44
0.0
173
0
291
0
45
0.0
1001
ACAD
1000
AcDbSavedByObjectVersion
1070
0
0
VISUALSTYLE
5
F9E
102
{ACAD_XDICTIONARY
360
1094
102
}
102
{ACAD_REACTORS
330
F93
102
}
330
F93
100
AcDbVisualStyle
2

70
11
71
2
72
2
73
0
90
0
40
-0.6
41
-30.0
62
5
63
7
74
1
91
4
64
7
65
257
75
1
175
1
42
1.0
92
8
66
7
43
1.0
76
1
77
6
78
2
67
7
79
5
170
0
171
0
290
0
174
0
93
1
44
-50.0
173
0
291
1
45
0.0
1001
ACAD
1000
AcDbSavedByObjectVersion
1070
0
0
VISUALSTYLE
5
FA6
102
{ACAD_XDICTIONARY
360
10A4
102
}
102
{ACAD_REACTORS
330
F93
102
}
330
F93
100
AcDbVisualStyle
2

70
22
71
2
72
2
73
0
90
0
40
-0.6
41
-30.0
62
5
63
7
74
1
91
4
64
7
65
257
75
1
175
1
42
1.0
92
8
66
7
43
1.0
76
1
77
6
78
2
67
7
79
5
170
0
171
0
290
0
174
0
93
1
44
0.0
173
0
291
1
45
0.0
1001
ACAD
1000
AcDbSavedByObjectVersion
1070
0
0
VISUALSTYLE
5
FA2
102
{ACAD_XDICTIONARY
360
109C
102
}
102
{ACAD_REACTORS
330
F93
102
}
330
F93
100
AcDbVisualStyle
2

70
15
71
2
72
2
73
0
90
0
40
-0.6
41
-30.0
62
5
63
7
74
1
91
4
64
7
65
257
75
1
175
1
42
1.0
92
8
66
7
43
1.0
76
1
77
6
78
2
67
7
79
5
170
0
171
0
290
0
174
0
93
1
44
0.0
173
0
291
1
45
0.0
1001
ACAD
1000
AcDbSavedByObjectVersion
1070
0
0
VISUALSTYLE
5
F94
102
{ACAD_XDICTIONARY
360
1080
102
}
102
{ACAD_REACTORS
330
F93
102
}
330
F93
100
AcDbVisualStyle
2

70
0
71
2
72
1
73
1
90
2
40
-0.6
41
30.0
62
5
63
7
74
0
91
4
64
7
65
257
75
1
175
1
42
1.0
92
8
66
7
43
1.0
76
1
77
6
78
2
67
7
79
5
170
0
171
0
290
0
174
0
93
13
44
0.0
173
0
291
1
45
0.0
1001
ACAD
1000
AcDbSavedByObjectVersion
1070
0
0
VISUALSTYLE
5
F95
102
{ACAD_XDICTIONARY
360
1082
102
}
102
{ACAD_REACTORS
330
F93
102
}
330
F93
100
AcDbVisualStyle
2

70
1
71
2
72
1
73
1
90
2
40
-0.6
41
30.0
62
5
63
7
74
1
91
4
64
7
65
257
75
1
175
1
42
1.0
92
0
66
257
43
1.0
76
1
77
6
78
2
67
7
79
5
170
0
171
0
290
0
174
0
93
13
44
0.0
173
0
291
1
45
0.0
1001
ACAD
1000
AcDbSavedByObjectVersion
1070
0
0
VISUALSTYLE
5
F96
102
{ACAD_XDICTIONARY
360
1084
102
}
102
{ACAD_REACTORS
330
F93
102
}
330
F93
100
AcDbVisualStyle
2

70
2
71
2
72
2
73
1
90
2
40
-0.6
41
30.0
62
5
63
7
74
0
91
4
64
7
65
257
75
1
175
1
42
1.0
92
0
66
7
43
1.0
76
1
77
6
78
2
67
7
79
5
170
0
171
0
290
0
174
0
93
13
44
0.0
173
0
291
1
45
0.0
1001
ACAD
1000
AcDbSavedByObjectVersion
1070
0
0
VISUALSTYLE
5
F97
102
{ACAD_XDICTIONARY
360
1086
102
}
102
{ACAD_REACTORS
330
F93
102
}
330
F93
100
AcDbVisualStyle
2

70
3
71
2
72
2
73
1
90
2
40
-0.6
41
30.0
62
5
63
7
74
1
91
4
64
7
65
257
75
1
175
1
42
1.0
92
0
66
257
43
1.0
76
1
77
6
78
2
67
7
79
5
170
0
171
0
290
0
174
0
93
13
44
0.0
173
0
291
1
45
0.0
1001
ACAD
1000
AcDbSavedByObjectVersion
1070
0
0
VISUALSTYLE
5
FA4
102
{ACAD_XDICTIONARY
360
10A0
102
}
102
{ACAD_REACTORS
330
F93
102
}
330
F93
100
AcDbVisualStyle
2

70
20
71
2
72
2
73
0
90
0
40
-0.6
41
-30.0
62
5
63
7
74
1
91
4
64
7
65
257
75
1
175
1
42
1.0
92
10
66
7
43
1.0
76
1
77
6
78
2
67
7
79
5
170
0
171
0
290
0
174
0
93
1
44
0.0
173
0
291
1
45
0.0
1001
ACAD
1000
AcDbSavedByObjectVersion
1070
0
0
VISUALSTYLE
5
FA1
102
{ACAD_XDICTIONARY
360
109A
102
}
102
{ACAD_REACTORS
330
F93
102
}
330
F93
100
AcDbVisualStyle
2

70
14
71
2
72
2
73
0
90
0
40
-0.6
41
-30.0
62
5
63
7
74
1
91
4
64
7
65
257
75
7
175
7
42
1.0
92
8
66
7
43
1.0
76
1
77
6
78
2
67
7
79
5
170
0
171
0
290
0
174
0
93
1
44
0.0
173
0
291
1
45
0.0
1001
ACAD
1000
AcDbSavedByObjectVersion
1070
0
0
VISUALSTYLE
5
FA5
102
{ACAD_XDICTIONARY
360
10A2
102
}
102
{ACAD_REACTORS
330
F93
102
}
330
F93
100
AcDbVisualStyle
2

70
21
71
2
72
2
73
0
90
0
40
-0.6
41
-30.0
62
5
63
7
74
1
91
4
64
7
65
257
75
1
175
1
42
1.0
92
9
66
7
43
1.0
76
1
77
6
78
2
67
7
79
5
170
0
171
0
290
0
174
0
93
1
44
0.0
173
0
291
1
45
0.0
1001
ACAD
1000
AcDbSavedByObjectVersion
1070
0
0
VISUALSTYLE
5
F9D
102
{ACAD_XDICTIONARY
360
1092
102
}
102
{ACAD_REACTORS
330
F93
102
}
330
F93
100
AcDbVisualStyle
2

70
8
71
2
72
2
73
0
90
0
40
-0.6
41
-30.0
62
5
63
7
74
1
91
0
64
7
65
257
75
1
175
1
42
1.0
92
8
66
8
43
1.0
76
1
77
6
78
2
67
7
79
5
170
0
171
0
290
0
174
0
93
13
44
0.0
173
0
291
0
45
0.0
1001
ACAD
1000
AcDbSavedByObjectVersion
1070
0
0
VISUALSTYLE
5
FA0
102
{ACAD_XDICTIONARY
360
1098
102
}
102
{ACAD_REACTORS
330
F93
102
}
330
F93
100
AcDbVisualStyle
2

70
13
71
2
72
2
73
0
90
0
40
-0.6
41
-30.0
62
5
63
7
74
1
91
4
64
7
65
257
75
1
175
1
42
1.0
92
12
66
7
43
1.0
76
1
77
6
78
2
67
7
79
5
170
0
171
0
290
0
174
0
93
1
44
0.0
173
0
291
1
45
0.0
1001
ACAD
1000
AcDbSavedByObjectVersion
1070
0
0
DICTIONARYVAR
5
FF3
102
{ACAD_REACTORS
330
FF0
102
}
330
FF0
100
DictionaryVariables
280
0
1
1:1
0
DICTIONARYVAR
5
FF2
102
{ACAD_REACTORS
330
FF0
102
}
330
FF0
100
DictionaryVariables
280
0
1
STANDARD
0
DICTIONARYVAR
5
FF1
102
{ACAD_REACTORS
330
FF0
102
}
330
FF0
100
DictionaryVariables
280
0
1
STANDARD
0
DICTIONARYVAR
5
FF6
102
{ACAD_REACTORS
330
FF0
102
}
330
FF0
100
DictionaryVariables
280
0
1
1
0
DICTIONARYVAR
5
FF5
102
{ACAD_REACTORS
330
FF0
102
}
330
FF0
100
DictionaryVariables
280
0
1
0
0
DICTIONARYVAR
5
FF4
102
{ACAD_REACTORS
330
FF0
102
}
330
FF0
100
DictionaryVariables
280
0
1
127
0
DICTIONARYVAR
5
1078
102
{ACAD_REACTORS
330
FF0
102
}
330
FF0
100
DictionaryVariables
280
0
1
2
0
DICTIONARY
5
10A9
330
FD1
100
AcDbDictionary
280
1
281
1
3
ACAD_XREC_ROUNDTRIP
360
10AA
0
DICTIONARY
5
10A7
330
FD0
100
AcDbDictionary
280
1
281
1
3
ACAD_XREC_ROUNDTRIP
360
10A8
0
DICTIONARY
5
F84
330
F83
100
AcDbDictionary
280
1
281
1
3
ACAD_XREC_ROUNDTRIP
360
FFF
3
BUMPTILE
360
F86
3
DIFFUSETILE
360
F85
3
OPACITYTILE
360
F89
3
REFLECTIONTILE
360
F88
3
REFRACTIONTILE
360
F8A
3
SPECULARTILE
360
F87
0
DICTIONARY
5
F7C
330
F7B
100
AcDbDictionary
280
1
281
1
3
ACAD_XREC_ROUNDTRIP
360
FFE
3
BUMPTILE
360
F7E
3
DIFFUSETILE
360
F7D
3
OPACITYTILE
360
F81
3
REFLECTIONTILE
360
F80
3
REFRACTIONTILE
360
F82
3
SPECULARTILE
360
F7F
0
DICTIONARY
5
F8C
330
F8B
100
AcDbDictionary
280
1
281
1
3
ACAD_XREC_ROUNDTRIP
360
1000
3
BUMPTILE
360
F8E
3
DIFFUSETILE
360
F8D
3
OPACITYTILE
360
F91
3
REFLECTIONTILE
360
F90
3
REFRACTIONTILE
360
F92
3
SPECULARTILE
360
F8F
0
DICTIONARY
5
FF8
330
FA9
100
AcDbDictionary
280
1
281
1
3
ACAD_ROUNDTRIP_2008_TABLESTYLE_CELLSTYLEMAP
360
1079
3
ACAD_XREC_ROUNDTRIP
360
10A6
0
DICTIONARY
5
108A
330
F99
100
AcDbDictionary
280
1
281
1
3
ACAD_XREC_ROUNDTRIP
360
108B
0
DICTIONARY
5
108E
330
F9B
100
AcDbDictionary
280
1
281
1
3
ACAD_XREC_ROUNDTRIP
360
108F
0
DICTIONARY
5
108C
330
F9A
100
AcDbDictionary
280
1
281
1
3
ACAD_XREC_ROUNDTRIP
360
108D
0
DICTIONARY
5
1088
330
F98
100
AcDbDictionary
280
1
281
1
3
ACAD_XREC_ROUNDTRIP
360
1089
0
DICTIONARY
5
1096
330
F9F
100
AcDbDictionary
280
1
281
1
3
ACAD_XREC_ROUNDTRIP
360
1097
0
DICTIONARY
5
109E
330
FA3
100
AcDbDictionary
280
1
281
1
3
ACAD_XREC_ROUNDTRIP
360
109F
0
DICTIONARY
5
1090
330
F9C
100
AcDbDictionary
280
1
281
1
3
ACAD_XREC_ROUNDTRIP
360
1091
0
DICTIONARY
5
1094
330
F9E
100
AcDbDictionary
280
1
281
1
3
ACAD_XREC_ROUNDTRIP
360
1095
0
DICTIONARY
5
10A4
330
FA6
100
AcDbDictionary
280
1
281
1
3
ACAD_XREC_ROUNDTRIP
360
10A5
0
DICTIONARY
5
109C
330
FA2
100
AcDbDictionary
280
1
281
1
3
ACAD_XREC_ROUNDTRIP
360
109D
0
DICTIONARY
5
1080
330
F94
100
AcDbDictionary
280
1
281
1
3
ACAD_XREC_ROUNDTRIP
360
1081
0
DICTIONARY
5
1082
330
F95
100
AcDbDictionary
280
1
281
1
3
ACAD_XREC_ROUNDTRIP
360
1083
0
DICTIONARY
5
1084
330
F96
100
AcDbDictionary
280
1
281
1
3
ACAD_XREC_ROUNDTRIP
360
1085
0
DICTIONARY
5
1086
330
F97
100
AcDbDictionary
280
1
281
1
3
ACAD_XREC_ROUNDTRIP
360
1087
0
DICTIONARY
5
10A0
330
FA4
100
AcDbDictionary
280
1
281
1
3
ACAD_XREC_ROUNDTRIP
360
10A1
0
DICTIONARY
5
109A
330
FA1
100
AcDbDictionary
280
1
281
1
3
ACAD_XREC_ROUNDTRIP
360
109B
0
DICTIONARY
5
10A2
330
FA5
100
AcDbDictionary
280
1
281
1
3
ACAD_XREC_ROUNDTRIP
360
10A3
0
DICTIONARY
5
1092
330
F9D
100
AcDbDictionary
280
1
281
1
3
ACAD_XREC_ROUNDTRIP
360
1093
0
DICTIONARY
5
1098
330
FA0
100
AcDbDictionary
280
1
281
1
3
ACAD_XREC_ROUNDTRIP
360
1099
0
XRECORD
5
10AA
102
{ACAD_REACTORS
330
10A9
102
}
330
10A9
100
AcDbXrecord
280
1
102
SHADEPLOT
70
0
102
SHADEPLOTRESLEVEL
70
2
102
SHADEPLOTCUSTOMDPI
70
300
0
XRECORD
5
10A8
102
{ACAD_REACTORS
330
10A7
102
}
330
10A7
100
AcDbXrecord
280
1
102
SHADEPLOT
70
0
102
SHADEPLOTRESLEVEL
70
2
102
SHADEPLOTCUSTOMDPI
70
300
0
XRECORD
5
FFF
102
{ACAD_REACTORS
330
F84
102
}
330
F84
100
AcDbXrecord
280
1
102
MATERIAL
148
0.0
149
0.0
149
0.0
93
0
94
127
282
0
72
0
77
0
171
0
175
0
179
0
273
0
0
XRECORD
5
F86
102
{ACAD_REACTORS
330
F84
102
}
330
F84
100
AcDbXrecord
280
1
270
1
271
1
0
XRECORD
5
F85
102
{ACAD_REACTORS
330
F84
102
}
330
F84
100
AcDbXrecord
280
1
270
1
271
1
0
XRECORD
5
F89
102
{ACAD_REACTORS
330
F84
102
}
330
F84
100
AcDbXrecord
280
1
270
1
271
1
0
XRECORD
5
F88
102
{ACAD_REACTORS
330
F84
102
}
330
F84
100
AcDbXrecord
280
1
270
1
271
1
0
XRECORD
5
F8A
102
{ACAD_REACTORS
330
F84
102
}
330
F84
100
AcDbXrecord
280
1
270
1
271
1
0
XRECORD
5
F87
102
{ACAD_REACTORS
330
F84
102
}
330
F84
100
AcDbXrecord
280
1
270
1
271
1
0
XRECORD
5
FFE
102
{ACAD_REACTORS
330
F7C
102
}
330
F7C
100
AcDbXrecord
280
1
102
MATERIAL
148
0.0
149
0.0
149
0.0
93
0
94
127
282
0
72
0
77
0
171
0
175
0
179
0
273
0
0
XRECORD
5
F7E
102
{ACAD_REACTORS
330
F7C
102
}
330
F7C
100
AcDbXrecord
280
1
270
1
271
1
0
XRECORD
5
F7D
102
{ACAD_REACTORS
330
F7C
102
}
330
F7C
100
AcDbXrecord
280
1
270
1
271
1
0
XRECORD
5
F81
102
{ACAD_REACTORS
330
F7C
102
}
330
F7C
100
AcDbXrecord
280
1
270
1
271
1
0
XRECORD
5
F80
102
{ACAD_REACTORS
330
F7C
102
}
330
F7C
100
AcDbXrecord
280
1
270
1
271
1
0
XRECORD
5
F82
102
{ACAD_REACTORS
330
F7C
102
}
330
F7C
100
AcDbXrecord
280
1
270
1
271
1
0
XRECORD
5
F7F
102
{ACAD_REACTORS
330
F7C
102
}
330
F7C
100
AcDbXrecord
280
1
270
1
271
1
0
XRECORD
5
1000
102
{ACAD_REACTORS
330
F8C
102
}
330
F8C
100
AcDbXrecord
280
1
102
MATERIAL
148
0.0
149
0.0
149
0.0
93
0
94
127
282
0
72
0
77
0
171
0
175
0
179
0
273
0
0
XRECORD
5
F8E
102
{ACAD_REACTORS
330
F8C
102
}
330
F8C
100
AcDbXrecord
280
1
270
1
271
1
0
XRECORD
5
F8D
102
{ACAD_REACTORS
330
F8C
102
}
330
F8C
100
AcDbXrecord
280
1
270
1
271
1
0
XRECORD
5
F91
102
{ACAD_REACTORS
330
F8C
102
}
330
F8C
100
AcDbXrecord
280
1
270
1
271
1
0
XRECORD
5
F90
102
{ACAD_REACTORS
330
F8C
102
}
330
F8C
100
AcDbXrecord
280
1
270
1
271
1
0
XRECORD
5
F92
102
{ACAD_REACTORS
330
F8C
102
}
330
F8C
100
AcDbXrecord
280
1
270
1
271
1
0
XRECORD
5
F8F
102
{ACAD_REACTORS
330
F8C
102
}
330
F8C
100
AcDbXrecord
280
1
270
1
271
1
0
CELLSTYLEMAP
5
1079
102
{ACAD_REACTORS
330
FF8
102
}
330
FF8
100
AcDbCellStyleMap
90
3
300
CELLSTYLE
1
TABLEFORMAT_BEGIN
90
5
170
1
91
0
92
32768
62
257
93
1
300
CONTENTFORMAT
1
CONTENTFORMAT_BEGIN
90
0
91
0
92
512
93
0
300

40
0.0
140
1.0
94
5
62
0
340
253
144
0.25
309
CONTENTFORMAT_END
171
1
301
MARGIN
1
CELLMARGIN_BEGIN
40
0.06
40
0.06
40
0.06
40
0.06
40
0.18
40
0.18
309
CELLMARGIN_END
94
6
95
1
302
GRIDFORMAT
1
GRIDFORMAT_BEGIN
90
0
91
1
62
0
92
-2
340
0
93
0
40
0.045
309
GRIDFORMAT_END
95
2
302
GRIDFORMAT
1
GRIDFORMAT_BEGIN
90
0
91
1
62
0
92
-2
340
0
93
0
40
0.045
309
GRIDFORMAT_END
95
4
302
GRIDFORMAT
1
GRIDFORMAT_BEGIN
90
0
91
1
62
0
92
-2
340
0
93
0
40
0.045
309
GRIDFORMAT_END
95
8
302
GRIDFORMAT
1
GRIDFORMAT_BEGIN
90
0
91
1
62
0
92
-2
340
0
93
0
40
0.045
309
GRIDFORMAT_END
95
16
302
GRIDFORMAT
1
GRIDFORMAT_BEGIN
90
0
91
1
62
0
92
-2
340
0
93
0
40
0.045
309
GRIDFORMAT_END
95
32
302
GRIDFORMAT
1
GRIDFORMAT_BEGIN
90
0
91
1
62
0
92
-2
340
0
93
0
40
0.045
309
GRIDFORMAT_END
309
TABLEFORMAT_END
1
CELLSTYLE_BEGIN
90
1
91
1
300
_TITLE
309
CELLSTYLE_END
300
CELLSTYLE
1
TABLEFORMAT_BEGIN
90
5
170
1
91
0
92
0
62
257
93
1
300
CONTENTFORMAT
1
CONTENTFORMAT_BEGIN
90
0
91
0
92
512
93
0
300

40
0.0
140
1.0
94
5
62
0
340
253
144
0.18
309
CONTENTFORMAT_END
171
1
301
MARGIN
1
CELLMARGIN_BEGIN
40
0.06
40
0.06
40
0.06
40
0.06
40
0.18
40
0.18
309
CELLMARGIN_END
94
6
95
1
302
GRIDFORMAT
1
GRIDFORMAT_BEGIN
90
0
91
1
62
0
92
-2
340
0
93
0
40
0.045
309
GRIDFORMAT_END
95
2
302
GRIDFORMAT
1
GRIDFORMAT_BEGIN
90
0
91
1
62
0
92
-2
340
0
93
0
40
0.045
309
GRIDFORMAT_END
95
4
302
GRIDFORMAT
1
GRIDFORMAT_BEGIN
90
0
91
1
62
0
92
-2
340
0
93
0
40
0.045
309
GRIDFORMAT_END
95
8
302
GRIDFORMAT
1
GRIDFORMAT_BEGIN
90
0
91
1
62
0
92
-2
340
0
93
0
40
0.045
309
GRIDFORMAT_END
95
16
302
GRIDFORMAT
1
GRIDFORMAT_BEGIN
90
0
91
1
62
0
92
-2
340
0
93
0
40
0.045
309
GRIDFORMAT_END
95
32
302
GRIDFORMAT
1
GRIDFORMAT_BEGIN
90
0
91
1
62
0
92
-2
340
0
93
0
40
0.045
309
GRIDFORMAT_END
309
TABLEFORMAT_END
1
CELLSTYLE_BEGIN
90
2
91
1
300
_HEADER
309
CELLSTYLE_END
300
CELLSTYLE
1
TABLEFORMAT_BEGIN
90
5
170
1
91
0
92
0
62
257
93
1
300
CONTENTFORMAT
1
CONTENTFORMAT_BEGIN
90
0
91
0
92
512
93
0
300

40
0.0
140
1.0
94
2
62
0
340
253
144
0.18
309
CONTENTFORMAT_END
171
1
301
MARGIN
1
CELLMARGIN_BEGIN
40
0.06
40
0.06
40
0.06
40
0.06
40
0.18
40
0.18
309
CELLMARGIN_END
94
6
95
1
302
GRIDFORMAT
1
GRIDFORMAT_BEGIN
90
0
91
1
62
0
92
-2
340
0
93
0
40
0.045
309
GRIDFORMAT_END
95
2
302
GRIDFORMAT
1
GRIDFORMAT_BEGIN
90
0
91
1
62
0
92
-2
340
0
93
0
40
0.045
309
GRIDFORMAT_END
95
4
302
GRIDFORMAT
1
GRIDFORMAT_BEGIN
90
0
91
1
62
0
92
-2
340
0
93
0
40
0.045
309
GRIDFORMAT_END
95
8
302
GRIDFORMAT
1
GRIDFORMAT_BEGIN
90
0
91
1
62
0
92
-2
340
0
93
0
40
0.045
309
GRIDFORMAT_END
95
16
302
GRIDFORMAT
1
GRIDFORMAT_BEGIN
90
0
91
1
62
0
92
-2
340
0
93
0
40
0.045
309
GRIDFORMAT_END
95
32
302
GRIDFORMAT
1
GRIDFORMAT_BEGIN
90
0
91
1
62
0
92
-2
340
0
93
0
40
0.045
309
GRIDFORMAT_END
309
TABLEFORMAT_END
1
CELLSTYLE_BEGIN
90
3
91
2
300
_DATA
309
CELLSTYLE_END
0
XRECORD
5
10A6
102
{ACAD_REACTORS
330
FF8
102
}
330
FF8
100
AcDbXrecord
280
1
102
ACAD_ROUNDTRIP_PRE2007_TABLESTYLE
90
512
91
0
1

92
512
93
0
2

94
512
95
0
3

0
XRECORD
5
108B
102
{ACAD_REACTORS
330
108A
102
}
330
108A
100
AcDbXrecord
280
1
102
RTVSPropertyOp0
70
1
102
RTVSPropertyOp1
70
1
102
RTVSPropertyOp2
70
1
102
RTVSPropertyOp3
70
1
102
RTVSPropertyOp4
70
1
102
RTVSPropertyOp5
70
1
102
RTVSPropertyOp6
70
1
102
RTVSPropertyOp7
70
1
102
RTVSPropertyOp8
70
1
102
RTVSPropertyOp9
70
1
102
RTVSPropertyOp10
70
1
102
RTVSPropertyOp11
70
1
102
RTVSPropertyOp12
70
1
102
RTVSPropertyOp13
70
1
102
RTVSPropertyOp14
70
1
102
RTVSPropertyOp15
70
1
102
RTVSPropertyOp16
70
1
102
RTVSPropertyOp17
70
1
102
RTVSPropertyOp18
70
1
102
RTVSPropertyOp19
70
1
102
RTVSPropertyOp20
70
1
102
RTVSPropertyOp21
70
1
102
RTVSPropertyOp22
70
1
102
RTVSPropertyOp23
70
1
102
RTVSPropertyOp24
70
1
102
RTVSPropertyOp25
70
1
102
RTVSPropertyOp26
70
1
102
RTVSPropertyOp27
70
1
0
XRECORD
5
108F
102
{ACAD_REACTORS
330
108E
102
}
330
108E
100
AcDbXrecord
280
1
102
RTVSPropertyOp0
70
1
102
RTVSPropertyOp1
70
1
102
RTVSPropertyOp2
70
1
102
RTVSPropertyOp3
70
1
102
RTVSPropertyOp4
70
1
102
RTVSPropertyOp5
70
1
102
RTVSPropertyOp6
70
1
102
RTVSPropertyOp7
70
1
102
RTVSPropertyOp8
70
1
102
RTVSPropertyOp9
70
1
102
RTVSPropertyOp10
70
1
102
RTVSPropertyOp11
70
1
102
RTVSPropertyOp12
70
1
102
RTVSPropertyOp13
70
1
102
RTVSPropertyOp14
70
1
102
RTVSPropertyOp15
70
1
102
RTVSPropertyOp16
70
1
102
RTVSPropertyOp17
70
1
102
RTVSPropertyOp18
70
1
102
RTVSPropertyOp19
70
1
102
RTVSPropertyOp20
70
1
102
RTVSPropertyOp21
70
1
102
RTVSPropertyOp22
70
1
102
RTVSPropertyOp23
70
1
102
RTVSPropertyOp24
70
1
102
RTVSPropertyOp25
70
1
102
RTVSPropertyOp26
70
1
102
RTVSPropertyOp27
70
1
0
XRECORD
5
108D
102
{ACAD_REACTORS
330
108C
102
}
330
108C
100
AcDbXrecord
280
1
102
RTVSPropertyOp0
70
1
102
RTVSPropertyOp1
70
1
102
RTVSPropertyOp2
70
1
102
RTVSPropertyOp3
70
1
102
RTVSPropertyOp4
70
1
102
RTVSPropertyOp5
70
1
102
RTVSPropertyOp6
70
1
102
RTVSPropertyOp7
70
1
102
RTVSPropertyOp8
70
1
102
RTVSPropertyOp9
70
1
102
RTVSPropertyOp10
70
1
102
RTVSPropertyOp11
70
1
102
RTVSPropertyOp12
70
1
102
RTVSPropertyOp13
70
1
102
RTVSPropertyOp14
70
1
102
RTVSPropertyOp15
70
1
102
RTVSPropertyOp16
70
1
102
RTVSPropertyOp17
70
1
102
RTVSPropertyOp18
70
1
102
RTVSPropertyOp19
70
1
102
RTVSPropertyOp20
70
1
102
RTVSPropertyOp21
70
1
102
RTVSPropertyOp22
70
1
102
RTVSPropertyOp23
70
1
102
RTVSPropertyOp24
70
1
102
RTVSPropertyOp25
70
1
102
RTVSPropertyOp26
70
1
102
RTVSPropertyOp27
70
1
0
XRECORD
5
1089
102
{ACAD_REACTORS
330
1088
102
}
330
1088
100
AcDbXrecord
280
1
102
RTVSPropertyOp0
70
1
102
RTVSPropertyOp1
70
1
102
RTVSPropertyOp2
70
1
102
RTVSPropertyOp3
70
1
102
RTVSPropertyOp4
70
1
102
RTVSPropertyOp5
70
1
102
RTVSPropertyOp6
70
1
102
RTVSPropertyOp7
70
1
102
RTVSPropertyOp8
70
1
102
RTVSPropertyOp9
70
1
102
RTVSPropertyOp10
70
1
102
RTVSPropertyOp11
70
1
102
RTVSPropertyOp12
70
1
102
RTVSPropertyOp13
70
1
102
RTVSPropertyOp14
70
1
102
RTVSPropertyOp15
70
1
102
RTVSPropertyOp16
70
1
102
RTVSPropertyOp17
70
1
102
RTVSPropertyOp18
70
1
102
RTVSPropertyOp19
70
1
102
RTVSPropertyOp20
70
1
102
RTVSPropertyOp21
70
1
102
RTVSPropertyOp22
70
1
102
RTVSPropertyOp23
70
1
102
RTVSPropertyOp24
70
1
102
RTVSPropertyOp25
70
1
102
RTVSPropertyOp26
70
1
102
RTVSPropertyOp27
70
1
0
XRECORD
5
1097
102
{ACAD_REACTORS
330
1096
102
}
330
1096
100
AcDbXrecord
280
1
102
RTVSPropertyOp0
70
1
102
RTVSPropertyOp1
70
1
102
RTVSPropertyOp2
70
1
102
RTVSPropertyOp3
70
1
102
RTVSPropertyOp4
70
1
102
RTVSPropertyOp5
70
1
102
RTVSPropertyOp6
70
1
102
RTVSPropertyOp7
70
1
102
RTVSPropertyOp8
70
1
102
RTVSPropertyOp9
70
1
102
RTVSPropertyOp10
70
1
102
RTVSPropertyOp11
70
1
102
RTVSPropertyOp12
70
1
102
RTVSPropertyOp13
70
1
102
RTVSPropertyOp14
70
1
102
RTVSPropertyOp15
70
1
102
RTVSPropertyOp16
70
1
102
RTVSPropertyOp17
70
1
102
RTVSPropertyOp18
70
1
102
RTVSPropertyOp19
70
1
102
RTVSPropertyOp20
70
1
102
RTVSPropertyOp21
70
1
102
RTVSPropertyOp22
70
1
102
RTVSPropertyOp23
70
1
102
RTVSPropertyOp24
70
1
102
RTVSPropertyOp25
70
1
102
RTVSPropertyOp26
70
1
102
RTVSPropertyOp27
70
1
0
XRECORD
5
109F
102
{ACAD_REACTORS
330
109E
102
}
330
109E
100
AcDbXrecord
280
1
102
RTVSPropertyOp0
70
1
102
RTVSPropertyOp1
70
1
102
RTVSPropertyOp2
70
1
102
RTVSPropertyOp3
70
1
102
RTVSPropertyOp4
70
1
102
RTVSPropertyOp5
70
1
102
RTVSPropertyOp6
70
1
102
RTVSPropertyOp7
70
1
102
RTVSPropertyOp8
70
1
102
RTVSPropertyOp9
70
1
102
RTVSPropertyOp10
70
1
102
RTVSPropertyOp11
70
1
102
RTVSPropertyOp12
70
1
102
RTVSPropertyOp13
70
1
102
RTVSPropertyOp14
70
1
102
RTVSPropertyOp15
70
1
102
RTVSPropertyOp16
70
1
102
RTVSPropertyOp17
70
1
102
RTVSPropertyOp18
70
1
102
RTVSPropertyOp19
70
1
102
RTVSPropertyOp20
70
1
102
RTVSPropertyOp21
70
1
102
RTVSPropertyOp22
70
1
102
RTVSPropertyOp23
70
1
102
RTVSPropertyOp24
70
1
102
RTVSPropertyOp25
70
1
102
RTVSPropertyOp26
70
1
102
RTVSPropertyOp27
70
1
0
XRECORD
5
1091
102
{ACAD_REACTORS
330
1090
102
}
330
1090
100
AcDbXrecord
280
1
102
RTVSPropertyOp0
70
1
102
RTVSPropertyOp1
70
1
102
RTVSPropertyOp2
70
1
102
RTVSPropertyOp3
70
1
102
RTVSPropertyOp4
70
1
102
RTVSPropertyOp5
70
1
102
RTVSPropertyOp6
70
1
102
RTVSPropertyOp7
70
1
102
RTVSPropertyOp8
70
1
102
RTVSPropertyOp9
70
1
102
RTVSPropertyOp10
70
1
102
RTVSPropertyOp11
70
1
102
RTVSPropertyOp12
70
1
102
RTVSPropertyOp13
70
1
102
RTVSPropertyOp14
70
1
102
RTVSPropertyOp15
70
1
102
RTVSPropertyOp16
70
1
102
RTVSPropertyOp17
70
1
102
RTVSPropertyOp18
70
1
102
RTVSPropertyOp19
70
1
102
RTVSPropertyOp20
70
1
102
RTVSPropertyOp21
70
1
102
RTVSPropertyOp22
70
1
102
RTVSPropertyOp23
70
1
102
RTVSPropertyOp24
70
1
102
RTVSPropertyOp25
70
1
102
RTVSPropertyOp26
70
1
102
RTVSPropertyOp27
70
1
0
XRECORD
5
1095
102
{ACAD_REACTORS
330
1094
102
}
330
1094
100
AcDbXrecord
280
1
102
RTVSPropertyOp0
70
1
102
RTVSPropertyOp1
70
1
102
RTVSPropertyOp2
70
1
102
RTVSPropertyOp3
70
1
102
RTVSPropertyOp4
70
1
102
RTVSPropertyOp5
70
1
102
RTVSPropertyOp6
70
1
102
RTVSPropertyOp7
70
1
102
RTVSPropertyOp8
70
1
102
RTVSPropertyOp9
70
1
102
RTVSPropertyOp10
70
1
102
RTVSPropertyOp11
70
1
102
RTVSPropertyOp12
70
1
102
RTVSPropertyOp13
70
1
102
RTVSPropertyOp14
70
1
102
RTVSPropertyOp15
70
1
102
RTVSPropertyOp16
70
1
102
RTVSPropertyOp17
70
1
102
RTVSPropertyOp18
70
1
102
RTVSPropertyOp19
70
1
102
RTVSPropertyOp20
70
1
102
RTVSPropertyOp21
70
1
102
RTVSPropertyOp22
70
1
102
RTVSPropertyOp23
70
1
102
RTVSPropertyOp24
70
1
102
RTVSPropertyOp25
70
1
102
RTVSPropertyOp26
70
1
102
RTVSPropertyOp27
70
1
0
XRECORD
5
10A5
102
{ACAD_REACTORS
330
10A4
102
}
330
10A4
100
AcDbXrecord
280
1
102
RTVSPropertyOp0
70
0
102
RTVSPropertyOp1
70
0
102
RTVSPropertyOp2
70
0
102
RTVSPropertyOp3
70
0
102
RTVSPropertyOp4
70
0
102
RTVSPropertyOp5
70
0
102
RTVSPropertyOp6
70
0
102
RTVSPropertyOp7
70
0
102
RTVSPropertyOp8
70
0
102
RTVSPropertyOp9
70
0
102
RTVSPropertyOp10
70
0
102
RTVSPropertyOp11
70
0
102
RTVSPropertyOp12
70
0
102
RTVSPropertyOp13
70
0
102
RTVSPropertyOp14
70
2
102
RTVSPropertyOp15
70
0
102
RTVSPropertyOp16
70
0
102
RTVSPropertyOp17
70
0
102
RTVSPropertyOp18
70
0
102
RTVSPropertyOp19
70
0
102
RTVSPropertyOp20
70
0
102
RTVSPropertyOp21
70
0
102
RTVSPropertyOp22
70
0
102
RTVSPropertyOp23
70
0
102
RTVSPropertyOp24
70
0
102
RTVSPropertyOp25
70
0
102
RTVSPropertyOp26
70
0
102
RTVSPropertyOp27
70
0
0
XRECORD
5
109D
102
{ACAD_REACTORS
330
109C
102
}
330
109C
100
AcDbXrecord
280
1
102
RTVSPropertyOp0
70
1
102
RTVSPropertyOp1
70
1
102
RTVSPropertyOp2
70
1
102
RTVSPropertyOp3
70
1
102
RTVSPropertyOp4
70
1
102
RTVSPropertyOp5
70
1
102
RTVSPropertyOp6
70
1
102
RTVSPropertyOp7
70
1
102
RTVSPropertyOp8
70
1
102
RTVSPropertyOp9
70
1
102
RTVSPropertyOp10
70
1
102
RTVSPropertyOp11
70
1
102
RTVSPropertyOp12
70
1
102
RTVSPropertyOp13
70
1
102
RTVSPropertyOp14
70
1
102
RTVSPropertyOp15
70
1
102
RTVSPropertyOp16
70
1
102
RTVSPropertyOp17
70
1
102
RTVSPropertyOp18
70
1
102
RTVSPropertyOp19
70
1
102
RTVSPropertyOp20
70
1
102
RTVSPropertyOp21
70
1
102
RTVSPropertyOp22
70
1
102
RTVSPropertyOp23
70
1
102
RTVSPropertyOp24
70
1
102
RTVSPropertyOp25
70
1
102
RTVSPropertyOp26
70
1
102
RTVSPropertyOp27
70
1
0
XRECORD
5
1081
102
{ACAD_REACTORS
330
1080
102
}
330
1080
100
AcDbXrecord
280
1
102
RTVSPropertyOp0
70
1
102
RTVSPropertyOp1
70
1
102
RTVSPropertyOp2
70
1
102
RTVSPropertyOp3
70
1
102
RTVSPropertyOp4
70
1
102
RTVSPropertyOp5
70
1
102
RTVSPropertyOp6
70
1
102
RTVSPropertyOp7
70
1
102
RTVSPropertyOp8
70
1
102
RTVSPropertyOp9
70
1
102
RTVSPropertyOp10
70
1
102
RTVSPropertyOp11
70
1
102
RTVSPropertyOp12
70
1
102
RTVSPropertyOp13
70
1
102
RTVSPropertyOp14
70
1
102
RTVSPropertyOp15
70
1
102
RTVSPropertyOp16
70
1
102
RTVSPropertyOp17
70
1
102
RTVSPropertyOp18
70
1
102
RTVSPropertyOp19
70
1
102
RTVSPropertyOp20
70
1
102
RTVSPropertyOp21
70
1
102
RTVSPropertyOp22
70
1
102
RTVSPropertyOp23
70
1
102
RTVSPropertyOp24
70
1
102
RTVSPropertyOp25
70
1
102
RTVSPropertyOp26
70
1
102
RTVSPropertyOp27
70
1
0
XRECORD
5
1083
102
{ACAD_REACTORS
330
1082
102
}
330
1082
100
AcDbXrecord
280
1
102
RTVSPropertyOp0
70
1
102
RTVSPropertyOp1
70
1
102
RTVSPropertyOp2
70
1
102
RTVSPropertyOp3
70
1
102
RTVSPropertyOp4
70
1
102
RTVSPropertyOp5
70
1
102
RTVSPropertyOp6
70
1
102
RTVSPropertyOp7
70
1
102
RTVSPropertyOp8
70
1
102
RTVSPropertyOp9
70
1
102
RTVSPropertyOp10
70
1
102
RTVSPropertyOp11
70
1
102
RTVSPropertyOp12
70
1
102
RTVSPropertyOp13
70
1
102
RTVSPropertyOp14
70
1
102
RTVSPropertyOp15
70
1
102
RTVSPropertyOp16
70
1
102
RTVSPropertyOp17
70
1
102
RTVSPropertyOp18
70
1
102
RTVSPropertyOp19
70
1
102
RTVSPropertyOp20
70
1
102
RTVSPropertyOp21
70
1
102
RTVSPropertyOp22
70
1
102
RTVSPropertyOp23
70
1
102
RTVSPropertyOp24
70
1
102
RTVSPropertyOp25
70
1
102
RTVSPropertyOp26
70
1
102
RTVSPropertyOp27
70
1
0
XRECORD
5
1085
102
{ACAD_REACTORS
330
1084
102
}
330
1084
100
AcDbXrecord
280
1
102
RTVSPropertyOp0
70
1
102
RTVSPropertyOp1
70
1
102
RTVSPropertyOp2
70
1
102
RTVSPropertyOp3
70
1
102
RTVSPropertyOp4
70
1
102
RTVSPropertyOp5
70
1
102
RTVSPropertyOp6
70
1
102
RTVSPropertyOp7
70
1
102
RTVSPropertyOp8
70
1
102
RTVSPropertyOp9
70
1
102
RTVSPropertyOp10
70
1
102
RTVSPropertyOp11
70
1
102
RTVSPropertyOp12
70
1
102
RTVSPropertyOp13
70
1
102
RTVSPropertyOp14
70
1
102
RTVSPropertyOp15
70
1
102
RTVSPropertyOp16
70
1
102
RTVSPropertyOp17
70
1
102
RTVSPropertyOp18
70
1
102
RTVSPropertyOp19
70
1
102
RTVSPropertyOp20
70
1
102
RTVSPropertyOp21
70
1
102
RTVSPropertyOp22
70
1
102
RTVSPropertyOp23
70
1
102
RTVSPropertyOp24
70
1
102
RTVSPropertyOp25
70
1
102
RTVSPropertyOp26
70
1
102
RTVSPropertyOp27
70
1
0
XRECORD
5
1087
102
{ACAD_REACTORS
330
1086
102
}
330
1086
100
AcDbXrecord
280
1
102
RTVSPropertyOp0
70
1
102
RTVSPropertyOp1
70
1
102
RTVSPropertyOp2
70
1
102
RTVSPropertyOp3
70
1
102
RTVSPropertyOp4
70
1
102
RTVSPropertyOp5
70
1
102
RTVSPropertyOp6
70
1
102
RTVSPropertyOp7
70
1
102
RTVSPropertyOp8
70
1
102
RTVSPropertyOp9
70
1
102
RTVSPropertyOp10
70
1
102
RTVSPropertyOp11
70
1
102
RTVSPropertyOp12
70
1
102
RTVSPropertyOp13
70
1
102
RTVSPropertyOp14
70
1
102
RTVSPropertyOp15
70
1
102
RTVSPropertyOp16
70
1
102
RTVSPropertyOp17
70
1
102
RTVSPropertyOp18
70
1
102
RTVSPropertyOp19
70
1
102
RTVSPropertyOp20
70
1
102
RTVSPropertyOp21
70
1
102
RTVSPropertyOp22
70
1
102
RTVSPropertyOp23
70
1
102
RTVSPropertyOp24
70
1
102
RTVSPropertyOp25
70
1
102
RTVSPropertyOp26
70
1
102
RTVSPropertyOp27
70
1
0
XRECORD
5
10A1
102
{ACAD_REACTORS
330
10A0
102
}
330
10A0
100
AcDbXrecord
280
1
102
RTVSPropertyOp0
70
0
102
RTVSPropertyOp1
70
0
102
RTVSPropertyOp2
70
0
102
RTVSPropertyOp3
70
0
102
RTVSPropertyOp4
70
0
102
RTVSPropertyOp5
70
0
102
RTVSPropertyOp6
70
0
102
RTVSPropertyOp7
70
0
102
RTVSPropertyOp8
70
0
102
RTVSPropertyOp9
70
0
102
RTVSPropertyOp10
70
0
102
RTVSPropertyOp11
70
0
102
RTVSPropertyOp12
70
0
102
RTVSPropertyOp13
70
0
102
RTVSPropertyOp14
70
2
102
RTVSPropertyOp15
70
0
102
RTVSPropertyOp16
70
0
102
RTVSPropertyOp17
70
0
102
RTVSPropertyOp18
70
0
102
RTVSPropertyOp19
70
0
102
RTVSPropertyOp20
70
0
102
RTVSPropertyOp21
70
0
102
RTVSPropertyOp22
70
0
102
RTVSPropertyOp23
70
0
102
RTVSPropertyOp24
70
0
102
RTVSPropertyOp25
70
0
102
RTVSPropertyOp26
70
0
102
RTVSPropertyOp27
70
0
0
XRECORD
5
109B
102
{ACAD_REACTORS
330
109A
102
}
330
109A
100
AcDbXrecord
280
1
102
RTVSPropertyOp0
70
1
102
RTVSPropertyOp1
70
1
102
RTVSPropertyOp2
70
1
102
RTVSPropertyOp3
70
1
102
RTVSPropertyOp4
70
1
102
RTVSPropertyOp5
70
1
102
RTVSPropertyOp6
70
1
102
RTVSPropertyOp7
70
1
102
RTVSPropertyOp8
70
1
102
RTVSPropertyOp9
70
1
102
RTVSPropertyOp10
70
1
102
RTVSPropertyOp11
70
1
102
RTVSPropertyOp12
70
1
102
RTVSPropertyOp13
70
1
102
RTVSPropertyOp14
70
1
102
RTVSPropertyOp15
70
1
102
RTVSPropertyOp16
70
1
102
RTVSPropertyOp17
70
1
102
RTVSPropertyOp18
70
1
102
RTVSPropertyOp19
70
1
102
RTVSPropertyOp20
70
1
102
RTVSPropertyOp21
70
1
102
RTVSPropertyOp22
70
1
102
RTVSPropertyOp23
70
1
102
RTVSPropertyOp24
70
1
102
RTVSPropertyOp25
70
1
102
RTVSPropertyOp26
70
1
102
RTVSPropertyOp27
70
1
0
XRECORD
5
10A3
102
{ACAD_REACTORS
330
10A2
102
}
330
10A2
100
AcDbXrecord
280
1
102
RTVSPropertyOp0
70
0
102
RTVSPropertyOp1
70
0
102
RTVSPropertyOp2
70
0
102
RTVSPropertyOp3
70
0
102
RTVSPropertyOp4
70
0
102
RTVSPropertyOp5
70
0
102
RTVSPropertyOp6
70
0
102
RTVSPropertyOp7
70
0
102
RTVSPropertyOp8
70
0
102
RTVSPropertyOp9
70
0
102
RTVSPropertyOp10
70
0
102
RTVSPropertyOp11
70
0
102
RTVSPropertyOp12
70
0
102
RTVSPropertyOp13
70
0
102
RTVSPropertyOp14
70
2
102
RTVSPropertyOp15
70
0
102
RTVSPropertyOp16
70
0
102
RTVSPropertyOp17
70
0
102
RTVSPropertyOp18
70
0
102
RTVSPropertyOp19
70
0
102
RTVSPropertyOp20
70
0
102
RTVSPropertyOp21
70
0
102
RTVSPropertyOp22
70
0
102
RTVSPropertyOp23
70
0
102
RTVSPropertyOp24
70
0
102
RTVSPropertyOp25
70
0
102
RTVSPropertyOp26
70
0
102
RTVSPropertyOp27
70
0
0
XRECORD
5
1093
102
{ACAD_REACTORS
330
1092
102
}
330
1092
100
AcDbXrecord
280
1
102
RTVSPropertyOp0
70
1
102
RTVSPropertyOp1
70
1
102
RTVSPropertyOp2
70
1
102
RTVSPropertyOp3
70
1
102
RTVSPropertyOp4
70
1
102
RTVSPropertyOp5
70
1
102
RTVSPropertyOp6
70
1
102
RTVSPropertyOp7
70
1
102
RTVSPropertyOp8
70
1
102
RTVSPropertyOp9
70
1
102
RTVSPropertyOp10
70
1
102
RTVSPropertyOp11
70
1
102
RTVSPropertyOp12
70
1
102
RTVSPropertyOp13
70
1
102
RTVSPropertyOp14
70
1
102
RTVSPropertyOp15
70
1
102
RTVSPropertyOp16
70
1
102
RTVSPropertyOp17
70
1
102
RTVSPropertyOp18
70
1
102
RTVSPropertyOp19
70
1
102
RTVSPropertyOp20
70
1
102
RTVSPropertyOp21
70
1
102
RTVSPropertyOp22
70
1
102
RTVSPropertyOp23
70
1
102
RTVSPropertyOp24
70
1
102
RTVSPropertyOp25
70
1
102
RTVSPropertyOp26
70
1
102
RTVSPropertyOp27
70
1
0
XRECORD
5
1099
102
{ACAD_REACTORS
330
1098
102
}
330
1098
100
AcDbXrecord
280
1
102
RTVSPropertyOp0
70
1
102
RTVSPropertyOp1
70
1
102
RTVSPropertyOp2
70
1
102
RTVSPropertyOp3
70
1
102
RTVSPropertyOp4
70
1
102
RTVSPropertyOp5
70
1
102
RTVSPropertyOp6
70
1
102
RTVSPropertyOp7
70
1
102
RTVSPropertyOp8
70
1
102
RTVSPropertyOp9
70
1
102
RTVSPropertyOp10
70
1
102
RTVSPropertyOp11
70
1
102
RTVSPropertyOp12
70
1
102
RTVSPropertyOp13
70
1
102
RTVSPropertyOp14
70
1
102
RTVSPropertyOp15
70
1
102
RTVSPropertyOp16
70
1
102
RTVSPropertyOp17
70
1
102
RTVSPropertyOp18
70
1
102
RTVSPropertyOp19
70
1
102
RTVSPropertyOp20
70
1
102
RTVSPropertyOp21
70
1
102
RTVSPropertyOp22
70
1
102
RTVSPropertyOp23
70
1
102
RTVSPropertyOp24
70
1
102
RTVSPropertyOp25
70
1
102
RTVSPropertyOp26
70
1
102
RTVSPropertyOp27
70
1
0
ENDSEC
0
EOF
