0
SECTION
2
HEADER
9
$ACADVER
1
AC1015
9
$ACADMAINTVER
70
20
9
$DWGCODEPAGE
3
ANSI_1252
9
$INSBASE
10
0.0
20
0.0
30
0.0
9
$EXTMIN
10
-150.000000000000
20
-105.000000000000
30
0.0
9
$EXTMAX
10
150.000000000000
20
105.000000000000
30
0.0
9
$LIMMIN
10
0.0
20
0.0
9
$LIMMAX
10
12.0
20
9.0
9
$ORTHOMODE
70
0
9
$REGENMODE
70
1
9
$FILLMODE
70
1
9
$QTEXTMODE
70
0
9
$MIRRTEXT
70
1
9
$LTSCALE
40
1.0
9
$ATTMODE
70
1
9
$TEXTSIZE
40
0.2
9
$TRACEWID
40
0.05
9
$TEXTSTYLE
7
Standard
9
$CLAYER
8
0
9
$CELTYPE
6
ByLayer
9
$CECOLOR
62
256
9
$CELTSCALE
40
1.0
9
$DISPSILH
70
0
9
$DIMSCALE
40
1.0
9
$DIMASZ
40
2.5
9
$DIMEXO
40
0.625
9
$DIMDLI
40
0.38
9
$DIMRND
40
0.0
9
$DIMDLE
40
0.0
9
$DIMEXE
40
1.25
9
$DIMTP
40
0.0
9
$DIMTM
40
0.000000001
9
$DIMTXT
40
2.5
9
$DIMCEN
40
0.09
9
$DIMTSZ
40
0.0
9
$DIMTOL
70
1
9
$DIMLIM
70
0
9
$DIMTIH
70
0
9
$DIMTOH
70
0
9
$DIMSE1
70
0
9
$DIMSE2
70
0
9
$DIMTAD
70
1
9
$DIMZIN
70
0
9
$DIMBLK
1
VDDIM_DEFAULT
9
$DIMASO
70
1
9
$DIMSHO
70
1
9
$DIMPOST
1

9
$DIMAPOST
1

9
$DIMALT
70
0
9
$DIMALTD
70
2
9
$DIMALTF
40
25.4
9
$DIMLFAC
40
1.00000000000000
9
$DIMTOFL
70
0
9
$DIMTVP
40
0.0
9
$DIMTIX
70
0
9
$DIMSOXD
70
0
9
$DIMSAH
70
0
9
$DIMBLK1
1

9
$DIMBLK2
1

9
$DIMSTYLE
2
BEM-ISBE
9
$DIMCLRD
70
0
9
$DIMCLRE
70
0
9
$DIMCLRT
70
0
9
$DIMTFAC
40
0.5
9
$DIMGAP
40
0.625
9
$DIMJUST
70
0
9
$DIMSD1
70
0
9
$DIMSD2
70
0
9
$DIMTOLJ
70
1
9
$DIMTZIN
70
0
9
$DIMALTZ
70
0
9
$DIMALTTZ
70
0
9
$DIMUPT
70
0
9
$DIMDEC
70
3
9
$DIMTDEC
70
3
9
$DIMALTU
70
2
9
$DIMALTTD
70
2
9
$DIMTXSTY
7
Standard
9
$DIMAUNIT
70
0
9
$DIMADEC
70
3
9
$DIMALTRND
40
0.0
9
$DIMAZIN
70
0
9
$DIMDSEP
70
46
9
$DIMATFIT
70
3
9
$DIMFRAC
70
0
9
$DIMLDRBLK
1

9
$DIMLUNIT
70
2
9
$DIMLWD
70
-2
9
$DIMLWE
70
-2
9
$DIMTMOVE
70
0
9
$LUNITS
70
2
9
$LUPREC
70
4
9
$SKETCHINC
40
0.1
9
$FILLETRAD
40
0.5
9
$AUNITS
70
0
9
$AUPREC
70
0
9
$MENU
1
.
9
$ELEVATION
40
0.0
9
$PELEVATION
40
0.0
9
$THICKNESS
40
0.0
9
$LIMCHECK
70
0
9
$CHAMFERA
40
0.5
9
$CHAMFERB
40
0.5
9
$CHAMFERC
40
1.0
9
$CHAMFERD
40
0.0
9
$SKPOLY
70
0
9
$TDCREATE
40
0.0
9
$TDUCREATE
40
0.0
9
$TDUPDATE
40
0.0
9
$TDUUPDATE
40
0.0
9
$TDINDWG
40
0.0
9
$TDUSRTIMER
40
0.0
9
$USRTIMER
70
1
9
$ANGBASE
50
0.0
9
$ANGDIR
70
0
9
$PDMODE
70
0
9
$PDSIZE
40
0.0
9
$PLINEWID
40
0.0
9
$SPLFRAME
70
0
9
$SPLINETYPE
70
6
9
$SPLINESEGS
70
8
9
$HANDSEED
5
10AB
9
$SURFTAB1
70
6
9
$SURFTAB2
70
6
9
$SURFTYPE
70
6
9
$SURFU
70
6
9
$SURFV
70
6
9
$UCSBASE
2

9
$UCSNAME
2

9
$UCSORG
10
0.0
20
0.0
30
0.0
9
$UCSXDIR
10
1.0
20
0.0
30
0.0
9
$UCSYDIR
10
0.0
20
1.0
30
0.0
9
$UCSORTHOREF
2

9
$UCSORTHOVIEW
70
0
9
$UCSORGTOP
10
0.0
20
0.0
30
0.0
9
$UCSORGBOTTOM
10
0.0
20
0.0
30
0.0
9
$UCSORGLEFT
10
0.0
20
0.0
30
0.0
9
$UCSORGRIGHT
10
0.0
20
0.0
30
0.0
9
$UCSORGFRONT
10
0.0
20
0.0
30
0.0
9
$UCSORGBACK
10
0.0
20
0.0
30
0.0
9
$PUCSBASE
2

9
$PUCSNAME
2

9
$PUCSORG
10
0.0
20
0.0
30
0.0
9
$PUCSXDIR
10
1.0
20
0.0
30
0.0
9
$PUCSYDIR
10
0.0
20
1.0
30
0.0
9
$PUCSORTHOREF
2

9
$PUCSORTHOVIEW
70
0
9
$PUCSORGTOP
10
0.0
20
0.0
30
0.0
9
$PUCSORGBOTTOM
10
0.0
20
0.0
30
0.0
9
$PUCSORGLEFT
10
0.0
20
0.0
30
0.0
9
$PUCSORGRIGHT
10
0.0
20
0.0
30
0.0
9
$PUCSORGFRONT
10
0.0
20
0.0
30
0.0
9
$PUCSORGBACK
10
0.0
20
0.0
30
0.0
9
$USERI1
70
0
9
$USERI2
70
0
9
$USERI3
70
0
9
$USERI4
70
0
9
$USERI5
70
0
9
$USERR1
40
0.0
9
$USERR2
40
0.0
9
$USERR3
40
0.0
9
$USERR4
40
0.0
9
$USERR5
40
0.0
9
$WORLDVIEW
70
1
9
$SHADEDGE
70
3
9
$SHADEDIF
70
70
9
$TILEMODE
70
1
9
$MAXACTVP
70
64
9
$PINSBASE
10
0.0
20
0.0
30
0.0
9
$PLIMCHECK
70
0
9
$PEXTMIN
10
1.000000000000000E+20
20
1.000000000000000E+20
30
1.000000000000000E+20
9
$PEXTMAX
10
-1.000000000000000E+20
20
-1.000000000000000E+20
30
-1.000000000000000E+20
9
$PLIMMIN
10
0.0
20
0.0
9
$PLIMMAX
10
12.0
20
9.0
9
$UNITMODE
70
0
9
$VISRETAIN
70
1
9
$PLINEGEN
70
0
9
$PSLTSCALE
70
1
9
$TREEDEPTH
70
3020
9
$CMLSTYLE
2
Standard
9
$CMLJUST
70
0
9
$CMLSCALE
40
1.0
9
$PROXYGRAPHICS
70
1
9
$MEASUREMENT
70
0
9
$CELWEIGHT
370
-1
9
$ENDCAPS
280
0
9
$JOINSTYLE
280
0
9
$LWDISPLAY
290
0
9
$INSUNITS
70
4
9
$HYPERLINKBASE
1

9
$STYLESHEET
1

9
$XEDIT
290
1
9
$CEPSNTYPE
380
0
9
$PSTYLEMODE
290
0
9
$FINGERPRINTGUID
2
{FAEB1C30-E019-11D5-929B-00C0DF256EC4}
9
$VERSIONGUID
2
{04C5C4E4-4947-4D90-8812-D401569E61F7}
9
$EXTNAMES
290
1
9
$PSVPSCALE
40
0.0
9
$OLESTARTUP
290
0
0
ENDSEC
0
SECTION
2
CLASSES
0
CLASS
1
ACDBDICTIONARYWDFLT
2
AcDbDictionaryWithDefault
3
ObjectDBX Classes
90
0
280
0
281
0
0
CLASS
1
ACDBPLACEHOLDER
2
AcDbPlaceHolder
3
ObjectDBX Classes
90
0
280
0
281
0
0
CLASS
1
LAYOUT
2
AcDbLayout
3
ObjectDBX Classes
90
0
280
0
281
0
0
CLASS
1
MATERIAL
2
AcDbMaterial
3
ObjectDBX Classes
90
1153
280
0
281
0
0
CLASS
1
VISUALSTYLE
2
AcDbVisualStyle
3
ObjectDBX Classes
90
4095
280
0
281
0
0
CLASS
1
TABLESTYLE
2
AcDbTableStyle
3
ObjectDBX Classes
90
4095
280
0
281
0
0
CLASS
1
SCALE
2
AcDbScale
3
ObjectDBX Classes
90
1153
280
0
281
0
0
CLASS
1
MLEADERSTYLE
2
AcDbMLeaderStyle
3
ACDB_MLEADERSTYLE_CLASS
90
4095
280
0
281
0
0
CLASS
1
DICTIONARYVAR
2
AcDbDictionaryVar
3
ObjectDBX Classes
90
0
280
0
281
0
0
CLASS
1
CELLSTYLEMAP
2
AcDbCellStyleMap
3
ObjectDBX Classes
90
1152
280
0
281
0
0
ENDSEC
0
SECTION
2
TABLES
0
TABLE
2
VPORT
5
24A
330
0
100
AcDbSymbolTable
70
1
0
VPORT
5
26B
330
24A
100
AcDbSymbolTableRecord
100
AcDbViewportTableRecord
2
*Active
70
0
10
0.0
20
0.0
11
1.0
21
1.0
12
0.000000000000000
22
0.000000000000000
13
0.0
23
0.0
14
10.0
24
10.0
15
10.0
25
10.0
16
0.0
26
0.0
36
1.0
17
0.0
27
0.0
37
0.0
40
210.000000000000
41
1.42857142857143
42
1.0
43
0.0
44
0.0
50
0.0
51
0.0000000000007958
71
0
72
100
73
1
74
3
75
0
76
0
77
0
78
1
281
0
65
1
110
0.0
120
0.0
130
0.0
111
1.0
121
0.0
131
0.0
112
0.0
122
1.0
132
0.0
79
0
146
0.0
0
ENDTAB
0
TABLE
2
LTYPE
5
247
330
0
100
AcDbSymbolTable
70
25
0
LTYPE
5
256
330
247
100
AcDbSymbolTableRecord
100
AcDbLinetypeTableRecord
2
ByBlock
70
0
3

72
65
73
0
40
0.0
0
LTYPE
5
257
330
247
100
AcDbSymbolTableRecord
100
AcDbLinetypeTableRecord
2
ByLayer
70
0
3

72
65
73
0
40
0.0
0
LTYPE
5
258
330
247
100
AcDbSymbolTableRecord
100
AcDbLinetypeTableRecord
2
Continuous
70
0
3
Solid line
72
65
73
0
40
0.0
0
LTYPE
5
273
330
247
100
AcDbSymbolTableRecord
100
AcDbLinetypeTableRecord
2
CENTER
70
0
3
Center ____ _ ____ _ ____ _ ____ _ ____ _ ____
72
65
73
4
40
2.0
49
1.25
74
0
49
-0.25
74
0
49
0.25
74
0
49
-0.25
74
0
0
LTYPE
5
274
330
247
100
AcDbSymbolTableRecord
100
AcDbLinetypeTableRecord
2
DASHDOT
70
0
3
Dashdot __ . __ . __ . __ . __ . __ . __ . __
72
65
73
4
40
1.0
49
0.5
74
0
49
-0.25
74
0
49
0.0
74
0
49
-0.25
74
0
0
LTYPE
5
275
330
247
100
AcDbSymbolTableRecord
100
AcDbLinetypeTableRecord
2
DASHED
70
0
3
Dashed __ __ __ __ __ __ __ __ __ __ __ __ __ _
72
65
73
2
40
0.75
49
0.5
74
0
49
-0.25
74
0
0
LTYPE
5
276
330
247
100
AcDbSymbolTableRecord
100
AcDbLinetypeTableRecord
2
HIDDEN
70
0
3
Hidden __ __ __ __ __ __ __ __ __ __ __ __ __ __
72
65
73
2
40
0.375
49
0.25
74
0
49
-0.125
74
0
0
LTYPE
5
277
330
247
100
AcDbSymbolTableRecord
100
AcDbLinetypeTableRecord
2
HIDDEN2
70
0
3
Hidden2 _ _ _ _ _ _ _ _ _ _ _ _ _ _ _ _ _
72
65
73
2
40
0.1875
49
0.125
74
0
49
-0.0625
74
0
0
LTYPE
5
278
330
247
100
AcDbSymbolTableRecord
100
AcDbLinetypeTableRecord
2
BORDER
70
0
3
Border __ __ . __ __ . __ __ . __ __ . __ __ .
72
65
73
6
40
1.75
49
0.5
74
0
49
-0.25
74
0
49
0.5
74
0
49
-0.25
74
0
49
0.0
74
0
49
-0.25
74
0
0
LTYPE
5
279
330
247
100
AcDbSymbolTableRecord
100
AcDbLinetypeTableRecord
2
BORDER2
70
0
3
Border2 __.__.__.__.__.__.__.__.__.__.__.
72
65
73
6
40
0.875
49
0.25
74
0
49
-0.125
74
0
49
0.25
74
0
49
-0.125
74
0
49
0.0
74
0
49
-0.125
74
0
0
LTYPE
5
27A
330
247
100
AcDbSymbolTableRecord
100
AcDbLinetypeTableRecord
2
BORDERX2
70
0
3
Borderx2  ____  ____  .  ____  ____  .  ___
72
65
73
6
40
3.5
49
1.0
74
0
49
-0.5
74
0
49
1.0
74
0
49
-0.5
74
0
49
0.0
74
0
49
-0.5
74
0
0
LTYPE
5
27B
330
247
100
AcDbSymbolTableRecord
100
AcDbLinetypeTableRecord
2
CENTER2
70
0
3
Center2  ___ _ ___ _ ___ _ ___ _ ___ _ ___
72
65
73
4
40
1.125
49
0.75
74
0
49
-0.125
74
0
49
0.125
74
0
49
-0.125
74
0
0
LTYPE
5
27C
330
247
100
AcDbSymbolTableRecord
100
AcDbLinetypeTableRecord
2
CENTERX2
70
0
3
Centerx2  ________  __  ________  __  _____
72
65
73
4
40
4.0
49
2.5
74
0
49
-0.5
74
0
49
0.5
74
0
49
-0.5
74
0
0
LTYPE
5
27D
330
247
100
AcDbSymbolTableRecord
100
AcDbLinetypeTableRecord
2
DASHDOT2
70
0
3
Dashdot2  _._._._._._._._._._._._._._._.
72
65
73
4
40
0.5
49
0.25
74
0
49
-0.125
74
0
49
0.0
74
0
49
-0.125
74
0
0
LTYPE
5
27E
330
247
100
AcDbSymbolTableRecord
100
AcDbLinetypeTableRecord
2
DASHDOTX2
70
0
3
Dashdotx2 ____  .  ____  .  ____  .  ___
72
65
73
4
40
2.0
49
1.0
74
0
49
-0.5
74
0
49
0.0
74
0
49
-0.5
74
0
0
LTYPE
5
27F
330
247
100
AcDbSymbolTableRecord
100
AcDbLinetypeTableRecord
2
DASHED2
70
0
3
Dashed2 _ _ _ _ _ _ _ _ _ _ _ _ _ _ _ _ _
72
65
73
2
40
0.375
49
0.25
74
0
49
-0.125
74
0
0
LTYPE
5
280
330
247
100
AcDbSymbolTableRecord
100
AcDbLinetypeTableRecord
2
DASHEDX2
70
0
3
Dashedx2 ____  ____  ____  ____  ____  ___
72
65
73
2
40
1.5
49
1.0
74
0
49
-0.5
74
0
0
LTYPE
5
281
330
247
100
AcDbSymbolTableRecord
100
AcDbLinetypeTableRecord
2
DIVIDE
70
0
3
Divide ____ . . ____ . . ____ . . ____ . . ____
72
65
73
6
40
1.25
49
0.5
74
0
49
-0.25
74
0
49
0.0
74
0
49
-0.25
74
0
49
0.0
74
0
49
-0.25
74
0
0
LTYPE
5
282
330
247
100
AcDbSymbolTableRecord
100
AcDbLinetypeTableRecord
2
DIVIDE2
70
0
3
Divide2 __..__..__..__..__..__..__..__.._
72
65
73
6
40
0.625
49
0.25
74
0
49
-0.125
74
0
49
0.0
74
0
49
-0.125
74
0
49
0.0
74
0
49
-0.125
74
0
0
LTYPE
5
283
330
247
100
AcDbSymbolTableRecord
100
AcDbLinetypeTableRecord
2
DIVIDEX2
70
0
3
Dividex2 ________  .  .  ________  .  .  _
72
65
73
6
40
2.5
49
1.0
74
0
49
-0.5
74
0
49
0.0
74
0
49
-0.5
74
0
49
0.0
74
0
49
-0.5
74
0
0
LTYPE
5
284
330
247
100
AcDbSymbolTableRecord
100
AcDbLinetypeTableRecord
2
DOT
70
0
3
Dot . . . . . . . . . . . . . . . . . . . . . . . .
72
65
73
2
40
0.25
49
0.0
74
0
49
-0.25
74
0
0
LTYPE
5
285
330
247
100
AcDbSymbolTableRecord
100
AcDbLinetypeTableRecord
2
DOT2
70
0
3
Dot2 ........................................
72
65
73
2
40
0.125
49
0.0
74
0
49
-0.125
74
0
0
LTYPE
5
286
330
247
100
AcDbSymbolTableRecord
100
AcDbLinetypeTableRecord
2
DOTX2
70
0
3
Dotx2 .  .  .  .  .  .  .  .  .  .  .  .  .  .
72
65
73
2
40
0.5
49
0.0
74
0
49
-0.5
74
0
0
LTYPE
5
287
330
247
100
AcDbSymbolTableRecord
100
AcDbLinetypeTableRecord
2
HIDDENX2
70
0
3
Hiddenx2 ____ ____ ____ ____ ____ ____ ____
72
65
73
2
40
0.75
49
0.5
74
0
49
-0.25
74
0
0
LTYPE
5
288
330
247
100
AcDbSymbolTableRecord
100
AcDbLinetypeTableRecord
2
PHANTOM
70
0
3
Phantom ______  __  __  ______  __  __  ______
72
65
73
6
40
2.5
49
1.25
74
0
49
-0.25
74
0
49
0.25
74
0
49
-0.25
74
0
49
0.25
74
0
49
-0.25
74
0
0
LTYPE
5
289
330
247
100
AcDbSymbolTableRecord
100
AcDbLinetypeTableRecord
2
PHANTOM2
70
0
3
Phantom2 ___ _ _ ___ _ _ ___ _ _ ___ _ _
72
65
73
6
40
1.25
49
0.625
74
0
49
-0.125
74
0
49
0.125
74
0
49
-0.125
74
0
49
0.125
74
0
49
-0.125
74
0
0
LTYPE
5
28A
330
247
100
AcDbSymbolTableRecord
100
AcDbLinetypeTableRecord
2
PHANTOMX2
70
0
3
Phantomx2 ____________    ____    ____   _
72
65
73
6
40
5.0
49
2.5
74
0
49
-0.5
74
0
49
0.5
74
0
49
-0.5
74
0
49
0.5
74
0
49
-0.5
74
0
0
ENDTAB
0
TABLE
2
LAYER
5
244
330
0
100
AcDbSymbolTable
70
6
0
LAYER
5
252
330
244
100
AcDbSymbolTableRecord
100
AcDbLayerTableRecord
2
0
70
0
62
7
6
Continuous
370
0
390
251
0
LAYER
5
23F
330
244
100
AcDbSymbolTableRecord
100
AcDbLayerTableRecord
2
Bemassung
70
0
 62
   7
6
Continuous
370
0
390
251
0
LAYER
5
240
330
244
100
AcDbSymbolTableRecord
100
AcDbLayerTableRecord
2
Rahmen
70
0
 62
   7
6
Continuous
370
0
390
251
0
LAYER
5
241
330
244
100
AcDbSymbolTableRecord
100
AcDbLayerTableRecord
2
Geo
70
0
 62
   7
6
Continuous
370
0
390
251
0
LAYER
5
33A
330
244
100
AcDbSymbolTableRecord
100
AcDbLayerTableRecord
2
Defpoints
70
0
62
7
6
Continuous
290
0
370
-3
390
251
0
LAYER
5
57E
330
244
100
AcDbSymbolTableRecord
100
AcDbLayerTableRecord
2
Text
70
0
 62
   7
6
Continuous
370
0
390
251
1001
AcAecLayerStandard
1000

1000

0
ENDTAB
0
TABLE
2
STYLE
5
245
330
0
100
AcDbSymbolTable
70
2
0
STYLE
5
253
330
245
100
AcDbSymbolTableRecord
100
AcDbTextStyleTableRecord
2
Standard
70
0
40
0.0
41
1.0
50
0.0
71
0
42
0.2
3
Arial
4

1001
ACAD
1000
Arial
1071
0
0
STYLE
5
132
330
245
100
AcDbSymbolTableRecord
100
AcDbTextStyleTableRecord
2
Beschriftung
70
0
40
0.0
41
1.0
50
0.0
71
0
42
0.2
3
Arial
4

1001
ACAD
1000
Arial
1071
0
1001
AcadAnnotative
1000
AnnotativeData
1070
1
1070
1
0
ENDTAB
0
TABLE
2
VIEW
5
248
330
0
100
AcDbSymbolTable
70
0
0
ENDTAB
0
TABLE
2
UCS
5
249
330
0
100
AcDbSymbolTable
70
0
0
ENDTAB
0
TABLE
2
APPID
5
24B
330
0
100
AcDbSymbolTable
70
13
0
APPID
5
254
330
24B
100
AcDbSymbolTableRecord
100
AcDbRegAppTableRecord
2
ACAD
70
0
0
APPID
5
26C
330
24B
100
AcDbSymbolTableRecord
100
AcDbRegAppTableRecord
2
VD_INVISIBLE_NOT_FOR_READ
70
0
0
APPID
5
26D
330
24B
100
AcDbSymbolTableRecord
100
AcDbRegAppTableRecord
2
VD_TEMPHATCH
70
0
0
APPID
5
26E
330
24B
100
AcDbSymbolTableRecord
100
AcDbRegAppTableRecord
2
VDEXTRAPARAM
70
0
0
APPID
5
26F
330
24B
100
AcDbSymbolTableRecord
100
AcDbRegAppTableRecord
2
PE_URL
70
0
0
APPID
5
270
330
24B
100
AcDbSymbolTableRecord
100
AcDbRegAppTableRecord
2
VD_UNKNOWN
70
0
0
APPID
5
28F
330
24B
100
AcDbSymbolTableRecord
100
AcDbRegAppTableRecord
2
AcadAnnotative
70
0
0
APPID
5
290
330
24B
100
AcDbSymbolTableRecord
100
AcDbRegAppTableRecord
2
ACAD_DSTYLE_DIMJAG
70
0
0
APPID
5
291
330
24B
100
AcDbSymbolTableRecord
100
AcDbRegAppTableRecord
2
ACAD_DSTYLE_DIMTALN
70
0
0
APPID
5
293
330
24B
100
AcDbSymbolTableRecord
100
AcDbRegAppTableRecord
2
ACAD_PSEXT
70
0
0
APPID
5
42A
330
24B
100
AcDbSymbolTableRecord
100
AcDbRegAppTableRecord
2
ACAD_MLEADERVER
70
0
0
APPID
5
532
330
24B
100
AcDbSymbolTableRecord
100
AcDbRegAppTableRecord
2
ACAD_EXEMPT_FROM_CAD_STANDARDS
70
0
0
APPID
5
57F
330
24B
100
AcDbSymbolTableRecord
100
AcDbRegAppTableRecord
2
AcAecLayerStandard
70
0
0
ENDTAB
0
TABLE
2
DIMSTYLE
5
24C
330
0
100
AcDbSymbolTable
70
3
100
AcDbDimStyleTable
71
2
340
27
340
269
0
DIMSTYLE
105
269
330
24C
100
AcDbSymbolTableRecord
100
AcDbDimStyleTableRecord
2
Standard
70
0
172
1
174
1
288
1
340
253
342
23C
0
DIMSTYLE
105
137
330
24C
100
AcDbSymbolTableRecord
100
AcDbDimStyleTableRecord
2
Beschriftung
70
0
41
2.5
42
0.625
44
1.25
73
0
74
0
77
1
140
2.5
147
0.625
172
1
174
1
271
2
288
1
340
253
342
23C
1001
AcadAnnotative
1000
AnnotativeData
1070
1
1070
1
1001
ACAD_DSTYLE_DIMJAG
1070
388
1040
1.5
1001
ACAD_DSTYLE_DIMTALN
1070
392
1070
0
0
DIMSTYLE
105
27
102
{ACAD_REACTORS
330
F10003
330
F10012
330
F10017
330
F10008
330
F1000D
102
}
330
24C
100
AcDbSymbolTableRecord
100
AcDbDimStyleTableRecord
2
BEM-ISBE
70
0
41
2.5
42
0.625
44
1.25
48
0.000000001
71
1
73
0
74
0
77
1
140
2.5
144
1.00000000000000
146
0.5
147
0.625
171
 3
172
 1
179
 3
271
 3
272
 3
274
 3
340
253
342
23C
1001
ACAD_DSTYLE_DIMJAG
1070
388
1040
1.5
1001
ACAD_DSTYLE_DIMTALN
1070
392
1070
1
0
ENDTAB
0
TABLE
2
BLOCK_RECORD
5
243
330
0
100
AcDbSymbolTable
70
5
0
BLOCK_RECORD
5
261
330
243
100
AcDbSymbolTableRecord
100
AcDbBlockTableRecord
2
*Model_Space
340
FD0
0
BLOCK_RECORD
5
25D
330
243
100
AcDbSymbolTableRecord
100
AcDbBlockTableRecord
2
*Paper_Space
340
FD1
0
BLOCK_RECORD
5
265
330
243
100
AcDbSymbolTableRecord
100
AcDbBlockTableRecord
2
*Paper_Space0
340
0
0
BLOCK_RECORD
5
23C
330
243
100
AcDbSymbolTableRecord
100
AcDbBlockTableRecord
2
VDDIM_DEFAULT
340
0
102
{BLKREFS
102
}
0
BLOCK_RECORD
5
23E
330
243
100
AcDbSymbolTableRecord
100
AcDbBlockTableRecord
2
VDDIM_NONE
340
0
0
BLOCK_RECORD
5
F10002
330
243
100
AcDbSymbolTableRecord
100
AcDbBlockTableRecord
2
*D3
340
0
0
BLOCK_RECORD
5
F10011
330
243
100
AcDbSymbolTableRecord
100
AcDbBlockTableRecord
2
*D6
340
0
0
BLOCK_RECORD
5
F10016
330
243
100
AcDbSymbolTableRecord
100
AcDbBlockTableRecord
2
*D7
340
0
0
BLOCK_RECORD
5
F10007
330
243
100
AcDbSymbolTableRecord
100
AcDbBlockTableRecord
2
*D4
340
0
0
BLOCK_RECORD
5
F1000C
330
243
100
AcDbSymbolTableRecord
100
AcDbBlockTableRecord
2
*D5
340
0
0
ENDTAB
0
ENDSEC
0
SECTION
2
BLOCKS
0
BLOCK
5
262
330
261
100
AcDbEntity
8
0
100
AcDbBlockBegin
2
*Model_Space
70
0
10
0.0
20
0.0
30
0.0
3
*Model_Space
1

0
ENDBLK
5
263
330
261
100
AcDbEntity
8
0
100
AcDbBlockEnd
0
BLOCK
5
25E
330
25D
100
AcDbEntity
67
1
8
0
100
AcDbBlockBegin
2
*Paper_Space
70
0
10
0.0
20
0.0
30
0.0
3
*Paper_Space
1

0
ENDBLK
5
25F
330
25D
100
AcDbEntity
67
1
8
0
100
AcDbBlockEnd
0
BLOCK
5
266
330
265
100
AcDbEntity
8
0
100
AcDbBlockBegin
2
*Paper_Space0
70
0
10
0.0
20
0.0
30
0.0
3
*Paper_Space0
1

0
VIEWPORT
5
296
102
{ACAD_XDICTIONARY
360
58E
102
}
330
265
100
AcDbEntity
8
0
60
1
100
AcDbViewport
10
0.0
20
0.0
30
0.0
40
10.0
41
10.0
69
0
12
0.0
22
0.0
13
0.0
23
0.0
14
1.0
24
1.0
15
0.0
25
0.0
16
0.0
26
0.0
36
1.0
17
0.0
27
0.0
37
0.0
42
0.0
43
0.0
44
0.0
45
10.0
50
0.0
51
0.0000000000007958
72
100
90
163872
1

281
0
71
0
74
0
110
0.0
120
0.0
130
0.0
111
1.0
121
0.0
131
0.0
112
0.0
122
1.0
132
0.0
79
0
146
0.0
1001
VD_INVISIBLE_NOT_FOR_READ
1000
VD_INVISIBLE_NOT_FOR_READ
0
VIEWPORT
5
297
102
{ACAD_XDICTIONARY
360
590
102
}
330
265
100
AcDbEntity
8
0
60
1
100
AcDbViewport
10
0.0
20
0.0
30
0.0
40
10.0
41
10.0
69
0
12
0.0
22
0.0
13
0.0
23
0.0
14
1.0
24
1.0
15
0.0
25
0.0
16
0.0
26
0.0
36
1.0
17
0.0
27
0.0
37
0.0
42
0.0
43
0.0
44
0.0
45
10.0
50
0.0
51
0.0000000000007958
72
100
90
163872
1

281
0
71
0
74
0
110
0.0
120
0.0
130
0.0
111
1.0
121
0.0
131
0.0
112
0.0
122
1.0
132
0.0
79
0
146
0.0
1001
VD_INVISIBLE_NOT_FOR_READ
1000
VD_INVISIBLE_NOT_FOR_READ
0
ENDBLK
5
267
330
265
100
AcDbEntity
8
0
100
AcDbBlockEnd
0
BLOCK
5
28B
330
23C
100
AcDbEntity
8
0
100
AcDbBlockBegin
2
VDDIM_DEFAULT
70
0
10
0.0
20
0.0
30
0.0
3
VDDIM_DEFAULT
1

0
LWPOLYLINE
5
23D
330
23C
100
AcDbEntity
8
0
6
Continuous
62
0
100
AcDbPolyline
90
4
70
0
43
0.0
10
0.0
20
0.0
10
-1.0
20
-0.1665
10
-1.0
20
0.1665
10
0.0
20
0.0
1001
VDEXTRAPARAM
1071
1
1071
0
1071
0
1040
1.0
1000

1000

1040
0.0
1040
0.0
0
HATCH
5
292
330
23C
100
AcDbEntity
8
0
6
Continuous
62
0
100
AcDbHatch
10
0.0
20
0.0
30
0.0
210
0.0
220
0.0
230
1.0
2
SOLID
70
1
71
0
91
1
92
2
72
0
73
1
93
3
10
0.0
20
0.0
10
-1.0
20
-0.1665
10
-1.0
20
0.1665
97
0
75
0
76
1
98
1
10
0.0
20
0.0
1001
VDEXTRAPARAM
1071
1
1071
0
1071
0
1040
1.0
1000

1000

1040
0.0
1040
0.0
1001
VD_TEMPHATCH
1000
VD_TEMPHATCH
0
ENDBLK
5
28C
330
23C
100
AcDbEntity
8
0
100
AcDbBlockEnd
0
BLOCK
5
28D
330
23E
100
AcDbEntity
8
0
100
AcDbBlockBegin
2
VDDIM_NONE
70
0
10
0.0
20
0.0
30
0.0
3
VDDIM_NONE
1

0
ENDBLK
5
28E
330
23E
100
AcDbEntity
8
0
100
AcDbBlockEnd
  0
BLOCK
  5
F1001B
330
F10002
100
AcDbEntity
  8
0
100
AcDbBlockBegin
  2
*D3
 70
     1
 10
0.0
 20
0.0
 30
0.0
  3
*D3
  1

  0
LINE
  5
F1001C
330
F10002
100
AcDbEntity
  8
Bemassung
 62
     0
370
    -2
100
AcDbLine
10
-31.0238508239376
20
-12.8967909800520
30
0.000000000000000
11
-31.0238508239376
21
32.1032090199480
31
0.000000000000000
  0
LINE
  5
F1001D
330
F10002
100
AcDbEntity
  8
Bemassung
 62
     0
370
    -2
100
AcDbLine
10
-30.6738508239376
20
15.1032090199480
30
0.000000000000000
11
-30.6738508239376
21
22.1032090199480
31
0.000000000000000
  0
LINE
  5
F1001E
330
F10002
100
AcDbEntity
  8
Bemassung
 62
     0
370
    -2
100
AcDbLine
10
-51.7259323503903
20
20.1032090199480
30
0.000000000000000
11
-30.6738508239376
21
20.1032090199480
31
0.000000000000000
  0
INSERT
  5
F1001F
330
F10002
100
AcDbEntity
  8
Bemassung
 62
     0
370
    -2
100
AcDbBlockReference
  2
VDDIM_DEFAULT
10
-31.0238508239376
20
20.1032090199480
30
0.000000000000000
 41
2.50000000000000
 42
2.50000000000000
 43
2.50000000000000
  0
INSERT
  5
F10020
330
F10002
100
AcDbEntity
  8
Bemassung
 62
     0
370
    -2
100
AcDbBlockReference
  2
VDDIM_DEFAULT
10
-30.6738508239376
20
20.1032090199480
30
0.000000000000000
 41
2.50000000000000
 42
2.50000000000000
 43
2.50000000000000
 50
180.000000000000
  0
MTEXT
  5
F10021
330
F10002
100
AcDbEntity
  8
Bemassung
 62
     0
100
AcDbMText
10
-35.8803122289679
20
20.7698756866146
30
0.000000000000000
 40
2.50000000000000
 41
0.0
 71
     8
 72
     1
  1
0.35 x 45°
 11
1.00000000000000
 21
0.000000000000000
 31
0.0
 73
     1
 44
1.0
1001
ACAD
1000
MTEXTBEGIN
1070
73
1070
1
1070
44
1040
1.0
1070
74
1070
0
1000
MTEXTEND
  0
POINT
  5
F10022
330
F10002
100
AcDbEntity
  8
Bemassung
 62
     0
100
AcDbPoint
10
-31.0238508239376
20
-12.8967909800520
30
0.000000000000000
  0
POINT
  5
F10023
330
F10002
100
AcDbEntity
  8
Bemassung
 62
     0
100
AcDbPoint
10
-30.6738508239376
20
15.1032090199480
30
0.000000000000000
  0
ENDBLK
  5
F10024
330
F10002
100
AcDbEntity
  8
0
100
AcDbBlockEnd
  0
BLOCK
  5
F10025
330
F10011
100
AcDbEntity
  8
0
100
AcDbBlockBegin
  2
*D6
 70
     1
 10
0.0
 20
0.0
 30
0.0
  3
*D6
  1

  0
LINE
  5
F10026
330
F10011
100
AcDbEntity
  8
Bemassung
 62
     0
370
    -2
100
AcDbLine
10
-11.0238508239376
20
-0.896790980052032
30
0.000000000000000
11
-11.0238508239376
21
-12.8967909800520
31
0.000000000000000
  0
LINE
  5
F10027
330
F10011
100
AcDbEntity
  8
Bemassung
 62
     0
370
    -2
100
AcDbLine
10
-31.0238508239376
20
-12.8967909800520
30
0.000000000000000
11
-31.0238508239376
21
32.1032090199480
31
0.000000000000000
  0
LINE
  5
F10028
330
F10011
100
AcDbEntity
  8
Bemassung
 62
     0
370
    -2
100
AcDbLine
10
-11.0238508239376
20
-10.8967909800520
30
0.000000000000000
11
-31.0238508239376
21
-10.8967909800520
31
0.000000000000000
  0
INSERT
  5
F10029
330
F10011
100
AcDbEntity
  8
Bemassung
 62
     0
370
    -2
100
AcDbBlockReference
  2
VDDIM_DEFAULT
10
-11.0238508239376
20
-10.8967909800520
30
0.000000000000000
 41
2.50000000000000
 42
2.50000000000000
 43
2.50000000000000
  0
INSERT
  5
F1002A
330
F10011
100
AcDbEntity
  8
Bemassung
 62
     0
370
    -2
100
AcDbBlockReference
  2
VDDIM_DEFAULT
10
-31.0238508239376
20
-10.8967909800520
30
0.000000000000000
 41
2.50000000000000
 42
2.50000000000000
 43
2.50000000000000
 50
180.000000000000
  0
MTEXT
  5
F1002B
330
F10011
100
AcDbEntity
  8
Bemassung
 62
     0
100
AcDbMText
10
-21.1274934952302
20
-10.2301243133854
30
0.000000000000000
 40
2.50000000000000
 41
0.0
 71
     8
 72
     1
  1
20
 11
1.00000000000000
 21
0.000000000000000
 31
0.0
 73
     1
 44
1.0
1001
ACAD
1000
MTEXTBEGIN
1070
73
1070
1
1070
44
1040
1.0
1070
74
1070
0
1000
MTEXTEND
  0
POINT
  5
F1002C
330
F10011
100
AcDbEntity
  8
Bemassung
 62
     0
100
AcDbPoint
10
-11.0238508239376
20
-0.896790980052032
30
0.000000000000000
  0
POINT
  5
F1002D
330
F10011
100
AcDbEntity
  8
Bemassung
 62
     0
100
AcDbPoint
10
-31.0238508239376
20
-12.8967909800520
30
0.000000000000000
  0
ENDBLK
  5
F1002E
330
F10011
100
AcDbEntity
  8
0
100
AcDbBlockEnd
  0
BLOCK
  5
F1002F
330
F10016
100
AcDbEntity
  8
0
100
AcDbBlockBegin
  2
*D7
 70
     1
 10
0.0
 20
0.0
 30
0.0
  3
*D7
  1

  0
LINE
  5
F10030
330
F10016
100
AcDbEntity
  8
Bemassung
 62
     0
370
    -2
100
AcDbLine
10
51.9761491760624
20
14.4032090199480
30
0.000000000000000
11
51.9761491760624
21
32.1032090199480
31
0.000000000000000
  0
LINE
  5
F10031
330
F10016
100
AcDbEntity
  8
Bemassung
 62
     0
370
    -2
100
AcDbLine
10
-31.0238508239376
20
-12.8967909800520
30
0.000000000000000
11
-31.0238508239376
21
32.1032090199480
31
0.000000000000000
  0
LINE
  5
F10032
330
F10016
100
AcDbEntity
  8
Bemassung
 62
     0
370
    -2
100
AcDbLine
10
51.9761491760624
20
30.1032090199480
30
0.000000000000000
11
-31.0238508239376
21
30.1032090199480
31
0.000000000000000
  0
INSERT
  5
F10033
330
F10016
100
AcDbEntity
  8
Bemassung
 62
     0
370
    -2
100
AcDbBlockReference
  2
VDDIM_DEFAULT
10
51.9761491760624
20
30.1032090199480
30
0.000000000000000
 41
2.50000000000000
 42
2.50000000000000
 43
2.50000000000000
  0
INSERT
  5
F10034
330
F10016
100
AcDbEntity
  8
Bemassung
 62
     0
370
    -2
100
AcDbBlockReference
  2
VDDIM_DEFAULT
10
-31.0238508239376
20
30.1032090199480
30
0.000000000000000
 41
2.50000000000000
 42
2.50000000000000
 43
2.50000000000000
 50
180.000000000000
  0
MTEXT
  5
F10035
330
F10016
100
AcDbEntity
  8
Bemassung
 62
     0
100
AcDbMText
10
10.4761491760624
20
30.7698756866146
30
0.000000000000000
 40
2.50000000000000
 41
0.0
 71
     8
 72
     1
  1
83
 11
1.00000000000000
 21
0.000000000000000
 31
0.0
 73
     1
 44
1.0
1001
ACAD
1000
MTEXTBEGIN
1070
73
1070
1
1070
44
1040
1.0
1070
74
1070
0
1000
MTEXTEND
  0
POINT
  5
F10036
330
F10016
100
AcDbEntity
  8
Bemassung
 62
     0
100
AcDbPoint
10
51.9761491760624
20
14.4032090199480
30
0.000000000000000
  0
POINT
  5
F10037
330
F10016
100
AcDbEntity
  8
Bemassung
 62
     0
100
AcDbPoint
10
-31.0238508239376
20
-12.8967909800520
30
0.000000000000000
  0
ENDBLK
  5
F10038
330
F10016
100
AcDbEntity
  8
0
100
AcDbBlockEnd
  0
BLOCK
  5
F10039
330
F10007
100
AcDbEntity
  8
0
100
AcDbBlockBegin
  2
*D4
 70
     1
 10
0.0
 20
0.0
 30
0.0
  3
*D4
  1

  0
LINE
  5
F1003A
330
F10007
100
AcDbEntity
  8
Bemassung
 62
     0
370
    -2
100
AcDbLine
10
-30.6738508239376
20
-0.896790980052032
30
0.000000000000000
11
-43.0238508239376
21
-0.896790980052032
31
0.000000000000000
  0
LINE
  5
F1003B
330
F10007
100
AcDbEntity
  8
Bemassung
 62
     0
370
    -2
100
AcDbLine
10
-30.6738508239376
20
15.1032090199480
30
0.000000000000000
11
-43.0238508239376
21
15.1032090199480
31
0.000000000000000
  0
LINE
  5
F1003C
330
F10007
100
AcDbEntity
  8
Bemassung
 62
     0
370
    -2
100
AcDbLine
10
-41.0238508239376
20
-0.896790980052032
30
0.000000000000000
11
-41.0238508239376
21
15.1032090199480
31
0.000000000000000
  0
INSERT
  5
F1003D
330
F10007
100
AcDbEntity
  8
Bemassung
 62
     0
370
    -2
100
AcDbBlockReference
  2
VDDIM_DEFAULT
10
-41.0238508239376
20
-0.896790980052032
30
0.000000000000000
 41
2.50000000000000
 42
2.50000000000000
 43
2.50000000000000
 50
270.000000000000
  0
INSERT
  5
F1003E
330
F10007
100
AcDbEntity
  8
Bemassung
 62
     0
370
    -2
100
AcDbBlockReference
  2
VDDIM_DEFAULT
10
-41.0238508239376
20
15.1032090199480
30
0.000000000000000
 41
2.50000000000000
 42
2.50000000000000
 43
2.50000000000000
 50
90.0000000000000
  0
MTEXT
  5
F1003F
330
F10007
100
AcDbEntity
  8
Bemassung
 62
     0
100
AcDbMText
10
-41.6905174906042
20
7.10320901994797
30
0.000000000000000
 40
2.50000000000000
 41
0.0
 71
     8
 72
     1
  1
Ø16
 11
6.12323399573677e-17
 21
1.00000000000000
 31
0.0
 73
     1
 44
1.0
1001
ACAD
1000
MTEXTBEGIN
1070
73
1070
1
1070
44
1040
1.0
1070
74
1070
0
1000
MTEXTEND
  0
POINT
  5
F10040
330
F10007
100
AcDbEntity
  8
Bemassung
 62
     0
100
AcDbPoint
10
-30.6738508239376
20
-0.896790980052032
30
0.000000000000000
  0
POINT
  5
F10041
330
F10007
100
AcDbEntity
  8
Bemassung
 62
     0
100
AcDbPoint
10
-30.6738508239376
20
15.1032090199480
30
0.000000000000000
  0
ENDBLK
  5
F10042
330
F10007
100
AcDbEntity
  8
0
100
AcDbBlockEnd
  0
BLOCK
  5
F10043
330
F1000C
100
AcDbEntity
  8
0
100
AcDbBlockBegin
  2
*D5
 70
     1
 10
0.0
 20
0.0
 30
0.0
  3
*D5
  1

  0
LINE
  5
F10044
330
F1000C
100
AcDbEntity
  8
Bemassung
 62
     0
370
    -2
100
AcDbLine
10
51.2761491760624
20
-0.896790980052032
30
0.000000000000000
11
62.9761491760624
21
-0.896790980052032
31
0.000000000000000
  0
LINE
  5
F10045
330
F1000C
100
AcDbEntity
  8
Bemassung
 62
     0
370
    -2
100
AcDbLine
10
51.2761491760624
20
15.1032090199480
30
0.000000000000000
11
62.9761491760624
21
15.1032090199480
31
0.000000000000000
  0
LINE
  5
F10046
330
F1000C
100
AcDbEntity
  8
Bemassung
 62
     0
370
    -2
100
AcDbLine
10
60.9761491760624
20
-0.896790980052032
30
0.000000000000000
11
60.9761491760624
21
15.1032090199480
31
0.000000000000000
  0
INSERT
  5
F10047
330
F1000C
100
AcDbEntity
  8
Bemassung
 62
     0
370
    -2
100
AcDbBlockReference
  2
VDDIM_DEFAULT
10
60.9761491760624
20
-0.896790980052032
30
0.000000000000000
 41
2.50000000000000
 42
2.50000000000000
 43
2.50000000000000
 50
270.000000000000
  0
INSERT
  5
F10048
330
F1000C
100
AcDbEntity
  8
Bemassung
 62
     0
370
    -2
100
AcDbBlockReference
  2
VDDIM_DEFAULT
10
60.9761491760624
20
15.1032090199480
30
0.000000000000000
 41
2.50000000000000
 42
2.50000000000000
 43
2.50000000000000
 50
90.0000000000000
  0
MTEXT
  5
F10049
330
F1000C
100
AcDbEntity
  8
Bemassung
 62
     0
100
AcDbMText
10
60.3094825093958
20
5.19080659150072
30
0.000000000000000
 40
2.50000000000000
 41
0.0
 71
     8
 72
     1
  1
Ø16h6
 11
6.12323399573677e-17
 21
1.00000000000000
 31
0.0
 73
     1
 44
1.0
  0
POINT
  5
F1004A
330
F1000C
100
AcDbEntity
  8
Bemassung
 62
     0
100
AcDbPoint
10
51.2761491760624
20
-0.896790980052032
30
0.000000000000000
  0
POINT
  5
F1004B
330
F1000C
100
AcDbEntity
  8
Bemassung
 62
     0
100
AcDbPoint
10
51.2761491760624
20
15.1032090199480
30
0.000000000000000
  0
ENDBLK
  5
F1004C
330
F1000C
100
AcDbEntity
  8
0
100
AcDbBlockEnd
0
ENDSEC
0
SECTION
2
ENTITIES
  0
DIMENSION
  5
F10003
330
261
100
AcDbEntity
  8
Bemassung
100
AcDbDimension
  2
*D3
10
-30.6738508239376
20
20.1032090199480
30
0.000000000000000
11
-35.8803122289679
21
20.7698756866146
31
0.000000000000000
 70
32
 1
0.35 x 45°
 71
     8
  3
BEM-ISBE
100
AcDbAlignedDimension
13
-31.0238508239376
23
-12.8967909800520
33
0.000000000000000
14
-30.6738508239376
24
15.1032090199480
34
0.000000000000000
100
AcDbRotatedDimension
1001
ACAD
1000
DSTYLE
1002
{
1070
284
1070
8
1070
78
1070
8
1070
144
1040
1.00000000000000
1070
147
1040
0.625
1070
 72
1070
 0
1070
 71
1070
 0
1002
}
  0
DIMENSION
  5
F10012
330
261
100
AcDbEntity
  8
Bemassung
100
AcDbDimension
  2
*D6
10
-31.0238508239376
20
-10.8967909800520
30
0.000000000000000
11
-21.1274934952302
21
-10.2301243133854
31
0.000000000000000
 70
32
 1
20
 71
     8
  3
BEM-ISBE
100
AcDbAlignedDimension
13
-11.0238508239376
23
-0.896790980052032
33
0.000000000000000
14
-31.0238508239376
24
-12.8967909800520
34
0.000000000000000
100
AcDbRotatedDimension
1001
ACAD
1000
DSTYLE
1002
{
1070
284
1070
8
1070
78
1070
8
1070
144
1040
1.00000000000000
1070
147
1040
0.625
1070
 72
1070
 0
1070
 71
1070
 0
1002
}
  0
DIMENSION
  5
F10017
330
261
100
AcDbEntity
  8
Bemassung
100
AcDbDimension
  2
*D7
10
-31.0238508239376
20
30.1032090199480
30
0.000000000000000
11
10.4761491760624
21
30.7698756866146
31
0.000000000000000
 70
32
 1
83
 71
     8
  3
BEM-ISBE
100
AcDbAlignedDimension
13
51.9761491760624
23
14.4032090199480
33
0.000000000000000
14
-31.0238508239376
24
-12.8967909800520
34
0.000000000000000
100
AcDbRotatedDimension
1001
ACAD
1000
DSTYLE
1002
{
1070
284
1070
8
1070
78
1070
8
1070
144
1040
1.00000000000000
1070
147
1040
0.625
1070
 72
1070
 0
1070
 71
1070
 0
1002
}
  0
DIMENSION
  5
F10008
330
261
100
AcDbEntity
  8
Bemassung
100
AcDbDimension
  2
*D4
10
-41.0238508239376
20
15.1032090199480
30
0.000000000000000
11
-41.6905174906042
21
7.10320901994797
31
0.000000000000000
 70
32
 1
Ø16
 71
     8
  3
BEM-ISBE
100
AcDbAlignedDimension
13
-30.6738508239376
23
-0.896790980052032
33
0.000000000000000
14
-30.6738508239376
24
15.1032090199480
34
0.000000000000000
50
90.0000000000000
100
AcDbRotatedDimension
1001
ACAD
1000
DSTYLE
1002
{
1070
284
1070
8
1070
78
1070
8
1070
144
1040
1.00000000000000
1070
147
1040
0.625
1070
 72
1070
 0
1070
 71
1070
 0
1002
}
  0
DIMENSION
  5
F1000D
330
261
100
AcDbEntity
  8
Bemassung
100
AcDbDimension
  2
*D5
10
60.9761491760624
20
15.1032090199480
30
0.000000000000000
11
60.3094825093958
21
5.19080659150072
31
0.000000000000000
 70
32
 1
Ø16h6
 71
     8
  3
BEM-ISBE
100
AcDbAlignedDimension
13
51.2761491760624
23
-0.896790980052032
33
0.000000000000000
14
51.2761491760624
24
15.1032090199480
34
0.000000000000000
50
90.0000000000000
100
AcDbRotatedDimension
1001
ACAD
1000
DSTYLE
1002
{
1070
284
1070
8
1070
78
1070
8
1070
144
1040
1.00000000000000
1070
147
1040
0.625
1070
 72
1070
 0
1070
 71
1070
 0
1002
}
  0
LINE
  5
F1004D
330
F1004E
100
AcDbEntity
8
Geo
100
AcDbLine
10
-31.0238508239376
20
7.10320901994797
30
0.000000000000000
11
-31.0238508239376
21
14.7532090199480
31
0.000000000000000
  0
LINE
  5
F1004F
330
F10050
100
AcDbEntity
8
Geo
100
AcDbLine
10
-31.0238508239376
20
14.7532090199480
30
0.000000000000000
11
-30.6738508239376
21
15.1032090199480
31
0.000000000000000
  0
LINE
  5
F10051
330
F10052
100
AcDbEntity
8
Geo
100
AcDbLine
10
-30.6738508239376
20
15.1032090199480
30
0.000000000000000
11
-11.0238508239376
21
15.1032090199480
31
0.000000000000000
  0
LINE
  5
F10053
330
F10054
100
AcDbEntity
8
Geo
100
AcDbLine
10
-11.0238508239376
20
15.1032090199480
30
0.000000000000000
11
30.0761491760624
21
15.1032090199480
31
0.000000000000000
  0
LINE
  5
F10055
330
F10056
100
AcDbEntity
8
Geo
100
AcDbLine
10
30.0761491760624
20
15.1032090199480
30
0.000000000000000
11
31.8761491760624
21
13.3032090199480
31
0.000000000000000
  0
LINE
  5
F10057
330
F10058
100
AcDbEntity
8
Geo
100
AcDbLine
10
31.8761491760624
20
13.3032090199480
30
0.000000000000000
11
36.0761491760624
21
13.3032090199480
31
0.000000000000000
  0
LINE
  5
F10059
330
F1005A
100
AcDbEntity
8
Geo
100
AcDbLine
10
36.0761491760624
20
13.3032090199480
30
0.000000000000000
11
37.8761491760624
21
15.1032090199480
31
0.000000000000000
  0
LINE
  5
F1005B
330
F1005C
100
AcDbEntity
8
Geo
100
AcDbLine
10
37.8761491760624
20
15.1032090199480
30
0.000000000000000
11
51.2761491760624
21
15.1032090199480
31
0.000000000000000
  0
LINE
  5
F1005D
330
F1005E
100
AcDbEntity
8
Geo
100
AcDbLine
10
51.2761491760624
20
15.1032090199480
30
0.000000000000000
11
51.9761491760624
21
14.4032090199480
31
0.000000000000000
  0
LINE
  5
F1005F
330
F10060
100
AcDbEntity
8
Geo
100
AcDbLine
10
-31.0238508239376
20
14.7530507323317
30
0.000000000000000
11
-30.9238508239376
21
14.8520845513814
31
0.000000000000000
  0
LINE
  5
F10061
330
F10062
100
AcDbEntity
8
Geo
100
AcDbLine
10
-30.9238508239376
20
14.8520845513814
30
0.000000000000000
11
-30.8238508239376
21
14.9502006414909
31
0.000000000000000
  0
LINE
  5
F10063
330
F10064
100
AcDbEntity
8
Geo
100
AcDbLine
10
-30.8238508239376
20
14.9502006414909
30
0.000000000000000
11
-30.7238508239376
21
15.0473532587330
31
0.000000000000000
  0
LINE
  5
F10065
330
F10066
100
AcDbEntity
8
Geo
100
AcDbLine
10
-30.7238508239376
20
15.0473532587330
30
0.000000000000000
11
-30.6238508239376
21
15.0932111031077
31
0.000000000000000
  0
LINE
  5
F10067
330
F10068
100
AcDbEntity
8
Geo
100
AcDbLine
10
-30.6238508239376
20
15.0932111031077
30
0.000000000000000
11
-30.5238508239376
21
15.0875891055488
31
0.000000000000000
  0
LINE
  5
F10069
330
F1006A
100
AcDbEntity
8
Geo
100
AcDbLine
10
-30.5238508239376
20
15.0875891055488
30
0.000000000000000
11
-30.4238508239376
21
15.0807195648456
31
0.000000000000000
  0
LINE
  5
F1006B
330
F1006C
100
AcDbEntity
8
Geo
100
AcDbLine
10
-30.4238508239376
20
15.0807195648456
30
0.000000000000000
11
-30.3238508239376
21
15.0726035543501
31
0.000000000000000
  0
LINE
  5
F1006D
330
F1006E
100
AcDbEntity
8
Geo
100
AcDbLine
10
-30.3238508239376
20
15.0726035543501
30
0.000000000000000
11
-30.2238508239376
21
15.0632423421722
31
0.000000000000000
  0
LINE
  5
F1006F
330
F10070
100
AcDbEntity
8
Geo
100
AcDbLine
10
-30.2238508239376
20
15.0632423421722
30
0.000000000000000
11
-30.1238508239376
21
15.0526373909823
31
0.000000000000000
  0
LINE
  5
F10071
330
F10072
100
AcDbEntity
8
Geo
100
AcDbLine
10
-30.1238508239376
20
15.0526373909823
30
0.000000000000000
11
-30.0238508239376
21
15.0407903577826
31
0.000000000000000
  0
LINE
  5
F10073
330
F10074
100
AcDbEntity
8
Geo
100
AcDbLine
10
-30.0238508239376
20
15.0407903577826
30
0.000000000000000
11
-29.9238508239376
21
15.0277030936478
31
0.000000000000000
  0
LINE
  5
F10075
330
F10076
100
AcDbEntity
8
Geo
100
AcDbLine
10
-29.9238508239376
20
15.0277030936478
30
0.000000000000000
11
-29.8238508239376
21
15.0133776434363
31
0.000000000000000
  0
LINE
  5
F10077
330
F10078
100
AcDbEntity
8
Geo
100
AcDbLine
10
-29.8238508239376
20
15.0133776434363
30
0.000000000000000
11
-29.7238508239376
21
14.9978162454706
31
0.000000000000000
  0
LINE
  5
F10079
330
F1007A
100
AcDbEntity
8
Geo
100
AcDbLine
10
-29.7238508239376
20
14.9978162454706
30
0.000000000000000
11
-29.6238508239376
21
14.9810213311874
31
0.000000000000000
  0
LINE
  5
F1007B
330
F1007C
100
AcDbEntity
8
Geo
100
AcDbLine
10
-29.6238508239376
20
14.9810213311874
30
0.000000000000000
11
-29.5238508239376
21
14.9629955247580
31
0.000000000000000
  0
LINE
  5
F1007D
330
F1007E
100
AcDbEntity
8
Geo
100
AcDbLine
10
-29.5238508239376
20
14.9629955247580
30
0.000000000000000
11
-29.4238508239376
21
14.9437416426779
31
0.000000000000000
  0
LINE
  5
F1007F
330
F10080
100
AcDbEntity
8
Geo
100
AcDbLine
10
-29.4238508239376
20
14.9437416426779
30
0.000000000000000
11
-29.3238508239376
21
14.9232626933270
31
0.000000000000000
  0
LINE
  5
F10081
330
F10082
100
AcDbEntity
8
Geo
100
AcDbLine
10
-29.3238508239376
20
14.9232626933270
30
0.000000000000000
11
-29.2238508239376
21
14.9015618764995
31
0.000000000000000
  0
LINE
  5
F10083
330
F10084
100
AcDbEntity
8
Geo
100
AcDbLine
10
-29.2238508239376
20
14.9015618764995
30
0.000000000000000
11
-29.1238508239376
21
14.8786425829039
31
0.000000000000000
  0
LINE
  5
F10085
330
F10086
100
AcDbEntity
8
Geo
100
AcDbLine
10
-29.1238508239376
20
14.8786425829039
30
0.000000000000000
11
-29.0238508239376
21
14.8545083936331
31
0.000000000000000
  0
LINE
  5
F10087
330
F10088
100
AcDbEntity
8
Geo
100
AcDbLine
10
-29.0238508239376
20
14.8545083936331
30
0.000000000000000
11
-28.9238508239376
21
14.8291630796052
31
0.000000000000000
  0
LINE
  5
F10089
330
F1008A
100
AcDbEntity
8
Geo
100
AcDbLine
10
-28.9238508239376
20
14.8291630796052
30
0.000000000000000
11
-28.8238508239376
21
14.8026106009739
31
0.000000000000000
  0
LINE
  5
F1008B
330
F1008C
100
AcDbEntity
8
Geo
100
AcDbLine
10
-28.8238508239376
20
14.8026106009739
30
0.000000000000000
11
-28.7238508239376
21
14.7748551065099
31
0.000000000000000
  0
LINE
  5
F1008D
330
F1008E
100
AcDbEntity
8
Geo
100
AcDbLine
10
-28.7238508239376
20
14.7748551065099
30
0.000000000000000
11
-28.6238508239376
21
14.7459009329528
31
0.000000000000000
  0
LINE
  5
F1008F
330
F10090
100
AcDbEntity
8
Geo
100
AcDbLine
10
-28.6238508239376
20
14.7459009329528
30
0.000000000000000
11
-28.5238508239376
21
14.7157526043333
31
0.000000000000000
  0
LINE
  5
F10091
330
F10092
100
AcDbEntity
8
Geo
100
AcDbLine
10
-28.5238508239376
20
14.7157526043333
30
0.000000000000000
11
-28.4238508239376
21
14.6844148312665
31
0.000000000000000
  0
LINE
  5
F10093
330
F10094
100
AcDbEntity
8
Geo
100
AcDbLine
10
-28.4238508239376
20
14.6844148312665
30
0.000000000000000
11
-28.3238508239376
21
14.6518925102155
31
0.000000000000000
  0
LINE
  5
F10095
330
F10096
100
AcDbEntity
8
Geo
100
AcDbLine
10
-28.3238508239376
20
14.6518925102155
30
0.000000000000000
11
-28.2238508239376
21
14.6181907227270
31
0.000000000000000
  0
LINE
  5
F10097
330
F10098
100
AcDbEntity
8
Geo
100
AcDbLine
10
-28.2238508239376
20
14.6181907227270
30
0.000000000000000
11
-28.1238508239376
21
14.5833147346366
31
0.000000000000000
  0
LINE
  5
F10099
330
F1009A
100
AcDbEntity
8
Geo
100
AcDbLine
10
-28.1238508239376
20
14.5833147346366
30
0.000000000000000
11
-28.0238508239376
21
14.5472699952465
31
0.000000000000000
  0
LINE
  5
F1009B
330
F1009C
100
AcDbEntity
8
Geo
100
AcDbLine
10
-28.0238508239376
20
14.5472699952465
30
0.000000000000000
11
-27.9238508239376
21
14.5100621364739
31
0.000000000000000
  0
LINE
  5
F1009D
330
F1009E
100
AcDbEntity
8
Geo
100
AcDbLine
10
-27.9238508239376
20
14.5100621364739
30
0.000000000000000
11
-27.8238508239376
21
14.4716969719710
31
0.000000000000000
  0
LINE
  5
F1009F
330
F100A0
100
AcDbEntity
8
Geo
100
AcDbLine
10
-27.8238508239376
20
14.4716969719710
30
0.000000000000000
11
-27.7238508239376
21
14.4321804962168
31
0.000000000000000
  0
LINE
  5
F100A1
330
F100A2
100
AcDbEntity
8
Geo
100
AcDbLine
10
-27.7238508239376
20
14.4321804962168
30
0.000000000000000
11
-27.6238508239376
21
14.3915188835802
31
0.000000000000000
  0
LINE
  5
F100A3
330
F100A4
100
AcDbEntity
8
Geo
100
AcDbLine
10
-27.6238508239376
20
14.3915188835802
30
0.000000000000000
11
-27.5238508239376
21
14.3497184873555
31
0.000000000000000
  0
LINE
  5
F100A5
330
F100A6
100
AcDbEntity
8
Geo
100
AcDbLine
10
-27.5238508239376
20
14.3497184873555
30
0.000000000000000
11
-27.4238508239376
21
14.3067858387694
31
0.000000000000000
  0
LINE
  5
F100A7
330
F100A8
100
AcDbEntity
8
Geo
100
AcDbLine
10
-27.4238508239376
20
14.3067858387694
30
0.000000000000000
11
-27.3238508239376
21
14.2627276459610
31
0.000000000000000
  0
LINE
  5
F100A9
330
F100AA
100
AcDbEntity
8
Geo
100
AcDbLine
10
-27.3238508239376
20
14.2627276459610
30
0.000000000000000
11
-27.2238508239376
21
14.2175507929333
31
0.000000000000000
  0
LINE
  5
F100AB
330
F100AC
100
AcDbEntity
8
Geo
100
AcDbLine
10
-27.2238508239376
20
14.2175507929333
30
0.000000000000000
11
-27.1238508239376
21
14.1712623384777
31
0.000000000000000
  0
LINE
  5
F100AD
330
F100AE
100
AcDbEntity
8
Geo
100
AcDbLine
10
-27.1238508239376
20
14.1712623384777
30
0.000000000000000
11
-27.0238508239376
21
14.1238695150710
31
0.000000000000000
  0
LINE
  5
F100AF
330
F100B0
100
AcDbEntity
8
Geo
100
AcDbLine
10
-27.0238508239376
20
14.1238695150710
30
0.000000000000000
11
-26.9238508239376
21
14.0753797277454
31
0.000000000000000
  0
LINE
  5
F100B1
330
F100B2
100
AcDbEntity
8
Geo
100
AcDbLine
10
-26.9238508239376
20
14.0753797277454
30
0.000000000000000
11
-26.8238508239376
21
14.0258005529315
31
0.000000000000000
  0
LINE
  5
F100B3
330
F100B4
100
AcDbEntity
8
Geo
100
AcDbLine
10
-26.8238508239376
20
14.0258005529315
30
0.000000000000000
11
-26.7238508239376
21
13.9751397372746
31
0.000000000000000
  0
LINE
  5
F100B5
330
F100B6
100
AcDbEntity
8
Geo
100
AcDbLine
10
-26.7238508239376
20
13.9751397372746
30
0.000000000000000
11
-26.6238508239376
21
13.9234051964240
31
0.000000000000000
  0
LINE
  5
F100B7
330
F100B8
100
AcDbEntity
8
Geo
100
AcDbLine
10
-26.6238508239376
20
13.9234051964240
30
0.000000000000000
11
-26.5238508239376
21
13.8706050137965
31
0.000000000000000
  0
LINE
  5
F100B9
330
F100BA
100
AcDbEntity
8
Geo
100
AcDbLine
10
-26.5238508239376
20
13.8706050137965
30
0.000000000000000
11
-26.4238508239376
21
13.8167474393132
31
0.000000000000000
  0
LINE
  5
F100BB
330
F100BC
100
AcDbEntity
8
Geo
100
AcDbLine
10
-26.4238508239376
20
13.8167474393132
30
0.000000000000000
11
-26.3238508239376
21
13.7618408881105
31
0.000000000000000
  0
LINE
  5
F100BD
330
F100BE
100
AcDbEntity
8
Geo
100
AcDbLine
10
-26.3238508239376
20
13.7618408881105
30
0.000000000000000
11
-26.2238508239376
21
13.7058939392254
31
0.000000000000000
  0
LINE
  5
F100BF
330
F100C0
100
AcDbEntity
8
Geo
100
AcDbLine
10
-26.2238508239376
20
13.7058939392254
30
0.000000000000000
11
-26.1238508239376
21
13.6489153342548
31
0.000000000000000
  0
LINE
  5
F100C1
330
F100C2
100
AcDbEntity
8
Geo
100
AcDbLine
10
-26.1238508239376
20
13.6489153342548
30
0.000000000000000
11
-26.0238508239376
21
13.5909139759897
31
0.000000000000000
  0
LINE
  5
F100C3
330
F100C4
100
AcDbEntity
8
Geo
100
AcDbLine
10
-26.0238508239376
20
13.5909139759897
30
0.000000000000000
11
-25.9238508239376
21
13.5318989270245
31
0.000000000000000
  0
LINE
  5
F100C5
330
F100C6
100
AcDbEntity
8
Geo
100
AcDbLine
10
-25.9238508239376
20
13.5318989270245
30
0.000000000000000
11
-25.8238508239376
21
13.4718794083404
31
0.000000000000000
  0
LINE
  5
F100C7
330
F100C8
100
AcDbEntity
8
Geo
100
AcDbLine
10
-25.8238508239376
20
13.4718794083404
30
0.000000000000000
11
-25.7238508239376
21
13.4108647978652
31
0.000000000000000
  0
LINE
  5
F100C9
330
F100CA
100
AcDbEntity
8
Geo
100
AcDbLine
10
-25.7238508239376
20
13.4108647978652
30
0.000000000000000
11
-25.6238508239376
21
13.3488646290075
31
0.000000000000000
  0
LINE
  5
F100CB
330
F100CC
100
AcDbEntity
8
Geo
100
AcDbLine
10
-25.6238508239376
20
13.3488646290075
30
0.000000000000000
11
-25.5238508239376
21
13.2858885891677
31
0.000000000000000
  0
LINE
  5
F100CD
330
F100CE
100
AcDbEntity
8
Geo
100
AcDbLine
10
-25.5238508239376
20
13.2858885891677
30
0.000000000000000
11
-25.4238508239376
21
13.2219465182239
31
0.000000000000000
  0
LINE
  5
F100CF
330
F100D0
100
AcDbEntity
8
Geo
100
AcDbLine
10
-25.4238508239376
20
13.2219465182239
30
0.000000000000000
11
-25.3238508239376
21
13.1570484069944
31
0.000000000000000
  0
LINE
  5
F100D1
330
F100D2
100
AcDbEntity
8
Geo
100
AcDbLine
10
-25.3238508239376
20
13.1570484069944
30
0.000000000000000
11
-25.2238508239376
21
13.0912043956773
31
0.000000000000000
  0
LINE
  5
F100D3
330
F100D4
100
AcDbEntity
8
Geo
100
AcDbLine
10
-25.2238508239376
20
13.0912043956773
30
0.000000000000000
11
-25.1238508239376
21
13.0244247722652
31
0.000000000000000
  0
LINE
  5
F100D5
330
F100D6
100
AcDbEntity
8
Geo
100
AcDbLine
10
-25.1238508239376
20
13.0244247722652
30
0.000000000000000
11
-25.0238508239376
21
12.9567199709385
31
0.000000000000000
  0
LINE
  5
F100D7
330
F100D8
100
AcDbEntity
8
Geo
100
AcDbLine
10
-25.0238508239376
20
12.9567199709385
30
0.000000000000000
11
-24.9238508239376
21
12.8881005704347
31
0.000000000000000
  0
LINE
  5
F100D9
330
F100DA
100
AcDbEntity
8
Geo
100
AcDbLine
10
-24.9238508239376
20
12.8881005704347
30
0.000000000000000
11
-24.8238508239376
21
12.8185772923954
31
0.000000000000000
  0
LINE
  5
F100DB
330
F100DC
100
AcDbEntity
8
Geo
100
AcDbLine
10
-24.8238508239376
20
12.8185772923954
30
0.000000000000000
11
-24.7238508239376
21
12.7481609996915
31
0.000000000000000
  0
LINE
  5
F100DD
330
F100DE
100
AcDbEntity
8
Geo
100
AcDbLine
10
-24.7238508239376
20
12.7481609996915
30
0.000000000000000
11
-24.6238508239376
21
12.6768626947253
31
0.000000000000000
  0
LINE
  5
F100DF
330
F100E0
100
AcDbEntity
8
Geo
100
AcDbLine
10
-24.6238508239376
20
12.6768626947253
30
0.000000000000000
11
-24.5238508239376
21
12.6046935177120
31
0.000000000000000
  0
LINE
  5
F100E1
330
F100E2
100
AcDbEntity
8
Geo
100
AcDbLine
10
-24.5238508239376
20
12.6046935177120
30
0.000000000000000
11
-24.4238508239376
21
12.5316647449387
31
0.000000000000000
  0
LINE
  5
F100E3
330
F100E4
100
AcDbEntity
8
Geo
100
AcDbLine
10
-24.4238508239376
20
12.5316647449387
30
0.000000000000000
11
-24.3238508239376
21
12.4577877870025
31
0.000000000000000
  0
LINE
  5
F100E5
330
F100E6
100
AcDbEntity
8
Geo
100
AcDbLine
10
-24.3238508239376
20
12.4577877870025
30
0.000000000000000
11
-24.2238508239376
21
12.3830741870278
31
0.000000000000000
  0
LINE
  5
F100E7
330
F100E8
100
AcDbEntity
8
Geo
100
AcDbLine
10
-24.2238508239376
20
12.3830741870278
30
0.000000000000000
11
-24.1238508239376
21
12.3075356188627
31
0.000000000000000
  0
LINE
  5
F100E9
330
F100EA
100
AcDbEntity
8
Geo
100
AcDbLine
10
-24.1238508239376
20
12.3075356188627
30
0.000000000000000
11
-24.0238508239376
21
12.2311838852546
31
0.000000000000000
  0
LINE
  5
F100EB
330
F100EC
100
AcDbEntity
8
Geo
100
AcDbLine
10
-24.0238508239376
20
12.2311838852546
30
0.000000000000000
11
-23.9238508239376
21
12.1540309160066
31
0.000000000000000
  0
LINE
  5
F100ED
330
F100EE
100
AcDbEntity
8
Geo
100
AcDbLine
10
-23.9238508239376
20
12.1540309160066
30
0.000000000000000
11
-23.8238508239376
21
12.0760887661133
31
0.000000000000000
  0
LINE
  5
F100EF
330
F100F0
100
AcDbEntity
8
Geo
100
AcDbLine
10
-23.8238508239376
20
12.0760887661133
30
0.000000000000000
11
-23.7238508239376
21
11.9973696138769
31
0.000000000000000
  0
LINE
  5
F100F1
330
F100F2
100
AcDbEntity
8
Geo
100
AcDbLine
10
-23.7238508239376
20
11.9973696138769
30
0.000000000000000
11
-23.6238508239376
21
11.9178857590049
31
0.000000000000000
  0
LINE
  5
F100F3
330
F100F4
100
AcDbEntity
8
Geo
100
AcDbLine
10
-23.6238508239376
20
11.9178857590049
30
0.000000000000000
11
-23.5238508239376
21
11.8376496206878
31
0.000000000000000
  0
LINE
  5
F100F5
330
F100F6
100
AcDbEntity
8
Geo
100
AcDbLine
10
-23.5238508239376
20
11.8376496206878
30
0.000000000000000
11
-23.4238508239376
21
11.7566737356590
31
0.000000000000000
  0
LINE
  5
F100F7
330
F100F8
100
AcDbEntity
8
Geo
100
AcDbLine
10
-23.4238508239376
20
11.7566737356590
30
0.000000000000000
11
-23.3238508239376
21
11.6749707562359
31
0.000000000000000
  0
LINE
  5
F100F9
330
F100FA
100
AcDbEntity
8
Geo
100
AcDbLine
10
-23.3238508239376
20
11.6749707562359
30
0.000000000000000
11
-23.2238508239376
21
11.5925534483427
31
0.000000000000000
  0
LINE
  5
F100FB
330
F100FC
100
AcDbEntity
8
Geo
100
AcDbLine
10
-23.2238508239376
20
11.5925534483427
30
0.000000000000000
11
-23.1238508239376
21
11.5094346895161
31
0.000000000000000
  0
LINE
  5
F100FD
330
F100FE
100
AcDbEntity
8
Geo
100
AcDbLine
10
-23.1238508239376
20
11.5094346895161
30
0.000000000000000
11
-23.0238508239376
21
11.4256274668931
31
0.000000000000000
  0
LINE
  5
F100FF
330
F10100
100
AcDbEntity
8
Geo
100
AcDbLine
10
-23.0238508239376
20
11.4256274668931
30
0.000000000000000
11
-22.9238508239376
21
11.3411448751817
31
0.000000000000000
  0
LINE
  5
F10101
330
F10102
100
AcDbEntity
8
Geo
100
AcDbLine
10
-22.9238508239376
20
11.3411448751817
30
0.000000000000000
11
-22.8238508239376
21
11.2560001146149
31
0.000000000000000
  0
LINE
  5
F10103
330
F10104
100
AcDbEntity
8
Geo
100
AcDbLine
10
-22.8238508239376
20
11.2560001146149
30
0.000000000000000
11
-22.7238508239376
21
11.1702064888885
31
0.000000000000000
  0
LINE
  5
F10105
330
F10106
100
AcDbEntity
8
Geo
100
AcDbLine
10
-22.7238508239376
20
11.1702064888885
30
0.000000000000000
11
-22.6238508239376
21
11.0837774030818
31
0.000000000000000
  0
LINE
  5
F10107
330
F10108
100
AcDbEntity
8
Geo
100
AcDbLine
10
-22.6238508239376
20
11.0837774030818
30
0.000000000000000
11
-22.5238508239376
21
10.9967263615637
31
0.000000000000000
  0
LINE
  5
F10109
330
F1010A
100
AcDbEntity
8
Geo
100
AcDbLine
10
-22.5238508239376
20
10.9967263615637
30
0.000000000000000
11
-22.4238508239376
21
10.9090669658823
31
0.000000000000000
  0
LINE
  5
F1010B
330
F1010C
100
AcDbEntity
8
Geo
100
AcDbLine
10
-22.4238508239376
20
10.9090669658823
30
0.000000000000000
11
-22.3238508239376
21
10.8208129126398
31
0.000000000000000
  0
LINE
  5
F1010D
330
F1010E
100
AcDbEntity
8
Geo
100
AcDbLine
10
-22.3238508239376
20
10.8208129126398
30
0.000000000000000
11
-22.2238508239376
21
10.7319779913526
31
0.000000000000000
  0
LINE
  5
F1010F
330
F10110
100
AcDbEntity
8
Geo
100
AcDbLine
10
-22.2238508239376
20
10.7319779913526
30
0.000000000000000
11
-22.1238508239376
21
10.6425760822963
31
0.000000000000000
  0
LINE
  5
F10111
330
F10112
100
AcDbEntity
8
Geo
100
AcDbLine
10
-22.1238508239376
20
10.6425760822963
30
0.000000000000000
11
-22.0238508239376
21
10.5526211543373
31
0.000000000000000
  0
LINE
  5
F10113
330
F10114
100
AcDbEntity
8
Geo
100
AcDbLine
10
-22.0238508239376
20
10.5526211543373
30
0.000000000000000
11
-21.9238508239376
21
10.4621272627501
31
0.000000000000000
  0
LINE
  5
F10115
330
F10116
100
AcDbEntity
8
Geo
100
AcDbLine
10
-21.9238508239376
20
10.4621272627501
30
0.000000000000000
11
-21.8238508239376
21
10.3711085470212
31
0.000000000000000
  0
LINE
  5
F10117
330
F10118
100
AcDbEntity
8
Geo
100
AcDbLine
10
-21.8238508239376
20
10.3711085470212
30
0.000000000000000
11
-21.7238508239376
21
10.2795792286398
31
0.000000000000000
  0
LINE
  5
F10119
330
F1011A
100
AcDbEntity
8
Geo
100
AcDbLine
10
-21.7238508239376
20
10.2795792286398
30
0.000000000000000
11
-21.6238508239376
21
10.1875536088755
31
0.000000000000000
  0
LINE
  5
F1011B
330
F1011C
100
AcDbEntity
8
Geo
100
AcDbLine
10
-21.6238508239376
20
10.1875536088755
30
0.000000000000000
11
-21.5238508239376
21
10.0950460665443
31
0.000000000000000
  0
LINE
  5
F1011D
330
F1011E
100
AcDbEntity
8
Geo
100
AcDbLine
10
-21.5238508239376
20
10.0950460665443
30
0.000000000000000
11
-21.4238508239376
21
10.0020710557614
31
0.000000000000000
  0
LINE
  5
F1011F
330
F10120
100
AcDbEntity
8
Geo
100
AcDbLine
10
-21.4238508239376
20
10.0020710557614
30
0.000000000000000
11
-21.3238508239376
21
9.90864310368312
31
0.000000000000000
  0
LINE
  5
F10121
330
F10122
100
AcDbEntity
8
Geo
100
AcDbLine
10
-21.3238508239376
20
9.90864310368312
30
0.000000000000000
11
-21.2238508239376
21
9.81477680823693
31
0.000000000000000
  0
LINE
  5
F10123
330
F10124
100
AcDbEntity
8
Geo
100
AcDbLine
10
-21.2238508239376
20
9.81477680823693
30
0.000000000000000
11
-21.1238508239376
21
9.72048683584048
31
0.000000000000000
  0
LINE
  5
F10125
330
F10126
100
AcDbEntity
8
Geo
100
AcDbLine
10
-21.1238508239376
20
9.72048683584048
30
0.000000000000000
11
-21.0238508239376
21
9.62578791911014
31
0.000000000000000
  0
LINE
  5
F10127
330
F10128
100
AcDbEntity
8
Geo
100
AcDbLine
10
-21.0238508239376
20
9.62578791911014
30
0.000000000000000
11
-20.9238508239376
21
9.53069485455898
31
0.000000000000000
  0
LINE
  5
F10129
330
F1012A
100
AcDbEntity
8
Geo
100
AcDbLine
10
-20.9238508239376
20
9.53069485455898
30
0.000000000000000
11
-20.8238508239376
21
9.43522250028486
31
0.000000000000000
  0
LINE
  5
F1012B
330
F1012C
100
AcDbEntity
8
Geo
100
AcDbLine
10
-20.8238508239376
20
9.43522250028486
30
0.000000000000000
11
-20.7238508239376
21
9.33938577364891
31
0.000000000000000
  0
LINE
  5
F1012D
330
F1012E
100
AcDbEntity
8
Geo
100
AcDbLine
10
-20.7238508239376
20
9.33938577364891
30
0.000000000000000
11
-20.6238508239376
21
9.24319964894469
31
0.000000000000000
  0
LINE
  5
F1012F
330
F10130
100
AcDbEntity
8
Geo
100
AcDbLine
10
-20.6238508239376
20
9.24319964894469
30
0.000000000000000
11
-20.5238508239376
21
9.14667915505848
31
0.000000000000000
  0
LINE
  5
F10131
330
F10132
100
AcDbEntity
8
Geo
100
AcDbLine
10
-20.5238508239376
20
9.14667915505848
30
0.000000000000000
11
-20.4238508239376
21
9.04983937312110
31
0.000000000000000
  0
LINE
  5
F10133
330
F10134
100
AcDbEntity
8
Geo
100
AcDbLine
10
-20.4238508239376
20
9.04983937312110
30
0.000000000000000
11
-20.3238508239376
21
8.95269543415144
31
0.000000000000000
  0
LINE
  5
F10135
330
F10136
100
AcDbEntity
8
Geo
100
AcDbLine
10
-20.3238508239376
20
8.95269543415144
30
0.000000000000000
11
-20.2238508239376
21
8.85526251669232
31
0.000000000000000
  0
LINE
  5
F10137
330
F10138
100
AcDbEntity
8
Geo
100
AcDbLine
10
-20.2238508239376
20
8.85526251669232
30
0.000000000000000
11
-20.1238508239376
21
8.75755584443889
31
0.000000000000000
  0
LINE
  5
F10139
330
F1013A
100
AcDbEntity
8
Geo
100
AcDbLine
10
-20.1238508239376
20
8.75755584443889
30
0.000000000000000
11
-20.0238508239376
21
8.65959068385989
31
0.000000000000000
  0
LINE
  5
F1013B
330
F1013C
100
AcDbEntity
8
Geo
100
AcDbLine
10
-20.0238508239376
20
8.65959068385989
30
0.000000000000000
11
-19.9238508239376
21
8.56138234181235
31
0.000000000000000
  0
LINE
  5
F1013D
330
F1013E
100
AcDbEntity
8
Geo
100
AcDbLine
10
-19.9238508239376
20
8.56138234181235
30
0.000000000000000
11
-19.8238508239376
21
8.46294616314992
31
0.000000000000000
  0
LINE
  5
F1013F
330
F10140
100
AcDbEntity
8
Geo
100
AcDbLine
10
-19.8238508239376
20
8.46294616314992
30
0.000000000000000
11
-19.7238508239376
21
8.36429752832524
31
0.000000000000000
  0
LINE
  5
F10141
330
F10142
100
AcDbEntity
8
Geo
100
AcDbLine
10
-19.7238508239376
20
8.36429752832524
30
0.000000000000000
11
-19.6238508239376
21
8.26545185098681
31
0.000000000000000
  0
LINE
  5
F10143
330
F10144
100
AcDbEntity
8
Geo
100
AcDbLine
10
-19.6238508239376
20
8.26545185098681
30
0.000000000000000
11
-19.5238508239376
21
8.16642457557060
31
0.000000000000000
  0
LINE
  5
F10145
330
F10146
100
AcDbEntity
8
Geo
100
AcDbLine
10
-19.5238508239376
20
8.16642457557060
30
0.000000000000000
11
-19.4238508239376
21
8.06723117488693
31
0.000000000000000
  0
LINE
  5
F10147
330
F10148
100
AcDbEntity
8
Geo
100
AcDbLine
10
-19.4238508239376
20
8.06723117488693
30
0.000000000000000
11
-19.3238508239376
21
7.96788714770285
31
0.000000000000000
  0
LINE
  5
F10149
330
F1014A
100
AcDbEntity
8
Geo
100
AcDbLine
10
-19.3238508239376
20
7.96788714770285
30
0.000000000000000
11
-19.2238508239376
21
7.86840801632049
31
0.000000000000000
  0
LINE
  5
F1014B
330
F1014C
100
AcDbEntity
8
Geo
100
AcDbLine
10
-19.2238508239376
20
7.86840801632049
30
0.000000000000000
11
-19.1238508239376
21
7.76880932415174
31
0.000000000000000
  0
LINE
  5
F1014D
330
F1014E
100
AcDbEntity
8
Geo
100
AcDbLine
10
-19.1238508239376
20
7.76880932415174
30
0.000000000000000
11
-19.0238508239376
21
7.66910663328962
31
0.000000000000000
  0
LINE
  5
F1014F
330
F10150
100
AcDbEntity
8
Geo
100
AcDbLine
10
-19.0238508239376
20
7.66910663328962
30
0.000000000000000
11
-18.9238508239376
21
7.56931552207673
31
0.000000000000000
  0
LINE
  5
F10151
330
F10152
100
AcDbEntity
8
Geo
100
AcDbLine
10
-18.9238508239376
20
7.56931552207673
30
0.000000000000000
11
-18.8238508239376
21
7.46945158267117
31
0.000000000000000
  0
LINE
  5
F10153
330
F10154
100
AcDbEntity
8
Geo
100
AcDbLine
10
-18.8238508239376
20
7.46945158267117
30
0.000000000000000
11
-18.7238508239376
21
7.36953041861031
31
0.000000000000000
  0
LINE
  5
F10155
330
F10156
100
AcDbEntity
8
Geo
100
AcDbLine
10
-18.7238508239376
20
7.36953041861031
30
0.000000000000000
11
-18.6238508239376
21
7.26956764237274
31
0.000000000000000
  0
LINE
  5
F10157
330
F10158
100
AcDbEntity
8
Geo
100
AcDbLine
10
-18.6238508239376
20
7.26956764237274
30
0.000000000000000
11
-18.5238508239376
21
7.16957887293887
31
0.000000000000000
  0
LINE
  5
F10159
330
F1015A
100
AcDbEntity
8
Geo
100
AcDbLine
10
-18.5238508239376
20
7.16957887293887
30
0.000000000000000
11
-18.4238508239376
21
7.06957973335049
31
0.000000000000000
  0
LINE
  5
F1015B
330
F1015C
100
AcDbEntity
8
Geo
100
AcDbLine
10
-18.4238508239376
20
7.06957973335049
30
0.000000000000000
11
-18.3238508239376
21
6.96958584826973
31
0.000000000000000
  0
LINE
  5
F1015D
330
F1015E
100
AcDbEntity
8
Geo
100
AcDbLine
10
-18.3238508239376
20
6.96958584826973
30
0.000000000000000
11
-18.2238508239376
21
6.86961284153769
31
0.000000000000000
  0
LINE
  5
F1015F
330
F10160
100
AcDbEntity
8
Geo
100
AcDbLine
10
-18.2238508239376
20
6.86961284153769
30
0.000000000000000
11
-18.1238508239376
21
6.76967633373327
31
0.000000000000000
  0
LINE
  5
F10161
330
F10162
100
AcDbEntity
8
Geo
100
AcDbLine
10
-18.1238508239376
20
6.76967633373327
30
0.000000000000000
11
-18.0238508239376
21
6.66979193973251
31
0.000000000000000
  0
LINE
  5
F10163
330
F10164
100
AcDbEntity
8
Geo
100
AcDbLine
10
-18.0238508239376
20
6.66979193973251
30
0.000000000000000
11
-17.9238508239376
21
6.56997526626874
31
0.000000000000000
  0
LINE
  5
F10165
330
F10166
100
AcDbEntity
8
Geo
100
AcDbLine
10
-17.9238508239376
20
6.56997526626874
30
0.000000000000000
11
-17.8238508239376
21
6.47024190949413
31
0.000000000000000
  0
LINE
  5
F10167
330
F10168
100
AcDbEntity
8
Geo
100
AcDbLine
10
-17.8238508239376
20
6.47024190949413
30
0.000000000000000
11
-17.7238508239376
21
6.37060745254275
31
0.000000000000000
  0
LINE
  5
F10169
330
F1016A
100
AcDbEntity
8
Geo
100
AcDbLine
10
-17.7238508239376
20
6.37060745254275
30
0.000000000000000
11
-17.6238508239376
21
6.27108746309581
31
0.000000000000000
  0
LINE
  5
F1016B
330
F1016C
100
AcDbEntity
8
Geo
100
AcDbLine
10
-17.6238508239376
20
6.27108746309581
30
0.000000000000000
11
-17.5238508239376
21
6.17169749094918
31
0.000000000000000
  0
LINE
  5
F1016D
330
F1016E
100
AcDbEntity
8
Geo
100
AcDbLine
10
-17.5238508239376
20
6.17169749094918
30
0.000000000000000
11
-17.4238508239376
21
6.07245306558380
31
0.000000000000000
  0
LINE
  5
F1016F
330
F10170
100
AcDbEntity
8
Geo
100
AcDbLine
10
-17.4238508239376
20
6.07245306558380
30
0.000000000000000
11
-17.3238508239376
21
5.97336969373923
31
0.000000000000000
  0
LINE
  5
F10171
330
F10172
100
AcDbEntity
8
Geo
100
AcDbLine
10
-17.3238508239376
20
5.97336969373923
30
0.000000000000000
11
-17.2238508239376
21
5.87446285699072
31
0.000000000000000
  0
LINE
  5
F10173
330
F10174
100
AcDbEntity
8
Geo
100
AcDbLine
10
-17.2238508239376
20
5.87446285699072
30
0.000000000000000
11
-17.1238508239376
21
5.77574800933029
31
0.000000000000000
  0
LINE
  5
F10175
330
F10176
100
AcDbEntity
8
Geo
100
AcDbLine
10
-17.1238508239376
20
5.77574800933029
30
0.000000000000000
11
-17.0238508239376
21
5.67724057475207
31
0.000000000000000
  0
LINE
  5
F10177
330
F10178
100
AcDbEntity
8
Geo
100
AcDbLine
10
-17.0238508239376
20
5.67724057475207
30
0.000000000000000
11
-16.9238508239376
21
5.57895594484228
31
0.000000000000000
  0
LINE
  5
F10179
330
F1017A
100
AcDbEntity
8
Geo
100
AcDbLine
10
-16.9238508239376
20
5.57895594484228
30
0.000000000000000
11
-16.8238508239376
21
5.48090947637439
31
0.000000000000000
  0
LINE
  5
F1017B
330
F1017C
100
AcDbEntity
8
Geo
100
AcDbLine
10
-16.8238508239376
20
5.48090947637439
30
0.000000000000000
11
-16.7238508239376
21
5.38311648890962
31
0.000000000000000
  0
LINE
  5
F1017D
330
F1017E
100
AcDbEntity
8
Geo
100
AcDbLine
10
-16.7238508239376
20
5.38311648890962
30
0.000000000000000
11
-16.6238508239376
21
5.28559226240331
31
0.000000000000000
  0
LINE
  5
F1017F
330
F10180
100
AcDbEntity
8
Geo
100
AcDbLine
10
-16.6238508239376
20
5.28559226240331
30
0.000000000000000
11
-16.5238508239376
21
5.18835203481743
31
0.000000000000000
  0
LINE
  5
F10181
330
F10182
100
AcDbEntity
8
Geo
100
AcDbLine
10
-16.5238508239376
20
5.18835203481743
30
0.000000000000000
11
-16.4238508239376
21
5.09141099973972
31
0.000000000000000
  0
LINE
  5
F10183
330
F10184
100
AcDbEntity
8
Geo
100
AcDbLine
10
-16.4238508239376
20
5.09141099973972
30
0.000000000000000
11
-16.3238508239376
21
4.99478430400967
31
0.000000000000000
  0
LINE
  5
F10185
330
F10186
100
AcDbEntity
8
Geo
100
AcDbLine
10
-16.3238508239376
20
4.99478430400967
30
0.000000000000000
11
-16.2238508239376
21
4.89848704535190
31
0.000000000000000
  0
LINE
  5
F10187
330
F10188
100
AcDbEntity
8
Geo
100
AcDbLine
10
-16.2238508239376
20
4.89848704535190
30
0.000000000000000
11
-16.1238508239376
21
4.80253427001717
31
0.000000000000000
  0
LINE
  5
F10189
330
F1018A
100
AcDbEntity
8
Geo
100
AcDbLine
10
-16.1238508239376
20
4.80253427001717
30
0.000000000000000
11
-16.0238508239376
21
4.70694097043141
31
0.000000000000000
  0
LINE
  5
F1018B
330
F1018C
100
AcDbEntity
8
Geo
100
AcDbLine
10
-31.0238508239376
20
7.05399748192839
30
0.000000000000000
11
-30.9238508239376
21
6.97119387554387
31
0.000000000000000
  0
LINE
  5
F1018D
330
F1018E
100
AcDbEntity
8
Geo
100
AcDbLine
10
-30.9238508239376
20
6.97119387554387
30
0.000000000000000
11
-30.8238508239376
21
6.88590165367979
31
0.000000000000000
  0
LINE
  5
F1018F
330
F10190
100
AcDbEntity
8
Geo
100
AcDbLine
10
-30.8238508239376
20
6.88590165367979
30
0.000000000000000
11
-30.7238508239376
21
6.79813146689102
31
0.000000000000000
  0
LINE
  5
F10191
330
F10192
100
AcDbEntity
8
Geo
100
AcDbLine
10
-30.7238508239376
20
6.79813146689102
30
0.000000000000000
11
-30.6238508239376
21
6.70337566578251
31
0.000000000000000
  0
LINE
  5
F10193
330
F10194
100
AcDbEntity
8
Geo
100
AcDbLine
10
-30.6238508239376
20
6.70337566578251
30
0.000000000000000
11
-30.5238508239376
21
6.60353447720890
31
0.000000000000000
  0
LINE
  5
F10195
330
F10196
100
AcDbEntity
8
Geo
100
AcDbLine
10
-30.5238508239376
20
6.60353447720890
30
0.000000000000000
11
-30.4238508239376
21
6.50377136176600
31
0.000000000000000
  0
LINE
  5
F10197
330
F10198
100
AcDbEntity
8
Geo
100
AcDbLine
10
-30.4238508239376
20
6.50377136176600
30
0.000000000000000
11
-30.3238508239376
21
6.40410190723764
31
0.000000000000000
  0
LINE
  5
F10199
330
F1019A
100
AcDbEntity
8
Geo
100
AcDbLine
10
-30.3238508239376
20
6.40410190723764
30
0.000000000000000
11
-30.2238508239376
21
6.30454168677332
31
0.000000000000000
  0
LINE
  5
F1019B
330
F1019C
100
AcDbEntity
8
Geo
100
AcDbLine
10
-30.2238508239376
20
6.30454168677332
30
0.000000000000000
11
-30.1238508239376
21
6.20510625645491
31
0.000000000000000
  0
LINE
  5
F1019D
330
F1019E
100
AcDbEntity
8
Geo
100
AcDbLine
10
-30.1238508239376
20
6.20510625645491
30
0.000000000000000
11
-30.0238508239376
21
6.10581115286612
31
0.000000000000000
  0
LINE
  5
F1019F
330
F101A0
100
AcDbEntity
8
Geo
100
AcDbLine
10
-30.0238508239376
20
6.10581115286612
30
0.000000000000000
11
-29.9238508239376
21
6.00667189066486
31
0.000000000000000
  0
LINE
  5
F101A1
330
F101A2
100
AcDbEntity
8
Geo
100
AcDbLine
10
-29.9238508239376
20
6.00667189066486
30
0.000000000000000
11
-29.8238508239376
21
5.90770396015915
31
0.000000000000000
  0
LINE
  5
F101A3
330
F101A4
100
AcDbEntity
8
Geo
100
AcDbLine
10
-29.8238508239376
20
5.90770396015915
30
0.000000000000000
11
-29.7238508239376
21
5.80892282488678
31
0.000000000000000
  0
LINE
  5
F101A5
330
F101A6
100
AcDbEntity
8
Geo
100
AcDbLine
10
-29.7238508239376
20
5.80892282488678
30
0.000000000000000
11
-29.6238508239376
21
5.71034391919917
31
0.000000000000000
  0
LINE
  5
F101A7
330
F101A8
100
AcDbEntity
8
Geo
100
AcDbLine
10
-29.6238508239376
20
5.71034391919917
30
0.000000000000000
11
-29.5238508239376
21
5.61198264584978
31
0.000000000000000
  0
LINE
  5
F101A9
330
F101AA
100
AcDbEntity
8
Geo
100
AcDbLine
10
-29.5238508239376
20
5.61198264584978
30
0.000000000000000
11
-29.4238508239376
21
5.51385437358745
31
0.000000000000000
  0
LINE
  5
F101AB
330
F101AC
100
AcDbEntity
8
Geo
100
AcDbLine
10
-29.4238508239376
20
5.51385437358745
30
0.000000000000000
11
-29.3238508239376
21
5.41597443475508
31
0.000000000000000
  0
LINE
  5
F101AD
330
F101AE
100
AcDbEntity
8
Geo
100
AcDbLine
10
-29.3238508239376
20
5.41597443475508
30
0.000000000000000
11
-29.2238508239376
21
5.31835812289398
31
0.000000000000000
  0
LINE
  5
F101AF
330
F101B0
100
AcDbEntity
8
Geo
100
AcDbLine
10
-29.2238508239376
20
5.31835812289398
30
0.000000000000000
11
-29.1238508239376
21
5.22102069035427
31
0.000000000000000
  0
LINE
  5
F101B1
330
F101B2
100
AcDbEntity
8
Geo
100
AcDbLine
10
-29.1238508239376
20
5.22102069035427
30
0.000000000000000
11
-29.0238508239376
21
5.12397734591176
31
0.000000000000000
  0
LINE
  5
F101B3
330
F101B4
100
AcDbEntity
8
Geo
100
AcDbLine
10
-29.0238508239376
20
5.12397734591176
30
0.000000000000000
11
-28.9238508239376
21
5.02724325239158
31
0.000000000000000
  0
LINE
  5
F101B5
330
F101B6
100
AcDbEntity
8
Geo
100
AcDbLine
10
-28.9238508239376
20
5.02724325239158
30
0.000000000000000
11
-28.8238508239376
21
4.93083352429904
31
0.000000000000000
  0
LINE
  5
F101B7
330
F101B8
100
AcDbEntity
8
Geo
100
AcDbLine
10
-28.8238508239376
20
4.93083352429904
30
0.000000000000000
11
-28.7238508239376
21
4.83476322545801
31
0.000000000000000
  0
LINE
  5
F101B9
330
F101BA
100
AcDbEntity
8
Geo
100
AcDbLine
10
-28.7238508239376
20
4.83476322545801
30
0.000000000000000
11
-28.6238508239376
21
4.73904736665722
31
0.000000000000000
  0
LINE
  5
F101BB
330
F101BC
100
AcDbEntity
8
Geo
100
AcDbLine
10
-28.6238508239376
20
4.73904736665722
30
0.000000000000000
11
-28.5238508239376
21
4.64370090330489
31
0.000000000000000
  0
LINE
  5
F101BD
330
F101BE
100
AcDbEntity
8
Geo
100
AcDbLine
10
-28.5238508239376
20
4.64370090330489
30
0.000000000000000
11
-28.4238508239376
21
4.54873873309193
31
0.000000000000000
  0
LINE
  5
F101BF
330
F101C0
100
AcDbEntity
8
Geo
100
AcDbLine
10
-28.4238508239376
20
4.54873873309193
30
0.000000000000000
11
-28.3238508239376
21
4.45417569366424
31
0.000000000000000
  0
LINE
  5
F101C1
330
F101C2
100
AcDbEntity
8
Geo
100
AcDbLine
10
-28.3238508239376
20
4.45417569366424
30
0.000000000000000
11
-28.2238508239376
21
4.36002656030433
31
0.000000000000000
  0
LINE
  5
F101C3
330
F101C4
100
AcDbEntity
8
Geo
100
AcDbLine
10
-28.2238508239376
20
4.36002656030433
30
0.000000000000000
11
-28.1238508239376
21
4.26630604362275
31
0.000000000000000
  0
LINE
  5
F101C5
330
F101C6
100
AcDbEntity
8
Geo
100
AcDbLine
10
-28.1238508239376
20
4.26630604362275
30
0.000000000000000
11
-28.0238508239376
21
4.17302878725956
31
0.000000000000000
  0
LINE
  5
F101C7
330
F101C8
100
AcDbEntity
8
Geo
100
AcDbLine
10
-28.0238508239376
20
4.17302878725956
30
0.000000000000000
11
-27.9238508239376
21
4.08020936559629
31
0.000000000000000
  0
LINE
  5
F101C9
330
F101CA
100
AcDbEntity
8
Geo
100
AcDbLine
10
-27.9238508239376
20
4.08020936559629
30
0.000000000000000
11
-27.8238508239376
21
3.98786228147874
31
0.000000000000000
  0
LINE
  5
F101CB
330
F101CC
100
AcDbEntity
8
Geo
100
AcDbLine
10
-27.8238508239376
20
3.98786228147874
30
0.000000000000000
11
-27.7238508239376
21
3.89600196395091
31
0.000000000000000
  0
LINE
  5
F101CD
330
F101CE
100
AcDbEntity
8
Geo
100
AcDbLine
10
-27.7238508239376
20
3.89600196395091
30
0.000000000000000
11
-27.6238508239376
21
3.80464276600054
31
0.000000000000000
  0
LINE
  5
F101CF
330
F101D0
100
AcDbEntity
8
Geo
100
AcDbLine
10
-27.6238508239376
20
3.80464276600054
30
0.000000000000000
11
-27.5238508239376
21
3.71379896231644
31
0.000000000000000
  0
LINE
  5
F101D1
330
F101D2
100
AcDbEntity
8
Geo
100
AcDbLine
10
-27.5238508239376
20
3.71379896231644
30
0.000000000000000
11
-27.4238508239376
21
3.62348474705810
31
0.000000000000000
  0
LINE
  5
F101D3
330
F101D4
100
AcDbEntity
8
Geo
100
AcDbLine
10
-27.4238508239376
20
3.62348474705810
30
0.000000000000000
11
-27.3238508239376
21
3.53371423163792
31
0.000000000000000
  0
LINE
  5
F101D5
330
F101D6
100
AcDbEntity
8
Geo
100
AcDbLine
10
-27.3238508239376
20
3.53371423163792
30
0.000000000000000
11
-27.2238508239376
21
3.44450144251630
31
0.000000000000000
  0
LINE
  5
F101D7
330
F101D8
100
AcDbEntity
8
Geo
100
AcDbLine
10
-27.2238508239376
20
3.44450144251630
30
0.000000000000000
11
-27.1238508239376
21
3.35586031901003
31
0.000000000000000
  0
LINE
  5
F101D9
330
F101DA
100
AcDbEntity
8
Geo
100
AcDbLine
10
-27.1238508239376
20
3.35586031901003
30
0.000000000000000
11
-27.0238508239376
21
3.26780471111432
31
0.000000000000000
  0
LINE
  5
F101DB
330
F101DC
100
AcDbEntity
8
Geo
100
AcDbLine
10
-27.0238508239376
20
3.26780471111432
30
0.000000000000000
11
-26.9238508239376
21
3.18034837733876
31
0.000000000000000
  0
LINE
  5
F101DD
330
F101DE
100
AcDbEntity
8
Geo
100
AcDbLine
10
-26.9238508239376
20
3.18034837733876
30
0.000000000000000
11
-26.8238508239376
21
3.09350498255756
31
0.000000000000000
  0
LINE
  5
F101DF
330
F101E0
100
AcDbEntity
8
Geo
100
AcDbLine
10
-26.8238508239376
20
3.09350498255756
30
0.000000000000000
11
-26.7238508239376
21
3.00728809587449
31
0.000000000000000
  0
LINE
  5
F101E1
330
F101E2
100
AcDbEntity
8
Geo
100
AcDbLine
10
-26.7238508239376
20
3.00728809587449
30
0.000000000000000
11
-26.6238508239376
21
2.92171118850267
31
0.000000000000000
  0
LINE
  5
F101E3
330
F101E4
100
AcDbEntity
8
Geo
100
AcDbLine
10
-26.6238508239376
20
2.92171118850267
30
0.000000000000000
11
-26.5238508239376
21
2.83678763165978
31
0.000000000000000
  0
LINE
  5
F101E5
330
F101E6
100
AcDbEntity
8
Geo
100
AcDbLine
10
-26.5238508239376
20
2.83678763165978
30
0.000000000000000
11
-26.4238508239376
21
2.75253069447881
31
0.000000000000000
  0
LINE
  5
F101E7
330
F101E8
100
AcDbEntity
8
Geo
100
AcDbLine
10
-26.4238508239376
20
2.75253069447881
30
0.000000000000000
11
-26.3238508239376
21
2.66895354193475
31
0.000000000000000
  0
LINE
  5
F101E9
330
F101EA
100
AcDbEntity
8
Geo
100
AcDbLine
10
-26.3238508239376
20
2.66895354193475
30
0.000000000000000
11
-26.2238508239376
21
2.58606923278766
31
0.000000000000000
  0
LINE
  5
F101EB
330
F101EC
100
AcDbEntity
8
Geo
100
AcDbLine
10
-26.2238508239376
20
2.58606923278766
30
0.000000000000000
11
-26.1238508239376
21
2.50389071754223
31
0.000000000000000
  0
LINE
  5
F101ED
330
F101EE
100
AcDbEntity
8
Geo
100
AcDbLine
10
-26.1238508239376
20
2.50389071754223
30
0.000000000000000
11
-26.0238508239376
21
2.42243083642425
31
0.000000000000000
  0
LINE
  5
F101EF
330
F101F0
100
AcDbEntity
8
Geo
100
AcDbLine
10
-26.0238508239376
20
2.42243083642425
30
0.000000000000000
11
-25.9238508239376
21
2.34170231737443
31
0.000000000000000
  0
LINE
  5
F101F1
330
F101F2
100
AcDbEntity
8
Geo
100
AcDbLine
10
-25.9238508239376
20
2.34170231737443
30
0.000000000000000
11
-25.8238508239376
21
2.26171777405963
31
0.000000000000000
  0
LINE
  5
F101F3
330
F101F4
100
AcDbEntity
8
Geo
100
AcDbLine
10
-25.8238508239376
20
2.26171777405963
30
0.000000000000000
11
-25.7238508239376
21
2.18248970390201
31
0.000000000000000
  0
LINE
  5
F101F5
330
F101F6
100
AcDbEntity
8
Geo
100
AcDbLine
10
-25.7238508239376
20
2.18248970390201
30
0.000000000000000
11
-25.6238508239376
21
2.10403048612635
31
0.000000000000000
  0
LINE
  5
F101F7
330
F101F8
100
AcDbEntity
8
Geo
100
AcDbLine
10
-25.6238508239376
20
2.10403048612635
30
0.000000000000000
11
-25.5238508239376
21
2.02635237982580
31
0.000000000000000
  0
LINE
  5
F101F9
330
F101FA
100
AcDbEntity
8
Geo
100
AcDbLine
10
-25.5238508239376
20
2.02635237982580
30
0.000000000000000
11
-25.4238508239376
21
1.94946752204642
31
0.000000000000000
  0
LINE
  5
F101FB
330
F101FC
100
AcDbEntity
8
Geo
100
AcDbLine
10
-25.4238508239376
20
1.94946752204642
30
0.000000000000000
11
-25.3238508239376
21
1.87338792589084
31
0.000000000000000
  0
LINE
  5
F101FD
330
F101FE
100
AcDbEntity
8
Geo
100
AcDbLine
10
-25.3238508239376
20
1.87338792589084
30
0.000000000000000
11
-25.2238508239376
21
1.79812547864115
31
0.000000000000000
  0
LINE
  5
F101FF
330
F10200
100
AcDbEntity
8
Geo
100
AcDbLine
10
-25.2238508239376
20
1.79812547864115
30
0.000000000000000
11
-25.1238508239376
21
1.72369193990164
31
0.000000000000000
  0
LINE
  5
F10201
330
F10202
100
AcDbEntity
8
Geo
100
AcDbLine
10
-25.1238508239376
20
1.72369193990164
30
0.000000000000000
11
-25.0238508239376
21
1.65009893976128
31
0.000000000000000
  0
LINE
  5
F10203
330
F10204
100
AcDbEntity
8
Geo
100
AcDbLine
10
-25.0238508239376
20
1.65009893976128
30
0.000000000000000
11
-24.9238508239376
21
1.57735797697663
31
0.000000000000000
  0
LINE
  5
F10205
330
F10206
100
AcDbEntity
8
Geo
100
AcDbLine
10
-24.9238508239376
20
1.57735797697663
30
0.000000000000000
11
-24.8238508239376
21
1.50548041717513
31
0.000000000000000
  0
LINE
  5
F10207
330
F10208
100
AcDbEntity
8
Geo
100
AcDbLine
10
-24.8238508239376
20
1.50548041717513
30
0.000000000000000
11
-24.7238508239376
21
1.43447749107926
31
0.000000000000000
  0
LINE
  5
F10209
330
F1020A
100
AcDbEntity
8
Geo
100
AcDbLine
10
-24.7238508239376
20
1.43447749107926
30
0.000000000000000
11
-24.6238508239376
21
1.36436029275177
31
0.000000000000000
  0
LINE
  5
F1020B
330
F1020C
100
AcDbEntity
8
Geo
100
AcDbLine
10
-24.6238508239376
20
1.36436029275177
30
0.000000000000000
11
-24.5238508239376
21
1.29513977786225
31
0.000000000000000
  0
LINE
  5
F1020D
330
F1020E
100
AcDbEntity
8
Geo
100
AcDbLine
10
-24.5238508239376
20
1.29513977786225
30
0.000000000000000
11
-24.4238508239376
21
1.22682676197533
31
0.000000000000000
  0
LINE
  5
F1020F
330
F10210
100
AcDbEntity
8
Geo
100
AcDbLine
10
-24.4238508239376
20
1.22682676197533
30
0.000000000000000
11
-24.3238508239376
21
1.15943191886074
31
0.000000000000000
  0
LINE
  5
F10211
330
F10212
100
AcDbEntity
8
Geo
100
AcDbLine
10
-24.3238508239376
20
1.15943191886074
30
0.000000000000000
11
-24.2238508239376
21
1.09296577882561
31
0.000000000000000
  0
LINE
  5
F10213
330
F10214
100
AcDbEntity
8
Geo
100
AcDbLine
10
-24.2238508239376
20
1.09296577882561
30
0.000000000000000
11
-24.1238508239376
21
1.02743872706911
31
0.000000000000000
  0
LINE
  5
F10215
330
F10216
100
AcDbEntity
8
Geo
100
AcDbLine
10
-24.1238508239376
20
1.02743872706911
30
0.000000000000000
11
-24.0238508239376
21
0.962861002059740
31
0.000000000000000
  0
LINE
  5
F10217
330
F10218
100
AcDbEntity
8
Geo
100
AcDbLine
10
-24.0238508239376
20
0.962861002059740
30
0.000000000000000
11
-23.9238508239376
21
0.899242693935664
31
0.000000000000000
  0
LINE
  5
F10219
330
F1021A
100
AcDbEntity
8
Geo
100
AcDbLine
10
-23.9238508239376
20
0.899242693935664
30
0.000000000000000
11
-23.8238508239376
21
0.836593742928090
31
0.000000000000000
  0
LINE
  5
F1021B
330
F1021C
100
AcDbEntity
8
Geo
100
AcDbLine
10
-23.8238508239376
20
0.836593742928090
30
0.000000000000000
11
-23.7238508239376
21
0.774923937808157
31
0.000000000000000
  0
LINE
  5
F1021D
330
F1021E
100
AcDbEntity
8
Geo
100
AcDbLine
10
-23.7238508239376
20
0.774923937808157
30
0.000000000000000
11
-23.6238508239376
21
0.714242914357444
31
0.000000000000000
  0
LINE
  5
F1021F
330
F10220
100
AcDbEntity
8
Geo
100
AcDbLine
10
-23.6238508239376
20
0.714242914357444
30
0.000000000000000
11
-23.5238508239376
21
0.654560153862414
31
0.000000000000000
  0
LINE
  5
F10221
330
F10222
100
AcDbEntity
8
Geo
100
AcDbLine
10
-23.5238508239376
20
0.654560153862414
30
0.000000000000000
11
-23.4238508239376
21
0.595884981632969
31
0.000000000000000
  0
LINE
  5
F10223
330
F10224
100
AcDbEntity
8
Geo
100
AcDbLine
10
-23.4238508239376
20
0.595884981632969
30
0.000000000000000
11
-23.3238508239376
21
0.538226565545394
31
0.000000000000000
  0
LINE
  5
F10225
330
F10226
100
AcDbEntity
8
Geo
100
AcDbLine
10
-23.3238508239376
20
0.538226565545394
30
0.000000000000000
11
-23.2238508239376
21
0.481593914609898
31
0.000000000000000
  0
LINE
  5
F10227
330
F10228
100
AcDbEntity
8
Geo
100
AcDbLine
10
-23.2238508239376
20
0.481593914609898
30
0.000000000000000
11
-23.1238508239376
21
0.425995877562972
31
0.000000000000000
  0
LINE
  5
F10229
330
F1022A
100
AcDbEntity
8
Geo
100
AcDbLine
10
-23.1238508239376
20
0.425995877562972
30
0.000000000000000
11
-23.0238508239376
21
0.371441141484788
31
0.000000000000000
  0
LINE
  5
F1022B
330
F1022C
100
AcDbEntity
8
Geo
100
AcDbLine
10
-23.0238508239376
20
0.371441141484788
30
0.000000000000000
11
-22.9238508239376
21
0.317938230441869
31
0.000000000000000
  0
LINE
  5
F1022D
330
F1022E
100
AcDbEntity
8
Geo
100
AcDbLine
10
-22.9238508239376
20
0.317938230441869
30
0.000000000000000
11
-22.8238508239376
21
0.265495504155215
31
0.000000000000000
  0
LINE
  5
F1022F
330
F10230
100
AcDbEntity
8
Geo
100
AcDbLine
10
-22.8238508239376
20
0.265495504155215
30
0.000000000000000
11
-22.7238508239376
21
0.214121156694110
31
0.000000000000000
  0
LINE
  5
F10231
330
F10232
100
AcDbEntity
8
Geo
100
AcDbLine
10
-22.7238508239376
20
0.214121156694110
30
0.000000000000000
11
-22.6238508239376
21
0.163823215195826
31
0.000000000000000
  0
LINE
  5
F10233
330
F10234
100
AcDbEntity
8
Geo
100
AcDbLine
10
-22.6238508239376
20
0.163823215195826
30
0.000000000000000
11
-22.5238508239376
21
0.114609538611393
31
0.000000000000000
  0
LINE
  5
F10235
330
F10236
100
AcDbEntity
8
Geo
100
AcDbLine
10
-22.5238508239376
20
0.114609538611393
30
0.000000000000000
11
-22.4238508239376
21
0.0664878164776512
31
0.000000000000000
  0
LINE
  5
F10237
330
F10238
100
AcDbEntity
8
Geo
100
AcDbLine
10
-22.4238508239376
20
0.0664878164776512
30
0.000000000000000
11
-22.3238508239376
21
0.0194655677157787
31
0.000000000000000
  0
LINE
  5
F10239
330
F1023A
100
AcDbEntity
8
Geo
100
AcDbLine
10
-22.3238508239376
20
0.0194655677157787
30
0.000000000000000
11
-22.2238508239376
21
-0.0264498605435195
31
0.000000000000000
  0
LINE
  5
F1023B
330
F1023C
100
AcDbEntity
8
Geo
100
AcDbLine
10
-22.2238508239376
20
-0.0264498605435195
30
0.000000000000000
11
-22.1238508239376
21
-0.0712512941079932
31
0.000000000000000
  0
LINE
  5
F1023D
330
F1023E
100
AcDbEntity
8
Geo
100
AcDbLine
10
-22.1238508239376
20
-0.0712512941079932
30
0.000000000000000
11
-22.0238508239376
21
-0.114931732844798
31
0.000000000000000
  0
LINE
  5
F1023F
330
F10240
100
AcDbEntity
8
Geo
100
AcDbLine
10
-22.0238508239376
20
-0.114931732844798
30
0.000000000000000
11
-21.9238508239376
21
-0.157484351774245
31
0.000000000000000
  0
LINE
  5
F10241
330
F10242
100
AcDbEntity
8
Geo
100
AcDbLine
10
-21.9238508239376
20
-0.157484351774245
30
0.000000000000000
11
-21.8238508239376
21
-0.198902502136204
31
0.000000000000000
  0
LINE
  5
F10243
330
F10244
100
AcDbEntity
8
Geo
100
AcDbLine
10
-21.8238508239376
20
-0.198902502136204
30
0.000000000000000
11
-21.7238508239376
21
-0.239179712428943
31
0.000000000000000
  0
LINE
  5
F10245
330
F10246
100
AcDbEntity
8
Geo
100
AcDbLine
10
-21.7238508239376
20
-0.239179712428943
30
0.000000000000000
11
-21.6238508239376
21
-0.278309689420299
31
0.000000000000000
  0
LINE
  5
F10247
330
F10248
100
AcDbEntity
8
Geo
100
AcDbLine
10
-21.6238508239376
20
-0.278309689420299
30
0.000000000000000
11
-21.5238508239376
21
-0.316286319130977
31
0.000000000000000
  0
LINE
  5
F10249
330
F1024A
100
AcDbEntity
8
Geo
100
AcDbLine
10
-21.5238508239376
20
-0.316286319130977
30
0.000000000000000
11
-21.4238508239376
21
-0.353103667789845
31
0.000000000000000
  0
LINE
  5
F1024B
330
F1024C
100
AcDbEntity
8
Geo
100
AcDbLine
10
-21.4238508239376
20
-0.353103667789845
30
0.000000000000000
11
-21.3238508239376
21
-0.388755982761084
31
0.000000000000000
  0
LINE
  5
F1024D
330
F1024E
100
AcDbEntity
8
Geo
100
AcDbLine
10
-21.3238508239376
20
-0.388755982761084
30
0.000000000000000
11
-21.2238508239376
21
-0.423237693443011
31
0.000000000000000
  0
LINE
  5
F1024F
330
F10250
100
AcDbEntity
8
Geo
100
AcDbLine
10
-21.2238508239376
20
-0.423237693443011
30
0.000000000000000
11
-21.1238508239376
21
-0.456543412138486
31
0.000000000000000
  0
LINE
  5
F10251
330
F10252
100
AcDbEntity
8
Geo
100
AcDbLine
10
-21.1238508239376
20
-0.456543412138486
30
0.000000000000000
11
-21.0238508239376
21
-0.488667934896724
31
0.000000000000000
  0
LINE
  5
F10253
330
F10254
100
AcDbEntity
8
Geo
100
AcDbLine
10
-21.0238508239376
20
-0.488667934896724
30
0.000000000000000
11
-20.9238508239376
21
-0.519606242326399
31
0.000000000000000
  0
LINE
  5
F10255
330
F10256
100
AcDbEntity
8
Geo
100
AcDbLine
10
-20.9238508239376
20
-0.519606242326399
30
0.000000000000000
11
-20.8238508239376
21
-0.549353500379921
31
0.000000000000000
  0
LINE
  5
F10257
330
F10258
100
AcDbEntity
8
Geo
100
AcDbLine
10
-20.8238508239376
20
-0.549353500379921
30
0.000000000000000
11
-20.7238508239376
21
-0.577905061108739
31
0.000000000000000
  0
LINE
  5
F10259
330
F1025A
100
AcDbEntity
8
Geo
100
AcDbLine
10
-20.7238508239376
20
-0.577905061108739
30
0.000000000000000
11
-20.6238508239376
21
-0.605256463389576
31
0.000000000000000
  0
LINE
  5
F1025B
330
F1025C
100
AcDbEntity
8
Geo
100
AcDbLine
10
-20.6238508239376
20
-0.605256463389576
30
0.000000000000000
11
-20.5238508239376
21
-0.631403433621474
31
0.000000000000000
  0
LINE
  5
F1025D
330
F1025E
100
AcDbEntity
8
Geo
100
AcDbLine
10
-20.5238508239376
20
-0.631403433621474
30
0.000000000000000
11
-20.4238508239376
21
-0.656341886393530
31
0.000000000000000
  0
LINE
  5
F1025F
330
F10260
100
AcDbEntity
8
Geo
100
AcDbLine
10
-20.4238508239376
20
-0.656341886393530
30
0.000000000000000
11
-20.3238508239376
21
-0.680067925123233
31
0.000000000000000
  0
LINE
  5
F10261
330
F10262
100
AcDbEntity
8
Geo
100
AcDbLine
10
-20.3238508239376
20
-0.680067925123233
30
0.000000000000000
11
-20.2238508239376
21
-0.702577842665305
31
0.000000000000000
  0
LINE
  5
F10263
330
F10264
100
AcDbEntity
8
Geo
100
AcDbLine
10
-20.2238508239376
20
-0.702577842665305
30
0.000000000000000
11
-20.1238508239376
21
-0.723868121890925
31
0.000000000000000
  0
LINE
  5
F10265
330
F10266
100
AcDbEntity
8
Geo
100
AcDbLine
10
-20.1238508239376
20
-0.723868121890925
30
0.000000000000000
11
-20.0238508239376
21
-0.743935436237278
31
0.000000000000000
  0
LINE
  5
F10267
330
F10268
100
AcDbEntity
8
Geo
100
AcDbLine
10
-20.0238508239376
20
-0.743935436237278
30
0.000000000000000
11
-19.9238508239376
21
-0.762776650227326
31
0.000000000000000
  0
LINE
  5
F10269
330
F1026A
100
AcDbEntity
8
Geo
100
AcDbLine
10
-19.9238508239376
20
-0.762776650227326
30
0.000000000000000
11
-19.8238508239376
21
-0.780388819959713
31
0.000000000000000
  0
LINE
  5
F1026B
330
F1026C
100
AcDbEntity
8
Geo
100
AcDbLine
10
-19.8238508239376
20
-0.780388819959713
30
0.000000000000000
11
-19.7238508239376
21
-0.796769193568753
31
0.000000000000000
  0
LINE
  5
F1026D
330
F1026E
100
AcDbEntity
8
Geo
100
AcDbLine
10
-19.7238508239376
20
-0.796769193568753
30
0.000000000000000
11
-19.6238508239376
21
-0.811915211654395
31
0.000000000000000
  0
LINE
  5
F1026F
330
F10270
100
AcDbEntity
8
Geo
100
AcDbLine
10
-19.6238508239376
20
-0.811915211654395
30
0.000000000000000
11
-19.5238508239376
21
-0.825824507682125
31
0.000000000000000
  0
LINE
  5
F10271
330
F10272
100
AcDbEntity
8
Geo
100
AcDbLine
10
-19.5238508239376
20
-0.825824507682125
30
0.000000000000000
11
-19.4238508239376
21
-0.838494908352740
31
0.000000000000000
  0
LINE
  5
F10273
330
F10274
100
AcDbEntity
8
Geo
100
AcDbLine
10
-19.4238508239376
20
-0.838494908352740
30
0.000000000000000
11
-19.3238508239376
21
-0.849924433941911
31
0.000000000000000
  0
LINE
  5
F10275
330
F10276
100
AcDbEntity
8
Geo
100
AcDbLine
10
-19.3238508239376
20
-0.849924433941911
30
0.000000000000000
11
-19.2238508239376
21
-0.860111298609519
31
0.000000000000000
  0
LINE
  5
F10277
330
F10278
100
AcDbEntity
8
Geo
100
AcDbLine
10
-19.2238508239376
20
-0.860111298609519
30
0.000000000000000
11
-19.1238508239376
21
-0.869053910678686
31
0.000000000000000
  0
LINE
  5
F10279
330
F1027A
100
AcDbEntity
8
Geo
100
AcDbLine
10
-19.1238508239376
20
-0.869053910678686
30
0.000000000000000
11
-19.0238508239376
21
-0.876750872884467
31
0.000000000000000
  0
LINE
  5
F1027B
330
F1027C
100
AcDbEntity
8
Geo
100
AcDbLine
10
-19.0238508239376
20
-0.876750872884467
30
0.000000000000000
11
-18.9238508239376
21
-0.883200982592180
31
0.000000000000000
  0
LINE
  5
F1027D
330
F1027E
100
AcDbEntity
8
Geo
100
AcDbLine
10
-18.9238508239376
20
-0.883200982592180
30
0.000000000000000
11
-18.8238508239376
21
-0.888403231985301
31
0.000000000000000
  0
LINE
  5
F1027F
330
F10280
100
AcDbEntity
8
Geo
100
AcDbLine
10
-18.8238508239376
20
-0.888403231985301
30
0.000000000000000
11
-18.7238508239376
21
-0.892356808222953
31
0.000000000000000
  0
LINE
  5
F10281
330
F10282
100
AcDbEntity
8
Geo
100
AcDbLine
10
-18.7238508239376
20
-0.892356808222953
30
0.000000000000000
11
-18.6238508239376
21
-0.895061093566888
31
0.000000000000000
  0
LINE
  5
F10283
330
F10284
100
AcDbEntity
8
Geo
100
AcDbLine
10
-18.6238508239376
20
-0.895061093566888
30
0.000000000000000
11
-18.5238508239376
21
-0.896515665478023
31
0.000000000000000
  0
LINE
  5
F10285
330
F10286
100
AcDbEntity
8
Geo
100
AcDbLine
10
-18.5238508239376
20
-0.896515665478023
30
0.000000000000000
11
-18.4574803998879
21
-0.896790980052032
31
0.000000000000000
  0
LINE
  5
F10287
330
F10288
100
AcDbEntity
8
Geo
100
AcDbLine
10
-18.4574803998879
20
15.1032090199480
30
0.000000000000000
11
-18.4238508239376
21
15.1031383365784
31
0.000000000000000
  0
LINE
  5
F10289
330
F1028A
100
AcDbEntity
8
Geo
100
AcDbLine
10
-18.4238508239376
20
15.1031383365784
30
0.000000000000000
11
-18.3238508239376
21
15.1020929951029
31
0.000000000000000
  0
LINE
  5
F1028B
330
F1028C
100
AcDbEntity
8
Geo
100
AcDbLine
10
-18.3238508239376
20
15.1020929951029
30
0.000000000000000
11
-18.2238508239376
21
15.0997978442800
31
0.000000000000000
  0
LINE
  5
F1028D
330
F1028E
100
AcDbEntity
8
Geo
100
AcDbLine
10
-18.2238508239376
20
15.0997978442800
30
0.000000000000000
11
-18.1238508239376
21
15.0962532427223
31
0.000000000000000
  0
LINE
  5
F1028F
330
F10290
100
AcDbEntity
8
Geo
100
AcDbLine
10
-18.1238508239376
20
15.0962532427223
30
0.000000000000000
11
-18.0238508239376
21
15.0914597442666
31
0.000000000000000
  0
LINE
  5
F10291
330
F10292
100
AcDbEntity
8
Geo
100
AcDbLine
10
-18.0238508239376
20
15.0914597442666
30
0.000000000000000
11
-17.9238508239376
21
15.0854180978873
31
0.000000000000000
  0
LINE
  5
F10293
330
F10294
100
AcDbEntity
8
Geo
100
AcDbLine
10
-17.9238508239376
20
15.0854180978873
30
0.000000000000000
11
-17.8238508239376
21
15.0781292475793
31
0.000000000000000
  0
LINE
  5
F10295
330
F10296
100
AcDbEntity
8
Geo
100
AcDbLine
10
-17.8238508239376
20
15.0781292475793
30
0.000000000000000
11
-17.7238508239376
21
15.0695943322107
31
0.000000000000000
  0
LINE
  5
F10297
330
F10298
100
AcDbEntity
8
Geo
100
AcDbLine
10
-17.7238508239376
20
15.0695943322107
30
0.000000000000000
11
-17.6238508239376
21
15.0598146853446
31
0.000000000000000
  0
LINE
  5
F10299
330
F1029A
100
AcDbEntity
8
Geo
100
AcDbLine
10
-17.6238508239376
20
15.0598146853446
30
0.000000000000000
11
-17.5238508239376
21
15.0487918350310
31
0.000000000000000
  0
LINE
  5
F1029B
330
F1029C
100
AcDbEntity
8
Geo
100
AcDbLine
10
-17.5238508239376
20
15.0487918350310
30
0.000000000000000
11
-17.4238508239376
21
15.0365275035677
31
0.000000000000000
  0
LINE
  5
F1029D
330
F1029E
100
AcDbEntity
8
Geo
100
AcDbLine
10
-17.4238508239376
20
15.0365275035677
30
0.000000000000000
11
-17.3238508239376
21
15.0230236072317
31
0.000000000000000
  0
LINE
  5
F1029F
330
F102A0
100
AcDbEntity
8
Geo
100
AcDbLine
10
-17.3238508239376
20
15.0230236072317
30
0.000000000000000
11
-17.2238508239376
21
15.0082822559792
31
0.000000000000000
  0
LINE
  5
F102A1
330
F102A2
100
AcDbEntity
8
Geo
100
AcDbLine
10
-17.2238508239376
20
15.0082822559792
30
0.000000000000000
11
-17.1238508239376
21
14.9923057531165
31
0.000000000000000
  0
LINE
  5
F102A3
330
F102A4
100
AcDbEntity
8
Geo
100
AcDbLine
10
-17.1238508239376
20
14.9923057531165
30
0.000000000000000
11
-17.0238508239376
21
14.9750965949395
31
0.000000000000000
  0
LINE
  5
F102A5
330
F102A6
100
AcDbEntity
8
Geo
100
AcDbLine
10
-17.0238508239376
20
14.9750965949395
30
0.000000000000000
11
-16.9238508239376
21
14.9566574703442
31
0.000000000000000
  0
LINE
  5
F102A7
330
F102A8
100
AcDbEntity
8
Geo
100
AcDbLine
10
-16.9238508239376
20
14.9566574703442
30
0.000000000000000
11
-16.8238508239376
21
14.9369912604063
31
0.000000000000000
  0
LINE
  5
F102A9
330
F102AA
100
AcDbEntity
8
Geo
100
AcDbLine
10
-16.8238508239376
20
14.9369912604063
30
0.000000000000000
11
-16.7238508239376
21
14.9161010379312
31
0.000000000000000
  0
LINE
  5
F102AB
330
F102AC
100
AcDbEntity
8
Geo
100
AcDbLine
10
-16.7238508239376
20
14.9161010379312
30
0.000000000000000
11
-16.6238508239376
21
14.8939900669735
31
0.000000000000000
  0
LINE
  5
F102AD
330
F102AE
100
AcDbEntity
8
Geo
100
AcDbLine
10
-16.6238508239376
20
14.8939900669735
30
0.000000000000000
11
-16.5238508239376
21
14.8706618023276
31
0.000000000000000
  0
LINE
  5
F102AF
330
F102B0
100
AcDbEntity
8
Geo
100
AcDbLine
10
-16.5238508239376
20
14.8706618023276
30
0.000000000000000
11
-16.4238508239376
21
14.8461198889872
31
0.000000000000000
  0
LINE
  5
F102B1
330
F102B2
100
AcDbEntity
8
Geo
100
AcDbLine
10
-16.4238508239376
20
14.8461198889872
30
0.000000000000000
11
-16.3238508239376
21
14.8203681615765
31
0.000000000000000
  0
LINE
  5
F102B3
330
F102B4
100
AcDbEntity
8
Geo
100
AcDbLine
10
-16.3238508239376
20
14.8203681615765
30
0.000000000000000
11
-16.2238508239376
21
14.7934106437504
31
0.000000000000000
  0
LINE
  5
F102B5
330
F102B6
100
AcDbEntity
8
Geo
100
AcDbLine
10
-16.2238508239376
20
14.7934106437504
30
0.000000000000000
11
-16.1238508239376
21
14.7652515475662
31
0.000000000000000
  0
LINE
  5
F102B7
330
F102B8
100
AcDbEntity
8
Geo
100
AcDbLine
10
-16.1238508239376
20
14.7652515475662
30
0.000000000000000
11
-16.0238508239376
21
14.7358952728255
31
0.000000000000000
  0
LINE
  5
F102B9
330
F102BA
100
AcDbEntity
8
Geo
100
AcDbLine
10
-20.9707543726146
20
15.1032090199480
30
0.000000000000000
11
-20.9238508239376
21
15.1030715241474
31
0.000000000000000
  0
LINE
  5
F102BB
330
F102BC
100
AcDbEntity
8
Geo
100
AcDbLine
10
-20.9238508239376
20
15.1030715241474
30
0.000000000000000
11
-20.8238508239376
21
15.1018602677974
31
0.000000000000000
  0
LINE
  5
F102BD
330
F102BE
100
AcDbEntity
8
Geo
100
AcDbLine
10
-20.8238508239376
20
15.1018602677974
30
0.000000000000000
11
-20.7238508239376
21
15.0993992384632
31
0.000000000000000
  0
LINE
  5
F102BF
330
F102C0
100
AcDbEntity
8
Geo
100
AcDbLine
10
-20.7238508239376
20
15.0993992384632
30
0.000000000000000
11
-20.6238508239376
21
15.0956888206755
31
0.000000000000000
  0
LINE
  5
F102C1
330
F102C2
100
AcDbEntity
8
Geo
100
AcDbLine
10
-20.6238508239376
20
15.0956888206755
30
0.000000000000000
11
-20.5238508239376
21
15.0907295941796
31
0.000000000000000
  0
LINE
  5
F102C3
330
F102C4
100
AcDbEntity
8
Geo
100
AcDbLine
10
-20.5238508239376
20
15.0907295941796
30
0.000000000000000
11
-20.4238508239376
21
15.0845223338446
31
0.000000000000000
  0
LINE
  5
F102C5
330
F102C6
100
AcDbEntity
8
Geo
100
AcDbLine
10
-20.4238508239376
20
15.0845223338446
30
0.000000000000000
11
-20.3238508239376
21
15.0770680095422
31
0.000000000000000
  0
LINE
  5
F102C7
330
F102C8
100
AcDbEntity
8
Geo
100
AcDbLine
10
-20.3238508239376
20
15.0770680095422
30
0.000000000000000
11
-20.2238508239376
21
15.0683677859955
31
0.000000000000000
  0
LINE
  5
F102C9
330
F102CA
100
AcDbEntity
8
Geo
100
AcDbLine
10
-20.2238508239376
20
15.0683677859955
30
0.000000000000000
11
-20.1238508239376
21
15.0584230225966
31
0.000000000000000
  0
LINE
  5
F102CB
330
F102CC
100
AcDbEntity
8
Geo
100
AcDbLine
10
-20.1238508239376
20
15.0584230225966
30
0.000000000000000
11
-20.0238508239376
21
15.0472352731947
31
0.000000000000000
  0
LINE
  5
F102CD
330
F102CE
100
AcDbEntity
8
Geo
100
AcDbLine
10
-20.0238508239376
20
15.0472352731947
30
0.000000000000000
11
-19.9238508239376
21
15.0348062858527
31
0.000000000000000
  0
LINE
  5
F102CF
330
F102D0
100
AcDbEntity
8
Geo
100
AcDbLine
10
-19.9238508239376
20
15.0348062858527
30
0.000000000000000
11
-19.8238508239376
21
15.0211380025748
31
0.000000000000000
  0
LINE
  5
F102D1
330
F102D2
100
AcDbEntity
8
Geo
100
AcDbLine
10
-19.8238508239376
20
15.0211380025748
30
0.000000000000000
11
-19.7238508239376
21
15.0062325590023
31
0.000000000000000
  0
LINE
  5
F102D3
330
F102D4
100
AcDbEntity
8
Geo
100
AcDbLine
10
-19.7238508239376
20
15.0062325590023
30
0.000000000000000
11
-19.6238508239376
21
14.9900922840805
31
0.000000000000000
  0
LINE
  5
F102D5
330
F102D6
100
AcDbEntity
8
Geo
100
AcDbLine
10
-19.6238508239376
20
14.9900922840805
30
0.000000000000000
11
-19.5238508239376
21
14.9727196996945
31
0.000000000000000
  0
LINE
  5
F102D7
330
F102D8
100
AcDbEntity
8
Geo
100
AcDbLine
10
-19.5238508239376
20
14.9727196996945
30
0.000000000000000
11
-19.4238508239376
21
14.9541175202753
31
0.000000000000000
  0
LINE
  5
F102D9
330
F102DA
100
AcDbEntity
8
Geo
100
AcDbLine
10
-19.4238508239376
20
14.9541175202753
30
0.000000000000000
11
-19.3238508239376
21
14.9342886523755
31
0.000000000000000
  0
LINE
  5
F102DB
330
F102DC
100
AcDbEntity
8
Geo
100
AcDbLine
10
-19.3238508239376
20
14.9342886523755
30
0.000000000000000
11
-19.2238508239376
21
14.9132361942154
31
0.000000000000000
  0
LINE
  5
F102DD
330
F102DE
100
AcDbEntity
8
Geo
100
AcDbLine
10
-19.2238508239376
20
14.9132361942154
30
0.000000000000000
11
-19.1238508239376
21
14.8909634351988
31
0.000000000000000
  0
LINE
  5
F102DF
330
F102E0
100
AcDbEntity
8
Geo
100
AcDbLine
10
-19.1238508239376
20
14.8909634351988
30
0.000000000000000
11
-19.0238508239376
21
14.8674738553990
31
0.000000000000000
  0
LINE
  5
F102E1
330
F102E2
100
AcDbEntity
8
Geo
100
AcDbLine
10
-19.0238508239376
20
14.8674738553990
30
0.000000000000000
11
-18.9238508239376
21
14.8427711250150
31
0.000000000000000
  0
LINE
  5
F102E3
330
F102E4
100
AcDbEntity
8
Geo
100
AcDbLine
10
-18.9238508239376
20
14.8427711250150
30
0.000000000000000
11
-18.8238508239376
21
14.8168591037982
31
0.000000000000000
  0
LINE
  5
F102E5
330
F102E6
100
AcDbEntity
8
Geo
100
AcDbLine
10
-18.8238508239376
20
14.8168591037982
30
0.000000000000000
11
-18.7238508239376
21
14.7897418404491
31
0.000000000000000
  0
LINE
  5
F102E7
330
F102E8
100
AcDbEntity
8
Geo
100
AcDbLine
10
-18.7238508239376
20
14.7897418404491
30
0.000000000000000
11
-18.6238508239376
21
14.7614235719851
31
0.000000000000000
  0
LINE
  5
F102E9
330
F102EA
100
AcDbEntity
8
Geo
100
AcDbLine
10
-18.6238508239376
20
14.7614235719851
30
0.000000000000000
11
-18.5238508239376
21
14.7319087230779
31
0.000000000000000
  0
LINE
  5
F102EB
330
F102EC
100
AcDbEntity
8
Geo
100
AcDbLine
10
-18.5238508239376
20
14.7319087230779
30
0.000000000000000
11
-18.4238508239376
21
14.7012019053626
31
0.000000000000000
  0
LINE
  5
F102ED
330
F102EE
100
AcDbEntity
8
Geo
100
AcDbLine
10
-18.4238508239376
20
14.7012019053626
30
0.000000000000000
11
-18.3238508239376
21
14.6693079167171
31
0.000000000000000
  0
LINE
  5
F102EF
330
F102F0
100
AcDbEntity
8
Geo
100
AcDbLine
10
-18.3238508239376
20
14.6693079167171
30
0.000000000000000
11
-18.2238508239376
21
14.6362317405121
31
0.000000000000000
  0
LINE
  5
F102F1
330
F102F2
100
AcDbEntity
8
Geo
100
AcDbLine
10
-18.2238508239376
20
14.6362317405121
30
0.000000000000000
11
-18.1238508239376
21
14.6019785448330
31
0.000000000000000
  0
LINE
  5
F102F3
330
F102F4
100
AcDbEntity
8
Geo
100
AcDbLine
10
-18.1238508239376
20
14.6019785448330
30
0.000000000000000
11
-18.0238508239376
21
14.5665536816718
31
0.000000000000000
  0
LINE
  5
F102F5
330
F102F6
100
AcDbEntity
8
Geo
100
AcDbLine
10
-18.0238508239376
20
14.5665536816718
30
0.000000000000000
11
-17.9238508239376
21
14.5299626860913
31
0.000000000000000
  0
LINE
  5
F102F7
330
F102F8
100
AcDbEntity
8
Geo
100
AcDbLine
10
-17.9238508239376
20
14.5299626860913
30
0.000000000000000
11
-17.8238508239376
21
14.4922112753602
31
0.000000000000000
  0
LINE
  5
F102F9
330
F102FA
100
AcDbEntity
8
Geo
100
AcDbLine
10
-17.8238508239376
20
14.4922112753602
30
0.000000000000000
11
-17.7238508239376
21
14.4533053480595
31
0.000000000000000
  0
LINE
  5
F102FB
330
F102FC
100
AcDbEntity
8
Geo
100
AcDbLine
10
-17.7238508239376
20
14.4533053480595
30
0.000000000000000
11
-17.6238508239376
21
14.4132509831613
31
0.000000000000000
  0
LINE
  5
F102FD
330
F102FE
100
AcDbEntity
8
Geo
100
AcDbLine
10
-17.6238508239376
20
14.4132509831613
30
0.000000000000000
11
-17.5238508239376
21
14.3720544390786
31
0.000000000000000
  0
LINE
  5
F102FF
330
F10300
100
AcDbEntity
8
Geo
100
AcDbLine
10
-17.5238508239376
20
14.3720544390786
30
0.000000000000000
11
-17.4238508239376
21
14.3297221526876
31
0.000000000000000
  0
LINE
  5
F10301
330
F10302
100
AcDbEntity
8
Geo
100
AcDbLine
10
-17.4238508239376
20
14.3297221526876
30
0.000000000000000
11
-17.3238508239376
21
14.2862607383219
31
0.000000000000000
  0
LINE
  5
F10303
330
F10304
100
AcDbEntity
8
Geo
100
AcDbLine
10
-17.3238508239376
20
14.2862607383219
30
0.000000000000000
11
-17.2238508239376
21
14.2416769867391
31
0.000000000000000
  0
LINE
  5
F10305
330
F10306
100
AcDbEntity
8
Geo
100
AcDbLine
10
-17.2238508239376
20
14.2416769867391
30
0.000000000000000
11
-17.1238508239376
21
14.1959778640597
31
0.000000000000000
  0
LINE
  5
F10307
330
F10308
100
AcDbEntity
8
Geo
100
AcDbLine
10
-17.1238508239376
20
14.1959778640597
30
0.000000000000000
11
-17.0238508239376
21
14.1491705106785
31
0.000000000000000
  0
LINE
  5
F10309
330
F1030A
100
AcDbEntity
8
Geo
100
AcDbLine
10
-17.0238508239376
20
14.1491705106785
30
0.000000000000000
11
-16.9238508239376
21
14.1012622401494
31
0.000000000000000
  0
LINE
  5
F1030B
330
F1030C
100
AcDbEntity
8
Geo
100
AcDbLine
10
-16.9238508239376
20
14.1012622401494
30
0.000000000000000
11
-16.8238508239376
21
14.0522605380422
31
0.000000000000000
  0
LINE
  5
F1030D
330
F1030E
100
AcDbEntity
8
Geo
100
AcDbLine
10
-16.8238508239376
20
14.0522605380422
30
0.000000000000000
11
-16.7238508239376
21
14.0021730607730
31
0.000000000000000
  0
LINE
  5
F1030F
330
F10310
100
AcDbEntity
8
Geo
100
AcDbLine
10
-16.7238508239376
20
14.0021730607730
30
0.000000000000000
11
-16.6238508239376
21
13.9510076344084
31
0.000000000000000
  0
LINE
  5
F10311
330
F10312
100
AcDbEntity
8
Geo
100
AcDbLine
10
-16.6238508239376
20
13.9510076344084
30
0.000000000000000
11
-16.5238508239376
21
13.8987722534421
31
0.000000000000000
  0
LINE
  5
F10313
330
F10314
100
AcDbEntity
8
Geo
100
AcDbLine
10
-16.5238508239376
20
13.8987722534421
30
0.000000000000000
11
-16.4238508239376
21
13.8454750795461
31
0.000000000000000
  0
LINE
  5
F10315
330
F10316
100
AcDbEntity
8
Geo
100
AcDbLine
10
-16.4238508239376
20
13.8454750795461
30
0.000000000000000
11
-16.3238508239376
21
13.7911244402954
31
0.000000000000000
  0
LINE
  5
F10317
330
F10318
100
AcDbEntity
8
Geo
100
AcDbLine
10
-16.3238508239376
20
13.7911244402954
30
0.000000000000000
11
-16.2238508239376
21
13.7357288278667
31
0.000000000000000
  0
LINE
  5
F10319
330
F1031A
100
AcDbEntity
8
Geo
100
AcDbLine
10
-16.2238508239376
20
13.7357288278667
30
0.000000000000000
11
-16.1238508239376
21
13.6792968977120
31
0.000000000000000
  0
LINE
  5
F1031B
330
F1031C
100
AcDbEntity
8
Geo
100
AcDbLine
10
-16.1238508239376
20
13.6792968977120
30
0.000000000000000
11
-16.0238508239376
21
13.6218374672053
31
0.000000000000000
  0
LINE
  5
F1031D
330
F1031E
100
AcDbEntity
8
Geo
100
AcDbLine
10
-31.0238508239376
20
14.3133050547327
30
0.000000000000000
11
-30.9238508239376
21
14.3955459596433
31
0.000000000000000
  0
LINE
  5
F1031F
330
F10320
100
AcDbEntity
8
Geo
100
AcDbLine
10
-30.9238508239376
20
14.3955459596433
30
0.000000000000000
11
-30.8238508239376
21
14.4766819297027
31
0.000000000000000
  0
LINE
  5
F10321
330
F10322
100
AcDbEntity
8
Geo
100
AcDbLine
10
-30.8238508239376
20
14.4766819297027
30
0.000000000000000
11
-30.7238508239376
21
14.5566880666897
31
0.000000000000000
  0
LINE
  5
F10323
330
F10324
100
AcDbEntity
8
Geo
100
AcDbLine
10
-30.7238508239376
20
14.5566880666897
30
0.000000000000000
11
-30.6238508239376
21
14.5785972649938
31
0.000000000000000
  0
LINE
  5
F10325
330
F10326
100
AcDbEntity
8
Geo
100
AcDbLine
10
-30.6238508239376
20
14.5785972649938
30
0.000000000000000
11
-30.5238508239376
21
14.5423978035730
31
0.000000000000000
  0
LINE
  5
F10327
330
F10328
100
AcDbEntity
8
Geo
100
AcDbLine
10
-30.5238508239376
20
14.5423978035730
30
0.000000000000000
11
-30.4238508239376
21
14.5050359840396
31
0.000000000000000
  0
LINE
  5
F10329
330
F1032A
100
AcDbEntity
8
Geo
100
AcDbLine
10
-30.4238508239376
20
14.5050359840396
30
0.000000000000000
11
-30.3238508239376
21
14.4665176441022
31
0.000000000000000
  0
LINE
  5
F1032B
330
F1032C
100
AcDbEntity
8
Geo
100
AcDbLine
10
-30.3238508239376
20
14.4665176441022
30
0.000000000000000
11
-30.2238508239376
21
14.4268488021728
31
0.000000000000000
  0
LINE
  5
F1032D
330
F1032E
100
AcDbEntity
8
Geo
100
AcDbLine
10
-30.2238508239376
20
14.4268488021728
30
0.000000000000000
11
-30.1238508239376
21
14.3860356564273
31
0.000000000000000
  0
LINE
  5
F1032F
330
F10330
100
AcDbEntity
8
Geo
100
AcDbLine
10
-30.1238508239376
20
14.3860356564273
30
0.000000000000000
11
-30.0238508239376
21
14.3440845838368
31
0.000000000000000
  0
LINE
  5
F10331
330
F10332
100
AcDbEntity
8
Geo
100
AcDbLine
10
-30.0238508239376
20
14.3440845838368
30
0.000000000000000
11
-29.9238508239376
21
14.3010021391709
31
0.000000000000000
  0
LINE
  5
F10333
330
F10334
100
AcDbEntity
8
Geo
100
AcDbLine
10
-29.9238508239376
20
14.3010021391709
30
0.000000000000000
11
-29.8238508239376
21
14.2567950539740
31
0.000000000000000
  0
LINE
  5
F10335
330
F10336
100
AcDbEntity
8
Geo
100
AcDbLine
10
-29.8238508239376
20
14.2567950539740
30
0.000000000000000
11
-29.7238508239376
21
14.2114702355133
31
0.000000000000000
  0
LINE
  5
F10337
330
F10338
100
AcDbEntity
8
Geo
100
AcDbLine
10
-29.7238508239376
20
14.2114702355133
30
0.000000000000000
11
-29.6238508239376
21
14.1650347656993
31
0.000000000000000
  0
LINE
  5
F10339
330
F1033A
100
AcDbEntity
8
Geo
100
AcDbLine
10
-29.6238508239376
20
14.1650347656993
30
0.000000000000000
11
-29.5238508239376
21
14.1174958999798
31
0.000000000000000
  0
LINE
  5
F1033B
330
F1033C
100
AcDbEntity
8
Geo
100
AcDbLine
10
-29.5238508239376
20
14.1174958999798
30
0.000000000000000
11
-29.4238508239376
21
14.0688610662058
31
0.000000000000000
  0
LINE
  5
F1033D
330
F1033E
100
AcDbEntity
8
Geo
100
AcDbLine
10
-29.4238508239376
20
14.0688610662058
30
0.000000000000000
11
-29.3238508239376
21
14.0191378634712
31
0.000000000000000
  0
LINE
  5
F1033F
330
F10340
100
AcDbEntity
8
Geo
100
AcDbLine
10
-29.3238508239376
20
14.0191378634712
30
0.000000000000000
11
-29.2238508239376
21
13.9683340609252
31
0.000000000000000
  0
LINE
  5
F10341
330
F10342
100
AcDbEntity
8
Geo
100
AcDbLine
10
-29.2238508239376
20
13.9683340609252
30
0.000000000000000
11
-29.1238508239376
21
13.9164575965586
31
0.000000000000000
  0
LINE
  5
F10343
330
F10344
100
AcDbEntity
8
Geo
100
AcDbLine
10
-29.1238508239376
20
13.9164575965586
30
0.000000000000000
11
-29.0238508239376
21
13.8635165759634
31
0.000000000000000
  0
LINE
  5
F10345
330
F10346
100
AcDbEntity
8
Geo
100
AcDbLine
10
-29.0238508239376
20
13.8635165759634
30
0.000000000000000
11
-28.9238508239376
21
13.8095192710664
31
0.000000000000000
  0
LINE
  5
F10347
330
F10348
100
AcDbEntity
8
Geo
100
AcDbLine
10
-28.9238508239376
20
13.8095192710664
30
0.000000000000000
11
-28.8238508239376
21
13.7544741188366
31
0.000000000000000
  0
LINE
  5
F10349
330
F1034A
100
AcDbEntity
8
Geo
100
AcDbLine
10
-28.8238508239376
20
13.7544741188366
30
0.000000000000000
11
-28.7238508239376
21
13.6983897199671
31
0.000000000000000
  0
LINE
  5
F1034B
330
F1034C
100
AcDbEntity
8
Geo
100
AcDbLine
10
-28.7238508239376
20
13.6983897199671
30
0.000000000000000
11
-28.6238508239376
21
13.6412748375311
31
0.000000000000000
  0
LINE
  5
F1034D
330
F1034E
100
AcDbEntity
8
Geo
100
AcDbLine
10
-28.6238508239376
20
13.6412748375311
30
0.000000000000000
11
-28.5238508239376
21
13.5831383956127
31
0.000000000000000
  0
LINE
  5
F1034F
330
F10350
100
AcDbEntity
8
Geo
100
AcDbLine
10
-28.5238508239376
20
13.5831383956127
30
0.000000000000000
11
-28.4238508239376
21
13.5239894779128
31
0.000000000000000
  0
LINE
  5
F10351
330
F10352
100
AcDbEntity
8
Geo
100
AcDbLine
10
-28.4238508239376
20
13.5239894779128
30
0.000000000000000
11
-28.3238508239376
21
13.4638373263293
31
0.000000000000000
  0
LINE
  5
F10353
330
F10354
100
AcDbEntity
8
Geo
100
AcDbLine
10
-28.3238508239376
20
13.4638373263293
30
0.000000000000000
11
-28.2238508239376
21
13.4026913395137
31
0.000000000000000
  0
LINE
  5
F10355
330
F10356
100
AcDbEntity
8
Geo
100
AcDbLine
10
-28.2238508239376
20
13.4026913395137
30
0.000000000000000
11
-28.1238508239376
21
13.3405610714018
31
0.000000000000000
  0
LINE
  5
F10357
330
F10358
100
AcDbEntity
8
Geo
100
AcDbLine
10
-28.1238508239376
20
13.3405610714018
30
0.000000000000000
11
-28.0238508239376
21
13.2774562297218
31
0.000000000000000
  0
LINE
  5
F10359
330
F1035A
100
AcDbEntity
8
Geo
100
AcDbLine
10
-28.0238508239376
20
13.2774562297218
30
0.000000000000000
11
-27.9238508239376
21
13.2133866744767
31
0.000000000000000
  0
LINE
  5
F1035B
330
F1035C
100
AcDbEntity
8
Geo
100
AcDbLine
10
-27.9238508239376
20
13.2133866744767
30
0.000000000000000
11
-27.8238508239376
21
13.1483624164043
31
0.000000000000000
  0
LINE
  5
F1035D
330
F1035E
100
AcDbEntity
8
Geo
100
AcDbLine
10
-27.8238508239376
20
13.1483624164043
30
0.000000000000000
11
-27.7238508239376
21
13.0823936154125
31
0.000000000000000
  0
LINE
  5
F1035F
330
F10360
100
AcDbEntity
8
Geo
100
AcDbLine
10
-27.7238508239376
20
13.0823936154125
30
0.000000000000000
11
-27.6238508239376
21
13.0154905789922
31
0.000000000000000
  0
LINE
  5
F10361
330
F10362
100
AcDbEntity
8
Geo
100
AcDbLine
10
-27.6238508239376
20
13.0154905789922
30
0.000000000000000
11
-27.5238508239376
21
12.9476637606069
31
0.000000000000000
  0
LINE
  5
F10363
330
F10364
100
AcDbEntity
8
Geo
100
AcDbLine
10
-27.5238508239376
20
12.9476637606069
30
0.000000000000000
11
-27.4238508239376
21
12.8789237580588
31
0.000000000000000
  0
LINE
  5
F10365
330
F10366
100
AcDbEntity
8
Geo
100
AcDbLine
10
-27.4238508239376
20
12.8789237580588
30
0.000000000000000
11
-27.3238508239376
21
12.8092813118336
31
0.000000000000000
  0
LINE
  5
F10367
330
F10368
100
AcDbEntity
8
Geo
100
AcDbLine
10
-27.3238508239376
20
12.8092813118336
30
0.000000000000000
11
-27.2238508239376
21
12.7387473034217
31
0.000000000000000
  0
LINE
  5
F10369
330
F1036A
100
AcDbEntity
8
Geo
100
AcDbLine
10
-27.2238508239376
20
12.7387473034217
30
0.000000000000000
11
-27.1238508239376
21
12.6673327536185
31
0.000000000000000
  0
LINE
  5
F1036B
330
F1036C
100
AcDbEntity
8
Geo
100
AcDbLine
10
-27.1238508239376
20
12.6673327536185
30
0.000000000000000
11
-27.0238508239376
21
12.5950488208021
31
0.000000000000000
  0
LINE
  5
F1036D
330
F1036E
100
AcDbEntity
8
Geo
100
AcDbLine
10
-27.0238508239376
20
12.5950488208021
30
0.000000000000000
11
-26.9238508239376
21
12.5219067991900
31
0.000000000000000
  0
LINE
  5
F1036F
330
F10370
100
AcDbEntity
8
Geo
100
AcDbLine
10
-26.9238508239376
20
12.5219067991900
30
0.000000000000000
11
-26.8238508239376
21
12.4479181170741
31
0.000000000000000
  0
LINE
  5
F10371
330
F10372
100
AcDbEntity
8
Geo
100
AcDbLine
10
-26.8238508239376
20
12.4479181170741
30
0.000000000000000
11
-26.7238508239376
21
12.3730943350356
31
0.000000000000000
  0
LINE
  5
F10373
330
F10374
100
AcDbEntity
8
Geo
100
AcDbLine
10
-26.7238508239376
20
12.3730943350356
30
0.000000000000000
11
-26.6238508239376
21
12.2974471441382
31
0.000000000000000
  0
LINE
  5
F10375
330
F10376
100
AcDbEntity
8
Geo
100
AcDbLine
10
-26.6238508239376
20
12.2974471441382
30
0.000000000000000
11
-26.5238508239376
21
12.2209883641015
31
0.000000000000000
  0
LINE
  5
F10377
330
F10378
100
AcDbEntity
8
Geo
100
AcDbLine
10
-26.5238508239376
20
12.2209883641015
30
0.000000000000000
11
-26.4238508239376
21
12.1437299414544
31
0.000000000000000
  0
LINE
  5
F10379
330
F1037A
100
AcDbEntity
8
Geo
100
AcDbLine
10
-26.4238508239376
20
12.1437299414544
30
0.000000000000000
11
-26.3238508239376
21
12.0656839476682
31
0.000000000000000
  0
LINE
  5
F1037B
330
F1037C
100
AcDbEntity
8
Geo
100
AcDbLine
10
-26.3238508239376
20
12.0656839476682
30
0.000000000000000
11
-26.2238508239376
21
11.9868625772707
31
0.000000000000000
  0
LINE
  5
F1037D
330
F1037E
100
AcDbEntity
8
Geo
100
AcDbLine
10
-26.2238508239376
20
11.9868625772707
30
0.000000000000000
11
-26.1238508239376
21
11.9072781459406
31
0.000000000000000
  0
LINE
  5
F1037F
330
F10380
100
AcDbEntity
8
Geo
100
AcDbLine
10
-26.1238508239376
20
11.9072781459406
30
0.000000000000000
11
-26.0238508239376
21
11.8269430885835
31
0.000000000000000
  0
LINE
  5
F10381
330
F10382
100
AcDbEntity
8
Geo
100
AcDbLine
10
-26.0238508239376
20
11.8269430885835
30
0.000000000000000
11
-25.9238508239376
21
11.7458699573885
31
0.000000000000000
  0
LINE
  5
F10383
330
F10384
100
AcDbEntity
8
Geo
100
AcDbLine
10
-25.9238508239376
20
11.7458699573885
30
0.000000000000000
11
-25.8238508239376
21
11.6640714198675
31
0.000000000000000
  0
LINE
  5
F10385
330
F10386
100
AcDbEntity
8
Geo
100
AcDbLine
10
-25.8238508239376
20
11.6640714198675
30
0.000000000000000
11
-25.7238508239376
21
11.5815602568756
31
0.000000000000000
  0
LINE
  5
F10387
330
F10388
100
AcDbEntity
8
Geo
100
AcDbLine
10
-25.7238508239376
20
11.5815602568756
30
0.000000000000000
11
-25.6238508239376
21
11.4983493606141
31
0.000000000000000
  0
LINE
  5
F10389
330
F1038A
100
AcDbEntity
8
Geo
100
AcDbLine
10
-25.6238508239376
20
11.4983493606141
30
0.000000000000000
11
-25.5238508239376
21
11.4144517326163
31
0.000000000000000
  0
LINE
  5
F1038B
330
F1038C
100
AcDbEntity
8
Geo
100
AcDbLine
10
-25.5238508239376
20
11.4144517326163
30
0.000000000000000
11
-25.4238508239376
21
11.3298804817158
31
0.000000000000000
  0
LINE
  5
F1038D
330
F1038E
100
AcDbEntity
8
Geo
100
AcDbLine
10
-25.4238508239376
20
11.3298804817158
30
0.000000000000000
11
-25.3238508239376
21
11.2446488219985
31
0.000000000000000
  0
LINE
  5
F1038F
330
F10390
100
AcDbEntity
8
Geo
100
AcDbLine
10
-25.3238508239376
20
11.2446488219985
30
0.000000000000000
11
-25.2238508239376
21
11.1587700707379
31
0.000000000000000
  0
LINE
  5
F10391
330
F10392
100
AcDbEntity
8
Geo
100
AcDbLine
10
-25.2238508239376
20
11.1587700707379
30
0.000000000000000
11
-25.1238508239376
21
11.0722576463142
31
0.000000000000000
  0
LINE
  5
F10393
330
F10394
100
AcDbEntity
8
Geo
100
AcDbLine
10
-25.1238508239376
20
11.0722576463142
30
0.000000000000000
11
-25.0238508239376
21
10.9851250661176
31
0.000000000000000
  0
LINE
  5
F10395
330
F10396
100
AcDbEntity
8
Geo
100
AcDbLine
10
-25.0238508239376
20
10.9851250661176
30
0.000000000000000
11
-24.9238508239376
21
10.8973859444365
31
0.000000000000000
  0
LINE
  5
F10397
330
F10398
100
AcDbEntity
8
Geo
100
AcDbLine
10
-24.9238508239376
20
10.8973859444365
30
0.000000000000000
11
-24.8238508239376
21
10.8090539903301
31
0.000000000000000
  0
LINE
  5
F10399
330
F1039A
100
AcDbEntity
8
Geo
100
AcDbLine
10
-24.8238508239376
20
10.8090539903301
30
0.000000000000000
11
-24.7238508239376
21
10.7201430054867
31
0.000000000000000
  0
LINE
  5
F1039B
330
F1039C
100
AcDbEntity
8
Geo
100
AcDbLine
10
-24.7238508239376
20
10.7201430054867
30
0.000000000000000
11
-24.6238508239376
21
10.6306668820667
31
0.000000000000000
  0
LINE
  5
F1039D
330
F1039E
100
AcDbEntity
8
Geo
100
AcDbLine
10
-24.6238508239376
20
10.6306668820667
30
0.000000000000000
11
-24.5238508239376
21
10.5406396005323
31
0.000000000000000
  0
LINE
  5
F1039F
330
F103A0
100
AcDbEntity
8
Geo
100
AcDbLine
10
-24.5238508239376
20
10.5406396005323
30
0.000000000000000
11
-24.4238508239376
21
10.4500752274631
31
0.000000000000000
  0
LINE
  5
F103A1
330
F103A2
100
AcDbEntity
8
Geo
100
AcDbLine
10
-24.4238508239376
20
10.4500752274631
30
0.000000000000000
11
-24.3238508239376
21
10.3589879133582
31
0.000000000000000
  0
LINE
  5
F103A3
330
F103A4
100
AcDbEntity
8
Geo
100
AcDbLine
10
-24.3238508239376
20
10.3589879133582
30
0.000000000000000
11
-24.2238508239376
21
10.2673918904251
31
0.000000000000000
  0
LINE
  5
F103A5
330
F103A6
100
AcDbEntity
8
Geo
100
AcDbLine
10
-24.2238508239376
20
10.2673918904251
30
0.000000000000000
11
-24.1238508239376
21
10.1753014703559
31
0.000000000000000
  0
LINE
  5
F103A7
330
F103A8
100
AcDbEntity
8
Geo
100
AcDbLine
10
-24.1238508239376
20
10.1753014703559
30
0.000000000000000
11
-24.0238508239376
21
10.0827310420916
31
0.000000000000000
  0
LINE
  5
F103A9
330
F103AA
100
AcDbEntity
8
Geo
100
AcDbLine
10
-24.0238508239376
20
10.0827310420916
30
0.000000000000000
11
-23.9238508239376
21
9.98969506957307
31
0.000000000000000
  0
LINE
  5
F103AB
330
F103AC
100
AcDbEntity
8
Geo
100
AcDbLine
10
-23.9238508239376
20
9.98969506957307
30
0.000000000000000
11
-23.8238508239376
21
9.89620808948186
31
0.000000000000000
  0
LINE
  5
F103AD
330
F103AE
100
AcDbEntity
8
Geo
100
AcDbLine
10
-23.8238508239376
20
9.89620808948186
30
0.000000000000000
11
-23.7238508239376
21
9.80228470896837
31
0.000000000000000
  0
LINE
  5
F103AF
330
F103B0
100
AcDbEntity
8
Geo
100
AcDbLine
10
-23.7238508239376
20
9.80228470896837
30
0.000000000000000
11
-23.6238508239376
21
9.70793960336973
31
0.000000000000000
  0
LINE
  5
F103B1
330
F103B2
100
AcDbEntity
8
Geo
100
AcDbLine
10
-23.6238508239376
20
9.70793960336973
30
0.000000000000000
11
-23.5238508239376
21
9.61318751391673
31
0.000000000000000
  0
LINE
  5
F103B3
330
F103B4
100
AcDbEntity
8
Geo
100
AcDbLine
10
-23.5238508239376
20
9.61318751391673
30
0.000000000000000
11
-23.4238508239376
21
9.51804324543059
31
0.000000000000000
  0
LINE
  5
F103B5
330
F103B6
100
AcDbEntity
8
Geo
100
AcDbLine
10
-23.4238508239376
20
9.51804324543059
30
0.000000000000000
11
-23.3238508239376
21
9.42252166400969
31
0.000000000000000
  0
LINE
  5
F103B7
330
F103B8
100
AcDbEntity
8
Geo
100
AcDbLine
10
-23.3238508239376
20
9.42252166400969
30
0.000000000000000
11
-23.2238508239376
21
9.32663769470679
31
0.000000000000000
  0
LINE
  5
F103B9
330
F103BA
100
AcDbEntity
8
Geo
100
AcDbLine
10
-23.2238508239376
20
9.32663769470679
30
0.000000000000000
11
-23.1238508239376
21
9.23040631919700
31
0.000000000000000
  0
LINE
  5
F103BB
330
F103BC
100
AcDbEntity
8
Geo
100
AcDbLine
10
-23.1238508239376
20
9.23040631919700
30
0.000000000000000
11
-23.0238508239376
21
9.13384257343698
31
0.000000000000000
  0
LINE
  5
F103BD
330
F103BE
100
AcDbEntity
8
Geo
100
AcDbLine
10
-23.0238508239376
20
9.13384257343698
30
0.000000000000000
11
-22.9238508239376
21
9.03696154531554
31
0.000000000000000
  0
LINE
  5
F103BF
330
F103C0
100
AcDbEntity
8
Geo
100
AcDbLine
10
-22.9238508239376
20
9.03696154531554
30
0.000000000000000
11
-22.8238508239376
21
8.93977837229622
31
0.000000000000000
  0
LINE
  5
F103C1
330
F103C2
100
AcDbEntity
8
Geo
100
AcDbLine
10
-22.8238508239376
20
8.93977837229622
30
0.000000000000000
11
-22.7238508239376
21
8.84230823905209
31
0.000000000000000
  0
LINE
  5
F103C3
330
F103C4
100
AcDbEntity
8
Geo
100
AcDbLine
10
-22.7238508239376
20
8.84230823905209
30
0.000000000000000
11
-22.6238508239376
21
8.74456637509315
31
0.000000000000000
  0
LINE
  5
F103C5
330
F103C6
100
AcDbEntity
8
Geo
100
AcDbLine
10
-22.6238508239376
20
8.74456637509315
30
0.000000000000000
11
-22.5238508239376
21
8.64656805238682
31
0.000000000000000
  0
LINE
  5
F103C7
330
F103C8
100
AcDbEntity
8
Geo
100
AcDbLine
10
-22.5238508239376
20
8.64656805238682
30
0.000000000000000
11
-22.4238508239376
21
8.54832858297161
31
0.000000000000000
  0
LINE
  5
F103C9
330
F103CA
100
AcDbEntity
8
Geo
100
AcDbLine
10
-22.4238508239376
20
8.54832858297161
30
0.000000000000000
11
-22.3238508239376
21
8.44986331656477
31
0.000000000000000
  0
LINE
  5
F103CB
330
F103CC
100
AcDbEntity
8
Geo
100
AcDbLine
10
-22.3238508239376
20
8.44986331656477
30
0.000000000000000
11
-22.2238508239376
21
8.35118763816385
31
0.000000000000000
  0
LINE
  5
F103CD
330
F103CE
100
AcDbEntity
8
Geo
100
AcDbLine
10
-22.2238508239376
20
8.35118763816385
30
0.000000000000000
11
-22.1238508239376
21
8.25231696564284
31
0.000000000000000
  0
LINE
  5
F103CF
330
F103D0
100
AcDbEntity
8
Geo
100
AcDbLine
10
-22.1238508239376
20
8.25231696564284
30
0.000000000000000
11
-22.0238508239376
21
8.15326674734316
31
0.000000000000000
  0
LINE
  5
F103D1
330
F103D2
100
AcDbEntity
8
Geo
100
AcDbLine
10
-22.0238508239376
20
8.15326674734316
30
0.000000000000000
11
-21.9238508239376
21
8.05405245965992
31
0.000000000000000
  0
LINE
  5
F103D3
330
F103D4
100
AcDbEntity
8
Geo
100
AcDbLine
10
-21.9238508239376
20
8.05405245965992
30
0.000000000000000
11
-21.8238508239376
21
7.95468960462371
31
0.000000000000000
  0
LINE
  5
F103D5
330
F103D6
100
AcDbEntity
8
Geo
100
AcDbLine
10
-21.8238508239376
20
7.95468960462371
30
0.000000000000000
11
-21.7238508239376
21
7.85519370747847
31
0.000000000000000
  0
LINE
  5
F103D7
330
F103D8
100
AcDbEntity
8
Geo
100
AcDbLine
10
-21.7238508239376
20
7.85519370747847
30
0.000000000000000
11
-21.6238508239376
21
7.75558031425572
31
0.000000000000000
  0
LINE
  5
F103D9
330
F103DA
100
AcDbEntity
8
Geo
100
AcDbLine
10
-21.6238508239376
20
7.75558031425572
30
0.000000000000000
11
-21.5238508239376
21
7.65586498934548
31
0.000000000000000
  0
LINE
  5
F103DB
330
F103DC
100
AcDbEntity
8
Geo
100
AcDbLine
10
-21.5238508239376
20
7.65586498934548
30
0.000000000000000
11
-21.4238508239376
21
7.55606331306439
31
0.000000000000000
  0
LINE
  5
F103DD
330
F103DE
100
AcDbEntity
8
Geo
100
AcDbLine
10
-21.4238508239376
20
7.55606331306439
30
0.000000000000000
11
-21.3238508239376
21
7.45619087922134
31
0.000000000000000
  0
LINE
  5
F103DF
330
F103E0
100
AcDbEntity
8
Geo
100
AcDbLine
10
-21.3238508239376
20
7.45619087922134
30
0.000000000000000
11
-21.2238508239376
21
7.35626329268091
31
0.000000000000000
  0
LINE
  5
F103E1
330
F103E2
100
AcDbEntity
8
Geo
100
AcDbLine
10
-21.2238508239376
20
7.35626329268091
30
0.000000000000000
11
-21.1238508239376
21
7.25629616692521
31
0.000000000000000
  0
LINE
  5
F103E3
330
F103E4
100
AcDbEntity
8
Geo
100
AcDbLine
10
-21.1238508239376
20
7.25629616692521
30
0.000000000000000
11
-21.0238508239376
21
7.15630512161424
31
0.000000000000000
  0
LINE
  5
F103E5
330
F103E6
100
AcDbEntity
8
Geo
100
AcDbLine
10
-21.0238508239376
20
7.15630512161424
30
0.000000000000000
11
-20.9238508239376
21
7.05630578014542
31
0.000000000000000
  0
LINE
  5
F103E7
330
F103E8
100
AcDbEntity
8
Geo
100
AcDbLine
10
-20.9238508239376
20
7.05630578014542
30
0.000000000000000
11
-20.8238508239376
21
6.95631376721239
31
0.000000000000000
  0
LINE
  5
F103E9
330
F103EA
100
AcDbEntity
8
Geo
100
AcDbLine
10
-20.8238508239376
20
6.95631376721239
30
0.000000000000000
11
-20.7238508239376
21
6.85634470636374
31
0.000000000000000
  0
LINE
  5
F103EB
330
F103EC
100
AcDbEntity
8
Geo
100
AcDbLine
10
-20.7238508239376
20
6.85634470636374
30
0.000000000000000
11
-20.6238508239376
21
6.75641421756184
31
0.000000000000000
  0
LINE
  5
F103ED
330
F103EE
100
AcDbEntity
8
Geo
100
AcDbLine
10
-20.6238508239376
20
6.75641421756184
30
0.000000000000000
11
-20.5238508239376
21
6.65653791474227
31
0.000000000000000
  0
LINE
  5
F103EF
330
F103F0
100
AcDbEntity
8
Geo
100
AcDbLine
10
-20.5238508239376
20
6.65653791474227
30
0.000000000000000
11
-20.4238508239376
21
6.55673140337413
31
0.000000000000000
  0
LINE
  5
F103F1
330
F103F2
100
AcDbEntity
8
Geo
100
AcDbLine
10
-20.4238508239376
20
6.55673140337413
30
0.000000000000000
11
-20.3238508239376
21
6.45701027802178
31
0.000000000000000
  0
LINE
  5
F103F3
330
F103F4
100
AcDbEntity
8
Geo
100
AcDbLine
10
-20.3238508239376
20
6.45701027802178
30
0.000000000000000
11
-20.2238508239376
21
6.35739011990817
31
0.000000000000000
  0
LINE
  5
F103F5
330
F103F6
100
AcDbEntity
8
Geo
100
AcDbLine
10
-20.2238508239376
20
6.35739011990817
30
0.000000000000000
11
-20.1238508239376
21
6.25788649448032
31
0.000000000000000
  0
LINE
  5
F103F7
330
F103F8
100
AcDbEntity
8
Geo
100
AcDbLine
10
-20.1238508239376
20
6.25788649448032
30
0.000000000000000
11
-20.0238508239376
21
6.15851494897727
31
0.000000000000000
  0
LINE
  5
F103F9
330
F103FA
100
AcDbEntity
8
Geo
100
AcDbLine
10
-20.0238508239376
20
6.15851494897727
30
0.000000000000000
11
-19.9238508239376
21
6.05929101000084
31
0.000000000000000
  0
LINE
  5
F103FB
330
F103FC
100
AcDbEntity
8
Geo
100
AcDbLine
10
-19.9238508239376
20
6.05929101000084
30
0.000000000000000
11
-19.8238508239376
21
5.96023018108962
31
0.000000000000000
  0
LINE
  5
F103FD
330
F103FE
100
AcDbEntity
8
Geo
100
AcDbLine
10
-19.8238508239376
20
5.96023018108962
30
0.000000000000000
11
-19.7238508239376
21
5.86134794029658
31
0.000000000000000
  0
LINE
  5
F103FF
330
F10400
100
AcDbEntity
8
Geo
100
AcDbLine
10
-19.7238508239376
20
5.86134794029658
30
0.000000000000000
11
-19.6238508239376
21
5.76265973777068
31
0.000000000000000
  0
LINE
  5
F10401
330
F10402
100
AcDbEntity
8
Geo
100
AcDbLine
10
-19.6238508239376
20
5.76265973777068
30
0.000000000000000
11
-19.5238508239376
21
5.66418099334278
31
0.000000000000000
  0
LINE
  5
F10403
330
F10404
100
AcDbEntity
8
Geo
100
AcDbLine
10
-19.5238508239376
20
5.66418099334278
30
0.000000000000000
11
-19.4238508239376
21
5.56592709411634
31
0.000000000000000
  0
LINE
  5
F10405
330
F10406
100
AcDbEntity
8
Geo
100
AcDbLine
10
-19.4238508239376
20
5.56592709411634
30
0.000000000000000
11
-19.3238508239376
21
5.46791339206322
31
0.000000000000000
  0
LINE
  5
F10407
330
F10408
100
AcDbEntity
8
Geo
100
AcDbLine
10
-19.3238508239376
20
5.46791339206322
30
0.000000000000000
11
-19.2238508239376
21
5.37015520162496
31
0.000000000000000
  0
LINE
  5
F10409
330
F1040A
100
AcDbEntity
8
Geo
100
AcDbLine
10
-19.2238508239376
20
5.37015520162496
30
0.000000000000000
11
-19.1238508239376
21
5.27266779731992
31
0.000000000000000
  0
LINE
  5
F1040B
330
F1040C
100
AcDbEntity
8
Geo
100
AcDbLine
10
-19.1238508239376
20
5.27266779731992
30
0.000000000000000
11
-19.0238508239376
21
5.17546641135669
31
0.000000000000000
  0
LINE
  5
F1040D
330
F1040E
100
AcDbEntity
8
Geo
100
AcDbLine
10
-19.0238508239376
20
5.17546641135669
30
0.000000000000000
11
-18.9238508239376
21
5.07856623125407
31
0.000000000000000
  0
LINE
  5
F1040F
330
F10410
100
AcDbEntity
8
Geo
100
AcDbLine
10
-18.9238508239376
20
5.07856623125407
30
0.000000000000000
11
-18.8238508239376
21
4.98198239746806
31
0.000000000000000
  0
LINE
  5
F10411
330
F10412
100
AcDbEntity
8
Geo
100
AcDbLine
10
-18.8238508239376
20
4.98198239746806
30
0.000000000000000
11
-18.7238508239376
21
4.88573000102619
31
0.000000000000000
  0
LINE
  5
F10413
330
F10414
100
AcDbEntity
8
Geo
100
AcDbLine
10
-18.7238508239376
20
4.88573000102619
30
0.000000000000000
11
-18.6238508239376
21
4.78982408116957
31
0.000000000000000
  0
LINE
  5
F10415
330
F10416
100
AcDbEntity
8
Geo
100
AcDbLine
10
-18.6238508239376
20
4.78982408116957
30
0.000000000000000
11
-18.5238508239376
21
4.69427962300307
31
0.000000000000000
  0
LINE
  5
F10417
330
F10418
100
AcDbEntity
8
Geo
100
AcDbLine
10
-18.5238508239376
20
4.69427962300307
30
0.000000000000000
11
-18.4238508239376
21
4.59911155515389
31
0.000000000000000
  0
LINE
  5
F10419
330
F1041A
100
AcDbEntity
8
Geo
100
AcDbLine
10
-18.4238508239376
20
4.59911155515389
30
0.000000000000000
11
-18.3238508239376
21
4.50433474743901
31
0.000000000000000
  0
LINE
  5
F1041B
330
F1041C
100
AcDbEntity
8
Geo
100
AcDbLine
10
-18.3238508239376
20
4.50433474743901
30
0.000000000000000
11
-18.2238508239376
21
4.40996400854182
31
0.000000000000000
  0
LINE
  5
F1041D
330
F1041E
100
AcDbEntity
8
Geo
100
AcDbLine
10
-18.2238508239376
20
4.40996400854182
30
0.000000000000000
11
-18.1238508239376
21
4.31601408369826
31
0.000000000000000
  0
LINE
  5
F1041F
330
F10420
100
AcDbEntity
8
Geo
100
AcDbLine
10
-18.1238508239376
20
4.31601408369826
30
0.000000000000000
11
-18.0238508239376
21
4.22249965239296
31
0.000000000000000
  0
LINE
  5
F10421
330
F10422
100
AcDbEntity
8
Geo
100
AcDbLine
10
-18.0238508239376
20
4.22249965239296
30
0.000000000000000
11
-17.9238508239376
21
4.12943532606556
31
0.000000000000000
  0
LINE
  5
F10423
330
F10424
100
AcDbEntity
8
Geo
100
AcDbLine
10
-17.9238508239376
20
4.12943532606556
30
0.000000000000000
11
-17.8238508239376
21
4.03683564582769
31
0.000000000000000
  0
LINE
  5
F10425
330
F10426
100
AcDbEntity
8
Geo
100
AcDbLine
10
-17.8238508239376
20
4.03683564582769
30
0.000000000000000
11
-17.7238508239376
21
3.94471508019101
31
0.000000000000000
  0
LINE
  5
F10427
330
F10428
100
AcDbEntity
8
Geo
100
AcDbLine
10
-17.7238508239376
20
3.94471508019101
30
0.000000000000000
11
-17.6238508239376
21
3.85308802280648
31
0.000000000000000
  0
LINE
  5
F10429
330
F1042A
100
AcDbEntity
8
Geo
100
AcDbLine
10
-17.6238508239376
20
3.85308802280648
30
0.000000000000000
11
-17.5238508239376
21
3.76196879021540
31
0.000000000000000
  0
LINE
  5
F1042B
330
F1042C
100
AcDbEntity
8
Geo
100
AcDbLine
10
-17.5238508239376
20
3.76196879021540
30
0.000000000000000
11
-17.4238508239376
21
3.67137161961248
31
0.000000000000000
  0
LINE
  5
F1042D
330
F1042E
100
AcDbEntity
8
Geo
100
AcDbLine
10
-17.4238508239376
20
3.67137161961248
30
0.000000000000000
11
-17.3238508239376
21
3.58131066662131
31
0.000000000000000
  0
LINE
  5
F1042F
330
F10430
100
AcDbEntity
8
Geo
100
AcDbLine
10
-17.3238508239376
20
3.58131066662131
30
0.000000000000000
11
-17.2238508239376
21
3.49180000308256
31
0.000000000000000
  0
LINE
  5
F10431
330
F10432
100
AcDbEntity
8
Geo
100
AcDbLine
10
-17.2238508239376
20
3.49180000308256
30
0.000000000000000
11
-17.1238508239376
21
3.40285361485531
31
0.000000000000000
  0
LINE
  5
F10433
330
F10434
100
AcDbEntity
8
Geo
100
AcDbLine
10
-17.1238508239376
20
3.40285361485531
30
0.000000000000000
11
-17.0238508239376
21
3.31448539963175
31
0.000000000000000
  0
LINE
  5
F10435
330
F10436
100
AcDbEntity
8
Geo
100
AcDbLine
10
-17.0238508239376
20
3.31448539963175
30
0.000000000000000
11
-16.9238508239376
21
3.22670916476572
31
0.000000000000000
  0
LINE
  5
F10437
330
F10438
100
AcDbEntity
8
Geo
100
AcDbLine
10
-16.9238508239376
20
3.22670916476572
30
0.000000000000000
11
-16.8238508239376
21
3.13953862511535
31
0.000000000000000
  0
LINE
  5
F10439
330
F1043A
100
AcDbEntity
8
Geo
100
AcDbLine
10
-16.8238508239376
20
3.13953862511535
30
0.000000000000000
11
-16.7238508239376
21
3.05298740090010
31
0.000000000000000
  0
LINE
  5
F1043B
330
F1043C
100
AcDbEntity
8
Geo
100
AcDbLine
10
-16.7238508239376
20
3.05298740090010
30
0.000000000000000
11
-16.6238508239376
21
2.96706901557268
31
0.000000000000000
  0
LINE
  5
F1043D
330
F1043E
100
AcDbEntity
8
Geo
100
AcDbLine
10
-16.6238508239376
20
2.96706901557268
30
0.000000000000000
11
-16.5238508239376
21
2.88179689370598
31
0.000000000000000
  0
LINE
  5
F1043F
330
F10440
100
AcDbEntity
8
Geo
100
AcDbLine
10
-16.5238508239376
20
2.88179689370598
30
0.000000000000000
11
-16.4238508239376
21
2.79718435889558
31
0.000000000000000
  0
LINE
  5
F10441
330
F10442
100
AcDbEntity
8
Geo
100
AcDbLine
10
-16.4238508239376
20
2.79718435889558
30
0.000000000000000
11
-16.3238508239376
21
2.71324463167787
31
0.000000000000000
  0
LINE
  5
F10443
330
F10444
100
AcDbEntity
8
Geo
100
AcDbLine
10
-16.3238508239376
20
2.71324463167787
30
0.000000000000000
11
-16.2238508239376
21
2.62999082746448
31
0.000000000000000
  0
LINE
  5
F10445
330
F10446
100
AcDbEntity
8
Geo
100
AcDbLine
10
-16.2238508239376
20
2.62999082746448
30
0.000000000000000
11
-16.1238508239376
21
2.54743595449292
31
0.000000000000000
  0
LINE
  5
F10447
330
F10448
100
AcDbEntity
8
Geo
100
AcDbLine
10
-16.1238508239376
20
2.54743595449292
30
0.000000000000000
11
-16.0238508239376
21
2.46559291179414
31
0.000000000000000
  0
LINE
  5
F10449
330
F1044A
100
AcDbEntity
8
Geo
100
AcDbLine
10
-31.0238508239376
20
4.54645029664595
30
0.000000000000000
11
-30.9238508239376
21
4.47940987406157
31
0.000000000000000
  0
LINE
  5
F1044B
330
F1044C
100
AcDbEntity
8
Geo
100
AcDbLine
10
-30.9238508239376
20
4.47940987406157
30
0.000000000000000
11
-30.8238508239376
21
4.40981019149472
31
0.000000000000000
  0
LINE
  5
F1044D
330
F1044E
100
AcDbEntity
8
Geo
100
AcDbLine
10
-30.8238508239376
20
4.40981019149472
30
0.000000000000000
11
-30.7238508239376
21
4.33768011939726
31
0.000000000000000
  0
LINE
  5
F1044F
330
F10450
100
AcDbEntity
8
Geo
100
AcDbLine
10
-30.7238508239376
20
4.33768011939726
30
0.000000000000000
11
-30.6238508239376
21
4.25389847424923
31
0.000000000000000
  0
LINE
  5
F10451
330
F10452
100
AcDbEntity
8
Geo
100
AcDbLine
10
-30.6238508239376
20
4.25389847424923
30
0.000000000000000
11
-30.5238508239376
21
4.16068115404968
31
0.000000000000000
  0
LINE
  5
F10453
330
F10454
100
AcDbEntity
8
Geo
100
AcDbLine
10
-30.5238508239376
20
4.16068115404968
30
0.000000000000000
11
-30.4238508239376
21
4.06792359784263
31
0.000000000000000
  0
LINE
  5
F10455
330
F10456
100
AcDbEntity
8
Geo
100
AcDbLine
10
-30.4238508239376
20
4.06792359784263
30
0.000000000000000
11
-30.3238508239376
21
3.97564029880751
31
0.000000000000000
  0
LINE
  5
F10457
330
F10458
100
AcDbEntity
8
Geo
100
AcDbLine
10
-30.3238508239376
20
3.97564029880751
30
0.000000000000000
11
-30.2238508239376
21
3.88384567602204
31
0.000000000000000
  0
LINE
  5
F10459
330
F1045A
100
AcDbEntity
8
Geo
100
AcDbLine
10
-30.2238508239376
20
3.88384567602204
30
0.000000000000000
11
-30.1238508239376
21
3.79255407220929
31
0.000000000000000
  0
LINE
  5
F1045B
330
F1045C
100
AcDbEntity
8
Geo
100
AcDbLine
10
-30.1238508239376
20
3.79255407220929
30
0.000000000000000
11
-30.0238508239376
21
3.70177975149661
31
0.000000000000000
  0
LINE
  5
F1045D
330
F1045E
100
AcDbEntity
8
Geo
100
AcDbLine
10
-30.0238508239376
20
3.70177975149661
30
0.000000000000000
11
-29.9238508239376
21
3.61153689718693
31
0.000000000000000
  0
LINE
  5
F1045F
330
F10460
100
AcDbEntity
8
Geo
100
AcDbLine
10
-29.9238508239376
20
3.61153689718693
30
0.000000000000000
11
-29.8238508239376
21
3.52183960954265
31
0.000000000000000
  0
LINE
  5
F10461
330
F10462
100
AcDbEntity
8
Geo
100
AcDbLine
10
-29.8238508239376
20
3.52183960954265
30
0.000000000000000
11
-29.7238508239376
21
3.43270190358247
31
0.000000000000000
  0
LINE
  5
F10463
330
F10464
100
AcDbEntity
8
Geo
100
AcDbLine
10
-29.7238508239376
20
3.43270190358247
30
0.000000000000000
11
-29.6238508239376
21
3.34413770689159
31
0.000000000000000
  0
LINE
  5
F10465
330
F10466
100
AcDbEntity
8
Geo
100
AcDbLine
10
-29.6238508239376
20
3.34413770689159
30
0.000000000000000
11
-29.5238508239376
21
3.25616085744557
31
0.000000000000000
  0
LINE
  5
F10467
330
F10468
100
AcDbEntity
8
Geo
100
AcDbLine
10
-29.5238508239376
20
3.25616085744557
30
0.000000000000000
11
-29.4238508239376
21
3.16878510144814
31
0.000000000000000
  0
LINE
  5
F10469
330
F1046A
100
AcDbEntity
8
Geo
100
AcDbLine
10
-29.4238508239376
20
3.16878510144814
30
0.000000000000000
11
-29.3238508239376
21
3.08202409118341
31
0.000000000000000
  0
LINE
  5
F1046B
330
F1046C
100
AcDbEntity
8
Geo
100
AcDbLine
10
-29.3238508239376
20
3.08202409118341
30
0.000000000000000
11
-29.2238508239376
21
2.99589138288272
31
0.000000000000000
  0
LINE
  5
F1046D
330
F1046E
100
AcDbEntity
8
Geo
100
AcDbLine
10
-29.2238508239376
20
2.99589138288272
30
0.000000000000000
11
-29.1238508239376
21
2.91040043460651
31
0.000000000000000
  0
LINE
  5
F1046F
330
F10470
100
AcDbEntity
8
Geo
100
AcDbLine
10
-29.1238508239376
20
2.91040043460651
30
0.000000000000000
11
-29.0238508239376
21
2.82556460414151
31
0.000000000000000
  0
LINE
  5
F10471
330
F10472
100
AcDbEntity
8
Geo
100
AcDbLine
10
-29.0238508239376
20
2.82556460414151
30
0.000000000000000
11
-28.9238508239376
21
2.74139714691364
31
0.000000000000000
  0
LINE
  5
F10473
330
F10474
100
AcDbEntity
8
Geo
100
AcDbLine
10
-28.9238508239376
20
2.74139714691364
30
0.000000000000000
11
-28.8238508239376
21
2.65791121391684
31
0.000000000000000
  0
LINE
  5
F10475
330
F10476
100
AcDbEntity
8
Geo
100
AcDbLine
10
-28.8238508239376
20
2.65791121391684
30
0.000000000000000
11
-28.7238508239376
21
2.57511984965831
31
0.000000000000000
  0
LINE
  5
F10477
330
F10478
100
AcDbEntity
8
Geo
100
AcDbLine
10
-28.7238508239376
20
2.57511984965831
30
0.000000000000000
11
-28.6238508239376
21
2.49303599012025
31
0.000000000000000
  0
LINE
  5
F10479
330
F1047A
100
AcDbEntity
8
Geo
100
AcDbLine
10
-28.6238508239376
20
2.49303599012025
30
0.000000000000000
11
-28.5238508239376
21
2.41167246073874
31
0.000000000000000
  0
LINE
  5
F1047B
330
F1047C
100
AcDbEntity
8
Geo
100
AcDbLine
10
-28.5238508239376
20
2.41167246073874
30
0.000000000000000
11
-28.4238508239376
21
2.33104197439970
31
0.000000000000000
  0
LINE
  5
F1047D
330
F1047E
100
AcDbEntity
8
Geo
100
AcDbLine
10
-28.4238508239376
20
2.33104197439970
30
0.000000000000000
11
-28.3238508239376
21
2.25115712945257
31
0.000000000000000
  0
LINE
  5
F1047F
330
F10480
100
AcDbEntity
8
Geo
100
AcDbLine
10
-28.3238508239376
20
2.25115712945257
30
0.000000000000000
11
-28.2238508239376
21
2.17203040774186
31
0.000000000000000
  0
LINE
  5
F10481
330
F10482
100
AcDbEntity
8
Geo
100
AcDbLine
10
-28.2238508239376
20
2.17203040774186
30
0.000000000000000
11
-28.1238508239376
21
2.09367417265686
31
0.000000000000000
  0
LINE
  5
F10483
330
F10484
100
AcDbEntity
8
Geo
100
AcDbLine
10
-28.1238508239376
20
2.09367417265686
30
0.000000000000000
11
-28.0238508239376
21
2.01610066719987
31
0.000000000000000
  0
LINE
  5
F10485
330
F10486
100
AcDbEntity
8
Geo
100
AcDbLine
10
-28.0238508239376
20
2.01610066719987
30
0.000000000000000
11
-27.9238508239376
21
1.93932201207330
31
0.000000000000000
  0
LINE
  5
F10487
330
F10488
100
AcDbEntity
8
Geo
100
AcDbLine
10
-27.9238508239376
20
1.93932201207330
30
0.000000000000000
11
-27.8238508239376
21
1.86335020378581
31
0.000000000000000
  0
LINE
  5
F10489
330
F1048A
100
AcDbEntity
8
Geo
100
AcDbLine
10
-27.8238508239376
20
1.86335020378581
30
0.000000000000000
11
-27.7238508239376
21
1.78819711277789
31
0.000000000000000
  0
LINE
  5
F1048B
330
F1048C
100
AcDbEntity
8
Geo
100
AcDbLine
10
-27.7238508239376
20
1.78819711277789
30
0.000000000000000
11
-27.6238508239376
21
1.71387448156709
31
0.000000000000000
  0
LINE
  5
F1048D
330
F1048E
100
AcDbEntity
8
Geo
100
AcDbLine
10
-27.6238508239376
20
1.71387448156709
30
0.000000000000000
11
-27.5238508239376
21
1.64039392291335
31
0.000000000000000
  0
LINE
  5
F1048F
330
F10490
100
AcDbEntity
8
Geo
100
AcDbLine
10
-27.5238508239376
20
1.64039392291335
30
0.000000000000000
11
-27.4238508239376
21
1.56776691800445
31
0.000000000000000
  0
LINE
  5
F10491
330
F10492
100
AcDbEntity
8
Geo
100
AcDbLine
10
-27.4238508239376
20
1.56776691800445
30
0.000000000000000
11
-27.3238508239376
21
1.49600481466215
31
0.000000000000000
  0
LINE
  5
F10493
330
F10494
100
AcDbEntity
8
Geo
100
AcDbLine
10
-27.3238508239376
20
1.49600481466215
30
0.000000000000000
11
-27.2238508239376
21
1.42511882556910
31
0.000000000000000
  0
LINE
  5
F10495
330
F10496
100
AcDbEntity
8
Geo
100
AcDbLine
10
-27.2238508239376
20
1.42511882556910
30
0.000000000000000
11
-27.1238508239376
21
1.35512002651688
31
0.000000000000000
  0
LINE
  5
F10497
330
F10498
100
AcDbEntity
8
Geo
100
AcDbLine
10
-27.1238508239376
20
1.35512002651688
30
0.000000000000000
11
-27.0238508239376
21
1.28601935467542
31
0.000000000000000
  0
LINE
  5
F10499
330
F1049A
100
AcDbEntity
8
Geo
100
AcDbLine
10
-27.0238508239376
20
1.28601935467542
30
0.000000000000000
11
-26.9238508239376
21
1.21782760688413
31
0.000000000000000
  0
LINE
  5
F1049B
330
F1049C
100
AcDbEntity
8
Geo
100
AcDbLine
10
-26.9238508239376
20
1.21782760688413
30
0.000000000000000
11
-26.8238508239376
21
1.15055543796485
31
0.000000000000000
  0
LINE
  5
F1049D
330
F1049E
100
AcDbEntity
8
Geo
100
AcDbLine
10
-26.8238508239376
20
1.15055543796485
30
0.000000000000000
11
-26.7238508239376
21
1.08421335905711
31
0.000000000000000
  0
LINE
  5
F1049F
330
F104A0
100
AcDbEntity
8
Geo
100
AcDbLine
10
-26.7238508239376
20
1.08421335905711
30
0.000000000000000
11
-26.6238508239376
21
1.01881173597577
31
0.000000000000000
  0
LINE
  5
F104A1
330
F104A2
100
AcDbEntity
8
Geo
100
AcDbLine
10
-26.6238508239376
20
1.01881173597577
30
0.000000000000000
11
-26.5238508239376
21
0.954360787591376
31
0.000000000000000
  0
LINE
  5
F104A3
330
F104A4
100
AcDbEntity
8
Geo
100
AcDbLine
10
-26.5238508239376
20
0.954360787591376
30
0.000000000000000
11
-26.4238508239376
21
0.890870584233491
31
0.000000000000000
  0
LINE
  5
F104A5
330
F104A6
100
AcDbEntity
8
Geo
100
AcDbLine
10
-26.4238508239376
20
0.890870584233491
30
0.000000000000000
11
-26.3238508239376
21
0.828351046117220
31
0.000000000000000
  0
LINE
  5
F104A7
330
F104A8
100
AcDbEntity
8
Geo
100
AcDbLine
10
-26.3238508239376
20
0.828351046117220
30
0.000000000000000
11
-26.2238508239376
21
0.766811941793193
31
0.000000000000000
  0
LINE
  5
F104A9
330
F104AA
100
AcDbEntity
8
Geo
100
AcDbLine
10
-26.2238508239376
20
0.766811941793193
30
0.000000000000000
11
-26.1238508239376
21
0.706262886621261
31
0.000000000000000
  0
LINE
  5
F104AB
330
F104AC
100
AcDbEntity
8
Geo
100
AcDbLine
10
-26.1238508239376
20
0.706262886621261
30
0.000000000000000
11
-26.0238508239376
21
0.646713341268111
31
0.000000000000000
  0
LINE
  5
F104AD
330
F104AE
100
AcDbEntity
8
Geo
100
AcDbLine
10
-26.0238508239376
20
0.646713341268111
30
0.000000000000000
11
-25.9238508239376
21
0.588172610229048
31
0.000000000000000
  0
LINE
  5
F104AF
330
F104B0
100
AcDbEntity
8
Geo
100
AcDbLine
10
-25.9238508239376
20
0.588172610229048
30
0.000000000000000
11
-25.8238508239376
21
0.530649840374198
31
0.000000000000000
  0
LINE
  5
F104B1
330
F104B2
100
AcDbEntity
8
Geo
100
AcDbLine
10
-25.8238508239376
20
0.530649840374198
30
0.000000000000000
11
-25.7238508239376
21
0.474154019519318
31
0.000000000000000
  0
LINE
  5
F104B3
330
F104B4
100
AcDbEntity
8
Geo
100
AcDbLine
10
-25.7238508239376
20
0.474154019519318
30
0.000000000000000
11
-25.6238508239376
21
0.418693975021481
31
0.000000000000000
  0
LINE
  5
F104B5
330
F104B6
100
AcDbEntity
8
Geo
100
AcDbLine
10
-25.6238508239376
20
0.418693975021481
30
0.000000000000000
11
-25.5238508239376
21
0.364278372399801
31
0.000000000000000
  0
LINE
  5
F104B7
330
F104B8
100
AcDbEntity
8
Geo
100
AcDbLine
10
-25.5238508239376
20
0.364278372399801
30
0.000000000000000
11
-25.4238508239376
21
0.310915713981484
31
0.000000000000000
  0
LINE
  5
F104B9
330
F104BA
100
AcDbEntity
8
Geo
100
AcDbLine
10
-25.4238508239376
20
0.310915713981484
30
0.000000000000000
11
-25.3238508239376
21
0.258614337573340
31
0.000000000000000
  0
LINE
  5
F104BB
330
F104BC
100
AcDbEntity
8
Geo
100
AcDbLine
10
-25.3238508239376
20
0.258614337573340
30
0.000000000000000
11
-25.2238508239376
21
0.207382415159026
31
0.000000000000000
  0
LINE
  5
F104BD
330
F104BE
100
AcDbEntity
8
Geo
100
AcDbLine
10
-25.2238508239376
20
0.207382415159026
30
0.000000000000000
11
-25.1238508239376
21
0.157227951622189
31
0.000000000000000
  0
LINE
  5
F104BF
330
F104C0
100
AcDbEntity
8
Geo
100
AcDbLine
10
-25.1238508239376
20
0.157227951622189
30
0.000000000000000
11
-25.0238508239376
21
0.108158783495716
31
0.000000000000000
  0
LINE
  5
F104C1
330
F104C2
100
AcDbEntity
8
Geo
100
AcDbLine
10
-25.0238508239376
20
0.108158783495716
30
0.000000000000000
11
-24.9238508239376
21
0.0601825777372964
31
0.000000000000000
  0
LINE
  5
F104C3
330
F104C4
100
AcDbEntity
8
Geo
100
AcDbLine
10
-24.9238508239376
20
0.0601825777372964
30
0.000000000000000
11
-24.8238508239376
21
0.0133068305314721
31
0.000000000000000
  0
LINE
  5
F104C5
330
F104C6
100
AcDbEntity
8
Geo
100
AcDbLine
10
-24.8238508239376
20
0.0133068305314721
30
0.000000000000000
11
-24.7238508239376
21
-0.0324611338816228
31
0.000000000000000
  0
LINE
  5
F104C7
330
F104C8
100
AcDbEntity
8
Geo
100
AcDbLine
10
-24.7238508239376
20
-0.0324611338816228
30
0.000000000000000
11
-24.6238508239376
21
-0.0771141643506636
31
0.000000000000000
  0
LINE
  5
F104C9
330
F104CA
100
AcDbEntity
8
Geo
100
AcDbLine
10
-24.6238508239376
20
-0.0771141643506636
30
0.000000000000000
11
-24.5238508239376
21
-0.120645283930487
31
0.000000000000000
  0
LINE
  5
F104CB
330
F104CC
100
AcDbEntity
8
Geo
100
AcDbLine
10
-24.5238508239376
20
-0.120645283930487
30
0.000000000000000
11
-24.4238508239376
21
-0.163047690972221
31
0.000000000000000
  0
LINE
  5
F104CD
330
F104CE
100
AcDbEntity
8
Geo
100
AcDbLine
10
-24.4238508239376
20
-0.163047690972221
30
0.000000000000000
11
-24.3238508239376
21
-0.204314760186036
31
0.000000000000000
  0
LINE
  5
F104CF
330
F104D0
100
AcDbEntity
8
Geo
100
AcDbLine
10
-24.3238508239376
20
-0.204314760186036
30
0.000000000000000
11
-24.2238508239376
21
-0.244440043676321
31
0.000000000000000
  0
LINE
  5
F104D1
330
F104D2
100
AcDbEntity
8
Geo
100
AcDbLine
10
-24.2238508239376
20
-0.244440043676321
30
0.000000000000000
11
-24.1238508239376
21
-0.283417271949169
31
0.000000000000000
  0
LINE
  5
F104D3
330
F104D4
100
AcDbEntity
8
Geo
100
AcDbLine
10
-24.1238508239376
20
-0.283417271949169
30
0.000000000000000
11
-24.0238508239376
21
-0.321240354891959
31
0.000000000000000
  0
LINE
  5
F104D5
330
F104D6
100
AcDbEntity
8
Geo
100
AcDbLine
10
-24.0238508239376
20
-0.321240354891959
30
0.000000000000000
11
-23.9238508239376
21
-0.357903382724931
31
0.000000000000000
  0
LINE
  5
F104D7
330
F104D8
100
AcDbEntity
8
Geo
100
AcDbLine
10
-23.9238508239376
20
-0.357903382724931
30
0.000000000000000
11
-23.8238508239376
21
-0.393400626924580
31
0.000000000000000
  0
LINE
  5
F104D9
330
F104DA
100
AcDbEntity
8
Geo
100
AcDbLine
10
-23.8238508239376
20
-0.393400626924580
30
0.000000000000000
11
-23.7238508239376
21
-0.427726541118716
31
0.000000000000000
  0
LINE
  5
F104DB
330
F104DC
100
AcDbEntity
8
Geo
100
AcDbLine
10
-23.7238508239376
20
-0.427726541118716
30
0.000000000000000
11
-23.6238508239376
21
-0.460875761953084
31
0.000000000000000
  0
LINE
  5
F104DD
330
F104DE
100
AcDbEntity
8
Geo
100
AcDbLine
10
-23.6238508239376
20
-0.460875761953084
30
0.000000000000000
11
-23.5238508239376
21
-0.492843109929369
31
0.000000000000000
  0
LINE
  5
F104DF
330
F104E0
100
AcDbEntity
8
Geo
100
AcDbLine
10
-23.5238508239376
20
-0.492843109929369
30
0.000000000000000
11
-23.4238508239376
21
-0.523623590214488
31
0.000000000000000
  0
LINE
  5
F104E1
330
F104E2
100
AcDbEntity
8
Geo
100
AcDbLine
10
-23.4238508239376
20
-0.523623590214488
30
0.000000000000000
11
-23.3238508239376
21
-0.553212393421020
31
0.000000000000000
  0
LINE
  5
F104E3
330
F104E4
100
AcDbEntity
8
Geo
100
AcDbLine
10
-23.3238508239376
20
-0.553212393421020
30
0.000000000000000
11
-23.2238508239376
21
-0.581604896358661
31
0.000000000000000
  0
LINE
  5
F104E5
330
F104E6
100
AcDbEntity
8
Geo
100
AcDbLine
10
-23.2238508239376
20
-0.581604896358661
30
0.000000000000000
11
-23.1238508239376
21
-0.608796662756590
31
0.000000000000000
  0
LINE
  5
F104E7
330
F104E8
100
AcDbEntity
8
Geo
100
AcDbLine
10
-23.1238508239376
20
-0.608796662756590
30
0.000000000000000
11
-23.0238508239376
21
-0.634783443956632
31
0.000000000000000
  0
LINE
  5
F104E9
330
F104EA
100
AcDbEntity
8
Geo
100
AcDbLine
10
-23.0238508239376
20
-0.634783443956632
30
0.000000000000000
11
-22.9238508239376
21
-0.659561179577092
31
0.000000000000000
  0
LINE
  5
F104EB
330
F104EC
100
AcDbEntity
8
Geo
100
AcDbLine
10
-22.9238508239376
20
-0.659561179577092
30
0.000000000000000
11
-22.8238508239376
21
-0.683125998147189
31
0.000000000000000
  0
LINE
  5
F104ED
330
F104EE
100
AcDbEntity
8
Geo
100
AcDbLine
10
-22.8238508239376
20
-0.683125998147189
30
0.000000000000000
11
-22.7238508239376
21
-0.705474217711968
31
0.000000000000000
  0
LINE
  5
F104EF
330
F104F0
100
AcDbEntity
8
Geo
100
AcDbLine
10
-22.7238508239376
20
-0.705474217711968
30
0.000000000000000
11
-22.6238508239376
21
-0.726602346407586
31
0.000000000000000
  0
LINE
  5
F104F1
330
F104F2
100
AcDbEntity
8
Geo
100
AcDbLine
10
-22.6238508239376
20
-0.726602346407586
30
0.000000000000000
11
-22.5238508239376
21
-0.746507083006919
31
0.000000000000000
  0
LINE
  5
F104F3
330
F104F4
100
AcDbEntity
8
Geo
100
AcDbLine
10
-22.5238508239376
20
-0.746507083006919
30
0.000000000000000
11
-22.4238508239376
21
-0.765185317435370
31
0.000000000000000
  0
LINE
  5
F104F5
330
F104F6
100
AcDbEntity
8
Geo
100
AcDbLine
10
-22.4238508239376
20
-0.765185317435370
30
0.000000000000000
11
-22.3238508239376
21
-0.782634131256812
31
0.000000000000000
  0
LINE
  5
F104F7
330
F104F8
100
AcDbEntity
8
Geo
100
AcDbLine
10
-22.3238508239376
20
-0.782634131256812
30
0.000000000000000
11
-22.2238508239376
21
-0.798850798129584
31
0.000000000000000
  0
LINE
  5
F104F9
330
F104FA
100
AcDbEntity
8
Geo
100
AcDbLine
10
-22.2238508239376
20
-0.798850798129584
30
0.000000000000000
11
-22.1238508239376
21
-0.813832784232479
31
0.000000000000000
  0
LINE
  5
F104FB
330
F104FC
100
AcDbEntity
8
Geo
100
AcDbLine
10
-22.1238508239376
20
-0.813832784232479
30
0.000000000000000
11
-22.0238508239376
21
-0.827577748660649
31
0.000000000000000
  0
LINE
  5
F104FD
330
F104FE
100
AcDbEntity
8
Geo
100
AcDbLine
10
-22.0238508239376
20
-0.827577748660649
30
0.000000000000000
11
-21.9238508239376
21
-0.840083543791368
31
0.000000000000000
  0
LINE
  5
F104FF
330
F10500
100
AcDbEntity
8
Geo
100
AcDbLine
10
-21.9238508239376
20
-0.840083543791368
30
0.000000000000000
11
-21.8238508239376
21
-0.851348215619588
31
0.000000000000000
  0
LINE
  5
F10501
330
F10502
100
AcDbEntity
8
Geo
100
AcDbLine
10
-21.8238508239376
20
-0.851348215619588
30
0.000000000000000
11
-21.7238508239376
21
-0.861370004063255
31
0.000000000000000
  0
LINE
  5
F10503
330
F10504
100
AcDbEntity
8
Geo
100
AcDbLine
10
-21.7238508239376
20
-0.861370004063255
30
0.000000000000000
11
-21.6238508239376
21
-0.870147343238313
31
0.000000000000000
  0
LINE
  5
F10505
330
F10506
100
AcDbEntity
8
Geo
100
AcDbLine
10
-21.6238508239376
20
-0.870147343238313
30
0.000000000000000
11
-21.5238508239376
21
-0.877678861703373
31
0.000000000000000
  0
LINE
  5
F10507
330
F10508
100
AcDbEntity
8
Geo
100
AcDbLine
10
-21.5238508239376
20
-0.877678861703373
30
0.000000000000000
11
-21.4238508239376
21
-0.883963382673998
31
0.000000000000000
  0
LINE
  5
F10509
330
F1050A
100
AcDbEntity
8
Geo
100
AcDbLine
10
-21.4238508239376
20
-0.883963382673998
30
0.000000000000000
11
-21.3238508239376
21
-0.888999924206575
31
0.000000000000000
  0
LINE
  5
F1050B
330
F1050C
100
AcDbEntity
8
Geo
100
AcDbLine
10
-21.3238508239376
20
-0.888999924206575
30
0.000000000000000
11
-21.2238508239376
21
-0.892787699351731
31
0.000000000000000
  0
LINE
  5
F1050D
330
F1050E
100
AcDbEntity
8
Geo
100
AcDbLine
10
-21.2238508239376
20
-0.892787699351731
30
0.000000000000000
11
-21.1238508239376
21
-0.895326116277310
31
0.000000000000000
  0
LINE
  5
F1050F
330
F10510
100
AcDbEntity
8
Geo
100
AcDbLine
10
-21.1238508239376
20
-0.895326116277310
30
0.000000000000000
11
-21.0238508239376
21
-0.896614778360832
31
0.000000000000000
  0
LINE
  5
F10511
330
F10512
100
AcDbEntity
8
Geo
100
AcDbLine
10
-21.0238508239376
20
-0.896614778360832
30
0.000000000000000
11
-20.9707543726146
21
-0.896790980052032
31
0.000000000000000
  0
LINE
  5
F10513
330
F10514
100
AcDbEntity
8
Geo
100
AcDbLine
10
-16.0238508239376
20
4.70694097043141
30
0.000000000000000
11
-15.9238508239376
21
4.61172208285319
31
0.000000000000000
  0
LINE
  5
F10515
330
F10516
100
AcDbEntity
8
Geo
100
AcDbLine
10
-15.9238508239376
20
4.61172208285319
30
0.000000000000000
11
-15.8238508239376
21
4.51689248503998
31
0.000000000000000
  0
LINE
  5
F10517
330
F10518
100
AcDbEntity
8
Geo
100
AcDbLine
10
-15.8238508239376
20
4.51689248503998
30
0.000000000000000
11
-15.7238508239376
21
4.42246699392350
31
0.000000000000000
  0
LINE
  5
F10519
330
F1051A
100
AcDbEntity
8
Geo
100
AcDbLine
10
-15.7238508239376
20
4.42246699392350
30
0.000000000000000
11
-15.6238508239376
21
4.32846036329488
31
0.000000000000000
  0
LINE
  5
F1051B
330
F1051C
100
AcDbEntity
8
Geo
100
AcDbLine
10
-15.6238508239376
20
4.32846036329488
30
0.000000000000000
11
-15.5238508239376
21
4.23488728150180
31
0.000000000000000
  0
LINE
  5
F1051D
330
F1051E
100
AcDbEntity
8
Geo
100
AcDbLine
10
-15.5238508239376
20
4.23488728150180
30
0.000000000000000
11
-15.4238508239376
21
4.14176236917018
31
0.000000000000000
  0
LINE
  5
F1051F
330
F10520
100
AcDbEntity
8
Geo
100
AcDbLine
10
-15.4238508239376
20
4.14176236917018
30
0.000000000000000
11
-15.3238508239376
21
4.04910017699687
31
0.000000000000000
  0
LINE
  5
F10521
330
F10522
100
AcDbEntity
8
Geo
100
AcDbLine
10
-15.3238508239376
20
4.04910017699687
30
0.000000000000000
11
-15.2238508239376
21
3.95691518375295
31
0.000000000000000
  0
LINE
  5
F10523
330
F10524
100
AcDbEntity
8
Geo
100
AcDbLine
10
-15.2238508239376
20
3.95691518375295
30
0.000000000000000
11
-15.1238508239376
21
3.86522179484361
31
0.000000000000000
  0
LINE
  5
F10525
330
F10526
100
AcDbEntity
8
Geo
100
AcDbLine
10
-15.1238508239376
20
3.86522179484361
30
0.000000000000000
11
-15.0238508239376
21
3.77403434217347
31
0.000000000000000
  0
LINE
  5
F10527
330
F10528
100
AcDbEntity
8
Geo
100
AcDbLine
10
-15.0238508239376
20
3.77403434217347
30
0.000000000000000
11
-14.9238508239376
21
3.68336708678158
31
0.000000000000000
  0
LINE
  5
F10529
330
F1052A
100
AcDbEntity
8
Geo
100
AcDbLine
10
-14.9238508239376
20
3.68336708678158
30
0.000000000000000
11
-14.8238508239376
21
3.59323422688497
31
0.000000000000000
  0
LINE
  5
F1052B
330
F1052C
100
AcDbEntity
8
Geo
100
AcDbLine
10
-14.8238508239376
20
3.59323422688497
30
0.000000000000000
11
-14.7238508239376
21
3.50364991579226
31
0.000000000000000
  0
LINE
  5
F1052D
330
F1052E
100
AcDbEntity
8
Geo
100
AcDbLine
10
-14.7238508239376
20
3.50364991579226
30
0.000000000000000
11
-14.6238508239376
21
3.41462829684220
31
0.000000000000000
  0
LINE
  5
F1052F
330
F10530
100
AcDbEntity
8
Geo
100
AcDbLine
10
-14.6238508239376
20
3.41462829684220
30
0.000000000000000
11
-14.5238508239376
21
3.32618356634976
31
0.000000000000000
  0
LINE
  5
F10531
330
F10532
100
AcDbEntity
8
Geo
100
AcDbLine
10
-14.5238508239376
20
3.32618356634976
30
0.000000000000000
11
-14.4238508239376
21
3.23833008080430
31
0.000000000000000
  0
LINE
  5
F10533
330
F10534
100
AcDbEntity
8
Geo
100
AcDbLine
10
-14.4238508239376
20
3.23833008080430
30
0.000000000000000
11
-14.3238508239376
21
3.15108253159431
31
0.000000000000000
  0
LINE
  5
F10535
330
F10536
100
AcDbEntity
8
Geo
100
AcDbLine
10
-14.3238508239376
20
3.15108253159431
30
0.000000000000000
11
-14.2238508239376
21
3.06445621969780
31
0.000000000000000
  0
LINE
  5
F10537
330
F10538
100
AcDbEntity
8
Geo
100
AcDbLine
10
-14.2238508239376
20
3.06445621969780
30
0.000000000000000
11
-14.1238508239376
21
2.97846747446723
31
0.000000000000000
  0
LINE
  5
F10539
330
F1053A
100
AcDbEntity
8
Geo
100
AcDbLine
10
-14.1238508239376
20
2.97846747446723
30
0.000000000000000
11
-14.0238508239376
21
2.89313427526617
31
0.000000000000000
  0
LINE
  5
F1053B
330
F1053C
100
AcDbEntity
8
Geo
100
AcDbLine
10
-14.0238508239376
20
2.89313427526617
30
0.000000000000000
11
-13.9238508239376
21
2.80847715270723
31
0.000000000000000
  0
LINE
  5
F1053D
330
F1053E
100
AcDbEntity
8
Geo
100
AcDbLine
10
-13.9238508239376
20
2.80847715270723
30
0.000000000000000
11
-13.8238508239376
21
2.72452046803437
31
0.000000000000000
  0
LINE
  5
F1053F
330
F10540
100
AcDbEntity
8
Geo
100
AcDbLine
10
-13.8238508239376
20
2.72452046803437
30
0.000000000000000
11
-13.7238508239376
21
2.64129419523177
31
0.000000000000000
  0
LINE
  5
F10541
330
F10542
100
AcDbEntity
8
Geo
100
AcDbLine
10
-13.7238508239376
20
2.64129419523177
30
0.000000000000000
11
-13.6238508239376
21
2.55883636118544
31
0.000000000000000
  0
LINE
  5
F10543
330
F10544
100
AcDbEntity
8
Geo
100
AcDbLine
10
-13.6238508239376
20
2.55883636118544
30
0.000000000000000
11
-13.5238508239376
21
2.47719633517391
31
0.000000000000000
  0
LINE
  5
F10545
330
F10546
100
AcDbEntity
8
Geo
100
AcDbLine
10
-13.5238508239376
20
2.47719633517391
30
0.000000000000000
11
-13.4238508239376
21
2.39643920071391
31
0.000000000000000
  0
LINE
  5
F10547
330
F10548
100
AcDbEntity
8
Geo
100
AcDbLine
10
-13.4238508239376
20
2.39643920071391
30
0.000000000000000
11
-13.3238508239376
21
2.31665149113991
31
0.000000000000000
  0
LINE
  5
F10549
330
F1054A
100
AcDbEntity
8
Geo
100
AcDbLine
10
-13.3238508239376
20
2.31665149113991
30
0.000000000000000
11
-13.2238508239376
21
2.23794862647265
31
0.000000000000000
  0
LINE
  5
F1054B
330
F1054C
100
AcDbEntity
8
Geo
100
AcDbLine
10
-13.2238508239376
20
2.23794862647265
30
0.000000000000000
11
-13.1238508239376
21
2.16048445514040
31
0.000000000000000
  0
LINE
  5
F1054D
330
F1054E
100
AcDbEntity
8
Geo
100
AcDbLine
10
-13.1238508239376
20
2.16048445514040
30
0.000000000000000
11
-13.0238508239376
21
2.08446338339218
31
0.000000000000000
  0
LINE
  5
F1054F
330
F10550
100
AcDbEntity
8
Geo
100
AcDbLine
10
-13.0238508239376
20
2.08446338339218
30
0.000000000000000
11
-12.9238508239376
21
2.01015567369643
31
0.000000000000000
  0
LINE
  5
F10551
330
F10552
100
AcDbEntity
8
Geo
100
AcDbLine
10
-12.9238508239376
20
2.01015567369643
30
0.000000000000000
11
-12.8238508239376
21
1.93791662113448
31
0.000000000000000
  0
LINE
  5
F10553
330
F10554
100
AcDbEntity
8
Geo
100
AcDbLine
10
-12.8238508239376
20
1.93791662113448
30
0.000000000000000
11
-12.7238508239376
21
1.86821049069600
31
0.000000000000000
  0
LINE
  5
F10555
330
F10556
100
AcDbEntity
8
Geo
100
AcDbLine
10
-12.7238508239376
20
1.86821049069600
30
0.000000000000000
11
-12.6238508239376
21
1.80164034628277
31
0.000000000000000
  0
LINE
  5
F10557
330
F10558
100
AcDbEntity
8
Geo
100
AcDbLine
10
-12.6238508239376
20
1.80164034628277
30
0.000000000000000
11
-12.5238508239376
21
1.73898526889788
31
0.000000000000000
  0
LINE
  5
F10559
330
F1055A
100
AcDbEntity
8
Geo
100
AcDbLine
10
-12.5238508239376
20
1.73898526889788
30
0.000000000000000
11
-12.4238508239376
21
1.68124701734595
31
0.000000000000000
  0
LINE
  5
F1055B
330
F1055C
100
AcDbEntity
8
Geo
100
AcDbLine
10
-12.4238508239376
20
1.68124701734595
30
0.000000000000000
11
-12.3238508239376
21
1.62970903783376
31
0.000000000000000
  0
LINE
  5
F1055D
330
F1055E
100
AcDbEntity
8
Geo
100
AcDbLine
10
-12.3238508239376
20
1.62970903783376
30
0.000000000000000
11
-12.2238508239376
21
1.58601204039352
31
0.000000000000000
  0
LINE
  5
F1055F
330
F10560
100
AcDbEntity
8
Geo
100
AcDbLine
10
-12.2238508239376
20
1.58601204039352
30
0.000000000000000
11
-12.1238508239376
21
1.55225236295203
31
0.000000000000000
  0
LINE
  5
F10561
330
F10562
100
AcDbEntity
8
Geo
100
AcDbLine
10
-12.1238508239376
20
1.55225236295203
30
0.000000000000000
11
-12.0238508239376
21
1.53111236044282
31
0.000000000000000
  0
LINE
  5
F10563
330
F10564
100
AcDbEntity
8
Geo
100
AcDbLine
10
-12.0238508239376
20
1.53111236044282
30
0.000000000000000
11
-11.9238508239376
21
1.52603650580782
31
0.000000000000000
  0
LINE
  5
F10565
330
F10566
100
AcDbEntity
8
Geo
100
AcDbLine
10
-11.9238508239376
20
1.52603650580782
30
0.000000000000000
11
-11.8238508239376
21
1.54147326252115
31
0.000000000000000
  0
LINE
  5
F10567
330
F10568
100
AcDbEntity
8
Geo
100
AcDbLine
10
-11.8238508239376
20
1.54147326252115
30
0.000000000000000
11
-11.7238508239376
21
1.58321153653878
31
0.000000000000000
  0
LINE
  5
F10569
330
F1056A
100
AcDbEntity
8
Geo
100
AcDbLine
10
-11.7238508239376
20
1.58321153653878
30
0.000000000000000
11
-11.6238508239376
21
1.65885175095870
31
0.000000000000000
  0
LINE
  5
F1056B
330
F1056C
100
AcDbEntity
8
Geo
100
AcDbLine
10
-11.6238508239376
20
1.65885175095870
30
0.000000000000000
11
-11.5238508239376
21
1.77846435830098
31
0.000000000000000
  0
LINE
  5
F1056D
330
F1056E
100
AcDbEntity
8
Geo
100
AcDbLine
10
-11.5238508239376
20
1.77846435830098
30
0.000000000000000
11
-11.4238508239376
21
1.95549929425161
31
0.000000000000000
  0
LINE
  5
F1056F
330
F10570
100
AcDbEntity
8
Geo
100
AcDbLine
10
-11.4238508239376
20
1.95549929425161
30
0.000000000000000
11
-11.3238508239376
21
2.20800878575389
31
0.000000000000000
  0
LINE
  5
F10571
330
F10572
100
AcDbEntity
8
Geo
100
AcDbLine
10
-11.3238508239376
20
2.20800878575389
30
0.000000000000000
11
-11.2238508239376
21
2.56021031543746
31
0.000000000000000
  0
LINE
  5
F10573
330
F10574
100
AcDbEntity
8
Geo
100
AcDbLine
10
-11.2238508239376
20
2.56021031543746
30
0.000000000000000
11
-11.1238508239376
21
3.04429703627127
31
0.000000000000000
  0
LINE
  5
F10575
330
F10576
100
AcDbEntity
8
Geo
100
AcDbLine
10
-11.1238508239376
20
3.04429703627127
30
0.000000000000000
11
-11.0238508239376
21
3.70209868722568
31
0.000000000000000
  0
LINE
  5
F10577
330
F10578
100
AcDbEntity
8
Geo
100
AcDbLine
10
-11.0238508239376
20
3.70209868722568
30
0.000000000000000
11
-11.0238508239376
21
3.88514045313916
31
0.000000000000000
  0
LINE
  5
F10579
330
F1057A
100
AcDbEntity
8
Geo
100
AcDbLine
10
-11.0238508239376
20
3.88514045313916
30
0.000000000000000
11
-11.1238508239376
21
4.61065374312862
31
0.000000000000000
  0
LINE
  5
F1057B
330
F1057C
100
AcDbEntity
8
Geo
100
AcDbLine
10
-11.1238508239376
20
4.61065374312862
30
0.000000000000000
11
-11.2238508239376
21
5.29562842363258
31
0.000000000000000
  0
LINE
  5
F1057D
330
F1057E
100
AcDbEntity
8
Geo
100
AcDbLine
10
-11.2238508239376
20
5.29562842363258
30
0.000000000000000
11
-11.3238508239376
21
5.93502474167298
31
0.000000000000000
  0
LINE
  5
F1057F
330
F10580
100
AcDbEntity
8
Geo
100
AcDbLine
10
-11.3238508239376
20
5.93502474167298
30
0.000000000000000
11
-11.4238508239376
21
6.52668656646753
31
0.000000000000000
  0
LINE
  5
F10581
330
F10582
100
AcDbEntity
8
Geo
100
AcDbLine
10
-11.4238508239376
20
6.52668656646753
30
0.000000000000000
11
-11.5238508239376
21
7.07052590171671
31
0.000000000000000
  0
LINE
  5
F10583
330
F10584
100
AcDbEntity
8
Geo
100
AcDbLine
10
-11.5238508239376
20
7.07052590171671
30
0.000000000000000
11
-11.6238508239376
21
7.56788197909120
31
0.000000000000000
  0
LINE
  5
F10585
330
F10586
100
AcDbEntity
8
Geo
100
AcDbLine
10
-11.6238508239376
20
7.56788197909120
30
0.000000000000000
11
-11.7238508239376
21
8.02103010947045
31
0.000000000000000
  0
LINE
  5
F10587
330
F10588
100
AcDbEntity
8
Geo
100
AcDbLine
10
-11.7238508239376
20
8.02103010947045
30
0.000000000000000
11
-11.8238508239376
21
8.43281408498976
31
0.000000000000000
  0
LINE
  5
F10589
330
F1058A
100
AcDbEntity
8
Geo
100
AcDbLine
10
-11.8238508239376
20
8.43281408498976
30
0.000000000000000
11
-11.9238508239376
21
8.80637750490548
31
0.000000000000000
  0
LINE
  5
F1058B
330
F1058C
100
AcDbEntity
8
Geo
100
AcDbLine
10
-11.9238508239376
20
8.80637750490548
30
0.000000000000000
11
-12.0238508239376
21
9.14497239033700
31
0.000000000000000
  0
LINE
  5
F1058D
330
F1058E
100
AcDbEntity
8
Geo
100
AcDbLine
10
-12.0238508239376
20
9.14497239033700
30
0.000000000000000
11
-12.1238508239376
21
9.45182691471592
31
0.000000000000000
  0
LINE
  5
F1058F
330
F10590
100
AcDbEntity
8
Geo
100
AcDbLine
10
-12.1238508239376
20
9.45182691471592
30
0.000000000000000
11
-12.2238508239376
21
9.73005747530146
31
0.000000000000000
  0
LINE
  5
F10591
330
F10592
100
AcDbEntity
8
Geo
100
AcDbLine
10
-12.2238508239376
20
9.73005747530146
30
0.000000000000000
11
-12.3238508239376
21
9.98261339639065
31
0.000000000000000
  0
LINE
  5
F10593
330
F10594
100
AcDbEntity
8
Geo
100
AcDbLine
10
-12.3238508239376
20
9.98261339639065
30
0.000000000000000
11
-12.4238508239376
21
10.2122451776683
31
0.000000000000000
  0
LINE
  5
F10595
330
F10596
100
AcDbEntity
8
Geo
100
AcDbLine
10
-12.4238508239376
20
10.2122451776683
30
0.000000000000000
11
-12.5238508239376
21
10.4214893649127
31
0.000000000000000
  0
LINE
  5
F10597
330
F10598
100
AcDbEntity
8
Geo
100
AcDbLine
10
-12.5238508239376
20
10.4214893649127
30
0.000000000000000
11
-12.6238508239376
21
10.6126648572654
31
0.000000000000000
  0
LINE
  5
F10599
330
F1059A
100
AcDbEntity
8
Geo
100
AcDbLine
10
-12.6238508239376
20
10.6126648572654
30
0.000000000000000
11
-12.7238508239376
21
10.7878768297300
31
0.000000000000000
  0
LINE
  5
F1059B
330
F1059C
100
AcDbEntity
8
Geo
100
AcDbLine
10
-12.7238508239376
20
10.7878768297300
30
0.000000000000000
11
-12.8238508239376
21
10.9490255020520
31
0.000000000000000
  0
LINE
  5
F1059D
330
F1059E
100
AcDbEntity
8
Geo
100
AcDbLine
10
-12.8238508239376
20
10.9490255020520
30
0.000000000000000
11
-12.9238508239376
21
11.0978177840069
31
0.000000000000000
  0
LINE
  5
F1059F
330
F105A0
100
AcDbEntity
8
Geo
100
AcDbLine
10
-12.9238508239376
20
11.0978177840069
30
0.000000000000000
11
-13.0238508239376
21
11.2357804244759
31
0.000000000000000
  0
LINE
  5
F105A1
330
F105A2
100
AcDbEntity
8
Geo
100
AcDbLine
10
-13.0238508239376
20
11.2357804244759
30
0.000000000000000
11
-13.1238508239376
21
11.3642737318073
31
0.000000000000000
  0
LINE
  5
F105A3
330
F105A4
100
AcDbEntity
8
Geo
100
AcDbLine
10
-13.1238508239376
20
11.3642737318073
30
0.000000000000000
11
-13.2238508239376
21
11.4845052523218
31
0.000000000000000
  0
LINE
  5
F105A5
330
F105A6
100
AcDbEntity
8
Geo
100
AcDbLine
10
-13.2238508239376
20
11.4845052523218
30
0.000000000000000
11
-13.3238508239376
21
11.5975430217101
31
0.000000000000000
  0
LINE
  5
F105A7
330
F105A8
100
AcDbEntity
8
Geo
100
AcDbLine
10
-13.3238508239376
20
11.5975430217101
30
0.000000000000000
11
-13.4238508239376
21
11.7043281635928
31
0.000000000000000
  0
LINE
  5
F105A9
330
F105AA
100
AcDbEntity
8
Geo
100
AcDbLine
10
-13.4238508239376
20
11.7043281635928
30
0.000000000000000
11
-13.5238508239376
21
11.8056867185980
31
0.000000000000000
  0
LINE
  5
F105AB
330
F105AC
100
AcDbEntity
8
Geo
100
AcDbLine
10
-13.5238508239376
20
11.8056867185980
30
0.000000000000000
11
-13.6238508239376
21
11.9023406597018
31
0.000000000000000
  0
LINE
  5
F105AD
330
F105AE
100
AcDbEntity
8
Geo
100
AcDbLine
10
-13.6238508239376
20
11.9023406597018
30
0.000000000000000
11
-13.7238508239376
21
11.9949180956695
31
0.000000000000000
  0
LINE
  5
F105AF
330
F105B0
100
AcDbEntity
8
Geo
100
AcDbLine
10
-13.7238508239376
20
11.9949180956695
30
0.000000000000000
11
-13.8238508239376
21
12.0839626920181
31
0.000000000000000
  0
LINE
  5
F105B1
330
F105B2
100
AcDbEntity
8
Geo
100
AcDbLine
10
-13.8238508239376
20
12.0839626920181
30
0.000000000000000
11
-13.9238508239376
21
12.1699423537581
31
0.000000000000000
  0
LINE
  5
F105B3
330
F105B4
100
AcDbEntity
8
Geo
100
AcDbLine
10
-13.9238508239376
20
12.1699423537581
30
0.000000000000000
11
-14.0238508239376
21
12.2532572204729
31
0.000000000000000
  0
LINE
  5
F105B5
330
F105B6
100
AcDbEntity
8
Geo
100
AcDbLine
10
-14.0238508239376
20
12.2532572204729
30
0.000000000000000
11
-14.1238508239376
21
12.3342470251105
31
0.000000000000000
  0
LINE
  5
F105B7
330
F105B8
100
AcDbEntity
8
Geo
100
AcDbLine
10
-14.1238508239376
20
12.3342470251105
30
0.000000000000000
11
-14.2238508239376
21
12.4131978653468
31
0.000000000000000
  0
LINE
  5
F105B9
330
F105BA
100
AcDbEntity
8
Geo
100
AcDbLine
10
-14.2238508239376
20
12.4131978653468
30
0.000000000000000
11
-14.3238508239376
21
12.4903484320561
31
0.000000000000000
  0
LINE
  5
F105BB
330
F105BC
100
AcDbEntity
8
Geo
100
AcDbLine
10
-14.3238508239376
20
12.4903484320561
30
0.000000000000000
11
-14.4238508239376
21
12.5658957343103
31
0.000000000000000
  0
LINE
  5
F105BD
330
F105BE
100
AcDbEntity
8
Geo
100
AcDbLine
10
-14.4238508239376
20
12.5658957343103
30
0.000000000000000
11
-14.5238508239376
21
12.6400003551160
31
0.000000000000000
  0
LINE
  5
F105BF
330
F105C0
100
AcDbEntity
8
Geo
100
AcDbLine
10
-14.5238508239376
20
12.6400003551160
30
0.000000000000000
11
-14.6238508239376
21
12.7127912672057
31
0.000000000000000
  0
LINE
  5
F105C1
330
F105C2
100
AcDbEntity
8
Geo
100
AcDbLine
10
-14.6238508239376
20
12.7127912672057
30
0.000000000000000
11
-14.7238508239376
21
12.7843702338803
31
0.000000000000000
  0
LINE
  5
F105C3
330
F105C4
100
AcDbEntity
8
Geo
100
AcDbLine
10
-14.7238508239376
20
12.7843702338803
30
0.000000000000000
11
-14.8238508239376
21
12.8548158162744
31
0.000000000000000
  0
LINE
  5
F105C5
330
F105C6
100
AcDbEntity
8
Geo
100
AcDbLine
10
-14.8238508239376
20
12.8548158162744
30
0.000000000000000
11
-14.9238508239376
21
12.9241870055218
31
0.000000000000000
  0
LINE
  5
F105C7
330
F105C8
100
AcDbEntity
8
Geo
100
AcDbLine
10
-14.9238508239376
20
12.9241870055218
30
0.000000000000000
11
-15.0238508239376
21
12.9925264961120
31
0.000000000000000
  0
LINE
  5
F105C9
330
F105CA
100
AcDbEntity
8
Geo
100
AcDbLine
10
-15.0238508239376
20
12.9925264961120
30
0.000000000000000
11
-15.1238508239376
21
13.0598636151990
31
0.000000000000000
  0
LINE
  5
F105CB
330
F105CC
100
AcDbEntity
8
Geo
100
AcDbLine
10
-15.1238508239376
20
13.0598636151990
30
0.000000000000000
11
-15.2238508239376
21
13.1262169216619
31
0.000000000000000
  0
LINE
  5
F105CD
330
F105CE
100
AcDbEntity
8
Geo
100
AcDbLine
10
-15.2238508239376
20
13.1262169216619
30
0.000000000000000
11
-15.3238508239376
21
13.1915964882484
31
0.000000000000000
  0
LINE
  5
F105CF
330
F105D0
100
AcDbEntity
8
Geo
100
AcDbLine
10
-15.3238508239376
20
13.1915964882484
30
0.000000000000000
11
-15.4238508239376
21
13.2560058800539
31
0.000000000000000
  0
LINE
  5
F105D1
330
F105D2
100
AcDbEntity
8
Geo
100
AcDbLine
10
-15.4238508239376
20
13.2560058800539
30
0.000000000000000
11
-15.5238508239376
21
13.3194438428246
31
0.000000000000000
  0
LINE
  5
F105D3
330
F105D4
100
AcDbEntity
8
Geo
100
AcDbLine
10
-15.5238508239376
20
13.3194438428246
30
0.000000000000000
11
-15.6238508239376
21
13.3819057150314
31
0.000000000000000
  0
LINE
  5
F105D5
330
F105D6
100
AcDbEntity
8
Geo
100
AcDbLine
10
-15.6238508239376
20
13.3819057150314
30
0.000000000000000
11
-15.7238508239376
21
13.4433845782846
31
0.000000000000000
  0
LINE
  5
F105D7
330
F105D8
100
AcDbEntity
8
Geo
100
AcDbLine
10
-15.7238508239376
20
13.4433845782846
30
0.000000000000000
11
-15.8238508239376
21
13.5038721613807
31
0.000000000000000
  0
LINE
  5
F105D9
330
F105DA
100
AcDbEntity
8
Geo
100
AcDbLine
10
-15.8238508239376
20
13.5038721613807
30
0.000000000000000
11
-15.9238508239376
21
13.5633595140419
31
0.000000000000000
  0
LINE
  5
F105DB
330
F105DC
100
AcDbEntity
8
Geo
100
AcDbLine
10
-15.9238508239376
20
13.5633595140419
30
0.000000000000000
11
-16.0238508239376
21
13.6218374672053
31
0.000000000000000
  0
LINE
  5
F105DD
330
F105DE
100
AcDbEntity
8
Geo
100
AcDbLine
10
-11.5304221959823
20
-0.896790980052032
30
0.000000000000000
11
-11.6238508239376
21
-0.883284518585767
31
0.000000000000000
  0
LINE
  5
F105DF
330
F105E0
100
AcDbEntity
8
Geo
100
AcDbLine
10
-11.6238508239376
20
-0.883284518585767
30
0.000000000000000
11
-11.7238508239376
21
-0.843966858792090
31
0.000000000000000
  0
LINE
  5
F105E1
330
F105E2
100
AcDbEntity
8
Geo
100
AcDbLine
10
-11.7238508239376
20
-0.843966858792090
30
0.000000000000000
11
-11.8238508239376
21
-0.785526643706587
31
0.000000000000000
  0
LINE
  5
F105E3
330
F105E4
100
AcDbEntity
8
Geo
100
AcDbLine
10
-11.8238508239376
20
-0.785526643706587
30
0.000000000000000
11
-11.9238508239376
21
-0.713389799989486
31
0.000000000000000
  0
LINE
  5
F105E5
330
F105E6
100
AcDbEntity
8
Geo
100
AcDbLine
10
-11.9238508239376
20
-0.713389799989486
30
0.000000000000000
11
-12.0238508239376
21
-0.631854156221811
31
0.000000000000000
  0
LINE
  5
F105E7
330
F105E8
100
AcDbEntity
8
Geo
100
AcDbLine
10
-12.0238508239376
20
-0.631854156221811
30
0.000000000000000
11
-12.1238508239376
21
-0.544273832885103
31
0.000000000000000
  0
LINE
  5
F105E9
330
F105EA
100
AcDbEntity
8
Geo
100
AcDbLine
10
-12.1238508239376
20
-0.544273832885103
30
0.000000000000000
11
-12.2238508239376
21
-0.453223153545494
31
0.000000000000000
  0
LINE
  5
F105EB
330
F105EC
100
AcDbEntity
8
Geo
100
AcDbLine
10
-12.2238508239376
20
-0.453223153545494
30
0.000000000000000
11
-12.3238508239376
21
-0.360639212493719
31
0.000000000000000
  0
LINE
  5
F105ED
330
F105EE
100
AcDbEntity
8
Geo
100
AcDbLine
10
-12.3238508239376
20
-0.360639212493719
30
0.000000000000000
11
-12.4238508239376
21
-0.267943818651162
31
0.000000000000000
  0
LINE
  5
F105EF
330
F105F0
100
AcDbEntity
8
Geo
100
AcDbLine
10
-12.4238508239376
20
-0.267943818651162
30
0.000000000000000
11
-12.5238508239376
21
-0.176146415268882
31
0.000000000000000
  0
LINE
  5
F105F1
330
F105F2
100
AcDbEntity
8
Geo
100
AcDbLine
10
-12.5238508239376
20
-0.176146415268882
30
0.000000000000000
11
-12.6238508239376
21
-0.0859299914997091
31
0.000000000000000
  0
LINE
  5
F105F3
330
F105F4
100
AcDbEntity
8
Geo
100
AcDbLine
10
-12.6238508239376
20
-0.0859299914997091
30
0.000000000000000
11
-12.7238508239376
21
0.00227787455893225
31
0.000000000000000
  0
LINE
  5
F105F5
330
F105F6
100
AcDbEntity
8
Geo
100
AcDbLine
10
-12.7238508239376
20
0.00227787455893225
30
0.000000000000000
11
-12.8238508239376
21
0.0882467544773080
31
0.000000000000000
  0
LINE
  5
F105F7
330
F105F8
100
AcDbEntity
8
Geo
100
AcDbLine
10
-12.8238508239376
20
0.0882467544773080
30
0.000000000000000
11
-12.9238508239376
21
0.171895953717031
31
0.000000000000000
  0
LINE
  5
F105F9
330
F105FA
100
AcDbEntity
8
Geo
100
AcDbLine
10
-12.9238508239376
20
0.171895953717031
30
0.000000000000000
11
-13.0238508239376
21
0.253256203579241
31
0.000000000000000
  0
LINE
  5
F105FB
330
F105FC
100
AcDbEntity
8
Geo
100
AcDbLine
10
-13.0238508239376
20
0.253256203579241
30
0.000000000000000
11
-13.1238508239376
21
0.332438936615714
31
0.000000000000000
  0
LINE
  5
F105FD
330
F105FE
100
AcDbEntity
8
Geo
100
AcDbLine
10
-13.1238508239376
20
0.332438936615714
30
0.000000000000000
11
-13.2238508239376
21
0.409611831276758
31
0.000000000000000
  0
LINE
  5
F105FF
330
F10600
100
AcDbEntity
8
Geo
100
AcDbLine
10
-13.2238508239376
20
0.409611831276758
30
0.000000000000000
11
-13.3238508239376
21
0.484979507411776
31
0.000000000000000
  0
LINE
  5
F10601
330
F10602
100
AcDbEntity
8
Geo
100
AcDbLine
10
-13.3238508239376
20
0.484979507411776
30
0.000000000000000
11
-13.4238508239376
21
0.558768430716116
31
0.000000000000000
  0
LINE
  5
F10603
330
F10604
100
AcDbEntity
8
Geo
100
AcDbLine
10
-13.4238508239376
20
0.558768430716116
30
0.000000000000000
11
-13.5238508239376
21
0.631215239535369
31
0.000000000000000
  0
LINE
  5
F10605
330
F10606
100
AcDbEntity
8
Geo
100
AcDbLine
10
-13.5238508239376
20
0.631215239535369
30
0.000000000000000
11
-13.6238508239376
21
0.702557841801046
31
0.000000000000000
  0
LINE
  5
F10607
330
F10608
100
AcDbEntity
8
Geo
100
AcDbLine
10
-13.6238508239376
20
0.702557841801046
30
0.000000000000000
11
-13.7238508239376
21
0.773028744592165
31
0.000000000000000
  0
LINE
  5
F10609
330
F1060A
100
AcDbEntity
8
Geo
100
AcDbLine
10
-13.7238508239376
20
0.773028744592165
30
0.000000000000000
11
-13.8238508239376
21
0.842850175747445
31
0.000000000000000
  0
LINE
  5
F1060B
330
F1060C
100
AcDbEntity
8
Geo
100
AcDbLine
10
-13.8238508239376
20
0.842850175747445
30
0.000000000000000
11
-13.9238508239376
21
0.912230638136462
31
0.000000000000000
  0
LINE
  5
F1060D
330
F1060E
100
AcDbEntity
8
Geo
100
AcDbLine
10
-13.9238508239376
20
0.912230638136462
30
0.000000000000000
11
-14.0238508239376
21
0.981362604668498
31
0.000000000000000
  0
LINE
  5
F1060F
330
F10610
100
AcDbEntity
8
Geo
100
AcDbLine
10
-14.0238508239376
20
0.981362604668498
30
0.000000000000000
11
-14.1238508239376
21
1.05042111778702
31
0.000000000000000
  0
LINE
  5
F10611
330
F10612
100
AcDbEntity
8
Geo
100
AcDbLine
10
-14.1238508239376
20
1.05042111778702
30
0.000000000000000
11
-14.2238508239376
21
1.11956310280512
31
0.000000000000000
  0
LINE
  5
F10613
330
F10614
100
AcDbEntity
8
Geo
100
AcDbLine
10
-14.2238508239376
20
1.11956310280512
30
0.000000000000000
11
-14.3238508239376
21
1.18892724153132
31
0.000000000000000
  0
LINE
  5
F10615
330
F10616
100
AcDbEntity
8
Geo
100
AcDbLine
10
-14.3238508239376
20
1.18892724153132
30
0.000000000000000
11
-14.4238508239376
21
1.25863428257578
31
0.000000000000000
  0
LINE
  5
F10617
330
F10618
100
AcDbEntity
8
Geo
100
AcDbLine
10
-14.4238508239376
20
1.25863428257578
30
0.000000000000000
11
-14.5238508239376
21
1.32878768869681
31
0.000000000000000
  0
LINE
  5
F10619
330
F1061A
100
AcDbEntity
8
Geo
100
AcDbLine
10
-14.5238508239376
20
1.32878768869681
30
0.000000000000000
11
-14.6238508239376
21
1.39947454056946
31
0.000000000000000
  0
LINE
  5
F1061B
330
F1061C
100
AcDbEntity
8
Geo
100
AcDbLine
10
-14.6238508239376
20
1.39947454056946
30
0.000000000000000
11
-14.7238508239376
21
1.47076663131128
31
0.000000000000000
  0
LINE
  5
F1061D
330
F1061E
100
AcDbEntity
8
Geo
100
AcDbLine
10
-14.7238508239376
20
1.47076663131128
30
0.000000000000000
11
-14.8238508239376
21
1.54272169773856
31
0.000000000000000
  0
LINE
  5
F1061F
330
F10620
100
AcDbEntity
8
Geo
100
AcDbLine
10
-14.8238508239376
20
1.54272169773856
30
0.000000000000000
11
-14.9238508239376
21
1.61538474329100
31
0.000000000000000
  0
LINE
  5
F10621
330
F10622
100
AcDbEntity
8
Geo
100
AcDbLine
10
-14.9238508239376
20
1.61538474329100
30
0.000000000000000
11
-15.0238508239376
21
1.68878941439931
31
0.000000000000000
  0
LINE
  5
F10623
330
F10624
100
AcDbEntity
8
Geo
100
AcDbLine
10
-15.0238508239376
20
1.68878941439931
30
0.000000000000000
11
-15.1238508239376
21
1.76295939723601
31
0.000000000000000
  0
LINE
  5
F10625
330
F10626
100
AcDbEntity
8
Geo
100
AcDbLine
10
-15.1238508239376
20
1.76295939723601
30
0.000000000000000
11
-15.2238508239376
21
1.83790980566855
31
0.000000000000000
  0
LINE
  5
F10627
330
F10628
100
AcDbEntity
8
Geo
100
AcDbLine
10
-15.2238508239376
20
1.83790980566855
30
0.000000000000000
11
-15.3238508239376
21
1.91364853414161
31
0.000000000000000
  0
LINE
  5
F10629
330
F1062A
100
AcDbEntity
8
Geo
100
AcDbLine
10
-15.3238508239376
20
1.91364853414161
30
0.000000000000000
11
-15.4238508239376
21
1.99017755140892
31
0.000000000000000
  0
LINE
  5
F1062B
330
F1062C
100
AcDbEntity
8
Geo
100
AcDbLine
10
-15.4238508239376
20
1.99017755140892
30
0.000000000000000
11
-15.5238508239376
21
2.06749411272223
31
0.000000000000000
  0
LINE
  5
F1062D
330
F1062E
100
AcDbEntity
8
Geo
100
AcDbLine
10
-15.5238508239376
20
2.06749411272223
30
0.000000000000000
11
-15.6238508239376
21
2.14559186942604
31
0.000000000000000
  0
LINE
  5
F1062F
330
F10630
100
AcDbEntity
8
Geo
100
AcDbLine
10
-15.6238508239376
20
2.14559186942604
30
0.000000000000000
11
-15.7238508239376
21
2.22446185602657
31
0.000000000000000
  0
LINE
  5
F10631
330
F10632
100
AcDbEntity
8
Geo
100
AcDbLine
10
-15.7238508239376
20
2.22446185602657
30
0.000000000000000
11
-15.8238508239376
21
2.30409333579270
31
0.000000000000000
  0
LINE
  5
F10633
330
F10634
100
AcDbEntity
8
Geo
100
AcDbLine
10
-15.8238508239376
20
2.30409333579270
30
0.000000000000000
11
-15.9238508239376
21
2.38447448687052
31
0.000000000000000
  0
LINE
  5
F10635
330
F10636
100
AcDbEntity
8
Geo
100
AcDbLine
10
-15.9238508239376
20
2.38447448687052
30
0.000000000000000
11
-16.0238508239376
21
2.46559291179414
31
0.000000000000000
  0
LINE
  5
F10637
330
F10638
100
AcDbEntity
8
Geo
100
AcDbLine
10
-16.0238508239376
20
14.7358952728255
30
0.000000000000000
11
-15.9238508239376
21
14.7053464063865
31
0.000000000000000
  0
LINE
  5
F10639
330
F1063A
100
AcDbEntity
8
Geo
100
AcDbLine
10
-15.9238508239376
20
14.7053464063865
30
0.000000000000000
11
-15.8238508239376
21
14.6736097214473
31
0.000000000000000
  0
LINE
  5
F1063B
330
F1063C
100
AcDbEntity
8
Geo
100
AcDbLine
10
-15.8238508239376
20
14.6736097214473
30
0.000000000000000
11
-15.7238508239376
21
14.6406901768005
31
0.000000000000000
  0
LINE
  5
F1063D
330
F1063E
100
AcDbEntity
8
Geo
100
AcDbLine
10
-15.7238508239376
20
14.6406901768005
30
0.000000000000000
11
-15.6238508239376
21
14.6065929160579
31
0.000000000000000
  0
LINE
  5
F1063F
330
F10640
100
AcDbEntity
8
Geo
100
AcDbLine
10
-15.6238508239376
20
14.6065929160579
30
0.000000000000000
11
-15.5238508239376
21
14.5713232668484
31
0.000000000000000
  0
LINE
  5
F10641
330
F10642
100
AcDbEntity
8
Geo
100
AcDbLine
10
-15.5238508239376
20
14.5713232668484
30
0.000000000000000
11
-15.4238508239376
21
14.5348867399919
31
0.000000000000000
  0
LINE
  5
F10643
330
F10644
100
AcDbEntity
8
Geo
100
AcDbLine
10
-15.4238508239376
20
14.5348867399919
30
0.000000000000000
11
-15.3238508239376
21
14.4972890286717
31
0.000000000000000
  0
LINE
  5
F10645
330
F10646
100
AcDbEntity
8
Geo
100
AcDbLine
10
-15.3238508239376
20
14.4972890286717
30
0.000000000000000
11
-15.2238508239376
21
14.4585360076706
31
0.000000000000000
  0
LINE
  5
F10647
330
F10648
100
AcDbEntity
8
Geo
100
AcDbLine
10
-15.2238508239376
20
14.4585360076706
30
0.000000000000000
11
-15.1238508239376
21
14.4186337328448
31
0.000000000000000
  0
LINE
  5
F10649
330
F1064A
100
AcDbEntity
8
Geo
100
AcDbLine
10
-15.1238508239376
20
14.4186337328448
30
0.000000000000000
11
-15.0238508239376
21
14.3775884412364
31
0.000000000000000
  0
LINE
  5
F1064B
330
F1064C
100
AcDbEntity
8
Geo
100
AcDbLine
10
-15.0238508239376
20
14.3775884412364
30
0.000000000000000
11
-14.9238508239376
21
14.3354065526594
31
0.000000000000000
  0
LINE
  5
F1064D
330
F1064E
100
AcDbEntity
8
Geo
100
AcDbLine
10
-14.9238508239376
20
14.3354065526594
30
0.000000000000000
11
-14.8238508239376
21
14.2920946743497
31
0.000000000000000
  0
LINE
  5
F1064F
330
F10650
100
AcDbEntity
8
Geo
100
AcDbLine
10
-14.8238508239376
20
14.2920946743497
30
0.000000000000000
11
-14.7238508239376
21
14.2476596115393
31
0.000000000000000
  0
LINE
  5
F10651
330
F10652
100
AcDbEntity
8
Geo
100
AcDbLine
10
-14.7238508239376
20
14.2476596115393
30
0.000000000000000
11
-14.6238508239376
21
14.2021083888032
31
0.000000000000000
  0
LINE
  5
F10653
330
F10654
100
AcDbEntity
8
Geo
100
AcDbLine
10
-14.6238508239376
20
14.2021083888032
30
0.000000000000000
11
-14.5238508239376
21
14.1554482900572
31
0.000000000000000
  0
LINE
  5
F10655
330
F10656
100
AcDbEntity
8
Geo
100
AcDbLine
10
-14.5238508239376
20
14.1554482900572
30
0.000000000000000
11
-14.4238508239376
21
14.1076869295258
31
0.000000000000000
  0
LINE
  5
F10657
330
F10658
100
AcDbEntity
8
Geo
100
AcDbLine
10
-14.4238508239376
20
14.1076869295258
30
0.000000000000000
11
-14.3238508239376
21
14.0588323723193
31
0.000000000000000
  0
LINE
  5
F10659
330
F1065A
100
AcDbEntity
8
Geo
100
AcDbLine
10
-14.3238508239376
20
14.0588323723193
30
0.000000000000000
11
-14.2238508239376
21
14.0088933320543
31
0.000000000000000
  0
LINE
  5
F1065B
330
F1065C
100
AcDbEntity
8
Geo
100
AcDbLine
10
-14.2238508239376
20
14.0088933320543
30
0.000000000000000
11
-14.1238508239376
21
13.9578794848927
31
0.000000000000000
  0
LINE
  5
F1065D
330
F1065E
100
AcDbEntity
8
Geo
100
AcDbLine
10
-14.1238508239376
20
13.9578794848927
30
0.000000000000000
11
-14.0238508239376
21
13.9058019553067
31
0.000000000000000
  0
LINE
  5
F1065F
330
F10660
100
AcDbEntity
8
Geo
100
AcDbLine
10
-14.0238508239376
20
13.9058019553067
30
0.000000000000000
11
-13.9238508239376
21
13.8526740497490
31
0.000000000000000
  0
LINE
  5
F10661
330
F10662
100
AcDbEntity
8
Geo
100
AcDbLine
10
-13.9238508239376
20
13.8526740497490
30
0.000000000000000
11
-13.8238508239376
21
13.7985123413324
31
0.000000000000000
  0
LINE
  5
F10663
330
F10664
100
AcDbEntity
8
Geo
100
AcDbLine
10
-13.8238508239376
20
13.7985123413324
30
0.000000000000000
11
-13.7238508239376
21
13.7433382428606
31
0.000000000000000
  0
LINE
  5
F10665
330
F10666
100
AcDbEntity
8
Geo
100
AcDbLine
10
-13.7238508239376
20
13.7433382428606
30
0.000000000000000
11
-13.6238508239376
21
13.6871802484917
31
0.000000000000000
  0
LINE
  5
F10667
330
F10668
100
AcDbEntity
8
Geo
100
AcDbLine
10
-13.6238508239376
20
13.6871802484917
30
0.000000000000000
11
-13.5238508239376
21
13.6300770774706
31
0.000000000000000
  0
LINE
  5
F10669
330
F1066A
100
AcDbEntity
8
Geo
100
AcDbLine
10
-13.5238508239376
20
13.6300770774706
30
0.000000000000000
11
-13.4238508239376
21
13.5720820182953
31
0.000000000000000
  0
LINE
  5
F1066B
330
F1066C
100
AcDbEntity
8
Geo
100
AcDbLine
10
-13.4238508239376
20
13.5720820182953
30
0.000000000000000
11
-13.3238508239376
21
13.5132688498880
31
0.000000000000000
  0
LINE
  5
F1066D
330
F1066E
100
AcDbEntity
8
Geo
100
AcDbLine
10
-13.3238508239376
20
13.5132688498880
30
0.000000000000000
11
-13.2238508239376
21
13.4537398090774
31
0.000000000000000
  0
LINE
  5
F1066F
330
F10670
100
AcDbEntity
8
Geo
100
AcDbLine
10
-13.2238508239376
20
13.4537398090774
30
0.000000000000000
11
-13.1238508239376
21
13.3936361816316
31
0.000000000000000
  0
LINE
  5
F10671
330
F10672
100
AcDbEntity
8
Geo
100
AcDbLine
10
-13.1238508239376
20
13.3936361816316
30
0.000000000000000
11
-13.0238508239376
21
13.3331522167638
31
0.000000000000000
  0
LINE
  5
F10673
330
F10674
100
AcDbEntity
8
Geo
100
AcDbLine
10
-13.0238508239376
20
13.3331522167638
30
0.000000000000000
11
-12.9238508239376
21
13.2725532000238
31
0.000000000000000
  0
LINE
  5
F10675
330
F10676
100
AcDbEntity
8
Geo
100
AcDbLine
10
-12.9238508239376
20
13.2725532000238
30
0.000000000000000
11
-12.8238508239376
21
13.2121986610228
31
0.000000000000000
  0
LINE
  5
F10677
330
F10678
100
AcDbEntity
8
Geo
100
AcDbLine
10
-12.8238508239376
20
13.2121986610228
30
0.000000000000000
11
-12.7238508239376
21
13.1525718292635
31
0.000000000000000
  0
LINE
  5
F10679
330
F1067A
100
AcDbEntity
8
Geo
100
AcDbLine
10
-12.7238508239376
20
13.1525718292635
30
0.000000000000000
11
-12.6238508239376
21
13.0943165635005
31
0.000000000000000
  0
LINE
  5
F1067B
330
F1067C
100
AcDbEntity
8
Geo
100
AcDbLine
10
-12.6238508239376
20
13.0943165635005
30
0.000000000000000
11
-12.5238508239376
21
13.0382830336962
31
0.000000000000000
  0
LINE
  5
F1067D
330
F1067E
100
AcDbEntity
8
Geo
100
AcDbLine
10
-12.5238508239376
20
13.0382830336962
30
0.000000000000000
11
-12.4238508239376
21
12.9855833740961
31
0.000000000000000
  0
LINE
  5
F1067F
330
F10680
100
AcDbEntity
8
Geo
100
AcDbLine
10
-12.4238508239376
20
12.9855833740961
30
0.000000000000000
11
-12.3238508239376
21
12.9376582609471
31
0.000000000000000
  0
LINE
  5
F10681
330
F10682
100
AcDbEntity
8
Geo
100
AcDbLine
10
-12.3238508239376
20
12.9376582609471
30
0.000000000000000
11
-12.2238508239376
21
12.8963547533812
31
0.000000000000000
  0
LINE
  5
F10683
330
F10684
100
AcDbEntity
8
Geo
100
AcDbLine
10
-12.2238508239376
20
12.8963547533812
30
0.000000000000000
11
-12.1238508239376
21
12.8640145358591
31
0.000000000000000
  0
LINE
  5
F10685
330
F10686
100
AcDbEntity
8
Geo
100
AcDbLine
10
-12.1238508239376
20
12.8640145358591
30
0.000000000000000
11
-12.0238508239376
21
12.8435695327670
31
0.000000000000000
  0
LINE
  5
F10687
330
F10688
100
AcDbEntity
8
Geo
100
AcDbLine
10
-12.0238508239376
20
12.8435695327670
30
0.000000000000000
11
-11.9238508239376
21
12.8386381013262
31
0.000000000000000
  0
LINE
  5
F10689
330
F1068A
100
AcDbEntity
8
Geo
100
AcDbLine
10
-11.9238508239376
20
12.8386381013262
30
0.000000000000000
11
-11.8238508239376
21
12.8536086029822
31
0.000000000000000
  0
LINE
  5
F1068B
330
F1068C
100
AcDbEntity
8
Geo
100
AcDbLine
10
-11.8238508239376
20
12.8536086029822
30
0.000000000000000
11
-11.7238508239376
21
12.8936863563302
31
0.000000000000000
  0
LINE
  5
F1068D
330
F1068E
100
AcDbEntity
8
Geo
100
AcDbLine
10
-11.7238508239376
20
12.8936863563302
30
0.000000000000000
11
-11.6238508239376
21
12.9648618523497
31
0.000000000000000
  0
LINE
  5
F1068F
330
F10690
100
AcDbEntity
8
Geo
100
AcDbLine
10
-11.6238508239376
20
12.9648618523497
30
0.000000000000000
11
-11.5238508239376
21
13.0737277820206
31
0.000000000000000
  0
LINE
  5
F10691
330
F10692
100
AcDbEntity
8
Geo
100
AcDbLine
10
-11.5238508239376
20
13.0737277820206
30
0.000000000000000
11
-11.4238508239376
21
13.2270219318494
31
0.000000000000000
  0
LINE
  5
F10693
330
F10694
100
AcDbEntity
8
Geo
100
AcDbLine
10
-11.4238508239376
20
13.2270219318494
30
0.000000000000000
11
-11.3238508239376
21
13.4306899300058
31
0.000000000000000
  0
LINE
  5
F10695
330
F10696
100
AcDbEntity
8
Geo
100
AcDbLine
10
-11.3238508239376
20
13.4306899300058
30
0.000000000000000
11
-11.2238508239376
21
13.6881283642388
31
0.000000000000000
  0
LINE
  5
F10697
330
F10698
100
AcDbEntity
8
Geo
100
AcDbLine
10
-11.2238508239376
20
13.6881283642388
30
0.000000000000000
11
-11.1238508239376
21
13.9970637840669
31
0.000000000000000
  0
LINE
  5
F10699
330
F1069A
100
AcDbEntity
8
Geo
100
AcDbLine
10
-11.1238508239376
20
13.9970637840669
30
0.000000000000000
11
-11.0238508239376
21
14.3442343965538
31
0.000000000000000
  0
LINE
  5
F1069B
330
F1069C
100
AcDbEntity
8
Geo
100
AcDbLine
10
-11.0238508239376
20
14.3442343965538
30
0.000000000000000
11
-11.0238508239376
21
14.4274178304146
31
0.000000000000000
  0
LINE
  5
F1069D
330
F1069E
100
AcDbEntity
8
Geo
100
AcDbLine
10
-11.0238508239376
20
14.4274178304146
30
0.000000000000000
11
-11.1238508239376
21
14.7049961908703
31
0.000000000000000
  0
LINE
  5
F1069F
330
F106A0
100
AcDbEntity
8
Geo
100
AcDbLine
10
-11.1238508239376
20
14.7049961908703
30
0.000000000000000
11
-11.2238508239376
21
14.8963247247110
31
0.000000000000000
  0
LINE
  5
F106A1
330
F106A2
100
AcDbEntity
8
Geo
100
AcDbLine
10
-11.2238508239376
20
14.8963247247110
30
0.000000000000000
11
-11.3238508239376
21
15.0174585416645
31
0.000000000000000
  0
LINE
  5
F106A3
330
F106A4
100
AcDbEntity
8
Geo
100
AcDbLine
10
-11.3238508239376
20
15.0174585416645
30
0.000000000000000
11
-11.4238508239376
21
15.0824083444813
31
0.000000000000000
  0
LINE
  5
F106A5
330
F106A6
100
AcDbEntity
8
Geo
100
AcDbLine
10
-11.4238508239376
20
15.0824083444813
30
0.000000000000000
11
-11.5238508239376
21
15.1031422580308
31
0.000000000000000
  0
LINE
  5
F106A7
330
F106A8
100
AcDbEntity
8
Geo
100
AcDbLine
10
-11.5238508239376
20
15.1031422580308
30
0.000000000000000
11
-11.5304221959823
21
15.1032090199480
31
0.000000000000000
  0
LINE
  5
F106A9
330
F106AA
100
AcDbEntity
8
Geo
100
AcDbLine
10
-31.0238508239376
20
6.26706122741604
30
0.000000000000000
11
-30.9238508239376
21
6.18582835180378
31
0.000000000000000
  0
LINE
  5
F106AB
330
F106AC
100
AcDbEntity
8
Geo
100
AcDbLine
10
-30.9238508239376
20
6.18582835180378
30
0.000000000000000
11
-30.8238508239376
21
6.10220298783813
31
0.000000000000000
  0
LINE
  5
F106AD
330
F106AE
100
AcDbEntity
8
Geo
100
AcDbLine
10
-30.8238508239376
20
6.10220298783813
30
0.000000000000000
11
-30.7238508239376
21
6.01619650575721
31
0.000000000000000
  0
LINE
  5
F106AF
330
F106B0
100
AcDbEntity
8
Geo
100
AcDbLine
10
-30.7238508239376
20
6.01619650575721
30
0.000000000000000
11
-30.6238508239376
21
5.92345709930670
31
0.000000000000000
  0
LINE
  5
F106B1
330
F106B2
100
AcDbEntity
8
Geo
100
AcDbLine
10
-30.6238508239376
20
5.92345709930670
30
0.000000000000000
11
-30.5238508239376
21
5.82590329345662
31
0.000000000000000
  0
LINE
  5
F106B3
330
F106B4
100
AcDbEntity
8
Geo
100
AcDbLine
10
-30.5238508239376
20
5.82590329345662
30
0.000000000000000
11
-30.4238508239376
21
5.72854906402764
31
0.000000000000000
  0
LINE
  5
F106B5
330
F106B6
100
AcDbEntity
8
Geo
100
AcDbLine
10
-30.4238508239376
20
5.72854906402764
30
0.000000000000000
11
-30.3238508239376
21
5.63140962242003
31
0.000000000000000
  0
LINE
  5
F106B7
330
F106B8
100
AcDbEntity
8
Geo
100
AcDbLine
10
-30.3238508239376
20
5.63140962242003
30
0.000000000000000
11
-30.2238508239376
21
5.53450014647391
31
0.000000000000000
  0
LINE
  5
F106B9
330
F106BA
100
AcDbEntity
8
Geo
100
AcDbLine
10
-30.2238508239376
20
5.53450014647391
30
0.000000000000000
11
-30.1238508239376
21
5.43783577809775
31
0.000000000000000
  0
LINE
  5
F106BB
330
F106BC
100
AcDbEntity
8
Geo
100
AcDbLine
10
-30.1238508239376
20
5.43783577809775
30
0.000000000000000
11
-30.0238508239376
21
5.34143162090243
31
0.000000000000000
  0
LINE
  5
F106BD
330
F106BE
100
AcDbEntity
8
Geo
100
AcDbLine
10
-30.0238508239376
20
5.34143162090243
30
0.000000000000000
11
-29.9238508239376
21
5.24530273784138
31
0.000000000000000
  0
LINE
  5
F106BF
330
F106C0
100
AcDbEntity
8
Geo
100
AcDbLine
10
-29.9238508239376
20
5.24530273784138
30
0.000000000000000
11
-29.8238508239376
21
5.14946414885702
31
0.000000000000000
  0
LINE
  5
F106C1
330
F106C2
100
AcDbEntity
8
Geo
100
AcDbLine
10
-29.8238508239376
20
5.14946414885702
30
0.000000000000000
11
-29.7238508239376
21
5.05393082853388
31
0.000000000000000
  0
LINE
  5
F106C3
330
F106C4
100
AcDbEntity
8
Geo
100
AcDbLine
10
-29.7238508239376
20
5.05393082853388
30
0.000000000000000
11
-29.6238508239376
21
4.95871770375890
31
0.000000000000000
  0
LINE
  5
F106C5
330
F106C6
100
AcDbEntity
8
Geo
100
AcDbLine
10
-29.6238508239376
20
4.95871770375890
30
0.000000000000000
11
-29.5238508239376
21
4.86383965138912
31
0.000000000000000
  0
LINE
  5
F106C7
330
F106C8
100
AcDbEntity
8
Geo
100
AcDbLine
10
-29.5238508239376
20
4.86383965138912
30
0.000000000000000
11
-29.4238508239376
21
4.76931149592719
31
0.000000000000000
  0
LINE
  5
F106C9
330
F106CA
100
AcDbEntity
8
Geo
100
AcDbLine
10
-29.4238508239376
20
4.76931149592719
30
0.000000000000000
11
-29.3238508239376
21
4.67514800720509
31
0.000000000000000
  0
LINE
  5
F106CB
330
F106CC
100
AcDbEntity
8
Geo
100
AcDbLine
10
-29.3238508239376
20
4.67514800720509
30
0.000000000000000
11
-29.2238508239376
21
4.58136389807635
31
0.000000000000000
  0
LINE
  5
F106CD
330
F106CE
100
AcDbEntity
8
Geo
100
AcDbLine
10
-29.2238508239376
20
4.58136389807635
30
0.000000000000000
11
-29.1238508239376
21
4.48797382211723
31
0.000000000000000
  0
LINE
  5
F106CF
330
F106D0
100
AcDbEntity
8
Geo
100
AcDbLine
10
-29.1238508239376
20
4.48797382211723
30
0.000000000000000
11
-29.0238508239376
21
4.39499237133708
31
0.000000000000000
  0
LINE
  5
F106D1
330
F106D2
100
AcDbEntity
8
Geo
100
AcDbLine
10
-29.0238508239376
20
4.39499237133708
30
0.000000000000000
11
-28.9238508239376
21
4.30243407389843
31
0.000000000000000
  0
LINE
  5
F106D3
330
F106D4
100
AcDbEntity
8
Geo
100
AcDbLine
10
-28.9238508239376
20
4.30243407389843
30
0.000000000000000
11
-28.8238508239376
21
4.21031339184694
31
0.000000000000000
  0
LINE
  5
F106D5
330
F106D6
100
AcDbEntity
8
Geo
100
AcDbLine
10
-28.8238508239376
20
4.21031339184694
30
0.000000000000000
11
-28.7238508239376
21
4.11864471885175
31
0.000000000000000
  0
LINE
  5
F106D7
330
F106D8
100
AcDbEntity
8
Geo
100
AcDbLine
10
-28.7238508239376
20
4.11864471885175
30
0.000000000000000
11
-28.6238508239376
21
4.02744237795654
31
0.000000000000000
  0
LINE
  5
F106D9
330
F106DA
100
AcDbEntity
8
Geo
100
AcDbLine
10
-28.6238508239376
20
4.02744237795654
30
0.000000000000000
11
-28.5238508239376
21
3.93672061934150
31
0.000000000000000
  0
LINE
  5
F106DB
330
F106DC
100
AcDbEntity
8
Geo
100
AcDbLine
10
-28.5238508239376
20
3.93672061934150
30
0.000000000000000
11
-28.4238508239376
21
3.84649361809685
31
0.000000000000000
  0
LINE
  5
F106DD
330
F106DE
100
AcDbEntity
8
Geo
100
AcDbLine
10
-28.4238508239376
20
3.84649361809685
30
0.000000000000000
11
-28.3238508239376
21
3.75677547200798
31
0.000000000000000
  0
LINE
  5
F106DF
330
F106E0
100
AcDbEntity
8
Geo
100
AcDbLine
10
-28.3238508239376
20
3.75677547200798
30
0.000000000000000
11
-28.2238508239376
21
3.66758019935266
31
0.000000000000000
  0
LINE
  5
F106E1
330
F106E2
100
AcDbEntity
8
Geo
100
AcDbLine
10
-28.2238508239376
20
3.66758019935266
30
0.000000000000000
11
-28.1238508239376
21
3.57892173671080
31
0.000000000000000
  0
LINE
  5
F106E3
330
F106E4
100
AcDbEntity
8
Geo
100
AcDbLine
10
-28.1238508239376
20
3.57892173671080
30
0.000000000000000
11
-28.0238508239376
21
3.49081393678680
31
0.000000000000000
  0
LINE
  5
F106E5
330
F106E6
100
AcDbEntity
8
Geo
100
AcDbLine
10
-28.0238508239376
20
3.49081393678680
30
0.000000000000000
11
-27.9238508239376
21
3.40327056624515
31
0.000000000000000
  0
LINE
  5
F106E7
330
F106E8
100
AcDbEntity
8
Geo
100
AcDbLine
10
-27.9238508239376
20
3.40327056624515
30
0.000000000000000
11
-27.8238508239376
21
3.31630530355938
31
0.000000000000000
  0
LINE
  5
F106E9
330
F106EA
100
AcDbEntity
8
Geo
100
AcDbLine
10
-27.8238508239376
20
3.31630530355938
30
0.000000000000000
11
-27.7238508239376
21
3.22993173687486
31
0.000000000000000
  0
LINE
  5
F106EB
330
F106EC
100
AcDbEntity
8
Geo
100
AcDbLine
10
-27.7238508239376
20
3.22993173687486
30
0.000000000000000
11
-27.6238508239376
21
3.14416336188566
31
0.000000000000000
  0
LINE
  5
F106ED
330
F106EE
100
AcDbEntity
8
Geo
100
AcDbLine
10
-27.6238508239376
20
3.14416336188566
30
0.000000000000000
11
-27.5238508239376
21
3.05901357972588
31
0.000000000000000
  0
LINE
  5
F106EF
330
F106F0
100
AcDbEntity
8
Geo
100
AcDbLine
10
-27.5238508239376
20
3.05901357972588
30
0.000000000000000
11
-27.4238508239376
21
2.97449569487574
31
0.000000000000000
  0
LINE
  5
F106F1
330
F106F2
100
AcDbEntity
8
Geo
100
AcDbLine
10
-27.4238508239376
20
2.97449569487574
30
0.000000000000000
11
-27.3238508239376
21
2.89062291308279
31
0.000000000000000
  0
LINE
  5
F106F3
330
F106F4
100
AcDbEntity
8
Geo
100
AcDbLine
10
-27.3238508239376
20
2.89062291308279
30
0.000000000000000
11
-27.2238508239376
21
2.80740833929856
31
0.000000000000000
  0
LINE
  5
F106F5
330
F106F6
100
AcDbEntity
8
Geo
100
AcDbLine
10
-27.2238508239376
20
2.80740833929856
30
0.000000000000000
11
-27.1238508239376
21
2.72486497563090
31
0.000000000000000
  0
LINE
  5
F106F7
330
F106F8
100
AcDbEntity
8
Geo
100
AcDbLine
10
-27.1238508239376
20
2.72486497563090
30
0.000000000000000
11
-27.0238508239376
21
2.64300571931244
31
0.000000000000000
  0
LINE
  5
F106F9
330
F106FA
100
AcDbEntity
8
Geo
100
AcDbLine
10
-27.0238508239376
20
2.64300571931244
30
0.000000000000000
11
-26.9238508239376
21
2.56184336068545
31
0.000000000000000
  0
LINE
  5
F106FB
330
F106FC
100
AcDbEntity
8
Geo
100
AcDbLine
10
-26.9238508239376
20
2.56184336068545
30
0.000000000000000
11
-26.8238508239376
21
2.48139058120334
31
0.000000000000000
  0
LINE
  5
F106FD
330
F106FE
100
AcDbEntity
8
Geo
100
AcDbLine
10
-26.8238508239376
20
2.48139058120334
30
0.000000000000000
11
-26.7238508239376
21
2.40165995144921
31
0.000000000000000
  0
LINE
  5
F106FF
330
F10700
100
AcDbEntity
8
Geo
100
AcDbLine
10
-26.7238508239376
20
2.40165995144921
30
0.000000000000000
11
-26.6238508239376
21
2.32266392917176
31
0.000000000000000
  0
LINE
  5
F10701
330
F10702
100
AcDbEntity
8
Geo
100
AcDbLine
10
-26.6238508239376
20
2.32266392917176
30
0.000000000000000
11
-26.5238508239376
21
2.24441485733875
31
0.000000000000000
  0
LINE
  5
F10703
330
F10704
100
AcDbEntity
8
Geo
100
AcDbLine
10
-26.5238508239376
20
2.24441485733875
30
0.000000000000000
11
-26.4238508239376
21
2.16692496220846
31
0.000000000000000
  0
LINE
  5
F10705
330
F10706
100
AcDbEntity
8
Geo
100
AcDbLine
10
-26.4238508239376
20
2.16692496220846
30
0.000000000000000
11
-26.3238508239376
21
2.09020635141935
31
0.000000000000000
  0
LINE
  5
F10707
330
F10708
100
AcDbEntity
8
Geo
100
AcDbLine
10
-26.3238508239376
20
2.09020635141935
30
0.000000000000000
11
-26.2238508239376
21
2.01427101209826
31
0.000000000000000
  0
LINE
  5
F10709
330
F1070A
100
AcDbEntity
8
Geo
100
AcDbLine
10
-26.2238508239376
20
2.01427101209826
30
0.000000000000000
11
-26.1238508239376
21
1.93913080898749
31
0.000000000000000
  0
LINE
  5
F1070B
330
F1070C
100
AcDbEntity
8
Geo
100
AcDbLine
10
-26.1238508239376
20
1.93913080898749
30
0.000000000000000
11
-26.0238508239376
21
1.86479748259089
31
0.000000000000000
  0
LINE
  5
F1070D
330
F1070E
100
AcDbEntity
8
Geo
100
AcDbLine
10
-26.0238508239376
20
1.86479748259089
30
0.000000000000000
11
-25.9238508239376
21
1.79128264733948
31
0.000000000000000
  0
LINE
  5
F1070F
330
F10710
100
AcDbEntity
8
Geo
100
AcDbLine
10
-25.9238508239376
20
1.79128264733948
30
0.000000000000000
11
-25.8238508239376
21
1.71859778977671
31
0.000000000000000
  0
LINE
  5
F10711
330
F10712
100
AcDbEntity
8
Geo
100
AcDbLine
10
-25.8238508239376
20
1.71859778977671
30
0.000000000000000
11
-25.7238508239376
21
1.64675426676369
31
0.000000000000000
  0
LINE
  5
F10713
330
F10714
100
AcDbEntity
8
Geo
100
AcDbLine
10
-25.7238508239376
20
1.64675426676369
30
0.000000000000000
11
-25.6238508239376
21
1.57576330370472
31
0.000000000000000
  0
LINE
  5
F10715
330
F10716
100
AcDbEntity
8
Geo
100
AcDbLine
10
-25.6238508239376
20
1.57576330370472
30
0.000000000000000
11
-25.5238508239376
21
1.50563599279336
31
0.000000000000000
  0
LINE
  5
F10717
330
F10718
100
AcDbEntity
8
Geo
100
AcDbLine
10
-25.5238508239376
20
1.50563599279336
30
0.000000000000000
11
-25.4238508239376
21
1.43638329127926
31
0.000000000000000
  0
LINE
  5
F10719
330
F1071A
100
AcDbEntity
8
Geo
100
AcDbLine
10
-25.4238508239376
20
1.43638329127926
30
0.000000000000000
11
-25.3238508239376
21
1.36801601975614
31
0.000000000000000
  0
LINE
  5
F1071B
330
F1071C
100
AcDbEntity
8
Geo
100
AcDbLine
10
-25.3238508239376
20
1.36801601975614
30
0.000000000000000
11
-25.2238508239376
21
1.30054486047108
31
0.000000000000000
  0
LINE
  5
F1071D
330
F1071E
100
AcDbEntity
8
Geo
100
AcDbLine
10
-25.2238508239376
20
1.30054486047108
30
0.000000000000000
11
-25.1238508239376
21
1.23398035565545
31
0.000000000000000
  0
LINE
  5
F1071F
330
F10720
100
AcDbEntity
8
Geo
100
AcDbLine
10
-25.1238508239376
20
1.23398035565545
30
0.000000000000000
11
-25.0238508239376
21
1.16833290587770
31
0.000000000000000
  0
LINE
  5
F10721
330
F10722
100
AcDbEntity
8
Geo
100
AcDbLine
10
-25.0238508239376
20
1.16833290587770
30
0.000000000000000
11
-24.9238508239376
21
1.10361276841830
31
0.000000000000000
  0
LINE
  5
F10723
330
F10724
100
AcDbEntity
8
Geo
100
AcDbLine
10
-24.9238508239376
20
1.10361276841830
30
0.000000000000000
11
-24.8238508239376
21
1.03983005566706
31
0.000000000000000
  0
LINE
  5
F10725
330
F10726
100
AcDbEntity
8
Geo
100
AcDbLine
10
-24.8238508239376
20
1.03983005566706
30
0.000000000000000
11
-24.7238508239376
21
0.976994733543070
31
0.000000000000000
  0
LINE
  5
F10727
330
F10728
100
AcDbEntity
8
Geo
100
AcDbLine
10
-24.7238508239376
20
0.976994733543070
30
0.000000000000000
11
-24.6238508239376
21
0.915116619937585
31
0.000000000000000
  0
LINE
  5
F10729
330
F1072A
100
AcDbEntity
8
Geo
100
AcDbLine
10
-24.6238508239376
20
0.915116619937585
30
0.000000000000000
11
-24.5238508239376
21
0.854205383179958
31
0.000000000000000
  0
LINE
  5
F1072B
330
F1072C
100
AcDbEntity
8
Geo
100
AcDbLine
10
-24.5238508239376
20
0.854205383179958
30
0.000000000000000
11
-24.4238508239376
21
0.794270540527013
31
0.000000000000000
  0
LINE
  5
F1072D
330
F1072E
100
AcDbEntity
8
Geo
100
AcDbLine
10
-24.4238508239376
20
0.794270540527013
30
0.000000000000000
11
-24.3238508239376
21
0.735321456675978
31
0.000000000000000
  0
LINE
  5
F1072F
330
F10730
100
AcDbEntity
8
Geo
100
AcDbLine
10
-24.3238508239376
20
0.735321456675978
30
0.000000000000000
11
-24.2238508239376
21
0.677367342301268
31
0.000000000000000
  0
LINE
  5
F10731
330
F10732
100
AcDbEntity
8
Geo
100
AcDbLine
10
-24.2238508239376
20
0.677367342301268
30
0.000000000000000
11
-24.1238508239376
21
0.620417252615352
31
0.000000000000000
  0
LINE
  5
F10733
330
F10734
100
AcDbEntity
8
Geo
100
AcDbLine
10
-24.1238508239376
20
0.620417252615352
30
0.000000000000000
11
-24.0238508239376
21
0.564480085953879
31
0.000000000000000
  0
LINE
  5
F10735
330
F10736
100
AcDbEntity
8
Geo
100
AcDbLine
10
-24.0238508239376
20
0.564480085953879
30
0.000000000000000
11
-23.9238508239376
21
0.509564582385329
31
0.000000000000000
  0
LINE
  5
F10737
330
F10738
100
AcDbEntity
8
Geo
100
AcDbLine
10
-23.9238508239376
20
0.509564582385329
30
0.000000000000000
11
-23.8238508239376
21
0.455679322345420
31
0.000000000000000
  0
LINE
  5
F10739
330
F1073A
100
AcDbEntity
8
Geo
100
AcDbLine
10
-23.8238508239376
20
0.455679322345420
30
0.000000000000000
11
-23.7238508239376
21
0.402832725296393
31
0.000000000000000
  0
LINE
  5
F1073B
330
F1073C
100
AcDbEntity
8
Geo
100
AcDbLine
10
-23.7238508239376
20
0.402832725296393
30
0.000000000000000
11
-23.6238508239376
21
0.351033048411528
31
0.000000000000000
  0
LINE
  5
F1073D
330
F1073E
100
AcDbEntity
8
Geo
100
AcDbLine
10
-23.6238508239376
20
0.351033048411528
30
0.000000000000000
11
-23.5238508239376
21
0.300288385284949
31
0.000000000000000
  0
LINE
  5
F1073F
330
F10740
100
AcDbEntity
8
Geo
100
AcDbLine
10
-23.5238508239376
20
0.300288385284949
30
0.000000000000000
11
-23.4238508239376
21
0.250606664667032
31
0.000000000000000
  0
LINE
  5
F10741
330
F10742
100
AcDbEntity
8
Geo
100
AcDbLine
10
-23.4238508239376
20
0.250606664667032
30
0.000000000000000
11
-23.3238508239376
21
0.201995649225542
31
0.000000000000000
  0
LINE
  5
F10743
330
F10744
100
AcDbEntity
8
Geo
100
AcDbLine
10
-23.3238508239376
20
0.201995649225542
30
0.000000000000000
11
-23.2238508239376
21
0.154462934332747
31
0.000000000000000
  0
LINE
  5
F10745
330
F10746
100
AcDbEntity
8
Geo
100
AcDbLine
10
-23.2238508239376
20
0.154462934332747
30
0.000000000000000
11
-23.1238508239376
21
0.108015946878647
31
0.000000000000000
  0
LINE
  5
F10747
330
F10748
100
AcDbEntity
8
Geo
100
AcDbLine
10
-23.1238508239376
20
0.108015946878647
30
0.000000000000000
11
-23.0238508239376
21
0.0626619441105287
31
0.000000000000000
  0
LINE
  5
F10749
330
F1074A
100
AcDbEntity
8
Geo
100
AcDbLine
10
-23.0238508239376
20
0.0626619441105287
30
0.000000000000000
11
-22.9238508239376
21
0.0184080124990524
31
0.000000000000000
  0
LINE
  5
F1074B
330
F1074C
100
AcDbEntity
8
Geo
100
AcDbLine
10
-22.9238508239376
20
0.0184080124990524
30
0.000000000000000
11
-22.8238508239376
21
-0.0247389333689956
31
0.000000000000000
  0
LINE
  5
F1074D
330
F1074E
100
AcDbEntity
8
Geo
100
AcDbLine
10
-22.8238508239376
20
-0.0247389333689956
30
0.000000000000000
11
-22.7238508239376
21
-0.0667721518711133
31
0.000000000000000
  0
LINE
  5
F1074F
330
F10750
100
AcDbEntity
8
Geo
100
AcDbLine
10
-22.7238508239376
20
-0.0667721518711133
30
0.000000000000000
11
-22.6238508239376
21
-0.107685075402419
31
0.000000000000000
  0
LINE
  5
F10751
330
F10752
100
AcDbEntity
8
Geo
100
AcDbLine
10
-22.6238508239376
20
-0.107685075402419
30
0.000000000000000
11
-22.5238508239376
21
-0.147471311401853
31
0.000000000000000
  0
LINE
  5
F10753
330
F10754
100
AcDbEntity
8
Geo
100
AcDbLine
10
-22.5238508239376
20
-0.147471311401853
30
0.000000000000000
11
-22.4238508239376
21
-0.186124643350983
31
0.000000000000000
  0
LINE
  5
F10755
330
F10756
100
AcDbEntity
8
Geo
100
AcDbLine
10
-22.4238508239376
20
-0.186124643350983
30
0.000000000000000
11
-22.3238508239376
21
-0.223639031745334
31
0.000000000000000
  0
LINE
  5
F10757
330
F10758
100
AcDbEntity
8
Geo
100
AcDbLine
10
-22.3238508239376
20
-0.223639031745334
30
0.000000000000000
11
-22.2238508239376
21
-0.260008615038039
31
0.000000000000000
  0
LINE
  5
F10759
330
F1075A
100
AcDbEntity
8
Geo
100
AcDbLine
10
-22.2238508239376
20
-0.260008615038039
30
0.000000000000000
11
-22.1238508239376
21
-0.295227710555703
31
0.000000000000000
  0
LINE
  5
F1075B
330
F1075C
100
AcDbEntity
8
Geo
100
AcDbLine
10
-22.1238508239376
20
-0.295227710555703
30
0.000000000000000
11
-22.0238508239376
21
-0.329290815386309
31
0.000000000000000
  0
LINE
  5
F1075D
330
F1075E
100
AcDbEntity
8
Geo
100
AcDbLine
10
-22.0238508239376
20
-0.329290815386309
30
0.000000000000000
11
-21.9238508239376
21
-0.362192607239023
31
0.000000000000000
  0
LINE
  5
F1075F
330
F10760
100
AcDbEntity
8
Geo
100
AcDbLine
10
-21.9238508239376
20
-0.362192607239023
30
0.000000000000000
11
-21.8238508239376
21
-0.393927945275809
31
0.000000000000000
  0
LINE
  5
F10761
330
F10762
100
AcDbEntity
8
Geo
100
AcDbLine
10
-21.8238508239376
20
-0.393927945275809
30
0.000000000000000
11
-21.7238508239376
21
-0.424491870914664
31
0.000000000000000
  0
LINE
  5
F10763
330
F10764
100
AcDbEntity
8
Geo
100
AcDbLine
10
-21.7238508239376
20
-0.424491870914664
30
0.000000000000000
11
-21.6238508239376
21
-0.453879608604388
31
0.000000000000000
  0
LINE
  5
F10765
330
F10766
100
AcDbEntity
8
Geo
100
AcDbLine
10
-21.6238508239376
20
-0.453879608604388
30
0.000000000000000
11
-21.5238508239376
21
-0.482086566570755
31
0.000000000000000
  0
LINE
  5
F10767
330
F10768
100
AcDbEntity
8
Geo
100
AcDbLine
10
-21.5238508239376
20
-0.482086566570755
30
0.000000000000000
11
-21.4238508239376
21
-0.509108337533974
31
0.000000000000000
  0
LINE
  5
F10769
330
F1076A
100
AcDbEntity
8
Geo
100
AcDbLine
10
-21.4238508239376
20
-0.509108337533974
30
0.000000000000000
11
-21.3238508239376
21
-0.534940699397304
31
0.000000000000000
  0
LINE
  5
F1076B
330
F1076C
100
AcDbEntity
8
Geo
100
AcDbLine
10
-21.3238508239376
20
-0.534940699397304
30
0.000000000000000
11
-21.2238508239376
21
-0.559579615906761
31
0.000000000000000
  0
LINE
  5
F1076D
330
F1076E
100
AcDbEntity
8
Geo
100
AcDbLine
10
-21.2238508239376
20
-0.559579615906761
30
0.000000000000000
11
-21.1238508239376
21
-0.583021237281768
31
0.000000000000000
  0
LINE
  5
F1076F
330
F10770
100
AcDbEntity
8
Geo
100
AcDbLine
10
-21.1238508239376
20
-0.583021237281768
30
0.000000000000000
11
-21.0238508239376
21
-0.605261900816677
31
0.000000000000000
  0
LINE
  5
F10771
330
F10772
100
AcDbEntity
8
Geo
100
AcDbLine
10
-21.0238508239376
20
-0.605261900816677
30
0.000000000000000
11
-20.9238508239376
21
-0.626298131453058
31
0.000000000000000
  0
LINE
  5
F10773
330
F10774
100
AcDbEntity
8
Geo
100
AcDbLine
10
-20.9238508239376
20
-0.626298131453058
30
0.000000000000000
11
-20.8238508239376
21
-0.646126642322676
31
0.000000000000000
  0
LINE
  5
F10775
330
F10776
100
AcDbEntity
8
Geo
100
AcDbLine
10
-20.8238508239376
20
-0.646126642322676
30
0.000000000000000
11
-20.7238508239376
21
-0.664744335261042
31
0.000000000000000
  0
LINE
  5
F10777
330
F10778
100
AcDbEntity
8
Geo
100
AcDbLine
10
-20.7238508239376
20
-0.664744335261042
30
0.000000000000000
11
-20.6238508239376
21
-0.682148301291518
31
0.000000000000000
  0
LINE
  5
F10779
330
F1077A
100
AcDbEntity
8
Geo
100
AcDbLine
10
-20.6238508239376
20
-0.682148301291518
30
0.000000000000000
11
-20.5238508239376
21
-0.698335821079818
31
0.000000000000000
  0
LINE
  5
F1077B
330
F1077C
100
AcDbEntity
8
Geo
100
AcDbLine
10
-20.5238508239376
20
-0.698335821079818
30
0.000000000000000
11
-20.4238508239376
21
-0.713304365358908
31
0.000000000000000
  0
LINE
  5
F1077D
330
F1077E
100
AcDbEntity
8
Geo
100
AcDbLine
10
-20.4238508239376
20
-0.713304365358908
30
0.000000000000000
11
-20.3238508239376
21
-0.727051595324198
31
0.000000000000000
  0
LINE
  5
F1077F
330
F10780
100
AcDbEntity
8
Geo
100
AcDbLine
10
-20.3238508239376
20
-0.727051595324198
30
0.000000000000000
11
-20.2238508239376
21
-0.739575362998975
31
0.000000000000000
  0
LINE
  5
F10781
330
F10782
100
AcDbEntity
8
Geo
100
AcDbLine
10
-20.2238508239376
20
-0.739575362998975
30
0.000000000000000
11
-20.1238508239376
21
-0.750873711570019
31
0.000000000000000
  0
LINE
  5
F10783
330
F10784
100
AcDbEntity
8
Geo
100
AcDbLine
10
-20.1238508239376
20
-0.750873711570019
30
0.000000000000000
11
-20.0238508239376
21
-0.760944875693353
31
0.000000000000000
  0
LINE
  5
F10785
330
F10786
100
AcDbEntity
8
Geo
100
AcDbLine
10
-20.0238508239376
20
-0.760944875693353
30
0.000000000000000
11
-19.9238508239376
21
-0.769787281770071
31
0.000000000000000
  0
LINE
  5
F10787
330
F10788
100
AcDbEntity
8
Geo
100
AcDbLine
10
-19.9238508239376
20
-0.769787281770071
30
0.000000000000000
11
-19.8238508239376
21
-0.777399548192214
31
0.000000000000000
  0
LINE
  5
F10789
330
F1078A
100
AcDbEntity
8
Geo
100
AcDbLine
10
-19.8238508239376
20
-0.777399548192214
30
0.000000000000000
11
-19.7238508239376
21
-0.783780485558641
31
0.000000000000000
  0
LINE
  5
F1078B
330
F1078C
100
AcDbEntity
8
Geo
100
AcDbLine
10
-19.7238508239376
20
-0.783780485558641
30
0.000000000000000
11
-19.6238508239376
21
-0.788929096860873
31
0.000000000000000
  0
LINE
  5
F1078D
330
F1078E
100
AcDbEntity
8
Geo
100
AcDbLine
10
-19.6238508239376
20
-0.788929096860873
30
0.000000000000000
11
-19.5238508239376
21
-0.792844577638861
31
0.000000000000000
  0
LINE
  5
F1078F
330
F10790
100
AcDbEntity
8
Geo
100
AcDbLine
10
-19.5238508239376
20
-0.792844577638861
30
0.000000000000000
11
-19.4238508239376
21
-0.795526316106708
31
0.000000000000000
  0
LINE
  5
F10791
330
F10792
100
AcDbEntity
8
Geo
100
AcDbLine
10
-19.4238508239376
20
-0.795526316106708
30
0.000000000000000
11
-19.3238508239376
21
-0.796973893248229
31
0.000000000000000
  0
LINE
  5
F10793
330
F10794
100
AcDbEntity
8
Geo
100
AcDbLine
10
-19.3238508239376
20
-0.796973893248229
30
0.000000000000000
11
-19.2565808476143
21
-0.896790980052032
31
0.000000000000000
  0
LINE
  5
F10795
330
F10796
100
AcDbEntity
8
Geo
100
AcDbLine
10
-19.2565808476143
20
15.1032090199480
30
0.000000000000000
11
-19.2238508239376
21
15.0036051227784
31
0.000000000000000
  0
LINE
  5
F10797
330
F10798
100
AcDbEntity
8
Geo
100
AcDbLine
10
-19.2238508239376
20
15.0036051227784
30
0.000000000000000
11
-19.1238508239376
21
15.0025838915948
31
0.000000000000000
  0
LINE
  5
F10799
330
F1079A
100
AcDbEntity
8
Geo
100
AcDbLine
10
-19.1238508239376
20
15.0025838915948
30
0.000000000000000
11
-19.0238508239376
21
15.0003283991588
31
0.000000000000000
  0
LINE
  5
F1079B
330
F1079C
100
AcDbEntity
8
Geo
100
AcDbLine
10
-19.0238508239376
20
15.0003283991588
30
0.000000000000000
11
-18.9238508239376
21
14.9968389978865
31
0.000000000000000
  0
LINE
  5
F1079D
330
F1079E
100
AcDbEntity
8
Geo
100
AcDbLine
10
-18.9238508239376
20
14.9968389978865
30
0.000000000000000
11
-18.8238508239376
21
14.9921162329896
31
0.000000000000000
  0
LINE
  5
F1079F
330
F107A0
100
AcDbEntity
8
Geo
100
AcDbLine
10
-18.8238508239376
20
14.9921162329896
30
0.000000000000000
11
-18.7238508239376
21
14.9861608423907
31
0.000000000000000
  0
LINE
  5
F107A1
330
F107A2
100
AcDbEntity
8
Geo
100
AcDbLine
10
-18.7238508239376
20
14.9861608423907
30
0.000000000000000
11
-18.6238508239376
21
14.9789737566073
31
0.000000000000000
  0
LINE
  5
F107A3
330
F107A4
100
AcDbEntity
8
Geo
100
AcDbLine
10
-18.6238508239376
20
14.9789737566073
30
0.000000000000000
11
-18.5238508239376
21
14.9705560986070
31
0.000000000000000
  0
LINE
  5
F107A5
330
F107A6
100
AcDbEntity
8
Geo
100
AcDbLine
10
-18.5238508239376
20
14.9705560986070
30
0.000000000000000
11
-18.4238508239376
21
14.9609091836317
31
0.000000000000000
  0
LINE
  5
F107A7
330
F107A8
100
AcDbEntity
8
Geo
100
AcDbLine
10
-18.4238508239376
20
14.9609091836317
30
0.000000000000000
11
-18.3238508239376
21
14.9500345189924
31
0.000000000000000
  0
LINE
  5
F107A9
330
F107AA
100
AcDbEntity
8
Geo
100
AcDbLine
10
-18.3238508239376
20
14.9500345189924
30
0.000000000000000
11
-18.2238508239376
21
14.9379338038331
31
0.000000000000000
  0
LINE
  5
F107AB
330
F107AC
100
AcDbEntity
8
Geo
100
AcDbLine
10
-18.2238508239376
20
14.9379338038331
30
0.000000000000000
11
-18.1238508239376
21
14.9246089288660
31
0.000000000000000
  0
LINE
  5
F107AD
330
F107AE
100
AcDbEntity
8
Geo
100
AcDbLine
10
-18.1238508239376
20
14.9246089288660
30
0.000000000000000
11
-18.0238508239376
21
14.9100619760758
31
0.000000000000000
  0
LINE
  5
F107AF
330
F107B0
100
AcDbEntity
8
Geo
100
AcDbLine
10
-18.0238508239376
20
14.9100619760758
30
0.000000000000000
11
-17.9238508239376
21
14.8942952183941
31
0.000000000000000
  0
LINE
  5
F107B1
330
F107B2
100
AcDbEntity
8
Geo
100
AcDbLine
10
-17.9238508239376
20
14.8942952183941
30
0.000000000000000
11
-17.8238508239376
21
14.8773111193449
31
0.000000000000000
  0
LINE
  5
F107B3
330
F107B4
100
AcDbEntity
8
Geo
100
AcDbLine
10
-17.8238508239376
20
14.8773111193449
30
0.000000000000000
11
-17.7238508239376
21
14.8591123326590
31
0.000000000000000
  0
LINE
  5
F107B5
330
F107B6
100
AcDbEntity
8
Geo
100
AcDbLine
10
-17.7238508239376
20
14.8591123326590
30
0.000000000000000
11
-17.6238508239376
21
14.8397017018599
31
0.000000000000000
  0
LINE
  5
F107B7
330
F107B8
100
AcDbEntity
8
Geo
100
AcDbLine
10
-17.6238508239376
20
14.8397017018599
30
0.000000000000000
11
-17.5238508239376
21
14.8190822598191
31
0.000000000000000
  0
LINE
  5
F107B9
330
F107BA
100
AcDbEntity
8
Geo
100
AcDbLine
10
-17.5238508239376
20
14.8190822598191
30
0.000000000000000
11
-17.4238508239376
21
14.7972572282824
31
0.000000000000000
  0
LINE
  5
F107BB
330
F107BC
100
AcDbEntity
8
Geo
100
AcDbLine
10
-17.4238508239376
20
14.7972572282824
30
0.000000000000000
11
-17.3238508239376
21
14.7742300173667
31
0.000000000000000
  0
LINE
  5
F107BD
330
F107BE
100
AcDbEntity
8
Geo
100
AcDbLine
10
-17.3238508239376
20
14.7742300173667
30
0.000000000000000
11
-17.2238508239376
21
14.7500042250268
31
0.000000000000000
  0
LINE
  5
F107BF
330
F107C0
100
AcDbEntity
8
Geo
100
AcDbLine
10
-17.2238508239376
20
14.7500042250268
30
0.000000000000000
11
-17.1238508239376
21
14.7245836364934
31
0.000000000000000
  0
LINE
  5
F107C1
330
F107C2
100
AcDbEntity
8
Geo
100
AcDbLine
10
-17.1238508239376
20
14.7245836364934
30
0.000000000000000
11
-17.0238508239376
21
14.6979722236819
31
0.000000000000000
  0
LINE
  5
F107C3
330
F107C4
100
AcDbEntity
8
Geo
100
AcDbLine
10
-17.0238508239376
20
14.6979722236819
30
0.000000000000000
11
-16.9238508239376
21
14.6701741445713
31
0.000000000000000
  0
LINE
  5
F107C5
330
F107C6
100
AcDbEntity
8
Geo
100
AcDbLine
10
-16.9238508239376
20
14.6701741445713
30
0.000000000000000
11
-16.8238508239376
21
14.6411937425549
31
0.000000000000000
  0
LINE
  5
F107C7
330
F107C8
100
AcDbEntity
8
Geo
100
AcDbLine
10
-16.8238508239376
20
14.6411937425549
30
0.000000000000000
11
-16.7238508239376
21
14.6110355457616
31
0.000000000000000
  0
LINE
  5
F107C9
330
F107CA
100
AcDbEntity
8
Geo
100
AcDbLine
10
-16.7238508239376
20
14.6110355457616
30
0.000000000000000
11
-16.6238508239376
21
14.5797042663482
31
0.000000000000000
  0
LINE
  5
F107CB
330
F107CC
100
AcDbEntity
8
Geo
100
AcDbLine
10
-16.6238508239376
20
14.5797042663482
30
0.000000000000000
11
-16.5238508239376
21
14.5472047997636
31
0.000000000000000
  0
LINE
  5
F107CD
330
F107CE
100
AcDbEntity
8
Geo
100
AcDbLine
10
-16.5238508239376
20
14.5472047997636
30
0.000000000000000
11
-16.4238508239376
21
14.5135422239830
31
0.000000000000000
  0
LINE
  5
F107CF
330
F107D0
100
AcDbEntity
8
Geo
100
AcDbLine
10
-16.4238508239376
20
14.5135422239830
30
0.000000000000000
11
-16.3238508239376
21
14.4787217987157
31
0.000000000000000
  0
LINE
  5
F107D1
330
F107D2
100
AcDbEntity
8
Geo
100
AcDbLine
10
-16.3238508239376
20
14.4787217987157
30
0.000000000000000
11
-16.2238508239376
21
14.4427489645821
31
0.000000000000000
  0
LINE
  5
F107D3
330
F107D4
100
AcDbEntity
8
Geo
100
AcDbLine
10
-16.2238508239376
20
14.4427489645821
30
0.000000000000000
11
-16.1238508239376
21
14.4056293422644
31
0.000000000000000
  0
LINE
  5
F107D5
330
F107D6
100
AcDbEntity
8
Geo
100
AcDbLine
10
-16.1238508239376
20
14.4056293422644
30
0.000000000000000
11
-16.0238508239376
21
14.3673687316280
31
0.000000000000000
  0
LINE
  5
F107D7
330
F107D8
100
AcDbEntity
8
Geo
100
AcDbLine
10
-31.0238508239376
20
14.6090669438898
30
0.000000000000000
11
-30.9238508239376
21
14.6997658259388
31
0.000000000000000
  0
LINE
  5
F107D9
330
F107DA
100
AcDbEntity
8
Geo
100
AcDbLine
10
-30.9238508239376
20
14.6997658259388
30
0.000000000000000
11
-30.8238508239376
21
14.7895258109853
31
0.000000000000000
  0
LINE
  5
F107DB
330
F107DC
100
AcDbEntity
8
Geo
100
AcDbLine
10
-30.8238508239376
20
14.7895258109853
30
0.000000000000000
11
-30.7238508239376
21
14.8783038086994
31
0.000000000000000
  0
LINE
  5
F107DD
330
F107DE
100
AcDbEntity
8
Geo
100
AcDbLine
10
-30.7238508239376
20
14.8783038086994
30
0.000000000000000
11
-30.6238508239376
21
14.9150902742686
31
0.000000000000000
  0
LINE
  5
F107DF
330
F107E0
100
AcDbEntity
8
Geo
100
AcDbLine
10
-30.6238508239376
20
14.9150902742686
30
0.000000000000000
11
-30.5238508239376
21
14.8997334640151
31
0.000000000000000
  0
LINE
  5
F107E1
330
F107E2
100
AcDbEntity
8
Geo
100
AcDbLine
10
-30.5238508239376
20
14.8997334640151
30
0.000000000000000
11
-30.4238508239376
21
14.8831584626791
31
0.000000000000000
  0
LINE
  5
F107E3
330
F107E4
100
AcDbEntity
8
Geo
100
AcDbLine
10
-30.4238508239376
20
14.8831584626791
30
0.000000000000000
11
-30.3238508239376
21
14.8653678600710
31
0.000000000000000
  0
LINE
  5
F107E5
330
F107E6
100
AcDbEntity
8
Geo
100
AcDbLine
10
-30.3238508239376
20
14.8653678600710
30
0.000000000000000
11
-30.2238508239376
21
14.8463644359362
31
0.000000000000000
  0
LINE
  5
F107E7
330
F107E8
100
AcDbEntity
8
Geo
100
AcDbLine
10
-30.2238508239376
20
14.8463644359362
30
0.000000000000000
11
-30.1238508239376
21
14.8261511595210
31
0.000000000000000
  0
LINE
  5
F107E9
330
F107EA
100
AcDbEntity
8
Geo
100
AcDbLine
10
-30.1238508239376
20
14.8261511595210
30
0.000000000000000
11
-30.0238508239376
21
14.8047311891088
31
0.000000000000000
  0
LINE
  5
F107EB
330
F107EC
100
AcDbEntity
8
Geo
100
AcDbLine
10
-30.0238508239376
20
14.8047311891088
30
0.000000000000000
11
-29.9238508239376
21
14.7821078715264
31
0.000000000000000
  0
LINE
  5
F107ED
330
F107EE
100
AcDbEntity
8
Geo
100
AcDbLine
10
-29.9238508239376
20
14.7821078715264
30
0.000000000000000
11
-29.8238508239376
21
14.7582847416211
31
0.000000000000000
  0
LINE
  5
F107EF
330
F107F0
100
AcDbEntity
8
Geo
100
AcDbLine
10
-29.8238508239376
20
14.7582847416211
30
0.000000000000000
11
-29.7238508239376
21
14.7332655217085
31
0.000000000000000
  0
LINE
  5
F107F1
330
F107F2
100
AcDbEntity
8
Geo
100
AcDbLine
10
-29.7238508239376
20
14.7332655217085
30
0.000000000000000
11
-29.6238508239376
21
14.7070541209908
31
0.000000000000000
  0
LINE
  5
F107F3
330
F107F4
100
AcDbEntity
8
Geo
100
AcDbLine
10
-29.6238508239376
20
14.7070541209908
30
0.000000000000000
11
-29.5238508239376
21
14.6796546349461
31
0.000000000000000
  0
LINE
  5
F107F5
330
F107F6
100
AcDbEntity
8
Geo
100
AcDbLine
10
-29.5238508239376
20
14.6796546349461
30
0.000000000000000
11
-29.4238508239376
21
14.6510713446882
31
0.000000000000000
  0
LINE
  5
F107F7
330
F107F8
100
AcDbEntity
8
Geo
100
AcDbLine
10
-29.4238508239376
20
14.6510713446882
30
0.000000000000000
11
-29.3238508239376
21
14.6213087162982
31
0.000000000000000
  0
LINE
  5
F107F9
330
F107FA
100
AcDbEntity
8
Geo
100
AcDbLine
10
-29.3238508239376
20
14.6213087162982
30
0.000000000000000
11
-29.2238508239376
21
14.5903714001262
31
0.000000000000000
  0
LINE
  5
F107FB
330
F107FC
100
AcDbEntity
8
Geo
100
AcDbLine
10
-29.2238508239376
20
14.5903714001262
30
0.000000000000000
11
-29.1238508239376
21
14.5582642300648
31
0.000000000000000
  0
LINE
  5
F107FD
330
F107FE
100
AcDbEntity
8
Geo
100
AcDbLine
10
-29.1238508239376
20
14.5582642300648
30
0.000000000000000
11
-29.0238508239376
21
14.5249922227942
31
0.000000000000000
  0
LINE
  5
F107FF
330
F10800
100
AcDbEntity
8
Geo
100
AcDbLine
10
-29.0238508239376
20
14.5249922227942
30
0.000000000000000
11
-28.9238508239376
21
14.4905605769977
31
0.000000000000000
  0
LINE
  5
F10801
330
F10802
100
AcDbEntity
8
Geo
100
AcDbLine
10
-28.9238508239376
20
14.4905605769977
30
0.000000000000000
11
-28.8238508239376
21
14.4549746725499
31
0.000000000000000
  0
LINE
  5
F10803
330
F10804
100
AcDbEntity
8
Geo
100
AcDbLine
10
-28.8238508239376
20
14.4549746725499
30
0.000000000000000
11
-28.7238508239376
21
14.4182400696760
31
0.000000000000000
  0
LINE
  5
F10805
330
F10806
100
AcDbEntity
8
Geo
100
AcDbLine
10
-28.7238508239376
20
14.4182400696760
30
0.000000000000000
11
-28.6238508239376
21
14.3803625080830
31
0.000000000000000
  0
LINE
  5
F10807
330
F10808
100
AcDbEntity
8
Geo
100
AcDbLine
10
-28.6238508239376
20
14.3803625080830
30
0.000000000000000
11
-28.5238508239376
21
14.3413479060628
31
0.000000000000000
  0
LINE
  5
F10809
330
F1080A
100
AcDbEntity
8
Geo
100
AcDbLine
10
-28.5238508239376
20
14.3413479060628
30
0.000000000000000
11
-28.4238508239376
21
14.3012023595676
31
0.000000000000000
  0
LINE
  5
F1080B
330
F1080C
100
AcDbEntity
8
Geo
100
AcDbLine
10
-28.4238508239376
20
14.3012023595676
30
0.000000000000000
11
-28.3238508239376
21
14.2599321412574
31
0.000000000000000
  0
LINE
  5
F1080D
330
F1080E
100
AcDbEntity
8
Geo
100
AcDbLine
10
-28.3238508239376
20
14.2599321412574
30
0.000000000000000
11
-28.2238508239376
21
14.2175436995198
31
0.000000000000000
  0
LINE
  5
F1080F
330
F10810
100
AcDbEntity
8
Geo
100
AcDbLine
10
-28.2238508239376
20
14.2175436995198
30
0.000000000000000
11
-28.1238508239376
21
14.1740436574626
31
0.000000000000000
  0
LINE
  5
F10811
330
F10812
100
AcDbEntity
8
Geo
100
AcDbLine
10
-28.1238508239376
20
14.1740436574626
30
0.000000000000000
11
-28.0238508239376
21
14.1294388118788
31
0.000000000000000
  0
LINE
  5
F10813
330
F10814
100
AcDbEntity
8
Geo
100
AcDbLine
10
-28.0238508239376
20
14.1294388118788
30
0.000000000000000
11
-27.9238508239376
21
14.0837361321849
31
0.000000000000000
  0
LINE
  5
F10815
330
F10816
100
AcDbEntity
8
Geo
100
AcDbLine
10
-27.9238508239376
20
14.0837361321849
30
0.000000000000000
11
-27.8238508239376
21
14.0369427593315
31
0.000000000000000
  0
LINE
  5
F10817
330
F10818
100
AcDbEntity
8
Geo
100
AcDbLine
10
-27.8238508239376
20
14.0369427593315
30
0.000000000000000
11
-27.7238508239376
21
13.9890660046880
31
0.000000000000000
  0
LINE
  5
F10819
330
F1081A
100
AcDbEntity
8
Geo
100
AcDbLine
10
-27.7238508239376
20
13.9890660046880
30
0.000000000000000
11
-27.6238508239376
21
13.9401133488999
31
0.000000000000000
  0
LINE
  5
F1081B
330
F1081C
100
AcDbEntity
8
Geo
100
AcDbLine
10
-27.6238508239376
20
13.9401133488999
30
0.000000000000000
11
-27.5238508239376
21
13.8900924407200
31
0.000000000000000
  0
LINE
  5
F1081D
330
F1081E
100
AcDbEntity
8
Geo
100
AcDbLine
10
-27.5238508239376
20
13.8900924407200
30
0.000000000000000
11
-27.4238508239376
21
13.8390110958135
31
0.000000000000000
  0
LINE
  5
F1081F
330
F10820
100
AcDbEntity
8
Geo
100
AcDbLine
10
-27.4238508239376
20
13.8390110958135
30
0.000000000000000
11
-27.3238508239376
21
13.7868772955366
31
0.000000000000000
  0
LINE
  5
F10821
330
F10822
100
AcDbEntity
8
Geo
100
AcDbLine
10
-27.3238508239376
20
13.7868772955366
30
0.000000000000000
11
-27.2238508239376
21
13.7336991856895
31
0.000000000000000
  0
LINE
  5
F10823
330
F10824
100
AcDbEntity
8
Geo
100
AcDbLine
10
-27.2238508239376
20
13.7336991856895
30
0.000000000000000
11
-27.1238508239376
21
13.6794850752438
31
0.000000000000000
  0
LINE
  5
F10825
330
F10826
100
AcDbEntity
8
Geo
100
AcDbLine
10
-27.1238508239376
20
13.6794850752438
30
0.000000000000000
11
-27.0238508239376
21
13.6242434350437
31
0.000000000000000
  0
LINE
  5
F10827
330
F10828
100
AcDbEntity
8
Geo
100
AcDbLine
10
-27.0238508239376
20
13.6242434350437
30
0.000000000000000
11
-26.9238508239376
21
13.5679828964834
31
0.000000000000000
  0
LINE
  5
F10829
330
F1082A
100
AcDbEntity
8
Geo
100
AcDbLine
10
-26.9238508239376
20
13.5679828964834
30
0.000000000000000
11
-26.8238508239376
21
13.5107122501573
31
0.000000000000000
  0
LINE
  5
F1082B
330
F1082C
100
AcDbEntity
8
Geo
100
AcDbLine
10
-26.8238508239376
20
13.5107122501573
30
0.000000000000000
11
-26.7238508239376
21
13.4524404444876
31
0.000000000000000
  0
LINE
  5
F1082D
330
F1082E
100
AcDbEntity
8
Geo
100
AcDbLine
10
-26.7238508239376
20
13.4524404444876
30
0.000000000000000
11
-26.6238508239376
21
13.3931765843253
31
0.000000000000000
  0
LINE
  5
F1082F
330
F10830
100
AcDbEntity
8
Geo
100
AcDbLine
10
-26.6238508239376
20
13.3931765843253
30
0.000000000000000
11
-26.5238508239376
21
13.3329299295280
31
0.000000000000000
  0
LINE
  5
F10831
330
F10832
100
AcDbEntity
8
Geo
100
AcDbLine
10
-26.5238508239376
20
13.3329299295280
30
0.000000000000000
11
-26.4238508239376
21
13.2717098935128
31
0.000000000000000
  0
LINE
  5
F10833
330
F10834
100
AcDbEntity
8
Geo
100
AcDbLine
10
-26.4238508239376
20
13.2717098935128
30
0.000000000000000
11
-26.3238508239376
21
13.2095260417860
31
0.000000000000000
  0
LINE
  5
F10835
330
F10836
100
AcDbEntity
8
Geo
100
AcDbLine
10
-26.3238508239376
20
13.2095260417860
30
0.000000000000000
11
-26.2238508239376
21
13.1463880904477
31
0.000000000000000
  0
LINE
  5
F10837
330
F10838
100
AcDbEntity
8
Geo
100
AcDbLine
10
-26.2238508239376
20
13.1463880904477
30
0.000000000000000
11
-26.1238508239376
21
13.0823059046745
31
0.000000000000000
  0
LINE
  5
F10839
330
F1083A
100
AcDbEntity
8
Geo
100
AcDbLine
10
-26.1238508239376
20
13.0823059046745
30
0.000000000000000
11
-26.0238508239376
21
13.0172894971775
31
0.000000000000000
  0
LINE
  5
F1083B
330
F1083C
100
AcDbEntity
8
Geo
100
AcDbLine
10
-26.0238508239376
20
13.0172894971775
30
0.000000000000000
11
-25.9238508239376
21
12.9513490266381
31
0.000000000000000
  0
LINE
  5
F1083D
330
F1083E
100
AcDbEntity
8
Geo
100
AcDbLine
10
-25.9238508239376
20
12.9513490266381
30
0.000000000000000
11
-25.8238508239376
21
12.8844947961207
31
0.000000000000000
  0
LINE
  5
F1083F
330
F10840
100
AcDbEntity
8
Geo
100
AcDbLine
10
-25.8238508239376
20
12.8844947961207
30
0.000000000000000
11
-25.7238508239376
21
12.8167372514627
31
0.000000000000000
  0
LINE
  5
F10841
330
F10842
100
AcDbEntity
8
Geo
100
AcDbLine
10
-25.7238508239376
20
12.8167372514627
30
0.000000000000000
11
-25.6238508239376
21
12.7480869796427
31
0.000000000000000
  0
LINE
  5
F10843
330
F10844
100
AcDbEntity
8
Geo
100
AcDbLine
10
-25.6238508239376
20
12.7480869796427
30
0.000000000000000
11
-25.5238508239376
21
12.6785547071260
31
0.000000000000000
  0
LINE
  5
F10845
330
F10846
100
AcDbEntity
8
Geo
100
AcDbLine
10
-25.5238508239376
20
12.6785547071260
30
0.000000000000000
11
-25.4238508239376
21
12.6081512981887
31
0.000000000000000
  0
LINE
  5
F10847
330
F10848
100
AcDbEntity
8
Geo
100
AcDbLine
10
-25.4238508239376
20
12.6081512981887
30
0.000000000000000
11
-25.3238508239376
21
12.5368877532201
31
0.000000000000000
  0
LINE
  5
F10849
330
F1084A
100
AcDbEntity
8
Geo
100
AcDbLine
10
-25.3238508239376
20
12.5368877532201
30
0.000000000000000
11
-25.2238508239376
21
12.4647752070043
31
0.000000000000000
  0
LINE
  5
F1084B
330
F1084C
100
AcDbEntity
8
Geo
100
AcDbLine
10
-25.2238508239376
20
12.4647752070043
30
0.000000000000000
11
-25.1238508239376
21
12.3918249269798
31
0.000000000000000
  0
LINE
  5
F1084D
330
F1084E
100
AcDbEntity
8
Geo
100
AcDbLine
10
-25.1238508239376
20
12.3918249269798
30
0.000000000000000
11
-25.0238508239376
21
12.3180483114796
31
0.000000000000000
  0
LINE
  5
F1084F
330
F10850
100
AcDbEntity
8
Geo
100
AcDbLine
10
-25.0238508239376
20
12.3180483114796
30
0.000000000000000
11
-24.9238508239376
21
12.2434568879495
31
0.000000000000000
  0
LINE
  5
F10851
330
F10852
100
AcDbEntity
8
Geo
100
AcDbLine
10
-24.9238508239376
20
12.2434568879495
30
0.000000000000000
11
-24.8238508239376
21
12.1680623111479
31
0.000000000000000
  0
LINE
  5
F10853
330
F10854
100
AcDbEntity
8
Geo
100
AcDbLine
10
-24.8238508239376
20
12.1680623111479
30
0.000000000000000
11
-24.7238508239376
21
12.0918763613240
31
0.000000000000000
  0
LINE
  5
F10855
330
F10856
100
AcDbEntity
8
Geo
100
AcDbLine
10
-24.7238508239376
20
12.0918763613240
30
0.000000000000000
11
-24.6238508239376
21
12.0149109423774
31
0.000000000000000
  0
LINE
  5
F10857
330
F10858
100
AcDbEntity
8
Geo
100
AcDbLine
10
-24.6238508239376
20
12.0149109423774
30
0.000000000000000
11
-24.5238508239376
21
11.9371780799983
31
0.000000000000000
  0
LINE
  5
F10859
330
F1085A
100
AcDbEntity
8
Geo
100
AcDbLine
10
-24.5238508239376
20
11.9371780799983
30
0.000000000000000
11
-24.4238508239376
21
11.8586899197882
31
0.000000000000000
  0
LINE
  5
F1085B
330
F1085C
100
AcDbEntity
8
Geo
100
AcDbLine
10
-24.4238508239376
20
11.8586899197882
30
0.000000000000000
11
-24.3238508239376
21
11.7794587253625
31
0.000000000000000
  0
LINE
  5
F1085D
330
F1085E
100
AcDbEntity
8
Geo
100
AcDbLine
10
-24.3238508239376
20
11.7794587253625
30
0.000000000000000
11
-24.2238508239376
21
11.6994968764341
31
0.000000000000000
  0
LINE
  5
F1085F
330
F10860
100
AcDbEntity
8
Geo
100
AcDbLine
10
-24.2238508239376
20
11.6994968764341
30
0.000000000000000
11
-24.1238508239376
21
11.6188168668793
31
0.000000000000000
  0
LINE
  5
F10861
330
F10862
100
AcDbEntity
8
Geo
100
AcDbLine
10
-24.1238508239376
20
11.6188168668793
30
0.000000000000000
11
-24.0238508239376
21
11.5374313027854
31
0.000000000000000
  0
LINE
  5
F10863
330
F10864
100
AcDbEntity
8
Geo
100
AcDbLine
10
-24.0238508239376
20
11.5374313027854
30
0.000000000000000
11
-23.9238508239376
21
11.4553529004812
31
0.000000000000000
  0
LINE
  5
F10865
330
F10866
100
AcDbEntity
8
Geo
100
AcDbLine
10
-23.9238508239376
20
11.4553529004812
30
0.000000000000000
11
-23.8238508239376
21
11.3725944845501
31
0.000000000000000
  0
LINE
  5
F10867
330
F10868
100
AcDbEntity
8
Geo
100
AcDbLine
10
-23.8238508239376
20
11.3725944845501
30
0.000000000000000
11
-23.7238508239376
21
11.2891689858261
31
0.000000000000000
  0
LINE
  5
F10869
330
F1086A
100
AcDbEntity
8
Geo
100
AcDbLine
10
-23.7238508239376
20
11.2891689858261
30
0.000000000000000
11
-23.6238508239376
21
11.2050894393738
31
0.000000000000000
  0
LINE
  5
F1086B
330
F1086C
100
AcDbEntity
8
Geo
100
AcDbLine
10
-23.6238508239376
20
11.2050894393738
30
0.000000000000000
11
-23.5238508239376
21
11.1203689824513
31
0.000000000000000
  0
LINE
  5
F1086D
330
F1086E
100
AcDbEntity
8
Geo
100
AcDbLine
10
-23.5238508239376
20
11.1203689824513
30
0.000000000000000
11
-23.4238508239376
21
11.0350208524575
31
0.000000000000000
  0
LINE
  5
F1086F
330
F10870
100
AcDbEntity
8
Geo
100
AcDbLine
10
-23.4238508239376
20
11.0350208524575
30
0.000000000000000
11
-23.3238508239376
21
10.9490583848641
31
0.000000000000000
  0
LINE
  5
F10871
330
F10872
100
AcDbEntity
8
Geo
100
AcDbLine
10
-23.3238508239376
20
10.9490583848641
30
0.000000000000000
11
-23.2238508239376
21
10.8624950111318
31
0.000000000000000
  0
LINE
  5
F10873
330
F10874
100
AcDbEntity
8
Geo
100
AcDbLine
10
-23.2238508239376
20
10.8624950111318
30
0.000000000000000
11
-23.1238508239376
21
10.7753442566116
31
0.000000000000000
  0
LINE
  5
F10875
330
F10876
100
AcDbEntity
8
Geo
100
AcDbLine
10
-23.1238508239376
20
10.7753442566116
30
0.000000000000000
11
-23.0238508239376
21
10.6876197384316
31
0.000000000000000
  0
LINE
  5
F10877
330
F10878
100
AcDbEntity
8
Geo
100
AcDbLine
10
-23.0238508239376
20
10.6876197384316
30
0.000000000000000
11
-22.9238508239376
21
10.5993351633693
31
0.000000000000000
  0
LINE
  5
F10879
330
F1087A
100
AcDbEntity
8
Geo
100
AcDbLine
10
-22.9238508239376
20
10.5993351633693
30
0.000000000000000
11
-22.8238508239376
21
10.5105043257100
31
0.000000000000000
  0
LINE
  5
F1087B
330
F1087C
100
AcDbEntity
8
Geo
100
AcDbLine
10
-22.8238508239376
20
10.5105043257100
30
0.000000000000000
11
-22.7238508239376
21
10.4211411050913
31
0.000000000000000
  0
LINE
  5
F1087D
330
F1087E
100
AcDbEntity
8
Geo
100
AcDbLine
10
-22.7238508239376
20
10.4211411050913
30
0.000000000000000
11
-22.6238508239376
21
10.3312594643345
31
0.000000000000000
  0
LINE
  5
F1087F
330
F10880
100
AcDbEntity
8
Geo
100
AcDbLine
10
-22.6238508239376
20
10.3312594643345
30
0.000000000000000
11
-22.5238508239376
21
10.2408734472633
31
0.000000000000000
  0
LINE
  5
F10881
330
F10882
100
AcDbEntity
8
Geo
100
AcDbLine
10
-22.5238508239376
20
10.2408734472633
30
0.000000000000000
11
-22.4238508239376
21
10.1499971765089
31
0.000000000000000
  0
LINE
  5
F10883
330
F10884
100
AcDbEntity
8
Geo
100
AcDbLine
10
-22.4238508239376
20
10.1499971765089
30
0.000000000000000
11
-22.3238508239376
21
10.0586448513037
31
0.000000000000000
  0
LINE
  5
F10885
330
F10886
100
AcDbEntity
8
Geo
100
AcDbLine
10
-22.3238508239376
20
10.0586448513037
30
0.000000000000000
11
-22.2238508239376
21
9.96683074526270
31
0.000000000000000
  0
LINE
  5
F10887
330
F10888
100
AcDbEntity
8
Geo
100
AcDbLine
10
-22.2238508239376
20
9.96683074526270
30
0.000000000000000
11
-22.1238508239376
21
9.87456920415311
31
0.000000000000000
  0
LINE
  5
F10889
330
F1088A
100
AcDbEntity
8
Geo
100
AcDbLine
10
-22.1238508239376
20
9.87456920415311
30
0.000000000000000
11
-22.0238508239376
21
9.78187464365305
31
0.000000000000000
  0
LINE
  5
F1088B
330
F1088C
100
AcDbEntity
8
Geo
100
AcDbLine
10
-22.0238508239376
20
9.78187464365305
30
0.000000000000000
11
-21.9238508239376
21
9.68876154709903
31
0.000000000000000
  0
LINE
  5
F1088D
330
F1088E
100
AcDbEntity
8
Geo
100
AcDbLine
10
-21.9238508239376
20
9.68876154709903
30
0.000000000000000
11
-21.8238508239376
21
9.59524446322293
31
0.000000000000000
  0
LINE
  5
F1088F
330
F10890
100
AcDbEntity
8
Geo
100
AcDbLine
10
-21.8238508239376
20
9.59524446322293
30
0.000000000000000
11
-21.7238508239376
21
9.50133800387885
31
0.000000000000000
  0
LINE
  5
F10891
330
F10892
100
AcDbEntity
8
Geo
100
AcDbLine
10
-21.7238508239376
20
9.50133800387885
30
0.000000000000000
11
-21.6238508239376
21
9.40705684176001
31
0.000000000000000
  0
LINE
  5
F10893
330
F10894
100
AcDbEntity
8
Geo
100
AcDbLine
10
-21.6238508239376
20
9.40705684176001
30
0.000000000000000
11
-21.5238508239376
21
9.31241570810618
31
0.000000000000000
  0
LINE
  5
F10895
330
F10896
100
AcDbEntity
8
Geo
100
AcDbLine
10
-21.5238508239376
20
9.31241570810618
30
0.000000000000000
11
-21.4238508239376
21
9.21742939040194
31
0.000000000000000
  0
LINE
  5
F10897
330
F10898
100
AcDbEntity
8
Geo
100
AcDbLine
10
-21.4238508239376
20
9.21742939040194
30
0.000000000000000
11
-21.3238508239376
21
9.12211273006619
31
0.000000000000000
  0
LINE
  5
F10899
330
F1089A
100
AcDbEntity
8
Geo
100
AcDbLine
10
-21.3238508239376
20
9.12211273006619
30
0.000000000000000
11
-21.2238508239376
21
9.02648062013319
31
0.000000000000000
  0
LINE
  5
F1089B
330
F1089C
100
AcDbEntity
8
Geo
100
AcDbLine
10
-21.2238508239376
20
9.02648062013319
30
0.000000000000000
11
-21.1238508239376
21
8.93054800292554
31
0.000000000000000
  0
LINE
  5
F1089D
330
F1089E
100
AcDbEntity
8
Geo
100
AcDbLine
10
-21.1238508239376
20
8.93054800292554
30
0.000000000000000
11
-21.0238508239376
21
8.83432986771951
31
0.000000000000000
  0
LINE
  5
F1089F
330
F108A0
100
AcDbEntity
8
Geo
100
AcDbLine
10
-21.0238508239376
20
8.83432986771951
30
0.000000000000000
11
-20.9238508239376
21
8.73784124840297
31
0.000000000000000
  0
LINE
  5
F108A1
330
F108A2
100
AcDbEntity
8
Geo
100
AcDbLine
10
-20.9238508239376
20
8.73784124840297
30
0.000000000000000
11
-20.8238508239376
21
8.64109722112639
31
0.000000000000000
  0
LINE
  5
F108A3
330
F108A4
100
AcDbEntity
8
Geo
100
AcDbLine
10
-20.8238508239376
20
8.64109722112639
30
0.000000000000000
11
-20.7238508239376
21
8.54411290194719
31
0.000000000000000
  0
LINE
  5
F108A5
330
F108A6
100
AcDbEntity
8
Geo
100
AcDbLine
10
-20.7238508239376
20
8.54411290194719
30
0.000000000000000
11
-20.6238508239376
21
8.44690344446795
31
0.000000000000000
  0
LINE
  5
F108A7
330
F108A8
100
AcDbEntity
8
Geo
100
AcDbLine
10
-20.6238508239376
20
8.44690344446795
30
0.000000000000000
11
-20.5238508239376
21
8.34948403746861
31
0.000000000000000
  0
LINE
  5
F108A9
330
F108AA
100
AcDbEntity
8
Geo
100
AcDbLine
10
-20.5238508239376
20
8.34948403746861
30
0.000000000000000
11
-20.4238508239376
21
8.25186990253333
31
0.000000000000000
  0
LINE
  5
F108AB
330
F108AC
100
AcDbEntity
8
Geo
100
AcDbLine
10
-20.4238508239376
20
8.25186990253333
30
0.000000000000000
11
-20.3238508239376
21
8.15407629167209
31
0.000000000000000
  0
LINE
  5
F108AD
330
F108AE
100
AcDbEntity
8
Geo
100
AcDbLine
10
-20.3238508239376
20
8.15407629167209
30
0.000000000000000
11
-20.2238508239376
21
8.05611848493762
31
0.000000000000000
  0
LINE
  5
F108AF
330
F108B0
100
AcDbEntity
8
Geo
100
AcDbLine
10
-20.2238508239376
20
8.05611848493762
30
0.000000000000000
11
-20.1238508239376
21
7.95801178803794
31
0.000000000000000
  0
LINE
  5
F108B1
330
F108B2
100
AcDbEntity
8
Geo
100
AcDbLine
10
-20.1238508239376
20
7.95801178803794
30
0.000000000000000
11
-20.0238508239376
21
7.85977152994484
31
0.000000000000000
  0
LINE
  5
F108B3
330
F108B4
100
AcDbEntity
8
Geo
100
AcDbLine
10
-20.0238508239376
20
7.85977152994484
30
0.000000000000000
11
-19.9238508239376
21
7.76141306049877
31
0.000000000000000
  0
LINE
  5
F108B5
330
F108B6
100
AcDbEntity
8
Geo
100
AcDbLine
10
-19.9238508239376
20
7.76141306049877
30
0.000000000000000
11
-19.8238508239376
21
7.66295174801048
31
0.000000000000000
  0
LINE
  5
F108B7
330
F108B8
100
AcDbEntity
8
Geo
100
AcDbLine
10
-19.8238508239376
20
7.66295174801048
30
0.000000000000000
11
-19.7238508239376
21
7.56440297685972
31
0.000000000000000
  0
LINE
  5
F108B9
330
F108BA
100
AcDbEntity
8
Geo
100
AcDbLine
10
-19.7238508239376
20
7.56440297685972
30
0.000000000000000
11
-19.6238508239376
21
7.46578214509149
31
0.000000000000000
  0
LINE
  5
F108BB
330
F108BC
100
AcDbEntity
8
Geo
100
AcDbLine
10
-19.6238508239376
20
7.46578214509149
30
0.000000000000000
11
-19.5238508239376
21
7.36710466201011
31
0.000000000000000
  0
LINE
  5
F108BD
330
F108BE
100
AcDbEntity
8
Geo
100
AcDbLine
10
-19.5238508239376
20
7.36710466201011
30
0.000000000000000
11
-19.4238508239376
21
7.26838594577155
31
0.000000000000000
  0
LINE
  5
F108BF
330
F108C0
100
AcDbEntity
8
Geo
100
AcDbLine
10
-19.4238508239376
20
7.26838594577155
30
0.000000000000000
11
-19.3238508239376
21
7.16964142097439
31
0.000000000000000
  0
LINE
  5
F108C1
330
F108C2
100
AcDbEntity
8
Geo
100
AcDbLine
10
-19.3238508239376
20
7.16964142097439
30
0.000000000000000
11
-19.2238508239376
21
7.07088651624972
31
0.000000000000000
  0
LINE
  5
F108C3
330
F108C4
100
AcDbEntity
8
Geo
100
AcDbLine
10
-19.2238508239376
20
7.07088651624972
30
0.000000000000000
11
-19.1238508239376
21
6.97213666185049
31
0.000000000000000
  0
LINE
  5
F108C5
330
F108C6
100
AcDbEntity
8
Geo
100
AcDbLine
10
-19.1238508239376
20
6.97213666185049
30
0.000000000000000
11
-19.0238508239376
21
6.87340728724055
31
0.000000000000000
  0
LINE
  5
F108C7
330
F108C8
100
AcDbEntity
8
Geo
100
AcDbLine
10
-19.0238508239376
20
6.87340728724055
30
0.000000000000000
11
-18.9238508239376
21
6.77471381868382
31
0.000000000000000
  0
LINE
  5
F108C9
330
F108CA
100
AcDbEntity
8
Geo
100
AcDbLine
10
-18.9238508239376
20
6.77471381868382
30
0.000000000000000
11
-18.8238508239376
21
6.67607167683396
31
0.000000000000000
  0
LINE
  5
F108CB
330
F108CC
100
AcDbEntity
8
Geo
100
AcDbLine
10
-18.8238508239376
20
6.67607167683396
30
0.000000000000000
11
-18.7238508239376
21
6.57749627432495
31
0.000000000000000
  0
LINE
  5
F108CD
330
F108CE
100
AcDbEntity
8
Geo
100
AcDbLine
10
-18.7238508239376
20
6.57749627432495
30
0.000000000000000
11
-18.6238508239376
21
6.47900301336289
31
0.000000000000000
  0
LINE
  5
F108CF
330
F108D0
100
AcDbEntity
8
Geo
100
AcDbLine
10
-18.6238508239376
20
6.47900301336289
30
0.000000000000000
11
-18.5238508239376
21
6.38060728331941
31
0.000000000000000
  0
LINE
  5
F108D1
330
F108D2
100
AcDbEntity
8
Geo
100
AcDbLine
10
-18.5238508239376
20
6.38060728331941
30
0.000000000000000
11
-18.4238508239376
21
6.28232445832715
31
0.000000000000000
  0
LINE
  5
F108D3
330
F108D4
100
AcDbEntity
8
Geo
100
AcDbLine
10
-18.4238508239376
20
6.28232445832715
30
0.000000000000000
11
-18.3238508239376
21
6.18416989487756
31
0.000000000000000
  0
LINE
  5
F108D5
330
F108D6
100
AcDbEntity
8
Geo
100
AcDbLine
10
-18.3238508239376
20
6.18416989487756
30
0.000000000000000
11
-18.2238508239376
21
6.08615892942148
31
0.000000000000000
  0
LINE
  5
F108D7
330
F108D8
100
AcDbEntity
8
Geo
100
AcDbLine
10
-18.2238508239376
20
6.08615892942148
30
0.000000000000000
11
-18.1238508239376
21
5.98830687597287
31
0.000000000000000
  0
LINE
  5
F108D9
330
F108DA
100
AcDbEntity
8
Geo
100
AcDbLine
10
-18.1238508239376
20
5.98830687597287
30
0.000000000000000
11
-18.0238508239376
21
5.89062902371598
31
0.000000000000000
  0
LINE
  5
F108DB
330
F108DC
100
AcDbEntity
8
Geo
100
AcDbLine
10
-18.0238508239376
20
5.89062902371598
30
0.000000000000000
11
-17.9238508239376
21
5.79314063461652
31
0.000000000000000
  0
LINE
  5
F108DD
330
F108DE
100
AcDbEntity
8
Geo
100
AcDbLine
10
-17.9238508239376
20
5.79314063461652
30
0.000000000000000
11
-17.8238508239376
21
5.69585694103695
31
0.000000000000000
  0
LINE
  5
F108DF
330
F108E0
100
AcDbEntity
8
Geo
100
AcDbLine
10
-17.8238508239376
20
5.69585694103695
30
0.000000000000000
11
-17.7238508239376
21
5.59879314335645
31
0.000000000000000
  0
LINE
  5
F108E1
330
F108E2
100
AcDbEntity
8
Geo
100
AcDbLine
10
-17.7238508239376
20
5.59879314335645
30
0.000000000000000
11
-17.6238508239376
21
5.50196440759594
31
0.000000000000000
  0
LINE
  5
F108E3
330
F108E4
100
AcDbEntity
8
Geo
100
AcDbLine
10
-17.6238508239376
20
5.50196440759594
30
0.000000000000000
11
-17.5238508239376
21
5.40538586304839
31
0.000000000000000
  0
LINE
  5
F108E5
330
F108E6
100
AcDbEntity
8
Geo
100
AcDbLine
10
-17.5238508239376
20
5.40538586304839
30
0.000000000000000
11
-17.4238508239376
21
5.30907259991489
31
0.000000000000000
  0
LINE
  5
F108E7
330
F108E8
100
AcDbEntity
8
Geo
100
AcDbLine
10
-17.4238508239376
20
5.30907259991489
30
0.000000000000000
11
-17.3238508239376
21
5.21303966694687
31
0.000000000000000
  0
LINE
  5
F108E9
330
F108EA
100
AcDbEntity
8
Geo
100
AcDbLine
10
-17.3238508239376
20
5.21303966694687
30
0.000000000000000
11
-17.2238508239376
21
5.11730206909470
31
0.000000000000000
  0
LINE
  5
F108EB
330
F108EC
100
AcDbEntity
8
Geo
100
AcDbLine
10
-17.2238508239376
20
5.11730206909470
30
0.000000000000000
11
-17.1238508239376
21
5.02187476516330
31
0.000000000000000
  0
LINE
  5
F108ED
330
F108EE
100
AcDbEntity
8
Geo
100
AcDbLine
10
-17.1238508239376
20
5.02187476516330
30
0.000000000000000
11
-17.0238508239376
21
4.92677266547474
31
0.000000000000000
  0
LINE
  5
F108EF
330
F108F0
100
AcDbEntity
8
Geo
100
AcDbLine
10
-17.0238508239376
20
4.92677266547474
30
0.000000000000000
11
-16.9238508239376
21
4.83201062953862
31
0.000000000000000
  0
LINE
  5
F108F1
330
F108F2
100
AcDbEntity
8
Geo
100
AcDbLine
10
-16.9238508239376
20
4.83201062953862
30
0.000000000000000
11
-16.8238508239376
21
4.73760346373026
31
0.000000000000000
  0
LINE
  5
F108F3
330
F108F4
100
AcDbEntity
8
Geo
100
AcDbLine
10
-16.8238508239376
20
4.73760346373026
30
0.000000000000000
11
-16.7238508239376
21
4.64356591897724
31
0.000000000000000
  0
LINE
  5
F108F5
330
F108F6
100
AcDbEntity
8
Geo
100
AcDbLine
10
-16.7238508239376
20
4.64356591897724
30
0.000000000000000
11
-16.6238508239376
21
4.54991268845462
31
0.000000000000000
  0
LINE
  5
F108F7
330
F108F8
100
AcDbEntity
8
Geo
100
AcDbLine
10
-16.6238508239376
20
4.54991268845462
30
0.000000000000000
11
-16.5238508239376
21
4.45665840528913
31
0.000000000000000
  0
LINE
  5
F108F9
330
F108FA
100
AcDbEntity
8
Geo
100
AcDbLine
10
-16.5238508239376
20
4.45665840528913
30
0.000000000000000
11
-16.4238508239376
21
4.36381764027279
31
0.000000000000000
  0
LINE
  5
F108FB
330
F108FC
100
AcDbEntity
8
Geo
100
AcDbLine
10
-16.4238508239376
20
4.36381764027279
30
0.000000000000000
11
-16.3238508239376
21
4.27140489958625
31
0.000000000000000
  0
LINE
  5
F108FD
330
F108FE
100
AcDbEntity
8
Geo
100
AcDbLine
10
-16.3238508239376
20
4.27140489958625
30
0.000000000000000
11
-16.2238508239376
21
4.17943462253222
31
0.000000000000000
  0
LINE
  5
F108FF
330
F10900
100
AcDbEntity
8
Geo
100
AcDbLine
10
-16.2238508239376
20
4.17943462253222
30
0.000000000000000
11
-16.1238508239376
21
4.08792117927938
31
0.000000000000000
  0
LINE
  5
F10901
330
F10902
100
AcDbEntity
8
Geo
100
AcDbLine
10
-16.1238508239376
20
4.08792117927938
30
0.000000000000000
11
-16.0238508239376
21
3.99687886861706
31
0.000000000000000
  0
LINE
  5
F10903
330
F10904
100
AcDbEntity
8
Geo
100
AcDbLine
10
51.9761491760624
20
14.4032090199480
30
0.000000000000000
11
51.9761491760624
21
7.10320901994797
31
0.000000000000000
  0
LINE
  5
F10905
330
F10906
100
AcDbEntity
8
Geo
100
AcDbLine
10
-31.0238508239376
20
7.10320901994797
30
0.000000000000000
11
-31.0238508239376
21
-0.546790980052032
31
0.000000000000000
  0
LINE
  5
F10907
330
F10908
100
AcDbEntity
8
Geo
100
AcDbLine
10
-31.0238508239376
20
-0.546790980052032
30
0.000000000000000
11
-30.6738508239376
21
-0.896790980052032
31
0.000000000000000
  0
LINE
  5
F10909
330
F1090A
100
AcDbEntity
8
Geo
100
AcDbLine
10
-30.6738508239376
20
-0.896790980052032
30
0.000000000000000
11
-11.0238508239376
21
-0.896790980052032
31
0.000000000000000
  0
LINE
  5
F1090B
330
F1090C
100
AcDbEntity
8
Geo
100
AcDbLine
10
-11.0238508239376
20
-0.896790980052032
30
0.000000000000000
11
51.2761491760624
21
-0.896790980052032
31
0.000000000000000
  0
LINE
  5
F1090D
330
F1090E
100
AcDbEntity
8
Geo
100
AcDbLine
10
51.2761491760624
20
-0.896790980052032
30
0.000000000000000
11
51.9761491760624
21
-0.196790980052032
31
0.000000000000000
  0
LINE
  5
F1090F
330
F10910
100
AcDbEntity
8
Geo
100
AcDbLine
10
-31.0238508239376
20
14.7532090199480
30
0.000000000000000
11
-31.0238508239376
21
-0.546790980052032
31
0.000000000000000
  0
LINE
  5
F10911
330
F10912
100
AcDbEntity
8
Geo
100
AcDbLine
10
-30.6738508239376
20
15.1032090199480
30
0.000000000000000
11
-30.6738508239376
21
-0.896790980052032
31
0.000000000000000
  0
LINE
  5
F10913
330
F10914
100
AcDbEntity
8
Geo
100
AcDbLine
10
-30.6738508239376
20
15.1032090199480
30
0.000000000000000
11
-30.6738508239376
21
-0.896790980052032
31
0.000000000000000
  0
LINE
  5
F10915
330
F10916
100
AcDbEntity
8
Geo
100
AcDbLine
10
-11.0238508239376
20
15.1032090199480
30
0.000000000000000
11
-11.0238508239376
21
-0.896790980052032
31
0.000000000000000
  0
LINE
  5
F10917
330
F10918
100
AcDbEntity
8
Geo
100
AcDbLine
10
-11.0238508239376
20
15.1032090199480
30
0.000000000000000
11
-11.0238508239376
21
-0.896790980052032
31
0.000000000000000
  0
LINE
  5
F10919
330
F1091A
100
AcDbEntity
8
Geo
100
AcDbLine
10
51.2761491760624
20
15.1032090199480
30
0.000000000000000
11
51.2761491760624
21
-0.896790980052032
31
0.000000000000000
  0
LINE
  5
F1091B
330
F1091C
100
AcDbEntity
8
Geo
100
AcDbLine
10
51.9761491760624
20
14.4032090199480
30
0.000000000000000
11
51.9761491760624
21
-0.196790980052032
31
0.000000000000000
  0
LINE
  5
F1091D
330
F1091E
100
AcDbEntity
8
Geo
 6
Dashdot
100
AcDbLine
10
-31.0238508239376
20
7.10320901994797
30
0.000000000000000
11
51.9761491760624
21
7.10320901994797
31
0.000000000000000
  0
LWPOLYLINE
  5
F1091F
330
F10920
100
AcDbEntity
8
Rahmen
100
AcDbPolyline
90
   4
70
   1
43
   0.0
 10
-134.596704249783
 20
99.9002601908066
 10
143.339115351258
 20
99.9002601908066
 10
143.339115351258
 20
-100.082393755421
 10
-134.596704249783
 20
-100.082393755421
  0
TEXT
  5
F10921
330
F10922
 100
AcDbEntity
8
Text
100
AcDbText
10
-133.503902862099
20
-99.5823937554206
30
0.000000000000000
40
1.00000000000000
1
ISBESketcher - ©ISBE GmbH      lizensiert für: Schmid Werkzeuge
100
AcDbText
  0
LWPOLYLINE
  5
F10923
330
F10924
100
AcDbEntity
8
Rahmen
100
AcDbPolyline
90
   4
70
   1
43
   0.0
 10
103.451864700781
 20
-97.1682567215958
 10
143.339115351258
 20
-97.1682567215958
 10
143.339115351258
 20
-100.082393755421
 10
103.451864700781
 20
-100.082393755421
  0
TEXT
  5
F10925
330
F10926
 100
AcDbEntity
8
Text
100
AcDbText
10
104.500000000000
20
-99.4570685169124
30
0.000000000000000
40
1.50000000000000
1
Ers. durch:
100
AcDbText
  0
TEXT
  5
F10927
330
F10928
 100
AcDbEntity
8
Text
100
AcDbText
10
0.000000000000000
20
0.500000000000000
30
0.000000000000000
40
1.50000000000000
1

100
AcDbText
  0
LWPOLYLINE
  5
F10929
330
F1092A
100
AcDbEntity
8
Rahmen
100
AcDbPolyline
90
   4
70
   1
43
   0.0
 10
63.3824804856895
 20
-97.1682567215958
 10
103.451864700781
 20
-97.1682567215958
 10
103.451864700781
 20
-100.082393755421
 10
63.3824804856895
 20
-100.082393755421
  0
TEXT
  5
F1092B
330
F1092C
 100
AcDbEntity
8
Text
100
AcDbText
10
64.5000000000000
20
-99.4570685169124
30
0.000000000000000
40
1.50000000000000
1
Ers. für:
100
AcDbText
  0
TEXT
  5
F1092D
330
F1092E
 100
AcDbEntity
8
Text
100
AcDbText
10
0.000000000000000
20
0.500000000000000
30
0.000000000000000
40
1.50000000000000
1

100
AcDbText
  0
LWPOLYLINE
  5
F1092F
330
F10930
100
AcDbEntity
8
Rahmen
100
AcDbPolyline
90
   4
70
   1
43
   0.0
 10
130.043365134432
 20
-94.0719861231570
 10
143.339115351258
 20
-94.0719861231570
 10
143.339115351258
 20
-97.1682567215958
 10
130.043365134432
 20
-97.1682567215958
  0
TEXT
  5
F10931
330
F10932
 100
AcDbEntity
8
Text
100
AcDbText
10
131.166666666667
20
-96.4570685169124
30
0.000000000000000
40
1.50000000000000
1
Blätter
100
AcDbText
  0
TEXT
  5
F10933
330
F10934
 100
AcDbEntity
8
Text
100
AcDbText
10
0.000000000000000
20
0.500000000000000
30
0.000000000000000
40
1.50000000000000
1

100
AcDbText
  0
LWPOLYLINE
  5
F10935
330
F10936
100
AcDbEntity
8
Rahmen
100
AcDbPolyline
90
   4
70
   1
43
   0.0
 10
130.043365134432
 20
-91.1578490893322
 10
143.339115351258
 20
-91.1578490893322
 10
143.339115351258
 20
-94.0719861231570
 10
130.043365134432
 20
-94.0719861231570
  0
TEXT
  5
F10937
330
F10938
 100
AcDbEntity
8
Text
100
AcDbText
10
131.166666666667
20
-93.4570685169124
30
0.000000000000000
40
1.50000000000000
1
Blatt
100
AcDbText
  0
TEXT
  5
F10939
330
F1093A
 100
AcDbEntity
8
Text
100
AcDbText
10
0.000000000000000
20
0.500000000000000
30
0.000000000000000
40
1.50000000000000
1

100
AcDbText
  0
LWPOLYLINE
  5
F1093B
330
F1093C
100
AcDbEntity
8
Rahmen
100
AcDbPolyline
90
   4
70
   1
43
   0.0
 10
63.3824804856895
 20
-91.1578490893322
 10
130.043365134432
 20
-91.1578490893322
 10
130.043365134432
 20
-97.1682567215958
 10
63.3824804856895
 20
-97.1682567215958
  0
TEXT
  5
F1093D
330
F1093E
 100
AcDbEntity
8
Text
100
AcDbText
10
64.5000000000000
20
-93.4570685169124
30
0.000000000000000
40
1.50000000000000
1
Datum:
100
AcDbText
  0
TEXT
  5
F1093F
330
F10940
 100
AcDbEntity
8
Text
100
AcDbText
10
90.9139924833767
20
-96.4570685169124
30
0.000000000000000
40
1.50000000000000
1
23.03.2021
100
AcDbText
  0
LWPOLYLINE
  5
F10941
330
F10942
100
AcDbEntity
8
Rahmen
100
AcDbPolyline
90
   4
70
   1
43
   0.0
 10
63.3824804856895
 20
-85.1474414570685
 10
143.339115351258
 20
-85.1474414570685
 10
143.339115351258
 20
-91.1578490893322
 10
63.3824804856895
 20
-91.1578490893322
  0
TEXT
  5
F10943
330
F10944
 100
AcDbEntity
8
Text
100
AcDbText
10
0.000000000000000
20
0.500000000000000
30
0.000000000000000
40
1.50000000000000
1

100
AcDbText
  0
TEXT
  5
F10945
330
F10946
 100
AcDbEntity
8
Text
100
AcDbText
10
72.4462272333044
20
-89.6254697889564
30
0.000000000000000
40
2.50000000000000
1
VHM-Schruppfräser 0240-160-b
100
AcDbText
  0
LWPOLYLINE
  5
F10947
330
F10948
100
AcDbEntity
8
Rahmen
100
AcDbPolyline
90
   4
70
   1
43
   0.0
 10
103.451864700781
 20
-79.1370338248049
 10
143.339115351258
 20
-79.1370338248049
 10
143.339115351258
 20
-85.1474414570685
 10
103.451864700781
 20
-85.1474414570685
  0
TEXT
  5
F10949
330
F1094A
 100
AcDbEntity
8
Text
100
AcDbText
10
104.500000000000
20
-81.4570685169124
30
0.000000000000000
40
1.50000000000000
1
Zu bearb. Material:
100
AcDbText
  0
TEXT
  5
F1094B
330
F1094C
 100
AcDbEntity
8
Text
100
AcDbText
10
0.000000000000000
20
0.500000000000000
30
0.000000000000000
40
1.50000000000000
1

100
AcDbText
  0
LWPOLYLINE
  5
F1094D
330
F1094E
100
AcDbEntity
8
Rahmen
100
AcDbPolyline
90
   4
70
   1
43
   0.0
 10
63.3824804856895
 20
-79.1370338248049
 10
103.451864700781
 20
-79.1370338248049
 10
103.451864700781
 20
-85.1474414570685
 10
63.3824804856895
 20
-85.1474414570685
  0
TEXT
  5
F1094F
330
F10950
 100
AcDbEntity
8
Text
100
AcDbText
10
64.5000000000000
20
-81.4570685169124
30
0.000000000000000
40
1.50000000000000
1
Werkstoff:
100
AcDbText
  0
TEXT
  5
F10951
330
F10952
 100
AcDbEntity
8
Text
100
AcDbText
10
80.7679965307892
20
-84.4570685169124
30
0.000000000000000
40
1.50000000000000
1
VHM
100
AcDbText
  0
LWPOLYLINE
  5
F10953
330
F10954
100
AcDbEntity
8
Rahmen
100
AcDbPolyline
90
   4
70
   1
43
   0.0
 10
103.451864700781
 20
-76.0407632263660
 10
143.339115351258
 20
-76.0407632263660
 10
143.339115351258
 20
-79.1370338248049
 10
103.451864700781
 20
-79.1370338248049
  0
TEXT
  5
F10955
330
F10956
 100
AcDbEntity
8
Text
100
AcDbText
10
0.000000000000000
20
0.500000000000000
30
0.000000000000000
40
1.50000000000000
1

100
AcDbText
  0
TEXT
  5
F10957
330
F10958
 100
AcDbEntity
8
Text
100
AcDbText
10
0.000000000000000
20
0.500000000000000
30
0.000000000000000
40
1.50000000000000
1

100
AcDbText
  0
LWPOLYLINE
  5
F10959
330
F1095A
100
AcDbEntity
8
Rahmen
100
AcDbPolyline
90
   4
70
   1
43
   0.0
 10
63.3824804856895
 20
-76.0407632263660
 10
103.451864700781
 20
-76.0407632263660
 10
103.451864700781
 20
-79.1370338248049
 10
63.3824804856895
 20
-79.1370338248049
  0
TEXT
  5
F1095B
330
F1095C
 100
AcDbEntity
8
Text
100
AcDbText
10
64.5000000000000
20
-78.4570685169124
30
0.000000000000000
40
1.50000000000000
1
Maßstab:
100
AcDbText
  0
TEXT
  5
F1095D
330
F1095E
 100
AcDbEntity
8
Text
100
AcDbText
10
89.0411968777103
20
-78.4570685169124
30
0.000000000000000
40
1.50000000000000
1
1 : 1
100
AcDbText
0
VIEWPORT
5
294
102
{ACAD_XDICTIONARY
360
58A
102
}
330
25D
100
AcDbEntity
67
1
8
0
60
1
100
AcDbViewport
10
0.0
20
0.0
30
0.0
40
10.0
41
10.0
68
-1
69
1
12
0.0
22
0.0
13
0.0
23
0.0
14
1.0
24
1.0
15
0.0
25
0.0
16
0.0
26
0.0
36
1.0
17
0.0
27
0.0
37
0.0
42
0.0
43
0.0
44
0.0
45
10.0
50
0.0
51
0.0000000000007958
72
100
90
32800
1

281
0
71
0
74
0
110
0.0
120
0.0
130
0.0
111
1.0
121
0.0
131
0.0
112
0.0
122
1.0
132
0.0
79
0
146
0.0
1001
VD_INVISIBLE_NOT_FOR_READ
1000
VD_INVISIBLE_NOT_FOR_READ
0
VIEWPORT
5
295
102
{ACAD_XDICTIONARY
360
58C
102
}
330
25D
100
AcDbEntity
67
1
8
0
60
1
100
AcDbViewport
10
0.0
20
0.0
30
0.0
40
10.0
41
10.0
68
0
69
2
12
0.0
22
0.0
13
0.0
23
0.0
14
1.0
24
1.0
15
0.0
25
0.0
16
0.0
26
0.0
36
1.0
17
0.0
27
0.0
37
0.0
42
0.0
43
0.0
44
0.0
45
10.0
50
0.0
51
0.0000000000007958
72
100
90
163872
1

281
0
71
0
74
0
110
0.0
120
0.0
130
0.0
111
1.0
121
0.0
131
0.0
112
0.0
122
1.0
132
0.0
79
0
146
0.0
1001
VD_INVISIBLE_NOT_FOR_READ
1000
VD_INVISIBLE_NOT_FOR_READ
0
ENDSEC
0
SECTION
2
OBJECTS
0
DICTIONARY
5
13
330
0
100
AcDbDictionary
281
1
3
ACAD_COLOR
350
FA7
3
ACAD_GROUP
350
14
3
ACAD_LAYOUT
350
FCF
3
ACAD_MATERIAL
350
F7A
3
ACAD_MLEADERSTYLE
350
FCD
3
ACAD_MLINESTYLE
350
16
3
ACAD_PLOTSETTINGS
350
17
3
ACAD_PLOTSTYLENAME
350
18
3
ACAD_SCALELIST
350
FAB
3
ACAD_TABLESTYLE
350
FA8
3
ACAD_VISUALSTYLE
350
F93
3
ACDB_RECOMPOSE_DATA
350
107E
3
AcDbVariableDictionary
350
FF0
3
DWGPROPS
350
107F
0
DICTIONARY
5
F10005
330
F10004
100
AcDbDictionary
280
1
281
1
3
ACAD_MTEXT_2008_RT
360
F10006
0
DICTIONARY
5
F10014
330
F10013
100
AcDbDictionary
280
1
281
1
3
ACAD_MTEXT_2008_RT
360
F10015
0
DICTIONARY
5
F10019
330
F10018
100
AcDbDictionary
280
1
281
1
3
ACAD_MTEXT_2008_RT
360
F1001A
0
DICTIONARY
5
F1000A
330
F10009
100
AcDbDictionary
280
1
281
1
3
ACAD_MTEXT_2008_RT
360
F1000B
0
DICTIONARY
5
F1000F
330
F1000E
100
AcDbDictionary
280
1
281
1
3
ACAD_MTEXT_2008_RT
360
F10010
0
DICTIONARY
5
FA7
102
{ACAD_REACTORS
330
13
102
}
330
13
100
AcDbDictionary
281
1
0
DICTIONARY
5
14
330
13
100
AcDbDictionary
281
1
0
DICTIONARY
5
FCF
102
{ACAD_REACTORS
330
13
102
}
330
13
100
AcDbDictionary
281
1
3
Layout1
350
FD1
3
Model
350
FD0
0
DICTIONARY
5
F7A
102
{ACAD_REACTORS
330
13
102
}
330
13
100
AcDbDictionary
281
1
3
ByBlock
350
F83
3
ByLayer
350
F7B
3
Global
350
F8B
0
DICTIONARY
5
FCD
102
{ACAD_REACTORS
330
13
102
}
330
13
100
AcDbDictionary
281
1
3
Standard
350
FCE
0
DICTIONARY
5
16
330
13
100
AcDbDictionary
281
1
3
Standard
350
FAA
0
DICTIONARY
5
17
102
{ACAD_REACTORS
330
13
102
}
330
13
100
AcDbDictionary
281
1
0
ACDBDICTIONARYWDFLT
5
18
102
{ACAD_REACTORS
330
13
102
}
330
13
100
AcDbDictionary
281
1
3
Normal
350
19
100
AcDbDictionaryWithDefault
340
19
0
DICTIONARY
5
FAB
102
{ACAD_REACTORS
330
13
102
}
330
13
100
AcDbDictionary
281
1
3
A0
350
FAC
3
A1
350
FAD
3
A2
350
FAE
3
A3
350
FAF
3
A4
350
FB0
3
A5
350
FB1
3
A6
350
FB2
3
A7
350
FB3
3
A8
350
FB4
3
A9
350
FB5
3
B0
350
FB6
3
B1
350
FB7
3
B2
350
FB8
3
B3
350
FB9
3
B4
350
FBA
3
B5
350
FBB
3
B6
350
FBC
3
B7
350
FBD
3
B8
350
FBE
3
B9
350
FBF
3
C0
350
FC0
3
C1
350
FC1
3
C2
350
FC2
3
C3
350
FC3
3
C4
350
FC4
3
C5
350
FC5
3
C6
350
FC6
3
C7
350
FC7
3
C8
350
FC8
3
C9
350
FC9
3
D0
350
FCA
3
D1
350
FCB
3
D2
350
FCC
0
DICTIONARY
5
FA8
102
{ACAD_REACTORS
330
13
102
}
330
13
100
AcDbDictionary
281
1
3
Standard
350
FA9
0
DICTIONARY
5
F93
102
{ACAD_REACTORS
330
13
102
}
330
13
100
AcDbDictionary
281
1
3
2dWireframe
350
F99
3
3D Hidden
350
F9B
3
3dWireframe
350
F9A
3
Basic
350
F98
3
Brighten
350
F9F
3
ColorChange
350
FA3
3
Conceptual
350
F9C
3
Dim
350
F9E
3
EdgeColorOff
350
FA6
3
Facepattern
350
FA2
3
Flat
350
F94
3
FlatWithEdges
350
F95
3
Gouraud
350
F96
3
GouraudWithEdges
350
F97
3
JitterOff
350
FA4
3
Linepattern
350
FA1
3
OverhangOff
350
FA5
3
Realistic
350
F9D
3
Thicken
350
FA0
0
XRECORD
5
107E
102
{ACAD_REACTORS
330
13
102
}
330
13
100
AcDbXrecord
280
1
90
1
330
FA9
330
F10004
330
F10013
330
F10018
330
F10009
330
F1000E
0
DICTIONARY
5
FF0
102
{ACAD_REACTORS
330
13
102
}
330
13
100
AcDbDictionary
281
1
3
CANNOSCALE
350
FF3
3
CMLEADERSTYLE
350
FF2
3
CTABLESTYLE
350
FF1
3
DIMASSOC
350
FF6
3
INDEXCTL
350
FF5
3
SORTENTS
350
FF4
3
XCLIPFRAME
350
1078
0
XRECORD
5
107F
102
{ACAD_REACTORS
330
13
102
}
330
13
100
AcDbXrecord
280
1
1
DWGPROPS COOKIE
2

3

4

6

7

8

9

300
=
301
=
302
=
303
=
304
=
305
=
306
=
307
=
308
=
309
=
40
0.0
41
0.0
42
0.0
1

90
0
0
XRECORD
5
F10006
102
{ACAD_REACTORS
330
F10005
102
}
330
F10005
100
AcDbXrecord
280
1
40
48458.0
1
0.35 x 45°
0
XRECORD
5
F10015
102
{ACAD_REACTORS
330
F10014
102
}
330
F10014
100
AcDbXrecord
280
1
40
48458.0
1
20
0
XRECORD
5
F1001A
102
{ACAD_REACTORS
330
F10019
102
}
330
F10019
100
AcDbXrecord
280
1
40
48458.0
1
83
0
XRECORD
5
F1000B
102
{ACAD_REACTORS
330
F1000A
102
}
330
F1000A
100
AcDbXrecord
280
1
40
48458.0
1
Ø16
0
LAYOUT
5
FD1
102
{ACAD_XDICTIONARY
360
10A9
102
}
102
{ACAD_REACTORS
330
FCF
102
}
330
FCF
100
AcDbPlotSettings
1

2
Microsoft XPS Document Writer
4

6

40
0.0
41
0.0
42
0.0
43
0.0
44
0.0
45
0.0
46
0.0
47
0.0
48
0.0
49
0.0
140
0.0
141
0.0
142
1.0
143
1.0
70
688
72
0
73
0
74
5
7

75
16
147
1.0
148
0.0
149
0.0
100
AcDbLayout
1
Layout1
70
1
71
1
10
0.0
20
0.0
11
12.0
21
9.0
12
0.0
22
0.0
32
0.0
14
1.000000000000000E+20
24
1.000000000000000E+20
34
1.000000000000000E+20
15
-1.000000000000000E+20
25
-1.000000000000000E+20
35
-1.000000000000000E+20
146
0.0
13
0.0
23
0.0
33
0.0
16
1.0
26
0.0
36
0.0
17
0.0
27
1.0
37
0.0
76
0
330
25D
0
LAYOUT
5
FD0
102
{ACAD_XDICTIONARY
360
10A7
102
}
102
{ACAD_REACTORS
330
FCF
102
}
330
FCF
100
AcDbPlotSettings
1

2
Microsoft XPS Document Writer
4

6

40
0.0
41
0.0
42
0.0
43
0.0
44
0.0
45
0.0
46
0.0
47
0.0
48
0.0
49
0.0
140
0.0
141
0.0
142
1.0
143
1.0
70
1712
72
0
73
0
74
0
7

75
0
147
1.0
148
0.0
149
0.0
100
AcDbLayout
1
Model
70
1
71
0
10
0.0
20
0.0
11
12.0
21
9.0
12
0.0
22
0.0
32
0.0
14
0.0
24
0.0
34
0.0
15
0.0
25
0.0
35
0.0
146
0.0
13
0.0
23
0.0
33
0.0
16
1.0
26
0.0
36
0.0
17
0.0
27
1.0
37
0.0
76
0
330
261
331
26B
0
MATERIAL
5
F83
102
{ACAD_XDICTIONARY
360
F84
102
}
102
{ACAD_REACTORS
330
F7A
102
}
330
F7A
100
AcDbMaterial
1
ByBlock
72
0
43
0.0208333333333333
43
0.0
43
0.0
43
0.0
43
0.0
43
0.0208333333333333
43
0.0
43
0.0
43
0.0
43
0.0
43
1.0
43
0.0
43
0.0
43
0.0
43
0.0
43
1.0
77
0
47
0.0208333333333333
47
0.0
47
0.0
47
0.0
47
0.0
47
0.0208333333333333
47
0.0
47
0.0
47
0.0
47
0.0
47
1.0
47
0.0
47
0.0
47
0.0
47
0.0
47
1.0
171
0
49
0.0208333333333333
49
0.0
49
0.0
49
0.0
49
0.0
49
0.0208333333333333
49
0.0
49
0.0
49
0.0
49
0.0
49
1.0
49
0.0
49
0.0
49
0.0
49
0.0
49
1.0
175
0
142
0.0208333333333333
142
0.0
142
0.0
142
0.0
142
0.0
142
0.0208333333333333
142
0.0
142
0.0
142
0.0
142
0.0
142
1.0
142
0.0
142
0.0
142
0.0
142
0.0
142
1.0
179
0
144
0.0208333333333333
144
0.0
144
0.0
144
0.0
144
0.0
144
0.0208333333333333
144
0.0
144
0.0
144
0.0
144
0.0
144
1.0
144
0.0
144
0.0
144
0.0
144
0.0
144
1.0
147
0.0208333333333333
147
0.0
147
0.0
147
0.0
147
0.0
147
0.0208333333333333
147
0.0
147
0.0
147
0.0
147
0.0
147
1.0
147
0.0
147
0.0
147
0.0
147
0.0
147
1.0
0
MATERIAL
5
F7B
102
{ACAD_XDICTIONARY
360
F7C
102
}
102
{ACAD_REACTORS
330
F7A
102
}
330
F7A
100
AcDbMaterial
1
ByLayer
72
0
43
0.0208333333333333
43
0.0
43
0.0
43
0.0
43
0.0
43
0.0208333333333333
43
0.0
43
0.0
43
0.0
43
0.0
43
1.0
43
0.0
43
0.0
43
0.0
43
0.0
43
1.0
77
0
47
0.0208333333333333
47
0.0
47
0.0
47
0.0
47
0.0
47
0.0208333333333333
47
0.0
47
0.0
47
0.0
47
0.0
47
1.0
47
0.0
47
0.0
47
0.0
47
0.0
47
1.0
171
0
49
0.0208333333333333
49
0.0
49
0.0
49
0.0
49
0.0
49
0.0208333333333333
49
0.0
49
0.0
49
0.0
49
0.0
49
1.0
49
0.0
49
0.0
49
0.0
49
0.0
49
1.0
175
0
142
0.0208333333333333
142
0.0
142
0.0
142
0.0
142
0.0
142
0.0208333333333333
142
0.0
142
0.0
142
0.0
142
0.0
142
1.0
142
0.0
142
0.0
142
0.0
142
0.0
142
1.0
179
0
144
0.0208333333333333
144
0.0
144
0.0
144
0.0
144
0.0
144
0.0208333333333333
144
0.0
144
0.0
144
0.0
144
0.0
144
1.0
144
0.0
144
0.0
144
0.0
144
0.0
144
1.0
147
0.0208333333333333
147
0.0
147
0.0
147
0.0
147
0.0
147
0.0208333333333333
147
0.0
147
0.0
147
0.0
147
0.0
147
1.0
147
0.0
147
0.0
147
0.0
147
0.0
147
1.0
0
MATERIAL
5
F8B
102
{ACAD_XDICTIONARY
360
F8C
102
}
102
{ACAD_REACTORS
330
F7A
102
}
330
F7A
100
AcDbMaterial
1
Global
72
0
43
0.0208333333333333
43
0.0
43
0.0
43
0.0
43
0.0
43
0.0208333333333333
43
0.0
43
0.0
43
0.0
43
0.0
43
1.0
43
0.0
43
0.0
43
0.0
43
0.0
43
1.0
77
0
47
0.0208333333333333
47
0.0
47
0.0
47
0.0
47
0.0
47
0.0208333333333333
47
0.0
47
0.0
47
0.0
47
0.0
47
1.0
47
0.0
47
0.0
47
0.0
47
0.0
47
1.0
171
0
49
0.0208333333333333
49
0.0
49
0.0
49
0.0
49
0.0
49
0.0208333333333333
49
0.0
49
0.0
49
0.0
49
0.0
49
1.0
49
0.0
49
0.0
49
0.0
49
0.0
49
1.0
175
0
142
0.0208333333333333
142
0.0
142
0.0
142
0.0
142
0.0
142
0.0208333333333333
142
0.0
142
0.0
142
0.0
142
0.0
142
1.0
142
0.0
142
0.0
142
0.0
142
0.0
142
1.0
179
0
144
0.0208333333333333
144
0.0
144
0.0
144
0.0
144
0.0
144
0.0208333333333333
144
0.0
144
0.0
144
0.0
144
0.0
144
1.0
144
0.0
144
0.0
144
0.0
144
0.0
144
1.0
147
0.0208333333333333
147
0.0
147
0.0
147
0.0
147
0.0
147
0.0208333333333333
147
0.0
147
0.0
147
0.0
147
0.0
147
1.0
147
0.0
147
0.0
147
0.0
147
0.0
147
1.0
0
MLEADERSTYLE
5
FCE
102
{ACAD_REACTORS
330
FCD
102
}
330
FCD
100
AcDbMLeaderStyle
170
2
171
1
172
0
90
2
40
0.0
41
0.0
173
1
91
-1056964608
340
256
92
-2
290
1
42
0.09
291
1
43
0.36
3
Standard
44
0.18
300

342
253
174
1
178
6
175
1
176
0
93
-1056964608
45
0.18
292
0
297
0
46
0.18
94
-1056964608
47
1.0
49
1.0
140
1.0
293
1
141
0.0
294
1
177
0
142
1.0
295
0
296
0
143
0.125
1001
ACAD_MLEADERVER
1070
2
0
MLINESTYLE
5
FAA
102
{ACAD_REACTORS
330
16
102
}
330
16
100
AcDbMlineStyle
2
STANDARD
70
0
3

62
256
51
90.0
52
90.0
71
2
49
0.5
62
256
6
BYLAYER
49
-0.5
62
256
6
BYLAYER
0
ACDBPLACEHOLDER
5
19
102
{ACAD_REACTORS
330
18
102
}
330
18
0
SCALE
5
FAC
102
{ACAD_REACTORS
330
FAB
102
}
330
FAB
100
AcDbScale
70
0
300
1:1
140
1.0
141
1.0
290
1
0
SCALE
5
FAD
102
{ACAD_REACTORS
330
FAB
102
}
330
FAB
100
AcDbScale
70
0
300
1:2
140
1.0
141
2.0
290
0
0
SCALE
5
FAE
102
{ACAD_REACTORS
330
FAB
102
}
330
FAB
100
AcDbScale
70
0
300
1:4
140
1.0
141
4.0
290
0
0
SCALE
5
FAF
102
{ACAD_REACTORS
330
FAB
102
}
330
FAB
100
AcDbScale
70
0
300
1:5
140
1.0
141
5.0
290
0
0
SCALE
5
FB0
102
{ACAD_REACTORS
330
FAB
102
}
330
FAB
100
AcDbScale
70
0
300
1:8
140
1.0
141
8.0
290
0
0
SCALE
5
FB1
102
{ACAD_REACTORS
330
FAB
102
}
330
FAB
100
AcDbScale
70
0
300
1:10
140
1.0
141
10.0
290
0
0
SCALE
5
FB2
102
{ACAD_REACTORS
330
FAB
102
}
330
FAB
100
AcDbScale
70
0
300
1:16
140
1.0
141
16.0
290
0
0
SCALE
5
FB3
102
{ACAD_REACTORS
330
FAB
102
}
330
FAB
100
AcDbScale
70
0
300
1:20
140
1.0
141
20.0
290
0
0
SCALE
5
FB4
102
{ACAD_REACTORS
330
FAB
102
}
330
FAB
100
AcDbScale
70
0
300
1:30
140
1.0
141
30.0
290
0
0
SCALE
5
FB5
102
{ACAD_REACTORS
330
FAB
102
}
330
FAB
100
AcDbScale
70
0
300
1:40
140
1.0
141
40.0
290
0
0
SCALE
5
FB6
102
{ACAD_REACTORS
330
FAB
102
}
330
FAB
100
AcDbScale
70
0
300
1:50
140
1.0
141
50.0
290
0
0
SCALE
5
FB7
102
{ACAD_REACTORS
330
FAB
102
}
330
FAB
100
AcDbScale
70
0
300
1:100
140
1.0
141
100.0
290
0
0
SCALE
5
FB8
102
{ACAD_REACTORS
330
FAB
102
}
330
FAB
100
AcDbScale
70
0
300
2:1
140
2.0
141
1.0
290
0
0
SCALE
5
FB9
102
{ACAD_REACTORS
330
FAB
102
}
330
FAB
100
AcDbScale
70
0
300
4:1
140
4.0
141
1.0
290
0
0
SCALE
5
FBA
102
{ACAD_REACTORS
330
FAB
102
}
330
FAB
100
AcDbScale
70
0
300
8:1
140
8.0
141
1.0
290
0
0
SCALE
5
FBB
102
{ACAD_REACTORS
330
FAB
102
}
330
FAB
100
AcDbScale
70
0
300
10:1
140
10.0
141
1.0
290
0
0
SCALE
5
FBC
102
{ACAD_REACTORS
330
FAB
102
}
330
FAB
100
AcDbScale
70
0
300
100:1
140
100.0
141
1.0
290
0
0
SCALE
5
FBD
102
{ACAD_REACTORS
330
FAB
102
}
330
FAB
100
AcDbScale
70
0
300
1/128" = 1'-0"
140
0.0078125
141
12.0
290
0
0
SCALE
5
FBE
102
{ACAD_REACTORS
330
FAB
102
}
330
FAB
100
AcDbScale
70
0
300
1/64" = 1'-0"
140
0.015625
141
12.0
290
0
0
SCALE
5
FBF
102
{ACAD_REACTORS
330
FAB
102
}
330
FAB
100
AcDbScale
70
0
300
1/32" = 1'-0"
140
0.03125
141
12.0
290
0
0
SCALE
5
FC0
102
{ACAD_REACTORS
330
FAB
102
}
330
FAB
100
AcDbScale
70
0
300
1/16" = 1'-0"
140
0.0625
141
12.0
290
0
0
SCALE
5
FC1
102
{ACAD_REACTORS
330
FAB
102
}
330
FAB
100
AcDbScale
70
0
300
3/32" = 1'-0"
140
0.09375
141
12.0
290
0
0
SCALE
5
FC2
102
{ACAD_REACTORS
330
FAB
102
}
330
FAB
100
AcDbScale
70
0
300
1/8" = 1'-0"
140
0.125
141
12.0
290
0
0
SCALE
5
FC3
102
{ACAD_REACTORS
330
FAB
102
}
330
FAB
100
AcDbScale
70
0
300
3/16" = 1'-0"
140
0.1875
141
12.0
290
0
0
SCALE
5
FC4
102
{ACAD_REACTORS
330
FAB
102
}
330
FAB
100
AcDbScale
70
0
300
1/4" = 1'-0"
140
0.25
141
12.0
290
0
0
SCALE
5
FC5
102
{ACAD_REACTORS
330
FAB
102
}
330
FAB
100
AcDbScale
70
0
300
3/8" = 1'-0"
140
0.375
141
12.0
290
0
0
SCALE
5
FC6
102
{ACAD_REACTORS
330
FAB
102
}
330
FAB
100
AcDbScale
70
0
300
1/2" = 1'-0"
140
0.5
141
12.0
290
0
0
SCALE
5
FC7
102
{ACAD_REACTORS
330
FAB
102
}
330
FAB
100
AcDbScale
70
0
300
3/4" = 1'-0"
140
0.75
141
12.0
290
0
0
SCALE
5
FC8
102
{ACAD_REACTORS
330
FAB
102
}
330
FAB
100
AcDbScale
70
0
300
1" = 1'-0"
140
1.0
141
12.0
290
0
0
SCALE
5
FC9
102
{ACAD_REACTORS
330
FAB
102
}
330
FAB
100
AcDbScale
70
0
300
1-1/2" = 1'-0"
140
1.5
141
12.0
290
0
0
SCALE
5
FCA
102
{ACAD_REACTORS
330
FAB
102
}
330
FAB
100
AcDbScale
70
0
300
3" = 1'-0"
140
3.0
141
12.0
290
0
0
SCALE
5
FCB
102
{ACAD_REACTORS
330
FAB
102
}
330
FAB
100
AcDbScale
70
0
300
6" = 1'-0"
140
6.0
141
12.0
290
0
0
SCALE
5
FCC
102
{ACAD_REACTORS
330
FAB
102
}
330
FAB
100
AcDbScale
70
0
300
1'-0" = 1'-0"
140
12.0
141
12.0
290
0
0
TABLESTYLE
5
FA9
102
{ACAD_XDICTIONARY
360
FF8
102
}
102
{ACAD_REACTORS
330
FA8
102
}
330
FA8
100
AcDbTableStyle
3
Standard
70
0
71
0
40
0.06
41
0.06
280
0
281
0
7
Standard
140
0.18
170
2
62
0
63
7
283
0
274
-2
284
1
64
0
275
-2
285
1
65
0
276
-2
286
1
66
0
277
-2
287
1
67
0
278
-2
288
1
68
0
279
-2
289
1
69
0
7
Standard
140
0.25
170
5
62
0
63
7
283
0
274
-2
284
1
64
0
275
-2
285
1
65
0
276
-2
286
1
66
0
277
-2
287
1
67
0
278
-2
288
1
68
0
279
-2
289
1
69
0
7
Standard
140
0.18
170
5
62
0
63
7
283
0
274
-2
284
1
64
0
275
-2
285
1
65
0
276
-2
286
1
66
0
277
-2
287
1
67
0
278
-2
288
1
68
0
279
-2
289
1
69
0
0
VISUALSTYLE
5
F99
102
{ACAD_XDICTIONARY
360
108A
102
}
102
{ACAD_REACTORS
330
F93
102
}
330
F93
100
AcDbVisualStyle
2

70
4
71
0
72
2
73
0
90
0
40
-0.6
41
-30.0
62
5
63
7
74
1
91
4
64
7
65
257
75
1
175
1
42
1.0
92
0
66
257
43
1.0
76
1
77
6
78
2
67
7
79
5
170
0
171
0
290
0
174
0
93
1
44
0.0
173
0
291
0
45
0.0
1001
ACAD
1000
AcDbSavedByObjectVersion
1070
0
0
VISUALSTYLE
5
F9B
102
{ACAD_XDICTIONARY
360
108E
102
}
102
{ACAD_REACTORS
330
F93
102
}
330
F93
100
AcDbVisualStyle
2

70
6
71
1
72
2
73
2
90
0
40
-0.6
41
-30.0
62
5
63
7
74
2
91
2
64
7
65
257
75
2
175
1
42
179.0
92
0
66
257
43
1.0
76
1
77
6
78
2
67
7
79
3
170
0
171
0
290
0
174
0
93
1
44
0.0
173
0
291
0
45
0.0
1001
ACAD
1000
AcDbSavedByObjectVersion
1070
0
0
VISUALSTYLE
5
F9A
102
{ACAD_XDICTIONARY
360
108C
102
}
102
{ACAD_REACTORS
330
F93
102
}
330
F93
100
AcDbVisualStyle
2

70
5
71
0
72
2
73
0
90
0
40
-0.6
41
-30.0
62
5
63
7
74
1
91
4
64
7
65
257
75
1
175
1
42
1.0
92
0
66
257
43
1.0
76
1
77
6
78
2
67
7
79
5
170
0
171
0
290
0
174
0
93
1
44
0.0
173
0
291
0
45
0.0
1001
ACAD
1000
AcDbSavedByObjectVersion
1070
0
0
VISUALSTYLE
5
F98
102
{ACAD_XDICTIONARY
360
1088
102
}
102
{ACAD_REACTORS
330
F93
102
}
330
F93
100
AcDbVisualStyle
2

70
7
71
1
72
0
73
1
90
0
40
-0.6
41
-30.0
62
5
63
7
74
0
91
4
64
7
65
257
75
1
175
1
42
1.0
92
8
66
7
43
1.0
76
1
77
6
78
2
67
7
79
5
170
0
171
0
290
0
174
0
93
1
44
0.0
173
0
291
1
45
0.0
1001
ACAD
1000
AcDbSavedByObjectVersion
1070
0
0
VISUALSTYLE
5
F9F
102
{ACAD_XDICTIONARY
360
1096
102
}
102
{ACAD_REACTORS
330
F93
102
}
330
F93
100
AcDbVisualStyle
2

70
12
71
2
72
2
73
0
90
0
40
-0.6
41
-30.0
62
5
63
7
74
1
91
4
64
7
65
257
75
1
175
1
42
1.0
92
8
66
7
43
1.0
76
1
77
6
78
2
67
7
79
5
170
0
171
0
290
0
174
0
93
1
44
50.0
173
0
291
1
45
0.0
1001
ACAD
1000
AcDbSavedByObjectVersion
1070
0
0
VISUALSTYLE
5
FA3
102
{ACAD_XDICTIONARY
360
109E
102
}
102
{ACAD_REACTORS
330
F93
102
}
330
F93
100
AcDbVisualStyle
2

70
16
71
2
72
2
73
3
90
0
40
-0.6
41
-30.0
62
5
63
8
74
1
91
4
64
7
65
257
75
1
175
1
42
1.0
92
8
66
8
43
1.0
76
1
77
6
78
2
67
7
79
5
170
0
171
0
290
0
174
0
93
1
44
0.0
173
0
291
1
45
0.0
1001
ACAD
1000
AcDbSavedByObjectVersion
1070
0
0
VISUALSTYLE
5
F9C
102
{ACAD_XDICTIONARY
360
1090
102
}
102
{ACAD_REACTORS
330
F93
102
}
330
F93
100
AcDbVisualStyle
2

70
9
71
3
72
2
73
0
90
0
40
-0.6
41
-30.0
62
5
63
7
74
2
91
2
64
7
65
257
75
1
175
1
42
179.0
92
8
66
7
43
1.0
76
1
77
6
78
2
67
7
79
3
170
0
171
0
290
0
174
0
93
1
44
0.0
173
0
291
0
45
0.0
1001
ACAD
1000
AcDbSavedByObjectVersion
1070
0
0
VISUALSTYLE
5
F9E
102
{ACAD_XDICTIONARY
360
1094
102
}
102
{ACAD_REACTORS
330
F93
102
}
330
F93
100
AcDbVisualStyle
2

70
11
71
2
72
2
73
0
90
0
40
-0.6
41
-30.0
62
5
63
7
74
1
91
4
64
7
65
257
75
1
175
1
42
1.0
92
8
66
7
43
1.0
76
1
77
6
78
2
67
7
79
5
170
0
171
0
290
0
174
0
93
1
44
-50.0
173
0
291
1
45
0.0
1001
ACAD
1000
AcDbSavedByObjectVersion
1070
0
0
VISUALSTYLE
5
FA6
102
{ACAD_XDICTIONARY
360
10A4
102
}
102
{ACAD_REACTORS
330
F93
102
}
330
F93
100
AcDbVisualStyle
2

70
22
71
2
72
2
73
0
90
0
40
-0.6
41
-30.0
62
5
63
7
74
1
91
4
64
7
65
257
75
1
175
1
42
1.0
92
8
66
7
43
1.0
76
1
77
6
78
2
67
7
79
5
170
0
171
0
290
0
174
0
93
1
44
0.0
173
0
291
1
45
0.0
1001
ACAD
1000
AcDbSavedByObjectVersion
1070
0
0
VISUALSTYLE
5
FA2
102
{ACAD_XDICTIONARY
360
109C
102
}
102
{ACAD_REACTORS
330
F93
102
}
330
F93
100
AcDbVisualStyle
2

70
15
71
2
72
2
73
0
90
0
40
-0.6
41
-30.0
62
5
63
7
74
1
91
4
64
7
65
257
75
1
175
1
42
1.0
92
8
66
7
43
1.0
76
1
77
6
78
2
67
7
79
5
170
0
171
0
290
0
174
0
93
1
44
0.0
173
0
291
1
45
0.0
1001
ACAD
1000
AcDbSavedByObjectVersion
1070
0
0
VISUALSTYLE
5
F94
102
{ACAD_XDICTIONARY
360
1080
102
}
102
{ACAD_REACTORS
330
F93
102
}
330
F93
100
AcDbVisualStyle
2

70
0
71
2
72
1
73
1
90
2
40
-0.6
41
30.0
62
5
63
7
74
0
91
4
64
7
65
257
75
1
175
1
42
1.0
92
8
66
7
43
1.0
76
1
77
6
78
2
67
7
79
5
170
0
171
0
290
0
174
0
93
13
44
0.0
173
0
291
1
45
0.0
1001
ACAD
1000
AcDbSavedByObjectVersion
1070
0
0
VISUALSTYLE
5
F95
102
{ACAD_XDICTIONARY
360
1082
102
}
102
{ACAD_REACTORS
330
F93
102
}
330
F93
100
AcDbVisualStyle
2

70
1
71
2
72
1
73
1
90
2
40
-0.6
41
30.0
62
5
63
7
74
1
91
4
64
7
65
257
75
1
175
1
42
1.0
92
0
66
257
43
1.0
76
1
77
6
78
2
67
7
79
5
170
0
171
0
290
0
174
0
93
13
44
0.0
173
0
291
1
45
0.0
1001
ACAD
1000
AcDbSavedByObjectVersion
1070
0
0
VISUALSTYLE
5
F96
102
{ACAD_XDICTIONARY
360
1084
102
}
102
{ACAD_REACTORS
330
F93
102
}
330
F93
100
AcDbVisualStyle
2

70
2
71
2
72
2
73
1
90
2
40
-0.6
41
30.0
62
5
63
7
74
0
91
4
64
7
65
257
75
1
175
1
42
1.0
92
0
66
7
43
1.0
76
1
77
6
78
2
67
7
79
5
170
0
171
0
290
0
174
0
93
13
44
0.0
173
0
291
1
45
0.0
1001
ACAD
1000
AcDbSavedByObjectVersion
1070
0
0
VISUALSTYLE
5
F97
102
{ACAD_XDICTIONARY
360
1086
102
}
102
{ACAD_REACTORS
330
F93
102
}
330
F93
100
AcDbVisualStyle
2

70
3
71
2
72
2
73
1
90
2
40
-0.6
41
30.0
62
5
63
7
74
1
91
4
64
7
65
257
75
1
175
1
42
1.0
92
0
66
257
43
1.0
76
1
77
6
78
2
67
7
79
5
170
0
171
0
290
0
174
0
93
13
44
0.0
173
0
291
1
45
0.0
1001
ACAD
1000
AcDbSavedByObjectVersion
1070
0
0
VISUALSTYLE
5
FA4
102
{ACAD_XDICTIONARY
360
10A0
102
}
102
{ACAD_REACTORS
330
F93
102
}
330
F93
100
AcDbVisualStyle
2

70
20
71
2
72
2
73
0
90
0
40
-0.6
41
-30.0
62
5
63
7
74
1
91
4
64
7
65
257
75
1
175
1
42
1.0
92
10
66
7
43
1.0
76
1
77
6
78
2
67
7
79
5
170
0
171
0
290
0
174
0
93
1
44
0.0
173
0
291
1
45
0.0
1001
ACAD
1000
AcDbSavedByObjectVersion
1070
0
0
VISUALSTYLE
5
FA1
102
{ACAD_XDICTIONARY
360
109A
102
}
102
{ACAD_REACTORS
330
F93
102
}
330
F93
100
AcDbVisualStyle
2

70
14
71
2
72
2
73
0
90
0
40
-0.6
41
-30.0
62
5
63
7
74
1
91
4
64
7
65
257
75
7
175
7
42
1.0
92
8
66
7
43
1.0
76
1
77
6
78
2
67
7
79
5
170
0
171
0
290
0
174
0
93
1
44
0.0
173
0
291
1
45
0.0
1001
ACAD
1000
AcDbSavedByObjectVersion
1070
0
0
VISUALSTYLE
5
FA5
102
{ACAD_XDICTIONARY
360
10A2
102
}
102
{ACAD_REACTORS
330
F93
102
}
330
F93
100
AcDbVisualStyle
2

70
21
71
2
72
2
73
0
90
0
40
-0.6
41
-30.0
62
5
63
7
74
1
91
4
64
7
65
257
75
1
175
1
42
1.0
92
9
66
7
43
1.0
76
1
77
6
78
2
67
7
79
5
170
0
171
0
290
0
174
0
93
1
44
0.0
173
0
291
1
45
0.0
1001
ACAD
1000
AcDbSavedByObjectVersion
1070
0
0
VISUALSTYLE
5
F9D
102
{ACAD_XDICTIONARY
360
1092
102
}
102
{ACAD_REACTORS
330
F93
102
}
330
F93
100
AcDbVisualStyle
2

70
8
71
2
72
2
73
0
90
0
40
-0.6
41
-30.0
62
5
63
7
74
1
91
0
64
7
65
257
75
1
175
1
42
1.0
92
8
66
8
43
1.0
76
1
77
6
78
2
67
7
79
5
170
0
171
0
290
0
174
0
93
13
44
0.0
173
0
291
0
45
0.0
1001
ACAD
1000
AcDbSavedByObjectVersion
1070
0
0
VISUALSTYLE
5
FA0
102
{ACAD_XDICTIONARY
360
1098
102
}
102
{ACAD_REACTORS
330
F93
102
}
330
F93
100
AcDbVisualStyle
2

70
13
71
2
72
2
73
0
90
0
40
-0.6
41
-30.0
62
5
63
7
74
1
91
4
64
7
65
257
75
1
175
1
42
1.0
92
12
66
7
43
1.0
76
1
77
6
78
2
67
7
79
5
170
0
171
0
290
0
174
0
93
1
44
0.0
173
0
291
1
45
0.0
1001
ACAD
1000
AcDbSavedByObjectVersion
1070
0
0
DICTIONARYVAR
5
FF3
102
{ACAD_REACTORS
330
FF0
102
}
330
FF0
100
DictionaryVariables
280
0
1
1:1
0
DICTIONARYVAR
5
FF2
102
{ACAD_REACTORS
330
FF0
102
}
330
FF0
100
DictionaryVariables
280
0
1
STANDARD
0
DICTIONARYVAR
5
FF1
102
{ACAD_REACTORS
330
FF0
102
}
330
FF0
100
DictionaryVariables
280
0
1
STANDARD
0
DICTIONARYVAR
5
FF6
102
{ACAD_REACTORS
330
FF0
102
}
330
FF0
100
DictionaryVariables
280
0
1
1
0
DICTIONARYVAR
5
FF5
102
{ACAD_REACTORS
330
FF0
102
}
330
FF0
100
DictionaryVariables
280
0
1
0
0
DICTIONARYVAR
5
FF4
102
{ACAD_REACTORS
330
FF0
102
}
330
FF0
100
DictionaryVariables
280
0
1
127
0
DICTIONARYVAR
5
1078
102
{ACAD_REACTORS
330
FF0
102
}
330
FF0
100
DictionaryVariables
280
0
1
2
0
DICTIONARY
5
10A9
330
FD1
100
AcDbDictionary
280
1
281
1
3
ACAD_XREC_ROUNDTRIP
360
10AA
0
DICTIONARY
5
10A7
330
FD0
100
AcDbDictionary
280
1
281
1
3
ACAD_XREC_ROUNDTRIP
360
10A8
0
DICTIONARY
5
F84
330
F83
100
AcDbDictionary
280
1
281
1
3
ACAD_XREC_ROUNDTRIP
360
FFF
3
BUMPTILE
360
F86
3
DIFFUSETILE
360
F85
3
OPACITYTILE
360
F89
3
REFLECTIONTILE
360
F88
3
REFRACTIONTILE
360
F8A
3
SPECULARTILE
360
F87
0
DICTIONARY
5
F7C
330
F7B
100
AcDbDictionary
280
1
281
1
3
ACAD_XREC_ROUNDTRIP
360
FFE
3
BUMPTILE
360
F7E
3
DIFFUSETILE
360
F7D
3
OPACITYTILE
360
F81
3
REFLECTIONTILE
360
F80
3
REFRACTIONTILE
360
F82
3
SPECULARTILE
360
F7F
0
DICTIONARY
5
F8C
330
F8B
100
AcDbDictionary
280
1
281
1
3
ACAD_XREC_ROUNDTRIP
360
1000
3
BUMPTILE
360
F8E
3
DIFFUSETILE
360
F8D
3
OPACITYTILE
360
F91
3
REFLECTIONTILE
360
F90
3
REFRACTIONTILE
360
F92
3
SPECULARTILE
360
F8F
0
DICTIONARY
5
FF8
330
FA9
100
AcDbDictionary
280
1
281
1
3
ACAD_ROUNDTRIP_2008_TABLESTYLE_CELLSTYLEMAP
360
1079
3
ACAD_XREC_ROUNDTRIP
360
10A6
0
DICTIONARY
5
108A
330
F99
100
AcDbDictionary
280
1
281
1
3
ACAD_XREC_ROUNDTRIP
360
108B
0
DICTIONARY
5
108E
330
F9B
100
AcDbDictionary
280
1
281
1
3
ACAD_XREC_ROUNDTRIP
360
108F
0
DICTIONARY
5
108C
330
F9A
100
AcDbDictionary
280
1
281
1
3
ACAD_XREC_ROUNDTRIP
360
108D
0
DICTIONARY
5
1088
330
F98
100
AcDbDictionary
280
1
281
1
3
ACAD_XREC_ROUNDTRIP
360
1089
0
DICTIONARY
5
1096
330
F9F
100
AcDbDictionary
280
1
281
1
3
ACAD_XREC_ROUNDTRIP
360
1097
0
DICTIONARY
5
109E
330
FA3
100
AcDbDictionary
280
1
281
1
3
ACAD_XREC_ROUNDTRIP
360
109F
0
DICTIONARY
5
1090
330
F9C
100
AcDbDictionary
280
1
281
1
3
ACAD_XREC_ROUNDTRIP
360
1091
0
DICTIONARY
5
1094
330
F9E
100
AcDbDictionary
280
1
281
1
3
ACAD_XREC_ROUNDTRIP
360
1095
0
DICTIONARY
5
10A4
330
FA6
100
AcDbDictionary
280
1
281
1
3
ACAD_XREC_ROUNDTRIP
360
10A5
0
DICTIONARY
5
109C
330
FA2
100
AcDbDictionary
280
1
281
1
3
ACAD_XREC_ROUNDTRIP
360
109D
0
DICTIONARY
5
1080
330
F94
100
AcDbDictionary
280
1
281
1
3
ACAD_XREC_ROUNDTRIP
360
1081
0
DICTIONARY
5
1082
330
F95
100
AcDbDictionary
280
1
281
1
3
ACAD_XREC_ROUNDTRIP
360
1083
0
DICTIONARY
5
1084
330
F96
100
AcDbDictionary
280
1
281
1
3
ACAD_XREC_ROUNDTRIP
360
1085
0
DICTIONARY
5
1086
330
F97
100
AcDbDictionary
280
1
281
1
3
ACAD_XREC_ROUNDTRIP
360
1087
0
DICTIONARY
5
10A0
330
FA4
100
AcDbDictionary
280
1
281
1
3
ACAD_XREC_ROUNDTRIP
360
10A1
0
DICTIONARY
5
109A
330
FA1
100
AcDbDictionary
280
1
281
1
3
ACAD_XREC_ROUNDTRIP
360
109B
0
DICTIONARY
5
10A2
330
FA5
100
AcDbDictionary
280
1
281
1
3
ACAD_XREC_ROUNDTRIP
360
10A3
0
DICTIONARY
5
1092
330
F9D
100
AcDbDictionary
280
1
281
1
3
ACAD_XREC_ROUNDTRIP
360
1093
0
DICTIONARY
5
1098
330
FA0
100
AcDbDictionary
280
1
281
1
3
ACAD_XREC_ROUNDTRIP
360
1099
0
XRECORD
5
10AA
102
{ACAD_REACTORS
330
10A9
102
}
330
10A9
100
AcDbXrecord
280
1
102
SHADEPLOT
70
0
102
SHADEPLOTRESLEVEL
70
2
102
SHADEPLOTCUSTOMDPI
70
300
0
XRECORD
5
10A8
102
{ACAD_REACTORS
330
10A7
102
}
330
10A7
100
AcDbXrecord
280
1
102
SHADEPLOT
70
0
102
SHADEPLOTRESLEVEL
70
2
102
SHADEPLOTCUSTOMDPI
70
300
0
XRECORD
5
FFF
102
{ACAD_REACTORS
330
F84
102
}
330
F84
100
AcDbXrecord
280
1
102
MATERIAL
148
0.0
149
0.0
149
0.0
93
0
94
127
282
0
72
0
77
0
171
0
175
0
179
0
273
0
0
XRECORD
5
F86
102
{ACAD_REACTORS
330
F84
102
}
330
F84
100
AcDbXrecord
280
1
270
1
271
1
0
XRECORD
5
F85
102
{ACAD_REACTORS
330
F84
102
}
330
F84
100
AcDbXrecord
280
1
270
1
271
1
0
XRECORD
5
F89
102
{ACAD_REACTORS
330
F84
102
}
330
F84
100
AcDbXrecord
280
1
270
1
271
1
0
XRECORD
5
F88
102
{ACAD_REACTORS
330
F84
102
}
330
F84
100
AcDbXrecord
280
1
270
1
271
1
0
XRECORD
5
F8A
102
{ACAD_REACTORS
330
F84
102
}
330
F84
100
AcDbXrecord
280
1
270
1
271
1
0
XRECORD
5
F87
102
{ACAD_REACTORS
330
F84
102
}
330
F84
100
AcDbXrecord
280
1
270
1
271
1
0
XRECORD
5
FFE
102
{ACAD_REACTORS
330
F7C
102
}
330
F7C
100
AcDbXrecord
280
1
102
MATERIAL
148
0.0
149
0.0
149
0.0
93
0
94
127
282
0
72
0
77
0
171
0
175
0
179
0
273
0
0
XRECORD
5
F7E
102
{ACAD_REACTORS
330
F7C
102
}
330
F7C
100
AcDbXrecord
280
1
270
1
271
1
0
XRECORD
5
F7D
102
{ACAD_REACTORS
330
F7C
102
}
330
F7C
100
AcDbXrecord
280
1
270
1
271
1
0
XRECORD
5
F81
102
{ACAD_REACTORS
330
F7C
102
}
330
F7C
100
AcDbXrecord
280
1
270
1
271
1
0
XRECORD
5
F80
102
{ACAD_REACTORS
330
F7C
102
}
330
F7C
100
AcDbXrecord
280
1
270
1
271
1
0
XRECORD
5
F82
102
{ACAD_REACTORS
330
F7C
102
}
330
F7C
100
AcDbXrecord
280
1
270
1
271
1
0
XRECORD
5
F7F
102
{ACAD_REACTORS
330
F7C
102
}
330
F7C
100
AcDbXrecord
280
1
270
1
271
1
0
XRECORD
5
1000
102
{ACAD_REACTORS
330
F8C
102
}
330
F8C
100
AcDbXrecord
280
1
102
MATERIAL
148
0.0
149
0.0
149
0.0
93
0
94
127
282
0
72
0
77
0
171
0
175
0
179
0
273
0
0
XRECORD
5
F8E
102
{ACAD_REACTORS
330
F8C
102
}
330
F8C
100
AcDbXrecord
280
1
270
1
271
1
0
XRECORD
5
F8D
102
{ACAD_REACTORS
330
F8C
102
}
330
F8C
100
AcDbXrecord
280
1
270
1
271
1
0
XRECORD
5
F91
102
{ACAD_REACTORS
330
F8C
102
}
330
F8C
100
AcDbXrecord
280
1
270
1
271
1
0
XRECORD
5
F90
102
{ACAD_REACTORS
330
F8C
102
}
330
F8C
100
AcDbXrecord
280
1
270
1
271
1
0
XRECORD
5
F92
102
{ACAD_REACTORS
330
F8C
102
}
330
F8C
100
AcDbXrecord
280
1
270
1
271
1
0
XRECORD
5
F8F
102
{ACAD_REACTORS
330
F8C
102
}
330
F8C
100
AcDbXrecord
280
1
270
1
271
1
0
CELLSTYLEMAP
5
1079
102
{ACAD_REACTORS
330
FF8
102
}
330
FF8
100
AcDbCellStyleMap
90
3
300
CELLSTYLE
1
TABLEFORMAT_BEGIN
90
5
170
1
91
0
92
32768
62
257
93
1
300
CONTENTFORMAT
1
CONTENTFORMAT_BEGIN
90
0
91
0
92
512
93
0
300

40
0.0
140
1.0
94
5
62
0
340
253
144
0.25
309
CONTENTFORMAT_END
171
1
301
MARGIN
1
CELLMARGIN_BEGIN
40
0.06
40
0.06
40
0.06
40
0.06
40
0.18
40
0.18
309
CELLMARGIN_END
94
6
95
1
302
GRIDFORMAT
1
GRIDFORMAT_BEGIN
90
0
91
1
62
0
92
-2
340
0
93
0
40
0.045
309
GRIDFORMAT_END
95
2
302
GRIDFORMAT
1
GRIDFORMAT_BEGIN
90
0
91
1
62
0
92
-2
340
0
93
0
40
0.045
309
GRIDFORMAT_END
95
4
302
GRIDFORMAT
1
GRIDFORMAT_BEGIN
90
0
91
1
62
0
92
-2
340
0
93
0
40
0.045
309
GRIDFORMAT_END
95
8
302
GRIDFORMAT
1
GRIDFORMAT_BEGIN
90
0
91
1
62
0
92
-2
340
0
93
0
40
0.045
309
GRIDFORMAT_END
95
16
302
GRIDFORMAT
1
GRIDFORMAT_BEGIN
90
0
91
1
62
0
92
-2
340
0
93
0
40
0.045
309
GRIDFORMAT_END
95
32
302
GRIDFORMAT
1
GRIDFORMAT_BEGIN
90
0
91
1
62
0
92
-2
340
0
93
0
40
0.045
309
GRIDFORMAT_END
309
TABLEFORMAT_END
1
CELLSTYLE_BEGIN
90
1
91
1
300
_TITLE
309
CELLSTYLE_END
300
CELLSTYLE
1
TABLEFORMAT_BEGIN
90
5
170
1
91
0
92
0
62
257
93
1
300
CONTENTFORMAT
1
CONTENTFORMAT_BEGIN
90
0
91
0
92
512
93
0
300

40
0.0
140
1.0
94
5
62
0
340
253
144
0.18
309
CONTENTFORMAT_END
171
1
301
MARGIN
1
CELLMARGIN_BEGIN
40
0.06
40
0.06
40
0.06
40
0.06
40
0.18
40
0.18
309
CELLMARGIN_END
94
6
95
1
302
GRIDFORMAT
1
GRIDFORMAT_BEGIN
90
0
91
1
62
0
92
-2
340
0
93
0
40
0.045
309
GRIDFORMAT_END
95
2
302
GRIDFORMAT
1
GRIDFORMAT_BEGIN
90
0
91
1
62
0
92
-2
340
0
93
0
40
0.045
309
GRIDFORMAT_END
95
4
302
GRIDFORMAT
1
GRIDFORMAT_BEGIN
90
0
91
1
62
0
92
-2
340
0
93
0
40
0.045
309
GRIDFORMAT_END
95
8
302
GRIDFORMAT
1
GRIDFORMAT_BEGIN
90
0
91
1
62
0
92
-2
340
0
93
0
40
0.045
309
GRIDFORMAT_END
95
16
302
GRIDFORMAT
1
GRIDFORMAT_BEGIN
90
0
91
1
62
0
92
-2
340
0
93
0
40
0.045
309
GRIDFORMAT_END
95
32
302
GRIDFORMAT
1
GRIDFORMAT_BEGIN
90
0
91
1
62
0
92
-2
340
0
93
0
40
0.045
309
GRIDFORMAT_END
309
TABLEFORMAT_END
1
CELLSTYLE_BEGIN
90
2
91
1
300
_HEADER
309
CELLSTYLE_END
300
CELLSTYLE
1
TABLEFORMAT_BEGIN
90
5
170
1
91
0
92
0
62
257
93
1
300
CONTENTFORMAT
1
CONTENTFORMAT_BEGIN
90
0
91
0
92
512
93
0
300

40
0.0
140
1.0
94
2
62
0
340
253
144
0.18
309
CONTENTFORMAT_END
171
1
301
MARGIN
1
CELLMARGIN_BEGIN
40
0.06
40
0.06
40
0.06
40
0.06
40
0.18
40
0.18
309
CELLMARGIN_END
94
6
95
1
302
GRIDFORMAT
1
GRIDFORMAT_BEGIN
90
0
91
1
62
0
92
-2
340
0
93
0
40
0.045
309
GRIDFORMAT_END
95
2
302
GRIDFORMAT
1
GRIDFORMAT_BEGIN
90
0
91
1
62
0
92
-2
340
0
93
0
40
0.045
309
GRIDFORMAT_END
95
4
302
GRIDFORMAT
1
GRIDFORMAT_BEGIN
90
0
91
1
62
0
92
-2
340
0
93
0
40
0.045
309
GRIDFORMAT_END
95
8
302
GRIDFORMAT
1
GRIDFORMAT_BEGIN
90
0
91
1
62
0
92
-2
340
0
93
0
40
0.045
309
GRIDFORMAT_END
95
16
302
GRIDFORMAT
1
GRIDFORMAT_BEGIN
90
0
91
1
62
0
92
-2
340
0
93
0
40
0.045
309
GRIDFORMAT_END
95
32
302
GRIDFORMAT
1
GRIDFORMAT_BEGIN
90
0
91
1
62
0
92
-2
340
0
93
0
40
0.045
309
GRIDFORMAT_END
309
TABLEFORMAT_END
1
CELLSTYLE_BEGIN
90
3
91
2
300
_DATA
309
CELLSTYLE_END
0
XRECORD
5
10A6
102
{ACAD_REACTORS
330
FF8
102
}
330
FF8
100
AcDbXrecord
280
1
102
ACAD_ROUNDTRIP_PRE2007_TABLESTYLE
90
512
91
0
1

92
512
93
0
2

94
512
95
0
3

0
XRECORD
5
108B
102
{ACAD_REACTORS
330
108A
102
}
330
108A
100
AcDbXrecord
280
1
102
RTVSPropertyOp0
70
1
102
RTVSPropertyOp1
70
1
102
RTVSPropertyOp2
70
1
102
RTVSPropertyOp3
70
1
102
RTVSPropertyOp4
70
1
102
RTVSPropertyOp5
70
1
102
RTVSPropertyOp6
70
1
102
RTVSPropertyOp7
70
1
102
RTVSPropertyOp8
70
1
102
RTVSPropertyOp9
70
1
102
RTVSPropertyOp10
70
1
102
RTVSPropertyOp11
70
1
102
RTVSPropertyOp12
70
1
102
RTVSPropertyOp13
70
1
102
RTVSPropertyOp14
70
1
102
RTVSPropertyOp15
70
1
102
RTVSPropertyOp16
70
1
102
RTVSPropertyOp17
70
1
102
RTVSPropertyOp18
70
1
102
RTVSPropertyOp19
70
1
102
RTVSPropertyOp20
70
1
102
RTVSPropertyOp21
70
1
102
RTVSPropertyOp22
70
1
102
RTVSPropertyOp23
70
1
102
RTVSPropertyOp24
70
1
102
RTVSPropertyOp25
70
1
102
RTVSPropertyOp26
70
1
102
RTVSPropertyOp27
70
1
0
XRECORD
5
108F
102
{ACAD_REACTORS
330
108E
102
}
330
108E
100
AcDbXrecord
280
1
102
RTVSPropertyOp0
70
1
102
RTVSPropertyOp1
70
1
102
RTVSPropertyOp2
70
1
102
RTVSPropertyOp3
70
1
102
RTVSPropertyOp4
70
1
102
RTVSPropertyOp5
70
1
102
RTVSPropertyOp6
70
1
102
RTVSPropertyOp7
70
1
102
RTVSPropertyOp8
70
1
102
RTVSPropertyOp9
70
1
102
RTVSPropertyOp10
70
1
102
RTVSPropertyOp11
70
1
102
RTVSPropertyOp12
70
1
102
RTVSPropertyOp13
70
1
102
RTVSPropertyOp14
70
1
102
RTVSPropertyOp15
70
1
102
RTVSPropertyOp16
70
1
102
RTVSPropertyOp17
70
1
102
RTVSPropertyOp18
70
1
102
RTVSPropertyOp19
70
1
102
RTVSPropertyOp20
70
1
102
RTVSPropertyOp21
70
1
102
RTVSPropertyOp22
70
1
102
RTVSPropertyOp23
70
1
102
RTVSPropertyOp24
70
1
102
RTVSPropertyOp25
70
1
102
RTVSPropertyOp26
70
1
102
RTVSPropertyOp27
70
1
0
XRECORD
5
108D
102
{ACAD_REACTORS
330
108C
102
}
330
108C
100
AcDbXrecord
280
1
102
RTVSPropertyOp0
70
1
102
RTVSPropertyOp1
70
1
102
RTVSPropertyOp2
70
1
102
RTVSPropertyOp3
70
1
102
RTVSPropertyOp4
70
1
102
RTVSPropertyOp5
70
1
102
RTVSPropertyOp6
70
1
102
RTVSPropertyOp7
70
1
102
RTVSPropertyOp8
70
1
102
RTVSPropertyOp9
70
1
102
RTVSPropertyOp10
70
1
102
RTVSPropertyOp11
70
1
102
RTVSPropertyOp12
70
1
102
RTVSPropertyOp13
70
1
102
RTVSPropertyOp14
70
1
102
RTVSPropertyOp15
70
1
102
RTVSPropertyOp16
70
1
102
RTVSPropertyOp17
70
1
102
RTVSPropertyOp18
70
1
102
RTVSPropertyOp19
70
1
102
RTVSPropertyOp20
70
1
102
RTVSPropertyOp21
70
1
102
RTVSPropertyOp22
70
1
102
RTVSPropertyOp23
70
1
102
RTVSPropertyOp24
70
1
102
RTVSPropertyOp25
70
1
102
RTVSPropertyOp26
70
1
102
RTVSPropertyOp27
70
1
0
XRECORD
5
1089
102
{ACAD_REACTORS
330
1088
102
}
330
1088
100
AcDbXrecord
280
1
102
RTVSPropertyOp0
70
1
102
RTVSPropertyOp1
70
1
102
RTVSPropertyOp2
70
1
102
RTVSPropertyOp3
70
1
102
RTVSPropertyOp4
70
1
102
RTVSPropertyOp5
70
1
102
RTVSPropertyOp6
70
1
102
RTVSPropertyOp7
70
1
102
RTVSPropertyOp8
70
1
102
RTVSPropertyOp9
70
1
102
RTVSPropertyOp10
70
1
102
RTVSPropertyOp11
70
1
102
RTVSPropertyOp12
70
1
102
RTVSPropertyOp13
70
1
102
RTVSPropertyOp14
70
1
102
RTVSPropertyOp15
70
1
102
RTVSPropertyOp16
70
1
102
RTVSPropertyOp17
70
1
102
RTVSPropertyOp18
70
1
102
RTVSPropertyOp19
70
1
102
RTVSPropertyOp20
70
1
102
RTVSPropertyOp21
70
1
102
RTVSPropertyOp22
70
1
102
RTVSPropertyOp23
70
1
102
RTVSPropertyOp24
70
1
102
RTVSPropertyOp25
70
1
102
RTVSPropertyOp26
70
1
102
RTVSPropertyOp27
70
1
0
XRECORD
5
1097
102
{ACAD_REACTORS
330
1096
102
}
330
1096
100
AcDbXrecord
280
1
102
RTVSPropertyOp0
70
1
102
RTVSPropertyOp1
70
1
102
RTVSPropertyOp2
70
1
102
RTVSPropertyOp3
70
1
102
RTVSPropertyOp4
70
1
102
RTVSPropertyOp5
70
1
102
RTVSPropertyOp6
70
1
102
RTVSPropertyOp7
70
1
102
RTVSPropertyOp8
70
1
102
RTVSPropertyOp9
70
1
102
RTVSPropertyOp10
70
1
102
RTVSPropertyOp11
70
1
102
RTVSPropertyOp12
70
1
102
RTVSPropertyOp13
70
1
102
RTVSPropertyOp14
70
1
102
RTVSPropertyOp15
70
1
102
RTVSPropertyOp16
70
1
102
RTVSPropertyOp17
70
1
102
RTVSPropertyOp18
70
1
102
RTVSPropertyOp19
70
1
102
RTVSPropertyOp20
70
1
102
RTVSPropertyOp21
70
1
102
RTVSPropertyOp22
70
1
102
RTVSPropertyOp23
70
1
102
RTVSPropertyOp24
70
1
102
RTVSPropertyOp25
70
1
102
RTVSPropertyOp26
70
1
102
RTVSPropertyOp27
70
1
0
XRECORD
5
109F
102
{ACAD_REACTORS
330
109E
102
}
330
109E
100
AcDbXrecord
280
1
102
RTVSPropertyOp0
70
1
102
RTVSPropertyOp1
70
1
102
RTVSPropertyOp2
70
1
102
RTVSPropertyOp3
70
1
102
RTVSPropertyOp4
70
1
102
RTVSPropertyOp5
70
1
102
RTVSPropertyOp6
70
1
102
RTVSPropertyOp7
70
1
102
RTVSPropertyOp8
70
1
102
RTVSPropertyOp9
70
1
102
RTVSPropertyOp10
70
1
102
RTVSPropertyOp11
70
1
102
RTVSPropertyOp12
70
1
102
RTVSPropertyOp13
70
1
102
RTVSPropertyOp14
70
1
102
RTVSPropertyOp15
70
1
102
RTVSPropertyOp16
70
1
102
RTVSPropertyOp17
70
1
102
RTVSPropertyOp18
70
1
102
RTVSPropertyOp19
70
1
102
RTVSPropertyOp20
70
1
102
RTVSPropertyOp21
70
1
102
RTVSPropertyOp22
70
1
102
RTVSPropertyOp23
70
1
102
RTVSPropertyOp24
70
1
102
RTVSPropertyOp25
70
1
102
RTVSPropertyOp26
70
1
102
RTVSPropertyOp27
70
1
0
XRECORD
5
1091
102
{ACAD_REACTORS
330
1090
102
}
330
1090
100
AcDbXrecord
280
1
102
RTVSPropertyOp0
70
1
102
RTVSPropertyOp1
70
1
102
RTVSPropertyOp2
70
1
102
RTVSPropertyOp3
70
1
102
RTVSPropertyOp4
70
1
102
RTVSPropertyOp5
70
1
102
RTVSPropertyOp6
70
1
102
RTVSPropertyOp7
70
1
102
RTVSPropertyOp8
70
1
102
RTVSPropertyOp9
70
1
102
RTVSPropertyOp10
70
1
102
RTVSPropertyOp11
70
1
102
RTVSPropertyOp12
70
1
102
RTVSPropertyOp13
70
1
102
RTVSPropertyOp14
70
1
102
RTVSPropertyOp15
70
1
102
RTVSPropertyOp16
70
1
102
RTVSPropertyOp17
70
1
102
RTVSPropertyOp18
70
1
102
RTVSPropertyOp19
70
1
102
RTVSPropertyOp20
70
1
102
RTVSPropertyOp21
70
1
102
RTVSPropertyOp22
70
1
102
RTVSPropertyOp23
70
1
102
RTVSPropertyOp24
70
1
102
RTVSPropertyOp25
70
1
102
RTVSPropertyOp26
70
1
102
RTVSPropertyOp27
70
1
0
XRECORD
5
1095
102
{ACAD_REACTORS
330
1094
102
}
330
1094
100
AcDbXrecord
280
1
102
RTVSPropertyOp0
70
1
102
RTVSPropertyOp1
70
1
102
RTVSPropertyOp2
70
1
102
RTVSPropertyOp3
70
1
102
RTVSPropertyOp4
70
1
102
RTVSPropertyOp5
70
1
102
RTVSPropertyOp6
70
1
102
RTVSPropertyOp7
70
1
102
RTVSPropertyOp8
70
1
102
RTVSPropertyOp9
70
1
102
RTVSPropertyOp10
70
1
102
RTVSPropertyOp11
70
1
102
RTVSPropertyOp12
70
1
102
RTVSPropertyOp13
70
1
102
RTVSPropertyOp14
70
1
102
RTVSPropertyOp15
70
1
102
RTVSPropertyOp16
70
1
102
RTVSPropertyOp17
70
1
102
RTVSPropertyOp18
70
1
102
RTVSPropertyOp19
70
1
102
RTVSPropertyOp20
70
1
102
RTVSPropertyOp21
70
1
102
RTVSPropertyOp22
70
1
102
RTVSPropertyOp23
70
1
102
RTVSPropertyOp24
70
1
102
RTVSPropertyOp25
70
1
102
RTVSPropertyOp26
70
1
102
RTVSPropertyOp27
70
1
0
XRECORD
5
10A5
102
{ACAD_REACTORS
330
10A4
102
}
330
10A4
100
AcDbXrecord
280
1
102
RTVSPropertyOp0
70
0
102
RTVSPropertyOp1
70
0
102
RTVSPropertyOp2
70
0
102
RTVSPropertyOp3
70
0
102
RTVSPropertyOp4
70
0
102
RTVSPropertyOp5
70
0
102
RTVSPropertyOp6
70
0
102
RTVSPropertyOp7
70
0
102
RTVSPropertyOp8
70
0
102
RTVSPropertyOp9
70
0
102
RTVSPropertyOp10
70
0
102
RTVSPropertyOp11
70
0
102
RTVSPropertyOp12
70
0
102
RTVSPropertyOp13
70
0
102
RTVSPropertyOp14
70
2
102
RTVSPropertyOp15
70
0
102
RTVSPropertyOp16
70
0
102
RTVSPropertyOp17
70
0
102
RTVSPropertyOp18
70
0
102
RTVSPropertyOp19
70
0
102
RTVSPropertyOp20
70
0
102
RTVSPropertyOp21
70
0
102
RTVSPropertyOp22
70
0
102
RTVSPropertyOp23
70
0
102
RTVSPropertyOp24
70
0
102
RTVSPropertyOp25
70
0
102
RTVSPropertyOp26
70
0
102
RTVSPropertyOp27
70
0
0
XRECORD
5
109D
102
{ACAD_REACTORS
330
109C
102
}
330
109C
100
AcDbXrecord
280
1
102
RTVSPropertyOp0
70
1
102
RTVSPropertyOp1
70
1
102
RTVSPropertyOp2
70
1
102
RTVSPropertyOp3
70
1
102
RTVSPropertyOp4
70
1
102
RTVSPropertyOp5
70
1
102
RTVSPropertyOp6
70
1
102
RTVSPropertyOp7
70
1
102
RTVSPropertyOp8
70
1
102
RTVSPropertyOp9
70
1
102
RTVSPropertyOp10
70
1
102
RTVSPropertyOp11
70
1
102
RTVSPropertyOp12
70
1
102
RTVSPropertyOp13
70
1
102
RTVSPropertyOp14
70
1
102
RTVSPropertyOp15
70
1
102
RTVSPropertyOp16
70
1
102
RTVSPropertyOp17
70
1
102
RTVSPropertyOp18
70
1
102
RTVSPropertyOp19
70
1
102
RTVSPropertyOp20
70
1
102
RTVSPropertyOp21
70
1
102
RTVSPropertyOp22
70
1
102
RTVSPropertyOp23
70
1
102
RTVSPropertyOp24
70
1
102
RTVSPropertyOp25
70
1
102
RTVSPropertyOp26
70
1
102
RTVSPropertyOp27
70
1
0
XRECORD
5
1081
102
{ACAD_REACTORS
330
1080
102
}
330
1080
100
AcDbXrecord
280
1
102
RTVSPropertyOp0
70
1
102
RTVSPropertyOp1
70
1
102
RTVSPropertyOp2
70
1
102
RTVSPropertyOp3
70
1
102
RTVSPropertyOp4
70
1
102
RTVSPropertyOp5
70
1
102
RTVSPropertyOp6
70
1
102
RTVSPropertyOp7
70
1
102
RTVSPropertyOp8
70
1
102
RTVSPropertyOp9
70
1
102
RTVSPropertyOp10
70
1
102
RTVSPropertyOp11
70
1
102
RTVSPropertyOp12
70
1
102
RTVSPropertyOp13
70
1
102
RTVSPropertyOp14
70
1
102
RTVSPropertyOp15
70
1
102
RTVSPropertyOp16
70
1
102
RTVSPropertyOp17
70
1
102
RTVSPropertyOp18
70
1
102
RTVSPropertyOp19
70
1
102
RTVSPropertyOp20
70
1
102
RTVSPropertyOp21
70
1
102
RTVSPropertyOp22
70
1
102
RTVSPropertyOp23
70
1
102
RTVSPropertyOp24
70
1
102
RTVSPropertyOp25
70
1
102
RTVSPropertyOp26
70
1
102
RTVSPropertyOp27
70
1
0
XRECORD
5
1083
102
{ACAD_REACTORS
330
1082
102
}
330
1082
100
AcDbXrecord
280
1
102
RTVSPropertyOp0
70
1
102
RTVSPropertyOp1
70
1
102
RTVSPropertyOp2
70
1
102
RTVSPropertyOp3
70
1
102
RTVSPropertyOp4
70
1
102
RTVSPropertyOp5
70
1
102
RTVSPropertyOp6
70
1
102
RTVSPropertyOp7
70
1
102
RTVSPropertyOp8
70
1
102
RTVSPropertyOp9
70
1
102
RTVSPropertyOp10
70
1
102
RTVSPropertyOp11
70
1
102
RTVSPropertyOp12
70
1
102
RTVSPropertyOp13
70
1
102
RTVSPropertyOp14
70
1
102
RTVSPropertyOp15
70
1
102
RTVSPropertyOp16
70
1
102
RTVSPropertyOp17
70
1
102
RTVSPropertyOp18
70
1
102
RTVSPropertyOp19
70
1
102
RTVSPropertyOp20
70
1
102
RTVSPropertyOp21
70
1
102
RTVSPropertyOp22
70
1
102
RTVSPropertyOp23
70
1
102
RTVSPropertyOp24
70
1
102
RTVSPropertyOp25
70
1
102
RTVSPropertyOp26
70
1
102
RTVSPropertyOp27
70
1
0
XRECORD
5
1085
102
{ACAD_REACTORS
330
1084
102
}
330
1084
100
AcDbXrecord
280
1
102
RTVSPropertyOp0
70
1
102
RTVSPropertyOp1
70
1
102
RTVSPropertyOp2
70
1
102
RTVSPropertyOp3
70
1
102
RTVSPropertyOp4
70
1
102
RTVSPropertyOp5
70
1
102
RTVSPropertyOp6
70
1
102
RTVSPropertyOp7
70
1
102
RTVSPropertyOp8
70
1
102
RTVSPropertyOp9
70
1
102
RTVSPropertyOp10
70
1
102
RTVSPropertyOp11
70
1
102
RTVSPropertyOp12
70
1
102
RTVSPropertyOp13
70
1
102
RTVSPropertyOp14
70
1
102
RTVSPropertyOp15
70
1
102
RTVSPropertyOp16
70
1
102
RTVSPropertyOp17
70
1
102
RTVSPropertyOp18
70
1
102
RTVSPropertyOp19
70
1
102
RTVSPropertyOp20
70
1
102
RTVSPropertyOp21
70
1
102
RTVSPropertyOp22
70
1
102
RTVSPropertyOp23
70
1
102
RTVSPropertyOp24
70
1
102
RTVSPropertyOp25
70
1
102
RTVSPropertyOp26
70
1
102
RTVSPropertyOp27
70
1
0
XRECORD
5
1087
102
{ACAD_REACTORS
330
1086
102
}
330
1086
100
AcDbXrecord
280
1
102
RTVSPropertyOp0
70
1
102
RTVSPropertyOp1
70
1
102
RTVSPropertyOp2
70
1
102
RTVSPropertyOp3
70
1
102
RTVSPropertyOp4
70
1
102
RTVSPropertyOp5
70
1
102
RTVSPropertyOp6
70
1
102
RTVSPropertyOp7
70
1
102
RTVSPropertyOp8
70
1
102
RTVSPropertyOp9
70
1
102
RTVSPropertyOp10
70
1
102
RTVSPropertyOp11
70
1
102
RTVSPropertyOp12
70
1
102
RTVSPropertyOp13
70
1
102
RTVSPropertyOp14
70
1
102
RTVSPropertyOp15
70
1
102
RTVSPropertyOp16
70
1
102
RTVSPropertyOp17
70
1
102
RTVSPropertyOp18
70
1
102
RTVSPropertyOp19
70
1
102
RTVSPropertyOp20
70
1
102
RTVSPropertyOp21
70
1
102
RTVSPropertyOp22
70
1
102
RTVSPropertyOp23
70
1
102
RTVSPropertyOp24
70
1
102
RTVSPropertyOp25
70
1
102
RTVSPropertyOp26
70
1
102
RTVSPropertyOp27
70
1
0
XRECORD
5
10A1
102
{ACAD_REACTORS
330
10A0
102
}
330
10A0
100
AcDbXrecord
280
1
102
RTVSPropertyOp0
70
0
102
RTVSPropertyOp1
70
0
102
RTVSPropertyOp2
70
0
102
RTVSPropertyOp3
70
0
102
RTVSPropertyOp4
70
0
102
RTVSPropertyOp5
70
0
102
RTVSPropertyOp6
70
0
102
RTVSPropertyOp7
70
0
102
RTVSPropertyOp8
70
0
102
RTVSPropertyOp9
70
0
102
RTVSPropertyOp10
70
0
102
RTVSPropertyOp11
70
0
102
RTVSPropertyOp12
70
0
102
RTVSPropertyOp13
70
0
102
RTVSPropertyOp14
70
2
102
RTVSPropertyOp15
70
0
102
RTVSPropertyOp16
70
0
102
RTVSPropertyOp17
70
0
102
RTVSPropertyOp18
70
0
102
RTVSPropertyOp19
70
0
102
RTVSPropertyOp20
70
0
102
RTVSPropertyOp21
70
0
102
RTVSPropertyOp22
70
0
102
RTVSPropertyOp23
70
0
102
RTVSPropertyOp24
70
0
102
RTVSPropertyOp25
70
0
102
RTVSPropertyOp26
70
0
102
RTVSPropertyOp27
70
0
0
XRECORD
5
109B
102
{ACAD_REACTORS
330
109A
102
}
330
109A
100
AcDbXrecord
280
1
102
RTVSPropertyOp0
70
1
102
RTVSPropertyOp1
70
1
102
RTVSPropertyOp2
70
1
102
RTVSPropertyOp3
70
1
102
RTVSPropertyOp4
70
1
102
RTVSPropertyOp5
70
1
102
RTVSPropertyOp6
70
1
102
RTVSPropertyOp7
70
1
102
RTVSPropertyOp8
70
1
102
RTVSPropertyOp9
70
1
102
RTVSPropertyOp10
70
1
102
RTVSPropertyOp11
70
1
102
RTVSPropertyOp12
70
1
102
RTVSPropertyOp13
70
1
102
RTVSPropertyOp14
70
1
102
RTVSPropertyOp15
70
1
102
RTVSPropertyOp16
70
1
102
RTVSPropertyOp17
70
1
102
RTVSPropertyOp18
70
1
102
RTVSPropertyOp19
70
1
102
RTVSPropertyOp20
70
1
102
RTVSPropertyOp21
70
1
102
RTVSPropertyOp22
70
1
102
RTVSPropertyOp23
70
1
102
RTVSPropertyOp24
70
1
102
RTVSPropertyOp25
70
1
102
RTVSPropertyOp26
70
1
102
RTVSPropertyOp27
70
1
0
XRECORD
5
10A3
102
{ACAD_REACTORS
330
10A2
102
}
330
10A2
100
AcDbXrecord
280
1
102
RTVSPropertyOp0
70
0
102
RTVSPropertyOp1
70
0
102
RTVSPropertyOp2
70
0
102
RTVSPropertyOp3
70
0
102
RTVSPropertyOp4
70
0
102
RTVSPropertyOp5
70
0
102
RTVSPropertyOp6
70
0
102
RTVSPropertyOp7
70
0
102
RTVSPropertyOp8
70
0
102
RTVSPropertyOp9
70
0
102
RTVSPropertyOp10
70
0
102
RTVSPropertyOp11
70
0
102
RTVSPropertyOp12
70
0
102
RTVSPropertyOp13
70
0
102
RTVSPropertyOp14
70
2
102
RTVSPropertyOp15
70
0
102
RTVSPropertyOp16
70
0
102
RTVSPropertyOp17
70
0
102
RTVSPropertyOp18
70
0
102
RTVSPropertyOp19
70
0
102
RTVSPropertyOp20
70
0
102
RTVSPropertyOp21
70
0
102
RTVSPropertyOp22
70
0
102
RTVSPropertyOp23
70
0
102
RTVSPropertyOp24
70
0
102
RTVSPropertyOp25
70
0
102
RTVSPropertyOp26
70
0
102
RTVSPropertyOp27
70
0
0
XRECORD
5
1093
102
{ACAD_REACTORS
330
1092
102
}
330
1092
100
AcDbXrecord
280
1
102
RTVSPropertyOp0
70
1
102
RTVSPropertyOp1
70
1
102
RTVSPropertyOp2
70
1
102
RTVSPropertyOp3
70
1
102
RTVSPropertyOp4
70
1
102
RTVSPropertyOp5
70
1
102
RTVSPropertyOp6
70
1
102
RTVSPropertyOp7
70
1
102
RTVSPropertyOp8
70
1
102
RTVSPropertyOp9
70
1
102
RTVSPropertyOp10
70
1
102
RTVSPropertyOp11
70
1
102
RTVSPropertyOp12
70
1
102
RTVSPropertyOp13
70
1
102
RTVSPropertyOp14
70
1
102
RTVSPropertyOp15
70
1
102
RTVSPropertyOp16
70
1
102
RTVSPropertyOp17
70
1
102
RTVSPropertyOp18
70
1
102
RTVSPropertyOp19
70
1
102
RTVSPropertyOp20
70
1
102
RTVSPropertyOp21
70
1
102
RTVSPropertyOp22
70
1
102
RTVSPropertyOp23
70
1
102
RTVSPropertyOp24
70
1
102
RTVSPropertyOp25
70
1
102
RTVSPropertyOp26
70
1
102
RTVSPropertyOp27
70
1
0
XRECORD
5
1099
102
{ACAD_REACTORS
330
1098
102
}
330
1098
100
AcDbXrecord
280
1
102
RTVSPropertyOp0
70
1
102
RTVSPropertyOp1
70
1
102
RTVSPropertyOp2
70
1
102
RTVSPropertyOp3
70
1
102
RTVSPropertyOp4
70
1
102
RTVSPropertyOp5
70
1
102
RTVSPropertyOp6
70
1
102
RTVSPropertyOp7
70
1
102
RTVSPropertyOp8
70
1
102
RTVSPropertyOp9
70
1
102
RTVSPropertyOp10
70
1
102
RTVSPropertyOp11
70
1
102
RTVSPropertyOp12
70
1
102
RTVSPropertyOp13
70
1
102
RTVSPropertyOp14
70
1
102
RTVSPropertyOp15
70
1
102
RTVSPropertyOp16
70
1
102
RTVSPropertyOp17
70
1
102
RTVSPropertyOp18
70
1
102
RTVSPropertyOp19
70
1
102
RTVSPropertyOp20
70
1
102
RTVSPropertyOp21
70
1
102
RTVSPropertyOp22
70
1
102
RTVSPropertyOp23
70
1
102
RTVSPropertyOp24
70
1
102
RTVSPropertyOp25
70
1
102
RTVSPropertyOp26
70
1
102
RTVSPropertyOp27
70
1
0
ENDSEC
0
EOF
