0
SECTION
2
HEADER
9
$ACADVER
1
AC1015
9
$ACADMAINTVER
70
20
9
$DWGCODEPAGE
3
ANSI_1252
9
$INSBASE
10
0.0
20
0.0
30
0.0
9
$EXTMIN
10
-150.000000000000
20
-105.000000000000
30
0.0
9
$EXTMAX
10
150.000000000000
20
105.000000000000
30
0.0
9
$LIMMIN
10
0.0
20
0.0
9
$LIMMAX
10
12.0
20
9.0
9
$ORTHOMODE
70
0
9
$REGENMODE
70
1
9
$FILLMODE
70
1
9
$QTEXTMODE
70
0
9
$MIRRTEXT
70
1
9
$LTSCALE
40
1.0
9
$ATTMODE
70
1
9
$TEXTSIZE
40
0.2
9
$TRACEWID
40
0.05
9
$TEXTSTYLE
7
Standard
9
$CLAYER
8
0
9
$CELTYPE
6
ByLayer
9
$CECOLOR
62
256
9
$CELTSCALE
40
1.0
9
$DISPSILH
70
0
9
$DIMSCALE
40
1.0
9
$DIMASZ
40
2.5
9
$DIMEXO
40
0.625
9
$DIMDLI
40
0.38
9
$DIMRND
40
0.0
9
$DIMDLE
40
0.0
9
$DIMEXE
40
1.25
9
$DIMTP
40
0.0
9
$DIMTM
40
0.000000001
9
$DIMTXT
40
2.5
9
$DIMCEN
40
0.09
9
$DIMTSZ
40
0.0
9
$DIMTOL
70
1
9
$DIMLIM
70
0
9
$DIMTIH
70
0
9
$DIMTOH
70
0
9
$DIMSE1
70
0
9
$DIMSE2
70
0
9
$DIMTAD
70
1
9
$DIMZIN
70
0
9
$DIMBLK
1
VDDIM_DEFAULT
9
$DIMASO
70
1
9
$DIMSHO
70
1
9
$DIMPOST
1

9
$DIMAPOST
1

9
$DIMALT
70
0
9
$DIMALTD
70
2
9
$DIMALTF
40
25.4
9
$DIMLFAC
40
1.00000000000000
9
$DIMTOFL
70
0
9
$DIMTVP
40
0.0
9
$DIMTIX
70
0
9
$DIMSOXD
70
0
9
$DIMSAH
70
0
9
$DIMBLK1
1

9
$DIMBLK2
1

9
$DIMSTYLE
2
BEM-ISBE
9
$DIMCLRD
70
0
9
$DIMCLRE
70
0
9
$DIMCLRT
70
0
9
$DIMTFAC
40
0.5
9
$DIMGAP
40
0.625
9
$DIMJUST
70
0
9
$DIMSD1
70
0
9
$DIMSD2
70
0
9
$DIMTOLJ
70
1
9
$DIMTZIN
70
0
9
$DIMALTZ
70
0
9
$DIMALTTZ
70
0
9
$DIMUPT
70
0
9
$DIMDEC
70
3
9
$DIMTDEC
70
3
9
$DIMALTU
70
2
9
$DIMALTTD
70
2
9
$DIMTXSTY
7
Standard
9
$DIMAUNIT
70
0
9
$DIMADEC
70
3
9
$DIMALTRND
40
0.0
9
$DIMAZIN
70
0
9
$DIMDSEP
70
46
9
$DIMATFIT
70
3
9
$DIMFRAC
70
0
9
$DIMLDRBLK
1

9
$DIMLUNIT
70
2
9
$DIMLWD
70
-2
9
$DIMLWE
70
-2
9
$DIMTMOVE
70
0
9
$LUNITS
70
2
9
$LUPREC
70
4
9
$SKETCHINC
40
0.1
9
$FILLETRAD
40
0.5
9
$AUNITS
70
0
9
$AUPREC
70
0
9
$MENU
1
.
9
$ELEVATION
40
0.0
9
$PELEVATION
40
0.0
9
$THICKNESS
40
0.0
9
$LIMCHECK
70
0
9
$CHAMFERA
40
0.5
9
$CHAMFERB
40
0.5
9
$CHAMFERC
40
1.0
9
$CHAMFERD
40
0.0
9
$SKPOLY
70
0
9
$TDCREATE
40
0.0
9
$TDUCREATE
40
0.0
9
$TDUPDATE
40
0.0
9
$TDUUPDATE
40
0.0
9
$TDINDWG
40
0.0
9
$TDUSRTIMER
40
0.0
9
$USRTIMER
70
1
9
$ANGBASE
50
0.0
9
$ANGDIR
70
0
9
$PDMODE
70
0
9
$PDSIZE
40
0.0
9
$PLINEWID
40
0.0
9
$SPLFRAME
70
0
9
$SPLINETYPE
70
6
9
$SPLINESEGS
70
8
9
$HANDSEED
5
10AB
9
$SURFTAB1
70
6
9
$SURFTAB2
70
6
9
$SURFTYPE
70
6
9
$SURFU
70
6
9
$SURFV
70
6
9
$UCSBASE
2

9
$UCSNAME
2

9
$UCSORG
10
0.0
20
0.0
30
0.0
9
$UCSXDIR
10
1.0
20
0.0
30
0.0
9
$UCSYDIR
10
0.0
20
1.0
30
0.0
9
$UCSORTHOREF
2

9
$UCSORTHOVIEW
70
0
9
$UCSORGTOP
10
0.0
20
0.0
30
0.0
9
$UCSORGBOTTOM
10
0.0
20
0.0
30
0.0
9
$UCSORGLEFT
10
0.0
20
0.0
30
0.0
9
$UCSORGRIGHT
10
0.0
20
0.0
30
0.0
9
$UCSORGFRONT
10
0.0
20
0.0
30
0.0
9
$UCSORGBACK
10
0.0
20
0.0
30
0.0
9
$PUCSBASE
2

9
$PUCSNAME
2

9
$PUCSORG
10
0.0
20
0.0
30
0.0
9
$PUCSXDIR
10
1.0
20
0.0
30
0.0
9
$PUCSYDIR
10
0.0
20
1.0
30
0.0
9
$PUCSORTHOREF
2

9
$PUCSORTHOVIEW
70
0
9
$PUCSORGTOP
10
0.0
20
0.0
30
0.0
9
$PUCSORGBOTTOM
10
0.0
20
0.0
30
0.0
9
$PUCSORGLEFT
10
0.0
20
0.0
30
0.0
9
$PUCSORGRIGHT
10
0.0
20
0.0
30
0.0
9
$PUCSORGFRONT
10
0.0
20
0.0
30
0.0
9
$PUCSORGBACK
10
0.0
20
0.0
30
0.0
9
$USERI1
70
0
9
$USERI2
70
0
9
$USERI3
70
0
9
$USERI4
70
0
9
$USERI5
70
0
9
$USERR1
40
0.0
9
$USERR2
40
0.0
9
$USERR3
40
0.0
9
$USERR4
40
0.0
9
$USERR5
40
0.0
9
$WORLDVIEW
70
1
9
$SHADEDGE
70
3
9
$SHADEDIF
70
70
9
$TILEMODE
70
1
9
$MAXACTVP
70
64
9
$PINSBASE
10
0.0
20
0.0
30
0.0
9
$PLIMCHECK
70
0
9
$PEXTMIN
10
1.000000000000000E+20
20
1.000000000000000E+20
30
1.000000000000000E+20
9
$PEXTMAX
10
-1.000000000000000E+20
20
-1.000000000000000E+20
30
-1.000000000000000E+20
9
$PLIMMIN
10
0.0
20
0.0
9
$PLIMMAX
10
12.0
20
9.0
9
$UNITMODE
70
0
9
$VISRETAIN
70
1
9
$PLINEGEN
70
0
9
$PSLTSCALE
70
1
9
$TREEDEPTH
70
3020
9
$CMLSTYLE
2
Standard
9
$CMLJUST
70
0
9
$CMLSCALE
40
1.0
9
$PROXYGRAPHICS
70
1
9
$MEASUREMENT
70
0
9
$CELWEIGHT
370
-1
9
$ENDCAPS
280
0
9
$JOINSTYLE
280
0
9
$LWDISPLAY
290
0
9
$INSUNITS
70
4
9
$HYPERLINKBASE
1

9
$STYLESHEET
1

9
$XEDIT
290
1
9
$CEPSNTYPE
380
0
9
$PSTYLEMODE
290
0
9
$FINGERPRINTGUID
2
{FAEB1C30-E019-11D5-929B-00C0DF256EC4}
9
$VERSIONGUID
2
{04C5C4E4-4947-4D90-8812-D401569E61F7}
9
$EXTNAMES
290
1
9
$PSVPSCALE
40
0.0
9
$OLESTARTUP
290
0
0
ENDSEC
0
SECTION
2
CLASSES
0
CLASS
1
ACDBDICTIONARYWDFLT
2
AcDbDictionaryWithDefault
3
ObjectDBX Classes
90
0
280
0
281
0
0
CLASS
1
ACDBPLACEHOLDER
2
AcDbPlaceHolder
3
ObjectDBX Classes
90
0
280
0
281
0
0
CLASS
1
LAYOUT
2
AcDbLayout
3
ObjectDBX Classes
90
0
280
0
281
0
0
CLASS
1
MATERIAL
2
AcDbMaterial
3
ObjectDBX Classes
90
1153
280
0
281
0
0
CLASS
1
VISUALSTYLE
2
AcDbVisualStyle
3
ObjectDBX Classes
90
4095
280
0
281
0
0
CLASS
1
TABLESTYLE
2
AcDbTableStyle
3
ObjectDBX Classes
90
4095
280
0
281
0
0
CLASS
1
SCALE
2
AcDbScale
3
ObjectDBX Classes
90
1153
280
0
281
0
0
CLASS
1
MLEADERSTYLE
2
AcDbMLeaderStyle
3
ACDB_MLEADERSTYLE_CLASS
90
4095
280
0
281
0
0
CLASS
1
DICTIONARYVAR
2
AcDbDictionaryVar
3
ObjectDBX Classes
90
0
280
0
281
0
0
CLASS
1
CELLSTYLEMAP
2
AcDbCellStyleMap
3
ObjectDBX Classes
90
1152
280
0
281
0
0
ENDSEC
0
SECTION
2
TABLES
0
TABLE
2
VPORT
5
24A
330
0
100
AcDbSymbolTable
70
1
0
VPORT
5
26B
330
24A
100
AcDbSymbolTableRecord
100
AcDbViewportTableRecord
2
*Active
70
0
10
0.0
20
0.0
11
1.0
21
1.0
12
0.000000000000000
22
0.000000000000000
13
0.0
23
0.0
14
10.0
24
10.0
15
10.0
25
10.0
16
0.0
26
0.0
36
1.0
17
0.0
27
0.0
37
0.0
40
210.000000000000
41
1.42857142857143
42
1.0
43
0.0
44
0.0
50
0.0
51
0.0000000000007958
71
0
72
100
73
1
74
3
75
0
76
0
77
0
78
1
281
0
65
1
110
0.0
120
0.0
130
0.0
111
1.0
121
0.0
131
0.0
112
0.0
122
1.0
132
0.0
79
0
146
0.0
0
ENDTAB
0
TABLE
2
LTYPE
5
247
330
0
100
AcDbSymbolTable
70
25
0
LTYPE
5
256
330
247
100
AcDbSymbolTableRecord
100
AcDbLinetypeTableRecord
2
ByBlock
70
0
3

72
65
73
0
40
0.0
0
LTYPE
5
257
330
247
100
AcDbSymbolTableRecord
100
AcDbLinetypeTableRecord
2
ByLayer
70
0
3

72
65
73
0
40
0.0
0
LTYPE
5
258
330
247
100
AcDbSymbolTableRecord
100
AcDbLinetypeTableRecord
2
Continuous
70
0
3
Solid line
72
65
73
0
40
0.0
0
LTYPE
5
273
330
247
100
AcDbSymbolTableRecord
100
AcDbLinetypeTableRecord
2
CENTER
70
0
3
Center ____ _ ____ _ ____ _ ____ _ ____ _ ____
72
65
73
4
40
2.0
49
1.25
74
0
49
-0.25
74
0
49
0.25
74
0
49
-0.25
74
0
0
LTYPE
5
274
330
247
100
AcDbSymbolTableRecord
100
AcDbLinetypeTableRecord
2
DASHDOT
70
0
3
Dashdot __ . __ . __ . __ . __ . __ . __ . __
72
65
73
4
40
1.0
49
0.5
74
0
49
-0.25
74
0
49
0.0
74
0
49
-0.25
74
0
0
LTYPE
5
275
330
247
100
AcDbSymbolTableRecord
100
AcDbLinetypeTableRecord
2
DASHED
70
0
3
Dashed __ __ __ __ __ __ __ __ __ __ __ __ __ _
72
65
73
2
40
0.75
49
0.5
74
0
49
-0.25
74
0
0
LTYPE
5
276
330
247
100
AcDbSymbolTableRecord
100
AcDbLinetypeTableRecord
2
HIDDEN
70
0
3
Hidden __ __ __ __ __ __ __ __ __ __ __ __ __ __
72
65
73
2
40
0.375
49
0.25
74
0
49
-0.125
74
0
0
LTYPE
5
277
330
247
100
AcDbSymbolTableRecord
100
AcDbLinetypeTableRecord
2
HIDDEN2
70
0
3
Hidden2 _ _ _ _ _ _ _ _ _ _ _ _ _ _ _ _ _
72
65
73
2
40
0.1875
49
0.125
74
0
49
-0.0625
74
0
0
LTYPE
5
278
330
247
100
AcDbSymbolTableRecord
100
AcDbLinetypeTableRecord
2
BORDER
70
0
3
Border __ __ . __ __ . __ __ . __ __ . __ __ .
72
65
73
6
40
1.75
49
0.5
74
0
49
-0.25
74
0
49
0.5
74
0
49
-0.25
74
0
49
0.0
74
0
49
-0.25
74
0
0
LTYPE
5
279
330
247
100
AcDbSymbolTableRecord
100
AcDbLinetypeTableRecord
2
BORDER2
70
0
3
Border2 __.__.__.__.__.__.__.__.__.__.__.
72
65
73
6
40
0.875
49
0.25
74
0
49
-0.125
74
0
49
0.25
74
0
49
-0.125
74
0
49
0.0
74
0
49
-0.125
74
0
0
LTYPE
5
27A
330
247
100
AcDbSymbolTableRecord
100
AcDbLinetypeTableRecord
2
BORDERX2
70
0
3
Borderx2  ____  ____  .  ____  ____  .  ___
72
65
73
6
40
3.5
49
1.0
74
0
49
-0.5
74
0
49
1.0
74
0
49
-0.5
74
0
49
0.0
74
0
49
-0.5
74
0
0
LTYPE
5
27B
330
247
100
AcDbSymbolTableRecord
100
AcDbLinetypeTableRecord
2
CENTER2
70
0
3
Center2  ___ _ ___ _ ___ _ ___ _ ___ _ ___
72
65
73
4
40
1.125
49
0.75
74
0
49
-0.125
74
0
49
0.125
74
0
49
-0.125
74
0
0
LTYPE
5
27C
330
247
100
AcDbSymbolTableRecord
100
AcDbLinetypeTableRecord
2
CENTERX2
70
0
3
Centerx2  ________  __  ________  __  _____
72
65
73
4
40
4.0
49
2.5
74
0
49
-0.5
74
0
49
0.5
74
0
49
-0.5
74
0
0
LTYPE
5
27D
330
247
100
AcDbSymbolTableRecord
100
AcDbLinetypeTableRecord
2
DASHDOT2
70
0
3
Dashdot2  _._._._._._._._._._._._._._._.
72
65
73
4
40
0.5
49
0.25
74
0
49
-0.125
74
0
49
0.0
74
0
49
-0.125
74
0
0
LTYPE
5
27E
330
247
100
AcDbSymbolTableRecord
100
AcDbLinetypeTableRecord
2
DASHDOTX2
70
0
3
Dashdotx2 ____  .  ____  .  ____  .  ___
72
65
73
4
40
2.0
49
1.0
74
0
49
-0.5
74
0
49
0.0
74
0
49
-0.5
74
0
0
LTYPE
5
27F
330
247
100
AcDbSymbolTableRecord
100
AcDbLinetypeTableRecord
2
DASHED2
70
0
3
Dashed2 _ _ _ _ _ _ _ _ _ _ _ _ _ _ _ _ _
72
65
73
2
40
0.375
49
0.25
74
0
49
-0.125
74
0
0
LTYPE
5
280
330
247
100
AcDbSymbolTableRecord
100
AcDbLinetypeTableRecord
2
DASHEDX2
70
0
3
Dashedx2 ____  ____  ____  ____  ____  ___
72
65
73
2
40
1.5
49
1.0
74
0
49
-0.5
74
0
0
LTYPE
5
281
330
247
100
AcDbSymbolTableRecord
100
AcDbLinetypeTableRecord
2
DIVIDE
70
0
3
Divide ____ . . ____ . . ____ . . ____ . . ____
72
65
73
6
40
1.25
49
0.5
74
0
49
-0.25
74
0
49
0.0
74
0
49
-0.25
74
0
49
0.0
74
0
49
-0.25
74
0
0
LTYPE
5
282
330
247
100
AcDbSymbolTableRecord
100
AcDbLinetypeTableRecord
2
DIVIDE2
70
0
3
Divide2 __..__..__..__..__..__..__..__.._
72
65
73
6
40
0.625
49
0.25
74
0
49
-0.125
74
0
49
0.0
74
0
49
-0.125
74
0
49
0.0
74
0
49
-0.125
74
0
0
LTYPE
5
283
330
247
100
AcDbSymbolTableRecord
100
AcDbLinetypeTableRecord
2
DIVIDEX2
70
0
3
Dividex2 ________  .  .  ________  .  .  _
72
65
73
6
40
2.5
49
1.0
74
0
49
-0.5
74
0
49
0.0
74
0
49
-0.5
74
0
49
0.0
74
0
49
-0.5
74
0
0
LTYPE
5
284
330
247
100
AcDbSymbolTableRecord
100
AcDbLinetypeTableRecord
2
DOT
70
0
3
Dot . . . . . . . . . . . . . . . . . . . . . . . .
72
65
73
2
40
0.25
49
0.0
74
0
49
-0.25
74
0
0
LTYPE
5
285
330
247
100
AcDbSymbolTableRecord
100
AcDbLinetypeTableRecord
2
DOT2
70
0
3
Dot2 ........................................
72
65
73
2
40
0.125
49
0.0
74
0
49
-0.125
74
0
0
LTYPE
5
286
330
247
100
AcDbSymbolTableRecord
100
AcDbLinetypeTableRecord
2
DOTX2
70
0
3
Dotx2 .  .  .  .  .  .  .  .  .  .  .  .  .  .
72
65
73
2
40
0.5
49
0.0
74
0
49
-0.5
74
0
0
LTYPE
5
287
330
247
100
AcDbSymbolTableRecord
100
AcDbLinetypeTableRecord
2
HIDDENX2
70
0
3
Hiddenx2 ____ ____ ____ ____ ____ ____ ____
72
65
73
2
40
0.75
49
0.5
74
0
49
-0.25
74
0
0
LTYPE
5
288
330
247
100
AcDbSymbolTableRecord
100
AcDbLinetypeTableRecord
2
PHANTOM
70
0
3
Phantom ______  __  __  ______  __  __  ______
72
65
73
6
40
2.5
49
1.25
74
0
49
-0.25
74
0
49
0.25
74
0
49
-0.25
74
0
49
0.25
74
0
49
-0.25
74
0
0
LTYPE
5
289
330
247
100
AcDbSymbolTableRecord
100
AcDbLinetypeTableRecord
2
PHANTOM2
70
0
3
Phantom2 ___ _ _ ___ _ _ ___ _ _ ___ _ _
72
65
73
6
40
1.25
49
0.625
74
0
49
-0.125
74
0
49
0.125
74
0
49
-0.125
74
0
49
0.125
74
0
49
-0.125
74
0
0
LTYPE
5
28A
330
247
100
AcDbSymbolTableRecord
100
AcDbLinetypeTableRecord
2
PHANTOMX2
70
0
3
Phantomx2 ____________    ____    ____   _
72
65
73
6
40
5.0
49
2.5
74
0
49
-0.5
74
0
49
0.5
74
0
49
-0.5
74
0
49
0.5
74
0
49
-0.5
74
0
0
ENDTAB
0
TABLE
2
LAYER
5
244
330
0
100
AcDbSymbolTable
70
6
0
LAYER
5
252
330
244
100
AcDbSymbolTableRecord
100
AcDbLayerTableRecord
2
0
70
0
62
7
6
Continuous
370
0
390
251
0
LAYER
5
23F
330
244
100
AcDbSymbolTableRecord
100
AcDbLayerTableRecord
2
Bemassung
70
0
 62
   7
6
Continuous
370
0
390
251
0
LAYER
5
240
330
244
100
AcDbSymbolTableRecord
100
AcDbLayerTableRecord
2
Rahmen
70
0
 62
   7
6
Continuous
370
0
390
251
0
LAYER
5
241
330
244
100
AcDbSymbolTableRecord
100
AcDbLayerTableRecord
2
Geo
70
0
 62
   7
6
Continuous
370
0
390
251
0
LAYER
5
33A
330
244
100
AcDbSymbolTableRecord
100
AcDbLayerTableRecord
2
Defpoints
70
0
62
7
6
Continuous
290
0
370
-3
390
251
0
LAYER
5
57E
330
244
100
AcDbSymbolTableRecord
100
AcDbLayerTableRecord
2
Text
70
0
 62
   7
6
Continuous
370
0
390
251
1001
AcAecLayerStandard
1000

1000

0
ENDTAB
0
TABLE
2
STYLE
5
245
330
0
100
AcDbSymbolTable
70
2
0
STYLE
5
253
330
245
100
AcDbSymbolTableRecord
100
AcDbTextStyleTableRecord
2
Standard
70
0
40
0.0
41
1.0
50
0.0
71
0
42
0.2
3
Arial
4

1001
ACAD
1000
Arial
1071
0
0
STYLE
5
132
330
245
100
AcDbSymbolTableRecord
100
AcDbTextStyleTableRecord
2
Beschriftung
70
0
40
0.0
41
1.0
50
0.0
71
0
42
0.2
3
Arial
4

1001
ACAD
1000
Arial
1071
0
1001
AcadAnnotative
1000
AnnotativeData
1070
1
1070
1
0
ENDTAB
0
TABLE
2
VIEW
5
248
330
0
100
AcDbSymbolTable
70
0
0
ENDTAB
0
TABLE
2
UCS
5
249
330
0
100
AcDbSymbolTable
70
0
0
ENDTAB
0
TABLE
2
APPID
5
24B
330
0
100
AcDbSymbolTable
70
13
0
APPID
5
254
330
24B
100
AcDbSymbolTableRecord
100
AcDbRegAppTableRecord
2
ACAD
70
0
0
APPID
5
26C
330
24B
100
AcDbSymbolTableRecord
100
AcDbRegAppTableRecord
2
VD_INVISIBLE_NOT_FOR_READ
70
0
0
APPID
5
26D
330
24B
100
AcDbSymbolTableRecord
100
AcDbRegAppTableRecord
2
VD_TEMPHATCH
70
0
0
APPID
5
26E
330
24B
100
AcDbSymbolTableRecord
100
AcDbRegAppTableRecord
2
VDEXTRAPARAM
70
0
0
APPID
5
26F
330
24B
100
AcDbSymbolTableRecord
100
AcDbRegAppTableRecord
2
PE_URL
70
0
0
APPID
5
270
330
24B
100
AcDbSymbolTableRecord
100
AcDbRegAppTableRecord
2
VD_UNKNOWN
70
0
0
APPID
5
28F
330
24B
100
AcDbSymbolTableRecord
100
AcDbRegAppTableRecord
2
AcadAnnotative
70
0
0
APPID
5
290
330
24B
100
AcDbSymbolTableRecord
100
AcDbRegAppTableRecord
2
ACAD_DSTYLE_DIMJAG
70
0
0
APPID
5
291
330
24B
100
AcDbSymbolTableRecord
100
AcDbRegAppTableRecord
2
ACAD_DSTYLE_DIMTALN
70
0
0
APPID
5
293
330
24B
100
AcDbSymbolTableRecord
100
AcDbRegAppTableRecord
2
ACAD_PSEXT
70
0
0
APPID
5
42A
330
24B
100
AcDbSymbolTableRecord
100
AcDbRegAppTableRecord
2
ACAD_MLEADERVER
70
0
0
APPID
5
532
330
24B
100
AcDbSymbolTableRecord
100
AcDbRegAppTableRecord
2
ACAD_EXEMPT_FROM_CAD_STANDARDS
70
0
0
APPID
5
57F
330
24B
100
AcDbSymbolTableRecord
100
AcDbRegAppTableRecord
2
AcAecLayerStandard
70
0
0
ENDTAB
0
TABLE
2
DIMSTYLE
5
24C
330
0
100
AcDbSymbolTable
70
3
100
AcDbDimStyleTable
71
2
340
27
340
269
0
DIMSTYLE
105
269
330
24C
100
AcDbSymbolTableRecord
100
AcDbDimStyleTableRecord
2
Standard
70
0
172
1
174
1
288
1
340
253
342
23C
0
DIMSTYLE
105
137
330
24C
100
AcDbSymbolTableRecord
100
AcDbDimStyleTableRecord
2
Beschriftung
70
0
41
2.5
42
0.625
44
1.25
73
0
74
0
77
1
140
2.5
147
0.625
172
1
174
1
271
2
288
1
340
253
342
23C
1001
AcadAnnotative
1000
AnnotativeData
1070
1
1070
1
1001
ACAD_DSTYLE_DIMJAG
1070
388
1040
1.5
1001
ACAD_DSTYLE_DIMTALN
1070
392
1070
0
0
DIMSTYLE
105
27
102
{ACAD_REACTORS
330
F10003
330
F10012
330
F1001C
330
F10021
330
F10008
330
F1000D
330
F10017
102
}
330
24C
100
AcDbSymbolTableRecord
100
AcDbDimStyleTableRecord
2
BEM-ISBE
70
0
41
2.5
42
0.625
44
1.25
48
0.000000001
71
1
73
0
74
0
77
1
140
2.5
144
1.00000000000000
146
0.5
147
0.625
171
 3
172
 1
179
 3
271
 3
272
 3
274
 3
340
253
342
23C
1001
ACAD_DSTYLE_DIMJAG
1070
388
1040
1.5
1001
ACAD_DSTYLE_DIMTALN
1070
392
1070
1
0
ENDTAB
0
TABLE
2
BLOCK_RECORD
5
243
330
0
100
AcDbSymbolTable
70
5
0
BLOCK_RECORD
5
261
330
243
100
AcDbSymbolTableRecord
100
AcDbBlockTableRecord
2
*Model_Space
340
FD0
0
BLOCK_RECORD
5
25D
330
243
100
AcDbSymbolTableRecord
100
AcDbBlockTableRecord
2
*Paper_Space
340
FD1
0
BLOCK_RECORD
5
265
330
243
100
AcDbSymbolTableRecord
100
AcDbBlockTableRecord
2
*Paper_Space0
340
0
0
BLOCK_RECORD
5
23C
330
243
100
AcDbSymbolTableRecord
100
AcDbBlockTableRecord
2
VDDIM_DEFAULT
340
0
102
{BLKREFS
102
}
0
BLOCK_RECORD
5
23E
330
243
100
AcDbSymbolTableRecord
100
AcDbBlockTableRecord
2
VDDIM_NONE
340
0
0
BLOCK_RECORD
5
F10002
330
243
100
AcDbSymbolTableRecord
100
AcDbBlockTableRecord
2
*D3
340
0
0
BLOCK_RECORD
5
F10011
330
243
100
AcDbSymbolTableRecord
100
AcDbBlockTableRecord
2
*D6
340
0
0
BLOCK_RECORD
5
F1001B
330
243
100
AcDbSymbolTableRecord
100
AcDbBlockTableRecord
2
*D8
340
0
0
BLOCK_RECORD
5
F10020
330
243
100
AcDbSymbolTableRecord
100
AcDbBlockTableRecord
2
*D9
340
0
0
BLOCK_RECORD
5
F10007
330
243
100
AcDbSymbolTableRecord
100
AcDbBlockTableRecord
2
*D4
340
0
0
BLOCK_RECORD
5
F1000C
330
243
100
AcDbSymbolTableRecord
100
AcDbBlockTableRecord
2
*D5
340
0
0
BLOCK_RECORD
5
F10016
330
243
100
AcDbSymbolTableRecord
100
AcDbBlockTableRecord
2
*D7
340
0
0
ENDTAB
0
ENDSEC
0
SECTION
2
BLOCKS
0
BLOCK
5
262
330
261
100
AcDbEntity
8
0
100
AcDbBlockBegin
2
*Model_Space
70
0
10
0.0
20
0.0
30
0.0
3
*Model_Space
1

0
ENDBLK
5
263
330
261
100
AcDbEntity
8
0
100
AcDbBlockEnd
0
BLOCK
5
25E
330
25D
100
AcDbEntity
67
1
8
0
100
AcDbBlockBegin
2
*Paper_Space
70
0
10
0.0
20
0.0
30
0.0
3
*Paper_Space
1

0
ENDBLK
5
25F
330
25D
100
AcDbEntity
67
1
8
0
100
AcDbBlockEnd
0
BLOCK
5
266
330
265
100
AcDbEntity
8
0
100
AcDbBlockBegin
2
*Paper_Space0
70
0
10
0.0
20
0.0
30
0.0
3
*Paper_Space0
1

0
VIEWPORT
5
296
102
{ACAD_XDICTIONARY
360
58E
102
}
330
265
100
AcDbEntity
8
0
60
1
100
AcDbViewport
10
0.0
20
0.0
30
0.0
40
10.0
41
10.0
69
0
12
0.0
22
0.0
13
0.0
23
0.0
14
1.0
24
1.0
15
0.0
25
0.0
16
0.0
26
0.0
36
1.0
17
0.0
27
0.0
37
0.0
42
0.0
43
0.0
44
0.0
45
10.0
50
0.0
51
0.0000000000007958
72
100
90
163872
1

281
0
71
0
74
0
110
0.0
120
0.0
130
0.0
111
1.0
121
0.0
131
0.0
112
0.0
122
1.0
132
0.0
79
0
146
0.0
1001
VD_INVISIBLE_NOT_FOR_READ
1000
VD_INVISIBLE_NOT_FOR_READ
0
VIEWPORT
5
297
102
{ACAD_XDICTIONARY
360
590
102
}
330
265
100
AcDbEntity
8
0
60
1
100
AcDbViewport
10
0.0
20
0.0
30
0.0
40
10.0
41
10.0
69
0
12
0.0
22
0.0
13
0.0
23
0.0
14
1.0
24
1.0
15
0.0
25
0.0
16
0.0
26
0.0
36
1.0
17
0.0
27
0.0
37
0.0
42
0.0
43
0.0
44
0.0
45
10.0
50
0.0
51
0.0000000000007958
72
100
90
163872
1

281
0
71
0
74
0
110
0.0
120
0.0
130
0.0
111
1.0
121
0.0
131
0.0
112
0.0
122
1.0
132
0.0
79
0
146
0.0
1001
VD_INVISIBLE_NOT_FOR_READ
1000
VD_INVISIBLE_NOT_FOR_READ
0
ENDBLK
5
267
330
265
100
AcDbEntity
8
0
100
AcDbBlockEnd
0
BLOCK
5
28B
330
23C
100
AcDbEntity
8
0
100
AcDbBlockBegin
2
VDDIM_DEFAULT
70
0
10
0.0
20
0.0
30
0.0
3
VDDIM_DEFAULT
1

0
LWPOLYLINE
5
23D
330
23C
100
AcDbEntity
8
0
6
Continuous
62
0
100
AcDbPolyline
90
4
70
0
43
0.0
10
0.0
20
0.0
10
-1.0
20
-0.1665
10
-1.0
20
0.1665
10
0.0
20
0.0
1001
VDEXTRAPARAM
1071
1
1071
0
1071
0
1040
1.0
1000

1000

1040
0.0
1040
0.0
0
HATCH
5
292
330
23C
100
AcDbEntity
8
0
6
Continuous
62
0
100
AcDbHatch
10
0.0
20
0.0
30
0.0
210
0.0
220
0.0
230
1.0
2
SOLID
70
1
71
0
91
1
92
2
72
0
73
1
93
3
10
0.0
20
0.0
10
-1.0
20
-0.1665
10
-1.0
20
0.1665
97
0
75
0
76
1
98
1
10
0.0
20
0.0
1001
VDEXTRAPARAM
1071
1
1071
0
1071
0
1040
1.0
1000

1000

1040
0.0
1040
0.0
1001
VD_TEMPHATCH
1000
VD_TEMPHATCH
0
ENDBLK
5
28C
330
23C
100
AcDbEntity
8
0
100
AcDbBlockEnd
0
BLOCK
5
28D
330
23E
100
AcDbEntity
8
0
100
AcDbBlockBegin
2
VDDIM_NONE
70
0
10
0.0
20
0.0
30
0.0
3
VDDIM_NONE
1

0
ENDBLK
5
28E
330
23E
100
AcDbEntity
8
0
100
AcDbBlockEnd
  0
BLOCK
  5
F10025
330
F10002
100
AcDbEntity
  8
0
100
AcDbBlockBegin
  2
*D3
 70
     1
 10
0.0
 20
0.0
 30
0.0
  3
*D3
  1

  0
LINE
  5
F10026
330
F10002
100
AcDbEntity
  8
Bemassung
 62
     0
370
    -2
100
AcDbLine
10
-32.2987857762359
20
-8.44319167389419
30
0.000000000000000
11
-32.2987857762359
21
41.5568083261058
31
0.000000000000000
  0
LINE
  5
F10027
330
F10002
100
AcDbEntity
  8
Bemassung
 62
     0
370
    -2
100
AcDbLine
10
-32.0987857762359
20
12.5568083261058
30
0.000000000000000
11
-32.0987857762359
21
21.5568083261058
31
0.000000000000000
  0
LINE
  5
F10028
330
F10002
100
AcDbEntity
  8
Bemassung
 62
     0
370
    -2
100
AcDbLine
10
-50.9973980919341
20
19.5568083261058
30
0.000000000000000
11
-32.0987857762359
21
19.5568083261058
31
0.000000000000000
  0
INSERT
  5
F10029
330
F10002
100
AcDbEntity
  8
Bemassung
 62
     0
370
    -2
100
AcDbBlockReference
  2
VDDIM_DEFAULT
10
-32.2987857762359
20
19.5568083261058
30
0.000000000000000
 41
2.50000000000000
 42
2.50000000000000
 43
2.50000000000000
  0
INSERT
  5
F1002A
330
F10002
100
AcDbEntity
  8
Bemassung
 62
     0
370
    -2
100
AcDbBlockReference
  2
VDDIM_DEFAULT
10
-32.0987857762359
20
19.5568083261058
30
0.000000000000000
 41
2.50000000000000
 42
2.50000000000000
 43
2.50000000000000
 50
180.000000000000
  0
MTEXT
  5
F1002B
330
F10002
100
AcDbEntity
  8
Bemassung
 62
     0
100
AcDbMText
10
-37.0641803989593
20
20.2234749927725
30
0.000000000000000
 40
2.50000000000000
 41
0.0
 71
     8
 72
     1
  1
0.2 x 45°
 11
1.00000000000000
 21
0.000000000000000
 31
0.0
 73
     1
 44
1.0
1001
ACAD
1000
MTEXTBEGIN
1070
73
1070
1
1070
44
1040
1.0
1070
74
1070
0
1000
MTEXTEND
  0
POINT
  5
F1002C
330
F10002
100
AcDbEntity
  8
Bemassung
 62
     0
100
AcDbPoint
10
-32.2987857762359
20
-8.44319167389419
30
0.000000000000000
  0
POINT
  5
F1002D
330
F10002
100
AcDbEntity
  8
Bemassung
 62
     0
100
AcDbPoint
10
-32.0987857762359
20
12.5568083261058
30
0.000000000000000
  0
ENDBLK
  5
F1002E
330
F10002
100
AcDbEntity
  8
0
100
AcDbBlockEnd
  0
BLOCK
  5
F1002F
330
F10011
100
AcDbEntity
  8
0
100
AcDbBlockBegin
  2
*D6
 70
     1
 10
0.0
 20
0.0
 30
0.0
  3
*D6
  1

  0
LINE
  5
F10030
330
F10011
100
AcDbEntity
  8
Bemassung
 62
     0
370
    -2
100
AcDbLine
10
-32.2987857762359
20
-8.44319167389419
30
0.000000000000000
11
-32.2987857762359
21
41.5568083261058
31
0.000000000000000
  0
LINE
  5
F10031
330
F10011
100
AcDbEntity
  8
Bemassung
 62
     0
370
    -2
100
AcDbLine
10
5.70121422376405
20
12.2568083261058
30
0.000000000000000
11
5.70121422376405
21
29.5568083261058
31
0.000000000000000
  0
LINE
  5
F10032
330
F10011
100
AcDbEntity
  8
Bemassung
 62
     0
370
    -2
100
AcDbLine
10
-32.2987857762359
20
27.5568083261058
30
0.000000000000000
11
5.70121422376405
21
27.5568083261058
31
0.000000000000000
  0
INSERT
  5
F10033
330
F10011
100
AcDbEntity
  8
Bemassung
 62
     0
370
    -2
100
AcDbBlockReference
  2
VDDIM_DEFAULT
10
-32.2987857762359
20
27.5568083261058
30
0.000000000000000
 41
2.50000000000000
 42
2.50000000000000
 43
2.50000000000000
 50
180.000000000000
  0
INSERT
  5
F10034
330
F10011
100
AcDbEntity
  8
Bemassung
 62
     0
370
    -2
100
AcDbBlockReference
  2
VDDIM_DEFAULT
10
5.70121422376405
20
27.5568083261058
30
0.000000000000000
 41
2.50000000000000
 42
2.50000000000000
 43
2.50000000000000
  0
MTEXT
  5
F10035
330
F10011
100
AcDbEntity
  8
Bemassung
 62
     0
100
AcDbMText
10
-13.2987857762359
20
28.2234749927725
30
0.000000000000000
 40
2.50000000000000
 41
0.0
 71
     8
 72
     1
  1
38
 11
1.00000000000000
 21
0.000000000000000
 31
0.0
 73
     1
 44
1.0
1001
ACAD
1000
MTEXTBEGIN
1070
73
1070
1
1070
44
1040
1.0
1070
74
1070
0
1000
MTEXTEND
  0
POINT
  5
F10036
330
F10011
100
AcDbEntity
  8
Bemassung
 62
     0
100
AcDbPoint
10
-32.2987857762359
20
-8.44319167389419
30
0.000000000000000
  0
POINT
  5
F10037
330
F10011
100
AcDbEntity
  8
Bemassung
 62
     0
100
AcDbPoint
10
5.70121422376405
20
12.2568083261058
30
0.000000000000000
  0
ENDBLK
  5
F10038
330
F10011
100
AcDbEntity
  8
0
100
AcDbBlockEnd
  0
BLOCK
  5
F10039
330
F1001B
100
AcDbEntity
  8
0
100
AcDbBlockBegin
  2
*D8
 70
     1
 10
0.0
 20
0.0
 30
0.0
  3
*D8
  1

  0
LINE
  5
F1003A
330
F1001B
100
AcDbEntity
  8
Bemassung
 62
     0
370
    -2
100
AcDbLine
10
-4.29878577623595
20
0.856808326105809
30
0.000000000000000
11
-4.29878577623595
21
-8.44319167389419
31
0.000000000000000
  0
LINE
  5
F1003B
330
F1001B
100
AcDbEntity
  8
Bemassung
 62
     0
370
    -2
100
AcDbLine
10
-32.2987857762359
20
-8.44319167389419
30
0.000000000000000
11
-32.2987857762359
21
41.5568083261058
31
0.000000000000000
  0
LINE
  5
F1003C
330
F1001B
100
AcDbEntity
  8
Bemassung
 62
     0
370
    -2
100
AcDbLine
10
-4.29878577623595
20
-6.44319167389419
30
0.000000000000000
11
-32.2987857762359
21
-6.44319167389419
31
0.000000000000000
  0
INSERT
  5
F1003D
330
F1001B
100
AcDbEntity
  8
Bemassung
 62
     0
370
    -2
100
AcDbBlockReference
  2
VDDIM_DEFAULT
10
-4.29878577623595
20
-6.44319167389419
30
0.000000000000000
 41
2.50000000000000
 42
2.50000000000000
 43
2.50000000000000
  0
INSERT
  5
F1003E
330
F1001B
100
AcDbEntity
  8
Bemassung
 62
     0
370
    -2
100
AcDbBlockReference
  2
VDDIM_DEFAULT
10
-32.2987857762359
20
-6.44319167389419
30
0.000000000000000
 41
2.50000000000000
 42
2.50000000000000
 43
2.50000000000000
 50
180.000000000000
  0
MTEXT
  5
F1003F
330
F1001B
100
AcDbEntity
  8
Bemassung
 62
     0
100
AcDbMText
10
-18.2987857762359
20
-5.77652500722752
30
0.000000000000000
 40
2.50000000000000
 41
0.0
 71
     8
 72
     1
  1
28
 11
1.00000000000000
 21
0.000000000000000
 31
0.0
 73
     1
 44
1.0
1001
ACAD
1000
MTEXTBEGIN
1070
73
1070
1
1070
44
1040
1.0
1070
74
1070
0
1000
MTEXTEND
  0
POINT
  5
F10040
330
F1001B
100
AcDbEntity
  8
Bemassung
 62
     0
100
AcDbPoint
10
-4.29878577623595
20
0.856808326105809
30
0.000000000000000
  0
POINT
  5
F10041
330
F1001B
100
AcDbEntity
  8
Bemassung
 62
     0
100
AcDbPoint
10
-32.2987857762359
20
-8.44319167389419
30
0.000000000000000
  0
ENDBLK
  5
F10042
330
F1001B
100
AcDbEntity
  8
0
100
AcDbBlockEnd
  0
BLOCK
  5
F10043
330
F10020
100
AcDbEntity
  8
0
100
AcDbBlockBegin
  2
*D9
 70
     1
 10
0.0
 20
0.0
 30
0.0
  3
*D9
  1

  0
LINE
  5
F10044
330
F10020
100
AcDbEntity
  8
Bemassung
 62
     0
370
    -2
100
AcDbLine
10
50.7012142237641
20
11.5568083261058
30
0.000000000000000
11
50.7012142237641
21
41.5568083261058
31
0.000000000000000
  0
LINE
  5
F10045
330
F10020
100
AcDbEntity
  8
Bemassung
 62
     0
370
    -2
100
AcDbLine
10
-32.2987857762359
20
-8.44319167389419
30
0.000000000000000
11
-32.2987857762359
21
41.5568083261058
31
0.000000000000000
  0
LINE
  5
F10046
330
F10020
100
AcDbEntity
  8
Bemassung
 62
     0
370
    -2
100
AcDbLine
10
50.7012142237641
20
39.5568083261058
30
0.000000000000000
11
-32.2987857762359
21
39.5568083261058
31
0.000000000000000
  0
INSERT
  5
F10047
330
F10020
100
AcDbEntity
  8
Bemassung
 62
     0
370
    -2
100
AcDbBlockReference
  2
VDDIM_DEFAULT
10
50.7012142237641
20
39.5568083261058
30
0.000000000000000
 41
2.50000000000000
 42
2.50000000000000
 43
2.50000000000000
  0
INSERT
  5
F10048
330
F10020
100
AcDbEntity
  8
Bemassung
 62
     0
370
    -2
100
AcDbBlockReference
  2
VDDIM_DEFAULT
10
-32.2987857762359
20
39.5568083261058
30
0.000000000000000
 41
2.50000000000000
 42
2.50000000000000
 43
2.50000000000000
 50
180.000000000000
  0
MTEXT
  5
F10049
330
F10020
100
AcDbEntity
  8
Bemassung
 62
     0
100
AcDbMText
10
9.20121422376405
20
40.2234749927725
30
0.000000000000000
 40
2.50000000000000
 41
0.0
 71
     8
 72
     1
  1
83
 11
1.00000000000000
 21
0.000000000000000
 31
0.0
 73
     1
 44
1.0
1001
ACAD
1000
MTEXTBEGIN
1070
73
1070
1
1070
44
1040
1.0
1070
74
1070
0
1000
MTEXTEND
  0
POINT
  5
F1004A
330
F10020
100
AcDbEntity
  8
Bemassung
 62
     0
100
AcDbPoint
10
50.7012142237641
20
11.5568083261058
30
0.000000000000000
  0
POINT
  5
F1004B
330
F10020
100
AcDbEntity
  8
Bemassung
 62
     0
100
AcDbPoint
10
-32.2987857762359
20
-8.44319167389419
30
0.000000000000000
  0
ENDBLK
  5
F1004C
330
F10020
100
AcDbEntity
  8
0
100
AcDbBlockEnd
  0
BLOCK
  5
F1004D
330
F10007
100
AcDbEntity
  8
0
100
AcDbBlockBegin
  2
*D4
 70
     1
 10
0.0
 20
0.0
 30
0.0
  3
*D4
  1

  0
LINE
  5
F1004E
330
F10007
100
AcDbEntity
  8
Bemassung
 62
     0
370
    -2
100
AcDbLine
10
-32.0987857762359
20
0.556808326105809
30
0.000000000000000
11
-44.2987857762359
21
0.556808326105809
31
0.000000000000000
  0
LINE
  5
F1004F
330
F10007
100
AcDbEntity
  8
Bemassung
 62
     0
370
    -2
100
AcDbLine
10
-32.0987857762359
20
12.5568083261058
30
0.000000000000000
11
-44.2987857762359
21
12.5568083261058
31
0.000000000000000
  0
LINE
  5
F10050
330
F10007
100
AcDbEntity
  8
Bemassung
 62
     0
370
    -2
100
AcDbLine
10
-42.2987857762359
20
0.556808326105809
30
0.000000000000000
11
-42.2987857762359
21
12.5568083261058
31
0.000000000000000
  0
INSERT
  5
F10051
330
F10007
100
AcDbEntity
  8
Bemassung
 62
     0
370
    -2
100
AcDbBlockReference
  2
VDDIM_DEFAULT
10
-42.2987857762359
20
0.556808326105809
30
0.000000000000000
 41
2.50000000000000
 42
2.50000000000000
 43
2.50000000000000
 50
90.0000000000000
  0
INSERT
  5
F10052
330
F10007
100
AcDbEntity
  8
Bemassung
 62
     0
370
    -2
100
AcDbBlockReference
  2
VDDIM_DEFAULT
10
-42.2987857762359
20
12.5568083261058
30
0.000000000000000
 41
2.50000000000000
 42
2.50000000000000
 43
2.50000000000000
 50
270.000000000000
  0
MTEXT
  5
F10053
330
F10007
100
AcDbEntity
  8
Bemassung
 62
     0
100
AcDbMText
10
-42.9654524429026
20
5.28360797918474
30
0.000000000000000
 40
2.50000000000000
 41
0.0
 71
     8
 72
     1
  1
Ø12
 11
6.12323399573677e-17
 21
1.00000000000000
 31
0.0
 73
     1
 44
1.0
1001
ACAD
1000
MTEXTBEGIN
1070
73
1070
1
1070
44
1040
1.0
1070
74
1070
0
1000
MTEXTEND
  0
POINT
  5
F10054
330
F10007
100
AcDbEntity
  8
Bemassung
 62
     0
100
AcDbPoint
10
-32.0987857762359
20
0.556808326105809
30
0.000000000000000
  0
POINT
  5
F10055
330
F10007
100
AcDbEntity
  8
Bemassung
 62
     0
100
AcDbPoint
10
-32.0987857762359
20
12.5568083261058
30
0.000000000000000
  0
ENDBLK
  5
F10056
330
F10007
100
AcDbEntity
  8
0
100
AcDbBlockEnd
  0
BLOCK
  5
F10057
330
F1000C
100
AcDbEntity
  8
0
100
AcDbBlockBegin
  2
*D5
 70
     1
 10
0.0
 20
0.0
 30
0.0
  3
*D5
  1

  0
LINE
  5
F10058
330
F1000C
100
AcDbEntity
  8
Bemassung
 62
     0
370
    -2
100
AcDbLine
10
-4.29878577623595
20
0.856808326105809
30
0.000000000000000
11
5.70121422376405
21
0.856808326105809
31
0.000000000000000
  0
LINE
  5
F10059
330
F1000C
100
AcDbEntity
  8
Bemassung
 62
     0
370
    -2
100
AcDbLine
10
-4.29878577623595
20
12.2568083261058
30
0.000000000000000
11
5.70121422376405
21
12.2568083261058
31
0.000000000000000
  0
LINE
  5
F1005A
330
F1000C
100
AcDbEntity
  8
Bemassung
 62
     0
370
    -2
100
AcDbLine
10
3.70121422376405
20
-12.8404163052905
30
0.000000000000000
11
3.70121422376405
21
12.2568083261058
31
0.000000000000000
  0
INSERT
  5
F1005B
330
F1000C
100
AcDbEntity
  8
Bemassung
 62
     0
370
    -2
100
AcDbBlockReference
  2
VDDIM_DEFAULT
10
3.70121422376405
20
0.856808326105809
30
0.000000000000000
 41
2.50000000000000
 42
2.50000000000000
 43
2.50000000000000
 50
90.0000000000000
  0
INSERT
  5
F1005C
330
F1000C
100
AcDbEntity
  8
Bemassung
 62
     0
370
    -2
100
AcDbBlockReference
  2
VDDIM_DEFAULT
10
3.70121422376405
20
12.2568083261058
30
0.000000000000000
 41
2.50000000000000
 42
2.50000000000000
 43
2.50000000000000
 50
270.000000000000
  0
MTEXT
  5
F1005D
330
F1000C
100
AcDbEntity
  8
Bemassung
 62
     0
100
AcDbMText
10
3.03454755709739
20
-3.07087790305485
30
0.000000000000000
 40
2.50000000000000
 41
0.0
 71
     8
 72
     1
  1
Ø11.4
 11
6.12323399573677e-17
 21
1.00000000000000
 31
0.0
 73
     1
 44
1.0
1001
ACAD
1000
MTEXTBEGIN
1070
73
1070
1
1070
44
1040
1.0
1070
74
1070
0
1000
MTEXTEND
  0
POINT
  5
F1005E
330
F1000C
100
AcDbEntity
  8
Bemassung
 62
     0
100
AcDbPoint
10
-4.29878577623595
20
0.856808326105809
30
0.000000000000000
  0
POINT
  5
F1005F
330
F1000C
100
AcDbEntity
  8
Bemassung
 62
     0
100
AcDbPoint
10
-4.29878577623595
20
12.2568083261058
30
0.000000000000000
  0
ENDBLK
  5
F10060
330
F1000C
100
AcDbEntity
  8
0
100
AcDbBlockEnd
  0
BLOCK
  5
F10061
330
F10016
100
AcDbEntity
  8
0
100
AcDbBlockBegin
  2
*D7
 70
     1
 10
0.0
 20
0.0
 30
0.0
  3
*D7
  1

  0
LINE
  5
F10062
330
F10016
100
AcDbEntity
  8
Bemassung
 62
     0
370
    -2
100
AcDbLine
10
49.7012142237641
20
0.556808326105809
30
0.000000000000000
11
62.7012142237641
21
0.556808326105809
31
0.000000000000000
  0
LINE
  5
F10063
330
F10016
100
AcDbEntity
  8
Bemassung
 62
     0
370
    -2
100
AcDbLine
10
49.7012142237641
20
12.5568083261058
30
0.000000000000000
11
62.7012142237641
21
12.5568083261058
31
0.000000000000000
  0
LINE
  5
F10064
330
F10016
100
AcDbEntity
  8
Bemassung
 62
     0
370
    -2
100
AcDbLine
10
60.7012142237641
20
0.556808326105809
30
0.000000000000000
11
60.7012142237641
21
12.5568083261058
31
0.000000000000000
  0
INSERT
  5
F10065
330
F10016
100
AcDbEntity
  8
Bemassung
 62
     0
370
    -2
100
AcDbBlockReference
  2
VDDIM_DEFAULT
10
60.7012142237641
20
0.556808326105809
30
0.000000000000000
 41
2.50000000000000
 42
2.50000000000000
 43
2.50000000000000
 50
90.0000000000000
  0
INSERT
  5
F10066
330
F10016
100
AcDbEntity
  8
Bemassung
 62
     0
370
    -2
100
AcDbBlockReference
  2
VDDIM_DEFAULT
10
60.7012142237641
20
12.5568083261058
30
0.000000000000000
 41
2.50000000000000
 42
2.50000000000000
 43
2.50000000000000
 50
270.000000000000
  0
MTEXT
  5
F10067
330
F10016
100
AcDbEntity
  8
Bemassung
 62
     0
100
AcDbMText
10
60.0345475570974
20
6.55680832610581
30
0.000000000000000
 40
2.50000000000000
 41
0.0
 71
     8
 72
     1
  1
Ø12h6
 11
6.12323399573677e-17
 21
1.00000000000000
 31
0.0
 73
     1
 44
1.0
  0
POINT
  5
F10068
330
F10016
100
AcDbEntity
  8
Bemassung
 62
     0
100
AcDbPoint
10
49.7012142237641
20
0.556808326105809
30
0.000000000000000
  0
POINT
  5
F10069
330
F10016
100
AcDbEntity
  8
Bemassung
 62
     0
100
AcDbPoint
10
49.7012142237641
20
12.5568083261058
30
0.000000000000000
  0
ENDBLK
  5
F1006A
330
F10016
100
AcDbEntity
  8
0
100
AcDbBlockEnd
0
ENDSEC
0
SECTION
2
ENTITIES
  0
DIMENSION
  5
F10003
330
261
100
AcDbEntity
  8
Bemassung
100
AcDbDimension
  2
*D3
10
-32.0987857762359
20
19.5568083261058
30
0.000000000000000
11
-37.0641803989593
21
20.2234749927725
31
0.000000000000000
 70
32
 1
0.2 x 45°
 71
     8
  3
BEM-ISBE
100
AcDbAlignedDimension
13
-32.2987857762359
23
-8.44319167389419
33
0.000000000000000
14
-32.0987857762359
24
12.5568083261058
34
0.000000000000000
100
AcDbRotatedDimension
1001
ACAD
1000
DSTYLE
1002
{
1070
284
1070
8
1070
78
1070
8
1070
144
1040
1.00000000000000
1070
147
1040
0.625
1070
 72
1070
 0
1070
 71
1070
 0
1002
}
  0
DIMENSION
  5
F10012
330
261
100
AcDbEntity
  8
Bemassung
100
AcDbDimension
  2
*D6
10
5.70121422376405
20
27.5568083261058
30
0.000000000000000
11
-13.2987857762359
21
28.2234749927725
31
0.000000000000000
 70
32
 1
38
 71
     8
  3
BEM-ISBE
100
AcDbAlignedDimension
13
-32.2987857762359
23
-8.44319167389419
33
0.000000000000000
14
5.70121422376405
24
12.2568083261058
34
0.000000000000000
100
AcDbRotatedDimension
1001
ACAD
1000
DSTYLE
1002
{
1070
284
1070
8
1070
78
1070
8
1070
144
1040
1.00000000000000
1070
147
1040
0.625
1070
 72
1070
 0
1070
 71
1070
 0
1002
}
  0
DIMENSION
  5
F1001C
330
261
100
AcDbEntity
  8
Bemassung
100
AcDbDimension
  2
*D8
10
-32.2987857762359
20
-6.44319167389419
30
0.000000000000000
11
-18.2987857762359
21
-5.77652500722752
31
0.000000000000000
 70
32
 1
28
 71
     8
  3
BEM-ISBE
100
AcDbAlignedDimension
13
-4.29878577623595
23
0.856808326105809
33
0.000000000000000
14
-32.2987857762359
24
-8.44319167389419
34
0.000000000000000
100
AcDbRotatedDimension
1001
ACAD
1000
DSTYLE
1002
{
1070
284
1070
8
1070
78
1070
8
1070
144
1040
1.00000000000000
1070
147
1040
0.625
1070
 72
1070
 0
1070
 71
1070
 0
1002
}
  0
DIMENSION
  5
F10021
330
261
100
AcDbEntity
  8
Bemassung
100
AcDbDimension
  2
*D9
10
-32.2987857762359
20
39.5568083261058
30
0.000000000000000
11
9.20121422376405
21
40.2234749927725
31
0.000000000000000
 70
32
 1
83
 71
     8
  3
BEM-ISBE
100
AcDbAlignedDimension
13
50.7012142237641
23
11.5568083261058
33
0.000000000000000
14
-32.2987857762359
24
-8.44319167389419
34
0.000000000000000
100
AcDbRotatedDimension
1001
ACAD
1000
DSTYLE
1002
{
1070
284
1070
8
1070
78
1070
8
1070
144
1040
1.00000000000000
1070
147
1040
0.625
1070
 72
1070
 0
1070
 71
1070
 0
1002
}
  0
DIMENSION
  5
F10008
330
261
100
AcDbEntity
  8
Bemassung
100
AcDbDimension
  2
*D4
10
-42.2987857762359
20
12.5568083261058
30
0.000000000000000
11
-42.9654524429026
21
5.28360797918474
31
0.000000000000000
 70
32
 1
Ø12
 71
     8
  3
BEM-ISBE
100
AcDbAlignedDimension
13
-32.0987857762359
23
0.556808326105809
33
0.000000000000000
14
-32.0987857762359
24
12.5568083261058
34
0.000000000000000
50
90.0000000000000
100
AcDbRotatedDimension
1001
ACAD
1000
DSTYLE
1002
{
1070
284
1070
8
1070
78
1070
8
1070
144
1040
1.00000000000000
1070
147
1040
0.625
1070
 72
1070
 0
1070
 71
1070
 0
1002
}
  0
DIMENSION
  5
F1000D
330
261
100
AcDbEntity
  8
Bemassung
100
AcDbDimension
  2
*D5
10
3.70121422376405
20
12.2568083261058
30
0.000000000000000
11
3.03454755709739
21
-3.07087790305485
31
0.000000000000000
 70
32
 1
Ø11.4
 71
     8
  3
BEM-ISBE
100
AcDbAlignedDimension
13
-4.29878577623595
23
0.856808326105809
33
0.000000000000000
14
-4.29878577623595
24
12.2568083261058
34
0.000000000000000
50
90.0000000000000
100
AcDbRotatedDimension
1001
ACAD
1000
DSTYLE
1002
{
1070
284
1070
8
1070
78
1070
8
1070
144
1040
1.00000000000000
1070
147
1040
0.625
1070
 72
1070
 0
1070
 71
1070
 0
1002
}
  0
DIMENSION
  5
F10017
330
261
100
AcDbEntity
  8
Bemassung
100
AcDbDimension
  2
*D7
10
60.7012142237641
20
12.5568083261058
30
0.000000000000000
11
60.0345475570974
21
6.55680832610581
31
0.000000000000000
 70
32
 1
Ø12h6
 71
     8
  3
BEM-ISBE
100
AcDbAlignedDimension
13
49.7012142237641
23
0.556808326105809
33
0.000000000000000
14
49.7012142237641
24
12.5568083261058
34
0.000000000000000
50
90.0000000000000
100
AcDbRotatedDimension
1001
ACAD
1000
DSTYLE
1002
{
1070
284
1070
8
1070
78
1070
8
1070
144
1040
1.00000000000000
1070
147
1040
0.625
1070
 72
1070
 0
1070
 71
1070
 0
1002
}
  0
LINE
  5
F1006B
330
F1006C
100
AcDbEntity
8
Geo
100
AcDbLine
10
-32.2987857762359
20
6.55680832610581
30
0.000000000000000
11
-32.2987857762359
21
12.3568083261058
31
0.000000000000000
  0
LINE
  5
F1006D
330
F1006E
100
AcDbEntity
8
Geo
100
AcDbLine
10
-32.2987857762359
20
12.3568083261058
30
0.000000000000000
11
-32.0987857762359
21
12.5568083261058
31
0.000000000000000
  0
LINE
  5
F1006F
330
F10070
100
AcDbEntity
8
Geo
100
AcDbLine
10
-32.0987857762359
20
12.5568083261058
30
0.000000000000000
11
-4.29878577623595
21
12.5568083261058
31
0.000000000000000
  0
LINE
  5
F10071
330
F10072
100
AcDbEntity
8
Geo
100
AcDbLine
10
-4.29878577623595
20
12.5568083261058
30
0.000000000000000
11
-4.29878577623595
21
12.2568083261058
31
0.000000000000000
  0
LINE
  5
F10073
330
F10074
100
AcDbEntity
8
Geo
100
AcDbLine
10
-4.29878577623595
20
12.2568083261058
30
0.000000000000000
11
5.70121422376405
21
12.2568083261058
31
0.000000000000000
  0
LINE
  5
F10075
330
F10076
100
AcDbEntity
8
Geo
100
AcDbLine
10
5.70121422376405
20
12.2568083261058
30
0.000000000000000
11
5.70121422376405
21
12.5568083261058
31
0.000000000000000
  0
LINE
  5
F10077
330
F10078
100
AcDbEntity
8
Geo
100
AcDbLine
10
5.70121422376405
20
12.5568083261058
30
0.000000000000000
11
22.6012142237641
21
12.5568083261058
31
0.000000000000000
  0
LINE
  5
F10079
330
F1007A
100
AcDbEntity
8
Geo
100
AcDbLine
10
22.6012142237641
20
12.5568083261058
30
0.000000000000000
11
24.2012142237641
21
10.9568083261058
31
0.000000000000000
  0
LINE
  5
F1007B
330
F1007C
100
AcDbEntity
8
Geo
100
AcDbLine
10
24.2012142237641
20
10.9568083261058
30
0.000000000000000
11
32.2012142237641
21
10.9568083261058
31
0.000000000000000
  0
LINE
  5
F1007D
330
F1007E
100
AcDbEntity
8
Geo
100
AcDbLine
10
32.2012142237641
20
10.9568083261058
30
0.000000000000000
11
33.8012142237640
21
12.5568083261058
31
0.000000000000000
  0
LINE
  5
F1007F
330
F10080
100
AcDbEntity
8
Geo
100
AcDbLine
10
33.8012142237640
20
12.5568083261058
30
0.000000000000000
11
49.7012142237641
21
12.5568083261058
31
0.000000000000000
  0
LINE
  5
F10081
330
F10082
100
AcDbEntity
8
Geo
100
AcDbLine
10
49.7012142237641
20
12.5568083261058
30
0.000000000000000
11
50.7012142237641
21
11.5568083261058
31
0.000000000000000
  0
LINE
  5
F10083
330
F10084
100
AcDbEntity
8
Geo
100
AcDbLine
10
-32.2987857762359
20
12.3567401698759
30
0.000000000000000
11
-32.1987857762359
21
12.4560180588356
31
0.000000000000000
  0
LINE
  5
F10085
330
F10086
100
AcDbEntity
8
Geo
100
AcDbLine
10
-32.1987857762359
20
12.4560180588356
30
0.000000000000000
11
-32.0987857762359
21
12.5544615184712
31
0.000000000000000
  0
LINE
  5
F10087
330
F10088
100
AcDbEntity
8
Geo
100
AcDbLine
10
-32.0987857762359
20
12.5544615184712
30
0.000000000000000
11
-31.9987857762359
21
12.5515284392216
31
0.000000000000000
  0
LINE
  5
F10089
330
F1008A
100
AcDbEntity
8
Geo
100
AcDbLine
10
-31.9987857762359
20
12.5515284392216
30
0.000000000000000
11
-31.8987857762359
21
12.5474229314029
31
0.000000000000000
  0
LINE
  5
F1008B
330
F1008C
100
AcDbEntity
8
Geo
100
AcDbLine
10
-31.8987857762359
20
12.5474229314029
30
0.000000000000000
11
-31.7987857762359
21
12.5421457979575
31
0.000000000000000
  0
LINE
  5
F1008D
330
F1008E
100
AcDbEntity
8
Geo
100
AcDbLine
10
-31.7987857762359
20
12.5421457979575
30
0.000000000000000
11
-31.6987857762359
21
12.5356980709707
31
0.000000000000000
  0
LINE
  5
F1008F
330
F10090
100
AcDbEntity
8
Geo
100
AcDbLine
10
-31.6987857762359
20
12.5356980709707
30
0.000000000000000
11
-31.5987857762359
21
12.5280810114687
31
0.000000000000000
  0
LINE
  5
F10091
330
F10092
100
AcDbEntity
8
Geo
100
AcDbLine
10
-31.5987857762359
20
12.5280810114687
30
0.000000000000000
11
-31.4987857762359
21
12.5192961091721
31
0.000000000000000
  0
LINE
  5
F10093
330
F10094
100
AcDbEntity
8
Geo
100
AcDbLine
10
-31.4987857762359
20
12.5192961091721
30
0.000000000000000
11
-31.3987857762359
21
12.5093450822045
31
0.000000000000000
  0
LINE
  5
F10095
330
F10096
100
AcDbEntity
8
Geo
100
AcDbLine
10
-31.3987857762359
20
12.5093450822045
30
0.000000000000000
11
-31.2987857762359
21
12.4982298767566
31
0.000000000000000
  0
LINE
  5
F10097
330
F10098
100
AcDbEntity
8
Geo
100
AcDbLine
10
-31.2987857762359
20
12.4982298767566
30
0.000000000000000
11
-31.1987857762359
21
12.4859526667055
31
0.000000000000000
  0
LINE
  5
F10099
330
F1009A
100
AcDbEntity
8
Geo
100
AcDbLine
10
-31.1987857762359
20
12.4859526667055
30
0.000000000000000
11
-31.0987857762359
21
12.4725158531895
31
0.000000000000000
  0
LINE
  5
F1009B
330
F1009C
100
AcDbEntity
8
Geo
100
AcDbLine
10
-31.0987857762359
20
12.4725158531895
30
0.000000000000000
11
-30.9987857762359
21
12.4579220641383
31
0.000000000000000
  0
LINE
  5
F1009D
330
F1009E
100
AcDbEntity
8
Geo
100
AcDbLine
10
-30.9987857762359
20
12.4579220641383
30
0.000000000000000
11
-30.8987857762359
21
12.4421741537595
31
0.000000000000000
  0
LINE
  5
F1009F
330
F100A0
100
AcDbEntity
8
Geo
100
AcDbLine
10
-30.8987857762359
20
12.4421741537595
30
0.000000000000000
11
-30.7987857762359
21
12.4252752019800
31
0.000000000000000
  0
LINE
  5
F100A1
330
F100A2
100
AcDbEntity
8
Geo
100
AcDbLine
10
-30.7987857762359
20
12.4252752019800
30
0.000000000000000
11
-30.6987857762359
21
12.4072285138440
31
0.000000000000000
  0
LINE
  5
F100A3
330
F100A4
100
AcDbEntity
8
Geo
100
AcDbLine
10
-30.6987857762359
20
12.4072285138440
30
0.000000000000000
11
-30.5987857762359
21
12.3880376188659
31
0.000000000000000
  0
LINE
  5
F100A5
330
F100A6
100
AcDbEntity
8
Geo
100
AcDbLine
10
-30.5987857762359
20
12.3880376188659
30
0.000000000000000
11
-30.4987857762359
21
12.3677062703411
31
0.000000000000000
  0
LINE
  5
F100A7
330
F100A8
100
AcDbEntity
8
Geo
100
AcDbLine
10
-30.4987857762359
20
12.3677062703411
30
0.000000000000000
11
-30.3987857762359
21
12.3462384446108
31
0.000000000000000
  0
LINE
  5
F100A9
330
F100AA
100
AcDbEntity
8
Geo
100
AcDbLine
10
-30.3987857762359
20
12.3462384446108
30
0.000000000000000
11
-30.2987857762359
21
12.3236383402852
31
0.000000000000000
  0
LINE
  5
F100AB
330
F100AC
100
AcDbEntity
8
Geo
100
AcDbLine
10
-30.2987857762359
20
12.3236383402852
30
0.000000000000000
11
-30.1987857762359
21
12.2999103774217
31
0.000000000000000
  0
LINE
  5
F100AD
330
F100AE
100
AcDbEntity
8
Geo
100
AcDbLine
10
-30.1987857762359
20
12.2999103774217
30
0.000000000000000
11
-30.0987857762359
21
12.2750591966611
31
0.000000000000000
  0
LINE
  5
F100AF
330
F100B0
100
AcDbEntity
8
Geo
100
AcDbLine
10
-30.0987857762359
20
12.2750591966611
30
0.000000000000000
11
-29.9987857762359
21
12.2490896583193
31
0.000000000000000
  0
LINE
  5
F100B1
330
F100B2
100
AcDbEntity
8
Geo
100
AcDbLine
10
-29.9987857762359
20
12.2490896583193
30
0.000000000000000
11
-29.8987857762359
21
12.2220068414372
31
0.000000000000000
  0
LINE
  5
F100B3
330
F100B4
100
AcDbEntity
8
Geo
100
AcDbLine
10
-29.8987857762359
20
12.2220068414372
30
0.000000000000000
11
-29.7987857762359
21
12.1938160427873
31
0.000000000000000
  0
LINE
  5
F100B5
330
F100B6
100
AcDbEntity
8
Geo
100
AcDbLine
10
-29.7987857762359
20
12.1938160427873
30
0.000000000000000
11
-29.6987857762359
21
12.1645227758376
31
0.000000000000000
  0
LINE
  5
F100B7
330
F100B8
100
AcDbEntity
8
Geo
100
AcDbLine
10
-29.6987857762359
20
12.1645227758376
30
0.000000000000000
11
-29.5987857762359
21
12.1341327696734
31
0.000000000000000
  0
LINE
  5
F100B9
330
F100BA
100
AcDbEntity
8
Geo
100
AcDbLine
10
-29.5987857762359
20
12.1341327696734
30
0.000000000000000
11
-29.4987857762359
21
12.1026519678769
31
0.000000000000000
  0
LINE
  5
F100BB
330
F100BC
100
AcDbEntity
8
Geo
100
AcDbLine
10
-29.4987857762359
20
12.1026519678769
30
0.000000000000000
11
-29.3987857762359
21
12.0700865273647
31
0.000000000000000
  0
LINE
  5
F100BD
330
F100BE
100
AcDbEntity
8
Geo
100
AcDbLine
10
-29.3987857762359
20
12.0700865273647
30
0.000000000000000
11
-29.2987857762359
21
12.0364428171834
31
0.000000000000000
  0
LINE
  5
F100BF
330
F100C0
100
AcDbEntity
8
Geo
100
AcDbLine
10
-29.2987857762359
20
12.0364428171834
30
0.000000000000000
11
-29.1987857762359
21
12.0017274172645
31
0.000000000000000
  0
LINE
  5
F100C1
330
F100C2
100
AcDbEntity
8
Geo
100
AcDbLine
10
-29.1987857762359
20
12.0017274172645
30
0.000000000000000
11
-29.0987857762359
21
11.9659471171371
31
0.000000000000000
  0
LINE
  5
F100C3
330
F100C4
100
AcDbEntity
8
Geo
100
AcDbLine
10
-29.0987857762359
20
11.9659471171371
30
0.000000000000000
11
-28.9987857762359
21
11.9291089146002
31
0.000000000000000
  0
LINE
  5
F100C5
330
F100C6
100
AcDbEntity
8
Geo
100
AcDbLine
10
-28.9987857762359
20
11.9291089146002
30
0.000000000000000
11
-28.8987857762359
21
11.8912200143538
31
0.000000000000000
  0
LINE
  5
F100C7
330
F100C8
100
AcDbEntity
8
Geo
100
AcDbLine
10
-28.8987857762359
20
11.8912200143538
30
0.000000000000000
11
-28.7987857762359
21
11.8522878265904
31
0.000000000000000
  0
LINE
  5
F100C9
330
F100CA
100
AcDbEntity
8
Geo
100
AcDbLine
10
-28.7987857762359
20
11.8522878265904
30
0.000000000000000
11
-28.6987857762359
21
11.8123199655451
31
0.000000000000000
  0
LINE
  5
F100CB
330
F100CC
100
AcDbEntity
8
Geo
100
AcDbLine
10
-28.6987857762359
20
11.8123199655451
30
0.000000000000000
11
-28.5987857762359
21
11.7713242480071
31
0.000000000000000
  0
LINE
  5
F100CD
330
F100CE
100
AcDbEntity
8
Geo
100
AcDbLine
10
-28.5987857762359
20
11.7713242480071
30
0.000000000000000
11
-28.4987857762359
21
11.7293086917901
31
0.000000000000000
  0
LINE
  5
F100CF
330
F100D0
100
AcDbEntity
8
Geo
100
AcDbLine
10
-28.4987857762359
20
11.7293086917901
30
0.000000000000000
11
-28.3987857762359
21
11.6862815141651
31
0.000000000000000
  0
LINE
  5
F100D1
330
F100D2
100
AcDbEntity
8
Geo
100
AcDbLine
10
-28.3987857762359
20
11.6862815141651
30
0.000000000000000
11
-28.2987857762359
21
11.6422511302525
31
0.000000000000000
  0
LINE
  5
F100D3
330
F100D4
100
AcDbEntity
8
Geo
100
AcDbLine
10
-28.2987857762359
20
11.6422511302525
30
0.000000000000000
11
-28.1987857762359
21
11.5972261513768
31
0.000000000000000
  0
LINE
  5
F100D5
330
F100D6
100
AcDbEntity
8
Geo
100
AcDbLine
10
-28.1987857762359
20
11.5972261513768
30
0.000000000000000
11
-28.0987857762359
21
11.5512153833822
31
0.000000000000000
  0
LINE
  5
F100D7
330
F100D8
100
AcDbEntity
8
Geo
100
AcDbLine
10
-28.0987857762359
20
11.5512153833822
30
0.000000000000000
11
-27.9987857762359
21
11.5042278249105
31
0.000000000000000
  0
LINE
  5
F100D9
330
F100DA
100
AcDbEntity
8
Geo
100
AcDbLine
10
-27.9987857762359
20
11.5042278249105
30
0.000000000000000
11
-27.8987857762359
21
11.4562726656412
31
0.000000000000000
  0
LINE
  5
F100DB
330
F100DC
100
AcDbEntity
8
Geo
100
AcDbLine
10
-27.8987857762359
20
11.4562726656412
30
0.000000000000000
11
-27.7987857762359
21
11.4073592844939
31
0.000000000000000
  0
LINE
  5
F100DD
330
F100DE
100
AcDbEntity
8
Geo
100
AcDbLine
10
-27.7987857762359
20
11.4073592844939
30
0.000000000000000
11
-27.6987857762359
21
11.3574972477944
31
0.000000000000000
  0
LINE
  5
F100DF
330
F100E0
100
AcDbEntity
8
Geo
100
AcDbLine
10
-27.6987857762359
20
11.3574972477944
30
0.000000000000000
11
-27.5987857762359
21
11.3066963074036
31
0.000000000000000
  0
LINE
  5
F100E1
330
F100E2
100
AcDbEntity
8
Geo
100
AcDbLine
10
-27.5987857762359
20
11.3066963074036
30
0.000000000000000
11
-27.4987857762359
21
11.2549663988101
31
0.000000000000000
  0
LINE
  5
F100E3
330
F100E4
100
AcDbEntity
8
Geo
100
AcDbLine
10
-27.4987857762359
20
11.2549663988101
30
0.000000000000000
11
-27.3987857762359
21
11.2023176391873
31
0.000000000000000
  0
LINE
  5
F100E5
330
F100E6
100
AcDbEntity
8
Geo
100
AcDbLine
10
-27.3987857762359
20
11.2023176391873
30
0.000000000000000
11
-27.2987857762359
21
11.1487603254146
31
0.000000000000000
  0
LINE
  5
F100E7
330
F100E8
100
AcDbEntity
8
Geo
100
AcDbLine
10
-27.2987857762359
20
11.1487603254146
30
0.000000000000000
11
-27.1987857762359
21
11.0943049320636
31
0.000000000000000
  0
LINE
  5
F100E9
330
F100EA
100
AcDbEntity
8
Geo
100
AcDbLine
10
-27.1987857762359
20
11.0943049320636
30
0.000000000000000
11
-27.0987857762359
21
11.0389621093493
31
0.000000000000000
  0
LINE
  5
F100EB
330
F100EC
100
AcDbEntity
8
Geo
100
AcDbLine
10
-27.0987857762359
20
11.0389621093493
30
0.000000000000000
11
-26.9987857762359
21
10.9827426810476
31
0.000000000000000
  0
LINE
  5
F100ED
330
F100EE
100
AcDbEntity
8
Geo
100
AcDbLine
10
-26.9987857762359
20
10.9827426810476
30
0.000000000000000
11
-26.8987857762359
21
10.9256576423780
31
0.000000000000000
  0
LINE
  5
F100EF
330
F100F0
100
AcDbEntity
8
Geo
100
AcDbLine
10
-26.8987857762359
20
10.9256576423780
30
0.000000000000000
11
-26.7987857762359
21
10.8677181578536
31
0.000000000000000
  0
LINE
  5
F100F1
330
F100F2
100
AcDbEntity
8
Geo
100
AcDbLine
10
-26.7987857762359
20
10.8677181578536
30
0.000000000000000
11
-26.6987857762360
21
10.8089355590969
31
0.000000000000000
  0
LINE
  5
F100F3
330
F100F4
100
AcDbEntity
8
Geo
100
AcDbLine
10
-26.6987857762360
20
10.8089355590969
30
0.000000000000000
11
-26.5987857762359
21
10.7493213426245
31
0.000000000000000
  0
LINE
  5
F100F5
330
F100F6
100
AcDbEntity
8
Geo
100
AcDbLine
10
-26.5987857762359
20
10.7493213426245
30
0.000000000000000
11
-26.4987857762359
21
10.6888871675979
31
0.000000000000000
  0
LINE
  5
F100F7
330
F100F8
100
AcDbEntity
8
Geo
100
AcDbLine
10
-26.4987857762359
20
10.6888871675979
30
0.000000000000000
11
-26.3987857762360
21
10.6276448535437
31
0.000000000000000
  0
LINE
  5
F100F9
330
F100FA
100
AcDbEntity
8
Geo
100
AcDbLine
10
-26.3987857762360
20
10.6276448535437
30
0.000000000000000
11
-26.2987857762360
21
10.5656063780416
31
0.000000000000000
  0
LINE
  5
F100FB
330
F100FC
100
AcDbEntity
8
Geo
100
AcDbLine
10
-26.2987857762360
20
10.5656063780416
30
0.000000000000000
11
-26.1987857762360
21
10.5027838743823
31
0.000000000000000
  0
LINE
  5
F100FD
330
F100FE
100
AcDbEntity
8
Geo
100
AcDbLine
10
-26.1987857762360
20
10.5027838743823
30
0.000000000000000
11
-26.0987857762359
21
10.4391896291941
31
0.000000000000000
  0
LINE
  5
F100FF
330
F10100
100
AcDbEntity
8
Geo
100
AcDbLine
10
-26.0987857762359
20
10.4391896291941
30
0.000000000000000
11
-25.9987857762360
21
10.3748360800401
31
0.000000000000000
  0
LINE
  5
F10101
330
F10102
100
AcDbEntity
8
Geo
100
AcDbLine
10
-25.9987857762360
20
10.3748360800401
30
0.000000000000000
11
-25.8987857762360
21
10.3097358129858
31
0.000000000000000
  0
LINE
  5
F10103
330
F10104
100
AcDbEntity
8
Geo
100
AcDbLine
10
-25.8987857762360
20
10.3097358129858
30
0.000000000000000
11
-25.7987857762360
21
10.2439015601373
31
0.000000000000000
  0
LINE
  5
F10105
330
F10106
100
AcDbEntity
8
Geo
100
AcDbLine
10
-25.7987857762360
20
10.2439015601373
30
0.000000000000000
11
-25.6987857762360
21
10.1773461971514
31
0.000000000000000
  0
LINE
  5
F10107
330
F10108
100
AcDbEntity
8
Geo
100
AcDbLine
10
-25.6987857762360
20
10.1773461971514
30
0.000000000000000
11
-25.5987857762360
21
10.1100827407174
31
0.000000000000000
  0
LINE
  5
F10109
330
F1010A
100
AcDbEntity
8
Geo
100
AcDbLine
10
-25.5987857762360
20
10.1100827407174
30
0.000000000000000
11
-25.4987857762360
21
10.0421243460114
31
0.000000000000000
  0
LINE
  5
F1010B
330
F1010C
100
AcDbEntity
8
Geo
100
AcDbLine
10
-25.4987857762360
20
10.0421243460114
30
0.000000000000000
11
-25.3987857762360
21
9.97348430412296
31
0.000000000000000
  0
LINE
  5
F1010D
330
F1010E
100
AcDbEntity
8
Geo
100
AcDbLine
10
-25.3987857762360
20
9.97348430412296
30
0.000000000000000
11
-25.2987857762360
21
9.90417603945651
31
0.000000000000000
  0
LINE
  5
F1010F
330
F10110
100
AcDbEntity
8
Geo
100
AcDbLine
10
-25.2987857762360
20
9.90417603945651
30
0.000000000000000
11
-25.1987857762360
21
9.83421310710514
31
0.000000000000000
  0
LINE
  5
F10111
330
F10112
100
AcDbEntity
8
Geo
100
AcDbLine
10
-25.1987857762360
20
9.83421310710514
30
0.000000000000000
11
-25.0987857762360
21
9.76360919019986
31
0.000000000000000
  0
LINE
  5
F10113
330
F10114
100
AcDbEntity
8
Geo
100
AcDbLine
10
-25.0987857762360
20
9.76360919019986
30
0.000000000000000
11
-24.9987857762360
21
9.69237809723344
31
0.000000000000000
  0
LINE
  5
F10115
330
F10116
100
AcDbEntity
8
Geo
100
AcDbLine
10
-24.9987857762360
20
9.69237809723344
30
0.000000000000000
11
-24.8987857762360
21
9.62053375935975
31
0.000000000000000
  0
LINE
  5
F10117
330
F10118
100
AcDbEntity
8
Geo
100
AcDbLine
10
-24.8987857762360
20
9.62053375935975
30
0.000000000000000
11
-24.7987857762360
21
9.54809022766921
31
0.000000000000000
  0
LINE
  5
F10119
330
F1011A
100
AcDbEntity
8
Geo
100
AcDbLine
10
-24.7987857762360
20
9.54809022766921
30
0.000000000000000
11
-24.6987857762360
21
9.47506167044065
31
0.000000000000000
  0
LINE
  5
F1011B
330
F1011C
100
AcDbEntity
8
Geo
100
AcDbLine
10
-24.6987857762360
20
9.47506167044065
30
0.000000000000000
11
-24.5987857762360
21
9.40146237037039
31
0.000000000000000
  0
LINE
  5
F1011D
330
F1011E
100
AcDbEntity
8
Geo
100
AcDbLine
10
-24.5987857762360
20
9.40146237037039
30
0.000000000000000
11
-24.4987857762360
21
9.32730672177885
31
0.000000000000000
  0
LINE
  5
F1011F
330
F10120
100
AcDbEntity
8
Geo
100
AcDbLine
10
-24.4987857762360
20
9.32730672177885
30
0.000000000000000
11
-24.3987857762360
21
9.25260922779532
31
0.000000000000000
  0
LINE
  5
F10121
330
F10122
100
AcDbEntity
8
Geo
100
AcDbLine
10
-24.3987857762360
20
9.25260922779532
30
0.000000000000000
11
-24.2987857762360
21
9.17738449752154
31
0.000000000000000
  0
LINE
  5
F10123
330
F10124
100
AcDbEntity
8
Geo
100
AcDbLine
10
-24.2987857762360
20
9.17738449752154
30
0.000000000000000
11
-24.1987857762360
21
9.10164724317447
31
0.000000000000000
  0
LINE
  5
F10125
330
F10126
100
AcDbEntity
8
Geo
100
AcDbLine
10
-24.1987857762360
20
9.10164724317447
30
0.000000000000000
11
-24.0987857762360
21
9.02541227720889
31
0.000000000000000
  0
LINE
  5
F10127
330
F10128
100
AcDbEntity
8
Geo
100
AcDbLine
10
-24.0987857762360
20
9.02541227720889
30
0.000000000000000
11
-23.9987857762360
21
8.94869450942050
31
0.000000000000000
  0
LINE
  5
F10129
330
F1012A
100
AcDbEntity
8
Geo
100
AcDbLine
10
-23.9987857762360
20
8.94869450942050
30
0.000000000000000
11
-23.8987857762360
21
8.87150894402984
31
0.000000000000000
  0
LINE
  5
F1012B
330
F1012C
100
AcDbEntity
8
Geo
100
AcDbLine
10
-23.8987857762360
20
8.87150894402984
30
0.000000000000000
11
-23.7987857762360
21
8.79387067674786
31
0.000000000000000
  0
LINE
  5
F1012D
330
F1012E
100
AcDbEntity
8
Geo
100
AcDbLine
10
-23.7987857762360
20
8.79387067674786
30
0.000000000000000
11
-23.6987857762360
21
8.71579489182351
31
0.000000000000000
  0
LINE
  5
F1012F
330
F10130
100
AcDbEntity
8
Geo
100
AcDbLine
10
-23.6987857762360
20
8.71579489182351
30
0.000000000000000
11
-23.5987857762360
21
8.63729685907406
31
0.000000000000000
  0
LINE
  5
F10131
330
F10132
100
AcDbEntity
8
Geo
100
AcDbLine
10
-23.5987857762360
20
8.63729685907406
30
0.000000000000000
11
-23.4987857762360
21
8.55839193089871
31
0.000000000000000
  0
LINE
  5
F10133
330
F10134
100
AcDbEntity
8
Geo
100
AcDbLine
10
-23.4987857762360
20
8.55839193089871
30
0.000000000000000
11
-23.3987857762360
21
8.47909553927599
31
0.000000000000000
  0
LINE
  5
F10135
330
F10136
100
AcDbEntity
8
Geo
100
AcDbLine
10
-23.3987857762360
20
8.47909553927599
30
0.000000000000000
11
-23.2987857762360
21
8.39942319274561
31
0.000000000000000
  0
LINE
  5
F10137
330
F10138
100
AcDbEntity
8
Geo
100
AcDbLine
10
-23.2987857762360
20
8.39942319274561
30
0.000000000000000
11
-23.1987857762360
21
8.31939047337536
31
0.000000000000000
  0
LINE
  5
F10139
330
F1013A
100
AcDbEntity
8
Geo
100
AcDbLine
10
-23.1987857762360
20
8.31939047337536
30
0.000000000000000
11
-23.0987857762360
21
8.23901303371363
31
0.000000000000000
  0
LINE
  5
F1013B
330
F1013C
100
AcDbEntity
8
Geo
100
AcDbLine
10
-23.0987857762360
20
8.23901303371363
30
0.000000000000000
11
-22.9987857762360
21
8.15830659372814
31
0.000000000000000
  0
LINE
  5
F1013D
330
F1013E
100
AcDbEntity
8
Geo
100
AcDbLine
10
-22.9987857762360
20
8.15830659372814
30
0.000000000000000
11
-22.8987857762360
21
8.07728693773142
31
0.000000000000000
  0
LINE
  5
F1013F
330
F10140
100
AcDbEntity
8
Geo
100
AcDbLine
10
-22.8987857762360
20
8.07728693773142
30
0.000000000000000
11
-22.7987857762360
21
7.99596991129385
31
0.000000000000000
  0
LINE
  5
F10141
330
F10142
100
AcDbEntity
8
Geo
100
AcDbLine
10
-22.7987857762360
20
7.99596991129385
30
0.000000000000000
11
-22.6987857762360
21
7.91437141814455
31
0.000000000000000
  0
LINE
  5
F10143
330
F10144
100
AcDbEntity
8
Geo
100
AcDbLine
10
-22.6987857762360
20
7.91437141814455
30
0.000000000000000
11
-22.5987857762360
21
7.83250741706106
31
0.000000000000000
  0
LINE
  5
F10145
330
F10146
100
AcDbEntity
8
Geo
100
AcDbLine
10
-22.5987857762360
20
7.83250741706106
30
0.000000000000000
11
-22.4987857762360
21
7.75039391874808
31
0.000000000000000
  0
LINE
  5
F10147
330
F10148
100
AcDbEntity
8
Geo
100
AcDbLine
10
-22.4987857762360
20
7.75039391874808
30
0.000000000000000
11
-22.3987857762360
21
7.66804698270625
31
0.000000000000000
  0
LINE
  5
F10149
330
F1014A
100
AcDbEntity
8
Geo
100
AcDbLine
10
-22.3987857762360
20
7.66804698270625
30
0.000000000000000
11
-22.2987857762360
21
7.58548271409118
31
0.000000000000000
  0
LINE
  5
F1014B
330
F1014C
100
AcDbEntity
8
Geo
100
AcDbLine
10
-22.2987857762360
20
7.58548271409118
30
0.000000000000000
11
-22.1987857762360
21
7.50271726056373
31
0.000000000000000
  0
LINE
  5
F1014D
330
F1014E
100
AcDbEntity
8
Geo
100
AcDbLine
10
-22.1987857762360
20
7.50271726056373
30
0.000000000000000
11
-22.0987857762360
21
7.41976680913186
31
0.000000000000000
  0
LINE
  5
F1014F
330
F10150
100
AcDbEntity
8
Geo
100
AcDbLine
10
-22.0987857762360
20
7.41976680913186
30
0.000000000000000
11
-21.9987857762360
21
7.33664758298487
31
0.000000000000000
  0
LINE
  5
F10151
330
F10152
100
AcDbEntity
8
Geo
100
AcDbLine
10
-21.9987857762360
20
7.33664758298487
30
0.000000000000000
11
-21.8987857762360
21
7.25337583832046
31
0.000000000000000
  0
LINE
  5
F10153
330
F10154
100
AcDbEntity
8
Geo
100
AcDbLine
10
-21.8987857762360
20
7.25337583832046
30
0.000000000000000
11
-21.7987857762360
21
7.16996786116543
31
0.000000000000000
  0
LINE
  5
F10155
330
F10156
100
AcDbEntity
8
Geo
100
AcDbLine
10
-21.7987857762360
20
7.16996786116543
30
0.000000000000000
11
-21.6987857762360
21
7.08643996419050
31
0.000000000000000
  0
LINE
  5
F10157
330
F10158
100
AcDbEntity
8
Geo
100
AcDbLine
10
-21.6987857762360
20
7.08643996419050
30
0.000000000000000
11
-21.5987857762360
21
7.00280848351995
31
0.000000000000000
  0
LINE
  5
F10159
330
F1015A
100
AcDbEntity
8
Geo
100
AcDbLine
10
-21.5987857762360
20
7.00280848351995
30
0.000000000000000
11
-21.4987857762360
21
6.91908977553662
31
0.000000000000000
  0
LINE
  5
F1015B
330
F1015C
100
AcDbEntity
8
Geo
100
AcDbLine
10
-21.4987857762360
20
6.91908977553662
30
0.000000000000000
11
-21.3987857762360
21
6.83530021368300
31
0.000000000000000
  0
LINE
  5
F1015D
330
F1015E
100
AcDbEntity
8
Geo
100
AcDbLine
10
-21.3987857762360
20
6.83530021368300
30
0.000000000000000
11
-21.2987857762360
21
6.75145618525895
31
0.000000000000000
  0
LINE
  5
F1015F
330
F10160
100
AcDbEntity
8
Geo
100
AcDbLine
10
-21.2987857762360
20
6.75145618525895
30
0.000000000000000
11
-21.1987857762360
21
6.66757408821674
31
0.000000000000000
  0
LINE
  5
F10161
330
F10162
100
AcDbEntity
8
Geo
100
AcDbLine
10
-21.1987857762360
20
6.66757408821674
30
0.000000000000000
11
-21.0987857762360
21
6.58367032795397
31
0.000000000000000
  0
LINE
  5
F10163
330
F10164
100
AcDbEntity
8
Geo
100
AcDbLine
10
-21.0987857762360
20
6.58367032795397
30
0.000000000000000
11
-20.9987857762360
21
6.49976131410508
31
0.000000000000000
  0
LINE
  5
F10165
330
F10166
100
AcDbEntity
8
Geo
100
AcDbLine
10
-20.9987857762360
20
6.49976131410508
30
0.000000000000000
11
-20.8987857762360
21
6.41586345733198
31
0.000000000000000
  0
LINE
  5
F10167
330
F10168
100
AcDbEntity
8
Geo
100
AcDbLine
10
-20.8987857762360
20
6.41586345733198
30
0.000000000000000
11
-20.7987857762360
21
6.33199316611452
31
0.000000000000000
  0
LINE
  5
F10169
330
F1016A
100
AcDbEntity
8
Geo
100
AcDbLine
10
-20.7987857762360
20
6.33199316611452
30
0.000000000000000
11
-20.6987857762360
21
6.24816684354136
31
0.000000000000000
  0
LINE
  5
F1016B
330
F1016C
100
AcDbEntity
8
Geo
100
AcDbLine
10
-20.6987857762360
20
6.24816684354136
30
0.000000000000000
11
-20.5987857762360
21
6.16440088410191
31
0.000000000000000
  0
LINE
  5
F1016D
330
F1016E
100
AcDbEntity
8
Geo
100
AcDbLine
10
-20.5987857762360
20
6.16440088410191
30
0.000000000000000
11
-20.4987857762360
21
6.08071167047995
31
0.000000000000000
  0
LINE
  5
F1016F
330
F10170
100
AcDbEntity
8
Geo
100
AcDbLine
10
-20.4987857762360
20
6.08071167047995
30
0.000000000000000
11
-20.3987857762360
21
5.99711557034955
31
0.000000000000000
  0
LINE
  5
F10171
330
F10172
100
AcDbEntity
8
Geo
100
AcDbLine
10
-20.3987857762360
20
5.99711557034955
30
0.000000000000000
11
-20.2987857762360
21
5.91362893317394
31
0.000000000000000
  0
LINE
  5
F10173
330
F10174
100
AcDbEntity
8
Geo
100
AcDbLine
10
-20.2987857762360
20
5.91362893317394
30
0.000000000000000
11
-20.1987857762360
21
5.83026808700793
31
0.000000000000000
  0
LINE
  5
F10175
330
F10176
100
AcDbEntity
8
Geo
100
AcDbLine
10
-20.1987857762360
20
5.83026808700793
30
0.000000000000000
11
-20.0987857762360
21
5.74704933530451
31
0.000000000000000
  0
LINE
  5
F10177
330
F10178
100
AcDbEntity
8
Geo
100
AcDbLine
10
-20.0987857762360
20
5.74704933530451
30
0.000000000000000
11
-19.9987857762360
21
5.66398895372629
31
0.000000000000000
  0
LINE
  5
F10179
330
F1017A
100
AcDbEntity
8
Geo
100
AcDbLine
10
-19.9987857762360
20
5.66398895372629
30
0.000000000000000
11
-19.8987857762360
21
5.58110318696234
31
0.000000000000000
  0
LINE
  5
F1017B
330
F1017C
100
AcDbEntity
8
Geo
100
AcDbLine
10
-19.8987857762360
20
5.58110318696234
30
0.000000000000000
11
-19.7987857762360
21
5.49840824555111
31
0.000000000000000
  0
LINE
  5
F1017D
330
F1017E
100
AcDbEntity
8
Geo
100
AcDbLine
10
-19.7987857762360
20
5.49840824555111
30
0.000000000000000
11
-19.6987857762360
21
5.41592030271004
31
0.000000000000000
  0
LINE
  5
F1017F
330
F10180
100
AcDbEntity
8
Geo
100
AcDbLine
10
-19.6987857762360
20
5.41592030271004
30
0.000000000000000
11
-19.5987857762360
21
5.33365549117243
31
0.000000000000000
  0
LINE
  5
F10181
330
F10182
100
AcDbEntity
8
Geo
100
AcDbLine
10
-19.5987857762360
20
5.33365549117243
30
0.000000000000000
11
-19.4987857762360
21
5.25162990003224
31
0.000000000000000
  0
LINE
  5
F10183
330
F10184
100
AcDbEntity
8
Geo
100
AcDbLine
10
-19.4987857762360
20
5.25162990003224
30
0.000000000000000
11
-19.3987857762360
21
5.16985957159749
31
0.000000000000000
  0
LINE
  5
F10185
330
F10186
100
AcDbEntity
8
Geo
100
AcDbLine
10
-19.3987857762360
20
5.16985957159749
30
0.000000000000000
11
-19.2987857762360
21
5.08836049825270
31
0.000000000000000
  0
LINE
  5
F10187
330
F10188
100
AcDbEntity
8
Geo
100
AcDbLine
10
-19.2987857762360
20
5.08836049825270
30
0.000000000000000
11
-19.1987857762360
21
5.00714861933117
31
0.000000000000000
  0
LINE
  5
F10189
330
F1018A
100
AcDbEntity
8
Geo
100
AcDbLine
10
-19.1987857762360
20
5.00714861933117
30
0.000000000000000
11
-19.0987857762360
21
4.92623981799762
31
0.000000000000000
  0
LINE
  5
F1018B
330
F1018C
100
AcDbEntity
8
Geo
100
AcDbLine
10
-19.0987857762360
20
4.92623981799762
30
0.000000000000000
11
-18.9987857762360
21
4.84564991814180
31
0.000000000000000
  0
LINE
  5
F1018D
330
F1018E
100
AcDbEntity
8
Geo
100
AcDbLine
10
-18.9987857762360
20
4.84564991814180
30
0.000000000000000
11
-18.8987857762360
21
4.76539468128371
31
0.000000000000000
  0
LINE
  5
F1018F
330
F10190
100
AcDbEntity
8
Geo
100
AcDbLine
10
-18.8987857762360
20
4.76539468128371
30
0.000000000000000
11
-18.7987857762360
21
4.68548980349101
31
0.000000000000000
  0
LINE
  5
F10191
330
F10192
100
AcDbEntity
8
Geo
100
AcDbLine
10
-18.7987857762360
20
4.68548980349101
30
0.000000000000000
11
-18.6987857762360
21
4.60595091230924
31
0.000000000000000
  0
LINE
  5
F10193
330
F10194
100
AcDbEntity
8
Geo
100
AcDbLine
10
-18.6987857762360
20
4.60595091230924
30
0.000000000000000
11
-18.5987857762360
21
4.52679356370542
31
0.000000000000000
  0
LINE
  5
F10195
330
F10196
100
AcDbEntity
8
Geo
100
AcDbLine
10
-18.5987857762360
20
4.52679356370542
30
0.000000000000000
11
-18.4987857762360
21
4.44803323902566
31
0.000000000000000
  0
LINE
  5
F10197
330
F10198
100
AcDbEntity
8
Geo
100
AcDbLine
10
-18.4987857762360
20
4.44803323902566
30
0.000000000000000
11
-18.3987857762360
21
4.36968534196739
31
0.000000000000000
  0
LINE
  5
F10199
330
F1019A
100
AcDbEntity
8
Geo
100
AcDbLine
10
-18.3987857762360
20
4.36968534196739
30
0.000000000000000
11
-18.2987857762360
21
4.29176519556673
31
0.000000000000000
  0
LINE
  5
F1019B
330
F1019C
100
AcDbEntity
8
Geo
100
AcDbLine
10
-18.2987857762360
20
4.29176519556673
30
0.000000000000000
11
-18.1987857762360
21
4.21428803920166
31
0.000000000000000
  0
LINE
  5
F1019D
330
F1019E
100
AcDbEntity
8
Geo
100
AcDbLine
10
-18.1987857762360
20
4.21428803920166
30
0.000000000000000
11
-18.0987857762360
21
4.13726902561158
31
0.000000000000000
  0
LINE
  5
F1019F
330
F101A0
100
AcDbEntity
8
Geo
100
AcDbLine
10
-18.0987857762360
20
4.13726902561158
30
0.000000000000000
11
-17.9987857762360
21
4.06072321793375
31
0.000000000000000
  0
LINE
  5
F101A1
330
F101A2
100
AcDbEntity
8
Geo
100
AcDbLine
10
-17.9987857762360
20
4.06072321793375
30
0.000000000000000
11
-17.8987857762360
21
3.98466558675729
31
0.000000000000000
  0
LINE
  5
F101A3
330
F101A4
100
AcDbEntity
8
Geo
100
AcDbLine
10
-17.8987857762360
20
3.98466558675729
30
0.000000000000000
11
-17.7987857762360
21
3.90911100719530
31
0.000000000000000
  0
LINE
  5
F101A5
330
F101A6
100
AcDbEntity
8
Geo
100
AcDbLine
10
-17.7987857762360
20
3.90911100719530
30
0.000000000000000
11
-17.6987857762360
21
3.83407425597562
31
0.000000000000000
  0
LINE
  5
F101A7
330
F101A8
100
AcDbEntity
8
Geo
100
AcDbLine
10
-17.6987857762360
20
3.83407425597562
30
0.000000000000000
11
-17.5987857762360
21
3.75957000855086
31
0.000000000000000
  0
LINE
  5
F101A9
330
F101AA
100
AcDbEntity
8
Geo
100
AcDbLine
10
-17.5987857762360
20
3.75957000855086
30
0.000000000000000
11
-17.4987857762360
21
3.68561283622818
31
0.000000000000000
  0
LINE
  5
F101AB
330
F101AC
100
AcDbEntity
8
Geo
100
AcDbLine
10
-17.4987857762360
20
3.68561283622818
30
0.000000000000000
11
-17.3987857762360
21
3.61221720331953
31
0.000000000000000
  0
LINE
  5
F101AD
330
F101AE
100
AcDbEntity
8
Geo
100
AcDbLine
10
-17.3987857762360
20
3.61221720331953
30
0.000000000000000
11
-17.2987857762360
21
3.53939746431273
31
0.000000000000000
  0
LINE
  5
F101AF
330
F101B0
100
AcDbEntity
8
Geo
100
AcDbLine
10
-17.2987857762360
20
3.53939746431273
30
0.000000000000000
11
-17.1987857762360
21
3.46716786106408
31
0.000000000000000
  0
LINE
  5
F101B1
330
F101B2
100
AcDbEntity
8
Geo
100
AcDbLine
10
-17.1987857762360
20
3.46716786106408
30
0.000000000000000
11
-17.0987857762360
21
3.39554252001298
31
0.000000000000000
  0
LINE
  5
F101B3
330
F101B4
100
AcDbEntity
8
Geo
100
AcDbLine
10
-17.0987857762360
20
3.39554252001298
30
0.000000000000000
11
-16.9987857762360
21
3.32453544941911
31
0.000000000000000
  0
LINE
  5
F101B5
330
F101B6
100
AcDbEntity
8
Geo
100
AcDbLine
10
-16.9987857762360
20
3.32453544941911
30
0.000000000000000
11
-16.8987857762360
21
3.25416053662277
31
0.000000000000000
  0
LINE
  5
F101B7
330
F101B8
100
AcDbEntity
8
Geo
100
AcDbLine
10
-16.8987857762360
20
3.25416053662277
30
0.000000000000000
11
-16.7987857762360
21
3.18443154532881
31
0.000000000000000
  0
LINE
  5
F101B9
330
F101BA
100
AcDbEntity
8
Geo
100
AcDbLine
10
-16.7987857762360
20
3.18443154532881
30
0.000000000000000
11
-16.6987857762360
21
3.11536211291478
31
0.000000000000000
  0
LINE
  5
F101BB
330
F101BC
100
AcDbEntity
8
Geo
100
AcDbLine
10
-16.6987857762360
20
3.11536211291478
30
0.000000000000000
11
-16.5987857762360
21
3.04696574776377
31
0.000000000000000
  0
LINE
  5
F101BD
330
F101BE
100
AcDbEntity
8
Geo
100
AcDbLine
10
-16.5987857762360
20
3.04696574776377
30
0.000000000000000
11
-16.4987857762360
21
2.97925582662248
31
0.000000000000000
  0
LINE
  5
F101BF
330
F101C0
100
AcDbEntity
8
Geo
100
AcDbLine
10
-16.4987857762360
20
2.97925582662248
30
0.000000000000000
11
-16.3987857762360
21
2.91224559198505
31
0.000000000000000
  0
LINE
  5
F101C1
330
F101C2
100
AcDbEntity
8
Geo
100
AcDbLine
10
-16.3987857762360
20
2.91224559198505
30
0.000000000000000
11
-16.2987857762360
21
2.84594814950313
31
0.000000000000000
  0
LINE
  5
F101C3
330
F101C4
100
AcDbEntity
8
Geo
100
AcDbLine
10
-16.2987857762360
20
2.84594814950313
30
0.000000000000000
11
-16.1987857762360
21
2.78037646542270
31
0.000000000000000
  0
LINE
  5
F101C5
330
F101C6
100
AcDbEntity
8
Geo
100
AcDbLine
10
-16.1987857762360
20
2.78037646542270
30
0.000000000000000
11
-16.0987857762360
21
2.71554336404820
31
0.000000000000000
  0
LINE
  5
F101C7
330
F101C8
100
AcDbEntity
8
Geo
100
AcDbLine
10
-16.0987857762360
20
2.71554336404820
30
0.000000000000000
11
-15.9987857762360
21
2.65146152523437
31
0.000000000000000
  0
LINE
  5
F101C9
330
F101CA
100
AcDbEntity
8
Geo
100
AcDbLine
10
-15.9987857762360
20
2.65146152523437
30
0.000000000000000
11
-15.8987857762360
21
2.58814348190639
31
0.000000000000000
  0
LINE
  5
F101CB
330
F101CC
100
AcDbEntity
8
Geo
100
AcDbLine
10
-15.8987857762360
20
2.58814348190639
30
0.000000000000000
11
-15.7987857762360
21
2.52560161760869
31
0.000000000000000
  0
LINE
  5
F101CD
330
F101CE
100
AcDbEntity
8
Geo
100
AcDbLine
10
-15.7987857762360
20
2.52560161760869
30
0.000000000000000
11
-15.6987857762360
21
2.46384816408305
31
0.000000000000000
  0
LINE
  5
F101CF
330
F101D0
100
AcDbEntity
8
Geo
100
AcDbLine
10
-15.6987857762360
20
2.46384816408305
30
0.000000000000000
11
-15.5987857762360
21
2.40289519887634
31
0.000000000000000
  0
LINE
  5
F101D1
330
F101D2
100
AcDbEntity
8
Geo
100
AcDbLine
10
-15.5987857762360
20
2.40289519887634
30
0.000000000000000
11
-15.4987857762360
21
2.34275464297844
31
0.000000000000000
  0
LINE
  5
F101D3
330
F101D4
100
AcDbEntity
8
Geo
100
AcDbLine
10
-15.4987857762360
20
2.34275464297844
30
0.000000000000000
11
-15.3987857762360
21
2.28343825849076
31
0.000000000000000
  0
LINE
  5
F101D5
330
F101D6
100
AcDbEntity
8
Geo
100
AcDbLine
10
-15.3987857762360
20
2.28343825849076
30
0.000000000000000
11
-15.2987857762360
21
2.22495764632585
31
0.000000000000000
  0
LINE
  5
F101D7
330
F101D8
100
AcDbEntity
8
Geo
100
AcDbLine
10
-15.2987857762360
20
2.22495764632585
30
0.000000000000000
11
-15.1987857762360
21
2.16732424393852
31
0.000000000000000
  0
LINE
  5
F101D9
330
F101DA
100
AcDbEntity
8
Geo
100
AcDbLine
10
-15.1987857762360
20
2.16732424393852
30
0.000000000000000
11
-15.0987857762360
21
2.11054932308897
31
0.000000000000000
  0
LINE
  5
F101DB
330
F101DC
100
AcDbEntity
8
Geo
100
AcDbLine
10
-15.0987857762360
20
2.11054932308897
30
0.000000000000000
11
-14.9987857762360
21
2.05464398763823
31
0.000000000000000
  0
LINE
  5
F101DD
330
F101DE
100
AcDbEntity
8
Geo
100
AcDbLine
10
-14.9987857762360
20
2.05464398763823
30
0.000000000000000
11
-14.8987857762360
21
1.99961917137659
31
0.000000000000000
  0
LINE
  5
F101DF
330
F101E0
100
AcDbEntity
8
Geo
100
AcDbLine
10
-14.8987857762360
20
1.99961917137659
30
0.000000000000000
11
-14.7987857762360
21
1.94548563588514
31
0.000000000000000
  0
LINE
  5
F101E1
330
F101E2
100
AcDbEntity
8
Geo
100
AcDbLine
10
-14.7987857762360
20
1.94548563588514
30
0.000000000000000
11
-14.6987857762360
21
1.89225396843105
31
0.000000000000000
  0
LINE
  5
F101E3
330
F101E4
100
AcDbEntity
8
Geo
100
AcDbLine
10
-14.6987857762360
20
1.89225396843105
30
0.000000000000000
11
-14.5987857762360
21
1.83993457989700
31
0.000000000000000
  0
LINE
  5
F101E5
330
F101E6
100
AcDbEntity
8
Geo
100
AcDbLine
10
-14.5987857762360
20
1.83993457989700
30
0.000000000000000
11
-14.4987857762360
21
1.78853770274499
31
0.000000000000000
  0
LINE
  5
F101E7
330
F101E8
100
AcDbEntity
8
Geo
100
AcDbLine
10
-14.4987857762360
20
1.78853770274499
30
0.000000000000000
11
-14.3987857762360
21
1.73807338901516
31
0.000000000000000
  0
LINE
  5
F101E9
330
F101EA
100
AcDbEntity
8
Geo
100
AcDbLine
10
-14.3987857762360
20
1.73807338901516
30
0.000000000000000
11
-14.2987857762360
21
1.68855150835980
31
0.000000000000000
  0
LINE
  5
F101EB
330
F101EC
100
AcDbEntity
8
Geo
100
AcDbLine
10
-14.2987857762360
20
1.68855150835980
30
0.000000000000000
11
-14.1987857762360
21
1.63998174611309
31
0.000000000000000
  0
LINE
  5
F101ED
330
F101EE
100
AcDbEntity
8
Geo
100
AcDbLine
10
-14.1987857762360
20
1.63998174611309
30
0.000000000000000
11
-14.0987857762360
21
1.59237360139691
31
0.000000000000000
  0
LINE
  5
F101EF
330
F101F0
100
AcDbEntity
8
Geo
100
AcDbLine
10
-14.0987857762360
20
1.59237360139691
30
0.000000000000000
11
-13.9987857762360
21
1.54573638526295
31
0.000000000000000
  0
LINE
  5
F101F1
330
F101F2
100
AcDbEntity
8
Geo
100
AcDbLine
10
-13.9987857762360
20
1.54573638526295
30
0.000000000000000
11
-13.8987857762360
21
1.50007921887177
31
0.000000000000000
  0
LINE
  5
F101F3
330
F101F4
100
AcDbEntity
8
Geo
100
AcDbLine
10
-13.8987857762360
20
1.50007921887177
30
0.000000000000000
11
-13.7987857762360
21
1.45541103170885
31
0.000000000000000
  0
LINE
  5
F101F5
330
F101F6
100
AcDbEntity
8
Geo
100
AcDbLine
10
-13.7987857762360
20
1.45541103170885
30
0.000000000000000
11
-13.6987857762360
21
1.41174055983823
31
0.000000000000000
  0
LINE
  5
F101F7
330
F101F8
100
AcDbEntity
8
Geo
100
AcDbLine
10
-13.6987857762360
20
1.41174055983823
30
0.000000000000000
11
-13.5987857762359
21
1.36907634419391
31
0.000000000000000
  0
LINE
  5
F101F9
330
F101FA
100
AcDbEntity
8
Geo
100
AcDbLine
10
-13.5987857762359
20
1.36907634419391
30
0.000000000000000
11
-13.4987857762359
21
1.32742672890944
31
0.000000000000000
  0
LINE
  5
F101FB
330
F101FC
100
AcDbEntity
8
Geo
100
AcDbLine
10
-13.4987857762359
20
1.32742672890944
30
0.000000000000000
11
-13.3987857762359
21
1.28679985968604
31
0.000000000000000
  0
LINE
  5
F101FD
330
F101FE
100
AcDbEntity
8
Geo
100
AcDbLine
10
-13.3987857762359
20
1.28679985968604
30
0.000000000000000
11
-13.2987857762359
21
1.24720368219944
31
0.000000000000000
  0
LINE
  5
F101FF
330
F10200
100
AcDbEntity
8
Geo
100
AcDbLine
10
-13.2987857762359
20
1.24720368219944
30
0.000000000000000
11
-13.1987857762359
21
1.20864594054592
31
0.000000000000000
  0
LINE
  5
F10201
330
F10202
100
AcDbEntity
8
Geo
100
AcDbLine
10
-13.1987857762359
20
1.20864594054592
30
0.000000000000000
11
-13.0987857762359
21
1.17113417572772
31
0.000000000000000
  0
LINE
  5
F10203
330
F10204
100
AcDbEntity
8
Geo
100
AcDbLine
10
-13.0987857762359
20
1.17113417572772
30
0.000000000000000
11
-12.9987857762359
21
1.13467572417824
31
0.000000000000000
  0
LINE
  5
F10205
330
F10206
100
AcDbEntity
8
Geo
100
AcDbLine
10
-12.9987857762359
20
1.13467572417824
30
0.000000000000000
11
-12.8987857762359
21
1.09927771632714
31
0.000000000000000
  0
LINE
  5
F10207
330
F10208
100
AcDbEntity
8
Geo
100
AcDbLine
10
-12.8987857762359
20
1.09927771632714
30
0.000000000000000
11
-12.7987857762359
21
1.06494707520584
31
0.000000000000000
  0
LINE
  5
F10209
330
F1020A
100
AcDbEntity
8
Geo
100
AcDbLine
10
-12.7987857762359
20
1.06494707520584
30
0.000000000000000
11
-12.6987857762359
21
1.03169051509353
31
0.000000000000000
  0
LINE
  5
F1020B
330
F1020C
100
AcDbEntity
8
Geo
100
AcDbLine
10
-12.6987857762359
20
1.03169051509353
30
0.000000000000000
11
-12.5987857762359
21
0.999514540203980
31
0.000000000000000
  0
LINE
  5
F1020D
330
F1020E
100
AcDbEntity
8
Geo
100
AcDbLine
10
-12.5987857762359
20
0.999514540203980
30
0.000000000000000
11
-12.4987857762359
21
0.968425443413507
31
0.000000000000000
  0
LINE
  5
F1020F
330
F10210
100
AcDbEntity
8
Geo
100
AcDbLine
10
-12.4987857762359
20
0.968425443413507
30
0.000000000000000
11
-12.3987857762359
21
0.938429305030212
31
0.000000000000000
  0
LINE
  5
F10211
330
F10212
100
AcDbEntity
8
Geo
100
AcDbLine
10
-12.3987857762359
20
0.938429305030212
30
0.000000000000000
11
-12.2987857762359
21
0.909531991604815
31
0.000000000000000
  0
LINE
  5
F10213
330
F10214
100
AcDbEntity
8
Geo
100
AcDbLine
10
-12.2987857762359
20
0.909531991604815
30
0.000000000000000
11
-12.1987857762359
21
0.881739154783296
31
0.000000000000000
  0
LINE
  5
F10215
330
F10216
100
AcDbEntity
8
Geo
100
AcDbLine
10
-12.1987857762359
20
0.881739154783296
30
0.000000000000000
11
-12.0987857762359
21
0.855056230201562
31
0.000000000000000
  0
LINE
  5
F10217
330
F10218
100
AcDbEntity
8
Geo
100
AcDbLine
10
-12.0987857762359
20
0.855056230201562
30
0.000000000000000
11
-11.9987857762359
21
0.829488436422366
31
0.000000000000000
  0
LINE
  5
F10219
330
F1021A
100
AcDbEntity
8
Geo
100
AcDbLine
10
-11.9987857762359
20
0.829488436422366
30
0.000000000000000
11
-11.8987857762359
21
0.805040773914670
31
0.000000000000000
  0
LINE
  5
F1021B
330
F1021C
100
AcDbEntity
8
Geo
100
AcDbLine
10
-11.8987857762359
20
0.805040773914670
30
0.000000000000000
11
-11.7987857762359
21
0.781718024075675
31
0.000000000000000
  0
LINE
  5
F1021D
330
F1021E
100
AcDbEntity
8
Geo
100
AcDbLine
10
-11.7987857762359
20
0.781718024075675
30
0.000000000000000
11
-11.6987857762359
21
0.759524748295691
31
0.000000000000000
  0
LINE
  5
F1021F
330
F10220
100
AcDbEntity
8
Geo
100
AcDbLine
10
-11.6987857762359
20
0.759524748295691
30
0.000000000000000
11
-11.5987857762359
21
0.738465287066026
31
0.000000000000000
  0
LINE
  5
F10221
330
F10222
100
AcDbEntity
8
Geo
100
AcDbLine
10
-11.5987857762359
20
0.738465287066026
30
0.000000000000000
11
-11.4987857762359
21
0.718543759130098
31
0.000000000000000
  0
LINE
  5
F10223
330
F10224
100
AcDbEntity
8
Geo
100
AcDbLine
10
-11.4987857762359
20
0.718543759130098
30
0.000000000000000
11
-11.3987857762359
21
0.699764060677893
31
0.000000000000000
  0
LINE
  5
F10225
330
F10226
100
AcDbEntity
8
Geo
100
AcDbLine
10
-11.3987857762359
20
0.699764060677893
30
0.000000000000000
11
-11.2987857762359
21
0.682129864583972
31
0.000000000000000
  0
LINE
  5
F10227
330
F10228
100
AcDbEntity
8
Geo
100
AcDbLine
10
-11.2987857762359
20
0.682129864583972
30
0.000000000000000
11
-11.1987857762359
21
0.665644619689129
31
0.000000000000000
  0
LINE
  5
F10229
330
F1022A
100
AcDbEntity
8
Geo
100
AcDbLine
10
-11.1987857762359
20
0.665644619689129
30
0.000000000000000
11
-11.0987857762359
21
0.650311550125889
31
0.000000000000000
  0
LINE
  5
F1022B
330
F1022C
100
AcDbEntity
8
Geo
100
AcDbLine
10
-11.0987857762359
20
0.650311550125889
30
0.000000000000000
11
-10.9987857762359
21
0.636133654687934
31
0.000000000000000
  0
LINE
  5
F1022D
330
F1022E
100
AcDbEntity
8
Geo
100
AcDbLine
10
-10.9987857762359
20
0.636133654687934
30
0.000000000000000
11
-10.8987857762359
21
0.623113706243613
31
0.000000000000000
  0
LINE
  5
F1022F
330
F10230
100
AcDbEntity
8
Geo
100
AcDbLine
10
-10.8987857762359
20
0.623113706243613
30
0.000000000000000
11
-10.7987857762359
21
0.611254251193630
31
0.000000000000000
  0
LINE
  5
F10231
330
F10232
100
AcDbEntity
8
Geo
100
AcDbLine
10
-10.7987857762359
20
0.611254251193630
30
0.000000000000000
11
-10.6987857762359
21
0.600557608973030
31
0.000000000000000
  0
LINE
  5
F10233
330
F10234
100
AcDbEntity
8
Geo
100
AcDbLine
10
-10.6987857762359
20
0.600557608973030
30
0.000000000000000
11
-10.5987857762359
21
0.591025871597571
31
0.000000000000000
  0
LINE
  5
F10235
330
F10236
100
AcDbEntity
8
Geo
100
AcDbLine
10
-10.5987857762359
20
0.591025871597571
30
0.000000000000000
11
-10.4987857762359
21
0.582660903254571
31
0.000000000000000
  0
LINE
  5
F10237
330
F10238
100
AcDbEntity
8
Geo
100
AcDbLine
10
-10.4987857762359
20
0.582660903254571
30
0.000000000000000
11
-10.3987857762359
21
0.575464339938317
31
0.000000000000000
  0
LINE
  5
F10239
330
F1023A
100
AcDbEntity
8
Geo
100
AcDbLine
10
-10.3987857762359
20
0.575464339938317
30
0.000000000000000
11
-10.2987857762359
21
0.569437589130104
31
0.000000000000000
  0
LINE
  5
F1023B
330
F1023C
100
AcDbEntity
8
Geo
100
AcDbLine
10
-10.2987857762359
20
0.569437589130104
30
0.000000000000000
11
-10.1987857762359
21
0.564581829522966
31
0.000000000000000
  0
LINE
  5
F1023D
330
F1023E
100
AcDbEntity
8
Geo
100
AcDbLine
10
-10.1987857762359
20
0.564581829522966
30
0.000000000000000
11
-10.0987857762359
21
0.560898010791144
31
0.000000000000000
  0
LINE
  5
F1023F
330
F10240
100
AcDbEntity
8
Geo
100
AcDbLine
10
-10.0987857762359
20
0.560898010791144
30
0.000000000000000
11
-9.99878577623590
21
0.558386853404361
31
0.000000000000000
  0
LINE
  5
F10241
330
F10242
100
AcDbEntity
8
Geo
100
AcDbLine
10
-9.99878577623590
20
0.558386853404361
30
0.000000000000000
11
-9.89878577623590
21
0.557048848486906
31
0.000000000000000
  0
LINE
  5
F10243
330
F10244
100
AcDbEntity
8
Geo
100
AcDbLine
10
-9.89878577623590
20
0.557048848486906
30
0.000000000000000
11
-9.83475999854910
21
0.556808326105809
31
0.000000000000000
  0
LINE
  5
F10245
330
F10246
100
AcDbEntity
8
Geo
100
AcDbLine
10
-32.2987857762359
20
3.63249172216998
30
0.000000000000000
11
-32.1987857762359
21
3.52357692717252
31
0.000000000000000
  0
LINE
  5
F10247
330
F10248
100
AcDbEntity
8
Geo
100
AcDbLine
10
-32.1987857762359
20
3.52357692717252
30
0.000000000000000
11
-32.0987857762359
21
3.41266435972407
31
0.000000000000000
  0
LINE
  5
F10249
330
F1024A
100
AcDbEntity
8
Geo
100
AcDbLine
10
-32.0987857762359
20
3.41266435972407
30
0.000000000000000
11
-31.9987857762359
21
3.34150774083898
31
0.000000000000000
  0
LINE
  5
F1024B
330
F1024C
100
AcDbEntity
8
Geo
100
AcDbLine
10
-31.9987857762359
20
3.34150774083898
30
0.000000000000000
11
-31.8987857762359
21
3.27097996036386
31
0.000000000000000
  0
LINE
  5
F1024D
330
F1024E
100
AcDbEntity
8
Geo
100
AcDbLine
10
-31.8987857762359
20
3.27097996036386
30
0.000000000000000
11
-31.7987857762359
21
3.20109481190094
31
0.000000000000000
  0
LINE
  5
F1024F
330
F10250
100
AcDbEntity
8
Geo
100
AcDbLine
10
-31.7987857762359
20
3.20109481190094
30
0.000000000000000
11
-31.6987857762359
21
3.13186596336851
31
0.000000000000000
  0
LINE
  5
F10251
330
F10252
100
AcDbEntity
8
Geo
100
AcDbLine
10
-31.6987857762359
20
3.13186596336851
30
0.000000000000000
11
-31.5987857762359
21
3.06330695432775
31
0.000000000000000
  0
LINE
  5
F10253
330
F10254
100
AcDbEntity
8
Geo
100
AcDbLine
10
-31.5987857762359
20
3.06330695432775
30
0.000000000000000
11
-31.4987857762359
21
2.99543119333477
31
0.000000000000000
  0
LINE
  5
F10255
330
F10256
100
AcDbEntity
8
Geo
100
AcDbLine
10
-31.4987857762359
20
2.99543119333477
30
0.000000000000000
11
-31.3987857762359
21
2.92825195531812
31
0.000000000000000
  0
LINE
  5
F10257
330
F10258
100
AcDbEntity
8
Geo
100
AcDbLine
10
-31.3987857762359
20
2.92825195531812
30
0.000000000000000
11
-31.2987857762359
21
2.86178237898261
31
0.000000000000000
  0
LINE
  5
F10259
330
F1025A
100
AcDbEntity
8
Geo
100
AcDbLine
10
-31.2987857762359
20
2.86178237898261
30
0.000000000000000
11
-31.1987857762359
21
2.79603546423963
31
0.000000000000000
  0
LINE
  5
F1025B
330
F1025C
100
AcDbEntity
8
Geo
100
AcDbLine
10
-31.1987857762359
20
2.79603546423963
30
0.000000000000000
11
-31.0987857762359
21
2.73102406966467
31
0.000000000000000
  0
LINE
  5
F1025D
330
F1025E
100
AcDbEntity
8
Geo
100
AcDbLine
10
-31.0987857762359
20
2.73102406966467
30
0.000000000000000
11
-30.9987857762359
21
2.66676090998250
31
0.000000000000000
  0
LINE
  5
F1025F
330
F10260
100
AcDbEntity
8
Geo
100
AcDbLine
10
-30.9987857762359
20
2.66676090998250
30
0.000000000000000
11
-30.8987857762359
21
2.60325855358047
31
0.000000000000000
  0
LINE
  5
F10261
330
F10262
100
AcDbEntity
8
Geo
100
AcDbLine
10
-30.8987857762359
20
2.60325855358047
30
0.000000000000000
11
-30.7987857762359
21
2.54052942005037
31
0.000000000000000
  0
LINE
  5
F10263
330
F10264
100
AcDbEntity
8
Geo
100
AcDbLine
10
-30.7987857762359
20
2.54052942005037
30
0.000000000000000
11
-30.6987857762359
21
2.47858577775953
31
0.000000000000000
  0
LINE
  5
F10265
330
F10266
100
AcDbEntity
8
Geo
100
AcDbLine
10
-30.6987857762359
20
2.47858577775953
30
0.000000000000000
11
-30.5987857762359
21
2.41743974145134
31
0.000000000000000
  0
LINE
  5
F10267
330
F10268
100
AcDbEntity
8
Geo
100
AcDbLine
10
-30.5987857762359
20
2.41743974145134
30
0.000000000000000
11
-30.4987857762359
21
2.35710326987591
31
0.000000000000000
  0
LINE
  5
F10269
330
F1026A
100
AcDbEntity
8
Geo
100
AcDbLine
10
-30.4987857762359
20
2.35710326987591
30
0.000000000000000
11
-30.3987857762359
21
2.29758816345122
31
0.000000000000000
  0
LINE
  5
F1026B
330
F1026C
100
AcDbEntity
8
Geo
100
AcDbLine
10
-30.3987857762359
20
2.29758816345122
30
0.000000000000000
11
-30.2987857762359
21
2.23890606195524
31
0.000000000000000
  0
LINE
  5
F1026D
330
F1026E
100
AcDbEntity
8
Geo
100
AcDbLine
10
-30.2987857762359
20
2.23890606195524
30
0.000000000000000
11
-30.1987857762359
21
2.18106844224945
31
0.000000000000000
  0
LINE
  5
F1026F
330
F10270
100
AcDbEntity
8
Geo
100
AcDbLine
10
-30.1987857762359
20
2.18106844224945
30
0.000000000000000
11
-30.0987857762359
21
2.12408661603419
31
0.000000000000000
  0
LINE
  5
F10271
330
F10272
100
AcDbEntity
8
Geo
100
AcDbLine
10
-30.0987857762359
20
2.12408661603419
30
0.000000000000000
11
-29.9987857762359
21
2.06797172763644
31
0.000000000000000
  0
LINE
  5
F10273
330
F10274
100
AcDbEntity
8
Geo
100
AcDbLine
10
-29.9987857762359
20
2.06797172763644
30
0.000000000000000
11
-29.8987857762359
21
2.01273475183018
31
0.000000000000000
  0
LINE
  5
F10275
330
F10276
100
AcDbEntity
8
Geo
100
AcDbLine
10
-29.8987857762359
20
2.01273475183018
30
0.000000000000000
11
-29.7987857762359
21
1.95838649168998
31
0.000000000000000
  0
LINE
  5
F10277
330
F10278
100
AcDbEntity
8
Geo
100
AcDbLine
10
-29.7987857762359
20
1.95838649168998
30
0.000000000000000
11
-29.6987857762359
21
1.90493757647821
31
0.000000000000000
  0
LINE
  5
F10279
330
F1027A
100
AcDbEntity
8
Geo
100
AcDbLine
10
-29.6987857762359
20
1.90493757647821
30
0.000000000000000
11
-29.5987857762359
21
1.85239845956617
31
0.000000000000000
  0
LINE
  5
F1027B
330
F1027C
100
AcDbEntity
8
Geo
100
AcDbLine
10
-29.5987857762359
20
1.85239845956617
30
0.000000000000000
11
-29.4987857762359
21
1.80077941638965
31
0.000000000000000
  0
LINE
  5
F1027D
330
F1027E
100
AcDbEntity
8
Geo
100
AcDbLine
10
-29.4987857762359
20
1.80077941638965
30
0.000000000000000
11
-29.3987857762359
21
1.75009054243933
31
0.000000000000000
  0
LINE
  5
F1027F
330
F10280
100
AcDbEntity
8
Geo
100
AcDbLine
10
-29.3987857762359
20
1.75009054243933
30
0.000000000000000
11
-29.2987857762359
21
1.70034175128628
31
0.000000000000000
  0
LINE
  5
F10281
330
F10282
100
AcDbEntity
8
Geo
100
AcDbLine
10
-29.2987857762359
20
1.70034175128628
30
0.000000000000000
11
-29.1987857762359
21
1.65154277264314
31
0.000000000000000
  0
LINE
  5
F10283
330
F10284
100
AcDbEntity
8
Geo
100
AcDbLine
10
-29.1987857762359
20
1.65154277264314
30
0.000000000000000
11
-29.0987857762359
21
1.60370315046118
31
0.000000000000000
  0
LINE
  5
F10285
330
F10286
100
AcDbEntity
8
Geo
100
AcDbLine
10
-29.0987857762359
20
1.60370315046118
30
0.000000000000000
11
-28.9987857762359
21
1.55683224106376
31
0.000000000000000
  0
LINE
  5
F10287
330
F10288
100
AcDbEntity
8
Geo
100
AcDbLine
10
-28.9987857762359
20
1.55683224106376
30
0.000000000000000
11
-28.8987857762359
21
1.51093921131642
31
0.000000000000000
  0
LINE
  5
F10289
330
F1028A
100
AcDbEntity
8
Geo
100
AcDbLine
10
-28.8987857762359
20
1.51093921131642
30
0.000000000000000
11
-28.7987857762359
21
1.46603303683406
31
0.000000000000000
  0
LINE
  5
F1028B
330
F1028C
100
AcDbEntity
8
Geo
100
AcDbLine
10
-28.7987857762359
20
1.46603303683406
30
0.000000000000000
11
-28.6987857762359
21
1.42212250022553
31
0.000000000000000
  0
LINE
  5
F1028D
330
F1028E
100
AcDbEntity
8
Geo
100
AcDbLine
10
-28.6987857762359
20
1.42212250022553
30
0.000000000000000
11
-28.5987857762359
21
1.37921618937594
31
0.000000000000000
  0
LINE
  5
F1028F
330
F10290
100
AcDbEntity
8
Geo
100
AcDbLine
10
-28.5987857762359
20
1.37921618937594
30
0.000000000000000
11
-28.4987857762359
21
1.33732249576707
31
0.000000000000000
  0
LINE
  5
F10291
330
F10292
100
AcDbEntity
8
Geo
100
AcDbLine
10
-28.4987857762359
20
1.33732249576707
30
0.000000000000000
11
-28.3987857762359
21
1.29644961283620
31
0.000000000000000
  0
LINE
  5
F10293
330
F10294
100
AcDbEntity
8
Geo
100
AcDbLine
10
-28.3987857762359
20
1.29644961283620
30
0.000000000000000
11
-28.2987857762359
21
1.25660553437366
31
0.000000000000000
  0
LINE
  5
F10295
330
F10296
100
AcDbEntity
8
Geo
100
AcDbLine
10
-28.2987857762359
20
1.25660553437366
30
0.000000000000000
11
-28.1987857762359
21
1.21779805295942
31
0.000000000000000
  0
LINE
  5
F10297
330
F10298
100
AcDbEntity
8
Geo
100
AcDbLine
10
-28.1987857762359
20
1.21779805295942
30
0.000000000000000
11
-28.0987857762359
21
1.18003475843905
31
0.000000000000000
  0
LINE
  5
F10299
330
F1029A
100
AcDbEntity
8
Geo
100
AcDbLine
10
-28.0987857762359
20
1.18003475843905
30
0.000000000000000
11
-27.9987857762359
21
1.14332303643932
31
0.000000000000000
  0
LINE
  5
F1029B
330
F1029C
100
AcDbEntity
8
Geo
100
AcDbLine
10
-27.9987857762359
20
1.14332303643932
30
0.000000000000000
11
-27.8987857762359
21
1.10767006692375
31
0.000000000000000
  0
LINE
  5
F1029D
330
F1029E
100
AcDbEntity
8
Geo
100
AcDbLine
10
-27.8987857762359
20
1.10767006692375
30
0.000000000000000
11
-27.7987857762359
21
1.07308282278836
31
0.000000000000000
  0
LINE
  5
F1029F
330
F102A0
100
AcDbEntity
8
Geo
100
AcDbLine
10
-27.7987857762359
20
1.07308282278836
30
0.000000000000000
11
-27.6987857762359
21
1.03956806849794
31
0.000000000000000
  0
LINE
  5
F102A1
330
F102A2
100
AcDbEntity
8
Geo
100
AcDbLine
10
-27.6987857762359
20
1.03956806849794
30
0.000000000000000
11
-27.5987857762359
21
1.00713235876308
31
0.000000000000000
  0
LINE
  5
F102A3
330
F102A4
100
AcDbEntity
8
Geo
100
AcDbLine
10
-27.5987857762359
20
1.00713235876308
30
0.000000000000000
11
-27.4987857762359
21
0.975782037258224
31
0.000000000000000
  0
LINE
  5
F102A5
330
F102A6
100
AcDbEntity
8
Geo
100
AcDbLine
10
-27.4987857762359
20
0.975782037258224
30
0.000000000000000
11
-27.3987857762359
21
0.945523235380980
31
0.000000000000000
  0
LINE
  5
F102A7
330
F102A8
100
AcDbEntity
8
Geo
100
AcDbLine
10
-27.3987857762359
20
0.945523235380980
30
0.000000000000000
11
-27.2987857762359
21
0.916361871052974
31
0.000000000000000
  0
LINE
  5
F102A9
330
F102AA
100
AcDbEntity
8
Geo
100
AcDbLine
10
-27.2987857762359
20
0.916361871052974
30
0.000000000000000
11
-27.1987857762359
21
0.888303647562431
31
0.000000000000000
  0
LINE
  5
F102AB
330
F102AC
100
AcDbEntity
8
Geo
100
AcDbLine
10
-27.1987857762359
20
0.888303647562431
30
0.000000000000000
11
-27.0987857762359
21
0.861354052448753
31
0.000000000000000
  0
LINE
  5
F102AD
330
F102AE
100
AcDbEntity
8
Geo
100
AcDbLine
10
-27.0987857762359
20
0.861354052448753
30
0.000000000000000
11
-26.9987857762359
21
0.835518356429278
31
0.000000000000000
  0
LINE
  5
F102AF
330
F102B0
100
AcDbEntity
8
Geo
100
AcDbLine
10
-26.9987857762359
20
0.835518356429278
30
0.000000000000000
11
-26.8987857762359
21
0.810801612368449
31
0.000000000000000
  0
LINE
  5
F102B1
330
F102B2
100
AcDbEntity
8
Geo
100
AcDbLine
10
-26.8987857762359
20
0.810801612368449
30
0.000000000000000
11
-26.7987857762359
21
0.787208654289595
31
0.000000000000000
  0
LINE
  5
F102B3
330
F102B4
100
AcDbEntity
8
Geo
100
AcDbLine
10
-26.7987857762359
20
0.787208654289595
30
0.000000000000000
11
-26.6987857762360
21
0.764744096429503
31
0.000000000000000
  0
LINE
  5
F102B5
330
F102B6
100
AcDbEntity
8
Geo
100
AcDbLine
10
-26.6987857762360
20
0.764744096429503
30
0.000000000000000
11
-26.5987857762359
21
0.743412332335982
31
0.000000000000000
  0
LINE
  5
F102B7
330
F102B8
100
AcDbEntity
8
Geo
100
AcDbLine
10
-26.5987857762359
20
0.743412332335982
30
0.000000000000000
11
-26.4987857762359
21
0.723217534008594
31
0.000000000000000
  0
LINE
  5
F102B9
330
F102BA
100
AcDbEntity
8
Geo
100
AcDbLine
10
-26.4987857762359
20
0.723217534008594
30
0.000000000000000
11
-26.3987857762360
21
0.704163651082686
31
0.000000000000000
  0
LINE
  5
F102BB
330
F102BC
100
AcDbEntity
8
Geo
100
AcDbLine
10
-26.3987857762360
20
0.704163651082686
30
0.000000000000000
11
-26.2987857762360
21
0.686254410056963
31
0.000000000000000
  0
LINE
  5
F102BD
330
F102BE
100
AcDbEntity
8
Geo
100
AcDbLine
10
-26.2987857762360
20
0.686254410056963
30
0.000000000000000
11
-26.1987857762360
21
0.669493313564642
31
0.000000000000000
  0
LINE
  5
F102BF
330
F102C0
100
AcDbEntity
8
Geo
100
AcDbLine
10
-26.1987857762360
20
0.669493313564642
30
0.000000000000000
11
-26.0987857762359
21
0.653883639688439
31
0.000000000000000
  0
LINE
  5
F102C1
330
F102C2
100
AcDbEntity
8
Geo
100
AcDbLine
10
-26.0987857762359
20
0.653883639688439
30
0.000000000000000
11
-25.9987857762360
21
0.639428441319440
31
0.000000000000000
  0
LINE
  5
F102C3
330
F102C4
100
AcDbEntity
8
Geo
100
AcDbLine
10
-25.9987857762360
20
0.639428441319440
30
0.000000000000000
11
-25.8987857762360
21
0.626130545560034
31
0.000000000000000
  0
LINE
  5
F102C5
330
F102C6
100
AcDbEntity
8
Geo
100
AcDbLine
10
-25.8987857762360
20
0.626130545560034
30
0.000000000000000
11
-25.7987857762360
21
0.613992553170991
31
0.000000000000000
  0
LINE
  5
F102C7
330
F102C8
100
AcDbEntity
8
Geo
100
AcDbLine
10
-25.7987857762360
20
0.613992553170991
30
0.000000000000000
11
-25.6987857762360
21
0.603016838062813
31
0.000000000000000
  0
LINE
  5
F102C9
330
F102CA
100
AcDbEntity
8
Geo
100
AcDbLine
10
-25.6987857762360
20
0.603016838062813
30
0.000000000000000
11
-25.5987857762360
21
0.593205546831459
31
0.000000000000000
  0
LINE
  5
F102CB
330
F102CC
100
AcDbEntity
8
Geo
100
AcDbLine
10
-25.5987857762360
20
0.593205546831459
30
0.000000000000000
11
-25.4987857762360
21
0.584560598338513
31
0.000000000000000
  0
LINE
  5
F102CD
330
F102CE
100
AcDbEntity
8
Geo
100
AcDbLine
10
-25.4987857762360
20
0.584560598338513
30
0.000000000000000
11
-25.3987857762360
21
0.577083683335902
31
0.000000000000000
  0
LINE
  5
F102CF
330
F102D0
100
AcDbEntity
8
Geo
100
AcDbLine
10
-25.3987857762360
20
0.577083683335902
30
0.000000000000000
11
-25.2987857762360
21
0.570776264135229
31
0.000000000000000
  0
LINE
  5
F102D1
330
F102D2
100
AcDbEntity
8
Geo
100
AcDbLine
10
-25.2987857762360
20
0.570776264135229
30
0.000000000000000
11
-25.1987857762360
21
0.565639574321768
31
0.000000000000000
  0
LINE
  5
F102D3
330
F102D4
100
AcDbEntity
8
Geo
100
AcDbLine
10
-25.1987857762360
20
0.565639574321768
30
0.000000000000000
11
-25.0987857762360
21
0.561674618513212
31
0.000000000000000
  0
LINE
  5
F102D5
330
F102D6
100
AcDbEntity
8
Geo
100
AcDbLine
10
-25.0987857762360
20
0.561674618513212
30
0.000000000000000
11
-24.9987857762360
21
0.558882172163189
31
0.000000000000000
  0
LINE
  5
F102D7
330
F102D8
100
AcDbEntity
8
Geo
100
AcDbLine
10
-24.9987857762360
20
0.558882172163189
30
0.000000000000000
11
-24.8987857762360
21
0.557262781409604
31
0.000000000000000
  0
LINE
  5
F102D9
330
F102DA
100
AcDbEntity
8
Geo
100
AcDbLine
10
-24.8987857762360
20
0.557262781409604
30
0.000000000000000
11
-24.8107773749777
21
0.556808326105809
31
0.000000000000000
  0
LINE
  5
F102DB
330
F102DC
100
AcDbEntity
8
Geo
100
AcDbLine
10
-17.3227687599318
20
12.5568083261058
30
0.000000000000000
11
-17.2987857762360
21
12.5567745786815
31
0.000000000000000
  0
LINE
  5
F102DD
330
F102DE
100
AcDbEntity
8
Geo
100
AcDbLine
10
-17.2987857762360
20
12.5567745786815
30
0.000000000000000
11
-17.1987857762360
21
12.5559064291218
31
0.000000000000000
  0
LINE
  5
F102DF
330
F102E0
100
AcDbEntity
8
Geo
100
AcDbLine
10
-17.1987857762360
20
12.5559064291218
30
0.000000000000000
11
-17.0987857762360
21
12.5538649947596
31
0.000000000000000
  0
LINE
  5
F102E1
330
F102E2
100
AcDbEntity
8
Geo
100
AcDbLine
10
-17.0987857762360
20
12.5538649947596
30
0.000000000000000
11
-16.9987857762360
21
12.5506506748521
31
0.000000000000000
  0
LINE
  5
F102E3
330
F102E4
100
AcDbEntity
8
Geo
100
AcDbLine
10
-16.9987857762360
20
12.5506506748521
30
0.000000000000000
11
-16.8987857762360
21
12.5462640980460
31
0.000000000000000
  0
LINE
  5
F102E5
330
F102E6
100
AcDbEntity
8
Geo
100
AcDbLine
10
-16.8987857762360
20
12.5462640980460
30
0.000000000000000
11
-16.7987857762360
21
12.5407061222542
31
0.000000000000000
  0
LINE
  5
F102E7
330
F102E8
100
AcDbEntity
8
Geo
100
AcDbLine
10
-16.7987857762360
20
12.5407061222542
30
0.000000000000000
11
-16.6987857762360
21
12.5339778344882
31
0.000000000000000
  0
LINE
  5
F102E9
330
F102EA
100
AcDbEntity
8
Geo
100
AcDbLine
10
-16.6987857762360
20
12.5339778344882
30
0.000000000000000
11
-16.5987857762360
21
12.5260805506455
31
0.000000000000000
  0
LINE
  5
F102EB
330
F102EC
100
AcDbEntity
8
Geo
100
AcDbLine
10
-16.5987857762360
20
12.5260805506455
30
0.000000000000000
11
-16.4987857762360
21
12.5170158152521
31
0.000000000000000
  0
LINE
  5
F102ED
330
F102EE
100
AcDbEntity
8
Geo
100
AcDbLine
10
-16.4987857762360
20
12.5170158152521
30
0.000000000000000
11
-16.3987857762360
21
12.5067854011604
31
0.000000000000000
  0
LINE
  5
F102EF
330
F102F0
100
AcDbEntity
8
Geo
100
AcDbLine
10
-16.3987857762360
20
12.5067854011604
30
0.000000000000000
11
-16.2987857762360
21
12.4953913092028
31
0.000000000000000
  0
LINE
  5
F102F1
330
F102F2
100
AcDbEntity
8
Geo
100
AcDbLine
10
-16.2987857762360
20
12.4953913092028
30
0.000000000000000
11
-16.1987857762360
21
12.4828357678002
31
0.000000000000000
  0
LINE
  5
F102F3
330
F102F4
100
AcDbEntity
8
Geo
100
AcDbLine
10
-16.1987857762360
20
12.4828357678002
30
0.000000000000000
11
-16.0987857762360
21
12.4691212325258
31
0.000000000000000
  0
LINE
  5
F102F5
330
F102F6
100
AcDbEntity
8
Geo
100
AcDbLine
10
-16.0987857762360
20
12.4691212325258
30
0.000000000000000
11
-15.9987857762360
21
12.4542503856257
31
0.000000000000000
  0
LINE
  5
F102F7
330
F102F8
100
AcDbEntity
8
Geo
100
AcDbLine
10
-15.9987857762360
20
12.4542503856257
30
0.000000000000000
11
-15.8987857762360
21
12.4382261354933
31
0.000000000000000
  0
LINE
  5
F102F9
330
F102FA
100
AcDbEntity
8
Geo
100
AcDbLine
10
-15.8987857762360
20
12.4382261354933
30
0.000000000000000
11
-15.7987857762360
21
12.4210516161013
31
0.000000000000000
  0
LINE
  5
F102FB
330
F102FC
100
AcDbEntity
8
Geo
100
AcDbLine
10
-15.7987857762360
20
12.4210516161013
30
0.000000000000000
11
-15.6987857762360
21
12.4027301863883
31
0.000000000000000
  0
LINE
  5
F102FD
330
F102FE
100
AcDbEntity
8
Geo
100
AcDbLine
10
-15.6987857762360
20
12.4027301863883
30
0.000000000000000
11
-15.5987857762360
21
12.3832654296022
31
0.000000000000000
  0
LINE
  5
F102FF
330
F10300
100
AcDbEntity
8
Geo
100
AcDbLine
10
-15.5987857762360
20
12.3832654296022
30
0.000000000000000
11
-15.4987857762360
21
12.3626611525991
31
0.000000000000000
  0
LINE
  5
F10301
330
F10302
100
AcDbEntity
8
Geo
100
AcDbLine
10
-15.4987857762360
20
12.3626611525991
30
0.000000000000000
11
-15.3987857762360
21
12.3409213850989
31
0.000000000000000
  0
LINE
  5
F10303
330
F10304
100
AcDbEntity
8
Geo
100
AcDbLine
10
-15.3987857762360
20
12.3409213850989
30
0.000000000000000
11
-15.2987857762360
21
12.3180503788971
31
0.000000000000000
  0
LINE
  5
F10305
330
F10306
100
AcDbEntity
8
Geo
100
AcDbLine
10
-15.2987857762360
20
12.3180503788971
30
0.000000000000000
11
-15.1987857762360
21
12.2940526070335
31
0.000000000000000
  0
LINE
  5
F10307
330
F10308
100
AcDbEntity
8
Geo
100
AcDbLine
10
-15.1987857762360
20
12.2940526070335
30
0.000000000000000
11
-15.0987857762360
21
12.2689327629171
31
0.000000000000000
  0
LINE
  5
F10309
330
F1030A
100
AcDbEntity
8
Geo
100
AcDbLine
10
-15.0987857762360
20
12.2689327629171
30
0.000000000000000
11
-14.9987857762360
21
12.2426957594082
31
0.000000000000000
  0
LINE
  5
F1030B
330
F1030C
100
AcDbEntity
8
Geo
100
AcDbLine
10
-14.9987857762360
20
12.2426957594082
30
0.000000000000000
11
-14.8987857762360
21
12.2153467278577
31
0.000000000000000
  0
LINE
  5
F1030D
330
F1030E
100
AcDbEntity
8
Geo
100
AcDbLine
10
-14.8987857762360
20
12.2153467278577
30
0.000000000000000
11
-14.7987857762360
21
12.1868910171036
31
0.000000000000000
  0
LINE
  5
F1030F
330
F10310
100
AcDbEntity
8
Geo
100
AcDbLine
10
-14.7987857762360
20
12.1868910171036
30
0.000000000000000
11
-14.6987857762360
21
12.1573341924245
31
0.000000000000000
  0
LINE
  5
F10311
330
F10312
100
AcDbEntity
8
Geo
100
AcDbLine
10
-14.6987857762360
20
12.1573341924245
30
0.000000000000000
11
-14.5987857762360
21
12.1266820344515
31
0.000000000000000
  0
LINE
  5
F10313
330
F10314
100
AcDbEntity
8
Geo
100
AcDbLine
10
-14.5987857762360
20
12.1266820344515
30
0.000000000000000
11
-14.4987857762360
21
12.0949405380377
31
0.000000000000000
  0
LINE
  5
F10315
330
F10316
100
AcDbEntity
8
Geo
100
AcDbLine
10
-14.4987857762360
20
12.0949405380377
30
0.000000000000000
11
-14.3987857762360
21
12.0621159110853
31
0.000000000000000
  0
LINE
  5
F10317
330
F10318
100
AcDbEntity
8
Geo
100
AcDbLine
10
-14.3987857762360
20
12.0621159110853
30
0.000000000000000
11
-14.2987857762360
21
12.0282145733321
31
0.000000000000000
  0
LINE
  5
F10319
330
F1031A
100
AcDbEntity
8
Geo
100
AcDbLine
10
-14.2987857762360
20
12.0282145733321
30
0.000000000000000
11
-14.1987857762360
21
11.9932431550954
31
0.000000000000000
  0
LINE
  5
F1031B
330
F1031C
100
AcDbEntity
8
Geo
100
AcDbLine
10
-14.1987857762360
20
11.9932431550954
30
0.000000000000000
11
-14.0987857762360
21
11.9572084959756
31
0.000000000000000
  0
LINE
  5
F1031D
330
F1031E
100
AcDbEntity
8
Geo
100
AcDbLine
10
-14.0987857762360
20
11.9572084959756
30
0.000000000000000
11
-13.9987857762360
21
11.9201176435184
31
0.000000000000000
  0
LINE
  5
F1031F
330
F10320
100
AcDbEntity
8
Geo
100
AcDbLine
10
-13.9987857762360
20
11.9201176435184
30
0.000000000000000
11
-13.8987857762360
21
11.8819778518364
31
0.000000000000000
  0
LINE
  5
F10321
330
F10322
100
AcDbEntity
8
Geo
100
AcDbLine
10
-13.8987857762360
20
11.8819778518364
30
0.000000000000000
11
-13.7987857762360
21
11.8427965801905
31
0.000000000000000
  0
LINE
  5
F10323
330
F10324
100
AcDbEntity
8
Geo
100
AcDbLine
10
-13.7987857762360
20
11.8427965801905
30
0.000000000000000
11
-13.6987857762360
21
11.8025814915310
31
0.000000000000000
  0
LINE
  5
F10325
330
F10326
100
AcDbEntity
8
Geo
100
AcDbLine
10
-13.6987857762360
20
11.8025814915310
30
0.000000000000000
11
-13.5987857762359
21
11.7613404509989
31
0.000000000000000
  0
LINE
  5
F10327
330
F10328
100
AcDbEntity
8
Geo
100
AcDbLine
10
-13.5987857762359
20
11.7613404509989
30
0.000000000000000
11
-13.4987857762359
21
11.7190815243877
31
0.000000000000000
  0
LINE
  5
F10329
330
F1032A
100
AcDbEntity
8
Geo
100
AcDbLine
10
-13.4987857762359
20
11.7190815243877
30
0.000000000000000
11
-13.3987857762359
21
11.6758129765657
31
0.000000000000000
  0
LINE
  5
F1032B
330
F1032C
100
AcDbEntity
8
Geo
100
AcDbLine
10
-13.3987857762359
20
11.6758129765657
30
0.000000000000000
11
-13.2987857762359
21
11.6315432698598
31
0.000000000000000
  0
LINE
  5
F1032D
330
F1032E
100
AcDbEntity
8
Geo
100
AcDbLine
10
-13.2987857762359
20
11.6315432698598
30
0.000000000000000
11
-13.1987857762359
21
11.5862810624007
31
0.000000000000000
  0
LINE
  5
F1032F
330
F10330
100
AcDbEntity
8
Geo
100
AcDbLine
10
-13.1987857762359
20
11.5862810624007
30
0.000000000000000
11
-13.0987857762359
21
11.5400352064289
31
0.000000000000000
  0
LINE
  5
F10331
330
F10332
100
AcDbEntity
8
Geo
100
AcDbLine
10
-13.0987857762359
20
11.5400352064289
30
0.000000000000000
11
-12.9987857762359
21
11.4928147465640
31
0.000000000000000
  0
LINE
  5
F10333
330
F10334
100
AcDbEntity
8
Geo
100
AcDbLine
10
-12.9987857762359
20
11.4928147465640
30
0.000000000000000
11
-12.8987857762359
21
11.4446289180354
31
0.000000000000000
  0
LINE
  5
F10335
330
F10336
100
AcDbEntity
8
Geo
100
AcDbLine
10
-12.8987857762359
20
11.4446289180354
30
0.000000000000000
11
-12.7987857762359
21
11.3954871448766
31
0.000000000000000
  0
LINE
  5
F10337
330
F10338
100
AcDbEntity
8
Geo
100
AcDbLine
10
-12.7987857762359
20
11.3954871448766
30
0.000000000000000
11
-12.6987857762359
21
11.3453990380815
31
0.000000000000000
  0
LINE
  5
F10339
330
F1033A
100
AcDbEntity
8
Geo
100
AcDbLine
10
-12.6987857762359
20
11.3453990380815
30
0.000000000000000
11
-12.5987857762359
21
11.2943743937249
31
0.000000000000000
  0
LINE
  5
F1033B
330
F1033C
100
AcDbEntity
8
Geo
100
AcDbLine
10
-12.5987857762359
20
11.2943743937249
30
0.000000000000000
11
-12.4987857762359
21
11.2424231910469
31
0.000000000000000
  0
LINE
  5
F1033D
330
F1033E
100
AcDbEntity
8
Geo
100
AcDbLine
10
-12.4987857762359
20
11.2424231910469
30
0.000000000000000
11
-12.3987857762359
21
11.1895555905009
31
0.000000000000000
  0
LINE
  5
F1033F
330
F10340
100
AcDbEntity
8
Geo
100
AcDbLine
10
-12.3987857762359
20
11.1895555905009
30
0.000000000000000
11
-12.2987857762359
21
11.1357819317665
31
0.000000000000000
  0
LINE
  5
F10341
330
F10342
100
AcDbEntity
8
Geo
100
AcDbLine
10
-12.2987857762359
20
11.1357819317665
30
0.000000000000000
11
-12.1987857762359
21
11.0811127317273
31
0.000000000000000
  0
LINE
  5
F10343
330
F10344
100
AcDbEntity
8
Geo
100
AcDbLine
10
-12.1987857762359
20
11.0811127317273
30
0.000000000000000
11
-12.0987857762359
21
11.0255586824140
31
0.000000000000000
  0
LINE
  5
F10345
330
F10346
100
AcDbEntity
8
Geo
100
AcDbLine
10
-12.0987857762359
20
11.0255586824140
30
0.000000000000000
11
-11.9987857762359
21
10.9691306489135
31
0.000000000000000
  0
LINE
  5
F10347
330
F10348
100
AcDbEntity
8
Geo
100
AcDbLine
10
-11.9987857762359
20
10.9691306489135
30
0.000000000000000
11
-11.8987857762359
21
10.9118396672438
31
0.000000000000000
  0
LINE
  5
F10349
330
F1034A
100
AcDbEntity
8
Geo
100
AcDbLine
10
-11.8987857762359
20
10.9118396672438
30
0.000000000000000
11
-11.7987857762359
21
10.8536969421954
31
0.000000000000000
  0
LINE
  5
F1034B
330
F1034C
100
AcDbEntity
8
Geo
100
AcDbLine
10
-11.7987857762359
20
10.8536969421954
30
0.000000000000000
11
-11.6987857762359
21
10.7947138451402
31
0.000000000000000
  0
LINE
  5
F1034D
330
F1034E
100
AcDbEntity
8
Geo
100
AcDbLine
10
-11.6987857762359
20
10.7947138451402
30
0.000000000000000
11
-11.5987857762359
21
10.7349019118075
31
0.000000000000000
  0
LINE
  5
F1034F
330
F10350
100
AcDbEntity
8
Geo
100
AcDbLine
10
-11.5987857762359
20
10.7349019118075
30
0.000000000000000
11
-11.4987857762359
21
10.6742728400277
31
0.000000000000000
  0
LINE
  5
F10351
330
F10352
100
AcDbEntity
8
Geo
100
AcDbLine
10
-11.4987857762359
20
10.6742728400277
30
0.000000000000000
11
-11.3987857762359
21
10.6128384874446
31
0.000000000000000
  0
LINE
  5
F10353
330
F10354
100
AcDbEntity
8
Geo
100
AcDbLine
10
-11.3987857762359
20
10.6128384874446
30
0.000000000000000
11
-11.2987857762359
21
10.5506108691964
31
0.000000000000000
  0
LINE
  5
F10355
330
F10356
100
AcDbEntity
8
Geo
100
AcDbLine
10
-11.2987857762359
20
10.5506108691964
30
0.000000000000000
11
-11.1987857762359
21
10.4876021555655
31
0.000000000000000
  0
LINE
  5
F10357
330
F10358
100
AcDbEntity
8
Geo
100
AcDbLine
10
-11.1987857762359
20
10.4876021555655
30
0.000000000000000
11
-11.0987857762359
21
10.4238246695988
31
0.000000000000000
  0
LINE
  5
F10359
330
F1035A
100
AcDbEntity
8
Geo
100
AcDbLine
10
-11.0987857762359
20
10.4238246695988
30
0.000000000000000
11
-10.9987857762359
21
10.3592908846968
31
0.000000000000000
  0
LINE
  5
F1035B
330
F1035C
100
AcDbEntity
8
Geo
100
AcDbLine
10
-10.9987857762359
20
10.3592908846968
30
0.000000000000000
11
-10.8987857762359
21
10.2940134221752
31
0.000000000000000
  0
LINE
  5
F1035D
330
F1035E
100
AcDbEntity
8
Geo
100
AcDbLine
10
-10.8987857762359
20
10.2940134221752
30
0.000000000000000
11
-10.7987857762359
21
10.2280050487952
31
0.000000000000000
  0
LINE
  5
F1035F
330
F10360
100
AcDbEntity
8
Geo
100
AcDbLine
10
-10.7987857762359
20
10.2280050487952
30
0.000000000000000
11
-10.6987857762359
21
10.1612786742678
31
0.000000000000000
  0
LINE
  5
F10361
330
F10362
100
AcDbEntity
8
Geo
100
AcDbLine
10
-10.6987857762359
20
10.1612786742678
30
0.000000000000000
11
-10.5987857762359
21
10.0938473487280
31
0.000000000000000
  0
LINE
  5
F10363
330
F10364
100
AcDbEntity
8
Geo
100
AcDbLine
10
-10.5987857762359
20
10.0938473487280
30
0.000000000000000
11
-10.4987857762359
21
10.0257242601831
31
0.000000000000000
  0
LINE
  5
F10365
330
F10366
100
AcDbEntity
8
Geo
100
AcDbLine
10
-10.4987857762359
20
10.0257242601831
30
0.000000000000000
11
-10.3987857762359
21
9.95692273193338
31
0.000000000000000
  0
LINE
  5
F10367
330
F10368
100
AcDbEntity
8
Geo
100
AcDbLine
10
-10.3987857762359
20
9.95692273193338
30
0.000000000000000
11
-10.2987857762359
21
9.88745621996593
31
0.000000000000000
  0
LINE
  5
F10369
330
F1036A
100
AcDbEntity
8
Geo
100
AcDbLine
10
-10.2987857762359
20
9.88745621996593
30
0.000000000000000
11
-10.1987857762359
21
9.81733831032346
31
0.000000000000000
  0
LINE
  5
F1036B
330
F1036C
100
AcDbEntity
8
Geo
100
AcDbLine
10
-10.1987857762359
20
9.81733831032346
30
0.000000000000000
11
-10.0987857762359
21
9.74658271644694
31
0.000000000000000
  0
LINE
  5
F1036D
330
F1036E
100
AcDbEntity
8
Geo
100
AcDbLine
10
-10.0987857762359
20
9.74658271644694
30
0.000000000000000
11
-9.99878577623590
21
9.67520327649363
31
0.000000000000000
  0
LINE
  5
F1036F
330
F10370
100
AcDbEntity
8
Geo
100
AcDbLine
10
-9.99878577623590
20
9.67520327649363
30
0.000000000000000
11
-9.89878577623590
21
9.60321395063067
31
0.000000000000000
  0
LINE
  5
F10371
330
F10372
100
AcDbEntity
8
Geo
100
AcDbLine
10
-9.89878577623590
20
9.60321395063067
30
0.000000000000000
11
-9.79878577623590
21
9.53062881830476
31
0.000000000000000
  0
LINE
  5
F10373
330
F10374
100
AcDbEntity
8
Geo
100
AcDbLine
10
-9.79878577623590
20
9.53062881830476
30
0.000000000000000
11
-9.69878577623589
21
9.45746207548854
31
0.000000000000000
  0
LINE
  5
F10375
330
F10376
100
AcDbEntity
8
Geo
100
AcDbLine
10
-9.69878577623589
20
9.45746207548854
30
0.000000000000000
11
-9.59878577623589
21
9.38372803190424
31
0.000000000000000
  0
LINE
  5
F10377
330
F10378
100
AcDbEntity
8
Geo
100
AcDbLine
10
-9.59878577623589
20
9.38372803190424
30
0.000000000000000
11
-9.49878577623589
21
9.30944110822497
31
0.000000000000000
  0
LINE
  5
F10379
330
F1037A
100
AcDbEntity
8
Geo
100
AcDbLine
10
-9.49878577623589
20
9.30944110822497
30
0.000000000000000
11
-9.39878577623589
21
9.23461583325442
31
0.000000000000000
  0
LINE
  5
F1037B
330
F1037C
100
AcDbEntity
8
Geo
100
AcDbLine
10
-21.3163733771239
20
12.5568083261058
30
0.000000000000000
11
-21.2987857762360
21
12.5567901774831
31
0.000000000000000
  0
LINE
  5
F1037D
330
F1037E
100
AcDbEntity
8
Geo
100
AcDbLine
10
-21.2987857762360
20
12.5567901774831
30
0.000000000000000
11
-21.1987857762360
21
12.5559970721561
31
0.000000000000000
  0
LINE
  5
F1037F
330
F10380
100
AcDbEntity
8
Geo
100
AcDbLine
10
-21.1987857762360
20
12.5559970721561
30
0.000000000000000
11
-21.0987857762360
21
12.5540306642988
31
0.000000000000000
  0
LINE
  5
F10381
330
F10382
100
AcDbEntity
8
Geo
100
AcDbLine
10
-21.0987857762360
20
12.5540306642988
30
0.000000000000000
11
-20.9987857762360
21
12.5508913384952
31
0.000000000000000
  0
LINE
  5
F10383
330
F10384
100
AcDbEntity
8
Geo
100
AcDbLine
10
-20.9987857762360
20
12.5508913384952
30
0.000000000000000
11
-20.8987857762360
21
12.5465797087248
31
0.000000000000000
  0
LINE
  5
F10385
330
F10386
100
AcDbEntity
8
Geo
100
AcDbLine
10
-20.8987857762360
20
12.5465797087248
30
0.000000000000000
11
-20.7987857762360
21
12.5410966182425
31
0.000000000000000
  0
LINE
  5
F10387
330
F10388
100
AcDbEntity
8
Geo
100
AcDbLine
10
-20.7987857762360
20
12.5410966182425
30
0.000000000000000
11
-20.6987857762360
21
12.5344431394140
31
0.000000000000000
  0
LINE
  5
F10389
330
F1038A
100
AcDbEntity
8
Geo
100
AcDbLine
10
-20.6987857762360
20
12.5344431394140
30
0.000000000000000
11
-20.5987857762360
21
12.5266205735059
31
0.000000000000000
  0
LINE
  5
F1038B
330
F1038C
100
AcDbEntity
8
Geo
100
AcDbLine
10
-20.5987857762360
20
12.5266205735059
30
0.000000000000000
11
-20.4987857762360
21
12.5176304504311
31
0.000000000000000
  0
LINE
  5
F1038D
330
F1038E
100
AcDbEntity
8
Geo
100
AcDbLine
10
-20.4987857762360
20
12.5176304504311
30
0.000000000000000
11
-20.3987857762360
21
12.5074745284497
31
0.000000000000000
  0
LINE
  5
F1038F
330
F10390
100
AcDbEntity
8
Geo
100
AcDbLine
10
-20.3987857762360
20
12.5074745284497
30
0.000000000000000
11
-20.2987857762360
21
12.4961547938250
31
0.000000000000000
  0
LINE
  5
F10391
330
F10392
100
AcDbEntity
8
Geo
100
AcDbLine
10
-20.2987857762360
20
12.4961547938250
30
0.000000000000000
11
-20.1987857762360
21
12.4836734604352
31
0.000000000000000
  0
LINE
  5
F10393
330
F10394
100
AcDbEntity
8
Geo
100
AcDbLine
10
-20.1987857762360
20
12.4836734604352
30
0.000000000000000
11
-20.0987857762360
21
12.4700329693406
31
0.000000000000000
  0
LINE
  5
F10395
330
F10396
100
AcDbEntity
8
Geo
100
AcDbLine
10
-20.0987857762360
20
12.4700329693406
30
0.000000000000000
11
-19.9987857762360
21
12.4552359883054
31
0.000000000000000
  0
LINE
  5
F10397
330
F10398
100
AcDbEntity
8
Geo
100
AcDbLine
10
-19.9987857762360
20
12.4552359883054
30
0.000000000000000
11
-19.8987857762360
21
12.4392854112769
31
0.000000000000000
  0
LINE
  5
F10399
330
F1039A
100
AcDbEntity
8
Geo
100
AcDbLine
10
-19.8987857762360
20
12.4392854112769
30
0.000000000000000
11
-19.7987857762360
21
12.4221843578190
31
0.000000000000000
  0
LINE
  5
F1039B
330
F1039C
100
AcDbEntity
8
Geo
100
AcDbLine
10
-19.7987857762360
20
12.4221843578190
30
0.000000000000000
11
-19.6987857762360
21
12.4039361725021
31
0.000000000000000
  0
LINE
  5
F1039D
330
F1039E
100
AcDbEntity
8
Geo
100
AcDbLine
10
-19.6987857762360
20
12.4039361725021
30
0.000000000000000
11
-19.5987857762360
21
12.3845444242490
31
0.000000000000000
  0
LINE
  5
F1039F
330
F103A0
100
AcDbEntity
8
Geo
100
AcDbLine
10
-19.5987857762360
20
12.3845444242490
30
0.000000000000000
11
-19.4987857762360
21
12.3640129056372
31
0.000000000000000
  0
LINE
  5
F103A1
330
F103A2
100
AcDbEntity
8
Geo
100
AcDbLine
10
-19.4987857762360
20
12.3640129056372
30
0.000000000000000
11
-19.3987857762360
21
12.3423456321566
31
0.000000000000000
  0
LINE
  5
F103A3
330
F103A4
100
AcDbEntity
8
Geo
100
AcDbLine
10
-19.3987857762360
20
12.3423456321566
30
0.000000000000000
11
-19.2987857762360
21
12.3195468414247
31
0.000000000000000
  0
LINE
  5
F103A5
330
F103A6
100
AcDbEntity
8
Geo
100
AcDbLine
10
-19.2987857762360
20
12.3195468414247
30
0.000000000000000
11
-19.1987857762360
21
12.2956209923575
31
0.000000000000000
  0
LINE
  5
F103A7
330
F103A8
100
AcDbEntity
8
Geo
100
AcDbLine
10
-19.1987857762360
20
12.2956209923575
30
0.000000000000000
11
-19.0987857762360
21
12.2705727642976
31
0.000000000000000
  0
LINE
  5
F103A9
330
F103AA
100
AcDbEntity
8
Geo
100
AcDbLine
10
-19.0987857762360
20
12.2705727642976
30
0.000000000000000
11
-18.9987857762360
21
12.2444070560989
31
0.000000000000000
  0
LINE
  5
F103AB
330
F103AC
100
AcDbEntity
8
Geo
100
AcDbLine
10
-18.9987857762360
20
12.2444070560989
30
0.000000000000000
11
-18.8987857762360
21
12.2171289851686
31
0.000000000000000
  0
LINE
  5
F103AD
330
F103AE
100
AcDbEntity
8
Geo
100
AcDbLine
10
-18.8987857762360
20
12.2171289851686
30
0.000000000000000
11
-18.7987857762360
21
12.1887438864664
31
0.000000000000000
  0
LINE
  5
F103AF
330
F103B0
100
AcDbEntity
8
Geo
100
AcDbLine
10
-18.7987857762360
20
12.1887438864664
30
0.000000000000000
11
-18.6987857762360
21
12.1592573114607
31
0.000000000000000
  0
LINE
  5
F103B1
330
F103B2
100
AcDbEntity
8
Geo
100
AcDbLine
10
-18.6987857762360
20
12.1592573114607
30
0.000000000000000
11
-18.5987857762360
21
12.1286750270437
31
0.000000000000000
  0
LINE
  5
F103B3
330
F103B4
100
AcDbEntity
8
Geo
100
AcDbLine
10
-18.5987857762360
20
12.1286750270437
30
0.000000000000000
11
-18.4987857762360
21
12.0970030144025
31
0.000000000000000
  0
LINE
  5
F103B5
330
F103B6
100
AcDbEntity
8
Geo
100
AcDbLine
10
-18.4987857762360
20
12.0970030144025
30
0.000000000000000
11
-18.3987857762360
21
12.0642474678501
31
0.000000000000000
  0
LINE
  5
F103B7
330
F103B8
100
AcDbEntity
8
Geo
100
AcDbLine
10
-18.3987857762360
20
12.0642474678501
30
0.000000000000000
11
-18.2987857762360
21
12.0304147936137
31
0.000000000000000
  0
LINE
  5
F103B9
330
F103BA
100
AcDbEntity
8
Geo
100
AcDbLine
10
-18.2987857762360
20
12.0304147936137
30
0.000000000000000
11
-18.1987857762360
21
11.9955116085816
31
0.000000000000000
  0
LINE
  5
F103BB
330
F103BC
100
AcDbEntity
8
Geo
100
AcDbLine
10
-18.1987857762360
20
11.9955116085816
30
0.000000000000000
11
-18.0987857762360
21
11.9595447390094
31
0.000000000000000
  0
LINE
  5
F103BD
330
F103BE
100
AcDbEntity
8
Geo
100
AcDbLine
10
-18.0987857762360
20
11.9595447390094
30
0.000000000000000
11
-17.9987857762360
21
11.9225212191847
31
0.000000000000000
  0
LINE
  5
F103BF
330
F103C0
100
AcDbEntity
8
Geo
100
AcDbLine
10
-17.9987857762360
20
11.9225212191847
30
0.000000000000000
11
-17.8987857762360
21
11.8844482900513
31
0.000000000000000
  0
LINE
  5
F103C1
330
F103C2
100
AcDbEntity
8
Geo
100
AcDbLine
10
-17.8987857762360
20
11.8844482900513
30
0.000000000000000
11
-17.7987857762360
21
11.8453333977936
31
0.000000000000000
  0
LINE
  5
F103C3
330
F103C4
100
AcDbEntity
8
Geo
100
AcDbLine
10
-17.7987857762360
20
11.8453333977936
30
0.000000000000000
11
-17.6987857762360
21
11.8051841923794
31
0.000000000000000
  0
LINE
  5
F103C5
330
F103C6
100
AcDbEntity
8
Geo
100
AcDbLine
10
-17.6987857762360
20
11.8051841923794
30
0.000000000000000
11
-17.5987857762360
21
11.7640085260646
31
0.000000000000000
  0
LINE
  5
F103C7
330
F103C8
100
AcDbEntity
8
Geo
100
AcDbLine
10
-17.5987857762360
20
11.7640085260646
30
0.000000000000000
11
-17.4987857762360
21
11.7218144518568
31
0.000000000000000
  0
LINE
  5
F103C9
330
F103CA
100
AcDbEntity
8
Geo
100
AcDbLine
10
-17.4987857762360
20
11.7218144518568
30
0.000000000000000
11
-17.3987857762360
21
11.6786102219409
31
0.000000000000000
  0
LINE
  5
F103CB
330
F103CC
100
AcDbEntity
8
Geo
100
AcDbLine
10
-17.3987857762360
20
11.6786102219409
30
0.000000000000000
11
-17.2987857762360
21
11.6344042860647
31
0.000000000000000
  0
LINE
  5
F103CD
330
F103CE
100
AcDbEntity
8
Geo
100
AcDbLine
10
-17.2987857762360
20
11.6344042860647
30
0.000000000000000
11
-17.1987857762360
21
11.5892052898865
31
0.000000000000000
  0
LINE
  5
F103CF
330
F103D0
100
AcDbEntity
8
Geo
100
AcDbLine
10
-17.1987857762360
20
11.5892052898865
30
0.000000000000000
11
-17.0987857762360
21
11.5430220732845
31
0.000000000000000
  0
LINE
  5
F103D1
330
F103D2
100
AcDbEntity
8
Geo
100
AcDbLine
10
-17.0987857762360
20
11.5430220732845
30
0.000000000000000
11
-16.9987857762360
21
11.4958636686273
31
0.000000000000000
  0
LINE
  5
F103D3
330
F103D4
100
AcDbEntity
8
Geo
100
AcDbLine
10
-16.9987857762360
20
11.4958636686273
30
0.000000000000000
11
-16.8987857762360
21
11.4477392990079
31
0.000000000000000
  0
LINE
  5
F103D5
330
F103D6
100
AcDbEntity
8
Geo
100
AcDbLine
10
-16.8987857762360
20
11.4477392990079
30
0.000000000000000
11
-16.7987857762360
21
11.3986583764396
31
0.000000000000000
  0
LINE
  5
F103D7
330
F103D8
100
AcDbEntity
8
Geo
100
AcDbLine
10
-16.7987857762360
20
11.3986583764396
30
0.000000000000000
11
-16.6987857762360
21
11.3486305000154
31
0.000000000000000
  0
LINE
  5
F103D9
330
F103DA
100
AcDbEntity
8
Geo
100
AcDbLine
10
-16.6987857762360
20
11.3486305000154
30
0.000000000000000
11
-16.5987857762360
21
11.2976654540307
31
0.000000000000000
  0
LINE
  5
F103DB
330
F103DC
100
AcDbEntity
8
Geo
100
AcDbLine
10
-16.5987857762360
20
11.2976654540307
30
0.000000000000000
11
-16.4987857762360
21
11.2457732060693
31
0.000000000000000
  0
LINE
  5
F103DD
330
F103DE
100
AcDbEntity
8
Geo
100
AcDbLine
10
-16.4987857762360
20
11.2457732060693
30
0.000000000000000
11
-16.3987857762360
21
11.1929639050544
31
0.000000000000000
  0
LINE
  5
F103DF
330
F103E0
100
AcDbEntity
8
Geo
100
AcDbLine
10
-16.3987857762360
20
11.1929639050544
30
0.000000000000000
11
-16.2987857762360
21
11.1392478792636
31
0.000000000000000
  0
LINE
  5
F103E1
330
F103E2
100
AcDbEntity
8
Geo
100
AcDbLine
10
-16.2987857762360
20
11.1392478792636
30
0.000000000000000
11
-16.1987857762360
21
11.0846356343088
31
0.000000000000000
  0
LINE
  5
F103E3
330
F103E4
100
AcDbEntity
8
Geo
100
AcDbLine
10
-16.1987857762360
20
11.0846356343088
30
0.000000000000000
11
-16.0987857762360
21
11.0291378510818
31
0.000000000000000
  0
LINE
  5
F103E5
330
F103E6
100
AcDbEntity
8
Geo
100
AcDbLine
10
-16.0987857762360
20
11.0291378510818
30
0.000000000000000
11
-15.9987857762360
21
10.9727653836650
31
0.000000000000000
  0
LINE
  5
F103E7
330
F103E8
100
AcDbEntity
8
Geo
100
AcDbLine
10
-15.9987857762360
20
10.9727653836650
30
0.000000000000000
11
-15.8987857762360
21
10.9155292572089
31
0.000000000000000
  0
LINE
  5
F103E9
330
F103EA
100
AcDbEntity
8
Geo
100
AcDbLine
10
-15.8987857762360
20
10.9155292572089
30
0.000000000000000
11
-15.7987857762360
21
10.8574406657756
31
0.000000000000000
  0
LINE
  5
F103EB
330
F103EC
100
AcDbEntity
8
Geo
100
AcDbLine
10
-15.7987857762360
20
10.8574406657756
30
0.000000000000000
11
-15.6987857762360
21
10.7985109701499
31
0.000000000000000
  0
LINE
  5
F103ED
330
F103EE
100
AcDbEntity
8
Geo
100
AcDbLine
10
-15.6987857762360
20
10.7985109701499
30
0.000000000000000
11
-15.5987857762360
21
10.7387516956169
31
0.000000000000000
  0
LINE
  5
F103EF
330
F103F0
100
AcDbEntity
8
Geo
100
AcDbLine
10
-15.5987857762360
20
10.7387516956169
30
0.000000000000000
11
-15.4987857762360
21
10.6781745297081
31
0.000000000000000
  0
LINE
  5
F103F1
330
F103F2
100
AcDbEntity
8
Geo
100
AcDbLine
10
-15.4987857762360
20
10.6781745297081
30
0.000000000000000
11
-15.3987857762360
21
10.6167913199158
31
0.000000000000000
  0
LINE
  5
F103F3
330
F103F4
100
AcDbEntity
8
Geo
100
AcDbLine
10
-15.3987857762360
20
10.6167913199158
30
0.000000000000000
11
-15.2987857762360
21
10.5546140713758
31
0.000000000000000
  0
LINE
  5
F103F5
330
F103F6
100
AcDbEntity
8
Geo
100
AcDbLine
10
-15.2987857762360
20
10.5546140713758
30
0.000000000000000
11
-15.1987857762360
21
10.4916549445194
31
0.000000000000000
  0
LINE
  5
F103F7
330
F103F8
100
AcDbEntity
8
Geo
100
AcDbLine
10
-15.1987857762360
20
10.4916549445194
30
0.000000000000000
11
-15.0987857762360
21
10.4279262526953
31
0.000000000000000
  0
LINE
  5
F103F9
330
F103FA
100
AcDbEntity
8
Geo
100
AcDbLine
10
-15.0987857762360
20
10.4279262526953
30
0.000000000000000
11
-14.9987857762360
21
10.3634404597613
31
0.000000000000000
  0
LINE
  5
F103FB
330
F103FC
100
AcDbEntity
8
Geo
100
AcDbLine
10
-14.9987857762360
20
10.3634404597613
30
0.000000000000000
11
-14.8987857762360
21
10.2982101776466
31
0.000000000000000
  0
LINE
  5
F103FD
330
F103FE
100
AcDbEntity
8
Geo
100
AcDbLine
10
-14.8987857762360
20
10.2982101776466
30
0.000000000000000
11
-14.7987857762360
21
10.2322481638855
31
0.000000000000000
  0
LINE
  5
F103FF
330
F10400
100
AcDbEntity
8
Geo
100
AcDbLine
10
-14.7987857762360
20
10.2322481638855
30
0.000000000000000
11
-14.6987857762360
21
10.1655673191216
31
0.000000000000000
  0
LINE
  5
F10401
330
F10402
100
AcDbEntity
8
Geo
100
AcDbLine
10
-14.6987857762360
20
10.1655673191216
30
0.000000000000000
11
-14.5987857762360
21
10.0981806845857
31
0.000000000000000
  0
LINE
  5
F10403
330
F10404
100
AcDbEntity
8
Geo
100
AcDbLine
10
-14.5987857762360
20
10.0981806845857
30
0.000000000000000
11
-14.4987857762360
21
10.0301014395445
31
0.000000000000000
  0
LINE
  5
F10405
330
F10406
100
AcDbEntity
8
Geo
100
AcDbLine
10
-14.4987857762360
20
10.0301014395445
30
0.000000000000000
11
-14.3987857762360
21
9.96134289872342
31
0.000000000000000
  0
LINE
  5
F10407
330
F10408
100
AcDbEntity
8
Geo
100
AcDbLine
10
-14.3987857762360
20
9.96134289872342
30
0.000000000000000
11
-14.2987857762360
21
9.89191850970224
31
0.000000000000000
  0
LINE
  5
F10409
330
F1040A
100
AcDbEntity
8
Geo
100
AcDbLine
10
-14.2987857762360
20
9.89191850970224
30
0.000000000000000
11
-14.1987857762360
21
9.82184185028540
31
0.000000000000000
  0
LINE
  5
F1040B
330
F1040C
100
AcDbEntity
8
Geo
100
AcDbLine
10
-14.1987857762360
20
9.82184185028540
30
0.000000000000000
11
-14.0987857762360
21
9.75112662584627
31
0.000000000000000
  0
LINE
  5
F1040D
330
F1040E
100
AcDbEntity
8
Geo
100
AcDbLine
10
-14.0987857762360
20
9.75112662584627
30
0.000000000000000
11
-13.9987857762360
21
9.67978666664681
31
0.000000000000000
  0
LINE
  5
F1040F
330
F10410
100
AcDbEntity
8
Geo
100
AcDbLine
10
-13.9987857762360
20
9.67978666664681
30
0.000000000000000
11
-13.8987857762360
21
9.60783592513262
31
0.000000000000000
  0
LINE
  5
F10411
330
F10412
100
AcDbEntity
8
Geo
100
AcDbLine
10
-13.8987857762360
20
9.60783592513262
30
0.000000000000000
11
-13.7987857762360
21
9.53528847320417
31
0.000000000000000
  0
LINE
  5
F10413
330
F10414
100
AcDbEntity
8
Geo
100
AcDbLine
10
-13.7987857762360
20
9.53528847320417
30
0.000000000000000
11
-13.6987857762360
21
9.46215849946473
31
0.000000000000000
  0
LINE
  5
F10415
330
F10416
100
AcDbEntity
8
Geo
100
AcDbLine
10
-13.6987857762360
20
9.46215849946473
30
0.000000000000000
11
-13.5987857762359
21
9.38846030644533
31
0.000000000000000
  0
LINE
  5
F10417
330
F10418
100
AcDbEntity
8
Geo
100
AcDbLine
10
-13.5987857762359
20
9.38846030644533
30
0.000000000000000
11
-13.4987857762359
21
9.31420830780754
31
0.000000000000000
  0
LINE
  5
F10419
330
F1041A
100
AcDbEntity
8
Geo
100
AcDbLine
10
-13.4987857762359
20
9.31420830780754
30
0.000000000000000
11
-13.3987857762359
21
9.23941702552452
31
0.000000000000000
  0
LINE
  5
F1041B
330
F1041C
100
AcDbEntity
8
Geo
100
AcDbLine
10
-13.3987857762359
20
9.23941702552452
30
0.000000000000000
11
-13.2987857762359
21
9.16410108704081
31
0.000000000000000
  0
LINE
  5
F1041D
330
F1041E
100
AcDbEntity
8
Geo
100
AcDbLine
10
-13.2987857762359
20
9.16410108704081
30
0.000000000000000
11
-13.1987857762359
21
9.08827522241159
31
0.000000000000000
  0
LINE
  5
F1041F
330
F10420
100
AcDbEntity
8
Geo
100
AcDbLine
10
-13.1987857762359
20
9.08827522241159
30
0.000000000000000
11
-13.0987857762359
21
9.01195426142177
31
0.000000000000000
  0
LINE
  5
F10421
330
F10422
100
AcDbEntity
8
Geo
100
AcDbLine
10
-13.0987857762359
20
9.01195426142177
30
0.000000000000000
11
-12.9987857762359
21
8.93515313068569
31
0.000000000000000
  0
LINE
  5
F10423
330
F10424
100
AcDbEntity
8
Geo
100
AcDbLine
10
-12.9987857762359
20
8.93515313068569
30
0.000000000000000
11
-12.8987857762359
21
8.85788685072774
31
0.000000000000000
  0
LINE
  5
F10425
330
F10426
100
AcDbEntity
8
Geo
100
AcDbLine
10
-12.8987857762359
20
8.85788685072774
30
0.000000000000000
11
-12.7987857762359
21
8.78017053304478
31
0.000000000000000
  0
LINE
  5
F10427
330
F10428
100
AcDbEntity
8
Geo
100
AcDbLine
10
-12.7987857762359
20
8.78017053304478
30
0.000000000000000
11
-12.6987857762359
21
8.70201937715061
31
0.000000000000000
  0
LINE
  5
F10429
330
F1042A
100
AcDbEntity
8
Geo
100
AcDbLine
10
-12.6987857762359
20
8.70201937715061
30
0.000000000000000
11
-12.5987857762359
21
8.62344866760333
31
0.000000000000000
  0
LINE
  5
F1042B
330
F1042C
100
AcDbEntity
8
Geo
100
AcDbLine
10
-12.5987857762359
20
8.62344866760333
30
0.000000000000000
11
-12.4987857762359
21
8.54447377101602
31
0.000000000000000
  0
LINE
  5
F1042D
330
F1042E
100
AcDbEntity
8
Geo
100
AcDbLine
10
-12.4987857762359
20
8.54447377101602
30
0.000000000000000
11
-12.3987857762359
21
8.46511013305143
31
0.000000000000000
  0
LINE
  5
F1042F
330
F10430
100
AcDbEntity
8
Geo
100
AcDbLine
10
-12.3987857762359
20
8.46511013305143
30
0.000000000000000
11
-12.2987857762359
21
8.38537327540108
31
0.000000000000000
  0
LINE
  5
F10431
330
F10432
100
AcDbEntity
8
Geo
100
AcDbLine
10
-12.2987857762359
20
8.38537327540108
30
0.000000000000000
11
-12.1987857762359
21
8.30527879274966
31
0.000000000000000
  0
LINE
  5
F10433
330
F10434
100
AcDbEntity
8
Geo
100
AcDbLine
10
-12.1987857762359
20
8.30527879274966
30
0.000000000000000
11
-12.0987857762359
21
8.22484234972503
31
0.000000000000000
  0
LINE
  5
F10435
330
F10436
100
AcDbEntity
8
Geo
100
AcDbLine
10
-12.0987857762359
20
8.22484234972503
30
0.000000000000000
11
-11.9987857762359
21
8.14407967783458
31
0.000000000000000
  0
LINE
  5
F10437
330
F10438
100
AcDbEntity
8
Geo
100
AcDbLine
10
-11.9987857762359
20
8.14407967783458
30
0.000000000000000
11
-11.8987857762359
21
8.06300657238853
31
0.000000000000000
  0
LINE
  5
F10439
330
F1043A
100
AcDbEntity
8
Geo
100
AcDbLine
10
-11.8987857762359
20
8.06300657238853
30
0.000000000000000
11
-11.7987857762359
21
7.98163888941071
31
0.000000000000000
  0
LINE
  5
F1043B
330
F1043C
100
AcDbEntity
8
Geo
100
AcDbLine
10
-11.7987857762359
20
7.98163888941071
30
0.000000000000000
11
-11.6987857762359
21
7.89999254253752
31
0.000000000000000
  0
LINE
  5
F1043D
330
F1043E
100
AcDbEntity
8
Geo
100
AcDbLine
10
-11.6987857762359
20
7.89999254253752
30
0.000000000000000
11
-11.5987857762359
21
7.81808349990554
31
0.000000000000000
  0
LINE
  5
F1043F
330
F10440
100
AcDbEntity
8
Geo
100
AcDbLine
10
-11.5987857762359
20
7.81808349990554
30
0.000000000000000
11
-11.4987857762359
21
7.73592778102858
31
0.000000000000000
  0
LINE
  5
F10441
330
F10442
100
AcDbEntity
8
Geo
100
AcDbLine
10
-11.4987857762359
20
7.73592778102858
30
0.000000000000000
11
-11.3987857762359
21
7.65354145366464
31
0.000000000000000
  0
LINE
  5
F10443
330
F10444
100
AcDbEntity
8
Geo
100
AcDbLine
10
-11.3987857762359
20
7.65354145366464
30
0.000000000000000
11
-11.2987857762359
21
7.57094063067336
31
0.000000000000000
  0
LINE
  5
F10445
330
F10446
100
AcDbEntity
8
Geo
100
AcDbLine
10
-11.2987857762359
20
7.57094063067336
30
0.000000000000000
11
-11.1987857762359
21
7.48814146686479
31
0.000000000000000
  0
LINE
  5
F10447
330
F10448
100
AcDbEntity
8
Geo
100
AcDbLine
10
-11.1987857762359
20
7.48814146686479
30
0.000000000000000
11
-11.0987857762359
21
7.40516015583986
31
0.000000000000000
  0
LINE
  5
F10449
330
F1044A
100
AcDbEntity
8
Geo
100
AcDbLine
10
-11.0987857762359
20
7.40516015583986
30
0.000000000000000
11
-10.9987857762359
21
7.32201292682326
31
0.000000000000000
  0
LINE
  5
F1044B
330
F1044C
100
AcDbEntity
8
Geo
100
AcDbLine
10
-10.9987857762359
20
7.32201292682326
30
0.000000000000000
11
-10.8987857762359
21
7.23871604148942
31
0.000000000000000
  0
LINE
  5
F1044D
330
F1044E
100
AcDbEntity
8
Geo
100
AcDbLine
10
-10.8987857762359
20
7.23871604148942
30
0.000000000000000
11
-10.7987857762359
21
7.15528579078207
31
0.000000000000000
  0
LINE
  5
F1044F
330
F10450
100
AcDbEntity
8
Geo
100
AcDbLine
10
-10.7987857762359
20
7.15528579078207
30
0.000000000000000
11
-10.6987857762359
21
7.07173849172814
31
0.000000000000000
  0
LINE
  5
F10451
330
F10452
100
AcDbEntity
8
Geo
100
AcDbLine
10
-10.6987857762359
20
7.07173849172814
30
0.000000000000000
11
-10.5987857762359
21
6.98809048424648
31
0.000000000000000
  0
LINE
  5
F10453
330
F10454
100
AcDbEntity
8
Geo
100
AcDbLine
10
-10.5987857762359
20
6.98809048424648
30
0.000000000000000
11
-10.4987857762359
21
6.90435812795220
31
0.000000000000000
  0
LINE
  5
F10455
330
F10456
100
AcDbEntity
8
Geo
100
AcDbLine
10
-10.4987857762359
20
6.90435812795220
30
0.000000000000000
11
-10.3987857762359
21
6.82055779895709
31
0.000000000000000
  0
LINE
  5
F10457
330
F10458
100
AcDbEntity
8
Geo
100
AcDbLine
10
-10.3987857762359
20
6.82055779895709
30
0.000000000000000
11
-10.2987857762359
21
6.73670588666682
31
0.000000000000000
  0
LINE
  5
F10459
330
F1045A
100
AcDbEntity
8
Geo
100
AcDbLine
10
-10.2987857762359
20
6.73670588666682
30
0.000000000000000
11
-10.1987857762359
21
6.65281879057554
31
0.000000000000000
  0
LINE
  5
F1045B
330
F1045C
100
AcDbEntity
8
Geo
100
AcDbLine
10
-10.1987857762359
20
6.65281879057554
30
0.000000000000000
11
-10.0987857762359
21
6.56891291705857
31
0.000000000000000
  0
LINE
  5
F1045D
330
F1045E
100
AcDbEntity
8
Geo
100
AcDbLine
10
-10.0987857762359
20
6.56891291705857
30
0.000000000000000
11
-9.99878577623590
21
6.48500467616365
31
0.000000000000000
  0
LINE
  5
F1045F
330
F10460
100
AcDbEntity
8
Geo
100
AcDbLine
10
-9.99878577623590
20
6.48500467616365
30
0.000000000000000
11
-9.89878577623590
21
6.40111047840151
31
0.000000000000000
  0
LINE
  5
F10461
330
F10462
100
AcDbEntity
8
Geo
100
AcDbLine
10
-9.89878577623590
20
6.40111047840151
30
0.000000000000000
11
-9.79878577623590
21
6.31724673153638
31
0.000000000000000
  0
LINE
  5
F10463
330
F10464
100
AcDbEntity
8
Geo
100
AcDbLine
10
-9.79878577623590
20
6.31724673153638
30
0.000000000000000
11
-9.69878577623589
21
6.23342983737700
31
0.000000000000000
  0
LINE
  5
F10465
330
F10466
100
AcDbEntity
8
Geo
100
AcDbLine
10
-9.69878577623589
20
6.23342983737700
30
0.000000000000000
11
-9.59878577623589
21
6.14967618856881
31
0.000000000000000
  0
LINE
  5
F10467
330
F10468
100
AcDbEntity
8
Geo
100
AcDbLine
10
-9.59878577623589
20
6.14967618856881
30
0.000000000000000
11
-9.49878577623589
21
6.06600216538790
31
0.000000000000000
  0
LINE
  5
F10469
330
F1046A
100
AcDbEntity
8
Geo
100
AcDbLine
10
-9.49878577623589
20
6.06600216538790
30
0.000000000000000
11
-9.39878577623589
21
5.98242413253745
31
0.000000000000000
  0
LINE
  5
F1046B
330
F1046C
100
AcDbEntity
8
Geo
100
AcDbLine
10
-32.2987857762359
20
11.4129554392398
30
0.000000000000000
11
-32.1987857762359
21
11.4844755399658
31
0.000000000000000
  0
LINE
  5
F1046D
330
F1046E
100
AcDbEntity
8
Geo
100
AcDbLine
10
-32.1987857762359
20
11.4844755399658
30
0.000000000000000
11
-32.0987857762359
21
11.5541872804312
31
0.000000000000000
  0
LINE
  5
F1046F
330
F10470
100
AcDbEntity
8
Geo
100
AcDbLine
10
-32.0987857762359
20
11.5541872804312
30
0.000000000000000
11
-31.9987857762359
21
11.5072619183756
31
0.000000000000000
  0
LINE
  5
F10471
330
F10472
100
AcDbEntity
8
Geo
100
AcDbLine
10
-31.9987857762359
20
11.5072619183756
30
0.000000000000000
11
-31.8987857762359
21
11.4593683621238
31
0.000000000000000
  0
LINE
  5
F10473
330
F10474
100
AcDbEntity
8
Geo
100
AcDbLine
10
-31.8987857762359
20
11.4593683621238
30
0.000000000000000
11
-31.7987857762359
21
11.4105159785475
31
0.000000000000000
  0
LINE
  5
F10475
330
F10476
100
AcDbEntity
8
Geo
100
AcDbLine
10
-31.7987857762359
20
11.4105159785475
30
0.000000000000000
11
-31.6987857762359
21
11.3607143220426
31
0.000000000000000
  0
LINE
  5
F10477
330
F10478
100
AcDbEntity
8
Geo
100
AcDbLine
10
-31.6987857762359
20
11.3607143220426
30
0.000000000000000
11
-31.5987857762359
21
11.3099731326611
31
0.000000000000000
  0
LINE
  5
F10479
330
F1047A
100
AcDbEntity
8
Geo
100
AcDbLine
10
-31.5987857762359
20
11.3099731326611
30
0.000000000000000
11
-31.4987857762359
21
11.2583023342057
31
0.000000000000000
  0
LINE
  5
F1047B
330
F1047C
100
AcDbEntity
8
Geo
100
AcDbLine
10
-31.4987857762359
20
11.2583023342057
30
0.000000000000000
11
-31.3987857762359
21
11.2057120322893
31
0.000000000000000
  0
LINE
  5
F1047D
330
F1047E
100
AcDbEntity
8
Geo
100
AcDbLine
10
-31.3987857762359
20
11.2057120322893
30
0.000000000000000
11
-31.2987857762359
21
11.1522125123581
31
0.000000000000000
  0
LINE
  5
F1047F
330
F10480
100
AcDbEntity
8
Geo
100
AcDbLine
10
-31.2987857762359
20
11.1522125123581
30
0.000000000000000
11
-31.1987857762359
21
11.0978142376808
31
0.000000000000000
  0
LINE
  5
F10481
330
F10482
100
AcDbEntity
8
Geo
100
AcDbLine
10
-31.1987857762359
20
11.0978142376808
30
0.000000000000000
11
-31.0987857762359
21
11.0425278473012
31
0.000000000000000
  0
LINE
  5
F10483
330
F10484
100
AcDbEntity
8
Geo
100
AcDbLine
10
-31.0987857762359
20
11.0425278473012
30
0.000000000000000
11
-30.9987857762359
21
10.9863641539583
31
0.000000000000000
  0
LINE
  5
F10485
330
F10486
100
AcDbEntity
8
Geo
100
AcDbLine
10
-30.9987857762359
20
10.9863641539583
30
0.000000000000000
11
-30.8987857762359
21
10.9293341419712
31
0.000000000000000
  0
LINE
  5
F10487
330
F10488
100
AcDbEntity
8
Geo
100
AcDbLine
10
-30.8987857762359
20
10.9293341419712
30
0.000000000000000
11
-30.7987857762359
21
10.8714489650909
31
0.000000000000000
  0
LINE
  5
F10489
330
F1048A
100
AcDbEntity
8
Geo
100
AcDbLine
10
-30.7987857762359
20
10.8714489650909
30
0.000000000000000
11
-30.6987857762359
21
10.8127199443189
31
0.000000000000000
  0
LINE
  5
F1048B
330
F1048C
100
AcDbEntity
8
Geo
100
AcDbLine
10
-30.6987857762359
20
10.8127199443189
30
0.000000000000000
11
-30.5987857762359
21
10.7531585656930
31
0.000000000000000
  0
LINE
  5
F1048D
330
F1048E
100
AcDbEntity
8
Geo
100
AcDbLine
10
-30.5987857762359
20
10.7531585656930
30
0.000000000000000
11
-30.4987857762359
21
10.6927764780408
31
0.000000000000000
  0
LINE
  5
F1048F
330
F10490
100
AcDbEntity
8
Geo
100
AcDbLine
10
-30.4987857762359
20
10.6927764780408
30
0.000000000000000
11
-30.3987857762359
21
10.6315854907018
31
0.000000000000000
  0
LINE
  5
F10491
330
F10492
100
AcDbEntity
8
Geo
100
AcDbLine
10
-30.3987857762359
20
10.6315854907018
30
0.000000000000000
11
-30.2987857762359
21
10.5695975712175
31
0.000000000000000
  0
LINE
  5
F10493
330
F10494
100
AcDbEntity
8
Geo
100
AcDbLine
10
-30.2987857762359
20
10.5695975712175
30
0.000000000000000
11
-30.1987857762359
21
10.5068248429909
31
0.000000000000000
  0
LINE
  5
F10495
330
F10496
100
AcDbEntity
8
Geo
100
AcDbLine
10
-30.1987857762359
20
10.5068248429909
30
0.000000000000000
11
-30.0987857762359
21
10.4432795829154
31
0.000000000000000
  0
LINE
  5
F10497
330
F10498
100
AcDbEntity
8
Geo
100
AcDbLine
10
-30.0987857762359
20
10.4432795829154
30
0.000000000000000
11
-29.9987857762359
21
10.3789742189739
31
0.000000000000000
  0
LINE
  5
F10499
330
F1049A
100
AcDbEntity
8
Geo
100
AcDbLine
10
-29.9987857762359
20
10.3789742189739
30
0.000000000000000
11
-29.8987857762359
21
10.3139213278077
31
0.000000000000000
  0
LINE
  5
F1049B
330
F1049C
100
AcDbEntity
8
Geo
100
AcDbLine
10
-29.8987857762359
20
10.3139213278077
30
0.000000000000000
11
-29.7987857762359
21
10.2481336322575
31
0.000000000000000
  0
LINE
  5
F1049D
330
F1049E
100
AcDbEntity
8
Geo
100
AcDbLine
10
-29.7987857762359
20
10.2481336322575
30
0.000000000000000
11
-29.6987857762359
21
10.1816239988746
31
0.000000000000000
  0
LINE
  5
F1049F
330
F104A0
100
AcDbEntity
8
Geo
100
AcDbLine
10
-29.6987857762359
20
10.1816239988746
30
0.000000000000000
11
-29.5987857762359
21
10.1144054354045
31
0.000000000000000
  0
LINE
  5
F104A1
330
F104A2
100
AcDbEntity
8
Geo
100
AcDbLine
10
-29.5987857762359
20
10.1144054354045
30
0.000000000000000
11
-29.4987857762359
21
10.0464910882432
31
0.000000000000000
  0
LINE
  5
F104A3
330
F104A4
100
AcDbEntity
8
Geo
100
AcDbLine
10
-29.4987857762359
20
10.0464910882432
30
0.000000000000000
11
-29.3987857762359
21
9.97789423986579
31
0.000000000000000
  0
LINE
  5
F104A5
330
F104A6
100
AcDbEntity
8
Geo
100
AcDbLine
10
-29.3987857762359
20
9.97789423986579
30
0.000000000000000
11
-29.2987857762359
21
9.90862830622895
31
0.000000000000000
  0
LINE
  5
F104A7
330
F104A8
100
AcDbEntity
8
Geo
100
AcDbLine
10
-29.2987857762359
20
9.90862830622895
30
0.000000000000000
11
-29.1987857762359
21
9.83870683414681
31
0.000000000000000
  0
LINE
  5
F104A9
330
F104AA
100
AcDbEntity
8
Geo
100
AcDbLine
10
-29.1987857762359
20
9.83870683414681
30
0.000000000000000
11
-29.0987857762359
21
9.76814349864172
31
0.000000000000000
  0
LINE
  5
F104AB
330
F104AC
100
AcDbEntity
8
Geo
100
AcDbLine
10
-29.0987857762359
20
9.76814349864172
30
0.000000000000000
11
-28.9987857762359
21
9.69695210026965
31
0.000000000000000
  0
LINE
  5
F104AD
330
F104AE
100
AcDbEntity
8
Geo
100
AcDbLine
10
-28.9987857762359
20
9.69695210026965
30
0.000000000000000
11
-28.8987857762359
21
9.62514656242114
31
0.000000000000000
  0
LINE
  5
F104AF
330
F104B0
100
AcDbEntity
8
Geo
100
AcDbLine
10
-28.8987857762359
20
9.62514656242114
30
0.000000000000000
11
-28.7987857762359
21
9.55274092859820
31
0.000000000000000
  0
LINE
  5
F104B1
330
F104B2
100
AcDbEntity
8
Geo
100
AcDbLine
10
-28.7987857762359
20
9.55274092859820
30
0.000000000000000
11
-28.6987857762359
21
9.47974935966775
31
0.000000000000000
  0
LINE
  5
F104B3
330
F104B4
100
AcDbEntity
8
Geo
100
AcDbLine
10
-28.6987857762359
20
9.47974935966775
30
0.000000000000000
11
-28.5987857762359
21
9.40618613109203
31
0.000000000000000
  0
LINE
  5
F104B5
330
F104B6
100
AcDbEntity
8
Geo
100
AcDbLine
10
-28.5987857762359
20
9.40618613109203
30
0.000000000000000
11
-28.4987857762359
21
9.33206563013671
31
0.000000000000000
  0
LINE
  5
F104B7
330
F104B8
100
AcDbEntity
8
Geo
100
AcDbLine
10
-28.4987857762359
20
9.33206563013671
30
0.000000000000000
11
-28.3987857762359
21
9.25740235305702
31
0.000000000000000
  0
LINE
  5
F104B9
330
F104BA
100
AcDbEntity
8
Geo
100
AcDbLine
10
-28.3987857762359
20
9.25740235305702
30
0.000000000000000
11
-28.2987857762359
21
9.18221090226267
31
0.000000000000000
  0
LINE
  5
F104BB
330
F104BC
100
AcDbEntity
8
Geo
100
AcDbLine
10
-28.2987857762359
20
9.18221090226267
30
0.000000000000000
11
-28.1987857762359
21
9.10650598346191
31
0.000000000000000
  0
LINE
  5
F104BD
330
F104BE
100
AcDbEntity
8
Geo
100
AcDbLine
10
-28.1987857762359
20
9.10650598346191
30
0.000000000000000
11
-28.0987857762359
21
9.03030240278546
31
0.000000000000000
  0
LINE
  5
F104BF
330
F104C0
100
AcDbEntity
8
Geo
100
AcDbLine
10
-28.0987857762359
20
9.03030240278546
30
0.000000000000000
11
-27.9987857762359
21
8.95361506389076
31
0.000000000000000
  0
LINE
  5
F104C1
330
F104C2
100
AcDbEntity
8
Geo
100
AcDbLine
10
-27.9987857762359
20
8.95361506389076
30
0.000000000000000
11
-27.8987857762359
21
8.87645896504718
31
0.000000000000000
  0
LINE
  5
F104C3
330
F104C4
100
AcDbEntity
8
Geo
100
AcDbLine
10
-27.8987857762359
20
8.87645896504718
30
0.000000000000000
11
-27.7987857762359
21
8.79884919620267
31
0.000000000000000
  0
LINE
  5
F104C5
330
F104C6
100
AcDbEntity
8
Geo
100
AcDbLine
10
-27.7987857762359
20
8.79884919620267
30
0.000000000000000
11
-27.6987857762359
21
8.72080093603256
31
0.000000000000000
  0
LINE
  5
F104C7
330
F104C8
100
AcDbEntity
8
Geo
100
AcDbLine
10
-27.6987857762359
20
8.72080093603256
30
0.000000000000000
11
-27.5987857762359
21
8.64232944897093
31
0.000000000000000
  0
LINE
  5
F104C9
330
F104CA
100
AcDbEntity
8
Geo
100
AcDbLine
10
-27.5987857762359
20
8.64232944897093
30
0.000000000000000
11
-27.4987857762359
21
8.56345008222524
31
0.000000000000000
  0
LINE
  5
F104CB
330
F104CC
100
AcDbEntity
8
Geo
100
AcDbLine
10
-27.4987857762359
20
8.56345008222524
30
0.000000000000000
11
-27.3987857762359
21
8.48417826277479
31
0.000000000000000
  0
LINE
  5
F104CD
330
F104CE
100
AcDbEntity
8
Geo
100
AcDbLine
10
-27.3987857762359
20
8.48417826277479
30
0.000000000000000
11
-27.2987857762359
21
8.40452949435354
31
0.000000000000000
  0
LINE
  5
F104CF
330
F104D0
100
AcDbEntity
8
Geo
100
AcDbLine
10
-27.2987857762359
20
8.40452949435354
30
0.000000000000000
11
-27.1987857762359
21
8.32451935441798
31
0.000000000000000
  0
LINE
  5
F104D1
330
F104D2
100
AcDbEntity
8
Geo
100
AcDbLine
10
-27.1987857762359
20
8.32451935441798
30
0.000000000000000
11
-27.0987857762359
21
8.24416349110045
31
0.000000000000000
  0
LINE
  5
F104D3
330
F104D4
100
AcDbEntity
8
Geo
100
AcDbLine
10
-27.0987857762359
20
8.24416349110045
30
0.000000000000000
11
-26.9987857762359
21
8.16347762014885
31
0.000000000000000
  0
LINE
  5
F104D5
330
F104D6
100
AcDbEntity
8
Geo
100
AcDbLine
10
-26.9987857762359
20
8.16347762014885
30
0.000000000000000
11
-26.8987857762359
21
8.08247752185289
31
0.000000000000000
  0
LINE
  5
F104D7
330
F104D8
100
AcDbEntity
8
Geo
100
AcDbLine
10
-26.8987857762359
20
8.08247752185289
30
0.000000000000000
11
-26.7987857762359
21
8.00117903795789
31
0.000000000000000
  0
LINE
  5
F104D9
330
F104DA
100
AcDbEntity
8
Geo
100
AcDbLine
10
-26.7987857762359
20
8.00117903795789
30
0.000000000000000
11
-26.6987857762360
21
7.91959806856651
31
0.000000000000000
  0
LINE
  5
F104DB
330
F104DC
100
AcDbEntity
8
Geo
100
AcDbLine
10
-26.6987857762360
20
7.91959806856651
30
0.000000000000000
11
-26.5987857762359
21
7.83775056902903
31
0.000000000000000
  0
LINE
  5
F104DD
330
F104DE
100
AcDbEntity
8
Geo
100
AcDbLine
10
-26.5987857762359
20
7.83775056902903
30
0.000000000000000
11
-26.4987857762359
21
7.75565254682284
31
0.000000000000000
  0
LINE
  5
F104DF
330
F104E0
100
AcDbEntity
8
Geo
100
AcDbLine
10
-26.4987857762359
20
7.75565254682284
30
0.000000000000000
11
-26.3987857762360
21
7.67332005842179
31
0.000000000000000
  0
LINE
  5
F104E1
330
F104E2
100
AcDbEntity
8
Geo
100
AcDbLine
10
-26.3987857762360
20
7.67332005842179
30
0.000000000000000
11
-26.2987857762360
21
7.59076920615589
31
0.000000000000000
  0
LINE
  5
F104E3
330
F104E4
100
AcDbEntity
8
Geo
100
AcDbLine
10
-26.2987857762360
20
7.59076920615589
30
0.000000000000000
11
-26.1987857762360
21
7.50801613506206
31
0.000000000000000
  0
LINE
  5
F104E5
330
F104E6
100
AcDbEntity
8
Geo
100
AcDbLine
10
-26.1987857762360
20
7.50801613506206
30
0.000000000000000
11
-26.0987857762359
21
7.42507702972655
31
0.000000000000000
  0
LINE
  5
F104E7
330
F104E8
100
AcDbEntity
8
Geo
100
AcDbLine
10
-26.0987857762359
20
7.42507702972655
30
0.000000000000000
11
-25.9987857762360
21
7.34196811111961
31
0.000000000000000
  0
LINE
  5
F104E9
330
F104EA
100
AcDbEntity
8
Geo
100
AcDbLine
10
-25.9987857762360
20
7.34196811111961
30
0.000000000000000
11
-25.8987857762360
21
7.25870563342304
31
0.000000000000000
  0
LINE
  5
F104EB
330
F104EC
100
AcDbEntity
8
Geo
100
AcDbLine
10
-25.8987857762360
20
7.25870563342304
30
0.000000000000000
11
-25.7987857762360
21
7.17530588085123
31
0.000000000000000
  0
LINE
  5
F104ED
330
F104EE
100
AcDbEntity
8
Geo
100
AcDbLine
10
-25.7987857762360
20
7.17530588085123
30
0.000000000000000
11
-25.6987857762360
21
7.09178516446637
31
0.000000000000000
  0
LINE
  5
F104EF
330
F104F0
100
AcDbEntity
8
Geo
100
AcDbLine
10
-25.6987857762360
20
7.09178516446637
30
0.000000000000000
11
-25.5987857762360
21
7.00815981898837
31
0.000000000000000
  0
LINE
  5
F104F1
330
F104F2
100
AcDbEntity
8
Geo
100
AcDbLine
10
-25.5987857762360
20
7.00815981898837
30
0.000000000000000
11
-25.4987857762360
21
6.92444619960017
31
0.000000000000000
  0
LINE
  5
F104F3
330
F104F4
100
AcDbEntity
8
Geo
100
AcDbLine
10
-25.4987857762360
20
6.92444619960017
30
0.000000000000000
11
-25.3987857762360
21
6.84066067874905
31
0.000000000000000
  0
LINE
  5
F104F5
330
F104F6
100
AcDbEntity
8
Geo
100
AcDbLine
10
-25.3987857762360
20
6.84066067874905
30
0.000000000000000
11
-25.2987857762360
21
6.75681964294455
31
0.000000000000000
  0
LINE
  5
F104F7
330
F104F8
100
AcDbEntity
8
Geo
100
AcDbLine
10
-25.2987857762360
20
6.75681964294455
30
0.000000000000000
11
-25.1987857762360
21
6.67293948955364
31
0.000000000000000
  0
LINE
  5
F104F9
330
F104FA
100
AcDbEntity
8
Geo
100
AcDbLine
10
-25.1987857762360
20
6.67293948955364
30
0.000000000000000
11
-25.0987857762360
21
6.58903662359381
31
0.000000000000000
  0
LINE
  5
F104FB
330
F104FC
100
AcDbEntity
8
Geo
100
AcDbLine
10
-25.0987857762360
20
6.58903662359381
30
0.000000000000000
11
-24.9987857762360
21
6.50512745452457
31
0.000000000000000
  0
LINE
  5
F104FD
330
F104FE
100
AcDbEntity
8
Geo
100
AcDbLine
10
-24.9987857762360
20
6.50512745452457
30
0.000000000000000
11
-24.8987857762360
21
6.42122839303820
31
0.000000000000000
  0
LINE
  5
F104FF
330
F10500
100
AcDbEntity
8
Geo
100
AcDbLine
10
-24.8987857762360
20
6.42122839303820
30
0.000000000000000
11
-24.7987857762360
21
6.33735584785016
31
0.000000000000000
  0
LINE
  5
F10501
330
F10502
100
AcDbEntity
8
Geo
100
AcDbLine
10
-24.7987857762360
20
6.33735584785016
30
0.000000000000000
11
-24.6987857762360
21
6.25352622248993
31
0.000000000000000
  0
LINE
  5
F10503
330
F10504
100
AcDbEntity
8
Geo
100
AcDbLine
10
-24.6987857762360
20
6.25352622248993
30
0.000000000000000
11
-24.5987857762360
21
6.16975591209288
31
0.000000000000000
  0
LINE
  5
F10505
330
F10506
100
AcDbEntity
8
Geo
100
AcDbLine
10
-24.5987857762360
20
6.16975591209288
30
0.000000000000000
11
-24.4987857762360
21
6.08606130019373
31
0.000000000000000
  0
LINE
  5
F10507
330
F10508
100
AcDbEntity
8
Geo
100
AcDbLine
10
-24.4987857762360
20
6.08606130019373
30
0.000000000000000
11
-24.3987857762360
21
6.00245875552233
31
0.000000000000000
  0
LINE
  5
F10509
330
F1050A
100
AcDbEntity
8
Geo
100
AcDbLine
10
-24.3987857762360
20
6.00245875552233
30
0.000000000000000
11
-24.2987857762360
21
5.91896462880231
31
0.000000000000000
  0
LINE
  5
F1050B
330
F1050C
100
AcDbEntity
8
Geo
100
AcDbLine
10
-24.2987857762360
20
5.91896462880231
30
0.000000000000000
11
-24.1987857762360
21
5.83559524955326
31
0.000000000000000
  0
LINE
  5
F1050D
330
F1050E
100
AcDbEntity
8
Geo
100
AcDbLine
10
-24.1987857762360
20
5.83559524955326
30
0.000000000000000
11
-24.0987857762360
21
5.75236692289706
31
0.000000000000000
  0
LINE
  5
F1050F
330
F10510
100
AcDbEntity
8
Geo
100
AcDbLine
10
-24.0987857762360
20
5.75236692289706
30
0.000000000000000
11
-23.9987857762360
21
5.66929592636894
31
0.000000000000000
  0
LINE
  5
F10511
330
F10512
100
AcDbEntity
8
Geo
100
AcDbLine
10
-23.9987857762360
20
5.66929592636894
30
0.000000000000000
11
-23.8987857762360
21
5.58639850673401
31
0.000000000000000
  0
LINE
  5
F10513
330
F10514
100
AcDbEntity
8
Geo
100
AcDbLine
10
-23.8987857762360
20
5.58639850673401
30
0.000000000000000
11
-23.7987857762360
21
5.50369087680977
31
0.000000000000000
  0
LINE
  5
F10515
330
F10516
100
AcDbEntity
8
Geo
100
AcDbLine
10
-23.7987857762360
20
5.50369087680977
30
0.000000000000000
11
-23.6987857762360
21
5.42118921229522
31
0.000000000000000
  0
LINE
  5
F10517
330
F10518
100
AcDbEntity
8
Geo
100
AcDbLine
10
-23.6987857762360
20
5.42118921229522
30
0.000000000000000
11
-23.5987857762360
21
5.33890964860730
31
0.000000000000000
  0
LINE
  5
F10519
330
F1051A
100
AcDbEntity
8
Geo
100
AcDbLine
10
-23.5987857762360
20
5.33890964860730
30
0.000000000000000
11
-23.4987857762360
21
5.25686827772517
31
0.000000000000000
  0
LINE
  5
F1051B
330
F1051C
100
AcDbEntity
8
Geo
100
AcDbLine
10
-23.4987857762360
20
5.25686827772517
30
0.000000000000000
11
-23.3987857762360
21
5.17508114504299
31
0.000000000000000
  0
LINE
  5
F1051D
330
F1051E
100
AcDbEntity
8
Geo
100
AcDbLine
10
-23.3987857762360
20
5.17508114504299
30
0.000000000000000
11
-23.2987857762360
21
5.09356424623180
31
0.000000000000000
  0
LINE
  5
F1051F
330
F10520
100
AcDbEntity
8
Geo
100
AcDbLine
10
-23.2987857762360
20
5.09356424623180
30
0.000000000000000
11
-23.1987857762360
21
5.01233352411115
31
0.000000000000000
  0
LINE
  5
F10521
330
F10522
100
AcDbEntity
8
Geo
100
AcDbLine
10
-23.1987857762360
20
5.01233352411115
30
0.000000000000000
11
-23.0987857762360
21
4.93140486553106
31
0.000000000000000
  0
LINE
  5
F10523
330
F10524
100
AcDbEntity
8
Geo
100
AcDbLine
10
-23.0987857762360
20
4.93140486553106
30
0.000000000000000
11
-22.9987857762360
21
4.85079409826489
31
0.000000000000000
  0
LINE
  5
F10525
330
F10526
100
AcDbEntity
8
Geo
100
AcDbLine
10
-22.9987857762360
20
4.85079409826489
30
0.000000000000000
11
-22.8987857762360
21
4.77051698791382
31
0.000000000000000
  0
LINE
  5
F10527
330
F10528
100
AcDbEntity
8
Geo
100
AcDbLine
10
-22.8987857762360
20
4.77051698791382
30
0.000000000000000
11
-22.7987857762360
21
4.69058923482348
31
0.000000000000000
  0
LINE
  5
F10529
330
F1052A
100
AcDbEntity
8
Geo
100
AcDbLine
10
-22.7987857762360
20
4.69058923482348
30
0.000000000000000
11
-22.6987857762360
21
4.61102647101327
31
0.000000000000000
  0
LINE
  5
F1052B
330
F1052C
100
AcDbEntity
8
Geo
100
AcDbLine
10
-22.6987857762360
20
4.61102647101327
30
0.000000000000000
11
-22.5987857762360
21
4.53184425711914
31
0.000000000000000
  0
LINE
  5
F1052D
330
F1052E
100
AcDbEntity
8
Geo
100
AcDbLine
10
-22.5987857762360
20
4.53184425711914
30
0.000000000000000
11
-22.4987857762360
21
4.45305807935029
31
0.000000000000000
  0
LINE
  5
F1052F
330
F10530
100
AcDbEntity
8
Geo
100
AcDbLine
10
-22.4987857762360
20
4.45305807935029
30
0.000000000000000
11
-22.3987857762360
21
4.37468334646041
31
0.000000000000000
  0
LINE
  5
F10531
330
F10532
100
AcDbEntity
8
Geo
100
AcDbLine
10
-22.3987857762360
20
4.37468334646041
30
0.000000000000000
11
-22.2987857762360
21
4.29673538673408
31
0.000000000000000
  0
LINE
  5
F10533
330
F10534
100
AcDbEntity
8
Geo
100
AcDbLine
10
-22.2987857762360
20
4.29673538673408
30
0.000000000000000
11
-22.1987857762360
21
4.21922944498894
31
0.000000000000000
  0
LINE
  5
F10535
330
F10536
100
AcDbEntity
8
Geo
100
AcDbLine
10
-22.1987857762360
20
4.21922944498894
30
0.000000000000000
11
-22.0987857762360
21
4.14218067959414
31
0.000000000000000
  0
LINE
  5
F10537
330
F10538
100
AcDbEntity
8
Geo
100
AcDbLine
10
-22.0987857762360
20
4.14218067959414
30
0.000000000000000
11
-21.9987857762360
21
4.06560415950568
31
0.000000000000000
  0
LINE
  5
F10539
330
F1053A
100
AcDbEntity
8
Geo
100
AcDbLine
10
-21.9987857762360
20
4.06560415950568
30
0.000000000000000
11
-21.8987857762360
21
3.98951486131935
31
0.000000000000000
  0
LINE
  5
F1053B
330
F1053C
100
AcDbEntity
8
Geo
100
AcDbLine
10
-21.8987857762360
20
3.98951486131935
30
0.000000000000000
11
-21.7987857762360
21
3.91392766634157
31
0.000000000000000
  0
LINE
  5
F1053D
330
F1053E
100
AcDbEntity
8
Geo
100
AcDbLine
10
-21.7987857762360
20
3.91392766634157
30
0.000000000000000
11
-21.6987857762360
21
3.83885735767901
31
0.000000000000000
  0
LINE
  5
F1053F
330
F10540
100
AcDbEntity
8
Geo
100
AcDbLine
10
-21.6987857762360
20
3.83885735767901
30
0.000000000000000
11
-21.5987857762360
21
3.76431861734732
31
0.000000000000000
  0
LINE
  5
F10541
330
F10542
100
AcDbEntity
8
Geo
100
AcDbLine
10
-21.5987857762360
20
3.76431861734732
30
0.000000000000000
11
-21.4987857762360
21
3.69032602339970
31
0.000000000000000
  0
LINE
  5
F10543
330
F10544
100
AcDbEntity
8
Geo
100
AcDbLine
10
-21.4987857762360
20
3.69032602339970
30
0.000000000000000
11
-21.3987857762360
21
3.61689404707573
31
0.000000000000000
  0
LINE
  5
F10545
330
F10546
100
AcDbEntity
8
Geo
100
AcDbLine
10
-21.3987857762360
20
3.61689404707573
30
0.000000000000000
11
-21.2987857762360
21
3.54403704997117
31
0.000000000000000
  0
LINE
  5
F10547
330
F10548
100
AcDbEntity
8
Geo
100
AcDbLine
10
-21.2987857762360
20
3.54403704997117
30
0.000000000000000
11
-21.1987857762360
21
3.47176928122913
31
0.000000000000000
  0
LINE
  5
F10549
330
F1054A
100
AcDbEntity
8
Geo
100
AcDbLine
10
-21.1987857762360
20
3.47176928122913
30
0.000000000000000
11
-21.0987857762360
21
3.40010487475331
31
0.000000000000000
  0
LINE
  5
F1054B
330
F1054C
100
AcDbEntity
8
Geo
100
AcDbLine
10
-21.0987857762360
20
3.40010487475331
30
0.000000000000000
11
-20.9987857762360
21
3.32905784644369
31
0.000000000000000
  0
LINE
  5
F1054D
330
F1054E
100
AcDbEntity
8
Geo
100
AcDbLine
10
-20.9987857762360
20
3.32905784644369
30
0.000000000000000
11
-20.8987857762360
21
3.25864209145536
31
0.000000000000000
  0
LINE
  5
F1054F
330
F10550
100
AcDbEntity
8
Geo
100
AcDbLine
10
-20.8987857762360
20
3.25864209145536
30
0.000000000000000
11
-20.7987857762360
21
3.18887138148096
31
0.000000000000000
  0
LINE
  5
F10551
330
F10552
100
AcDbEntity
8
Geo
100
AcDbLine
10
-20.7987857762360
20
3.18887138148096
30
0.000000000000000
11
-20.6987857762360
21
3.11975936205726
31
0.000000000000000
  0
LINE
  5
F10553
330
F10554
100
AcDbEntity
8
Geo
100
AcDbLine
10
-20.6987857762360
20
3.11975936205726
30
0.000000000000000
11
-20.5987857762360
21
3.05131954989637
31
0.000000000000000
  0
LINE
  5
F10555
330
F10556
100
AcDbEntity
8
Geo
100
AcDbLine
10
-20.5987857762360
20
3.05131954989637
30
0.000000000000000
11
-20.4987857762360
21
2.98356533024223
31
0.000000000000000
  0
LINE
  5
F10557
330
F10558
100
AcDbEntity
8
Geo
100
AcDbLine
10
-20.4987857762360
20
2.98356533024223
30
0.000000000000000
11
-20.3987857762360
21
2.91650995425274
31
0.000000000000000
  0
LINE
  5
F10559
330
F1055A
100
AcDbEntity
8
Geo
100
AcDbLine
10
-20.3987857762360
20
2.91650995425274
30
0.000000000000000
11
-20.2987857762360
21
2.85016653640815
31
0.000000000000000
  0
LINE
  5
F1055B
330
F1055C
100
AcDbEntity
8
Geo
100
AcDbLine
10
-20.2987857762360
20
2.85016653640815
30
0.000000000000000
11
-20.1987857762360
21
2.78454805194616
31
0.000000000000000
  0
LINE
  5
F1055D
330
F1055E
100
AcDbEntity
8
Geo
100
AcDbLine
10
-20.1987857762360
20
2.78454805194616
30
0.000000000000000
11
-20.0987857762360
21
2.71966733432429
31
0.000000000000000
  0
LINE
  5
F1055F
330
F10560
100
AcDbEntity
8
Geo
100
AcDbLine
10
-20.0987857762360
20
2.71966733432429
30
0.000000000000000
11
-19.9987857762360
21
2.65553707270991
31
0.000000000000000
  0
LINE
  5
F10561
330
F10562
100
AcDbEntity
8
Geo
100
AcDbLine
10
-19.9987857762360
20
2.65553707270991
30
0.000000000000000
11
-19.8987857762360
21
2.59216980949858
31
0.000000000000000
  0
LINE
  5
F10563
330
F10564
100
AcDbEntity
8
Geo
100
AcDbLine
10
-19.8987857762360
20
2.59216980949858
30
0.000000000000000
11
-19.7987857762360
21
2.52957793786099
31
0.000000000000000
  0
LINE
  5
F10565
330
F10566
100
AcDbEntity
8
Geo
100
AcDbLine
10
-19.7987857762360
20
2.52957793786099
30
0.000000000000000
11
-19.6987857762360
21
2.46777369931922
31
0.000000000000000
  0
LINE
  5
F10567
330
F10568
100
AcDbEntity
8
Geo
100
AcDbLine
10
-19.6987857762360
20
2.46777369931922
30
0.000000000000000
11
-19.5987857762360
21
2.40676918135250
31
0.000000000000000
  0
LINE
  5
F10569
330
F1056A
100
AcDbEntity
8
Geo
100
AcDbLine
10
-19.5987857762360
20
2.40676918135250
30
0.000000000000000
11
-19.4987857762360
21
2.34657631503325
31
0.000000000000000
  0
LINE
  5
F1056B
330
F1056C
100
AcDbEntity
8
Geo
100
AcDbLine
10
-19.4987857762360
20
2.34657631503325
30
0.000000000000000
11
-19.3987857762360
21
2.28720687269357
31
0.000000000000000
  0
LINE
  5
F1056D
330
F1056E
100
AcDbEntity
8
Geo
100
AcDbLine
10
-19.3987857762360
20
2.28720687269357
30
0.000000000000000
11
-19.2987857762360
21
2.22867246562290
31
0.000000000000000
  0
LINE
  5
F1056F
330
F10570
100
AcDbEntity
8
Geo
100
AcDbLine
10
-19.2987857762360
20
2.22867246562290
30
0.000000000000000
11
-19.1987857762360
21
2.17098454179711
31
0.000000000000000
  0
LINE
  5
F10571
330
F10572
100
AcDbEntity
8
Geo
100
AcDbLine
10
-19.1987857762360
20
2.17098454179711
30
0.000000000000000
11
-19.0987857762360
21
2.11415438363950
31
0.000000000000000
  0
LINE
  5
F10573
330
F10574
100
AcDbEntity
8
Geo
100
AcDbLine
10
-19.0987857762360
20
2.11415438363950
30
0.000000000000000
11
-18.9987857762360
21
2.05819310581428
31
0.000000000000000
  0
LINE
  5
F10575
330
F10576
100
AcDbEntity
8
Geo
100
AcDbLine
10
-18.9987857762360
20
2.05819310581428
30
0.000000000000000
11
-18.8987857762360
21
2.00311165305274
31
0.000000000000000
  0
LINE
  5
F10577
330
F10578
100
AcDbEntity
8
Geo
100
AcDbLine
10
-18.8987857762360
20
2.00311165305274
30
0.000000000000000
11
-18.7987857762360
21
1.94892079801277
31
0.000000000000000
  0
LINE
  5
F10579
330
F1057A
100
AcDbEntity
8
Geo
100
AcDbLine
10
-18.7987857762360
20
1.94892079801277
30
0.000000000000000
11
-18.6987857762360
21
1.89563113917192
31
0.000000000000000
  0
LINE
  5
F1057B
330
F1057C
100
AcDbEntity
8
Geo
100
AcDbLine
10
-18.6987857762360
20
1.89563113917192
30
0.000000000000000
11
-18.5987857762360
21
1.84325309875464
31
0.000000000000000
  0
LINE
  5
F1057D
330
F1057E
100
AcDbEntity
8
Geo
100
AcDbLine
10
-18.5987857762360
20
1.84325309875464
30
0.000000000000000
11
-18.4987857762360
21
1.79179692069389
31
0.000000000000000
  0
LINE
  5
F1057F
330
F10580
100
AcDbEntity
8
Geo
100
AcDbLine
10
-18.4987857762360
20
1.79179692069389
30
0.000000000000000
11
-18.3987857762360
21
1.74127266862768
31
0.000000000000000
  0
LINE
  5
F10581
330
F10582
100
AcDbEntity
8
Geo
100
AcDbLine
10
-18.3987857762360
20
1.74127266862768
30
0.000000000000000
11
-18.2987857762360
21
1.69169022393087
31
0.000000000000000
  0
LINE
  5
F10583
330
F10584
100
AcDbEntity
8
Geo
100
AcDbLine
10
-18.2987857762360
20
1.69169022393087
30
0.000000000000000
11
-18.1987857762360
21
1.64305928378256
31
0.000000000000000
  0
LINE
  5
F10585
330
F10586
100
AcDbEntity
8
Geo
100
AcDbLine
10
-18.1987857762360
20
1.64305928378256
30
0.000000000000000
11
-18.0987857762360
21
1.59538935926959
31
0.000000000000000
  0
LINE
  5
F10587
330
F10588
100
AcDbEntity
8
Geo
100
AcDbLine
10
-18.0987857762360
20
1.59538935926959
30
0.000000000000000
11
-17.9987857762360
21
1.54868977352639
31
0.000000000000000
  0
LINE
  5
F10589
330
F1058A
100
AcDbEntity
8
Geo
100
AcDbLine
10
-17.9987857762360
20
1.54868977352639
30
0.000000000000000
11
-17.8987857762360
21
1.50296965991154
31
0.000000000000000
  0
LINE
  5
F1058B
330
F1058C
100
AcDbEntity
8
Geo
100
AcDbLine
10
-17.8987857762360
20
1.50296965991154
30
0.000000000000000
11
-17.7987857762360
21
1.45823796022156
31
0.000000000000000
  0
LINE
  5
F1058D
330
F1058E
100
AcDbEntity
8
Geo
100
AcDbLine
10
-17.7987857762360
20
1.45823796022156
30
0.000000000000000
11
-17.6987857762360
21
1.41450342294206
31
0.000000000000000
  0
LINE
  5
F1058F
330
F10590
100
AcDbEntity
8
Geo
100
AcDbLine
10
-17.6987857762360
20
1.41450342294206
30
0.000000000000000
11
-17.5987857762360
21
1.37177460153674
31
0.000000000000000
  0
LINE
  5
F10591
330
F10592
100
AcDbEntity
8
Geo
100
AcDbLine
10
-17.5987857762360
20
1.37177460153674
30
0.000000000000000
11
-17.4987857762360
21
1.33005985277458
31
0.000000000000000
  0
LINE
  5
F10593
330
F10594
100
AcDbEntity
8
Geo
100
AcDbLine
10
-17.4987857762360
20
1.33005985277458
30
0.000000000000000
11
-17.3987857762360
21
1.28936733509536
31
0.000000000000000
  0
LINE
  5
F10595
330
F10596
100
AcDbEntity
8
Geo
100
AcDbLine
10
-17.3987857762360
20
1.28936733509536
30
0.000000000000000
11
-17.2987857762360
21
1.24970500701415
31
0.000000000000000
  0
LINE
  5
F10597
330
F10598
100
AcDbEntity
8
Geo
100
AcDbLine
10
-17.2987857762360
20
1.24970500701415
30
0.000000000000000
11
-17.1987857762360
21
1.21108062556476
31
0.000000000000000
  0
LINE
  5
F10599
330
F1059A
100
AcDbEntity
8
Geo
100
AcDbLine
10
-17.1987857762360
20
1.21108062556476
30
0.000000000000000
11
-17.0987857762360
21
1.17350174478263
31
0.000000000000000
  0
LINE
  5
F1059B
330
F1059C
100
AcDbEntity
8
Geo
100
AcDbLine
10
-17.0987857762360
20
1.17350174478263
30
0.000000000000000
11
-16.9987857762360
21
1.13697571422747
31
0.000000000000000
  0
LINE
  5
F1059D
330
F1059E
100
AcDbEntity
8
Geo
100
AcDbLine
10
-16.9987857762360
20
1.13697571422747
30
0.000000000000000
11
-16.8987857762360
21
1.10150967754586
31
0.000000000000000
  0
LINE
  5
F1059F
330
F105A0
100
AcDbEntity
8
Geo
100
AcDbLine
10
-16.8987857762360
20
1.10150967754586
30
0.000000000000000
11
-16.7987857762360
21
1.06711057107406
31
0.000000000000000
  0
LINE
  5
F105A1
330
F105A2
100
AcDbEntity
8
Geo
100
AcDbLine
10
-16.7987857762360
20
1.06711057107406
30
0.000000000000000
11
-16.6987857762360
21
1.03378512248151
31
0.000000000000000
  0
LINE
  5
F105A3
330
F105A4
100
AcDbEntity
8
Geo
100
AcDbLine
10
-16.6987857762360
20
1.03378512248151
30
0.000000000000000
11
-16.5987857762360
21
1.00153984945498
31
0.000000000000000
  0
LINE
  5
F105A5
330
F105A6
100
AcDbEntity
8
Geo
100
AcDbLine
10
-16.5987857762360
20
1.00153984945498
30
0.000000000000000
11
-16.4987857762360
21
0.970381058423889
31
0.000000000000000
  0
LINE
  5
F105A7
330
F105A8
100
AcDbEntity
8
Geo
100
AcDbLine
10
-16.4987857762360
20
0.970381058423889
30
0.000000000000000
11
-16.3987857762360
21
0.940314843326922
31
0.000000000000000
  0
LINE
  5
F105A9
330
F105AA
100
AcDbEntity
8
Geo
100
AcDbLine
10
-16.3987857762360
20
0.940314843326922
30
0.000000000000000
11
-16.2987857762360
21
0.911347084420184
31
0.000000000000000
  0
LINE
  5
F105AB
330
F105AC
100
AcDbEntity
8
Geo
100
AcDbLine
10
-16.2987857762360
20
0.911347084420184
30
0.000000000000000
11
-16.1987857762360
21
0.883483447127159
31
0.000000000000000
  0
LINE
  5
F105AD
330
F105AE
100
AcDbEntity
8
Geo
100
AcDbLine
10
-16.1987857762360
20
0.883483447127159
30
0.000000000000000
11
-16.0987857762360
21
0.856729380930691
31
0.000000000000000
  0
LINE
  5
F105AF
330
F105B0
100
AcDbEntity
8
Geo
100
AcDbLine
10
-16.0987857762360
20
0.856729380930691
30
0.000000000000000
11
-15.9987857762360
21
0.831090118307186
31
0.000000000000000
  0
LINE
  5
F105B1
330
F105B2
100
AcDbEntity
8
Geo
100
AcDbLine
10
-15.9987857762360
20
0.831090118307186
30
0.000000000000000
11
-15.8987857762360
21
0.806570673703258
31
0.000000000000000
  0
LINE
  5
F105B3
330
F105B4
100
AcDbEntity
8
Geo
100
AcDbLine
10
-15.8987857762360
20
0.806570673703258
30
0.000000000000000
11
-15.7987857762360
21
0.783175842555027
31
0.000000000000000
  0
LINE
  5
F105B5
330
F105B6
100
AcDbEntity
8
Geo
100
AcDbLine
10
-15.7987857762360
20
0.783175842555027
30
0.000000000000000
11
-15.6987857762360
21
0.760910200350237
31
0.000000000000000
  0
LINE
  5
F105B7
330
F105B8
100
AcDbEntity
8
Geo
100
AcDbLine
10
-15.6987857762360
20
0.760910200350237
30
0.000000000000000
11
-15.5987857762360
21
0.739778101733396
31
0.000000000000000
  0
LINE
  5
F105B9
330
F105BA
100
AcDbEntity
8
Geo
100
AcDbLine
10
-15.5987857762360
20
0.739778101733396
30
0.000000000000000
11
-15.4987857762360
21
0.719783679654116
31
0.000000000000000
  0
LINE
  5
F105BB
330
F105BC
100
AcDbEntity
8
Geo
100
AcDbLine
10
-15.4987857762360
20
0.719783679654116
30
0.000000000000000
11
-15.3987857762360
21
0.700930844558788
31
0.000000000000000
  0
LINE
  5
F105BD
330
F105BE
100
AcDbEntity
8
Geo
100
AcDbLine
10
-15.3987857762360
20
0.700930844558788
30
0.000000000000000
11
-15.2987857762360
21
0.683223283625810
31
0.000000000000000
  0
LINE
  5
F105BF
330
F105C0
100
AcDbEntity
8
Geo
100
AcDbLine
10
-15.2987857762360
20
0.683223283625810
30
0.000000000000000
11
-15.1987857762360
21
0.666664460044442
31
0.000000000000000
  0
LINE
  5
F105C1
330
F105C2
100
AcDbEntity
8
Geo
100
AcDbLine
10
-15.1987857762360
20
0.666664460044442
30
0.000000000000000
11
-15.0987857762360
21
0.651257612337496
31
0.000000000000000
  0
LINE
  5
F105C3
330
F105C4
100
AcDbEntity
8
Geo
100
AcDbLine
10
-15.0987857762360
20
0.651257612337496
30
0.000000000000000
11
-14.9987857762360
21
0.637005753727954
31
0.000000000000000
  0
LINE
  5
F105C5
330
F105C6
100
AcDbEntity
8
Geo
100
AcDbLine
10
-14.9987857762360
20
0.637005753727954
30
0.000000000000000
11
-14.8987857762360
21
0.623911671549649
31
0.000000000000000
  0
LINE
  5
F105C7
330
F105C8
100
AcDbEntity
8
Geo
100
AcDbLine
10
-14.8987857762360
20
0.623911671549649
30
0.000000000000000
11
-14.7987857762360
21
0.611977926702129
31
0.000000000000000
  0
LINE
  5
F105C9
330
F105CA
100
AcDbEntity
8
Geo
100
AcDbLine
10
-14.7987857762360
20
0.611977926702129
30
0.000000000000000
11
-14.6987857762360
21
0.601206853149804
31
0.000000000000000
  0
LINE
  5
F105CB
330
F105CC
100
AcDbEntity
8
Geo
100
AcDbLine
10
-14.6987857762360
20
0.601206853149804
30
0.000000000000000
11
-14.5987857762360
21
0.591600557465481
31
0.000000000000000
  0
LINE
  5
F105CD
330
F105CE
100
AcDbEntity
8
Geo
100
AcDbLine
10
-14.5987857762360
20
0.591600557465481
30
0.000000000000000
11
-14.4987857762360
21
0.583160918418353
31
0.000000000000000
  0
LINE
  5
F105CF
330
F105D0
100
AcDbEntity
8
Geo
100
AcDbLine
10
-14.4987857762360
20
0.583160918418353
30
0.000000000000000
11
-14.3987857762360
21
0.575889586606574
31
0.000000000000000
  0
LINE
  5
F105D1
330
F105D2
100
AcDbEntity
8
Geo
100
AcDbLine
10
-14.3987857762360
20
0.575889586606574
30
0.000000000000000
11
-14.2987857762360
21
0.569787984134425
31
0.000000000000000
  0
LINE
  5
F105D3
330
F105D4
100
AcDbEntity
8
Geo
100
AcDbLine
10
-14.2987857762360
20
0.569787984134425
30
0.000000000000000
11
-14.1987857762360
21
0.564857304334195
31
0.000000000000000
  0
LINE
  5
F105D5
330
F105D6
100
AcDbEntity
8
Geo
100
AcDbLine
10
-14.1987857762360
20
0.564857304334195
30
0.000000000000000
11
-14.0987857762360
21
0.561098511532782
31
0.000000000000000
  0
LINE
  5
F105D7
330
F105D8
100
AcDbEntity
8
Geo
100
AcDbLine
10
-14.0987857762360
20
0.561098511532782
30
0.000000000000000
11
-13.9987857762360
21
0.558512340863100
31
0.000000000000000
  0
LINE
  5
F105D9
330
F105DA
100
AcDbEntity
8
Geo
100
AcDbLine
10
-13.9987857762360
20
0.558512340863100
30
0.000000000000000
11
-13.8987857762360
21
0.557099298120302
31
0.000000000000000
  0
LINE
  5
F105DB
330
F105DC
100
AcDbEntity
8
Geo
100
AcDbLine
10
-13.8987857762360
20
0.557099298120302
30
0.000000000000000
11
-13.8283646853939
21
0.556808326105809
31
0.000000000000000
  0
LINE
  5
F105DD
330
F105DE
100
AcDbEntity
8
Geo
100
AcDbLine
10
-32.2987857762359
20
1.38221398649347
30
0.000000000000000
11
-32.1987857762359
21
1.28297972414701
31
0.000000000000000
  0
LINE
  5
F105DF
330
F105E0
100
AcDbEntity
8
Geo
100
AcDbLine
10
-32.1987857762359
20
1.28297972414701
30
0.000000000000000
11
-32.0987857762359
21
1.18241846640167
31
0.000000000000000
  0
LINE
  5
F105E1
330
F105E2
100
AcDbEntity
8
Geo
100
AcDbLine
10
-32.0987857762359
20
1.18241846640167
30
0.000000000000000
11
-31.9987857762359
21
1.14563927524464
31
0.000000000000000
  0
LINE
  5
F105E3
330
F105E4
100
AcDbEntity
8
Geo
100
AcDbLine
10
-31.9987857762359
20
1.14563927524464
30
0.000000000000000
11
-31.8987857762359
21
1.10991838356905
31
0.000000000000000
  0
LINE
  5
F105E5
330
F105E6
100
AcDbEntity
8
Geo
100
AcDbLine
10
-31.8987857762359
20
1.10991838356905
30
0.000000000000000
11
-31.7987857762359
21
1.07526277755491
31
0.000000000000000
  0
LINE
  5
F105E7
330
F105E8
100
AcDbEntity
8
Geo
100
AcDbLine
10
-31.7987857762359
20
1.07526277755491
30
0.000000000000000
11
-31.6987857762359
21
1.04167923503703
31
0.000000000000000
  0
LINE
  5
F105E9
330
F105EA
100
AcDbEntity
8
Geo
100
AcDbLine
10
-31.6987857762359
20
1.04167923503703
30
0.000000000000000
11
-31.5987857762359
21
1.00917432417938
31
0.000000000000000
  0
LINE
  5
F105EB
330
F105EC
100
AcDbEntity
8
Geo
100
AcDbLine
10
-31.5987857762359
20
1.00917432417938
30
0.000000000000000
11
-31.4987857762359
21
0.977754402190525
31
0.000000000000000
  0
LINE
  5
F105ED
330
F105EE
100
AcDbEntity
8
Geo
100
AcDbLine
10
-31.4987857762359
20
0.977754402190525
30
0.000000000000000
11
-31.3987857762359
21
0.947425614080339
31
0.000000000000000
  0
LINE
  5
F105EF
330
F105F0
100
AcDbEntity
8
Geo
100
AcDbLine
10
-31.3987857762359
20
0.947425614080339
30
0.000000000000000
11
-31.2987857762359
21
0.918193891458123
31
0.000000000000000
  0
LINE
  5
F105F1
330
F105F2
100
AcDbEntity
8
Geo
100
AcDbLine
10
-31.2987857762359
20
0.918193891458123
30
0.000000000000000
11
-31.1987857762359
21
0.890064951372564
31
0.000000000000000
  0
LINE
  5
F105F3
330
F105F4
100
AcDbEntity
8
Geo
100
AcDbLine
10
-31.1987857762359
20
0.890064951372564
30
0.000000000000000
11
-31.0987857762359
21
0.863044295193593
31
0.000000000000000
  0
LINE
  5
F105F5
330
F105F6
100
AcDbEntity
8
Geo
100
AcDbLine
10
-31.0987857762359
20
0.863044295193593
30
0.000000000000000
11
-30.9987857762359
21
0.837137207536445
31
0.000000000000000
  0
LINE
  5
F105F7
330
F105F8
100
AcDbEntity
8
Geo
100
AcDbLine
10
-30.9987857762359
20
0.837137207536445
30
0.000000000000000
11
-30.8987857762359
21
0.812348755228118
31
0.000000000000000
  0
LINE
  5
F105F9
330
F105FA
100
AcDbEntity
8
Geo
100
AcDbLine
10
-30.8987857762359
20
0.812348755228118
30
0.000000000000000
11
-30.7987857762359
21
0.788683786316415
31
0.000000000000000
  0
LINE
  5
F105FB
330
F105FC
100
AcDbEntity
8
Geo
100
AcDbLine
10
-30.7987857762359
20
0.788683786316415
30
0.000000000000000
11
-30.6987857762359
21
0.766146929121776
31
0.000000000000000
  0
LINE
  5
F105FD
330
F105FE
100
AcDbEntity
8
Geo
100
AcDbLine
10
-30.6987857762359
20
0.766146929121776
30
0.000000000000000
11
-30.5987857762359
21
0.744742591332090
31
0.000000000000000
  0
LINE
  5
F105FF
330
F10600
100
AcDbEntity
8
Geo
100
AcDbLine
10
-30.5987857762359
20
0.744742591332090
30
0.000000000000000
11
-30.4987857762359
21
0.724474959140649
31
0.000000000000000
  0
LINE
  5
F10601
330
F10602
100
AcDbEntity
8
Geo
100
AcDbLine
10
-30.4987857762359
20
0.724474959140649
30
0.000000000000000
11
-30.3987857762359
21
0.705347996427426
31
0.000000000000000
  0
LINE
  5
F10603
330
F10604
100
AcDbEntity
8
Geo
100
AcDbLine
10
-30.3987857762359
20
0.705347996427426
30
0.000000000000000
11
-30.2987857762359
21
0.687365443983833
31
0.000000000000000
  0
LINE
  5
F10605
330
F10606
100
AcDbEntity
8
Geo
100
AcDbLine
10
-30.2987857762359
20
0.687365443983833
30
0.000000000000000
11
-30.1987857762359
21
0.670530818781111
31
0.000000000000000
  0
LINE
  5
F10607
330
F10608
100
AcDbEntity
8
Geo
100
AcDbLine
10
-30.1987857762359
20
0.670530818781111
30
0.000000000000000
11
-30.0987857762359
21
0.654847413282490
31
0.000000000000000
  0
LINE
  5
F10609
330
F1060A
100
AcDbEntity
8
Geo
100
AcDbLine
10
-30.0987857762359
20
0.654847413282490
30
0.000000000000000
11
-29.9987857762359
21
0.640318294799255
31
0.000000000000000
  0
LINE
  5
F1060B
330
F1060C
100
AcDbEntity
8
Geo
100
AcDbLine
10
-29.9987857762359
20
0.640318294799255
30
0.000000000000000
11
-29.8987857762359
21
0.626946304890858
31
0.000000000000000
  0
LINE
  5
F1060D
330
F1060E
100
AcDbEntity
8
Geo
100
AcDbLine
10
-29.8987857762359
20
0.626946304890858
30
0.000000000000000
11
-29.7987857762359
21
0.614734058809170
31
0.000000000000000
  0
LINE
  5
F1060F
330
F10610
100
AcDbEntity
8
Geo
100
AcDbLine
10
-29.7987857762359
20
0.614734058809170
30
0.000000000000000
11
-29.6987857762359
21
0.603683944986999
31
0.000000000000000
  0
LINE
  5
F10611
330
F10612
100
AcDbEntity
8
Geo
100
AcDbLine
10
-29.6987857762359
20
0.603683944986999
30
0.000000000000000
11
-29.5987857762359
21
0.593798124570972
31
0.000000000000000
  0
LINE
  5
F10613
330
F10614
100
AcDbEntity
8
Geo
100
AcDbLine
10
-29.5987857762359
20
0.593798124570972
30
0.000000000000000
11
-29.4987857762359
21
0.585078530998855
31
0.000000000000000
  0
LINE
  5
F10615
330
F10616
100
AcDbEntity
8
Geo
100
AcDbLine
10
-29.4987857762359
20
0.585078530998855
30
0.000000000000000
11
-29.3987857762359
21
0.577526869621429
31
0.000000000000000
  0
LINE
  5
F10617
330
F10618
100
AcDbEntity
8
Geo
100
AcDbLine
10
-29.3987857762359
20
0.577526869621429
30
0.000000000000000
11
-29.2987857762359
21
0.571144617368952
31
0.000000000000000
  0
LINE
  5
F10619
330
F1061A
100
AcDbEntity
8
Geo
100
AcDbLine
10
-29.2987857762359
20
0.571144617368952
30
0.000000000000000
11
-29.1987857762359
21
0.565933022462319
31
0.000000000000000
  0
LINE
  5
F1061B
330
F1061C
100
AcDbEntity
8
Geo
100
AcDbLine
10
-29.1987857762359
20
0.565933022462319
30
0.000000000000000
11
-29.0987857762359
21
0.561893104168924
31
0.000000000000000
  0
LINE
  5
F1061D
330
F1061E
100
AcDbEntity
8
Geo
100
AcDbLine
10
-29.0987857762359
20
0.561893104168924
30
0.000000000000000
11
-28.9987857762359
21
0.559025652603321
31
0.000000000000000
  0
LINE
  5
F1061F
330
F10620
100
AcDbEntity
8
Geo
100
AcDbLine
10
-28.9987857762359
20
0.559025652603321
30
0.000000000000000
11
-28.8987857762359
21
0.557331228572702
31
0.000000000000000
  0
LINE
  5
F10621
330
F10622
100
AcDbEntity
8
Geo
100
AcDbLine
10
-28.8987857762359
20
0.557331228572702
30
0.000000000000000
11
-28.8043818865438
21
0.556808326105809
31
0.000000000000000
  0
LINE
  5
F10623
330
F10624
100
AcDbEntity
8
Geo
100
AcDbLine
10
-4.42399896420463
20
0.556808326105809
30
0.000000000000000
11
-4.49878577623582
21
0.576160788301298
31
0.000000000000000
  0
LINE
  5
F10625
330
F10626
100
AcDbEntity
8
Geo
100
AcDbLine
10
-4.49878577623582
20
0.576160788301298
30
0.000000000000000
11
-4.59878577623582
21
0.652137694040563
31
0.000000000000000
  0
LINE
  5
F10627
330
F10628
100
AcDbEntity
8
Geo
100
AcDbLine
10
-4.59878577623582
20
0.652137694040563
30
0.000000000000000
11
-4.69878577623582
21
0.771248627977403
31
0.000000000000000
  0
LINE
  5
F10629
330
F1062A
100
AcDbEntity
8
Geo
100
AcDbLine
10
-4.69878577623582
20
0.771248627977403
30
0.000000000000000
11
-4.79878577623582
21
0.920634936579950
31
0.000000000000000
  0
LINE
  5
F1062B
330
F1062C
100
AcDbEntity
8
Geo
100
AcDbLine
10
-4.79878577623582
20
0.920634936579950
30
0.000000000000000
11
-4.89878577623583
21
1.08998909565534
31
0.000000000000000
  0
LINE
  5
F1062D
330
F1062E
100
AcDbEntity
8
Geo
100
AcDbLine
10
-4.89878577623583
20
1.08998909565534
30
0.000000000000000
11
-4.99878577623583
21
1.27122214439401
31
0.000000000000000
  0
LINE
  5
F1062F
330
F10630
100
AcDbEntity
8
Geo
100
AcDbLine
10
-4.99878577623583
20
1.27122214439401
30
0.000000000000000
11
-5.09878577623583
21
1.45812222201081
31
0.000000000000000
  0
LINE
  5
F10631
330
F10632
100
AcDbEntity
8
Geo
100
AcDbLine
10
-5.09878577623583
20
1.45812222201081
30
0.000000000000000
11
-5.19878577623583
21
1.64603139424902
31
0.000000000000000
  0
LINE
  5
F10633
330
F10634
100
AcDbEntity
8
Geo
100
AcDbLine
10
-5.19878577623583
20
1.64603139424902
30
0.000000000000000
11
-5.29878577623583
21
1.83155485561145
31
0.000000000000000
  0
LINE
  5
F10635
330
F10636
100
AcDbEntity
8
Geo
100
AcDbLine
10
-5.29878577623583
20
1.83155485561145
30
0.000000000000000
11
-5.39878577623583
21
2.01230815330368
31
0.000000000000000
  0
LINE
  5
F10637
330
F10638
100
AcDbEntity
8
Geo
100
AcDbLine
10
-5.39878577623583
20
2.01230815330368
30
0.000000000000000
11
-5.49878577623583
21
2.18670293745736
31
0.000000000000000
  0
LINE
  5
F10639
330
F1063A
100
AcDbEntity
8
Geo
100
AcDbLine
10
-5.49878577623583
20
2.18670293745736
30
0.000000000000000
11
-5.59878577623584
21
2.35376884400862
31
0.000000000000000
  0
LINE
  5
F1063B
330
F1063C
100
AcDbEntity
8
Geo
100
AcDbLine
10
-5.59878577623584
20
2.35376884400862
30
0.000000000000000
11
-5.69878577623584
21
2.51300768467202
31
0.000000000000000
  0
LINE
  5
F1063D
330
F1063E
100
AcDbEntity
8
Geo
100
AcDbLine
10
-5.69878577623584
20
2.51300768467202
30
0.000000000000000
11
-5.79878577623584
21
2.66427560315815
31
0.000000000000000
  0
LINE
  5
F1063F
330
F10640
100
AcDbEntity
8
Geo
100
AcDbLine
10
-5.79878577623584
20
2.66427560315815
30
0.000000000000000
11
-5.89878577623584
21
2.80768888282943
31
0.000000000000000
  0
LINE
  5
F10641
330
F10642
100
AcDbEntity
8
Geo
100
AcDbLine
10
-5.89878577623584
20
2.80768888282943
30
0.000000000000000
11
-5.99878577623584
21
2.94354941076210
31
0.000000000000000
  0
LINE
  5
F10643
330
F10644
100
AcDbEntity
8
Geo
100
AcDbLine
10
-5.99878577623584
20
2.94354941076210
30
0.000000000000000
11
-6.09878577623584
21
3.07228625926892
31
0.000000000000000
  0
LINE
  5
F10645
330
F10646
100
AcDbEntity
8
Geo
100
AcDbLine
10
-6.09878577623584
20
3.07228625926892
30
0.000000000000000
11
-6.19878577623584
21
3.19441034264703
31
0.000000000000000
  0
LINE
  5
F10647
330
F10648
100
AcDbEntity
8
Geo
100
AcDbLine
10
-6.19878577623584
20
3.19441034264703
30
0.000000000000000
11
-6.29878577623585
21
3.31047958953925
31
0.000000000000000
  0
LINE
  5
F10649
330
F1064A
100
AcDbEntity
8
Geo
100
AcDbLine
10
-6.29878577623585
20
3.31047958953925
30
0.000000000000000
11
-6.39878577623585
21
3.42107251147396
31
0.000000000000000
  0
LINE
  5
F1064B
330
F1064C
100
AcDbEntity
8
Geo
100
AcDbLine
10
-6.39878577623585
20
3.42107251147396
30
0.000000000000000
11
-6.49878577623585
21
3.52676843385025
31
0.000000000000000
  0
LINE
  5
F1064D
330
F1064E
100
AcDbEntity
8
Geo
100
AcDbLine
10
-6.49878577623585
20
3.52676843385025
30
0.000000000000000
11
-6.59878577623585
21
3.62813298447946
31
0.000000000000000
  0
LINE
  5
F1064F
330
F10650
100
AcDbEntity
8
Geo
100
AcDbLine
10
-6.59878577623585
20
3.62813298447946
30
0.000000000000000
11
-6.69878577623585
21
3.72570770971385
31
0.000000000000000
  0
LINE
  5
F10651
330
F10652
100
AcDbEntity
8
Geo
100
AcDbLine
10
-6.69878577623585
20
3.72570770971385
30
0.000000000000000
11
-6.79878577623585
21
3.82000291471250
31
0.000000000000000
  0
LINE
  5
F10653
330
F10654
100
AcDbEntity
8
Geo
100
AcDbLine
10
-6.79878577623585
20
3.82000291471250
30
0.000000000000000
11
-6.89878577623585
21
3.91149300898497
31
0.000000000000000
  0
LINE
  5
F10655
330
F10656
100
AcDbEntity
8
Geo
100
AcDbLine
10
-6.89878577623585
20
3.91149300898497
30
0.000000000000000
11
-6.99878577623586
21
4.00061378749035
31
0.000000000000000
  0
LINE
  5
F10657
330
F10658
100
AcDbEntity
8
Geo
100
AcDbLine
10
-6.99878577623586
20
4.00061378749035
30
0.000000000000000
11
-7.09878577623586
21
4.08776119724335
31
0.000000000000000
  0
LINE
  5
F10659
330
F1065A
100
AcDbEntity
8
Geo
100
AcDbLine
10
-7.09878577623586
20
4.08776119724335
30
0.000000000000000
11
-7.19878577623586
21
4.17329123486970
31
0.000000000000000
  0
LINE
  5
F1065B
330
F1065C
100
AcDbEntity
8
Geo
100
AcDbLine
10
-7.19878577623586
20
4.17329123486970
30
0.000000000000000
11
-7.29878577623586
21
4.25752069637835
31
0.000000000000000
  0
LINE
  5
F1065D
330
F1065E
100
AcDbEntity
8
Geo
100
AcDbLine
10
-7.29878577623586
20
4.25752069637835
30
0.000000000000000
11
-7.39878577623586
21
4.34072856035774
31
0.000000000000000
  0
LINE
  5
F1065F
330
F10660
100
AcDbEntity
8
Geo
100
AcDbLine
10
-7.39878577623586
20
4.34072856035774
30
0.000000000000000
11
-7.49878577623586
21
4.42315783298187
31
0.000000000000000
  0
LINE
  5
F10661
330
F10662
100
AcDbEntity
8
Geo
100
AcDbLine
10
-7.49878577623586
20
4.42315783298187
30
0.000000000000000
11
-7.59878577623586
21
4.50501772017915
31
0.000000000000000
  0
LINE
  5
F10663
330
F10664
100
AcDbEntity
8
Geo
100
AcDbLine
10
-7.59878577623586
20
4.50501772017915
30
0.000000000000000
11
-7.69878577623587
21
4.58648602114781
31
0.000000000000000
  0
LINE
  5
F10665
330
F10666
100
AcDbEntity
8
Geo
100
AcDbLine
10
-7.69878577623587
20
4.58648602114781
30
0.000000000000000
11
-7.79878577623587
21
4.66771165977316
31
0.000000000000000
  0
LINE
  5
F10667
330
F10668
100
AcDbEntity
8
Geo
100
AcDbLine
10
-7.79878577623587
20
4.66771165977316
30
0.000000000000000
11
-7.89878577623587
21
4.74881728777034
31
0.000000000000000
  0
LINE
  5
F10669
330
F1066A
100
AcDbEntity
8
Geo
100
AcDbLine
10
-7.89878577623587
20
4.74881728777034
30
0.000000000000000
11
-7.99878577623587
21
4.82990190663440
31
0.000000000000000
  0
LINE
  5
F1066B
330
F1066C
100
AcDbEntity
8
Geo
100
AcDbLine
10
-7.99878577623587
20
4.82990190663440
30
0.000000000000000
11
-8.09878577623587
21
4.91104346561066
31
0.000000000000000
  0
LINE
  5
F1066D
330
F1066E
100
AcDbEntity
8
Geo
100
AcDbLine
10
-8.09878577623587
20
4.91104346561066
30
0.000000000000000
11
-8.19878577623587
21
4.99230140061141
31
0.000000000000000
  0
LINE
  5
F1066F
330
F10670
100
AcDbEntity
8
Geo
100
AcDbLine
10
-8.19878577623587
20
4.99230140061141
30
0.000000000000000
11
-8.29878577623587
21
5.07371908487211
31
0.000000000000000
  0
LINE
  5
F10671
330
F10672
100
AcDbEntity
8
Geo
100
AcDbLine
10
-8.29878577623587
20
5.07371908487211
30
0.000000000000000
11
-8.39878577623588
21
5.15532616661653
31
0.000000000000000
  0
LINE
  5
F10673
330
F10674
100
AcDbEntity
8
Geo
100
AcDbLine
10
-8.39878577623588
20
5.15532616661653
30
0.000000000000000
11
-8.49878577623588
21
5.23714077244937
31
0.000000000000000
  0
LINE
  5
F10675
330
F10676
100
AcDbEntity
8
Geo
100
AcDbLine
10
-8.49878577623588
20
5.23714077244937
30
0.000000000000000
11
-8.59878577623588
21
5.31917155790111
31
0.000000000000000
  0
LINE
  5
F10677
330
F10678
100
AcDbEntity
8
Geo
100
AcDbLine
10
-8.59878577623588
20
5.31917155790111
30
0.000000000000000
11
-8.69878577623588
21
5.40141958873476
31
0.000000000000000
  0
LINE
  5
F10679
330
F1067A
100
AcDbEntity
8
Geo
100
AcDbLine
10
-8.69878577623588
20
5.40141958873476
30
0.000000000000000
11
-8.79878577623588
21
5.48388003845518
31
0.000000000000000
  0
LINE
  5
F1067B
330
F1067C
100
AcDbEntity
8
Geo
100
AcDbLine
10
-8.79878577623588
20
5.48388003845518
30
0.000000000000000
11
-8.89878577623588
21
5.56654368906495
31
0.000000000000000
  0
LINE
  5
F1067D
330
F1067E
100
AcDbEntity
8
Geo
100
AcDbLine
10
-8.89878577623588
20
5.56654368906495
30
0.000000000000000
11
-8.99878577623588
21
5.64939822357455
31
0.000000000000000
  0
LINE
  5
F1067F
330
F10680
100
AcDbEntity
8
Geo
100
AcDbLine
10
-8.99878577623588
20
5.64939822357455
30
0.000000000000000
11
-9.09878577623589
21
5.73242930016233
31
0.000000000000000
  0
LINE
  5
F10681
330
F10682
100
AcDbEntity
8
Geo
100
AcDbLine
10
-9.09878577623589
20
5.73242930016233
30
0.000000000000000
11
-9.19878577623589
21
5.81562139923100
31
0.000000000000000
  0
LINE
  5
F10683
330
F10684
100
AcDbEntity
8
Geo
100
AcDbLine
10
-9.19878577623589
20
5.81562139923100
30
0.000000000000000
11
-9.39878577623589
21
5.98242413253745
31
0.000000000000000
  0
LINE
  5
F10685
330
F10686
100
AcDbEntity
8
Geo
100
AcDbLine
10
-9.39878577623589
20
9.23461583325442
30
0.000000000000000
11
-9.19878577623589
21
9.08340886823738
31
0.000000000000000
  0
LINE
  5
F10687
330
F10688
100
AcDbEntity
8
Geo
100
AcDbLine
10
-9.19878577623589
20
9.08340886823738
30
0.000000000000000
11
-9.09878577623589
21
9.00705675077515
31
0.000000000000000
  0
LINE
  5
F10689
330
F1068A
100
AcDbEntity
8
Geo
100
AcDbLine
10
-9.09878577623589
20
9.00705675077515
30
0.000000000000000
11
-8.99878577623588
21
8.93022542140643
31
0.000000000000000
  0
LINE
  5
F1068B
330
F1068C
100
AcDbEntity
8
Geo
100
AcDbLine
10
-8.99878577623588
20
8.93022542140643
30
0.000000000000000
11
-8.89878577623588
21
8.85292990656200
31
0.000000000000000
  0
LINE
  5
F1068D
330
F1068E
100
AcDbEntity
8
Geo
100
AcDbLine
10
-8.89878577623588
20
8.85292990656200
30
0.000000000000000
11
-8.79878577623588
21
8.77518532345904
31
0.000000000000000
  0
LINE
  5
F1068F
330
F10690
100
AcDbEntity
8
Geo
100
AcDbLine
10
-8.79878577623588
20
8.77518532345904
30
0.000000000000000
11
-8.69878577623588
21
8.69700687716002
31
0.000000000000000
  0
LINE
  5
F10691
330
F10692
100
AcDbEntity
8
Geo
100
AcDbLine
10
-8.69878577623588
20
8.69700687716002
30
0.000000000000000
11
-8.59878577623588
21
8.61840985767176
31
0.000000000000000
  0
LINE
  5
F10693
330
F10694
100
AcDbEntity
8
Geo
100
AcDbLine
10
-8.59878577623588
20
8.61840985767176
30
0.000000000000000
11
-8.49878577623588
21
8.53940963722019
31
0.000000000000000
  0
LINE
  5
F10695
330
F10696
100
AcDbEntity
8
Geo
100
AcDbLine
10
-8.49878577623588
20
8.53940963722019
30
0.000000000000000
11
-8.39878577623588
21
8.46002166804361
31
0.000000000000000
  0
LINE
  5
F10697
330
F10698
100
AcDbEntity
8
Geo
100
AcDbLine
10
-8.39878577623588
20
8.46002166804361
30
0.000000000000000
11
-8.29878577623587
21
8.38026148146171
31
0.000000000000000
  0
LINE
  5
F10699
330
F1069A
100
AcDbEntity
8
Geo
100
AcDbLine
10
-8.29878577623587
20
8.38026148146171
30
0.000000000000000
11
-8.19878577623587
21
8.30014468973116
31
0.000000000000000
  0
LINE
  5
F1069B
330
F1069C
100
AcDbEntity
8
Geo
100
AcDbLine
10
-8.19878577623587
20
8.30014468973116
30
0.000000000000000
11
-8.09878577623587
21
8.21968699346954
31
0.000000000000000
  0
LINE
  5
F1069D
330
F1069E
100
AcDbEntity
8
Geo
100
AcDbLine
10
-8.09878577623587
20
8.21968699346954
30
0.000000000000000
11
-7.99878577623587
21
8.13890419945077
31
0.000000000000000
  0
LINE
  5
F1069F
330
F106A0
100
AcDbEntity
8
Geo
100
AcDbLine
10
-7.99878577623587
20
8.13890419945077
30
0.000000000000000
11
-7.89878577623587
21
8.05781225664333
31
0.000000000000000
  0
LINE
  5
F106A1
330
F106A2
100
AcDbEntity
8
Geo
100
AcDbLine
10
-7.89878577623587
20
8.05781225664333
30
0.000000000000000
11
-7.79878577623587
21
7.97642732283904
31
0.000000000000000
  0
LINE
  5
F106A3
330
F106A4
100
AcDbEntity
8
Geo
100
AcDbLine
10
-7.79878577623587
20
7.97642732283904
30
0.000000000000000
11
-7.69878577623587
21
7.89476588054325
31
0.000000000000000
  0
LINE
  5
F106A5
330
F106A6
100
AcDbEntity
8
Geo
100
AcDbLine
10
-7.69878577623587
20
7.89476588054325
30
0.000000000000000
11
-7.59878577623586
21
7.81284492948142
31
0.000000000000000
  0
LINE
  5
F106A7
330
F106A8
100
AcDbEntity
8
Geo
100
AcDbLine
10
-7.59878577623586
20
7.81284492948142
30
0.000000000000000
11
-7.49878577623586
21
7.73068229472147
31
0.000000000000000
  0
LINE
  5
F106A9
330
F106AA
100
AcDbEntity
8
Geo
100
AcDbLine
10
-7.49878577623586
20
7.73068229472147
30
0.000000000000000
11
-7.39878577623586
21
7.64829710469985
31
0.000000000000000
  0
LINE
  5
F106AB
330
F106AC
100
AcDbEntity
8
Geo
100
AcDbLine
10
-7.39878577623586
20
7.64829710469985
30
0.000000000000000
11
-7.29878577623586
21
7.56571051314435
31
0.000000000000000
  0
LINE
  5
F106AD
330
F106AE
100
AcDbEntity
8
Geo
100
AcDbLine
10
-7.29878577623586
20
7.56571051314435
30
0.000000000000000
11
-7.19878577623586
21
7.48294676386872
31
0.000000000000000
  0
LINE
  5
F106AF
330
F106B0
100
AcDbEntity
8
Geo
100
AcDbLine
10
-7.19878577623586
20
7.48294676386872
30
0.000000000000000
11
-7.09878577623586
21
7.40003472862153
31
0.000000000000000
  0
LINE
  5
F106B1
330
F106B2
100
AcDbEntity
8
Geo
100
AcDbLine
10
-7.09878577623586
20
7.40003472862153
30
0.000000000000000
11
-6.99878577623586
21
7.31701008663949
31
0.000000000000000
  0
LINE
  5
F106B3
330
F106B4
100
AcDbEntity
8
Geo
100
AcDbLine
10
-6.99878577623586
20
7.31701008663949
30
0.000000000000000
11
-6.89878577623585
21
7.23391836140199
31
0.000000000000000
  0
LINE
  5
F106B5
330
F106B6
100
AcDbEntity
8
Geo
100
AcDbLine
10
-6.89878577623585
20
7.23391836140199
30
0.000000000000000
11
-6.79878577623585
21
7.15081908651219
31
0.000000000000000
  0
LINE
  5
F106B7
330
F106B8
100
AcDbEntity
8
Geo
100
AcDbLine
10
-6.79878577623585
20
7.15081908651219
30
0.000000000000000
11
-6.69878577623585
21
7.06779143993101
31
0.000000000000000
  0
LINE
  5
F106B9
330
F106BA
100
AcDbEntity
8
Geo
100
AcDbLine
10
-6.69878577623585
20
7.06779143993101
30
0.000000000000000
11
-6.59878577623585
21
6.98494176535931
31
0.000000000000000
  0
LINE
  5
F106BB
330
F106BC
100
AcDbEntity
8
Geo
100
AcDbLine
10
-6.59878577623585
20
6.98494176535931
30
0.000000000000000
11
-6.49878577623585
21
6.90241349294040
31
0.000000000000000
  0
LINE
  5
F106BD
330
F106BE
100
AcDbEntity
8
Geo
100
AcDbLine
10
-6.49878577623585
20
6.90241349294040
30
0.000000000000000
11
-6.39878577623585
21
6.82040008041166
31
0.000000000000000
  0
LINE
  5
F106BF
330
F106C0
100
AcDbEntity
8
Geo
100
AcDbLine
10
-6.39878577623585
20
6.82040008041166
30
0.000000000000000
11
-6.29878577623585
21
6.73916172253905
31
0.000000000000000
  0
LINE
  5
F106C1
330
F106C2
100
AcDbEntity
8
Geo
100
AcDbLine
10
-6.29878577623585
20
6.73916172253905
30
0.000000000000000
11
-6.19878577623584
21
6.65904672398908
31
0.000000000000000
  0
LINE
  5
F106C3
330
F106C4
100
AcDbEntity
8
Geo
100
AcDbLine
10
-6.19878577623584
20
6.65904672398908
30
0.000000000000000
11
-6.09878577623584
21
6.58051860279562
31
0.000000000000000
  0
LINE
  5
F106C5
330
F106C6
100
AcDbEntity
8
Geo
100
AcDbLine
10
-6.09878577623584
20
6.58051860279562
30
0.000000000000000
11
-5.99878577623584
21
6.50419019432896
31
0.000000000000000
  0
LINE
  5
F106C7
330
F106C8
100
AcDbEntity
8
Geo
100
AcDbLine
10
-5.99878577623584
20
6.50419019432896
30
0.000000000000000
11
-5.89878577623584
21
6.43086626838858
31
0.000000000000000
  0
LINE
  5
F106C9
330
F106CA
100
AcDbEntity
8
Geo
100
AcDbLine
10
-5.89878577623584
20
6.43086626838858
30
0.000000000000000
11
-5.79878577623584
21
6.36159646858381
31
0.000000000000000
  0
LINE
  5
F106CB
330
F106CC
100
AcDbEntity
8
Geo
100
AcDbLine
10
-5.79878577623584
20
6.36159646858381
30
0.000000000000000
11
-5.69878577623584
21
6.29774075355587
31
0.000000000000000
  0
LINE
  5
F106CD
330
F106CE
100
AcDbEntity
8
Geo
100
AcDbLine
10
-5.69878577623584
20
6.29774075355587
30
0.000000000000000
11
-5.59878577623584
21
6.24104999047829
31
0.000000000000000
  0
LINE
  5
F106CF
330
F106D0
100
AcDbEntity
8
Geo
100
AcDbLine
10
-5.59878577623584
20
6.24104999047829
30
0.000000000000000
11
-5.49878577623583
21
6.19376495272727
31
0.000000000000000
  0
LINE
  5
F106D1
330
F106D2
100
AcDbEntity
8
Geo
100
AcDbLine
10
-5.49878577623583
20
6.19376495272727
30
0.000000000000000
11
-5.39878577623583
21
6.15873772623171
31
0.000000000000000
  0
LINE
  5
F106D3
330
F106D4
100
AcDbEntity
8
Geo
100
AcDbLine
10
-5.39878577623583
20
6.15873772623171
30
0.000000000000000
11
-5.29878577623583
21
6.13958040851289
31
0.000000000000000
  0
LINE
  5
F106D5
330
F106D6
100
AcDbEntity
8
Geo
100
AcDbLine
10
-5.29878577623583
20
6.13958040851289
30
0.000000000000000
11
-5.19878577623583
21
6.14084683780263
31
0.000000000000000
  0
LINE
  5
F106D7
330
F106D8
100
AcDbEntity
8
Geo
100
AcDbLine
10
-5.19878577623583
20
6.14084683780263
30
0.000000000000000
11
-5.09878577623583
21
6.16825345199847
31
0.000000000000000
  0
LINE
  5
F106D9
330
F106DA
100
AcDbEntity
8
Geo
100
AcDbLine
10
-5.09878577623583
20
6.16825345199847
30
0.000000000000000
11
-4.99878577623583
21
6.22894409239511
31
0.000000000000000
  0
LINE
  5
F106DB
330
F106DC
100
AcDbEntity
8
Geo
100
AcDbLine
10
-4.99878577623583
20
6.22894409239511
30
0.000000000000000
11
-4.89878577623583
21
6.33179803301269
31
0.000000000000000
  0
LINE
  5
F106DD
330
F106DE
100
AcDbEntity
8
Geo
100
AcDbLine
10
-4.89878577623583
20
6.33179803301269
30
0.000000000000000
11
-4.79878577623582
21
6.48776523684478
31
0.000000000000000
  0
LINE
  5
F106DF
330
F106E0
100
AcDbEntity
8
Geo
100
AcDbLine
10
-4.79878577623582
20
6.48776523684478
30
0.000000000000000
11
-4.69878577623582
21
6.71017675203927
31
0.000000000000000
  0
LINE
  5
F106E1
330
F106E2
100
AcDbEntity
8
Geo
100
AcDbLine
10
-4.69878577623582
20
6.71017675203927
30
0.000000000000000
11
-4.59878577623582
21
7.01489994465136
31
0.000000000000000
  0
LINE
  5
F106E3
330
F106E4
100
AcDbEntity
8
Geo
100
AcDbLine
10
-4.59878577623582
20
7.01489994465136
30
0.000000000000000
11
-4.49878577623582
21
7.42004878767309
31
0.000000000000000
  0
LINE
  5
F106E5
330
F106E6
100
AcDbEntity
8
Geo
100
AcDbLine
10
-4.49878577623582
20
7.42004878767309
30
0.000000000000000
11
-4.39878577623582
21
7.94465152524086
31
0.000000000000000
  0
LINE
  5
F106E7
330
F106E8
100
AcDbEntity
8
Geo
100
AcDbLine
10
-4.39878577623582
20
7.94465152524086
30
0.000000000000000
11
-4.29878577623595
21
8.60511901180755
31
0.000000000000000
  0
LINE
  5
F106E9
330
F106EA
100
AcDbEntity
8
Geo
100
AcDbLine
10
-4.29878577623595
20
8.60511901180755
30
0.000000000000000
11
-4.29878577623595
21
8.46300027689947
31
0.000000000000000
  0
LINE
  5
F106EB
330
F106EC
100
AcDbEntity
8
Geo
100
AcDbLine
10
-4.29878577623595
20
8.46300027689947
30
0.000000000000000
11
-4.29878577623595
21
8.50299672612926
31
0.000000000000000
  0
LINE
  5
F106ED
330
F106EE
100
AcDbEntity
8
Geo
100
AcDbLine
10
-4.29878577623595
20
8.50299672612926
30
0.000000000000000
11
-4.29878577623595
21
8.77735973526413
31
0.000000000000000
  0
LINE
  5
F106EF
330
F106F0
100
AcDbEntity
8
Geo
100
AcDbLine
10
-4.29878577623595
20
8.77735973526413
30
0.000000000000000
11
-4.39878577623582
21
9.41512424694266
31
0.000000000000000
  0
LINE
  5
F106F1
330
F106F2
100
AcDbEntity
8
Geo
100
AcDbLine
10
-4.39878577623582
20
9.41512424694266
30
0.000000000000000
11
-4.49878577623582
21
9.96413481851791
31
0.000000000000000
  0
LINE
  5
F106F3
330
F106F4
100
AcDbEntity
8
Geo
100
AcDbLine
10
-4.49878577623582
20
9.96413481851791
30
0.000000000000000
11
-4.59878577623582
21
10.4317207636408
31
0.000000000000000
  0
LINE
  5
F106F5
330
F106F6
100
AcDbEntity
8
Geo
100
AcDbLine
10
-4.59878577623582
20
10.4317207636408
30
0.000000000000000
11
-4.69878577623582
21
10.8263504039315
31
0.000000000000000
  0
LINE
  5
F106F7
330
F106F8
100
AcDbEntity
8
Geo
100
AcDbLine
10
-4.69878577623582
20
10.8263504039315
30
0.000000000000000
11
-4.79878577623582
21
11.1567934866631
31
0.000000000000000
  0
LINE
  5
F106F9
330
F106FA
100
AcDbEntity
8
Geo
100
AcDbLine
10
-4.79878577623582
20
11.1567934866631
30
0.000000000000000
11
-4.89878577623583
21
11.4315763013873
31
0.000000000000000
  0
LINE
  5
F106FB
330
F106FC
100
AcDbEntity
8
Geo
100
AcDbLine
10
-4.89878577623583
20
11.4315763013873
30
0.000000000000000
11
-4.99878577623583
21
11.6586528675770
31
0.000000000000000
  0
LINE
  5
F106FD
330
F106FE
100
AcDbEntity
8
Geo
100
AcDbLine
10
-4.99878577623583
20
11.6586528675770
30
0.000000000000000
11
-5.09878577623583
21
11.8452296919172
31
0.000000000000000
  0
LINE
  5
F106FF
330
F10700
100
AcDbEntity
8
Geo
100
AcDbLine
10
-5.09878577623583
20
11.8452296919172
30
0.000000000000000
11
-5.19878577623583
21
11.9976954847416
31
0.000000000000000
  0
LINE
  5
F10701
330
F10702
100
AcDbEntity
8
Geo
100
AcDbLine
10
-5.19878577623583
20
11.9976954847416
30
0.000000000000000
11
-5.29878577623583
21
12.1216194298249
31
0.000000000000000
  0
LINE
  5
F10703
330
F10704
100
AcDbEntity
8
Geo
100
AcDbLine
10
-5.29878577623583
20
12.1216194298249
30
0.000000000000000
11
-5.39878577623583
21
12.2217916225532
31
0.000000000000000
  0
LINE
  5
F10705
330
F10706
100
AcDbEntity
8
Geo
100
AcDbLine
10
-5.39878577623583
20
12.2217916225532
30
0.000000000000000
11
-5.49878577623583
21
12.3022871422699
31
0.000000000000000
  0
LINE
  5
F10707
330
F10708
100
AcDbEntity
8
Geo
100
AcDbLine
10
-5.49878577623583
20
12.3022871422699
30
0.000000000000000
11
-5.59878577623584
21
12.3665411589210
31
0.000000000000000
  0
LINE
  5
F10709
330
F1070A
100
AcDbEntity
8
Geo
100
AcDbLine
10
-5.59878577623584
20
12.3665411589210
30
0.000000000000000
11
-5.69878577623584
21
12.4174268286192
31
0.000000000000000
  0
LINE
  5
F1070B
330
F1070C
100
AcDbEntity
8
Geo
100
AcDbLine
10
-5.69878577623584
20
12.4174268286192
30
0.000000000000000
11
-5.79878577623584
21
12.4573308439997
31
0.000000000000000
  0
LINE
  5
F1070D
330
F1070E
100
AcDbEntity
8
Geo
100
AcDbLine
10
-5.79878577623584
20
12.4573308439997
30
0.000000000000000
11
-5.89878577623584
21
12.4882236712578
31
0.000000000000000
  0
LINE
  5
F1070F
330
F10710
100
AcDbEntity
8
Geo
100
AcDbLine
10
-5.89878577623584
20
12.4882236712578
30
0.000000000000000
11
-5.99878577623584
21
12.5117229726258
31
0.000000000000000
  0
LINE
  5
F10711
330
F10712
100
AcDbEntity
8
Geo
100
AcDbLine
10
-5.99878577623584
20
12.5117229726258
30
0.000000000000000
11
-6.09878577623584
21
12.5291496748723
31
0.000000000000000
  0
LINE
  5
F10713
330
F10714
100
AcDbEntity
8
Geo
100
AcDbLine
10
-6.09878577623584
20
12.5291496748723
30
0.000000000000000
11
-6.19878577623584
21
12.5415767492054
31
0.000000000000000
  0
LINE
  5
F10715
330
F10716
100
AcDbEntity
8
Geo
100
AcDbLine
10
-6.19878577623584
20
12.5415767492054
30
0.000000000000000
11
-6.29878577623585
21
12.5498711257724
31
0.000000000000000
  0
LINE
  5
F10717
330
F10718
100
AcDbEntity
8
Geo
100
AcDbLine
10
-6.29878577623585
20
12.5498711257724
30
0.000000000000000
11
-6.39878577623585
21
12.5547293567631
31
0.000000000000000
  0
LINE
  5
F10719
330
F1071A
100
AcDbEntity
8
Geo
100
AcDbLine
10
-6.39878577623585
20
12.5547293567631
30
0.000000000000000
11
-6.49878577623585
21
12.5567077230667
31
0.000000000000000
  0
LINE
  5
F1071B
330
F1071C
100
AcDbEntity
8
Geo
100
AcDbLine
10
-6.49878577623585
20
12.5567077230667
30
0.000000000000000
11
-6.52853844550489
21
12.5568083261058
31
0.000000000000000
  0
LINE
  5
F1071D
330
F1071E
100
AcDbEntity
8
Geo
100
AcDbLine
10
-32.2987857762359
20
3.17474015449508
30
0.000000000000000
11
-32.1987857762359
21
3.07032401725489
31
0.000000000000000
  0
LINE
  5
F1071F
330
F10720
100
AcDbEntity
8
Geo
100
AcDbLine
10
-32.1987857762359
20
3.07032401725489
30
0.000000000000000
11
-32.0987857762359
21
2.96400332021187
31
0.000000000000000
  0
LINE
  5
F10721
330
F10722
100
AcDbEntity
8
Geo
100
AcDbLine
10
-32.0987857762359
20
2.96400332021187
30
0.000000000000000
11
-31.9987857762359
21
2.89846167658492
31
0.000000000000000
  0
LINE
  5
F10723
330
F10724
100
AcDbEntity
8
Geo
100
AcDbLine
10
-31.9987857762359
20
2.89846167658492
30
0.000000000000000
11
-31.8987857762359
21
2.83363552092845
31
0.000000000000000
  0
LINE
  5
F10725
330
F10726
100
AcDbEntity
8
Geo
100
AcDbLine
10
-31.8987857762359
20
2.83363552092845
30
0.000000000000000
11
-31.7987857762359
21
2.76953753173878
31
0.000000000000000
  0
LINE
  5
F10727
330
F10728
100
AcDbEntity
8
Geo
100
AcDbLine
10
-31.7987857762359
20
2.76953753173878
30
0.000000000000000
11
-31.6987857762359
21
2.70618024509971
31
0.000000000000000
  0
LINE
  5
F10729
330
F1072A
100
AcDbEntity
8
Geo
100
AcDbLine
10
-31.6987857762359
20
2.70618024509971
30
0.000000000000000
11
-31.5987857762359
21
2.64357605223076
31
0.000000000000000
  0
LINE
  5
F1072B
330
F1072C
100
AcDbEntity
8
Geo
100
AcDbLine
10
-31.5987857762359
20
2.64357605223076
30
0.000000000000000
11
-31.4987857762359
21
2.58173719706375
31
0.000000000000000
  0
LINE
  5
F1072D
330
F1072E
100
AcDbEntity
8
Geo
100
AcDbLine
10
-31.4987857762359
20
2.58173719706375
30
0.000000000000000
11
-31.3987857762359
21
2.52067577384814
31
0.000000000000000
  0
LINE
  5
F1072F
330
F10730
100
AcDbEntity
8
Geo
100
AcDbLine
10
-31.3987857762359
20
2.52067577384814
30
0.000000000000000
11
-31.2987857762359
21
2.46040372478566
31
0.000000000000000
  0
LINE
  5
F10731
330
F10732
100
AcDbEntity
8
Geo
100
AcDbLine
10
-31.2987857762359
20
2.46040372478566
30
0.000000000000000
11
-31.1987857762359
21
2.40093283769476
31
0.000000000000000
  0
LINE
  5
F10733
330
F10734
100
AcDbEntity
8
Geo
100
AcDbLine
10
-31.1987857762359
20
2.40093283769476
30
0.000000000000000
11
-31.0987857762359
21
2.34227474370512
31
0.000000000000000
  0
LINE
  5
F10735
330
F10736
100
AcDbEntity
8
Geo
100
AcDbLine
10
-31.0987857762359
20
2.34227474370512
30
0.000000000000000
11
-30.9987857762359
21
2.28444091498289
31
0.000000000000000
  0
LINE
  5
F10737
330
F10738
100
AcDbEntity
8
Geo
100
AcDbLine
10
-30.9987857762359
20
2.28444091498289
30
0.000000000000000
11
-30.8987857762359
21
2.22744266248702
31
0.000000000000000
  0
LINE
  5
F10739
330
F1073A
100
AcDbEntity
8
Geo
100
AcDbLine
10
-30.8987857762359
20
2.22744266248702
30
0.000000000000000
11
-30.7987857762359
21
2.17129113375706
31
0.000000000000000
  0
LINE
  5
F1073B
330
F1073C
100
AcDbEntity
8
Geo
100
AcDbLine
10
-30.7987857762359
20
2.17129113375706
30
0.000000000000000
11
-30.6987857762359
21
2.11599731073299
31
0.000000000000000
  0
LINE
  5
F1073D
330
F1073E
100
AcDbEntity
8
Geo
100
AcDbLine
10
-30.6987857762359
20
2.11599731073299
30
0.000000000000000
11
-30.5987857762359
21
2.06157200760740
31
0.000000000000000
  0
LINE
  5
F1073F
330
F10740
100
AcDbEntity
8
Geo
100
AcDbLine
10
-30.5987857762359
20
2.06157200760740
30
0.000000000000000
11
-30.4987857762359
21
2.00802586871048
31
0.000000000000000
  0
LINE
  5
F10741
330
F10742
100
AcDbEntity
8
Geo
100
AcDbLine
10
-30.4987857762359
20
2.00802586871048
30
0.000000000000000
11
-30.3987857762359
21
1.95536936642822
31
0.000000000000000
  0
LINE
  5
F10743
330
F10744
100
AcDbEntity
8
Geo
100
AcDbLine
10
-30.3987857762359
20
1.95536936642822
30
0.000000000000000
11
-30.2987857762359
21
1.90361279915430
31
0.000000000000000
  0
LINE
  5
F10745
330
F10746
100
AcDbEntity
8
Geo
100
AcDbLine
10
-30.2987857762359
20
1.90361279915430
30
0.000000000000000
11
-30.1987857762359
21
1.85276628927590
31
0.000000000000000
  0
LINE
  5
F10747
330
F10748
100
AcDbEntity
8
Geo
100
AcDbLine
10
-30.1987857762359
20
1.85276628927590
30
0.000000000000000
11
-30.0987857762359
21
1.80283978119405
31
0.000000000000000
  0
LINE
  5
F10749
330
F1074A
100
AcDbEntity
8
Geo
100
AcDbLine
10
-30.0987857762359
20
1.80283978119405
30
0.000000000000000
11
-29.9987857762359
21
1.75384303937870
31
0.000000000000000
  0
LINE
  5
F1074B
330
F1074C
100
AcDbEntity
8
Geo
100
AcDbLine
10
-29.9987857762359
20
1.75384303937870
30
0.000000000000000
11
-29.8987857762359
21
1.70578564645903
31
0.000000000000000
  0
LINE
  5
F1074D
330
F1074E
100
AcDbEntity
8
Geo
100
AcDbLine
10
-29.8987857762359
20
1.70578564645903
30
0.000000000000000
11
-29.7987857762359
21
1.65867700134932
31
0.000000000000000
  0
LINE
  5
F1074F
330
F10750
100
AcDbEntity
8
Geo
100
AcDbLine
10
-29.7987857762359
20
1.65867700134932
30
0.000000000000000
11
-29.6987857762359
21
1.61252631741070
31
0.000000000000000
  0
LINE
  5
F10751
330
F10752
100
AcDbEntity
8
Geo
100
AcDbLine
10
-29.6987857762359
20
1.61252631741070
30
0.000000000000000
11
-29.5987857762359
21
1.56734262064928
31
0.000000000000000
  0
LINE
  5
F10753
330
F10754
100
AcDbEntity
8
Geo
100
AcDbLine
10
-29.5987857762359
20
1.56734262064928
30
0.000000000000000
11
-29.4987857762359
21
1.52313474795085
31
0.000000000000000
  0
LINE
  5
F10755
330
F10756
100
AcDbEntity
8
Geo
100
AcDbLine
10
-29.4987857762359
20
1.52313474795085
30
0.000000000000000
11
-29.3987857762359
21
1.47991134535257
31
0.000000000000000
  0
LINE
  5
F10757
330
F10758
100
AcDbEntity
8
Geo
100
AcDbLine
10
-29.3987857762359
20
1.47991134535257
30
0.000000000000000
11
-29.2987857762359
21
1.43768086635205
31
0.000000000000000
  0
LINE
  5
F10759
330
F1075A
100
AcDbEntity
8
Geo
100
AcDbLine
10
-29.2987857762359
20
1.43768086635205
30
0.000000000000000
11
-29.1987857762359
21
1.39645157025398
31
0.000000000000000
  0
LINE
  5
F1075B
330
F1075C
100
AcDbEntity
8
Geo
100
AcDbLine
10
-29.1987857762359
20
1.39645157025398
30
0.000000000000000
11
-29.0987857762359
21
1.35623152055487
31
0.000000000000000
  0
LINE
  5
F1075D
330
F1075E
100
AcDbEntity
8
Geo
100
AcDbLine
10
-29.0987857762359
20
1.35623152055487
30
0.000000000000000
11
-28.9987857762359
21
1.31702858336596
31
0.000000000000000
  0
LINE
  5
F1075F
330
F10760
100
AcDbEntity
8
Geo
100
AcDbLine
10
-28.9987857762359
20
1.31702858336596
30
0.000000000000000
11
-28.8987857762359
21
1.27885042587483
31
0.000000000000000
  0
LINE
  5
F10761
330
F10762
100
AcDbEntity
8
Geo
100
AcDbLine
10
-28.8987857762359
20
1.27885042587483
30
0.000000000000000
11
-28.7987857762359
21
1.24170451484585
31
0.000000000000000
  0
LINE
  5
F10763
330
F10764
100
AcDbEntity
8
Geo
100
AcDbLine
10
-28.7987857762359
20
1.24170451484585
30
0.000000000000000
11
-28.6987857762359
21
1.20559811515986
31
0.000000000000000
  0
LINE
  5
F10765
330
F10766
100
AcDbEntity
8
Geo
100
AcDbLine
10
-28.6987857762359
20
1.20559811515986
30
0.000000000000000
11
-28.5987857762359
21
1.17053828839333
31
0.000000000000000
  0
LINE
  5
F10767
330
F10768
100
AcDbEntity
8
Geo
100
AcDbLine
10
-28.5987857762359
20
1.17053828839333
30
0.000000000000000
11
-28.4987857762359
21
1.13653189143729
31
0.000000000000000
  0
LINE
  5
F10769
330
F1076A
100
AcDbEntity
8
Geo
100
AcDbLine
10
-28.4987857762359
20
1.13653189143729
30
0.000000000000000
11
-28.3987857762359
21
1.10358557515626
31
0.000000000000000
  0
LINE
  5
F1076B
330
F1076C
100
AcDbEntity
8
Geo
100
AcDbLine
10
-28.3987857762359
20
1.10358557515626
30
0.000000000000000
11
-28.2987857762359
21
1.07170578308750
31
0.000000000000000
  0
LINE
  5
F1076D
330
F1076E
100
AcDbEntity
8
Geo
100
AcDbLine
10
-28.2987857762359
20
1.07170578308750
30
0.000000000000000
11
-28.1987857762359
21
1.04089875018083
31
0.000000000000000
  0
LINE
  5
F1076F
330
F10770
100
AcDbEntity
8
Geo
100
AcDbLine
10
-28.1987857762359
20
1.04089875018083
30
0.000000000000000
11
-28.0987857762359
21
1.01117050157917
31
0.000000000000000
  0
LINE
  5
F10771
330
F10772
100
AcDbEntity
8
Geo
100
AcDbLine
10
-28.0987857762359
20
1.01117050157917
30
0.000000000000000
11
-27.9987857762359
21
0.982526851440191
31
0.000000000000000
  0
LINE
  5
F10773
330
F10774
100
AcDbEntity
8
Geo
100
AcDbLine
10
-27.9987857762359
20
0.982526851440191
30
0.000000000000000
11
-27.8987857762359
21
0.954973401799212
31
0.000000000000000
  0
LINE
  5
F10775
330
F10776
100
AcDbEntity
8
Geo
100
AcDbLine
10
-27.8987857762359
20
0.954973401799212
30
0.000000000000000
11
-27.7987857762359
21
0.928515541473542
31
0.000000000000000
  0
LINE
  5
F10777
330
F10778
100
AcDbEntity
8
Geo
100
AcDbLine
10
-27.7987857762359
20
0.928515541473542
30
0.000000000000000
11
-27.6987857762359
21
0.903158445008571
31
0.000000000000000
  0
LINE
  5
F10779
330
F1077A
100
AcDbEntity
8
Geo
100
AcDbLine
10
-27.6987857762359
20
0.903158445008571
30
0.000000000000000
11
-27.5987857762359
21
0.878907071665744
31
0.000000000000000
  0
LINE
  5
F1077B
330
F1077C
100
AcDbEntity
8
Geo
100
AcDbLine
10
-27.5987857762359
20
0.878907071665744
30
0.000000000000000
11
-27.4987857762359
21
0.855766164452643
31
0.000000000000000
  0
LINE
  5
F1077D
330
F1077E
100
AcDbEntity
8
Geo
100
AcDbLine
10
-27.4987857762359
20
0.855766164452643
30
0.000000000000000
11
-27.3987857762359
21
0.833740249195361
31
0.000000000000000
  0
LINE
  5
F1077F
330
F10780
100
AcDbEntity
8
Geo
100
AcDbLine
10
-27.3987857762359
20
0.833740249195361
30
0.000000000000000
11
-27.2987857762359
21
0.812833633653366
31
0.000000000000000
  0
LINE
  5
F10781
330
F10782
100
AcDbEntity
8
Geo
100
AcDbLine
10
-27.2987857762359
20
0.812833633653366
30
0.000000000000000
11
-27.1987857762359
21
0.793050406676992
31
0.000000000000000
  0
LINE
  5
F10783
330
F10784
100
AcDbEntity
8
Geo
100
AcDbLine
10
-27.1987857762359
20
0.793050406676992
30
0.000000000000000
11
-27.0987857762359
21
0.774394437407758
31
0.000000000000000
  0
LINE
  5
F10785
330
F10786
100
AcDbEntity
8
Geo
100
AcDbLine
10
-27.0987857762359
20
0.774394437407758
30
0.000000000000000
11
-26.9987857762359
21
0.756869374521661
31
0.000000000000000
  0
LINE
  5
F10787
330
F10788
100
AcDbEntity
8
Geo
100
AcDbLine
10
-26.9987857762359
20
0.756869374521661
30
0.000000000000000
11
-26.8987857762359
21
0.740478645515561
31
0.000000000000000
  0
LINE
  5
F10789
330
F1078A
100
AcDbEntity
8
Geo
100
AcDbLine
10
-26.8987857762359
20
0.740478645515561
30
0.000000000000000
11
-26.7987857762359
21
0.725225456036864
31
0.000000000000000
  0
LINE
  5
F1078B
330
F1078C
100
AcDbEntity
8
Geo
100
AcDbLine
10
-26.7987857762359
20
0.725225456036864
30
0.000000000000000
11
-26.6987857762360
21
0.711112789256554
31
0.000000000000000
  0
LINE
  5
F1078D
330
F1078E
100
AcDbEntity
8
Geo
100
AcDbLine
10
-26.6987857762360
20
0.711112789256554
30
0.000000000000000
11
-26.5987857762359
21
0.698143405285762
31
0.000000000000000
  0
LINE
  5
F1078F
330
F10790
100
AcDbEntity
8
Geo
100
AcDbLine
10
-26.5987857762359
20
0.698143405285762
30
0.000000000000000
11
-26.4987857762359
21
0.686319840635957
31
0.000000000000000
  0
LINE
  5
F10791
330
F10792
100
AcDbEntity
8
Geo
100
AcDbLine
10
-26.4987857762359
20
0.686319840635957
30
0.000000000000000
11
-26.3987857762360
21
0.675644407722847
31
0.000000000000000
  0
LINE
  5
F10793
330
F10794
100
AcDbEntity
8
Geo
100
AcDbLine
10
-26.3987857762360
20
0.675644407722847
30
0.000000000000000
11
-26.2987857762360
21
0.666119194414141
31
0.000000000000000
  0
LINE
  5
F10795
330
F10796
100
AcDbEntity
8
Geo
100
AcDbLine
10
-26.2987857762360
20
0.666119194414141
30
0.000000000000000
11
-26.1987857762360
21
0.657746063621199
31
0.000000000000000
  0
LINE
  5
F10797
330
F10798
100
AcDbEntity
8
Geo
100
AcDbLine
10
-26.1987857762360
20
0.657746063621199
30
0.000000000000000
11
-26.0987857762359
21
0.650526652934698
31
0.000000000000000
  0
LINE
  5
F10799
330
F1079A
100
AcDbEntity
8
Geo
100
AcDbLine
10
-26.0987857762359
20
0.650526652934698
30
0.000000000000000
11
-25.9987857762360
21
0.644462374304346
31
0.000000000000000
  0
LINE
  5
F1079B
330
F1079C
100
AcDbEntity
8
Geo
100
AcDbLine
10
-25.9987857762360
20
0.644462374304346
30
0.000000000000000
11
-25.8987857762360
21
0.639554413762752
31
0.000000000000000
  0
LINE
  5
F1079D
330
F1079E
100
AcDbEntity
8
Geo
100
AcDbLine
10
-25.8987857762360
20
0.639554413762752
30
0.000000000000000
11
-25.7987857762360
21
0.635803731193458
31
0.000000000000000
  0
LINE
  5
F1079F
330
F107A0
100
AcDbEntity
8
Geo
100
AcDbLine
10
-25.7987857762360
20
0.635803731193458
30
0.000000000000000
11
-25.6987857762360
21
0.633211060143200
31
0.000000000000000
  0
LINE
  5
F107A1
330
F107A2
100
AcDbEntity
8
Geo
100
AcDbLine
10
-25.6987857762360
20
0.633211060143200
30
0.000000000000000
11
-25.5987857762360
21
0.631776907678455
31
0.000000000000000
  0
LINE
  5
F107A3
330
F107A4
100
AcDbEntity
8
Geo
100
AcDbLine
10
-25.5987857762360
20
0.631776907678455
30
0.000000000000000
11
-25.5250255284288
21
0.556808326105809
31
0.000000000000000
  0
LINE
  5
F107A5
330
F107A6
100
AcDbEntity
8
Geo
100
AcDbLine
10
-18.0370167470467
20
12.5568083261058
30
0.000000000000000
11
-17.9987857762360
21
12.4820703024939
31
0.000000000000000
  0
LINE
  5
F107A7
330
F107A8
100
AcDbEntity
8
Geo
100
AcDbLine
10
-17.9987857762360
20
12.4820703024939
30
0.000000000000000
11
-17.8987857762360
21
12.4810478481365
31
0.000000000000000
  0
LINE
  5
F107A9
330
F107AA
100
AcDbEntity
8
Geo
100
AcDbLine
10
-17.8987857762360
20
12.4810478481365
30
0.000000000000000
11
-17.7987857762360
21
12.4788667495832
31
0.000000000000000
  0
LINE
  5
F107AB
330
F107AC
100
AcDbEntity
8
Geo
100
AcDbLine
10
-17.7987857762360
20
12.4788667495832
30
0.000000000000000
11
-17.6987857762360
21
12.4755274334063
31
0.000000000000000
  0
LINE
  5
F107AD
330
F107AE
100
AcDbEntity
8
Geo
100
AcDbLine
10
-17.6987857762360
20
12.4755274334063
30
0.000000000000000
11
-17.5987857762360
21
12.4710305526989
31
0.000000000000000
  0
LINE
  5
F107AF
330
F107B0
100
AcDbEntity
8
Geo
100
AcDbLine
10
-17.5987857762360
20
12.4710305526989
30
0.000000000000000
11
-17.4987857762360
21
12.4653769869468
31
0.000000000000000
  0
LINE
  5
F107B1
330
F107B2
100
AcDbEntity
8
Geo
100
AcDbLine
10
-17.4987857762360
20
12.4653769869468
30
0.000000000000000
11
-17.3987857762360
21
12.4585678418567
31
0.000000000000000
  0
LINE
  5
F107B3
330
F107B4
100
AcDbEntity
8
Geo
100
AcDbLine
10
-17.3987857762360
20
12.4585678418567
30
0.000000000000000
11
-17.2987857762360
21
12.4506044491398
31
0.000000000000000
  0
LINE
  5
F107B5
330
F107B6
100
AcDbEntity
8
Geo
100
AcDbLine
10
-17.2987857762360
20
12.4506044491398
30
0.000000000000000
11
-17.1987857762360
21
12.4414883662515
31
0.000000000000000
  0
LINE
  5
F107B7
330
F107B8
100
AcDbEntity
8
Geo
100
AcDbLine
10
-17.1987857762360
20
12.4414883662515
30
0.000000000000000
11
-17.0987857762360
21
12.4312213760867
31
0.000000000000000
  0
LINE
  5
F107B9
330
F107BA
100
AcDbEntity
8
Geo
100
AcDbLine
10
-17.0987857762360
20
12.4312213760867
30
0.000000000000000
11
-16.9987857762360
21
12.4198054866312
31
0.000000000000000
  0
LINE
  5
F107BB
330
F107BC
100
AcDbEntity
8
Geo
100
AcDbLine
10
-16.9987857762360
20
12.4198054866312
30
0.000000000000000
11
-16.8987857762360
21
12.4072429305688
31
0.000000000000000
  0
LINE
  5
F107BD
330
F107BE
100
AcDbEntity
8
Geo
100
AcDbLine
10
-16.8987857762360
20
12.4072429305688
30
0.000000000000000
11
-16.7987857762360
21
12.3935361648450
31
0.000000000000000
  0
LINE
  5
F107BF
330
F107C0
100
AcDbEntity
8
Geo
100
AcDbLine
10
-16.7987857762360
20
12.3935361648450
30
0.000000000000000
11
-16.6987857762360
21
12.3786878701859
31
0.000000000000000
  0
LINE
  5
F107C1
330
F107C2
100
AcDbEntity
8
Geo
100
AcDbLine
10
-16.6987857762360
20
12.3786878701859
30
0.000000000000000
11
-16.5987857762360
21
12.3627009505745
31
0.000000000000000
  0
LINE
  5
F107C3
330
F107C4
100
AcDbEntity
8
Geo
100
AcDbLine
10
-16.5987857762360
20
12.3627009505745
30
0.000000000000000
11
-16.4987857762360
21
12.3455785326824
31
0.000000000000000
  0
LINE
  5
F107C5
330
F107C6
100
AcDbEntity
8
Geo
100
AcDbLine
10
-16.4987857762360
20
12.3455785326824
30
0.000000000000000
11
-16.3987857762360
21
12.3273239652585
31
0.000000000000000
  0
LINE
  5
F107C7
330
F107C8
100
AcDbEntity
8
Geo
100
AcDbLine
10
-16.3987857762360
20
12.3273239652585
30
0.000000000000000
11
-16.2987857762360
21
12.3079408184737
31
0.000000000000000
  0
LINE
  5
F107C9
330
F107CA
100
AcDbEntity
8
Geo
100
AcDbLine
10
-16.2987857762360
20
12.3079408184737
30
0.000000000000000
11
-16.1987857762360
21
12.2874328832233
31
0.000000000000000
  0
LINE
  5
F107CB
330
F107CC
100
AcDbEntity
8
Geo
100
AcDbLine
10
-16.1987857762360
20
12.2874328832233
30
0.000000000000000
11
-16.0987857762360
21
12.2658041703849
31
0.000000000000000
  0
LINE
  5
F107CD
330
F107CE
100
AcDbEntity
8
Geo
100
AcDbLine
10
-16.0987857762360
20
12.2658041703849
30
0.000000000000000
11
-15.9987857762360
21
12.2430589100344
31
0.000000000000000
  0
LINE
  5
F107CF
330
F107D0
100
AcDbEntity
8
Geo
100
AcDbLine
10
-15.9987857762360
20
12.2430589100344
30
0.000000000000000
11
-15.8987857762360
21
12.2192015506184
31
0.000000000000000
  0
LINE
  5
F107D1
330
F107D2
100
AcDbEntity
8
Geo
100
AcDbLine
10
-15.8987857762360
20
12.2192015506184
30
0.000000000000000
11
-15.7987857762360
21
12.1942367580846
31
0.000000000000000
  0
LINE
  5
F107D3
330
F107D4
100
AcDbEntity
8
Geo
100
AcDbLine
10
-15.7987857762360
20
12.1942367580846
30
0.000000000000000
11
-15.6987857762360
21
12.1681694149688
31
0.000000000000000
  0
LINE
  5
F107D5
330
F107D6
100
AcDbEntity
8
Geo
100
AcDbLine
10
-15.6987857762360
20
12.1681694149688
30
0.000000000000000
11
-15.5987857762360
21
12.1410046194403
31
0.000000000000000
  0
LINE
  5
F107D7
330
F107D8
100
AcDbEntity
8
Geo
100
AcDbLine
10
-15.5987857762360
20
12.1410046194403
30
0.000000000000000
11
-15.4987857762360
21
12.1127476843047
31
0.000000000000000
  0
LINE
  5
F107D9
330
F107DA
100
AcDbEntity
8
Geo
100
AcDbLine
10
-15.4987857762360
20
12.1127476843047
30
0.000000000000000
11
-15.3987857762360
21
12.0834041359647
31
0.000000000000000
  0
LINE
  5
F107DB
330
F107DC
100
AcDbEntity
8
Geo
100
AcDbLine
10
-15.3987857762360
20
12.0834041359647
30
0.000000000000000
11
-15.2987857762360
21
12.0529797133395
31
0.000000000000000
  0
LINE
  5
F107DD
330
F107DE
100
AcDbEntity
8
Geo
100
AcDbLine
10
-15.2987857762360
20
12.0529797133395
30
0.000000000000000
11
-15.1987857762360
21
12.0214803667425
31
0.000000000000000
  0
LINE
  5
F107DF
330
F107E0
100
AcDbEntity
8
Geo
100
AcDbLine
10
-15.1987857762360
20
12.0214803667425
30
0.000000000000000
11
-15.0987857762360
21
11.9889122567169
31
0.000000000000000
  0
LINE
  5
F107E1
330
F107E2
100
AcDbEntity
8
Geo
100
AcDbLine
10
-15.0987857762360
20
11.9889122567169
30
0.000000000000000
11
-14.9987857762360
21
11.9552817528318
31
0.000000000000000
  0
LINE
  5
F107E3
330
F107E4
100
AcDbEntity
8
Geo
100
AcDbLine
10
-14.9987857762360
20
11.9552817528318
30
0.000000000000000
11
-14.8987857762360
21
11.9205954324356
31
0.000000000000000
  0
LINE
  5
F107E5
330
F107E6
100
AcDbEntity
8
Geo
100
AcDbLine
10
-14.8987857762360
20
11.9205954324356
30
0.000000000000000
11
-14.7987857762360
21
11.8848600793701
31
0.000000000000000
  0
LINE
  5
F107E7
330
F107E8
100
AcDbEntity
8
Geo
100
AcDbLine
10
-14.7987857762360
20
11.8848600793701
30
0.000000000000000
11
-14.6987857762360
21
11.8480826826438
31
0.000000000000000
  0
LINE
  5
F107E9
330
F107EA
100
AcDbEntity
8
Geo
100
AcDbLine
10
-14.6987857762360
20
11.8480826826438
30
0.000000000000000
11
-14.5987857762360
21
11.8102704350645
31
0.000000000000000
  0
LINE
  5
F107EB
330
F107EC
100
AcDbEntity
8
Geo
100
AcDbLine
10
-14.5987857762360
20
11.8102704350645
30
0.000000000000000
11
-14.4987857762360
21
11.7714307318332
31
0.000000000000000
  0
LINE
  5
F107ED
330
F107EE
100
AcDbEntity
8
Geo
100
AcDbLine
10
-14.4987857762360
20
11.7714307318332
30
0.000000000000000
11
-14.3987857762360
21
11.7315711690972
31
0.000000000000000
  0
LINE
  5
F107EF
330
F107F0
100
AcDbEntity
8
Geo
100
AcDbLine
10
-14.3987857762360
20
11.7315711690972
30
0.000000000000000
11
-14.2987857762360
21
11.6906995424648
31
0.000000000000000
  0
LINE
  5
F107F1
330
F107F2
100
AcDbEntity
8
Geo
100
AcDbLine
10
-14.2987857762360
20
11.6906995424648
30
0.000000000000000
11
-14.1987857762360
21
11.6488238454808
31
0.000000000000000
  0
LINE
  5
F107F3
330
F107F4
100
AcDbEntity
8
Geo
100
AcDbLine
10
-14.1987857762360
20
11.6488238454808
30
0.000000000000000
11
-14.0987857762360
21
11.6059522680626
31
0.000000000000000
  0
LINE
  5
F107F5
330
F107F6
100
AcDbEntity
8
Geo
100
AcDbLine
10
-14.0987857762360
20
11.6059522680626
30
0.000000000000000
11
-13.9987857762360
21
11.5620931948991
31
0.000000000000000
  0
LINE
  5
F107F7
330
F107F8
100
AcDbEntity
8
Geo
100
AcDbLine
10
-13.9987857762360
20
11.5620931948991
30
0.000000000000000
11
-13.8987857762360
21
11.5172552038101
31
0.000000000000000
  0
LINE
  5
F107F9
330
F107FA
100
AcDbEntity
8
Geo
100
AcDbLine
10
-13.8987857762360
20
11.5172552038101
30
0.000000000000000
11
-13.7987857762360
21
11.4714470640695
31
0.000000000000000
  0
LINE
  5
F107FB
330
F107FC
100
AcDbEntity
8
Geo
100
AcDbLine
10
-13.7987857762360
20
11.4714470640695
30
0.000000000000000
11
-13.6987857762360
21
11.4246777346898
31
0.000000000000000
  0
LINE
  5
F107FD
330
F107FE
100
AcDbEntity
8
Geo
100
AcDbLine
10
-13.6987857762360
20
11.4246777346898
30
0.000000000000000
11
-13.5987857762359
21
11.3769563626696
31
0.000000000000000
  0
LINE
  5
F107FF
330
F10800
100
AcDbEntity
8
Geo
100
AcDbLine
10
-13.5987857762359
20
11.3769563626696
30
0.000000000000000
11
-13.4987857762359
21
11.3282922812054
31
0.000000000000000
  0
LINE
  5
F10801
330
F10802
100
AcDbEntity
8
Geo
100
AcDbLine
10
-13.4987857762359
20
11.3282922812054
30
0.000000000000000
11
-13.3987857762359
21
11.2786950078656
31
0.000000000000000
  0
LINE
  5
F10803
330
F10804
100
AcDbEntity
8
Geo
100
AcDbLine
10
-13.3987857762359
20
11.2786950078656
30
0.000000000000000
11
-13.2987857762359
21
11.2281742427296
31
0.000000000000000
  0
LINE
  5
F10805
330
F10806
100
AcDbEntity
8
Geo
100
AcDbLine
10
-13.2987857762359
20
11.2281742427296
30
0.000000000000000
11
-13.1987857762359
21
11.1767398664902
31
0.000000000000000
  0
LINE
  5
F10807
330
F10808
100
AcDbEntity
8
Geo
100
AcDbLine
10
-13.1987857762359
20
11.1767398664902
30
0.000000000000000
11
-13.0987857762359
21
11.1244019385215
31
0.000000000000000
  0
LINE
  5
F10809
330
F1080A
100
AcDbEntity
8
Geo
100
AcDbLine
10
-13.0987857762359
20
11.1244019385215
30
0.000000000000000
11
-12.9987857762359
21
11.0711706949114
31
0.000000000000000
  0
LINE
  5
F1080B
330
F1080C
100
AcDbEntity
8
Geo
100
AcDbLine
10
-12.9987857762359
20
11.0711706949114
30
0.000000000000000
11
-12.8987857762359
21
11.0170565464597
31
0.000000000000000
  0
LINE
  5
F1080D
330
F1080E
100
AcDbEntity
8
Geo
100
AcDbLine
10
-12.8987857762359
20
11.0170565464597
30
0.000000000000000
11
-12.7987857762359
21
10.9620700766419
31
0.000000000000000
  0
LINE
  5
F1080F
330
F10810
100
AcDbEntity
8
Geo
100
AcDbLine
10
-12.7987857762359
20
10.9620700766419
30
0.000000000000000
11
-12.6987857762359
21
10.9062220395393
31
0.000000000000000
  0
LINE
  5
F10811
330
F10812
100
AcDbEntity
8
Geo
100
AcDbLine
10
-12.6987857762359
20
10.9062220395393
30
0.000000000000000
11
-12.5987857762359
21
10.8495233577362
31
0.000000000000000
  0
LINE
  5
F10813
330
F10814
100
AcDbEntity
8
Geo
100
AcDbLine
10
-12.5987857762359
20
10.8495233577362
30
0.000000000000000
11
-12.4987857762359
21
10.7919851201828
31
0.000000000000000
  0
LINE
  5
F10815
330
F10816
100
AcDbEntity
8
Geo
100
AcDbLine
10
-12.4987857762359
20
10.7919851201828
30
0.000000000000000
11
-12.3987857762359
21
10.7336185800274
31
0.000000000000000
  0
LINE
  5
F10817
330
F10818
100
AcDbEntity
8
Geo
100
AcDbLine
10
-12.3987857762359
20
10.7336185800274
30
0.000000000000000
11
-12.2987857762359
21
10.6744351524149
31
0.000000000000000
  0
LINE
  5
F10819
330
F1081A
100
AcDbEntity
8
Geo
100
AcDbLine
10
-12.2987857762359
20
10.6744351524149
30
0.000000000000000
11
-12.1987857762359
21
10.6144464122546
31
0.000000000000000
  0
LINE
  5
F1081B
330
F1081C
100
AcDbEntity
8
Geo
100
AcDbLine
10
-12.1987857762359
20
10.6144464122546
30
0.000000000000000
11
-12.0987857762359
21
10.5536640919562
31
0.000000000000000
  0
LINE
  5
F1081D
330
F1081E
100
AcDbEntity
8
Geo
100
AcDbLine
10
-12.0987857762359
20
10.5536640919562
30
0.000000000000000
11
-11.9987857762359
21
10.4921000791355
31
0.000000000000000
  0
LINE
  5
F1081F
330
F10820
100
AcDbEntity
8
Geo
100
AcDbLine
10
-11.9987857762359
20
10.4921000791355
30
0.000000000000000
11
-11.8987857762359
21
10.4297664142890
31
0.000000000000000
  0
LINE
  5
F10821
330
F10822
100
AcDbEntity
8
Geo
100
AcDbLine
10
-11.8987857762359
20
10.4297664142890
30
0.000000000000000
11
-11.7987857762359
21
10.3666752884396
31
0.000000000000000
  0
LINE
  5
F10823
330
F10824
100
AcDbEntity
8
Geo
100
AcDbLine
10
-11.7987857762359
20
10.3666752884396
30
0.000000000000000
11
-11.6987857762359
21
10.3028390407520
31
0.000000000000000
  0
LINE
  5
F10825
330
F10826
100
AcDbEntity
8
Geo
100
AcDbLine
10
-11.6987857762359
20
10.3028390407520
30
0.000000000000000
11
-11.5987857762359
21
10.2382701561192
31
0.000000000000000
  0
LINE
  5
F10827
330
F10828
100
AcDbEntity
8
Geo
100
AcDbLine
10
-11.5987857762359
20
10.2382701561192
30
0.000000000000000
11
-11.4987857762359
21
10.1729812627214
31
0.000000000000000
  0
LINE
  5
F10829
330
F1082A
100
AcDbEntity
8
Geo
100
AcDbLine
10
-11.4987857762359
20
10.1729812627214
30
0.000000000000000
11
-11.3987857762359
21
10.1069851295557
31
0.000000000000000
  0
LINE
  5
F1082B
330
F1082C
100
AcDbEntity
8
Geo
100
AcDbLine
10
-11.3987857762359
20
10.1069851295557
30
0.000000000000000
11
-11.2987857762359
21
10.0402946639389
31
0.000000000000000
  0
LINE
  5
F1082D
330
F1082E
100
AcDbEntity
8
Geo
100
AcDbLine
10
-11.2987857762359
20
10.0402946639389
30
0.000000000000000
11
-11.1987857762359
21
9.97292290898339
31
0.000000000000000
  0
LINE
  5
F1082F
330
F10830
100
AcDbEntity
8
Geo
100
AcDbLine
10
-11.1987857762359
20
9.97292290898339
30
0.000000000000000
11
-11.0987857762359
21
9.90488304104567
31
0.000000000000000
  0
LINE
  5
F10831
330
F10832
100
AcDbEntity
8
Geo
100
AcDbLine
10
-11.0987857762359
20
9.90488304104567
30
0.000000000000000
11
-10.9987857762359
21
9.83618836714988
31
0.000000000000000
  0
LINE
  5
F10833
330
F10834
100
AcDbEntity
8
Geo
100
AcDbLine
10
-10.9987857762359
20
9.83618836714988
30
0.000000000000000
11
-10.8987857762359
21
9.76685232238502
31
0.000000000000000
  0
LINE
  5
F10835
330
F10836
100
AcDbEntity
8
Geo
100
AcDbLine
10
-10.8987857762359
20
9.76685232238502
30
0.000000000000000
11
-10.7987857762359
21
9.69688846727738
31
0.000000000000000
  0
LINE
  5
F10837
330
F10838
100
AcDbEntity
8
Geo
100
AcDbLine
10
-10.7987857762359
20
9.69688846727738
30
0.000000000000000
11
-10.6987857762359
21
9.62631048513844
31
0.000000000000000
  0
LINE
  5
F10839
330
F1083A
100
AcDbEntity
8
Geo
100
AcDbLine
10
-10.6987857762359
20
9.62631048513844
30
0.000000000000000
11
-10.5987857762359
21
9.55513217938872
31
0.000000000000000
  0
LINE
  5
F1083B
330
F1083C
100
AcDbEntity
8
Geo
100
AcDbLine
10
-10.5987857762359
20
9.55513217938872
30
0.000000000000000
11
-10.4987857762359
21
9.48336747085816
31
0.000000000000000
  0
LINE
  5
F1083D
330
F1083E
100
AcDbEntity
8
Geo
100
AcDbLine
10
-10.4987857762359
20
9.48336747085816
30
0.000000000000000
11
-10.3987857762359
21
9.41103039506348
31
0.000000000000000
  0
LINE
  5
F1083F
330
F10840
100
AcDbEntity
8
Geo
100
AcDbLine
10
-10.3987857762359
20
9.41103039506348
30
0.000000000000000
11
-10.2987857762359
21
9.33813509946323
31
0.000000000000000
  0
LINE
  5
F10841
330
F10842
100
AcDbEntity
8
Geo
100
AcDbLine
10
-10.2987857762359
20
9.33813509946323
30
0.000000000000000
11
-10.1987857762359
21
9.26469584069083
31
0.000000000000000
  0
LINE
  5
F10843
330
F10844
100
AcDbEntity
8
Geo
100
AcDbLine
10
-10.1987857762359
20
9.26469584069083
30
0.000000000000000
11
-10.0987857762359
21
9.19072698176632
31
0.000000000000000
  0
LINE
  5
F10845
330
F10846
100
AcDbEntity
8
Geo
100
AcDbLine
10
-10.0987857762359
20
9.19072698176632
30
0.000000000000000
11
-9.99878577623590
21
9.11624298928727
31
0.000000000000000
  0
LINE
  5
F10847
330
F10848
100
AcDbEntity
8
Geo
100
AcDbLine
10
-9.99878577623590
20
9.11624298928727
30
0.000000000000000
11
-9.89878577623590
21
9.04125843059944
31
0.000000000000000
  0
LINE
  5
F10849
330
F1084A
100
AcDbEntity
8
Geo
100
AcDbLine
10
-9.89878577623590
20
9.04125843059944
30
0.000000000000000
11
-9.79878577623590
21
8.96578797094779
31
0.000000000000000
  0
LINE
  5
F1084B
330
F1084C
100
AcDbEntity
8
Geo
100
AcDbLine
10
-9.79878577623590
20
8.96578797094779
30
0.000000000000000
11
-9.69878577623589
21
8.88984637060824
31
0.000000000000000
  0
LINE
  5
F1084D
330
F1084E
100
AcDbEntity
8
Geo
100
AcDbLine
10
-9.69878577623589
20
8.88984637060824
30
0.000000000000000
11
-9.59878577623589
21
8.81344848200096
31
0.000000000000000
  0
LINE
  5
F1084F
330
F10850
100
AcDbEntity
8
Geo
100
AcDbLine
10
-9.59878577623589
20
8.81344848200096
30
0.000000000000000
11
-9.49878577623589
21
8.73660924678552
31
0.000000000000000
  0
LINE
  5
F10851
330
F10852
100
AcDbEntity
8
Geo
100
AcDbLine
10
-9.49878577623589
20
8.73660924678552
30
0.000000000000000
11
-9.39878577623589
21
8.65934369293870
31
0.000000000000000
  0
LINE
  5
F10853
330
F10854
100
AcDbEntity
8
Geo
100
AcDbLine
10
-32.2987857762359
20
12.2496879454759
30
0.000000000000000
11
-32.1987857762359
21
12.3421722686137
31
0.000000000000000
  0
LINE
  5
F10855
330
F10856
100
AcDbEntity
8
Geo
100
AcDbLine
10
-32.1987857762359
20
12.3421722686137
30
0.000000000000000
11
-32.0987857762359
21
12.4337884821328
31
0.000000000000000
  0
LINE
  5
F10857
330
F10858
100
AcDbEntity
8
Geo
100
AcDbLine
10
-32.0987857762359
20
12.4337884821328
30
0.000000000000000
11
-31.9987857762359
21
12.4226479343919
31
0.000000000000000
  0
LINE
  5
F10859
330
F1085A
100
AcDbEntity
8
Geo
100
AcDbLine
10
-31.9987857762359
20
12.4226479343919
30
0.000000000000000
11
-31.8987857762359
21
12.4103601641272
31
0.000000000000000
  0
LINE
  5
F1085B
330
F1085C
100
AcDbEntity
8
Geo
100
AcDbLine
10
-31.8987857762359
20
12.4103601641272
30
0.000000000000000
11
-31.7987857762359
21
12.3969275745422
31
0.000000000000000
  0
LINE
  5
F1085D
330
F1085E
100
AcDbEntity
8
Geo
100
AcDbLine
10
-31.7987857762359
20
12.3969275745422
30
0.000000000000000
11
-31.6987857762359
21
12.3823527927406
31
0.000000000000000
  0
LINE
  5
F1085F
330
F10860
100
AcDbEntity
8
Geo
100
AcDbLine
10
-31.6987857762359
20
12.3823527927406
30
0.000000000000000
11
-31.5987857762359
21
12.3666386692127
31
0.000000000000000
  0
LINE
  5
F10861
330
F10862
100
AcDbEntity
8
Geo
100
AcDbLine
10
-31.5987857762359
20
12.3666386692127
30
0.000000000000000
11
-31.4987857762359
21
12.3497882772775
31
0.000000000000000
  0
LINE
  5
F10863
330
F10864
100
AcDbEntity
8
Geo
100
AcDbLine
10
-31.4987857762359
20
12.3497882772775
30
0.000000000000000
11
-31.3987857762359
21
12.3318049124817
31
0.000000000000000
  0
LINE
  5
F10865
330
F10866
100
AcDbEntity
8
Geo
100
AcDbLine
10
-31.3987857762359
20
12.3318049124817
30
0.000000000000000
11
-31.2987857762359
21
12.3126920919555
31
0.000000000000000
  0
LINE
  5
F10867
330
F10868
100
AcDbEntity
8
Geo
100
AcDbLine
10
-31.2987857762359
20
12.3126920919555
30
0.000000000000000
11
-31.1987857762359
21
12.2924535537245
31
0.000000000000000
  0
LINE
  5
F10869
330
F1086A
100
AcDbEntity
8
Geo
100
AcDbLine
10
-31.1987857762359
20
12.2924535537245
30
0.000000000000000
11
-31.0987857762359
21
12.2710932559785
31
0.000000000000000
  0
LINE
  5
F1086B
330
F1086C
100
AcDbEntity
8
Geo
100
AcDbLine
10
-31.0987857762359
20
12.2710932559785
30
0.000000000000000
11
-30.9987857762359
21
12.2486153762975
31
0.000000000000000
  0
LINE
  5
F1086D
330
F1086E
100
AcDbEntity
8
Geo
100
AcDbLine
10
-30.9987857762359
20
12.2486153762975
30
0.000000000000000
11
-30.8987857762359
21
12.2250243108349
31
0.000000000000000
  0
LINE
  5
F1086F
330
F10870
100
AcDbEntity
8
Geo
100
AcDbLine
10
-30.8987857762359
20
12.2250243108349
30
0.000000000000000
11
-30.7987857762359
21
12.2003246734573
31
0.000000000000000
  0
LINE
  5
F10871
330
F10872
100
AcDbEntity
8
Geo
100
AcDbLine
10
-30.7987857762359
20
12.2003246734573
30
0.000000000000000
11
-30.6987857762359
21
12.1745212948423
31
0.000000000000000
  0
LINE
  5
F10873
330
F10874
100
AcDbEntity
8
Geo
100
AcDbLine
10
-30.6987857762359
20
12.1745212948423
30
0.000000000000000
11
-30.5987857762359
21
12.1476192215338
31
0.000000000000000
  0
LINE
  5
F10875
330
F10876
100
AcDbEntity
8
Geo
100
AcDbLine
10
-30.5987857762359
20
12.1476192215338
30
0.000000000000000
11
-30.4987857762359
21
12.1196237149550
31
0.000000000000000
  0
LINE
  5
F10877
330
F10878
100
AcDbEntity
8
Geo
100
AcDbLine
10
-30.4987857762359
20
12.1196237149550
30
0.000000000000000
11
-30.3987857762359
21
12.0905402503793
31
0.000000000000000
  0
LINE
  5
F10879
330
F1087A
100
AcDbEntity
8
Geo
100
AcDbLine
10
-30.3987857762359
20
12.0905402503793
30
0.000000000000000
11
-30.2987857762359
21
12.0603745158596
31
0.000000000000000
  0
LINE
  5
F1087B
330
F1087C
100
AcDbEntity
8
Geo
100
AcDbLine
10
-30.2987857762359
20
12.0603745158596
30
0.000000000000000
11
-30.1987857762359
21
12.0291324111157
31
0.000000000000000
  0
LINE
  5
F1087D
330
F1087E
100
AcDbEntity
8
Geo
100
AcDbLine
10
-30.1987857762359
20
12.0291324111157
30
0.000000000000000
11
-30.0987857762359
21
11.9968200463804
31
0.000000000000000
  0
LINE
  5
F1087F
330
F10880
100
AcDbEntity
8
Geo
100
AcDbLine
10
-30.0987857762359
20
11.9968200463804
30
0.000000000000000
11
-29.9987857762359
21
11.9634437412048
31
0.000000000000000
  0
LINE
  5
F10881
330
F10882
100
AcDbEntity
8
Geo
100
AcDbLine
10
-29.9987857762359
20
11.9634437412048
30
0.000000000000000
11
-29.8987857762359
21
11.9290100232221
31
0.000000000000000
  0
LINE
  5
F10883
330
F10884
100
AcDbEntity
8
Geo
100
AcDbLine
10
-29.8987857762359
20
11.9290100232221
30
0.000000000000000
11
-29.7987857762359
21
11.8935256268709
31
0.000000000000000
  0
LINE
  5
F10885
330
F10886
100
AcDbEntity
8
Geo
100
AcDbLine
10
-29.7987857762359
20
11.8935256268709
30
0.000000000000000
11
-29.6987857762359
21
11.8569974920781
31
0.000000000000000
  0
LINE
  5
F10887
330
F10888
100
AcDbEntity
8
Geo
100
AcDbLine
10
-29.6987857762359
20
11.8569974920781
30
0.000000000000000
11
-29.5987857762359
21
11.8194327629019
31
0.000000000000000
  0
LINE
  5
F10889
330
F1088A
100
AcDbEntity
8
Geo
100
AcDbLine
10
-29.5987857762359
20
11.8194327629019
30
0.000000000000000
11
-29.4987857762359
21
11.7808387861343
31
0.000000000000000
  0
LINE
  5
F1088B
330
F1088C
100
AcDbEntity
8
Geo
100
AcDbLine
10
-29.4987857762359
20
11.7808387861343
30
0.000000000000000
11
-29.3987857762359
21
11.7412231098642
31
0.000000000000000
  0
LINE
  5
F1088D
330
F1088E
100
AcDbEntity
8
Geo
100
AcDbLine
10
-29.3987857762359
20
11.7412231098642
30
0.000000000000000
11
-29.2987857762359
21
11.7005934820015
31
0.000000000000000
  0
LINE
  5
F1088F
330
F10890
100
AcDbEntity
8
Geo
100
AcDbLine
10
-29.2987857762359
20
11.7005934820015
30
0.000000000000000
11
-29.1987857762359
21
11.6589578487615
31
0.000000000000000
  0
LINE
  5
F10891
330
F10892
100
AcDbEntity
8
Geo
100
AcDbLine
10
-29.1987857762359
20
11.6589578487615
30
0.000000000000000
11
-29.0987857762359
21
11.6163243531106
31
0.000000000000000
  0
LINE
  5
F10893
330
F10894
100
AcDbEntity
8
Geo
100
AcDbLine
10
-29.0987857762359
20
11.6163243531106
30
0.000000000000000
11
-28.9987857762359
21
11.5727013331745
31
0.000000000000000
  0
LINE
  5
F10895
330
F10896
100
AcDbEntity
8
Geo
100
AcDbLine
10
-28.9987857762359
20
11.5727013331745
30
0.000000000000000
11
-28.8987857762359
21
11.5280973206066
31
0.000000000000000
  0
LINE
  5
F10897
330
F10898
100
AcDbEntity
8
Geo
100
AcDbLine
10
-28.8987857762359
20
11.5280973206066
30
0.000000000000000
11
-28.7987857762359
21
11.4825210389199
31
0.000000000000000
  0
LINE
  5
F10899
330
F1089A
100
AcDbEntity
8
Geo
100
AcDbLine
10
-28.7987857762359
20
11.4825210389199
30
0.000000000000000
11
-28.6987857762359
21
11.4359814017806
31
0.000000000000000
  0
LINE
  5
F1089B
330
F1089C
100
AcDbEntity
8
Geo
100
AcDbLine
10
-28.6987857762359
20
11.4359814017806
30
0.000000000000000
11
-28.5987857762359
21
11.3884875112652
31
0.000000000000000
  0
LINE
  5
F1089D
330
F1089E
100
AcDbEntity
8
Geo
100
AcDbLine
10
-28.5987857762359
20
11.3884875112652
30
0.000000000000000
11
-28.4987857762359
21
11.3400486560798
31
0.000000000000000
  0
LINE
  5
F1089F
330
F108A0
100
AcDbEntity
8
Geo
100
AcDbLine
10
-28.4987857762359
20
11.3400486560798
30
0.000000000000000
11
-28.3987857762359
21
11.2906743097440
31
0.000000000000000
  0
LINE
  5
F108A1
330
F108A2
100
AcDbEntity
8
Geo
100
AcDbLine
10
-28.3987857762359
20
11.2906743097440
30
0.000000000000000
11
-28.2987857762359
21
11.2403741287376
31
0.000000000000000
  0
LINE
  5
F108A3
330
F108A4
100
AcDbEntity
8
Geo
100
AcDbLine
10
-28.2987857762359
20
11.2403741287376
30
0.000000000000000
11
-28.1987857762359
21
11.1891579506123
31
0.000000000000000
  0
LINE
  5
F108A5
330
F108A6
100
AcDbEntity
8
Geo
100
AcDbLine
10
-28.1987857762359
20
11.1891579506123
30
0.000000000000000
11
-28.0987857762359
21
11.1370357920678
31
0.000000000000000
  0
LINE
  5
F108A7
330
F108A8
100
AcDbEntity
8
Geo
100
AcDbLine
10
-28.0987857762359
20
11.1370357920678
30
0.000000000000000
11
-27.9987857762359
21
11.0840178469924
31
0.000000000000000
  0
LINE
  5
F108A9
330
F108AA
100
AcDbEntity
8
Geo
100
AcDbLine
10
-27.9987857762359
20
11.0840178469924
30
0.000000000000000
11
-27.8987857762359
21
11.0301144844697
31
0.000000000000000
  0
LINE
  5
F108AB
330
F108AC
100
AcDbEntity
8
Geo
100
AcDbLine
10
-27.8987857762359
20
11.0301144844697
30
0.000000000000000
11
-27.7987857762359
21
10.9753362467502
31
0.000000000000000
  0
LINE
  5
F108AD
330
F108AE
100
AcDbEntity
8
Geo
100
AcDbLine
10
-27.7987857762359
20
10.9753362467502
30
0.000000000000000
11
-27.6987857762359
21
10.9196938471901
31
0.000000000000000
  0
LINE
  5
F108AF
330
F108B0
100
AcDbEntity
8
Geo
100
AcDbLine
10
-27.6987857762359
20
10.9196938471901
30
0.000000000000000
11
-27.5987857762359
21
10.8631981681554
31
0.000000000000000
  0
LINE
  5
F108B1
330
F108B2
100
AcDbEntity
8
Geo
100
AcDbLine
10
-27.5987857762359
20
10.8631981681554
30
0.000000000000000
11
-27.4987857762359
21
10.8058602588940
31
0.000000000000000
  0
LINE
  5
F108B3
330
F108B4
100
AcDbEntity
8
Geo
100
AcDbLine
10
-27.4987857762359
20
10.8058602588940
30
0.000000000000000
11
-27.3987857762359
21
10.7476913333744
31
0.000000000000000
  0
LINE
  5
F108B5
330
F108B6
100
AcDbEntity
8
Geo
100
AcDbLine
10
-27.3987857762359
20
10.7476913333744
30
0.000000000000000
11
-27.2987857762359
21
10.6887027680927
31
0.000000000000000
  0
LINE
  5
F108B7
330
F108B8
100
AcDbEntity
8
Geo
100
AcDbLine
10
-27.2987857762359
20
10.6887027680927
30
0.000000000000000
11
-27.1987857762359
21
10.6289060998476
31
0.000000000000000
  0
LINE
  5
F108B9
330
F108BA
100
AcDbEntity
8
Geo
100
AcDbLine
10
-27.1987857762359
20
10.6289060998476
30
0.000000000000000
11
-27.0987857762359
21
10.5683130234842
31
0.000000000000000
  0
LINE
  5
F108BB
330
F108BC
100
AcDbEntity
8
Geo
100
AcDbLine
10
-27.0987857762359
20
10.5683130234842
30
0.000000000000000
11
-26.9987857762359
21
10.5069353896062
31
0.000000000000000
  0
LINE
  5
F108BD
330
F108BE
100
AcDbEntity
8
Geo
100
AcDbLine
10
-26.9987857762359
20
10.5069353896062
30
0.000000000000000
11
-26.8987857762359
21
10.4447852022590
31
0.000000000000000
  0
LINE
  5
F108BF
330
F108C0
100
AcDbEntity
8
Geo
100
AcDbLine
10
-26.8987857762359
20
10.4447852022590
30
0.000000000000000
11
-26.7987857762359
21
10.3818746165814
31
0.000000000000000
  0
LINE
  5
F108C1
330
F108C2
100
AcDbEntity
8
Geo
100
AcDbLine
10
-26.7987857762359
20
10.3818746165814
30
0.000000000000000
11
-26.6987857762360
21
10.3182159364285
31
0.000000000000000
  0
LINE
  5
F108C3
330
F108C4
100
AcDbEntity
8
Geo
100
AcDbLine
10
-26.6987857762360
20
10.3182159364285
30
0.000000000000000
11
-26.5987857762359
21
10.2538216119655
31
0.000000000000000
  0
LINE
  5
F108C5
330
F108C6
100
AcDbEntity
8
Geo
100
AcDbLine
10
-26.5987857762359
20
10.2538216119655
30
0.000000000000000
11
-26.4987857762359
21
10.1887042372325
31
0.000000000000000
  0
LINE
  5
F108C7
330
F108C8
100
AcDbEntity
8
Geo
100
AcDbLine
10
-26.4987857762359
20
10.1887042372325
30
0.000000000000000
11
-26.3987857762360
21
10.1228765476815
31
0.000000000000000
  0
LINE
  5
F108C9
330
F108CA
100
AcDbEntity
8
Geo
100
AcDbLine
10
-26.3987857762360
20
10.1228765476815
30
0.000000000000000
11
-26.2987857762360
21
10.0563514176857
31
0.000000000000000
  0
LINE
  5
F108CB
330
F108CC
100
AcDbEntity
8
Geo
100
AcDbLine
10
-26.2987857762360
20
10.0563514176857
30
0.000000000000000
11
-26.1987857762360
21
9.98914185802158
31
0.000000000000000
  0
LINE
  5
F108CD
330
F108CE
100
AcDbEntity
8
Geo
100
AcDbLine
10
-26.1987857762360
20
9.98914185802158
30
0.000000000000000
11
-26.0987857762359
21
9.92126101332404
31
0.000000000000000
  0
LINE
  5
F108CF
330
F108D0
100
AcDbEntity
8
Geo
100
AcDbLine
10
-26.0987857762359
20
9.92126101332404
30
0.000000000000000
11
-25.9987857762360
21
9.85272215951596
31
0.000000000000000
  0
LINE
  5
F108D1
330
F108D2
100
AcDbEntity
8
Geo
100
AcDbLine
10
-25.9987857762360
20
9.85272215951596
30
0.000000000000000
11
-25.8987857762360
21
9.78353870121151
31
0.000000000000000
  0
LINE
  5
F108D3
330
F108D4
100
AcDbEntity
8
Geo
100
AcDbLine
10
-25.8987857762360
20
9.78353870121151
30
0.000000000000000
11
-25.7987857762360
21
9.71372416909463
31
0.000000000000000
  0
LINE
  5
F108D5
330
F108D6
100
AcDbEntity
8
Geo
100
AcDbLine
10
-25.7987857762360
20
9.71372416909463
30
0.000000000000000
11
-25.6987857762360
21
9.64329221727265
31
0.000000000000000
  0
LINE
  5
F108D7
330
F108D8
100
AcDbEntity
8
Geo
100
AcDbLine
10
-25.6987857762360
20
9.64329221727265
30
0.000000000000000
11
-25.5987857762360
21
9.57225662060596
31
0.000000000000000
  0
LINE
  5
F108D9
330
F108DA
100
AcDbEntity
8
Geo
100
AcDbLine
10
-25.5987857762360
20
9.57225662060596
30
0.000000000000000
11
-25.4987857762360
21
9.50063127201388
31
0.000000000000000
  0
LINE
  5
F108DB
330
F108DC
100
AcDbEntity
8
Geo
100
AcDbLine
10
-25.4987857762360
20
9.50063127201388
30
0.000000000000000
11
-25.3987857762360
21
9.42843017975757
31
0.000000000000000
  0
LINE
  5
F108DD
330
F108DE
100
AcDbEntity
8
Geo
100
AcDbLine
10
-25.3987857762360
20
9.42843017975757
30
0.000000000000000
11
-25.2987857762360
21
9.35566746470034
31
0.000000000000000
  0
LINE
  5
F108DF
330
F108E0
100
AcDbEntity
8
Geo
100
AcDbLine
10
-25.2987857762360
20
9.35566746470034
30
0.000000000000000
11
-25.1987857762360
21
9.28235735754593
31
0.000000000000000
  0
LINE
  5
F108E1
330
F108E2
100
AcDbEntity
8
Geo
100
AcDbLine
10
-25.1987857762360
20
9.28235735754593
30
0.000000000000000
11
-25.0987857762360
21
9.20851419605530
31
0.000000000000000
  0
LINE
  5
F108E3
330
F108E4
100
AcDbEntity
8
Geo
100
AcDbLine
10
-25.0987857762360
20
9.20851419605530
30
0.000000000000000
11
-24.9987857762360
21
9.13415242224250
31
0.000000000000000
  0
LINE
  5
F108E5
330
F108E6
100
AcDbEntity
8
Geo
100
AcDbLine
10
-24.9987857762360
20
9.13415242224250
30
0.000000000000000
11
-24.8987857762360
21
9.05928657955018
31
0.000000000000000
  0
LINE
  5
F108E7
330
F108E8
100
AcDbEntity
8
Geo
100
AcDbLine
10
-24.8987857762360
20
9.05928657955018
30
0.000000000000000
11
-24.7987857762360
21
8.98393131000516
31
0.000000000000000
  0
LINE
  5
F108E9
330
F108EA
100
AcDbEntity
8
Geo
100
AcDbLine
10
-24.7987857762360
20
8.98393131000516
30
0.000000000000000
11
-24.6987857762360
21
8.90810135135488
31
0.000000000000000
  0
LINE
  5
F108EB
330
F108EC
100
AcDbEntity
8
Geo
100
AcDbLine
10
-24.6987857762360
20
8.90810135135488
30
0.000000000000000
11
-24.5987857762360
21
8.83181153418495
31
0.000000000000000
  0
LINE
  5
F108ED
330
F108EE
100
AcDbEntity
8
Geo
100
AcDbLine
10
-24.5987857762360
20
8.83181153418495
30
0.000000000000000
11
-24.4987857762360
21
8.75507677901867
31
0.000000000000000
  0
LINE
  5
F108EF
330
F108F0
100
AcDbEntity
8
Geo
100
AcDbLine
10
-24.4987857762360
20
8.75507677901867
30
0.000000000000000
11
-24.3987857762360
21
8.67791209339893
31
0.000000000000000
  0
LINE
  5
F108F1
330
F108F2
100
AcDbEntity
8
Geo
100
AcDbLine
10
-24.3987857762360
20
8.67791209339893
30
0.000000000000000
11
-24.2987857762360
21
8.60033256895308
31
0.000000000000000
  0
LINE
  5
F108F3
330
F108F4
100
AcDbEntity
8
Geo
100
AcDbLine
10
-24.2987857762360
20
8.60033256895308
30
0.000000000000000
11
-24.1987857762360
21
8.52235337844132
31
0.000000000000000
  0
LINE
  5
F108F5
330
F108F6
100
AcDbEntity
8
Geo
100
AcDbLine
10
-24.1987857762360
20
8.52235337844132
30
0.000000000000000
11
-24.0987857762360
21
8.44398977278931
31
0.000000000000000
  0
LINE
  5
F108F7
330
F108F8
100
AcDbEntity
8
Geo
100
AcDbLine
10
-24.0987857762360
20
8.44398977278931
30
0.000000000000000
11
-23.9987857762360
21
8.36525707810540
31
0.000000000000000
  0
LINE
  5
F108F9
330
F108FA
100
AcDbEntity
8
Geo
100
AcDbLine
10
-23.9987857762360
20
8.36525707810540
30
0.000000000000000
11
-23.8987857762360
21
8.28617069268324
31
0.000000000000000
  0
LINE
  5
F108FB
330
F108FC
100
AcDbEntity
8
Geo
100
AcDbLine
10
-23.8987857762360
20
8.28617069268324
30
0.000000000000000
11
-23.7987857762360
21
8.20674608399018
31
0.000000000000000
  0
LINE
  5
F108FD
330
F108FE
100
AcDbEntity
8
Geo
100
AcDbLine
10
-23.7987857762360
20
8.20674608399018
30
0.000000000000000
11
-23.6987857762360
21
8.12699878564224
31
0.000000000000000
  0
LINE
  5
F108FF
330
F10900
100
AcDbEntity
8
Geo
100
AcDbLine
10
-23.6987857762360
20
8.12699878564224
30
0.000000000000000
11
-23.5987857762360
21
8.04694439436604
31
0.000000000000000
  0
LINE
  5
F10901
330
F10902
100
AcDbEntity
8
Geo
100
AcDbLine
10
-23.5987857762360
20
8.04694439436604
30
0.000000000000000
11
-23.4987857762360
21
7.96659856694851
31
0.000000000000000
  0
LINE
  5
F10903
330
F10904
100
AcDbEntity
8
Geo
100
AcDbLine
10
-23.4987857762360
20
7.96659856694851
30
0.000000000000000
11
-23.3987857762360
21
7.88597701717472
31
0.000000000000000
  0
LINE
  5
F10905
330
F10906
100
AcDbEntity
8
Geo
100
AcDbLine
10
-23.3987857762360
20
7.88597701717472
30
0.000000000000000
11
-23.2987857762360
21
7.80509551275467
31
0.000000000000000
  0
LINE
  5
F10907
330
F10908
100
AcDbEntity
8
Geo
100
AcDbLine
10
-23.2987857762360
20
7.80509551275467
30
0.000000000000000
11
-23.1987857762360
21
7.72396987223946
31
0.000000000000000
  0
LINE
  5
F10909
330
F1090A
100
AcDbEntity
8
Geo
100
AcDbLine
10
-23.1987857762360
20
7.72396987223946
30
0.000000000000000
11
-23.0987857762360
21
7.64261596192757
31
0.000000000000000
  0
LINE
  5
F1090B
330
F1090C
100
AcDbEntity
8
Geo
100
AcDbLine
10
-23.0987857762360
20
7.64261596192757
30
0.000000000000000
11
-22.9987857762360
21
7.56104969276178
31
0.000000000000000
  0
LINE
  5
F1090D
330
F1090E
100
AcDbEntity
8
Geo
100
AcDbLine
10
-22.9987857762360
20
7.56104969276178
30
0.000000000000000
11
-22.8987857762360
21
7.47928701721734
31
0.000000000000000
  0
LINE
  5
F1090F
330
F10910
100
AcDbEntity
8
Geo
100
AcDbLine
10
-22.8987857762360
20
7.47928701721734
30
0.000000000000000
11
-22.7987857762360
21
7.39734392618203
31
0.000000000000000
  0
LINE
  5
F10911
330
F10912
100
AcDbEntity
8
Geo
100
AcDbLine
10
-22.7987857762360
20
7.39734392618203
30
0.000000000000000
11
-22.6987857762360
21
7.31523644582876
31
0.000000000000000
  0
LINE
  5
F10913
330
F10914
100
AcDbEntity
8
Geo
100
AcDbLine
10
-22.6987857762360
20
7.31523644582876
30
0.000000000000000
11
-22.5987857762360
21
7.23298063448115
31
0.000000000000000
  0
LINE
  5
F10915
330
F10916
100
AcDbEntity
8
Geo
100
AcDbLine
10
-22.5987857762360
20
7.23298063448115
30
0.000000000000000
11
-22.4987857762360
21
7.15059257947297
31
0.000000000000000
  0
LINE
  5
F10917
330
F10918
100
AcDbEntity
8
Geo
100
AcDbLine
10
-22.4987857762360
20
7.15059257947297
30
0.000000000000000
11
-22.3987857762360
21
7.06808839400175
31
0.000000000000000
  0
LINE
  5
F10919
330
F1091A
100
AcDbEntity
8
Geo
100
AcDbLine
10
-22.3987857762360
20
7.06808839400175
30
0.000000000000000
11
-22.2987857762360
21
6.98548421397748
31
0.000000000000000
  0
LINE
  5
F1091B
330
F1091C
100
AcDbEntity
8
Geo
100
AcDbLine
10
-22.2987857762360
20
6.98548421397748
30
0.000000000000000
11
-22.1987857762360
21
6.90279619486677
31
0.000000000000000
  0
LINE
  5
F1091D
330
F1091E
100
AcDbEntity
8
Geo
100
AcDbLine
10
-22.1987857762360
20
6.90279619486677
30
0.000000000000000
11
-22.0987857762360
21
6.82004050853319
31
0.000000000000000
  0
LINE
  5
F1091F
330
F10920
100
AcDbEntity
8
Geo
100
AcDbLine
10
-22.0987857762360
20
6.82004050853319
30
0.000000000000000
11
-21.9987857762360
21
6.73723334007449
31
0.000000000000000
  0
LINE
  5
F10921
330
F10922
100
AcDbEntity
8
Geo
100
AcDbLine
10
-21.9987857762360
20
6.73723334007449
30
0.000000000000000
11
-21.8987857762360
21
6.65439088465711
31
0.000000000000000
  0
LINE
  5
F10923
330
F10924
100
AcDbEntity
8
Geo
100
AcDbLine
10
-21.8987857762360
20
6.65439088465711
30
0.000000000000000
11
-21.7987857762360
21
6.57152934434880
31
0.000000000000000
  0
LINE
  5
F10925
330
F10926
100
AcDbEntity
8
Geo
100
AcDbLine
10
-21.7987857762360
20
6.57152934434880
30
0.000000000000000
11
-21.6987857762360
21
6.48866492494989
31
0.000000000000000
  0
LINE
  5
F10927
330
F10928
100
AcDbEntity
8
Geo
100
AcDbLine
10
-21.6987857762360
20
6.48866492494989
30
0.000000000000000
11
-21.5987857762360
21
6.40581383282378
31
0.000000000000000
  0
LINE
  5
F10929
330
F1092A
100
AcDbEntity
8
Geo
100
AcDbLine
10
-21.5987857762360
20
6.40581383282378
30
0.000000000000000
11
-21.4987857762360
21
6.32299227172736
31
0.000000000000000
  0
LINE
  5
F1092B
330
F1092C
100
AcDbEntity
8
Geo
100
AcDbLine
10
-21.4987857762360
20
6.32299227172736
30
0.000000000000000
11
-21.3987857762360
21
6.24021643964195
31
0.000000000000000
  0
LINE
  5
F1092D
330
F1092E
100
AcDbEntity
8
Geo
100
AcDbLine
10
-21.3987857762360
20
6.24021643964195
30
0.000000000000000
11
-21.2987857762360
21
6.15750252560533
31
0.000000000000000
  0
LINE
  5
F1092F
330
F10930
100
AcDbEntity
8
Geo
100
AcDbLine
10
-21.2987857762360
20
6.15750252560533
30
0.000000000000000
11
-21.1987857762360
21
6.07486670654553
31
0.000000000000000
  0
LINE
  5
F10931
330
F10932
100
AcDbEntity
8
Geo
100
AcDbLine
10
-21.1987857762360
20
6.07486670654553
30
0.000000000000000
11
-21.0987857762360
21
5.99232514411702
31
0.000000000000000
  0
LINE
  5
F10933
330
F10934
100
AcDbEntity
8
Geo
100
AcDbLine
10
-21.0987857762360
20
5.99232514411702
30
0.000000000000000
11
-20.9987857762360
21
5.90989398153984
31
0.000000000000000
  0
LINE
  5
F10935
330
F10936
100
AcDbEntity
8
Geo
100
AcDbLine
10
-20.9987857762360
20
5.90989398153984
30
0.000000000000000
11
-20.8987857762360
21
5.82758934044239
31
0.000000000000000
  0
LINE
  5
F10937
330
F10938
100
AcDbEntity
8
Geo
100
AcDbLine
10
-20.8987857762360
20
5.82758934044239
30
0.000000000000000
11
-20.7987857762360
21
5.74542731770840
31
0.000000000000000
  0
LINE
  5
F10939
330
F1093A
100
AcDbEntity
8
Geo
100
AcDbLine
10
-20.7987857762360
20
5.74542731770840
30
0.000000000000000
11
-20.6987857762360
21
5.66342398232871
31
0.000000000000000
  0
LINE
  5
F1093B
330
F1093C
100
AcDbEntity
8
Geo
100
AcDbLine
10
-20.6987857762360
20
5.66342398232871
30
0.000000000000000
11
-20.5987857762360
21
5.58159537225864
31
0.000000000000000
  0
LINE
  5
F1093D
330
F1093E
100
AcDbEntity
8
Geo
100
AcDbLine
10
-20.5987857762360
20
5.58159537225864
30
0.000000000000000
11
-20.4987857762360
21
5.49995749128123
31
0.000000000000000
  0
LINE
  5
F1093F
330
F10940
100
AcDbEntity
8
Geo
100
AcDbLine
10
-20.4987857762360
20
5.49995749128123
30
0.000000000000000
11
-20.3987857762360
21
5.41852630587735
31
0.000000000000000
  0
LINE
  5
F10941
330
F10942
100
AcDbEntity
8
Geo
100
AcDbLine
10
-20.3987857762360
20
5.41852630587735
30
0.000000000000000
11
-20.2987857762360
21
5.33731774210300
31
0.000000000000000
  0
LINE
  5
F10943
330
F10944
100
AcDbEntity
8
Geo
100
AcDbLine
10
-20.2987857762360
20
5.33731774210300
30
0.000000000000000
11
-20.1987857762360
21
5.25634768247452
31
0.000000000000000
  0
LINE
  5
F10945
330
F10946
100
AcDbEntity
8
Geo
100
AcDbLine
10
-20.1987857762360
20
5.25634768247452
30
0.000000000000000
11
-20.0987857762360
21
5.17563196286237
31
0.000000000000000
  0
LINE
  5
F10947
330
F10948
100
AcDbEntity
8
Geo
100
AcDbLine
10
-20.0987857762360
20
5.17563196286237
30
0.000000000000000
11
-19.9987857762360
21
5.09518636939399
31
0.000000000000000
  0
LINE
  5
F10949
330
F1094A
100
AcDbEntity
8
Geo
100
AcDbLine
10
-19.9987857762360
20
5.09518636939399
30
0.000000000000000
11
-19.8987857762360
21
5.01502663536639
31
0.000000000000000
  0
LINE
  5
F1094B
330
F1094C
100
AcDbEntity
8
Geo
100
AcDbLine
10
-19.8987857762360
20
5.01502663536639
30
0.000000000000000
11
-19.7987857762360
21
4.93516843816909
31
0.000000000000000
  0
LINE
  5
F1094D
330
F1094E
100
AcDbEntity
8
Geo
100
AcDbLine
10
-19.7987857762360
20
4.93516843816909
30
0.000000000000000
11
-19.6987857762360
21
4.85562739621797
31
0.000000000000000
  0
LINE
  5
F1094F
330
F10950
100
AcDbEntity
8
Geo
100
AcDbLine
10
-19.6987857762360
20
4.85562739621797
30
0.000000000000000
11
-19.5987857762360
21
4.77641906590070
31
0.000000000000000
  0
LINE
  5
F10951
330
F10952
100
AcDbEntity
8
Geo
100
AcDbLine
10
-19.5987857762360
20
4.77641906590070
30
0.000000000000000
11
-19.4987857762360
21
4.69755893853423
31
0.000000000000000
  0
LINE
  5
F10953
330
F10954
100
AcDbEntity
8
Geo
100
AcDbLine
10
-19.4987857762360
20
4.69755893853423
30
0.000000000000000
11
-19.3987857762360
21
4.61906243733509
31
0.000000000000000
  0
LINE
  5
F10955
330
F10956
100
AcDbEntity
8
Geo
100
AcDbLine
10
-19.3987857762360
20
4.61906243733509
30
0.000000000000000
11
-19.2987857762360
21
4.54094491440293
31
0.000000000000000
  0
LINE
  5
F10957
330
F10958
100
AcDbEntity
8
Geo
100
AcDbLine
10
-19.2987857762360
20
4.54094491440293
30
0.000000000000000
11
-19.1987857762360
21
4.46322164771802
31
0.000000000000000
  0
LINE
  5
F10959
330
F1095A
100
AcDbEntity
8
Geo
100
AcDbLine
10
-19.1987857762360
20
4.46322164771802
30
0.000000000000000
11
-19.0987857762360
21
4.38590783815323
31
0.000000000000000
  0
LINE
  5
F1095B
330
F1095C
100
AcDbEntity
8
Geo
100
AcDbLine
10
-19.0987857762360
20
4.38590783815323
30
0.000000000000000
11
-18.9987857762360
21
4.30901860650110
31
0.000000000000000
  0
LINE
  5
F1095D
330
F1095E
100
AcDbEntity
8
Geo
100
AcDbLine
10
-18.9987857762360
20
4.30901860650110
30
0.000000000000000
11
-18.8987857762360
21
4.23256899051654
31
0.000000000000000
  0
LINE
  5
F1095F
330
F10960
100
AcDbEntity
8
Geo
100
AcDbLine
10
-18.8987857762360
20
4.23256899051654
30
0.000000000000000
11
-18.7987857762360
21
4.15657394197581
31
0.000000000000000
  0
LINE
  5
F10961
330
F10962
100
AcDbEntity
8
Geo
100
AcDbLine
10
-18.7987857762360
20
4.15657394197581
30
0.000000000000000
11
-18.6987857762360
21
4.08104832375230
31
0.000000000000000
  0
LINE
  5
F10963
330
F10964
100
AcDbEntity
8
Geo
100
AcDbLine
10
-18.6987857762360
20
4.08104832375230
30
0.000000000000000
11
-18.5987857762360
21
4.00600690690967
31
0.000000000000000
  0
LINE
  5
F10965
330
F10966
100
AcDbEntity
8
Geo
100
AcDbLine
10
-18.5987857762360
20
4.00600690690967
30
0.000000000000000
11
-18.4987857762360
21
3.93146436781301
31
0.000000000000000
  0
LINE
  5
F10967
330
F10968
100
AcDbEntity
8
Geo
100
AcDbLine
10
-18.4987857762360
20
3.93146436781301
30
0.000000000000000
11
-18.3987857762360
21
3.85743528525846
31
0.000000000000000
  0
LINE
  5
F10969
330
F1096A
100
AcDbEntity
8
Geo
100
AcDbLine
10
-18.3987857762360
20
3.85743528525846
30
0.000000000000000
11
-18.2987857762360
21
3.78393413762195
31
0.000000000000000
  0
LINE
  5
F1096B
330
F1096C
100
AcDbEntity
8
Geo
100
AcDbLine
10
-18.2987857762360
20
3.78393413762195
30
0.000000000000000
11
-18.1987857762360
21
3.71097530002753
31
0.000000000000000
  0
LINE
  5
F1096D
330
F1096E
100
AcDbEntity
8
Geo
100
AcDbLine
10
-18.1987857762360
20
3.71097530002753
30
0.000000000000000
11
-18.0987857762360
21
3.63857304153597
31
0.000000000000000
  0
LINE
  5
F1096F
330
F10970
100
AcDbEntity
8
Geo
100
AcDbLine
10
-18.0987857762360
20
3.63857304153597
30
0.000000000000000
11
-17.9987857762360
21
3.56674152235403
31
0.000000000000000
  0
LINE
  5
F10971
330
F10972
100
AcDbEntity
8
Geo
100
AcDbLine
10
-17.9987857762360
20
3.56674152235403
30
0.000000000000000
11
-17.8987857762360
21
3.49549479106508
31
0.000000000000000
  0
LINE
  5
F10973
330
F10974
100
AcDbEntity
8
Geo
100
AcDbLine
10
-17.8987857762360
20
3.49549479106508
30
0.000000000000000
11
-17.7987857762360
21
3.42484678188150
31
0.000000000000000
  0
LINE
  5
F10975
330
F10976
100
AcDbEntity
8
Geo
100
AcDbLine
10
-17.7987857762360
20
3.42484678188150
30
0.000000000000000
11
-17.6987857762360
21
3.35481131191948
31
0.000000000000000
  0
LINE
  5
F10977
330
F10978
100
AcDbEntity
8
Geo
100
AcDbLine
10
-17.6987857762360
20
3.35481131191948
30
0.000000000000000
11
-17.5987857762360
21
3.28540207849669
31
0.000000000000000
  0
LINE
  5
F10979
330
F1097A
100
AcDbEntity
8
Geo
100
AcDbLine
10
-17.5987857762360
20
3.28540207849669
30
0.000000000000000
11
-17.4987857762360
21
3.21663265645345
31
0.000000000000000
  0
LINE
  5
F1097B
330
F1097C
100
AcDbEntity
8
Geo
100
AcDbLine
10
-17.4987857762360
20
3.21663265645345
30
0.000000000000000
11
-17.3987857762360
21
3.14851649549777
31
0.000000000000000
  0
LINE
  5
F1097D
330
F1097E
100
AcDbEntity
8
Geo
100
AcDbLine
10
-17.3987857762360
20
3.14851649549777
30
0.000000000000000
11
-17.2987857762360
21
3.08106691757488
31
0.000000000000000
  0
LINE
  5
F1097F
330
F10980
100
AcDbEntity
8
Geo
100
AcDbLine
10
-17.2987857762360
20
3.08106691757488
30
0.000000000000000
11
-17.1987857762360
21
3.01429711426181
31
0.000000000000000
  0
LINE
  5
F10981
330
F10982
100
AcDbEntity
8
Geo
100
AcDbLine
10
-17.1987857762360
20
3.01429711426181
30
0.000000000000000
11
-17.0987857762360
21
2.94822014418741
31
0.000000000000000
  0
LINE
  5
F10983
330
F10984
100
AcDbEntity
8
Geo
100
AcDbLine
10
-17.0987857762360
20
2.94822014418741
30
0.000000000000000
11
-16.9987857762360
21
2.88284893047835
31
0.000000000000000
  0
LINE
  5
F10985
330
F10986
100
AcDbEntity
8
Geo
100
AcDbLine
10
-16.9987857762360
20
2.88284893047835
30
0.000000000000000
11
-16.8987857762360
21
2.81819625823172
31
0.000000000000000
  0
LINE
  5
F10987
330
F10988
100
AcDbEntity
8
Geo
100
AcDbLine
10
-16.8987857762360
20
2.81819625823172
30
0.000000000000000
11
-16.7987857762360
21
2.75427477201448
31
0.000000000000000
  0
LINE
  5
F10989
330
F1098A
100
AcDbEntity
8
Geo
100
AcDbLine
10
-16.7987857762360
20
2.75427477201448
30
0.000000000000000
11
-16.6987857762360
21
2.69109697339055
31
0.000000000000000
  0
LINE
  5
F1098B
330
F1098C
100
AcDbEntity
8
Geo
100
AcDbLine
10
-16.6987857762360
20
2.69109697339055
30
0.000000000000000
11
-16.5987857762360
21
2.62867521847575
31
0.000000000000000
  0
LINE
  5
F1098D
330
F1098E
100
AcDbEntity
8
Geo
100
AcDbLine
10
-16.5987857762360
20
2.62867521847575
30
0.000000000000000
11
-16.4987857762360
21
2.56702171552124
31
0.000000000000000
  0
LINE
  5
F1098F
330
F10990
100
AcDbEntity
8
Geo
100
AcDbLine
10
-16.4987857762360
20
2.56702171552124
30
0.000000000000000
11
-16.3987857762360
21
2.50614852252589
31
0.000000000000000
  0
LINE
  5
F10991
330
F10992
100
AcDbEntity
8
Geo
100
AcDbLine
10
-16.3987857762360
20
2.50614852252589
30
0.000000000000000
11
-16.2987857762360
21
2.44606754487795
31
0.000000000000000
  0
LINE
  5
F10993
330
F10994
100
AcDbEntity
8
Geo
100
AcDbLine
10
-16.2987857762360
20
2.44606754487795
30
0.000000000000000
11
-16.1987857762360
21
2.38679053302671
31
0.000000000000000
  0
LINE
  5
F10995
330
F10996
100
AcDbEntity
8
Geo
100
AcDbLine
10
-16.1987857762360
20
2.38679053302671
30
0.000000000000000
11
-16.0987857762360
21
2.32832908018435
31
0.000000000000000
  0
LINE
  5
F10997
330
F10998
100
AcDbEntity
8
Geo
100
AcDbLine
10
-16.0987857762360
20
2.32832908018435
30
0.000000000000000
11
-15.9987857762360
21
2.27069462005856
31
0.000000000000000
  0
LINE
  5
F10999
330
F1099A
100
AcDbEntity
8
Geo
100
AcDbLine
10
-15.9987857762360
20
2.27069462005856
30
0.000000000000000
11
-15.8987857762360
21
2.21389842461640
31
0.000000000000000
  0
LINE
  5
F1099B
330
F1099C
100
AcDbEntity
8
Geo
100
AcDbLine
10
-15.8987857762360
20
2.21389842461640
30
0.000000000000000
11
-15.7987857762360
21
2.15795160187974
31
0.000000000000000
  0
LINE
  5
F1099D
330
F1099E
100
AcDbEntity
8
Geo
100
AcDbLine
10
-15.7987857762360
20
2.15795160187974
30
0.000000000000000
11
-15.6987857762360
21
2.10286509375281
31
0.000000000000000
  0
LINE
  5
F1099F
330
F109A0
100
AcDbEntity
8
Geo
100
AcDbLine
10
-15.6987857762360
20
2.10286509375281
30
0.000000000000000
11
-15.5987857762360
21
2.04864967388218
31
0.000000000000000
  0
LINE
  5
F109A1
330
F109A2
100
AcDbEntity
8
Geo
100
AcDbLine
10
-15.5987857762360
20
2.04864967388218
30
0.000000000000000
11
-15.4987857762360
21
1.99531594554975
31
0.000000000000000
  0
LINE
  5
F109A3
330
F109A4
100
AcDbEntity
8
Geo
100
AcDbLine
10
-15.4987857762360
20
1.99531594554975
30
0.000000000000000
11
-15.3987857762360
21
1.94287433959891
31
0.000000000000000
  0
LINE
  5
F109A5
330
F109A6
100
AcDbEntity
8
Geo
100
AcDbLine
10
-15.3987857762360
20
1.94287433959891
30
0.000000000000000
11
-15.2987857762360
21
1.89133511239459
31
0.000000000000000
  0
LINE
  5
F109A7
330
F109A8
100
AcDbEntity
8
Geo
100
AcDbLine
10
-15.2987857762360
20
1.89133511239459
30
0.000000000000000
11
-15.1987857762360
21
1.84070834381729
31
0.000000000000000
  0
LINE
  5
F109A9
330
F109AA
100
AcDbEntity
8
Geo
100
AcDbLine
10
-15.1987857762360
20
1.84070834381729
30
0.000000000000000
11
-15.0987857762360
21
1.79100393529171
31
0.000000000000000
  0
LINE
  5
F109AB
330
F109AC
100
AcDbEntity
8
Geo
100
AcDbLine
10
-15.0987857762360
20
1.79100393529171
30
0.000000000000000
11
-14.9987857762360
21
1.74223160785027
31
0.000000000000000
  0
LINE
  5
F109AD
330
F109AE
100
AcDbEntity
8
Geo
100
AcDbLine
10
-14.9987857762360
20
1.74223160785027
30
0.000000000000000
11
-14.8987857762360
21
1.69440090023189
31
0.000000000000000
  0
LINE
  5
F109AF
330
F109B0
100
AcDbEntity
8
Geo
100
AcDbLine
10
-14.8987857762360
20
1.69440090023189
30
0.000000000000000
11
-14.7987857762360
21
1.64752116701645
31
0.000000000000000
  0
LINE
  5
F109B1
330
F109B2
100
AcDbEntity
8
Geo
100
AcDbLine
10
-14.7987857762360
20
1.64752116701645
30
0.000000000000000
11
-14.6987857762360
21
1.60160157679522
31
0.000000000000000
  0
LINE
  5
F109B3
330
F109B4
100
AcDbEntity
8
Geo
100
AcDbLine
10
-14.6987857762360
20
1.60160157679522
30
0.000000000000000
11
-14.5987857762360
21
1.55665111037772
31
0.000000000000000
  0
LINE
  5
F109B5
330
F109B6
100
AcDbEntity
8
Geo
100
AcDbLine
10
-14.5987857762360
20
1.55665111037772
30
0.000000000000000
11
-14.4987857762360
21
1.51267855903526
31
0.000000000000000
  0
LINE
  5
F109B7
330
F109B8
100
AcDbEntity
8
Geo
100
AcDbLine
10
-14.4987857762360
20
1.51267855903526
30
0.000000000000000
11
-14.3987857762360
21
1.46969252278162
31
0.000000000000000
  0
LINE
  5
F109B9
330
F109BA
100
AcDbEntity
8
Geo
100
AcDbLine
10
-14.3987857762360
20
1.46969252278162
30
0.000000000000000
11
-14.2987857762360
21
1.42770140869101
31
0.000000000000000
  0
LINE
  5
F109BB
330
F109BC
100
AcDbEntity
8
Geo
100
AcDbLine
10
-14.2987857762360
20
1.42770140869101
30
0.000000000000000
11
-14.1987857762360
21
1.38671342925391
31
0.000000000000000
  0
LINE
  5
F109BD
330
F109BE
100
AcDbEntity
8
Geo
100
AcDbLine
10
-14.1987857762360
20
1.38671342925391
30
0.000000000000000
11
-14.0987857762360
21
1.34673660077085
31
0.000000000000000
  0
LINE
  5
F109BF
330
F109C0
100
AcDbEntity
8
Geo
100
AcDbLine
10
-14.0987857762360
20
1.34673660077085
30
0.000000000000000
11
-13.9987857762360
21
1.30777874178465
31
0.000000000000000
  0
LINE
  5
F109C1
330
F109C2
100
AcDbEntity
8
Geo
100
AcDbLine
10
-13.9987857762360
20
1.30777874178465
30
0.000000000000000
11
-13.8987857762360
21
1.26984747155125
31
0.000000000000000
  0
LINE
  5
F109C3
330
F109C4
100
AcDbEntity
8
Geo
100
AcDbLine
10
-13.8987857762360
20
1.26984747155125
30
0.000000000000000
11
-13.7987857762360
21
1.23295020854958
31
0.000000000000000
  0
LINE
  5
F109C5
330
F109C6
100
AcDbEntity
8
Geo
100
AcDbLine
10
-13.7987857762360
20
1.23295020854958
30
0.000000000000000
11
-13.6987857762360
21
1.19709416903069
31
0.000000000000000
  0
LINE
  5
F109C7
330
F109C8
100
AcDbEntity
8
Geo
100
AcDbLine
10
-13.6987857762360
20
1.19709416903069
30
0.000000000000000
11
-13.5987857762359
21
1.16228636560639
31
0.000000000000000
  0
LINE
  5
F109C9
330
F109CA
100
AcDbEntity
8
Geo
100
AcDbLine
10
-13.5987857762359
20
1.16228636560639
30
0.000000000000000
11
-13.4987857762359
21
1.12853360587777
31
0.000000000000000
  0
LINE
  5
F109CB
330
F109CC
100
AcDbEntity
8
Geo
100
AcDbLine
10
-13.4987857762359
20
1.12853360587777
30
0.000000000000000
11
-13.3987857762359
21
1.09584249110378
31
0.000000000000000
  0
LINE
  5
F109CD
330
F109CE
100
AcDbEntity
8
Geo
100
AcDbLine
10
-13.3987857762359
20
1.09584249110378
30
0.000000000000000
11
-13.2987857762359
21
1.06421941491018
31
0.000000000000000
  0
LINE
  5
F109CF
330
F109D0
100
AcDbEntity
8
Geo
100
AcDbLine
10
-13.2987857762359
20
1.06421941491018
30
0.000000000000000
11
-13.1987857762359
21
1.03367056203907
31
0.000000000000000
  0
LINE
  5
F109D1
330
F109D2
100
AcDbEntity
8
Geo
100
AcDbLine
10
-13.1987857762359
20
1.03367056203907
30
0.000000000000000
11
-13.0987857762359
21
1.00420190713936
31
0.000000000000000
  0
LINE
  5
F109D3
330
F109D4
100
AcDbEntity
8
Geo
100
AcDbLine
10
-13.0987857762359
20
1.00420190713936
30
0.000000000000000
11
-12.9987857762359
21
0.975819213598188
31
0.000000000000000
  0
LINE
  5
F109D5
330
F109D6
100
AcDbEntity
8
Geo
100
AcDbLine
10
-12.9987857762359
20
0.975819213598188
30
0.000000000000000
11
-12.8987857762359
21
0.948528032413801
31
0.000000000000000
  0
LINE
  5
F109D7
330
F109D8
100
AcDbEntity
8
Geo
100
AcDbLine
10
-12.8987857762359
20
0.948528032413801
30
0.000000000000000
11
-12.7987857762359
21
0.922333701109864
31
0.000000000000000
  0
LINE
  5
F109D9
330
F109DA
100
AcDbEntity
8
Geo
100
AcDbLine
10
-12.7987857762359
20
0.922333701109864
30
0.000000000000000
11
-12.6987857762359
21
0.897241342691586
31
0.000000000000000
  0
LINE
  5
F109DB
330
F109DC
100
AcDbEntity
8
Geo
100
AcDbLine
10
-12.6987857762359
20
0.897241342691586
30
0.000000000000000
11
-12.5987857762359
21
0.873255864643775
31
0.000000000000000
  0
LINE
  5
F109DD
330
F109DE
100
AcDbEntity
8
Geo
100
AcDbLine
10
-12.5987857762359
20
0.873255864643775
30
0.000000000000000
11
-12.4987857762359
21
0.850381957971043
31
0.000000000000000
  0
LINE
  5
F109DF
330
F109E0
100
AcDbEntity
8
Geo
100
AcDbLine
10
-12.4987857762359
20
0.850381957971043
30
0.000000000000000
11
-12.3987857762359
21
0.828624096280361
31
0.000000000000000
  0
LINE
  5
F109E1
330
F109E2
100
AcDbEntity
8
Geo
100
AcDbLine
10
-12.3987857762359
20
0.828624096280361
30
0.000000000000000
11
-12.2987857762359
21
0.807986534906114
31
0.000000000000000
  0
LINE
  5
F109E3
330
F109E4
100
AcDbEntity
8
Geo
100
AcDbLine
10
-12.2987857762359
20
0.807986534906114
30
0.000000000000000
11
-12.1987857762359
21
0.788473310077869
31
0.000000000000000
  0
LINE
  5
F109E5
330
F109E6
100
AcDbEntity
8
Geo
100
AcDbLine
10
-12.1987857762359
20
0.788473310077869
30
0.000000000000000
11
-12.0987857762359
21
0.770088238130970
31
0.000000000000000
  0
LINE
  5
F109E7
330
F109E8
100
AcDbEntity
8
Geo
100
AcDbLine
10
-12.0987857762359
20
0.770088238130970
30
0.000000000000000
11
-11.9987857762359
21
0.752834914760163
31
0.000000000000000
  0
LINE
  5
F109E9
330
F109EA
100
AcDbEntity
8
Geo
100
AcDbLine
10
-11.9987857762359
20
0.752834914760163
30
0.000000000000000
11
-11.8987857762359
21
0.736716714316349
31
0.000000000000000
  0
LINE
  5
F109EB
330
F109EC
100
AcDbEntity
8
Geo
100
AcDbLine
10
-11.8987857762359
20
0.736716714316349
30
0.000000000000000
11
-11.7987857762359
21
0.721736789146648
31
0.000000000000000
  0
LINE
  5
F109ED
330
F109EE
100
AcDbEntity
8
Geo
100
AcDbLine
10
-11.7987857762359
20
0.721736789146648
30
0.000000000000000
11
-11.6987857762359
21
0.707898068977869
31
0.000000000000000
  0
LINE
  5
F109EF
330
F109F0
100
AcDbEntity
8
Geo
100
AcDbLine
10
-11.6987857762359
20
0.707898068977869
30
0.000000000000000
11
-11.5987857762359
21
0.695203260343525
31
0.000000000000000
  0
LINE
  5
F109F1
330
F109F2
100
AcDbEntity
8
Geo
100
AcDbLine
10
-11.5987857762359
20
0.695203260343525
30
0.000000000000000
11
-11.4987857762359
21
0.683654846054500
31
0.000000000000000
  0
LINE
  5
F109F3
330
F109F4
100
AcDbEntity
8
Geo
100
AcDbLine
10
-11.4987857762359
20
0.683654846054500
30
0.000000000000000
11
-11.3987857762359
21
0.673255084713456
31
0.000000000000000
  0
LINE
  5
F109F5
330
F109F6
100
AcDbEntity
8
Geo
100
AcDbLine
10
-11.3987857762359
20
0.673255084713456
30
0.000000000000000
11
-11.2987857762359
21
0.664006010273120
31
0.000000000000000
  0
LINE
  5
F109F7
330
F109F8
100
AcDbEntity
8
Geo
100
AcDbLine
10
-11.2987857762359
20
0.664006010273120
30
0.000000000000000
11
-11.1987857762359
21
0.655909431638480
31
0.000000000000000
  0
LINE
  5
F109F9
330
F109FA
100
AcDbEntity
8
Geo
100
AcDbLine
10
-11.1987857762359
20
0.655909431638480
30
0.000000000000000
11
-11.0987857762359
21
0.648966932313005
31
0.000000000000000
  0
LINE
  5
F109FB
330
F109FC
100
AcDbEntity
8
Geo
100
AcDbLine
10
-11.0987857762359
20
0.648966932313005
30
0.000000000000000
11
-10.9987857762359
21
0.643179870088953
31
0.000000000000000
  0
LINE
  5
F109FD
330
F109FE
100
AcDbEntity
8
Geo
100
AcDbLine
10
-10.9987857762359
20
0.643179870088953
30
0.000000000000000
11
-10.8987857762359
21
0.638549376781813
31
0.000000000000000
  0
LINE
  5
F109FF
330
F10A00
100
AcDbEntity
8
Geo
100
AcDbLine
10
-10.8987857762359
20
0.638549376781813
30
0.000000000000000
11
-10.7987857762359
21
0.635076358008950
31
0.000000000000000
  0
LINE
  5
F10A01
330
F10A02
100
AcDbEntity
8
Geo
100
AcDbLine
10
-10.7987857762359
20
0.635076358008950
30
0.000000000000000
11
-10.6987857762359
21
0.632761493012493
31
0.000000000000000
  0
LINE
  5
F10A03
330
F10A04
100
AcDbEntity
8
Geo
100
AcDbLine
10
-10.6987857762359
20
0.632761493012493
30
0.000000000000000
11
-10.5987857762359
21
0.631605234526479
31
0.000000000000000
  0
LINE
  5
F10A05
330
F10A06
100
AcDbEntity
8
Geo
100
AcDbLine
10
-10.5987857762359
20
0.631605234526479
30
0.000000000000000
11
-10.5490078994685
21
0.556808326105809
31
0.000000000000000
  0
LINE
  5
F10A07
330
F10A08
100
AcDbEntity
8
Geo
100
AcDbLine
10
50.7012142237641
20
11.5568083261058
30
0.000000000000000
11
50.7012142237641
21
6.55680832610581
31
0.000000000000000
  0
LINE
  5
F10A09
330
F10A0A
100
AcDbEntity
8
Geo
100
AcDbLine
10
-32.2987857762359
20
6.55680832610581
30
0.000000000000000
11
-32.2987857762359
21
0.756808326105809
31
0.000000000000000
  0
LINE
  5
F10A0B
330
F10A0C
100
AcDbEntity
8
Geo
100
AcDbLine
10
-32.2987857762359
20
0.756808326105809
30
0.000000000000000
11
-32.0987857762359
21
0.556808326105809
31
0.000000000000000
  0
LINE
  5
F10A0D
330
F10A0E
100
AcDbEntity
8
Geo
100
AcDbLine
10
-32.0987857762359
20
0.556808326105809
30
0.000000000000000
11
-4.29878577623595
21
0.556808326105809
31
0.000000000000000
  0
LINE
  5
F10A0F
330
F10A10
100
AcDbEntity
8
Geo
100
AcDbLine
10
-4.29878577623595
20
0.556808326105809
30
0.000000000000000
11
-4.29878577623595
21
0.856808326105809
31
0.000000000000000
  0
LINE
  5
F10A11
330
F10A12
100
AcDbEntity
8
Geo
100
AcDbLine
10
-4.29878577623595
20
0.856808326105809
30
0.000000000000000
11
5.70121422376405
21
0.856808326105809
31
0.000000000000000
  0
LINE
  5
F10A13
330
F10A14
100
AcDbEntity
8
Geo
100
AcDbLine
10
5.70121422376405
20
0.856808326105809
30
0.000000000000000
11
5.70121422376405
21
0.556808326105809
31
0.000000000000000
  0
LINE
  5
F10A15
330
F10A16
100
AcDbEntity
8
Geo
100
AcDbLine
10
5.70121422376405
20
0.556808326105809
30
0.000000000000000
11
49.7012142237641
21
0.556808326105809
31
0.000000000000000
  0
LINE
  5
F10A17
330
F10A18
100
AcDbEntity
8
Geo
100
AcDbLine
10
49.7012142237641
20
0.556808326105809
30
0.000000000000000
11
50.7012142237641
21
1.55680832610581
31
0.000000000000000
  0
LINE
  5
F10A19
330
F10A1A
100
AcDbEntity
8
Geo
100
AcDbLine
10
-32.2987857762359
20
12.3568083261058
30
0.000000000000000
11
-32.2987857762359
21
0.756808326105809
31
0.000000000000000
  0
LINE
  5
F10A1B
330
F10A1C
100
AcDbEntity
8
Geo
100
AcDbLine
10
-32.0987857762359
20
12.5568083261058
30
0.000000000000000
11
-32.0987857762359
21
0.556808326105809
31
0.000000000000000
  0
LINE
  5
F10A1D
330
F10A1E
100
AcDbEntity
8
Geo
100
AcDbLine
10
-32.0987857762359
20
12.5568083261058
30
0.000000000000000
11
-32.0987857762359
21
0.556808326105809
31
0.000000000000000
  0
LINE
  5
F10A1F
330
F10A20
100
AcDbEntity
8
Geo
100
AcDbLine
10
-4.29878577623595
20
12.5568083261058
30
0.000000000000000
11
-4.29878577623595
21
0.556808326105809
31
0.000000000000000
  0
LINE
  5
F10A21
330
F10A22
100
AcDbEntity
8
Geo
100
AcDbLine
10
-4.29878577623595
20
12.2568083261058
30
0.000000000000000
11
-4.29878577623595
21
0.856808326105809
31
0.000000000000000
  0
LINE
  5
F10A23
330
F10A24
100
AcDbEntity
8
Geo
100
AcDbLine
10
5.70121422376405
20
12.2568083261058
30
0.000000000000000
11
5.70121422376405
21
0.856808326105809
31
0.000000000000000
  0
LINE
  5
F10A25
330
F10A26
100
AcDbEntity
8
Geo
100
AcDbLine
10
5.70121422376405
20
12.5568083261058
30
0.000000000000000
11
5.70121422376405
21
0.856808326105809
31
0.000000000000000
  0
LINE
  5
F10A27
330
F10A28
100
AcDbEntity
8
Geo
100
AcDbLine
10
49.7012142237641
20
12.5568083261058
30
0.000000000000000
11
49.7012142237641
21
0.556808326105809
31
0.000000000000000
  0
LINE
  5
F10A29
330
F10A2A
100
AcDbEntity
8
Geo
100
AcDbLine
10
50.7012142237641
20
11.5568083261058
30
0.000000000000000
11
50.7012142237641
21
1.55680832610581
31
0.000000000000000
  0
LINE
  5
F10A2B
330
F10A2C
100
AcDbEntity
8
Geo
 6
Dashdot
100
AcDbLine
10
-32.2987857762359
20
6.55680832610581
30
0.000000000000000
11
50.7012142237641
21
6.55680832610581
31
0.000000000000000
  0
LWPOLYLINE
  5
F10A2D
330
F10A2E
100
AcDbEntity
8
Rahmen
100
AcDbPolyline
90
   4
70
   1
43
   0.0
 10
-134.596704249783
 20
99.9002601908066
 10
143.339115351258
 20
99.9002601908066
 10
143.339115351258
 20
-100.082393755421
 10
-134.596704249783
 20
-100.082393755421
  0
TEXT
  5
F10A2F
330
F10A30
 100
AcDbEntity
8
Text
100
AcDbText
10
-133.503902862099
20
-99.5823937554206
30
0.000000000000000
40
1.00000000000000
1
ISBESketcher - ©ISBE GmbH      lizensiert für: Schmid Werkzeuge
100
AcDbText
  0
LWPOLYLINE
  5
F10A31
330
F10A32
100
AcDbEntity
8
Rahmen
100
AcDbPolyline
90
   4
70
   1
43
   0.0
 10
103.451864700781
 20
-97.1682567215958
 10
143.339115351258
 20
-97.1682567215958
 10
143.339115351258
 20
-100.082393755421
 10
103.451864700781
 20
-100.082393755421
  0
TEXT
  5
F10A33
330
F10A34
 100
AcDbEntity
8
Text
100
AcDbText
10
104.500000000000
20
-99.4570685169124
30
0.000000000000000
40
1.50000000000000
1
Ers. durch:
100
AcDbText
  0
TEXT
  5
F10A35
330
F10A36
 100
AcDbEntity
8
Text
100
AcDbText
10
0.000000000000000
20
0.500000000000000
30
0.000000000000000
40
1.50000000000000
1

100
AcDbText
  0
LWPOLYLINE
  5
F10A37
330
F10A38
100
AcDbEntity
8
Rahmen
100
AcDbPolyline
90
   4
70
   1
43
   0.0
 10
63.3824804856895
 20
-97.1682567215958
 10
103.451864700781
 20
-97.1682567215958
 10
103.451864700781
 20
-100.082393755421
 10
63.3824804856895
 20
-100.082393755421
  0
TEXT
  5
F10A39
330
F10A3A
 100
AcDbEntity
8
Text
100
AcDbText
10
64.5000000000000
20
-99.4570685169124
30
0.000000000000000
40
1.50000000000000
1
Ers. für:
100
AcDbText
  0
TEXT
  5
F10A3B
330
F10A3C
 100
AcDbEntity
8
Text
100
AcDbText
10
0.000000000000000
20
0.500000000000000
30
0.000000000000000
40
1.50000000000000
1

100
AcDbText
  0
LWPOLYLINE
  5
F10A3D
330
F10A3E
100
AcDbEntity
8
Rahmen
100
AcDbPolyline
90
   4
70
   1
43
   0.0
 10
130.043365134432
 20
-94.0719861231570
 10
143.339115351258
 20
-94.0719861231570
 10
143.339115351258
 20
-97.1682567215958
 10
130.043365134432
 20
-97.1682567215958
  0
TEXT
  5
F10A3F
330
F10A40
 100
AcDbEntity
8
Text
100
AcDbText
10
131.166666666667
20
-96.4570685169124
30
0.000000000000000
40
1.50000000000000
1
Blätter
100
AcDbText
  0
TEXT
  5
F10A41
330
F10A42
 100
AcDbEntity
8
Text
100
AcDbText
10
0.000000000000000
20
0.500000000000000
30
0.000000000000000
40
1.50000000000000
1

100
AcDbText
  0
LWPOLYLINE
  5
F10A43
330
F10A44
100
AcDbEntity
8
Rahmen
100
AcDbPolyline
90
   4
70
   1
43
   0.0
 10
130.043365134432
 20
-91.1578490893322
 10
143.339115351258
 20
-91.1578490893322
 10
143.339115351258
 20
-94.0719861231570
 10
130.043365134432
 20
-94.0719861231570
  0
TEXT
  5
F10A45
330
F10A46
 100
AcDbEntity
8
Text
100
AcDbText
10
131.166666666667
20
-93.4570685169124
30
0.000000000000000
40
1.50000000000000
1
Blatt
100
AcDbText
  0
TEXT
  5
F10A47
330
F10A48
 100
AcDbEntity
8
Text
100
AcDbText
10
0.000000000000000
20
0.500000000000000
30
0.000000000000000
40
1.50000000000000
1

100
AcDbText
  0
LWPOLYLINE
  5
F10A49
330
F10A4A
100
AcDbEntity
8
Rahmen
100
AcDbPolyline
90
   4
70
   1
43
   0.0
 10
63.3824804856895
 20
-91.1578490893322
 10
130.043365134432
 20
-91.1578490893322
 10
130.043365134432
 20
-97.1682567215958
 10
63.3824804856895
 20
-97.1682567215958
  0
TEXT
  5
F10A4B
330
F10A4C
 100
AcDbEntity
8
Text
100
AcDbText
10
64.5000000000000
20
-93.4570685169124
30
0.000000000000000
40
1.50000000000000
1
Datum:
100
AcDbText
  0
TEXT
  5
F10A4D
330
F10A4E
 100
AcDbEntity
8
Text
100
AcDbText
10
90.9139924833767
20
-96.4570685169124
30
0.000000000000000
40
1.50000000000000
1
04.05.2021
100
AcDbText
  0
LWPOLYLINE
  5
F10A4F
330
F10A50
100
AcDbEntity
8
Rahmen
100
AcDbPolyline
90
   4
70
   1
43
   0.0
 10
63.3824804856895
 20
-85.1474414570685
 10
143.339115351258
 20
-85.1474414570685
 10
143.339115351258
 20
-91.1578490893322
 10
63.3824804856895
 20
-91.1578490893322
  0
TEXT
  5
F10A51
330
F10A52
 100
AcDbEntity
8
Text
100
AcDbText
10
0.000000000000000
20
0.500000000000000
30
0.000000000000000
40
1.50000000000000
1

100
AcDbText
  0
TEXT
  5
F10A53
330
F10A54
 100
AcDbEntity
8
Text
100
AcDbText
10
66.0715524718127
20
-89.6254697889564
30
0.000000000000000
40
2.50000000000000
1
VHM-Uni-Schruppfräser 0331-120-bw*
100
AcDbText
  0
LWPOLYLINE
  5
F10A55
330
F10A56
100
AcDbEntity
8
Rahmen
100
AcDbPolyline
90
   4
70
   1
43
   0.0
 10
103.451864700781
 20
-79.1370338248049
 10
143.339115351258
 20
-79.1370338248049
 10
143.339115351258
 20
-85.1474414570685
 10
103.451864700781
 20
-85.1474414570685
  0
TEXT
  5
F10A57
330
F10A58
 100
AcDbEntity
8
Text
100
AcDbText
10
104.500000000000
20
-81.4570685169124
30
0.000000000000000
40
1.50000000000000
1
Zu bearb. Material:
100
AcDbText
  0
TEXT
  5
F10A59
330
F10A5A
 100
AcDbEntity
8
Text
100
AcDbText
10
0.000000000000000
20
0.500000000000000
30
0.000000000000000
40
1.50000000000000
1

100
AcDbText
  0
LWPOLYLINE
  5
F10A5B
330
F10A5C
100
AcDbEntity
8
Rahmen
100
AcDbPolyline
90
   4
70
   1
43
   0.0
 10
63.3824804856895
 20
-79.1370338248049
 10
103.451864700781
 20
-79.1370338248049
 10
103.451864700781
 20
-85.1474414570685
 10
63.3824804856895
 20
-85.1474414570685
  0
TEXT
  5
F10A5D
330
F10A5E
 100
AcDbEntity
8
Text
100
AcDbText
10
64.5000000000000
20
-81.4570685169124
30
0.000000000000000
40
1.50000000000000
1
Werkstoff:
100
AcDbText
  0
TEXT
  5
F10A5F
330
F10A60
 100
AcDbEntity
8
Text
100
AcDbText
10
80.7679965307892
20
-84.4570685169124
30
0.000000000000000
40
1.50000000000000
1
VHM
100
AcDbText
  0
LWPOLYLINE
  5
F10A61
330
F10A62
100
AcDbEntity
8
Rahmen
100
AcDbPolyline
90
   4
70
   1
43
   0.0
 10
103.451864700781
 20
-76.0407632263660
 10
143.339115351258
 20
-76.0407632263660
 10
143.339115351258
 20
-79.1370338248049
 10
103.451864700781
 20
-79.1370338248049
  0
TEXT
  5
F10A63
330
F10A64
 100
AcDbEntity
8
Text
100
AcDbText
10
0.000000000000000
20
0.500000000000000
30
0.000000000000000
40
1.50000000000000
1

100
AcDbText
  0
TEXT
  5
F10A65
330
F10A66
 100
AcDbEntity
8
Text
100
AcDbText
10
0.000000000000000
20
0.500000000000000
30
0.000000000000000
40
1.50000000000000
1

100
AcDbText
  0
LWPOLYLINE
  5
F10A67
330
F10A68
100
AcDbEntity
8
Rahmen
100
AcDbPolyline
90
   4
70
   1
43
   0.0
 10
63.3824804856895
 20
-76.0407632263660
 10
103.451864700781
 20
-76.0407632263660
 10
103.451864700781
 20
-79.1370338248049
 10
63.3824804856895
 20
-79.1370338248049
  0
TEXT
  5
F10A69
330
F10A6A
 100
AcDbEntity
8
Text
100
AcDbText
10
64.5000000000000
20
-78.4570685169124
30
0.000000000000000
40
1.50000000000000
1
Maßstab:
100
AcDbText
  0
TEXT
  5
F10A6B
330
F10A6C
 100
AcDbEntity
8
Text
100
AcDbText
10
89.0411968777103
20
-78.4570685169124
30
0.000000000000000
40
1.50000000000000
1
1 : 1
100
AcDbText
0
VIEWPORT
5
294
102
{ACAD_XDICTIONARY
360
58A
102
}
330
25D
100
AcDbEntity
67
1
8
0
60
1
100
AcDbViewport
10
0.0
20
0.0
30
0.0
40
10.0
41
10.0
68
-1
69
1
12
0.0
22
0.0
13
0.0
23
0.0
14
1.0
24
1.0
15
0.0
25
0.0
16
0.0
26
0.0
36
1.0
17
0.0
27
0.0
37
0.0
42
0.0
43
0.0
44
0.0
45
10.0
50
0.0
51
0.0000000000007958
72
100
90
32800
1

281
0
71
0
74
0
110
0.0
120
0.0
130
0.0
111
1.0
121
0.0
131
0.0
112
0.0
122
1.0
132
0.0
79
0
146
0.0
1001
VD_INVISIBLE_NOT_FOR_READ
1000
VD_INVISIBLE_NOT_FOR_READ
0
VIEWPORT
5
295
102
{ACAD_XDICTIONARY
360
58C
102
}
330
25D
100
AcDbEntity
67
1
8
0
60
1
100
AcDbViewport
10
0.0
20
0.0
30
0.0
40
10.0
41
10.0
68
0
69
2
12
0.0
22
0.0
13
0.0
23
0.0
14
1.0
24
1.0
15
0.0
25
0.0
16
0.0
26
0.0
36
1.0
17
0.0
27
0.0
37
0.0
42
0.0
43
0.0
44
0.0
45
10.0
50
0.0
51
0.0000000000007958
72
100
90
163872
1

281
0
71
0
74
0
110
0.0
120
0.0
130
0.0
111
1.0
121
0.0
131
0.0
112
0.0
122
1.0
132
0.0
79
0
146
0.0
1001
VD_INVISIBLE_NOT_FOR_READ
1000
VD_INVISIBLE_NOT_FOR_READ
0
ENDSEC
0
SECTION
2
OBJECTS
0
DICTIONARY
5
13
330
0
100
AcDbDictionary
281
1
3
ACAD_COLOR
350
FA7
3
ACAD_GROUP
350
14
3
ACAD_LAYOUT
350
FCF
3
ACAD_MATERIAL
350
F7A
3
ACAD_MLEADERSTYLE
350
FCD
3
ACAD_MLINESTYLE
350
16
3
ACAD_PLOTSETTINGS
350
17
3
ACAD_PLOTSTYLENAME
350
18
3
ACAD_SCALELIST
350
FAB
3
ACAD_TABLESTYLE
350
FA8
3
ACAD_VISUALSTYLE
350
F93
3
ACDB_RECOMPOSE_DATA
350
107E
3
AcDbVariableDictionary
350
FF0
3
DWGPROPS
350
107F
0
DICTIONARY
5
F10005
330
F10004
100
AcDbDictionary
280
1
281
1
3
ACAD_MTEXT_2008_RT
360
F10006
0
DICTIONARY
5
F10014
330
F10013
100
AcDbDictionary
280
1
281
1
3
ACAD_MTEXT_2008_RT
360
F10015
0
DICTIONARY
5
F1001E
330
F1001D
100
AcDbDictionary
280
1
281
1
3
ACAD_MTEXT_2008_RT
360
F1001F
0
DICTIONARY
5
F10023
330
F10022
100
AcDbDictionary
280
1
281
1
3
ACAD_MTEXT_2008_RT
360
F10024
0
DICTIONARY
5
F1000A
330
F10009
100
AcDbDictionary
280
1
281
1
3
ACAD_MTEXT_2008_RT
360
F1000B
0
DICTIONARY
5
F1000F
330
F1000E
100
AcDbDictionary
280
1
281
1
3
ACAD_MTEXT_2008_RT
360
F10010
0
DICTIONARY
5
F10019
330
F10018
100
AcDbDictionary
280
1
281
1
3
ACAD_MTEXT_2008_RT
360
F1001A
0
DICTIONARY
5
FA7
102
{ACAD_REACTORS
330
13
102
}
330
13
100
AcDbDictionary
281
1
0
DICTIONARY
5
14
330
13
100
AcDbDictionary
281
1
0
DICTIONARY
5
FCF
102
{ACAD_REACTORS
330
13
102
}
330
13
100
AcDbDictionary
281
1
3
Layout1
350
FD1
3
Model
350
FD0
0
DICTIONARY
5
F7A
102
{ACAD_REACTORS
330
13
102
}
330
13
100
AcDbDictionary
281
1
3
ByBlock
350
F83
3
ByLayer
350
F7B
3
Global
350
F8B
0
DICTIONARY
5
FCD
102
{ACAD_REACTORS
330
13
102
}
330
13
100
AcDbDictionary
281
1
3
Standard
350
FCE
0
DICTIONARY
5
16
330
13
100
AcDbDictionary
281
1
3
Standard
350
FAA
0
DICTIONARY
5
17
102
{ACAD_REACTORS
330
13
102
}
330
13
100
AcDbDictionary
281
1
0
ACDBDICTIONARYWDFLT
5
18
102
{ACAD_REACTORS
330
13
102
}
330
13
100
AcDbDictionary
281
1
3
Normal
350
19
100
AcDbDictionaryWithDefault
340
19
0
DICTIONARY
5
FAB
102
{ACAD_REACTORS
330
13
102
}
330
13
100
AcDbDictionary
281
1
3
A0
350
FAC
3
A1
350
FAD
3
A2
350
FAE
3
A3
350
FAF
3
A4
350
FB0
3
A5
350
FB1
3
A6
350
FB2
3
A7
350
FB3
3
A8
350
FB4
3
A9
350
FB5
3
B0
350
FB6
3
B1
350
FB7
3
B2
350
FB8
3
B3
350
FB9
3
B4
350
FBA
3
B5
350
FBB
3
B6
350
FBC
3
B7
350
FBD
3
B8
350
FBE
3
B9
350
FBF
3
C0
350
FC0
3
C1
350
FC1
3
C2
350
FC2
3
C3
350
FC3
3
C4
350
FC4
3
C5
350
FC5
3
C6
350
FC6
3
C7
350
FC7
3
C8
350
FC8
3
C9
350
FC9
3
D0
350
FCA
3
D1
350
FCB
3
D2
350
FCC
0
DICTIONARY
5
FA8
102
{ACAD_REACTORS
330
13
102
}
330
13
100
AcDbDictionary
281
1
3
Standard
350
FA9
0
DICTIONARY
5
F93
102
{ACAD_REACTORS
330
13
102
}
330
13
100
AcDbDictionary
281
1
3
2dWireframe
350
F99
3
3D Hidden
350
F9B
3
3dWireframe
350
F9A
3
Basic
350
F98
3
Brighten
350
F9F
3
ColorChange
350
FA3
3
Conceptual
350
F9C
3
Dim
350
F9E
3
EdgeColorOff
350
FA6
3
Facepattern
350
FA2
3
Flat
350
F94
3
FlatWithEdges
350
F95
3
Gouraud
350
F96
3
GouraudWithEdges
350
F97
3
JitterOff
350
FA4
3
Linepattern
350
FA1
3
OverhangOff
350
FA5
3
Realistic
350
F9D
3
Thicken
350
FA0
0
XRECORD
5
107E
102
{ACAD_REACTORS
330
13
102
}
330
13
100
AcDbXrecord
280
1
90
1
330
FA9
330
F10004
330
F10013
330
F1001D
330
F10022
330
F10009
330
F1000E
330
F10018
0
DICTIONARY
5
FF0
102
{ACAD_REACTORS
330
13
102
}
330
13
100
AcDbDictionary
281
1
3
CANNOSCALE
350
FF3
3
CMLEADERSTYLE
350
FF2
3
CTABLESTYLE
350
FF1
3
DIMASSOC
350
FF6
3
INDEXCTL
350
FF5
3
SORTENTS
350
FF4
3
XCLIPFRAME
350
1078
0
XRECORD
5
107F
102
{ACAD_REACTORS
330
13
102
}
330
13
100
AcDbXrecord
280
1
1
DWGPROPS COOKIE
2

3

4

6

7

8

9

300
=
301
=
302
=
303
=
304
=
305
=
306
=
307
=
308
=
309
=
40
0.0
41
0.0
42
0.0
1

90
0
0
XRECORD
5
F10006
102
{ACAD_REACTORS
330
F10005
102
}
330
F10005
100
AcDbXrecord
280
1
40
48458.0
1
0.2 x 45°
0
XRECORD
5
F10015
102
{ACAD_REACTORS
330
F10014
102
}
330
F10014
100
AcDbXrecord
280
1
40
48458.0
1
38
0
XRECORD
5
F1001F
102
{ACAD_REACTORS
330
F1001E
102
}
330
F1001E
100
AcDbXrecord
280
1
40
48458.0
1
28
0
XRECORD
5
F10024
102
{ACAD_REACTORS
330
F10023
102
}
330
F10023
100
AcDbXrecord
280
1
40
48458.0
1
83
0
XRECORD
5
F1000B
102
{ACAD_REACTORS
330
F1000A
102
}
330
F1000A
100
AcDbXrecord
280
1
40
48458.0
1
Ø12
0
XRECORD
5
F10010
102
{ACAD_REACTORS
330
F1000F
102
}
330
F1000F
100
AcDbXrecord
280
1
40
48458.0
1
Ø11.4
0
LAYOUT
5
FD1
102
{ACAD_XDICTIONARY
360
10A9
102
}
102
{ACAD_REACTORS
330
FCF
102
}
330
FCF
100
AcDbPlotSettings
1

2
Microsoft XPS Document Writer
4

6

40
0.0
41
0.0
42
0.0
43
0.0
44
0.0
45
0.0
46
0.0
47
0.0
48
0.0
49
0.0
140
0.0
141
0.0
142
1.0
143
1.0
70
688
72
0
73
0
74
5
7

75
16
147
1.0
148
0.0
149
0.0
100
AcDbLayout
1
Layout1
70
1
71
1
10
0.0
20
0.0
11
12.0
21
9.0
12
0.0
22
0.0
32
0.0
14
1.000000000000000E+20
24
1.000000000000000E+20
34
1.000000000000000E+20
15
-1.000000000000000E+20
25
-1.000000000000000E+20
35
-1.000000000000000E+20
146
0.0
13
0.0
23
0.0
33
0.0
16
1.0
26
0.0
36
0.0
17
0.0
27
1.0
37
0.0
76
0
330
25D
0
LAYOUT
5
FD0
102
{ACAD_XDICTIONARY
360
10A7
102
}
102
{ACAD_REACTORS
330
FCF
102
}
330
FCF
100
AcDbPlotSettings
1

2
Microsoft XPS Document Writer
4

6

40
0.0
41
0.0
42
0.0
43
0.0
44
0.0
45
0.0
46
0.0
47
0.0
48
0.0
49
0.0
140
0.0
141
0.0
142
1.0
143
1.0
70
1712
72
0
73
0
74
0
7

75
0
147
1.0
148
0.0
149
0.0
100
AcDbLayout
1
Model
70
1
71
0
10
0.0
20
0.0
11
12.0
21
9.0
12
0.0
22
0.0
32
0.0
14
0.0
24
0.0
34
0.0
15
0.0
25
0.0
35
0.0
146
0.0
13
0.0
23
0.0
33
0.0
16
1.0
26
0.0
36
0.0
17
0.0
27
1.0
37
0.0
76
0
330
261
331
26B
0
MATERIAL
5
F83
102
{ACAD_XDICTIONARY
360
F84
102
}
102
{ACAD_REACTORS
330
F7A
102
}
330
F7A
100
AcDbMaterial
1
ByBlock
72
0
43
0.0208333333333333
43
0.0
43
0.0
43
0.0
43
0.0
43
0.0208333333333333
43
0.0
43
0.0
43
0.0
43
0.0
43
1.0
43
0.0
43
0.0
43
0.0
43
0.0
43
1.0
77
0
47
0.0208333333333333
47
0.0
47
0.0
47
0.0
47
0.0
47
0.0208333333333333
47
0.0
47
0.0
47
0.0
47
0.0
47
1.0
47
0.0
47
0.0
47
0.0
47
0.0
47
1.0
171
0
49
0.0208333333333333
49
0.0
49
0.0
49
0.0
49
0.0
49
0.0208333333333333
49
0.0
49
0.0
49
0.0
49
0.0
49
1.0
49
0.0
49
0.0
49
0.0
49
0.0
49
1.0
175
0
142
0.0208333333333333
142
0.0
142
0.0
142
0.0
142
0.0
142
0.0208333333333333
142
0.0
142
0.0
142
0.0
142
0.0
142
1.0
142
0.0
142
0.0
142
0.0
142
0.0
142
1.0
179
0
144
0.0208333333333333
144
0.0
144
0.0
144
0.0
144
0.0
144
0.0208333333333333
144
0.0
144
0.0
144
0.0
144
0.0
144
1.0
144
0.0
144
0.0
144
0.0
144
0.0
144
1.0
147
0.0208333333333333
147
0.0
147
0.0
147
0.0
147
0.0
147
0.0208333333333333
147
0.0
147
0.0
147
0.0
147
0.0
147
1.0
147
0.0
147
0.0
147
0.0
147
0.0
147
1.0
0
MATERIAL
5
F7B
102
{ACAD_XDICTIONARY
360
F7C
102
}
102
{ACAD_REACTORS
330
F7A
102
}
330
F7A
100
AcDbMaterial
1
ByLayer
72
0
43
0.0208333333333333
43
0.0
43
0.0
43
0.0
43
0.0
43
0.0208333333333333
43
0.0
43
0.0
43
0.0
43
0.0
43
1.0
43
0.0
43
0.0
43
0.0
43
0.0
43
1.0
77
0
47
0.0208333333333333
47
0.0
47
0.0
47
0.0
47
0.0
47
0.0208333333333333
47
0.0
47
0.0
47
0.0
47
0.0
47
1.0
47
0.0
47
0.0
47
0.0
47
0.0
47
1.0
171
0
49
0.0208333333333333
49
0.0
49
0.0
49
0.0
49
0.0
49
0.0208333333333333
49
0.0
49
0.0
49
0.0
49
0.0
49
1.0
49
0.0
49
0.0
49
0.0
49
0.0
49
1.0
175
0
142
0.0208333333333333
142
0.0
142
0.0
142
0.0
142
0.0
142
0.0208333333333333
142
0.0
142
0.0
142
0.0
142
0.0
142
1.0
142
0.0
142
0.0
142
0.0
142
0.0
142
1.0
179
0
144
0.0208333333333333
144
0.0
144
0.0
144
0.0
144
0.0
144
0.0208333333333333
144
0.0
144
0.0
144
0.0
144
0.0
144
1.0
144
0.0
144
0.0
144
0.0
144
0.0
144
1.0
147
0.0208333333333333
147
0.0
147
0.0
147
0.0
147
0.0
147
0.0208333333333333
147
0.0
147
0.0
147
0.0
147
0.0
147
1.0
147
0.0
147
0.0
147
0.0
147
0.0
147
1.0
0
MATERIAL
5
F8B
102
{ACAD_XDICTIONARY
360
F8C
102
}
102
{ACAD_REACTORS
330
F7A
102
}
330
F7A
100
AcDbMaterial
1
Global
72
0
43
0.0208333333333333
43
0.0
43
0.0
43
0.0
43
0.0
43
0.0208333333333333
43
0.0
43
0.0
43
0.0
43
0.0
43
1.0
43
0.0
43
0.0
43
0.0
43
0.0
43
1.0
77
0
47
0.0208333333333333
47
0.0
47
0.0
47
0.0
47
0.0
47
0.0208333333333333
47
0.0
47
0.0
47
0.0
47
0.0
47
1.0
47
0.0
47
0.0
47
0.0
47
0.0
47
1.0
171
0
49
0.0208333333333333
49
0.0
49
0.0
49
0.0
49
0.0
49
0.0208333333333333
49
0.0
49
0.0
49
0.0
49
0.0
49
1.0
49
0.0
49
0.0
49
0.0
49
0.0
49
1.0
175
0
142
0.0208333333333333
142
0.0
142
0.0
142
0.0
142
0.0
142
0.0208333333333333
142
0.0
142
0.0
142
0.0
142
0.0
142
1.0
142
0.0
142
0.0
142
0.0
142
0.0
142
1.0
179
0
144
0.0208333333333333
144
0.0
144
0.0
144
0.0
144
0.0
144
0.0208333333333333
144
0.0
144
0.0
144
0.0
144
0.0
144
1.0
144
0.0
144
0.0
144
0.0
144
0.0
144
1.0
147
0.0208333333333333
147
0.0
147
0.0
147
0.0
147
0.0
147
0.0208333333333333
147
0.0
147
0.0
147
0.0
147
0.0
147
1.0
147
0.0
147
0.0
147
0.0
147
0.0
147
1.0
0
MLEADERSTYLE
5
FCE
102
{ACAD_REACTORS
330
FCD
102
}
330
FCD
100
AcDbMLeaderStyle
170
2
171
1
172
0
90
2
40
0.0
41
0.0
173
1
91
-1056964608
340
256
92
-2
290
1
42
0.09
291
1
43
0.36
3
Standard
44
0.18
300

342
253
174
1
178
6
175
1
176
0
93
-1056964608
45
0.18
292
0
297
0
46
0.18
94
-1056964608
47
1.0
49
1.0
140
1.0
293
1
141
0.0
294
1
177
0
142
1.0
295
0
296
0
143
0.125
1001
ACAD_MLEADERVER
1070
2
0
MLINESTYLE
5
FAA
102
{ACAD_REACTORS
330
16
102
}
330
16
100
AcDbMlineStyle
2
STANDARD
70
0
3

62
256
51
90.0
52
90.0
71
2
49
0.5
62
256
6
BYLAYER
49
-0.5
62
256
6
BYLAYER
0
ACDBPLACEHOLDER
5
19
102
{ACAD_REACTORS
330
18
102
}
330
18
0
SCALE
5
FAC
102
{ACAD_REACTORS
330
FAB
102
}
330
FAB
100
AcDbScale
70
0
300
1:1
140
1.0
141
1.0
290
1
0
SCALE
5
FAD
102
{ACAD_REACTORS
330
FAB
102
}
330
FAB
100
AcDbScale
70
0
300
1:2
140
1.0
141
2.0
290
0
0
SCALE
5
FAE
102
{ACAD_REACTORS
330
FAB
102
}
330
FAB
100
AcDbScale
70
0
300
1:4
140
1.0
141
4.0
290
0
0
SCALE
5
FAF
102
{ACAD_REACTORS
330
FAB
102
}
330
FAB
100
AcDbScale
70
0
300
1:5
140
1.0
141
5.0
290
0
0
SCALE
5
FB0
102
{ACAD_REACTORS
330
FAB
102
}
330
FAB
100
AcDbScale
70
0
300
1:8
140
1.0
141
8.0
290
0
0
SCALE
5
FB1
102
{ACAD_REACTORS
330
FAB
102
}
330
FAB
100
AcDbScale
70
0
300
1:10
140
1.0
141
10.0
290
0
0
SCALE
5
FB2
102
{ACAD_REACTORS
330
FAB
102
}
330
FAB
100
AcDbScale
70
0
300
1:16
140
1.0
141
16.0
290
0
0
SCALE
5
FB3
102
{ACAD_REACTORS
330
FAB
102
}
330
FAB
100
AcDbScale
70
0
300
1:20
140
1.0
141
20.0
290
0
0
SCALE
5
FB4
102
{ACAD_REACTORS
330
FAB
102
}
330
FAB
100
AcDbScale
70
0
300
1:30
140
1.0
141
30.0
290
0
0
SCALE
5
FB5
102
{ACAD_REACTORS
330
FAB
102
}
330
FAB
100
AcDbScale
70
0
300
1:40
140
1.0
141
40.0
290
0
0
SCALE
5
FB6
102
{ACAD_REACTORS
330
FAB
102
}
330
FAB
100
AcDbScale
70
0
300
1:50
140
1.0
141
50.0
290
0
0
SCALE
5
FB7
102
{ACAD_REACTORS
330
FAB
102
}
330
FAB
100
AcDbScale
70
0
300
1:100
140
1.0
141
100.0
290
0
0
SCALE
5
FB8
102
{ACAD_REACTORS
330
FAB
102
}
330
FAB
100
AcDbScale
70
0
300
2:1
140
2.0
141
1.0
290
0
0
SCALE
5
FB9
102
{ACAD_REACTORS
330
FAB
102
}
330
FAB
100
AcDbScale
70
0
300
4:1
140
4.0
141
1.0
290
0
0
SCALE
5
FBA
102
{ACAD_REACTORS
330
FAB
102
}
330
FAB
100
AcDbScale
70
0
300
8:1
140
8.0
141
1.0
290
0
0
SCALE
5
FBB
102
{ACAD_REACTORS
330
FAB
102
}
330
FAB
100
AcDbScale
70
0
300
10:1
140
10.0
141
1.0
290
0
0
SCALE
5
FBC
102
{ACAD_REACTORS
330
FAB
102
}
330
FAB
100
AcDbScale
70
0
300
100:1
140
100.0
141
1.0
290
0
0
SCALE
5
FBD
102
{ACAD_REACTORS
330
FAB
102
}
330
FAB
100
AcDbScale
70
0
300
1/128" = 1'-0"
140
0.0078125
141
12.0
290
0
0
SCALE
5
FBE
102
{ACAD_REACTORS
330
FAB
102
}
330
FAB
100
AcDbScale
70
0
300
1/64" = 1'-0"
140
0.015625
141
12.0
290
0
0
SCALE
5
FBF
102
{ACAD_REACTORS
330
FAB
102
}
330
FAB
100
AcDbScale
70
0
300
1/32" = 1'-0"
140
0.03125
141
12.0
290
0
0
SCALE
5
FC0
102
{ACAD_REACTORS
330
FAB
102
}
330
FAB
100
AcDbScale
70
0
300
1/16" = 1'-0"
140
0.0625
141
12.0
290
0
0
SCALE
5
FC1
102
{ACAD_REACTORS
330
FAB
102
}
330
FAB
100
AcDbScale
70
0
300
3/32" = 1'-0"
140
0.09375
141
12.0
290
0
0
SCALE
5
FC2
102
{ACAD_REACTORS
330
FAB
102
}
330
FAB
100
AcDbScale
70
0
300
1/8" = 1'-0"
140
0.125
141
12.0
290
0
0
SCALE
5
FC3
102
{ACAD_REACTORS
330
FAB
102
}
330
FAB
100
AcDbScale
70
0
300
3/16" = 1'-0"
140
0.1875
141
12.0
290
0
0
SCALE
5
FC4
102
{ACAD_REACTORS
330
FAB
102
}
330
FAB
100
AcDbScale
70
0
300
1/4" = 1'-0"
140
0.25
141
12.0
290
0
0
SCALE
5
FC5
102
{ACAD_REACTORS
330
FAB
102
}
330
FAB
100
AcDbScale
70
0
300
3/8" = 1'-0"
140
0.375
141
12.0
290
0
0
SCALE
5
FC6
102
{ACAD_REACTORS
330
FAB
102
}
330
FAB
100
AcDbScale
70
0
300
1/2" = 1'-0"
140
0.5
141
12.0
290
0
0
SCALE
5
FC7
102
{ACAD_REACTORS
330
FAB
102
}
330
FAB
100
AcDbScale
70
0
300
3/4" = 1'-0"
140
0.75
141
12.0
290
0
0
SCALE
5
FC8
102
{ACAD_REACTORS
330
FAB
102
}
330
FAB
100
AcDbScale
70
0
300
1" = 1'-0"
140
1.0
141
12.0
290
0
0
SCALE
5
FC9
102
{ACAD_REACTORS
330
FAB
102
}
330
FAB
100
AcDbScale
70
0
300
1-1/2" = 1'-0"
140
1.5
141
12.0
290
0
0
SCALE
5
FCA
102
{ACAD_REACTORS
330
FAB
102
}
330
FAB
100
AcDbScale
70
0
300
3" = 1'-0"
140
3.0
141
12.0
290
0
0
SCALE
5
FCB
102
{ACAD_REACTORS
330
FAB
102
}
330
FAB
100
AcDbScale
70
0
300
6" = 1'-0"
140
6.0
141
12.0
290
0
0
SCALE
5
FCC
102
{ACAD_REACTORS
330
FAB
102
}
330
FAB
100
AcDbScale
70
0
300
1'-0" = 1'-0"
140
12.0
141
12.0
290
0
0
TABLESTYLE
5
FA9
102
{ACAD_XDICTIONARY
360
FF8
102
}
102
{ACAD_REACTORS
330
FA8
102
}
330
FA8
100
AcDbTableStyle
3
Standard
70
0
71
0
40
0.06
41
0.06
280
0
281
0
7
Standard
140
0.18
170
2
62
0
63
7
283
0
274
-2
284
1
64
0
275
-2
285
1
65
0
276
-2
286
1
66
0
277
-2
287
1
67
0
278
-2
288
1
68
0
279
-2
289
1
69
0
7
Standard
140
0.25
170
5
62
0
63
7
283
0
274
-2
284
1
64
0
275
-2
285
1
65
0
276
-2
286
1
66
0
277
-2
287
1
67
0
278
-2
288
1
68
0
279
-2
289
1
69
0
7
Standard
140
0.18
170
5
62
0
63
7
283
0
274
-2
284
1
64
0
275
-2
285
1
65
0
276
-2
286
1
66
0
277
-2
287
1
67
0
278
-2
288
1
68
0
279
-2
289
1
69
0
0
VISUALSTYLE
5
F99
102
{ACAD_XDICTIONARY
360
108A
102
}
102
{ACAD_REACTORS
330
F93
102
}
330
F93
100
AcDbVisualStyle
2

70
4
71
0
72
2
73
0
90
0
40
-0.6
41
-30.0
62
5
63
7
74
1
91
4
64
7
65
257
75
1
175
1
42
1.0
92
0
66
257
43
1.0
76
1
77
6
78
2
67
7
79
5
170
0
171
0
290
0
174
0
93
1
44
0.0
173
0
291
0
45
0.0
1001
ACAD
1000
AcDbSavedByObjectVersion
1070
0
0
VISUALSTYLE
5
F9B
102
{ACAD_XDICTIONARY
360
108E
102
}
102
{ACAD_REACTORS
330
F93
102
}
330
F93
100
AcDbVisualStyle
2

70
6
71
1
72
2
73
2
90
0
40
-0.6
41
-30.0
62
5
63
7
74
2
91
2
64
7
65
257
75
2
175
1
42
179.0
92
0
66
257
43
1.0
76
1
77
6
78
2
67
7
79
3
170
0
171
0
290
0
174
0
93
1
44
0.0
173
0
291
0
45
0.0
1001
ACAD
1000
AcDbSavedByObjectVersion
1070
0
0
VISUALSTYLE
5
F9A
102
{ACAD_XDICTIONARY
360
108C
102
}
102
{ACAD_REACTORS
330
F93
102
}
330
F93
100
AcDbVisualStyle
2

70
5
71
0
72
2
73
0
90
0
40
-0.6
41
-30.0
62
5
63
7
74
1
91
4
64
7
65
257
75
1
175
1
42
1.0
92
0
66
257
43
1.0
76
1
77
6
78
2
67
7
79
5
170
0
171
0
290
0
174
0
93
1
44
0.0
173
0
291
0
45
0.0
1001
ACAD
1000
AcDbSavedByObjectVersion
1070
0
0
VISUALSTYLE
5
F98
102
{ACAD_XDICTIONARY
360
1088
102
}
102
{ACAD_REACTORS
330
F93
102
}
330
F93
100
AcDbVisualStyle
2

70
7
71
1
72
0
73
1
90
0
40
-0.6
41
-30.0
62
5
63
7
74
0
91
4
64
7
65
257
75
1
175
1
42
1.0
92
8
66
7
43
1.0
76
1
77
6
78
2
67
7
79
5
170
0
171
0
290
0
174
0
93
1
44
0.0
173
0
291
1
45
0.0
1001
ACAD
1000
AcDbSavedByObjectVersion
1070
0
0
VISUALSTYLE
5
F9F
102
{ACAD_XDICTIONARY
360
1096
102
}
102
{ACAD_REACTORS
330
F93
102
}
330
F93
100
AcDbVisualStyle
2

70
12
71
2
72
2
73
0
90
0
40
-0.6
41
-30.0
62
5
63
7
74
1
91
4
64
7
65
257
75
1
175
1
42
1.0
92
8
66
7
43
1.0
76
1
77
6
78
2
67
7
79
5
170
0
171
0
290
0
174
0
93
1
44
50.0
173
0
291
1
45
0.0
1001
ACAD
1000
AcDbSavedByObjectVersion
1070
0
0
VISUALSTYLE
5
FA3
102
{ACAD_XDICTIONARY
360
109E
102
}
102
{ACAD_REACTORS
330
F93
102
}
330
F93
100
AcDbVisualStyle
2

70
16
71
2
72
2
73
3
90
0
40
-0.6
41
-30.0
62
5
63
8
74
1
91
4
64
7
65
257
75
1
175
1
42
1.0
92
8
66
8
43
1.0
76
1
77
6
78
2
67
7
79
5
170
0
171
0
290
0
174
0
93
1
44
0.0
173
0
291
1
45
0.0
1001
ACAD
1000
AcDbSavedByObjectVersion
1070
0
0
VISUALSTYLE
5
F9C
102
{ACAD_XDICTIONARY
360
1090
102
}
102
{ACAD_REACTORS
330
F93
102
}
330
F93
100
AcDbVisualStyle
2

70
9
71
3
72
2
73
0
90
0
40
-0.6
41
-30.0
62
5
63
7
74
2
91
2
64
7
65
257
75
1
175
1
42
179.0
92
8
66
7
43
1.0
76
1
77
6
78
2
67
7
79
3
170
0
171
0
290
0
174
0
93
1
44
0.0
173
0
291
0
45
0.0
1001
ACAD
1000
AcDbSavedByObjectVersion
1070
0
0
VISUALSTYLE
5
F9E
102
{ACAD_XDICTIONARY
360
1094
102
}
102
{ACAD_REACTORS
330
F93
102
}
330
F93
100
AcDbVisualStyle
2

70
11
71
2
72
2
73
0
90
0
40
-0.6
41
-30.0
62
5
63
7
74
1
91
4
64
7
65
257
75
1
175
1
42
1.0
92
8
66
7
43
1.0
76
1
77
6
78
2
67
7
79
5
170
0
171
0
290
0
174
0
93
1
44
-50.0
173
0
291
1
45
0.0
1001
ACAD
1000
AcDbSavedByObjectVersion
1070
0
0
VISUALSTYLE
5
FA6
102
{ACAD_XDICTIONARY
360
10A4
102
}
102
{ACAD_REACTORS
330
F93
102
}
330
F93
100
AcDbVisualStyle
2

70
22
71
2
72
2
73
0
90
0
40
-0.6
41
-30.0
62
5
63
7
74
1
91
4
64
7
65
257
75
1
175
1
42
1.0
92
8
66
7
43
1.0
76
1
77
6
78
2
67
7
79
5
170
0
171
0
290
0
174
0
93
1
44
0.0
173
0
291
1
45
0.0
1001
ACAD
1000
AcDbSavedByObjectVersion
1070
0
0
VISUALSTYLE
5
FA2
102
{ACAD_XDICTIONARY
360
109C
102
}
102
{ACAD_REACTORS
330
F93
102
}
330
F93
100
AcDbVisualStyle
2

70
15
71
2
72
2
73
0
90
0
40
-0.6
41
-30.0
62
5
63
7
74
1
91
4
64
7
65
257
75
1
175
1
42
1.0
92
8
66
7
43
1.0
76
1
77
6
78
2
67
7
79
5
170
0
171
0
290
0
174
0
93
1
44
0.0
173
0
291
1
45
0.0
1001
ACAD
1000
AcDbSavedByObjectVersion
1070
0
0
VISUALSTYLE
5
F94
102
{ACAD_XDICTIONARY
360
1080
102
}
102
{ACAD_REACTORS
330
F93
102
}
330
F93
100
AcDbVisualStyle
2

70
0
71
2
72
1
73
1
90
2
40
-0.6
41
30.0
62
5
63
7
74
0
91
4
64
7
65
257
75
1
175
1
42
1.0
92
8
66
7
43
1.0
76
1
77
6
78
2
67
7
79
5
170
0
171
0
290
0
174
0
93
13
44
0.0
173
0
291
1
45
0.0
1001
ACAD
1000
AcDbSavedByObjectVersion
1070
0
0
VISUALSTYLE
5
F95
102
{ACAD_XDICTIONARY
360
1082
102
}
102
{ACAD_REACTORS
330
F93
102
}
330
F93
100
AcDbVisualStyle
2

70
1
71
2
72
1
73
1
90
2
40
-0.6
41
30.0
62
5
63
7
74
1
91
4
64
7
65
257
75
1
175
1
42
1.0
92
0
66
257
43
1.0
76
1
77
6
78
2
67
7
79
5
170
0
171
0
290
0
174
0
93
13
44
0.0
173
0
291
1
45
0.0
1001
ACAD
1000
AcDbSavedByObjectVersion
1070
0
0
VISUALSTYLE
5
F96
102
{ACAD_XDICTIONARY
360
1084
102
}
102
{ACAD_REACTORS
330
F93
102
}
330
F93
100
AcDbVisualStyle
2

70
2
71
2
72
2
73
1
90
2
40
-0.6
41
30.0
62
5
63
7
74
0
91
4
64
7
65
257
75
1
175
1
42
1.0
92
0
66
7
43
1.0
76
1
77
6
78
2
67
7
79
5
170
0
171
0
290
0
174
0
93
13
44
0.0
173
0
291
1
45
0.0
1001
ACAD
1000
AcDbSavedByObjectVersion
1070
0
0
VISUALSTYLE
5
F97
102
{ACAD_XDICTIONARY
360
1086
102
}
102
{ACAD_REACTORS
330
F93
102
}
330
F93
100
AcDbVisualStyle
2

70
3
71
2
72
2
73
1
90
2
40
-0.6
41
30.0
62
5
63
7
74
1
91
4
64
7
65
257
75
1
175
1
42
1.0
92
0
66
257
43
1.0
76
1
77
6
78
2
67
7
79
5
170
0
171
0
290
0
174
0
93
13
44
0.0
173
0
291
1
45
0.0
1001
ACAD
1000
AcDbSavedByObjectVersion
1070
0
0
VISUALSTYLE
5
FA4
102
{ACAD_XDICTIONARY
360
10A0
102
}
102
{ACAD_REACTORS
330
F93
102
}
330
F93
100
AcDbVisualStyle
2

70
20
71
2
72
2
73
0
90
0
40
-0.6
41
-30.0
62
5
63
7
74
1
91
4
64
7
65
257
75
1
175
1
42
1.0
92
10
66
7
43
1.0
76
1
77
6
78
2
67
7
79
5
170
0
171
0
290
0
174
0
93
1
44
0.0
173
0
291
1
45
0.0
1001
ACAD
1000
AcDbSavedByObjectVersion
1070
0
0
VISUALSTYLE
5
FA1
102
{ACAD_XDICTIONARY
360
109A
102
}
102
{ACAD_REACTORS
330
F93
102
}
330
F93
100
AcDbVisualStyle
2

70
14
71
2
72
2
73
0
90
0
40
-0.6
41
-30.0
62
5
63
7
74
1
91
4
64
7
65
257
75
7
175
7
42
1.0
92
8
66
7
43
1.0
76
1
77
6
78
2
67
7
79
5
170
0
171
0
290
0
174
0
93
1
44
0.0
173
0
291
1
45
0.0
1001
ACAD
1000
AcDbSavedByObjectVersion
1070
0
0
VISUALSTYLE
5
FA5
102
{ACAD_XDICTIONARY
360
10A2
102
}
102
{ACAD_REACTORS
330
F93
102
}
330
F93
100
AcDbVisualStyle
2

70
21
71
2
72
2
73
0
90
0
40
-0.6
41
-30.0
62
5
63
7
74
1
91
4
64
7
65
257
75
1
175
1
42
1.0
92
9
66
7
43
1.0
76
1
77
6
78
2
67
7
79
5
170
0
171
0
290
0
174
0
93
1
44
0.0
173
0
291
1
45
0.0
1001
ACAD
1000
AcDbSavedByObjectVersion
1070
0
0
VISUALSTYLE
5
F9D
102
{ACAD_XDICTIONARY
360
1092
102
}
102
{ACAD_REACTORS
330
F93
102
}
330
F93
100
AcDbVisualStyle
2

70
8
71
2
72
2
73
0
90
0
40
-0.6
41
-30.0
62
5
63
7
74
1
91
0
64
7
65
257
75
1
175
1
42
1.0
92
8
66
8
43
1.0
76
1
77
6
78
2
67
7
79
5
170
0
171
0
290
0
174
0
93
13
44
0.0
173
0
291
0
45
0.0
1001
ACAD
1000
AcDbSavedByObjectVersion
1070
0
0
VISUALSTYLE
5
FA0
102
{ACAD_XDICTIONARY
360
1098
102
}
102
{ACAD_REACTORS
330
F93
102
}
330
F93
100
AcDbVisualStyle
2

70
13
71
2
72
2
73
0
90
0
40
-0.6
41
-30.0
62
5
63
7
74
1
91
4
64
7
65
257
75
1
175
1
42
1.0
92
12
66
7
43
1.0
76
1
77
6
78
2
67
7
79
5
170
0
171
0
290
0
174
0
93
1
44
0.0
173
0
291
1
45
0.0
1001
ACAD
1000
AcDbSavedByObjectVersion
1070
0
0
DICTIONARYVAR
5
FF3
102
{ACAD_REACTORS
330
FF0
102
}
330
FF0
100
DictionaryVariables
280
0
1
1:1
0
DICTIONARYVAR
5
FF2
102
{ACAD_REACTORS
330
FF0
102
}
330
FF0
100
DictionaryVariables
280
0
1
STANDARD
0
DICTIONARYVAR
5
FF1
102
{ACAD_REACTORS
330
FF0
102
}
330
FF0
100
DictionaryVariables
280
0
1
STANDARD
0
DICTIONARYVAR
5
FF6
102
{ACAD_REACTORS
330
FF0
102
}
330
FF0
100
DictionaryVariables
280
0
1
1
0
DICTIONARYVAR
5
FF5
102
{ACAD_REACTORS
330
FF0
102
}
330
FF0
100
DictionaryVariables
280
0
1
0
0
DICTIONARYVAR
5
FF4
102
{ACAD_REACTORS
330
FF0
102
}
330
FF0
100
DictionaryVariables
280
0
1
127
0
DICTIONARYVAR
5
1078
102
{ACAD_REACTORS
330
FF0
102
}
330
FF0
100
DictionaryVariables
280
0
1
2
0
DICTIONARY
5
10A9
330
FD1
100
AcDbDictionary
280
1
281
1
3
ACAD_XREC_ROUNDTRIP
360
10AA
0
DICTIONARY
5
10A7
330
FD0
100
AcDbDictionary
280
1
281
1
3
ACAD_XREC_ROUNDTRIP
360
10A8
0
DICTIONARY
5
F84
330
F83
100
AcDbDictionary
280
1
281
1
3
ACAD_XREC_ROUNDTRIP
360
FFF
3
BUMPTILE
360
F86
3
DIFFUSETILE
360
F85
3
OPACITYTILE
360
F89
3
REFLECTIONTILE
360
F88
3
REFRACTIONTILE
360
F8A
3
SPECULARTILE
360
F87
0
DICTIONARY
5
F7C
330
F7B
100
AcDbDictionary
280
1
281
1
3
ACAD_XREC_ROUNDTRIP
360
FFE
3
BUMPTILE
360
F7E
3
DIFFUSETILE
360
F7D
3
OPACITYTILE
360
F81
3
REFLECTIONTILE
360
F80
3
REFRACTIONTILE
360
F82
3
SPECULARTILE
360
F7F
0
DICTIONARY
5
F8C
330
F8B
100
AcDbDictionary
280
1
281
1
3
ACAD_XREC_ROUNDTRIP
360
1000
3
BUMPTILE
360
F8E
3
DIFFUSETILE
360
F8D
3
OPACITYTILE
360
F91
3
REFLECTIONTILE
360
F90
3
REFRACTIONTILE
360
F92
3
SPECULARTILE
360
F8F
0
DICTIONARY
5
FF8
330
FA9
100
AcDbDictionary
280
1
281
1
3
ACAD_ROUNDTRIP_2008_TABLESTYLE_CELLSTYLEMAP
360
1079
3
ACAD_XREC_ROUNDTRIP
360
10A6
0
DICTIONARY
5
108A
330
F99
100
AcDbDictionary
280
1
281
1
3
ACAD_XREC_ROUNDTRIP
360
108B
0
DICTIONARY
5
108E
330
F9B
100
AcDbDictionary
280
1
281
1
3
ACAD_XREC_ROUNDTRIP
360
108F
0
DICTIONARY
5
108C
330
F9A
100
AcDbDictionary
280
1
281
1
3
ACAD_XREC_ROUNDTRIP
360
108D
0
DICTIONARY
5
1088
330
F98
100
AcDbDictionary
280
1
281
1
3
ACAD_XREC_ROUNDTRIP
360
1089
0
DICTIONARY
5
1096
330
F9F
100
AcDbDictionary
280
1
281
1
3
ACAD_XREC_ROUNDTRIP
360
1097
0
DICTIONARY
5
109E
330
FA3
100
AcDbDictionary
280
1
281
1
3
ACAD_XREC_ROUNDTRIP
360
109F
0
DICTIONARY
5
1090
330
F9C
100
AcDbDictionary
280
1
281
1
3
ACAD_XREC_ROUNDTRIP
360
1091
0
DICTIONARY
5
1094
330
F9E
100
AcDbDictionary
280
1
281
1
3
ACAD_XREC_ROUNDTRIP
360
1095
0
DICTIONARY
5
10A4
330
FA6
100
AcDbDictionary
280
1
281
1
3
ACAD_XREC_ROUNDTRIP
360
10A5
0
DICTIONARY
5
109C
330
FA2
100
AcDbDictionary
280
1
281
1
3
ACAD_XREC_ROUNDTRIP
360
109D
0
DICTIONARY
5
1080
330
F94
100
AcDbDictionary
280
1
281
1
3
ACAD_XREC_ROUNDTRIP
360
1081
0
DICTIONARY
5
1082
330
F95
100
AcDbDictionary
280
1
281
1
3
ACAD_XREC_ROUNDTRIP
360
1083
0
DICTIONARY
5
1084
330
F96
100
AcDbDictionary
280
1
281
1
3
ACAD_XREC_ROUNDTRIP
360
1085
0
DICTIONARY
5
1086
330
F97
100
AcDbDictionary
280
1
281
1
3
ACAD_XREC_ROUNDTRIP
360
1087
0
DICTIONARY
5
10A0
330
FA4
100
AcDbDictionary
280
1
281
1
3
ACAD_XREC_ROUNDTRIP
360
10A1
0
DICTIONARY
5
109A
330
FA1
100
AcDbDictionary
280
1
281
1
3
ACAD_XREC_ROUNDTRIP
360
109B
0
DICTIONARY
5
10A2
330
FA5
100
AcDbDictionary
280
1
281
1
3
ACAD_XREC_ROUNDTRIP
360
10A3
0
DICTIONARY
5
1092
330
F9D
100
AcDbDictionary
280
1
281
1
3
ACAD_XREC_ROUNDTRIP
360
1093
0
DICTIONARY
5
1098
330
FA0
100
AcDbDictionary
280
1
281
1
3
ACAD_XREC_ROUNDTRIP
360
1099
0
XRECORD
5
10AA
102
{ACAD_REACTORS
330
10A9
102
}
330
10A9
100
AcDbXrecord
280
1
102
SHADEPLOT
70
0
102
SHADEPLOTRESLEVEL
70
2
102
SHADEPLOTCUSTOMDPI
70
300
0
XRECORD
5
10A8
102
{ACAD_REACTORS
330
10A7
102
}
330
10A7
100
AcDbXrecord
280
1
102
SHADEPLOT
70
0
102
SHADEPLOTRESLEVEL
70
2
102
SHADEPLOTCUSTOMDPI
70
300
0
XRECORD
5
FFF
102
{ACAD_REACTORS
330
F84
102
}
330
F84
100
AcDbXrecord
280
1
102
MATERIAL
148
0.0
149
0.0
149
0.0
93
0
94
127
282
0
72
0
77
0
171
0
175
0
179
0
273
0
0
XRECORD
5
F86
102
{ACAD_REACTORS
330
F84
102
}
330
F84
100
AcDbXrecord
280
1
270
1
271
1
0
XRECORD
5
F85
102
{ACAD_REACTORS
330
F84
102
}
330
F84
100
AcDbXrecord
280
1
270
1
271
1
0
XRECORD
5
F89
102
{ACAD_REACTORS
330
F84
102
}
330
F84
100
AcDbXrecord
280
1
270
1
271
1
0
XRECORD
5
F88
102
{ACAD_REACTORS
330
F84
102
}
330
F84
100
AcDbXrecord
280
1
270
1
271
1
0
XRECORD
5
F8A
102
{ACAD_REACTORS
330
F84
102
}
330
F84
100
AcDbXrecord
280
1
270
1
271
1
0
XRECORD
5
F87
102
{ACAD_REACTORS
330
F84
102
}
330
F84
100
AcDbXrecord
280
1
270
1
271
1
0
XRECORD
5
FFE
102
{ACAD_REACTORS
330
F7C
102
}
330
F7C
100
AcDbXrecord
280
1
102
MATERIAL
148
0.0
149
0.0
149
0.0
93
0
94
127
282
0
72
0
77
0
171
0
175
0
179
0
273
0
0
XRECORD
5
F7E
102
{ACAD_REACTORS
330
F7C
102
}
330
F7C
100
AcDbXrecord
280
1
270
1
271
1
0
XRECORD
5
F7D
102
{ACAD_REACTORS
330
F7C
102
}
330
F7C
100
AcDbXrecord
280
1
270
1
271
1
0
XRECORD
5
F81
102
{ACAD_REACTORS
330
F7C
102
}
330
F7C
100
AcDbXrecord
280
1
270
1
271
1
0
XRECORD
5
F80
102
{ACAD_REACTORS
330
F7C
102
}
330
F7C
100
AcDbXrecord
280
1
270
1
271
1
0
XRECORD
5
F82
102
{ACAD_REACTORS
330
F7C
102
}
330
F7C
100
AcDbXrecord
280
1
270
1
271
1
0
XRECORD
5
F7F
102
{ACAD_REACTORS
330
F7C
102
}
330
F7C
100
AcDbXrecord
280
1
270
1
271
1
0
XRECORD
5
1000
102
{ACAD_REACTORS
330
F8C
102
}
330
F8C
100
AcDbXrecord
280
1
102
MATERIAL
148
0.0
149
0.0
149
0.0
93
0
94
127
282
0
72
0
77
0
171
0
175
0
179
0
273
0
0
XRECORD
5
F8E
102
{ACAD_REACTORS
330
F8C
102
}
330
F8C
100
AcDbXrecord
280
1
270
1
271
1
0
XRECORD
5
F8D
102
{ACAD_REACTORS
330
F8C
102
}
330
F8C
100
AcDbXrecord
280
1
270
1
271
1
0
XRECORD
5
F91
102
{ACAD_REACTORS
330
F8C
102
}
330
F8C
100
AcDbXrecord
280
1
270
1
271
1
0
XRECORD
5
F90
102
{ACAD_REACTORS
330
F8C
102
}
330
F8C
100
AcDbXrecord
280
1
270
1
271
1
0
XRECORD
5
F92
102
{ACAD_REACTORS
330
F8C
102
}
330
F8C
100
AcDbXrecord
280
1
270
1
271
1
0
XRECORD
5
F8F
102
{ACAD_REACTORS
330
F8C
102
}
330
F8C
100
AcDbXrecord
280
1
270
1
271
1
0
CELLSTYLEMAP
5
1079
102
{ACAD_REACTORS
330
FF8
102
}
330
FF8
100
AcDbCellStyleMap
90
3
300
CELLSTYLE
1
TABLEFORMAT_BEGIN
90
5
170
1
91
0
92
32768
62
257
93
1
300
CONTENTFORMAT
1
CONTENTFORMAT_BEGIN
90
0
91
0
92
512
93
0
300

40
0.0
140
1.0
94
5
62
0
340
253
144
0.25
309
CONTENTFORMAT_END
171
1
301
MARGIN
1
CELLMARGIN_BEGIN
40
0.06
40
0.06
40
0.06
40
0.06
40
0.18
40
0.18
309
CELLMARGIN_END
94
6
95
1
302
GRIDFORMAT
1
GRIDFORMAT_BEGIN
90
0
91
1
62
0
92
-2
340
0
93
0
40
0.045
309
GRIDFORMAT_END
95
2
302
GRIDFORMAT
1
GRIDFORMAT_BEGIN
90
0
91
1
62
0
92
-2
340
0
93
0
40
0.045
309
GRIDFORMAT_END
95
4
302
GRIDFORMAT
1
GRIDFORMAT_BEGIN
90
0
91
1
62
0
92
-2
340
0
93
0
40
0.045
309
GRIDFORMAT_END
95
8
302
GRIDFORMAT
1
GRIDFORMAT_BEGIN
90
0
91
1
62
0
92
-2
340
0
93
0
40
0.045
309
GRIDFORMAT_END
95
16
302
GRIDFORMAT
1
GRIDFORMAT_BEGIN
90
0
91
1
62
0
92
-2
340
0
93
0
40
0.045
309
GRIDFORMAT_END
95
32
302
GRIDFORMAT
1
GRIDFORMAT_BEGIN
90
0
91
1
62
0
92
-2
340
0
93
0
40
0.045
309
GRIDFORMAT_END
309
TABLEFORMAT_END
1
CELLSTYLE_BEGIN
90
1
91
1
300
_TITLE
309
CELLSTYLE_END
300
CELLSTYLE
1
TABLEFORMAT_BEGIN
90
5
170
1
91
0
92
0
62
257
93
1
300
CONTENTFORMAT
1
CONTENTFORMAT_BEGIN
90
0
91
0
92
512
93
0
300

40
0.0
140
1.0
94
5
62
0
340
253
144
0.18
309
CONTENTFORMAT_END
171
1
301
MARGIN
1
CELLMARGIN_BEGIN
40
0.06
40
0.06
40
0.06
40
0.06
40
0.18
40
0.18
309
CELLMARGIN_END
94
6
95
1
302
GRIDFORMAT
1
GRIDFORMAT_BEGIN
90
0
91
1
62
0
92
-2
340
0
93
0
40
0.045
309
GRIDFORMAT_END
95
2
302
GRIDFORMAT
1
GRIDFORMAT_BEGIN
90
0
91
1
62
0
92
-2
340
0
93
0
40
0.045
309
GRIDFORMAT_END
95
4
302
GRIDFORMAT
1
GRIDFORMAT_BEGIN
90
0
91
1
62
0
92
-2
340
0
93
0
40
0.045
309
GRIDFORMAT_END
95
8
302
GRIDFORMAT
1
GRIDFORMAT_BEGIN
90
0
91
1
62
0
92
-2
340
0
93
0
40
0.045
309
GRIDFORMAT_END
95
16
302
GRIDFORMAT
1
GRIDFORMAT_BEGIN
90
0
91
1
62
0
92
-2
340
0
93
0
40
0.045
309
GRIDFORMAT_END
95
32
302
GRIDFORMAT
1
GRIDFORMAT_BEGIN
90
0
91
1
62
0
92
-2
340
0
93
0
40
0.045
309
GRIDFORMAT_END
309
TABLEFORMAT_END
1
CELLSTYLE_BEGIN
90
2
91
1
300
_HEADER
309
CELLSTYLE_END
300
CELLSTYLE
1
TABLEFORMAT_BEGIN
90
5
170
1
91
0
92
0
62
257
93
1
300
CONTENTFORMAT
1
CONTENTFORMAT_BEGIN
90
0
91
0
92
512
93
0
300

40
0.0
140
1.0
94
2
62
0
340
253
144
0.18
309
CONTENTFORMAT_END
171
1
301
MARGIN
1
CELLMARGIN_BEGIN
40
0.06
40
0.06
40
0.06
40
0.06
40
0.18
40
0.18
309
CELLMARGIN_END
94
6
95
1
302
GRIDFORMAT
1
GRIDFORMAT_BEGIN
90
0
91
1
62
0
92
-2
340
0
93
0
40
0.045
309
GRIDFORMAT_END
95
2
302
GRIDFORMAT
1
GRIDFORMAT_BEGIN
90
0
91
1
62
0
92
-2
340
0
93
0
40
0.045
309
GRIDFORMAT_END
95
4
302
GRIDFORMAT
1
GRIDFORMAT_BEGIN
90
0
91
1
62
0
92
-2
340
0
93
0
40
0.045
309
GRIDFORMAT_END
95
8
302
GRIDFORMAT
1
GRIDFORMAT_BEGIN
90
0
91
1
62
0
92
-2
340
0
93
0
40
0.045
309
GRIDFORMAT_END
95
16
302
GRIDFORMAT
1
GRIDFORMAT_BEGIN
90
0
91
1
62
0
92
-2
340
0
93
0
40
0.045
309
GRIDFORMAT_END
95
32
302
GRIDFORMAT
1
GRIDFORMAT_BEGIN
90
0
91
1
62
0
92
-2
340
0
93
0
40
0.045
309
GRIDFORMAT_END
309
TABLEFORMAT_END
1
CELLSTYLE_BEGIN
90
3
91
2
300
_DATA
309
CELLSTYLE_END
0
XRECORD
5
10A6
102
{ACAD_REACTORS
330
FF8
102
}
330
FF8
100
AcDbXrecord
280
1
102
ACAD_ROUNDTRIP_PRE2007_TABLESTYLE
90
512
91
0
1

92
512
93
0
2

94
512
95
0
3

0
XRECORD
5
108B
102
{ACAD_REACTORS
330
108A
102
}
330
108A
100
AcDbXrecord
280
1
102
RTVSPropertyOp0
70
1
102
RTVSPropertyOp1
70
1
102
RTVSPropertyOp2
70
1
102
RTVSPropertyOp3
70
1
102
RTVSPropertyOp4
70
1
102
RTVSPropertyOp5
70
1
102
RTVSPropertyOp6
70
1
102
RTVSPropertyOp7
70
1
102
RTVSPropertyOp8
70
1
102
RTVSPropertyOp9
70
1
102
RTVSPropertyOp10
70
1
102
RTVSPropertyOp11
70
1
102
RTVSPropertyOp12
70
1
102
RTVSPropertyOp13
70
1
102
RTVSPropertyOp14
70
1
102
RTVSPropertyOp15
70
1
102
RTVSPropertyOp16
70
1
102
RTVSPropertyOp17
70
1
102
RTVSPropertyOp18
70
1
102
RTVSPropertyOp19
70
1
102
RTVSPropertyOp20
70
1
102
RTVSPropertyOp21
70
1
102
RTVSPropertyOp22
70
1
102
RTVSPropertyOp23
70
1
102
RTVSPropertyOp24
70
1
102
RTVSPropertyOp25
70
1
102
RTVSPropertyOp26
70
1
102
RTVSPropertyOp27
70
1
0
XRECORD
5
108F
102
{ACAD_REACTORS
330
108E
102
}
330
108E
100
AcDbXrecord
280
1
102
RTVSPropertyOp0
70
1
102
RTVSPropertyOp1
70
1
102
RTVSPropertyOp2
70
1
102
RTVSPropertyOp3
70
1
102
RTVSPropertyOp4
70
1
102
RTVSPropertyOp5
70
1
102
RTVSPropertyOp6
70
1
102
RTVSPropertyOp7
70
1
102
RTVSPropertyOp8
70
1
102
RTVSPropertyOp9
70
1
102
RTVSPropertyOp10
70
1
102
RTVSPropertyOp11
70
1
102
RTVSPropertyOp12
70
1
102
RTVSPropertyOp13
70
1
102
RTVSPropertyOp14
70
1
102
RTVSPropertyOp15
70
1
102
RTVSPropertyOp16
70
1
102
RTVSPropertyOp17
70
1
102
RTVSPropertyOp18
70
1
102
RTVSPropertyOp19
70
1
102
RTVSPropertyOp20
70
1
102
RTVSPropertyOp21
70
1
102
RTVSPropertyOp22
70
1
102
RTVSPropertyOp23
70
1
102
RTVSPropertyOp24
70
1
102
RTVSPropertyOp25
70
1
102
RTVSPropertyOp26
70
1
102
RTVSPropertyOp27
70
1
0
XRECORD
5
108D
102
{ACAD_REACTORS
330
108C
102
}
330
108C
100
AcDbXrecord
280
1
102
RTVSPropertyOp0
70
1
102
RTVSPropertyOp1
70
1
102
RTVSPropertyOp2
70
1
102
RTVSPropertyOp3
70
1
102
RTVSPropertyOp4
70
1
102
RTVSPropertyOp5
70
1
102
RTVSPropertyOp6
70
1
102
RTVSPropertyOp7
70
1
102
RTVSPropertyOp8
70
1
102
RTVSPropertyOp9
70
1
102
RTVSPropertyOp10
70
1
102
RTVSPropertyOp11
70
1
102
RTVSPropertyOp12
70
1
102
RTVSPropertyOp13
70
1
102
RTVSPropertyOp14
70
1
102
RTVSPropertyOp15
70
1
102
RTVSPropertyOp16
70
1
102
RTVSPropertyOp17
70
1
102
RTVSPropertyOp18
70
1
102
RTVSPropertyOp19
70
1
102
RTVSPropertyOp20
70
1
102
RTVSPropertyOp21
70
1
102
RTVSPropertyOp22
70
1
102
RTVSPropertyOp23
70
1
102
RTVSPropertyOp24
70
1
102
RTVSPropertyOp25
70
1
102
RTVSPropertyOp26
70
1
102
RTVSPropertyOp27
70
1
0
XRECORD
5
1089
102
{ACAD_REACTORS
330
1088
102
}
330
1088
100
AcDbXrecord
280
1
102
RTVSPropertyOp0
70
1
102
RTVSPropertyOp1
70
1
102
RTVSPropertyOp2
70
1
102
RTVSPropertyOp3
70
1
102
RTVSPropertyOp4
70
1
102
RTVSPropertyOp5
70
1
102
RTVSPropertyOp6
70
1
102
RTVSPropertyOp7
70
1
102
RTVSPropertyOp8
70
1
102
RTVSPropertyOp9
70
1
102
RTVSPropertyOp10
70
1
102
RTVSPropertyOp11
70
1
102
RTVSPropertyOp12
70
1
102
RTVSPropertyOp13
70
1
102
RTVSPropertyOp14
70
1
102
RTVSPropertyOp15
70
1
102
RTVSPropertyOp16
70
1
102
RTVSPropertyOp17
70
1
102
RTVSPropertyOp18
70
1
102
RTVSPropertyOp19
70
1
102
RTVSPropertyOp20
70
1
102
RTVSPropertyOp21
70
1
102
RTVSPropertyOp22
70
1
102
RTVSPropertyOp23
70
1
102
RTVSPropertyOp24
70
1
102
RTVSPropertyOp25
70
1
102
RTVSPropertyOp26
70
1
102
RTVSPropertyOp27
70
1
0
XRECORD
5
1097
102
{ACAD_REACTORS
330
1096
102
}
330
1096
100
AcDbXrecord
280
1
102
RTVSPropertyOp0
70
1
102
RTVSPropertyOp1
70
1
102
RTVSPropertyOp2
70
1
102
RTVSPropertyOp3
70
1
102
RTVSPropertyOp4
70
1
102
RTVSPropertyOp5
70
1
102
RTVSPropertyOp6
70
1
102
RTVSPropertyOp7
70
1
102
RTVSPropertyOp8
70
1
102
RTVSPropertyOp9
70
1
102
RTVSPropertyOp10
70
1
102
RTVSPropertyOp11
70
1
102
RTVSPropertyOp12
70
1
102
RTVSPropertyOp13
70
1
102
RTVSPropertyOp14
70
1
102
RTVSPropertyOp15
70
1
102
RTVSPropertyOp16
70
1
102
RTVSPropertyOp17
70
1
102
RTVSPropertyOp18
70
1
102
RTVSPropertyOp19
70
1
102
RTVSPropertyOp20
70
1
102
RTVSPropertyOp21
70
1
102
RTVSPropertyOp22
70
1
102
RTVSPropertyOp23
70
1
102
RTVSPropertyOp24
70
1
102
RTVSPropertyOp25
70
1
102
RTVSPropertyOp26
70
1
102
RTVSPropertyOp27
70
1
0
XRECORD
5
109F
102
{ACAD_REACTORS
330
109E
102
}
330
109E
100
AcDbXrecord
280
1
102
RTVSPropertyOp0
70
1
102
RTVSPropertyOp1
70
1
102
RTVSPropertyOp2
70
1
102
RTVSPropertyOp3
70
1
102
RTVSPropertyOp4
70
1
102
RTVSPropertyOp5
70
1
102
RTVSPropertyOp6
70
1
102
RTVSPropertyOp7
70
1
102
RTVSPropertyOp8
70
1
102
RTVSPropertyOp9
70
1
102
RTVSPropertyOp10
70
1
102
RTVSPropertyOp11
70
1
102
RTVSPropertyOp12
70
1
102
RTVSPropertyOp13
70
1
102
RTVSPropertyOp14
70
1
102
RTVSPropertyOp15
70
1
102
RTVSPropertyOp16
70
1
102
RTVSPropertyOp17
70
1
102
RTVSPropertyOp18
70
1
102
RTVSPropertyOp19
70
1
102
RTVSPropertyOp20
70
1
102
RTVSPropertyOp21
70
1
102
RTVSPropertyOp22
70
1
102
RTVSPropertyOp23
70
1
102
RTVSPropertyOp24
70
1
102
RTVSPropertyOp25
70
1
102
RTVSPropertyOp26
70
1
102
RTVSPropertyOp27
70
1
0
XRECORD
5
1091
102
{ACAD_REACTORS
330
1090
102
}
330
1090
100
AcDbXrecord
280
1
102
RTVSPropertyOp0
70
1
102
RTVSPropertyOp1
70
1
102
RTVSPropertyOp2
70
1
102
RTVSPropertyOp3
70
1
102
RTVSPropertyOp4
70
1
102
RTVSPropertyOp5
70
1
102
RTVSPropertyOp6
70
1
102
RTVSPropertyOp7
70
1
102
RTVSPropertyOp8
70
1
102
RTVSPropertyOp9
70
1
102
RTVSPropertyOp10
70
1
102
RTVSPropertyOp11
70
1
102
RTVSPropertyOp12
70
1
102
RTVSPropertyOp13
70
1
102
RTVSPropertyOp14
70
1
102
RTVSPropertyOp15
70
1
102
RTVSPropertyOp16
70
1
102
RTVSPropertyOp17
70
1
102
RTVSPropertyOp18
70
1
102
RTVSPropertyOp19
70
1
102
RTVSPropertyOp20
70
1
102
RTVSPropertyOp21
70
1
102
RTVSPropertyOp22
70
1
102
RTVSPropertyOp23
70
1
102
RTVSPropertyOp24
70
1
102
RTVSPropertyOp25
70
1
102
RTVSPropertyOp26
70
1
102
RTVSPropertyOp27
70
1
0
XRECORD
5
1095
102
{ACAD_REACTORS
330
1094
102
}
330
1094
100
AcDbXrecord
280
1
102
RTVSPropertyOp0
70
1
102
RTVSPropertyOp1
70
1
102
RTVSPropertyOp2
70
1
102
RTVSPropertyOp3
70
1
102
RTVSPropertyOp4
70
1
102
RTVSPropertyOp5
70
1
102
RTVSPropertyOp6
70
1
102
RTVSPropertyOp7
70
1
102
RTVSPropertyOp8
70
1
102
RTVSPropertyOp9
70
1
102
RTVSPropertyOp10
70
1
102
RTVSPropertyOp11
70
1
102
RTVSPropertyOp12
70
1
102
RTVSPropertyOp13
70
1
102
RTVSPropertyOp14
70
1
102
RTVSPropertyOp15
70
1
102
RTVSPropertyOp16
70
1
102
RTVSPropertyOp17
70
1
102
RTVSPropertyOp18
70
1
102
RTVSPropertyOp19
70
1
102
RTVSPropertyOp20
70
1
102
RTVSPropertyOp21
70
1
102
RTVSPropertyOp22
70
1
102
RTVSPropertyOp23
70
1
102
RTVSPropertyOp24
70
1
102
RTVSPropertyOp25
70
1
102
RTVSPropertyOp26
70
1
102
RTVSPropertyOp27
70
1
0
XRECORD
5
10A5
102
{ACAD_REACTORS
330
10A4
102
}
330
10A4
100
AcDbXrecord
280
1
102
RTVSPropertyOp0
70
0
102
RTVSPropertyOp1
70
0
102
RTVSPropertyOp2
70
0
102
RTVSPropertyOp3
70
0
102
RTVSPropertyOp4
70
0
102
RTVSPropertyOp5
70
0
102
RTVSPropertyOp6
70
0
102
RTVSPropertyOp7
70
0
102
RTVSPropertyOp8
70
0
102
RTVSPropertyOp9
70
0
102
RTVSPropertyOp10
70
0
102
RTVSPropertyOp11
70
0
102
RTVSPropertyOp12
70
0
102
RTVSPropertyOp13
70
0
102
RTVSPropertyOp14
70
2
102
RTVSPropertyOp15
70
0
102
RTVSPropertyOp16
70
0
102
RTVSPropertyOp17
70
0
102
RTVSPropertyOp18
70
0
102
RTVSPropertyOp19
70
0
102
RTVSPropertyOp20
70
0
102
RTVSPropertyOp21
70
0
102
RTVSPropertyOp22
70
0
102
RTVSPropertyOp23
70
0
102
RTVSPropertyOp24
70
0
102
RTVSPropertyOp25
70
0
102
RTVSPropertyOp26
70
0
102
RTVSPropertyOp27
70
0
0
XRECORD
5
109D
102
{ACAD_REACTORS
330
109C
102
}
330
109C
100
AcDbXrecord
280
1
102
RTVSPropertyOp0
70
1
102
RTVSPropertyOp1
70
1
102
RTVSPropertyOp2
70
1
102
RTVSPropertyOp3
70
1
102
RTVSPropertyOp4
70
1
102
RTVSPropertyOp5
70
1
102
RTVSPropertyOp6
70
1
102
RTVSPropertyOp7
70
1
102
RTVSPropertyOp8
70
1
102
RTVSPropertyOp9
70
1
102
RTVSPropertyOp10
70
1
102
RTVSPropertyOp11
70
1
102
RTVSPropertyOp12
70
1
102
RTVSPropertyOp13
70
1
102
RTVSPropertyOp14
70
1
102
RTVSPropertyOp15
70
1
102
RTVSPropertyOp16
70
1
102
RTVSPropertyOp17
70
1
102
RTVSPropertyOp18
70
1
102
RTVSPropertyOp19
70
1
102
RTVSPropertyOp20
70
1
102
RTVSPropertyOp21
70
1
102
RTVSPropertyOp22
70
1
102
RTVSPropertyOp23
70
1
102
RTVSPropertyOp24
70
1
102
RTVSPropertyOp25
70
1
102
RTVSPropertyOp26
70
1
102
RTVSPropertyOp27
70
1
0
XRECORD
5
1081
102
{ACAD_REACTORS
330
1080
102
}
330
1080
100
AcDbXrecord
280
1
102
RTVSPropertyOp0
70
1
102
RTVSPropertyOp1
70
1
102
RTVSPropertyOp2
70
1
102
RTVSPropertyOp3
70
1
102
RTVSPropertyOp4
70
1
102
RTVSPropertyOp5
70
1
102
RTVSPropertyOp6
70
1
102
RTVSPropertyOp7
70
1
102
RTVSPropertyOp8
70
1
102
RTVSPropertyOp9
70
1
102
RTVSPropertyOp10
70
1
102
RTVSPropertyOp11
70
1
102
RTVSPropertyOp12
70
1
102
RTVSPropertyOp13
70
1
102
RTVSPropertyOp14
70
1
102
RTVSPropertyOp15
70
1
102
RTVSPropertyOp16
70
1
102
RTVSPropertyOp17
70
1
102
RTVSPropertyOp18
70
1
102
RTVSPropertyOp19
70
1
102
RTVSPropertyOp20
70
1
102
RTVSPropertyOp21
70
1
102
RTVSPropertyOp22
70
1
102
RTVSPropertyOp23
70
1
102
RTVSPropertyOp24
70
1
102
RTVSPropertyOp25
70
1
102
RTVSPropertyOp26
70
1
102
RTVSPropertyOp27
70
1
0
XRECORD
5
1083
102
{ACAD_REACTORS
330
1082
102
}
330
1082
100
AcDbXrecord
280
1
102
RTVSPropertyOp0
70
1
102
RTVSPropertyOp1
70
1
102
RTVSPropertyOp2
70
1
102
RTVSPropertyOp3
70
1
102
RTVSPropertyOp4
70
1
102
RTVSPropertyOp5
70
1
102
RTVSPropertyOp6
70
1
102
RTVSPropertyOp7
70
1
102
RTVSPropertyOp8
70
1
102
RTVSPropertyOp9
70
1
102
RTVSPropertyOp10
70
1
102
RTVSPropertyOp11
70
1
102
RTVSPropertyOp12
70
1
102
RTVSPropertyOp13
70
1
102
RTVSPropertyOp14
70
1
102
RTVSPropertyOp15
70
1
102
RTVSPropertyOp16
70
1
102
RTVSPropertyOp17
70
1
102
RTVSPropertyOp18
70
1
102
RTVSPropertyOp19
70
1
102
RTVSPropertyOp20
70
1
102
RTVSPropertyOp21
70
1
102
RTVSPropertyOp22
70
1
102
RTVSPropertyOp23
70
1
102
RTVSPropertyOp24
70
1
102
RTVSPropertyOp25
70
1
102
RTVSPropertyOp26
70
1
102
RTVSPropertyOp27
70
1
0
XRECORD
5
1085
102
{ACAD_REACTORS
330
1084
102
}
330
1084
100
AcDbXrecord
280
1
102
RTVSPropertyOp0
70
1
102
RTVSPropertyOp1
70
1
102
RTVSPropertyOp2
70
1
102
RTVSPropertyOp3
70
1
102
RTVSPropertyOp4
70
1
102
RTVSPropertyOp5
70
1
102
RTVSPropertyOp6
70
1
102
RTVSPropertyOp7
70
1
102
RTVSPropertyOp8
70
1
102
RTVSPropertyOp9
70
1
102
RTVSPropertyOp10
70
1
102
RTVSPropertyOp11
70
1
102
RTVSPropertyOp12
70
1
102
RTVSPropertyOp13
70
1
102
RTVSPropertyOp14
70
1
102
RTVSPropertyOp15
70
1
102
RTVSPropertyOp16
70
1
102
RTVSPropertyOp17
70
1
102
RTVSPropertyOp18
70
1
102
RTVSPropertyOp19
70
1
102
RTVSPropertyOp20
70
1
102
RTVSPropertyOp21
70
1
102
RTVSPropertyOp22
70
1
102
RTVSPropertyOp23
70
1
102
RTVSPropertyOp24
70
1
102
RTVSPropertyOp25
70
1
102
RTVSPropertyOp26
70
1
102
RTVSPropertyOp27
70
1
0
XRECORD
5
1087
102
{ACAD_REACTORS
330
1086
102
}
330
1086
100
AcDbXrecord
280
1
102
RTVSPropertyOp0
70
1
102
RTVSPropertyOp1
70
1
102
RTVSPropertyOp2
70
1
102
RTVSPropertyOp3
70
1
102
RTVSPropertyOp4
70
1
102
RTVSPropertyOp5
70
1
102
RTVSPropertyOp6
70
1
102
RTVSPropertyOp7
70
1
102
RTVSPropertyOp8
70
1
102
RTVSPropertyOp9
70
1
102
RTVSPropertyOp10
70
1
102
RTVSPropertyOp11
70
1
102
RTVSPropertyOp12
70
1
102
RTVSPropertyOp13
70
1
102
RTVSPropertyOp14
70
1
102
RTVSPropertyOp15
70
1
102
RTVSPropertyOp16
70
1
102
RTVSPropertyOp17
70
1
102
RTVSPropertyOp18
70
1
102
RTVSPropertyOp19
70
1
102
RTVSPropertyOp20
70
1
102
RTVSPropertyOp21
70
1
102
RTVSPropertyOp22
70
1
102
RTVSPropertyOp23
70
1
102
RTVSPropertyOp24
70
1
102
RTVSPropertyOp25
70
1
102
RTVSPropertyOp26
70
1
102
RTVSPropertyOp27
70
1
0
XRECORD
5
10A1
102
{ACAD_REACTORS
330
10A0
102
}
330
10A0
100
AcDbXrecord
280
1
102
RTVSPropertyOp0
70
0
102
RTVSPropertyOp1
70
0
102
RTVSPropertyOp2
70
0
102
RTVSPropertyOp3
70
0
102
RTVSPropertyOp4
70
0
102
RTVSPropertyOp5
70
0
102
RTVSPropertyOp6
70
0
102
RTVSPropertyOp7
70
0
102
RTVSPropertyOp8
70
0
102
RTVSPropertyOp9
70
0
102
RTVSPropertyOp10
70
0
102
RTVSPropertyOp11
70
0
102
RTVSPropertyOp12
70
0
102
RTVSPropertyOp13
70
0
102
RTVSPropertyOp14
70
2
102
RTVSPropertyOp15
70
0
102
RTVSPropertyOp16
70
0
102
RTVSPropertyOp17
70
0
102
RTVSPropertyOp18
70
0
102
RTVSPropertyOp19
70
0
102
RTVSPropertyOp20
70
0
102
RTVSPropertyOp21
70
0
102
RTVSPropertyOp22
70
0
102
RTVSPropertyOp23
70
0
102
RTVSPropertyOp24
70
0
102
RTVSPropertyOp25
70
0
102
RTVSPropertyOp26
70
0
102
RTVSPropertyOp27
70
0
0
XRECORD
5
109B
102
{ACAD_REACTORS
330
109A
102
}
330
109A
100
AcDbXrecord
280
1
102
RTVSPropertyOp0
70
1
102
RTVSPropertyOp1
70
1
102
RTVSPropertyOp2
70
1
102
RTVSPropertyOp3
70
1
102
RTVSPropertyOp4
70
1
102
RTVSPropertyOp5
70
1
102
RTVSPropertyOp6
70
1
102
RTVSPropertyOp7
70
1
102
RTVSPropertyOp8
70
1
102
RTVSPropertyOp9
70
1
102
RTVSPropertyOp10
70
1
102
RTVSPropertyOp11
70
1
102
RTVSPropertyOp12
70
1
102
RTVSPropertyOp13
70
1
102
RTVSPropertyOp14
70
1
102
RTVSPropertyOp15
70
1
102
RTVSPropertyOp16
70
1
102
RTVSPropertyOp17
70
1
102
RTVSPropertyOp18
70
1
102
RTVSPropertyOp19
70
1
102
RTVSPropertyOp20
70
1
102
RTVSPropertyOp21
70
1
102
RTVSPropertyOp22
70
1
102
RTVSPropertyOp23
70
1
102
RTVSPropertyOp24
70
1
102
RTVSPropertyOp25
70
1
102
RTVSPropertyOp26
70
1
102
RTVSPropertyOp27
70
1
0
XRECORD
5
10A3
102
{ACAD_REACTORS
330
10A2
102
}
330
10A2
100
AcDbXrecord
280
1
102
RTVSPropertyOp0
70
0
102
RTVSPropertyOp1
70
0
102
RTVSPropertyOp2
70
0
102
RTVSPropertyOp3
70
0
102
RTVSPropertyOp4
70
0
102
RTVSPropertyOp5
70
0
102
RTVSPropertyOp6
70
0
102
RTVSPropertyOp7
70
0
102
RTVSPropertyOp8
70
0
102
RTVSPropertyOp9
70
0
102
RTVSPropertyOp10
70
0
102
RTVSPropertyOp11
70
0
102
RTVSPropertyOp12
70
0
102
RTVSPropertyOp13
70
0
102
RTVSPropertyOp14
70
2
102
RTVSPropertyOp15
70
0
102
RTVSPropertyOp16
70
0
102
RTVSPropertyOp17
70
0
102
RTVSPropertyOp18
70
0
102
RTVSPropertyOp19
70
0
102
RTVSPropertyOp20
70
0
102
RTVSPropertyOp21
70
0
102
RTVSPropertyOp22
70
0
102
RTVSPropertyOp23
70
0
102
RTVSPropertyOp24
70
0
102
RTVSPropertyOp25
70
0
102
RTVSPropertyOp26
70
0
102
RTVSPropertyOp27
70
0
0
XRECORD
5
1093
102
{ACAD_REACTORS
330
1092
102
}
330
1092
100
AcDbXrecord
280
1
102
RTVSPropertyOp0
70
1
102
RTVSPropertyOp1
70
1
102
RTVSPropertyOp2
70
1
102
RTVSPropertyOp3
70
1
102
RTVSPropertyOp4
70
1
102
RTVSPropertyOp5
70
1
102
RTVSPropertyOp6
70
1
102
RTVSPropertyOp7
70
1
102
RTVSPropertyOp8
70
1
102
RTVSPropertyOp9
70
1
102
RTVSPropertyOp10
70
1
102
RTVSPropertyOp11
70
1
102
RTVSPropertyOp12
70
1
102
RTVSPropertyOp13
70
1
102
RTVSPropertyOp14
70
1
102
RTVSPropertyOp15
70
1
102
RTVSPropertyOp16
70
1
102
RTVSPropertyOp17
70
1
102
RTVSPropertyOp18
70
1
102
RTVSPropertyOp19
70
1
102
RTVSPropertyOp20
70
1
102
RTVSPropertyOp21
70
1
102
RTVSPropertyOp22
70
1
102
RTVSPropertyOp23
70
1
102
RTVSPropertyOp24
70
1
102
RTVSPropertyOp25
70
1
102
RTVSPropertyOp26
70
1
102
RTVSPropertyOp27
70
1
0
XRECORD
5
1099
102
{ACAD_REACTORS
330
1098
102
}
330
1098
100
AcDbXrecord
280
1
102
RTVSPropertyOp0
70
1
102
RTVSPropertyOp1
70
1
102
RTVSPropertyOp2
70
1
102
RTVSPropertyOp3
70
1
102
RTVSPropertyOp4
70
1
102
RTVSPropertyOp5
70
1
102
RTVSPropertyOp6
70
1
102
RTVSPropertyOp7
70
1
102
RTVSPropertyOp8
70
1
102
RTVSPropertyOp9
70
1
102
RTVSPropertyOp10
70
1
102
RTVSPropertyOp11
70
1
102
RTVSPropertyOp12
70
1
102
RTVSPropertyOp13
70
1
102
RTVSPropertyOp14
70
1
102
RTVSPropertyOp15
70
1
102
RTVSPropertyOp16
70
1
102
RTVSPropertyOp17
70
1
102
RTVSPropertyOp18
70
1
102
RTVSPropertyOp19
70
1
102
RTVSPropertyOp20
70
1
102
RTVSPropertyOp21
70
1
102
RTVSPropertyOp22
70
1
102
RTVSPropertyOp23
70
1
102
RTVSPropertyOp24
70
1
102
RTVSPropertyOp25
70
1
102
RTVSPropertyOp26
70
1
102
RTVSPropertyOp27
70
1
0
ENDSEC
0
EOF
